  0
SECTION
  2
HEADER
  9
$ACADVER
  1
AC1009
  9
$INSBASE
 10
0.0
 20
0.0
 30
0.0
  9
$EXTMIN
 10
16688.880772888911
 20
13803.51971141118
 30
0.0
  9
$EXTMAX
 10
29288.880772888911
 20
31503.51971141118
 30
0.0
  9
$LIMMIN
 10
0.0
 20
0.0
  9
$LIMMAX
 10
297.0
 20
210.0
  9
$ORTHOMODE
 70
     0
  9
$REGENMODE
 70
     1
  9
$FILLMODE
 70
     1
  9
$QTEXTMODE
 70
     0
  9
$MIRRTEXT
 70
     0
  9
$DRAGMODE
 70
     2
  9
$LTSCALE
 40
200.0
  9
$OSMODE
 70
    37
  9
$ATTMODE
 70
     1
  9
$TEXTSIZE
 40
150.0
  9
$TRACEWID
 40
0.05
  9
$TEXTSTYLE
  7
STANDARD
  9
$CLAYER
  8
SP
  9
$CELTYPE
  6
BYLAYER
  9
$CECOLOR
 62
   256
  9
$DIMSCALE
 40
40.0
  9
$DIMASZ
 40
2.0
  9
$DIMEXO
 40
1.0
  9
$DIMDLI
 40
10.0
  9
$DIMRND
 40
0.0
  9
$DIMDLE
 40
0.0
  9
$DIMEXE
 40
1.0
  9
$DIMTP
 40
0.0
  9
$DIMTM
 40
0.0
  9
$DIMTXT
 40
3.0
  9
$DIMCEN
 40
0.0
  9
$DIMTSZ
 40
0.0
  9
$DIMTOL
 70
     0
  9
$DIMLIM
 70
     0
  9
$DIMTIH
 70
     0
  9
$DIMTOH
 70
     0
  9
$DIMSE1
 70
     0
  9
$DIMSE2
 70
     0
  9
$DIMTAD
 70
     1
  9
$DIMZIN
 70
     8
  9
$DIMBLK
  1

  9
$DIMASO
 70
     1
  9
$DIMSHO
 70
     1
  9
$DIMPOST
  1

  9
$DIMAPOST
  1

  9
$DIMALT
 70
     0
  9
$DIMALTD
 70
     2
  9
$DIMALTF
 40
0.03937
  9
$DIMLFAC
 40
1.0
  9
$DIMTOFL
 70
     1
  9
$DIMTVP
 40
0.0
  9
$DIMTIX
 70
     0
  9
$DIMSOXD
 70
     0
  9
$DIMSAH
 70
     1
  9
$DIMBLK1
  1
OPEN
  9
$DIMBLK2
  1
OPEN
  9
$DIMSTYLE
  2
MATSU
  9
$DIMCLRD
 70
   256
  9
$DIMCLRE
 70
   256
  9
$DIMCLRT
 70
   256
  9
$DIMTFAC
 40
1.0
  9
$DIMGAP
 40
0.5
  9
$LUNITS
 70
     2
  9
$LUPREC
 70
     3
  9
$SKETCHINC
 40
0.1
  9
$FILLETRAD
 40
7.0
  9
$AUNITS
 70
     0
  9
$AUPREC
 70
     2
  9
$MENU
  1
acad
  9
$ELEVATION
 40
0.0
  9
$PELEVATION
 40
0.0
  9
$THICKNESS
 40
0.0
  9
$LIMCHECK
 70
     0
  9
$BLIPMODE
 70
     0
  9
$CHAMFERA
 40
0.0
  9
$CHAMFERB
 40
0.0
  9
$SKPOLY
 70
     0
  9
$TDCREATE
 40
2451593.4082031241
  9
$TDUPDATE
 40
2454953.6509848721
  9
$TDINDWG
 40
0.5334531829
  9
$TDUSRTIMER
 40
0.5334531829
  9
$USRTIMER
 70
     1
  9
$ANGBASE
 50
0.0
  9
$ANGDIR
 70
     0
  9
$PDMODE
 70
     0
  9
$PDSIZE
 40
1.0
  9
$PLINEWID
 40
0.0
  9
$COORDS
 70
     1
  9
$SPLFRAME
 70
     0
  9
$SPLINETYPE
 70
     6
  9
$SPLINESEGS
 70
     8
  9
$ATTDIA
 70
     0
  9
$ATTREQ
 70
     1
  9
$HANDLING
 70
 10241
  9
$HANDSEED
  5
23A5
  9
$SURFTAB1
 70
     6
  9
$SURFTAB2
 70
     6
  9
$SURFTYPE
 70
     6
  9
$SURFU
 70
     6
  9
$SURFV
 70
     6
  9
$UCSNAME
  2

  9
$UCSORG
 10
0.0
 20
0.0
 30
0.0
  9
$UCSXDIR
 10
1.0
 20
0.0
 30
0.0
  9
$UCSYDIR
 10
0.0
 20
1.0
 30
0.0
  9
$PUCSNAME
  2

  9
$PUCSORG
 10
0.0
 20
0.0
 30
0.0
  9
$PUCSXDIR
 10
1.0
 20
0.0
 30
0.0
  9
$PUCSYDIR
 10
0.0
 20
1.0
 30
0.0
  9
$USERI1
 70
     0
  9
$USERI2
 70
     0
  9
$USERI3
 70
     0
  9
$USERI4
 70
     0
  9
$USERI5
 70
     0
  9
$USERR1
 40
0.0
  9
$USERR2
 40
0.0
  9
$USERR3
 40
0.0
  9
$USERR4
 40
0.0
  9
$USERR5
 40
0.0
  9
$WORLDVIEW
 70
     1
  9
$SHADEDGE
 70
     3
  9
$SHADEDIF
 70
    70
  9
$TILEMODE
 70
     1
  9
$MAXACTVP
 70
    16
  9
$PLIMCHECK
 70
     0
  9
$PEXTMIN
 10
1.0000000000000000E+020
 20
1.0000000000000000E+020
 30
1.0000000000000000E+020
  9
$PEXTMAX
 10
-1.0000000000000000E+020
 20
-1.0000000000000000E+020
 30
-1.0000000000000000E+020
  9
$PLIMMIN
 10
0.0
 20
0.0
  9
$PLIMMAX
 10
12.0
 20
9.0
  9
$UNITMODE
 70
     0
  9
$VISRETAIN
 70
     0
  9
$PLINEGEN
 70
     0
  9
$PSLTSCALE
 70
     0
  0
ENDSEC
  0
SECTION
  2
TABLES
  0
TABLE
  2
VPORT
 70
     2
  0
VPORT
  2
*ACTIVE
 70
     0
 10
0.0
 20
0.0
 11
1.0
 21
1.0
 12
28987.92308718375
 22
15773.131309371671
 13
0.0
 23
0.0
 14
5.0
 24
5.0
 15
0.0
 25
0.0
 16
0.0
 26
0.0
 36
1.0
 17
0.0
 27
0.0
 37
0.0
 40
5730.7747159663859
 41
3.1666666666666661
 42
50.0
 43
0.0
 44
0.0
 50
0.0
 51
0.0
 71
     0
 72
   100
 73
     1
 74
     0
 75
     0
 76
     0
 77
     0
 78
     0
  0
ENDTAB
  0
TABLE
  2
LTYPE
 70
     4
  0
LTYPE
  2
CONTINUOUS
 70
     0
  3
Solid line
 72
    65
 73
     0
 40
0.0
  0
LTYPE
  2
CENTER
 70
     0
  3
____ _ ____ _ ____ _ ____ _ ____ _ ____ _ ____ 
 72
    65
 73
     4
 40
2.0
 49
1.25
 49
-0.25
 49
0.25
 49
-0.25
  0
LTYPE
  2
HIDDEN
 70
     0
  3
__ __ __ __ __ __ __ __ __ __ __ __ __ __ __ __
 72
    65
 73
     2
 40
0.375
 49
0.25
 49
-0.125
  0
LTYPE
  2
PHANTOM
 70
     0
  3
______  __  __  ______  __  __  ______  __  __ 
 72
    65
 73
     6
 40
2.5
 49
1.25
 49
-0.25
 49
0.25
 49
-0.25
 49
0.25
 49
-0.25
  0
ENDTAB
  0
TABLE
  2
LAYER
 70
    10
  0
LAYER
  2
0
 70
     0
 62
     7
  6
CONTINUOUS
  0
LAYER
  2
CT
 70
     0
 62
     3
  6
CENTER
  0
LAYER
  2
FUTO
 70
     0
 62
     4
  6
CONTINUOUS
  0
LAYER
  2
HOSO
 70
     0
 62
     7
  6
CONTINUOUS
  0
LAYER
  2
KL
 70
     0
 62
     7
  6
HIDDEN
  0
LAYER
  2
SL
 70
     0
 62
     1
  6
PHANTOM
  0
LAYER
  2
SP
 70
     0
 62
     2
  6
CONTINUOUS
  0
LAYER
  2
1
 70
     0
 62
     7
  6
CONTINUOUS
  0
LAYER
  2
DEFPOINTS
 70
     0
 62
     7
  6
CONTINUOUS
  0
LAYER
  2
4
 70
     0
 62
     7
  6
CONTINUOUS
  0
ENDTAB
  0
TABLE
  2
STYLE
 70
     1
  0
STYLE
  2
STANDARD
 70
     0
 40
0.0
 41
1.0
 50
15.0
 71
     0
 42
150.0
  3
C:\Program Files\AutoCAD LT\simplex.shx
  4
bigfont.shx
  0
ENDTAB
  0
TABLE
  2
VIEW
 70
     0
  0
ENDTAB
  0
TABLE
  2
UCS
 70
     0
  0
ENDTAB
  0
TABLE
  2
APPID
 70
     2
  0
APPID
  2
ACAD
 70
     0
  0
APPID
  2
CONTENTBLOCKICON
 70
     0
  0
ENDTAB
  0
TABLE
  2
DIMSTYLE
 70
     2
  0
DIMSTYLE
  2
MATSU
 70
     0
  3

  4

  5

  6
OPEN
  7
OPEN
 40
1.0
 41
2.0
 42
1.0
 43
10.0
 44
1.0
 45
0.0
 46
0.0
 47
0.0
 48
0.0
140
3.0
141
0.0
142
0.0
143
0.03937
144
1.0
145
0.0
146
1.0
147
0.5
 71
     0
 72
     0
 73
     0
 74
     0
 75
     0
 76
     0
 77
     1
 78
     8
170
     0
171
     2
172
     1
173
     1
174
     0
175
     0
176
   256
177
   256
178
   256
  0
DIMSTYLE
  2
STANDARD
 70
     0
  3

  4

  5

  6

  7

 40
1.0
 41
0.18
 42
0.0625
 43
0.38
 44
0.18
 45
0.0
 46
0.0
 47
0.0
 48
0.0
140
0.18
141
0.09
142
0.0
143
25.399999999999999
144
1.0
145
0.0
146
1.0
147
0.09
 71
     0
 72
     0
 73
     1
 74
     1
 75
     0
 76
     0
 77
     0
 78
     0
170
     0
171
     2
172
     0
173
     0
174
     0
175
     0
176
     0
177
     0
178
     0
  0
ENDTAB
  0
ENDSEC
  0
SECTION
  2
BLOCKS
  0
BLOCK
  8
0
  2
$MODEL_SPACE
 70
     0
 10
0.0
 20
0.0
 30
0.0
  3
$MODEL_SPACE
  1

  0
ENDBLK
  5
7
  8
0
  0
BLOCK
 67
     1
  8
0
  2
$PAPER_SPACE
 70
     0
 10
0.0
 20
0.0
 30
0.0
  3
$PAPER_SPACE
  1

  0
ENDBLK
  5
A
 67
     1
  8
0
  0
BLOCK
  8
0
  2
_OPEN
 70
     0
 10
0.0
 20
0.0
 30
0.0
  3
_OPEN
  1

  0
LINE
  5
27
  8
0
  6
BYBLOCK
 62
     0
 10
-1.0
 20
0.1666666666666666
 30
0.0
 11
0.0
 21
0.0
 31
0.0
  0
LINE
  5
28
  8
0
  6
BYBLOCK
 62
     0
 10
0.0
 20
0.0
 30
0.0
 11
-1.0
 21
-0.1666666666666666
 31
0.0
  0
LINE
  5
29
  8
0
  6
BYBLOCK
 62
     0
 10
0.0
 20
0.0
 30
0.0
 11
-1.0
 21
0.0
 31
0.0
  0
ENDBLK
  5
2B
  8
0
  0
BLOCK
  8
0
  2
_DOT
 70
     0
 10
0.0
 20
0.0
 30
0.0
  3
_DOT
  1

  0
POLYLINE
  5
DB
  8
0
  6
BYBLOCK
 62
     0
 66
     1
 10
0.0
 20
0.0
 30
0.0
 70
     1
 40
0.25
 41
0.25
  0
VERTEX
  5
237F
  8
0
  6
BYBLOCK
 62
     0
 10
-0.125
 20
0.0
 30
0.0
 42
1.0
  0
VERTEX
  5
2380
  8
0
  6
BYBLOCK
 62
     0
 10
0.125
 20
0.0
 30
0.0
 42
1.0
  0
SEQEND
  5
2381
  8
0
  6
BYBLOCK
 62
     0
  0
LINE
  5
DF
  8
0
  6
BYBLOCK
 62
     0
 10
-0.25
 20
0.0
 30
0.0
 11
-1.0
 21
0.0
 31
0.0
  0
ENDBLK
  5
E1
  8
0
  0
BLOCK
  8
0
  2
まっすぐの矢印
 70
     0
 10
0.0
 20
0.0
 30
0.0
  3
まっすぐの矢印
  1

  0
LINE
  5
8C
  8
SP
 10
13.01863531255526
 20
-41.453946163708451
 30
0.0
 11
13.01863531255526
 21
-93.495696758840026
 31
0.0
  0
LINE
  5
8D
  8
SP
 10
13.01863531255526
 20
-93.495696758840026
 30
0.0
 11
-13.01863531255526
 21
-93.495696758840026
 31
0.0
  0
LINE
  5
8E
  8
SP
 10
-13.01863531255526
 20
-93.495696758840026
 30
0.0
 11
-13.01863531255526
 21
-41.453946163708451
 31
0.0
  0
LINE
  5
8F
  8
SP
 10
-13.01863531255526
 20
-41.453946163708451
 30
0.0
 11
-32.06015471115802
 21
-41.453946163708451
 31
0.0
  0
LINE
  5
90
  8
SP
 10
-32.06015471115802
 20
-41.453946163708451
 30
0.0
 11
0.0
 21
0.0
 31
0.0
  0
LINE
  5
91
  8
SP
 10
0.0
 20
0.0
 30
0.0
 11
32.06015471115802
 21
-41.453946163708451
 31
0.0
  0
LINE
  5
92
  8
SP
 10
32.06015471115802
 20
-41.453946163708451
 30
0.0
 11
13.01863531255526
 21
-41.453946163708451
 31
0.0
  0
ENDBLK
  5
94
  8
0
  0
BLOCK
  8
0
  2
左回転矢印
 70
     0
 10
0.0
 20
0.0
 30
0.0
  3
左回転矢印
  1

  0
LINE
  5
2C7
  8
SP
 10
43.930449171819873
 20
24.859487323637271
 30
0.0
 11
38.511878498580238
 21
44.478978865188871
 31
0.0
  0
LINE
  5
2C8
  8
SP
 10
38.511878498580238
 20
44.478978865188871
 30
0.0
 11
0.0
 21
0.0
 31
0.0
  0
LINE
  5
2C9
  8
SP
 10
0.0
 20
0.0
 30
0.0
 11
52.57968174421967
 21
-6.4575435924972453
 31
0.0
  0
LINE
  5
2CA
  8
SP
 10
52.57968174421967
 20
-6.4575435924972453
 30
0.0
 11
48.189912989015284
 21
9.436875093862227
 31
0.0
  0
ARC
  5
2CB
  8
SP
 10
93.893649146691985
 20
-156.0466295121104
 30
0.0
 40
171.67883327727239
 50
67.881388989212894
 51
105.4392492786835
  0
LINE
  5
2CC
  8
SP
 10
158.53505643637521
 20
2.997736182040398
 30
0.0
 11
164.55945966006539
 21
17.820238190756751
 31
0.0
  0
ARC
  5
2CD
  8
SP
 10
93.893649146692198
 20
-156.04662951211091
 30
0.0
 40
187.67883327727299
 50
67.881388989212994
 51
105.4392492786836
  0
ENDBLK
  5
2CF
  8
0
  0
BLOCK
  8
0
  2
*D4
 70
     1
 10
0.0
 20
0.0
 30
0.0
  3
*D4
  1

  0
LINE
  5
2372
  8
SP
 10
22516.106388399519
 20
18922.42499394789
 30
0.0
 11
23165.515477605109
 21
18922.42499394789
 31
0.0
  0
LINE
  5
2373
  8
SP
 10
23125.515477605109
 20
19142.42499394789
 30
0.0
 11
23125.515477605109
 21
19222.42499394789
 31
0.0
  0
LINE
  5
2374
  8
SP
 10
23125.515477605109
 20
18842.42499394789
 30
0.0
 11
23125.515477605109
 21
18762.42499394789
 31
0.0
  0
LINE
  5
2375
  8
SP
 10
23125.515477605109
 20
18992.42499394789
 30
0.0
 11
23559.040176208578
 21
19053.501030920059
 31
0.0
  0
LINE
  5
2376
  8
SP
 10
23559.040176208578
 20
19053.501030920059
 30
0.0
 11
23559.040176208578
 21
19532.790427188731
 31
0.0
  0
TEXT
  8
0
  40
120
  5
23A1
  72
0
  71
0
 10
23207.6
 20
19080.7
 30
0.000000
  1
(140)
  0
LINE
  5
2378
  8
SP
 10
23125.515477605109
 20
19062.42499394789
 30
0.0
 11
23125.515477605109
 21
18922.42499394789
 31
0.0
  0
LINE
  5
2379
  8
SP
 10
23125.515477605109
 20
19062.42499394789
 30
0.0
 11
23125.515477605109
 21
18922.42499394789
 31
0.0
  0
INSERT
  5
237A
  8
SP
  2
_OPEN
 10
23125.515477605109
 20
19062.42499394789
 30
0.0
 41
80.0
 42
80.0
 43
80.0
 50
270.0
  0
INSERT
  5
237B
  8
SP
  2
_DOT
 10
23125.515477605109
 20
18922.42499394789
 30
0.0
 41
80.0
 42
80.0
 43
80.0
 50
90.0
  0
POINT
  5
237C
  8
DEFPOINTS
 62
     0
 10
22441.219600732009
 20
19062.42499394789
 30
0.0
  0
POINT
  5
237D
  8
DEFPOINTS
 62
     0
 10
22476.106388399519
 20
18922.42499394789
 30
0.0
  0
POINT
  5
237E
  8
DEFPOINTS
 62
     0
 10
23125.515477605109
 20
18922.42499394789
 30
0.0
  0
ENDBLK
  5
88C
  8
0
  0
BLOCK
  8
0
  2
*D5
 70
     1
 10
0.0
 20
0.0
 30
0.0
  3
*D5
  1

  0
LINE
  5
2307
  8
SP
 10
24006.681833359711
 20
20810.798793947892
 30
0.0
 11
24006.681833359711
 21
22883.174600652601
 31
0.0
  0
LINE
  5
2308
  8
SP
 10
26456.681833359711
 20
22411.798793947892
 30
0.0
 11
26456.681833359711
 21
22883.174600652601
 31
0.0
  0
LINE
  5
2309
  8
SP
 10
24086.681833359711
 20
22843.174600652601
 30
0.0
 11
26376.681833359711
 21
22843.174600652601
 31
0.0
  0
INSERT
  5
230A
  8
SP
  2
_OPEN
 10
24006.681833359711
 20
22843.174600652601
 30
0.0
 41
80.0
 42
80.0
 43
80.0
 50
180.0
  0
INSERT
  5
230B
  8
SP
  2
_OPEN
 10
26456.681833359711
 20
22843.174600652601
 30
0.0
 41
80.0
 42
80.0
 43
80.0
  0
TEXT
  5
230C
  8
SP
 10
24934.689144454729
 20
22914.60317208117
 30
0.0
 40
120.0
  1
(2450)
 51
15.0
  0
POINT
  5
230D
  8
DEFPOINTS
 62
     0
 10
24006.681833359711
 20
20770.798793947892
 30
0.0
  0
POINT
  5
230E
  8
DEFPOINTS
 62
     0
 10
26456.681833359711
 20
22371.798793947892
 30
0.0
  0
POINT
  5
230F
  8
DEFPOINTS
 62
     0
 10
26456.681833359711
 20
22843.174600652601
 30
0.0
  0
ENDBLK
  5
1423
  8
0
  0
BLOCK
  8
0
  2
*D6
 70
     1
 10
0.0
 20
0.0
 30
0.0
  3
*D6
  1

  0
LINE
  5
2321
  8
SP
 10
23001.460387443622
 20
20392.42499394789
 30
0.0
 11
23165.515477605109
 21
20392.42499394789
 31
0.0
  0
LINE
  5
2322
  8
SP
 10
22621.106388399519
 20
22382.42499394789
 30
0.0
 11
23165.515477605109
 21
22382.42499394789
 31
0.0
  0
LINE
  5
2323
  8
SP
 10
23125.515477605109
 20
20472.42499394789
 30
0.0
 11
23125.515477605109
 21
22302.42499394789
 31
0.0
  0
INSERT
  5
2324
  8
SP
  2
_OPEN
 10
23125.515477605109
 20
20392.42499394789
 30
0.0
 41
80.0
 42
80.0
 43
80.0
 50
270.0
  0
INSERT
  5
2325
  8
SP
  2
_OPEN
 10
23125.515477605109
 20
22382.42499394789
 30
0.0
 41
80.0
 42
80.0
 43
80.0
 50
90.0
  0
TEXT
  5
2326
  8
SP
 10
23105.515477605109
 20
21164.252786683151
 30
0.0
 40
120.0
  1
1990
 50
90.0
 51
15.0
  0
POINT
  5
2327
  8
DEFPOINTS
 62
     0
 10
22961.460387443622
 20
20392.42499394789
 30
0.0
  0
POINT
  5
2328
  8
DEFPOINTS
 62
     0
 10
22581.106388399519
 20
22382.42499394789
 30
0.0
  0
POINT
  5
2329
  8
DEFPOINTS
 62
     0
 10
23125.515477605109
 20
22382.42499394789
 30
0.0
  0
ENDBLK
  5
18B9
  8
0
  0
BLOCK
  8
0
  2
*D7
 70
     1
 10
0.0
 20
0.0
 30
0.0
  3
*D7
  1

  0
LINE
  5
232A
  8
SP
 10
22978.860077040161
 20
20392.42499394789
 30
0.0
 11
23165.515477605109
 21
20392.42499394789
 31
0.0
  0
LINE
  5
232B
  8
SP
 10
22481.219600732009
 20
19062.42499394789
 30
0.0
 11
23165.515477605109
 21
19062.42499394789
 31
0.0
  0
LINE
  5
232C
  8
SP
 10
23125.515477605109
 20
20312.42499394789
 30
0.0
 11
23125.515477605109
 21
19142.42499394789
 31
0.0
  0
INSERT
  5
232D
  8
SP
  2
_OPEN
 10
23125.515477605109
 20
20392.42499394789
 30
0.0
 41
80.0
 42
80.0
 43
80.0
 50
90.0
  0
INSERT
  5
232E
  8
SP
  2
_OPEN
 10
23125.515477605109
 20
19062.42499394789
 30
0.0
 41
80.0
 42
80.0
 43
80.0
 50
270.0
  0
TEXT
  5
232F
  8
SP
 10
23105.515477605109
 20
19504.252786683151
 30
0.0
 40
120.0
  1
1330
 50
90.0
 51
15.0
  0
POINT
  5
2330
  8
DEFPOINTS
 62
     0
 10
22938.860077040161
 20
20392.42499394789
 30
0.0
  0
POINT
  5
2331
  8
DEFPOINTS
 62
     0
 10
22441.219600732009
 20
19062.42499394789
 30
0.0
  0
POINT
  5
2332
  8
DEFPOINTS
 62
     0
 10
23125.515477605109
 20
19062.42499394789
 30
0.0
  0
ENDBLK
  5
18ED
  8
0
  0
BLOCK
  8
0
  2
*D8
 70
     1
 10
0.0
 20
0.0
 30
0.0
  3
*D8
  1

  0
LINE
  5
2382
  8
SP
 10
22516.106388399519
 20
18772.42499394789
 30
0.0
 11
23165.515477605109
 21
18772.42499394789
 31
0.0
  0
LINE
  5
2383
  8
SP
 10
23125.515477605109
 20
19002.42499394789
 30
0.0
 11
23125.515477605109
 21
19082.42499394789
 31
0.0
  0
LINE
  5
2384
  8
SP
 10
23125.515477605109
 20
18692.42499394789
 30
0.0
 11
23125.515477605109
 21
18292.42499394789
 31
0.0
  0
LINE
  5
2385
  8
SP
 10
23125.515477605109
 20
18922.42499394789
 30
0.0
 11
23125.515477605109
 21
18772.42499394789
 31
0.0
  0
INSERT
  5
2386
  8
SP
  2
_DOT
 10
23125.515477605109
 20
18922.42499394789
 30
0.0
 41
80.0
 42
80.0
 43
80.0
 50
270.0
  0
INSERT
  5
2387
  8
SP
  2
_OPEN
 10
23125.515477605109
 20
18772.42499394789
 30
0.0
 41
80.0
 42
80.0
 43
80.0
 50
90.0
  0
TEXT
  8
0
  40
120
  5
23A2
  72
0
  71
0
 10
22805.5
 20
18240.0
 30
0.000000
  1
150
  0
POINT
  5
2389
  8
DEFPOINTS
 62
     0
 10
22476.106388399519
 20
18922.42499394789
 30
0.0
  0
POINT
  5
238A
  8
DEFPOINTS
 62
     0
 10
22476.106388399519
 20
18772.42499394789
 30
0.0
  0
POINT
  5
238B
  8
DEFPOINTS
 62
     0
 10
23125.515477605109
 20
18772.42499394789
 30
0.0
  0
ENDBLK
  5
18FA
  8
0
  0
BLOCK
  8
0
  2
*D9
 70
     1
 10
0.0
 20
0.0
 30
0.0
  3
*D9
  1

  0
LINE
  5
2333
  8
SP
 10
21416.106388399519
 20
27092.84314482841
 30
0.0
 11
21416.106388399519
 21
27351.721773139139
 31
0.0
  0
LINE
  5
2334
  8
SP
 10
22581.10638839953
 20
26827.847841656188
 30
0.0
 11
22581.10638839953
 21
27351.721773139139
 31
0.0
  0
LINE
  5
2335
  8
SP
 10
21496.106388399519
 20
27311.721773139139
 30
0.0
 11
22501.10638839953
 21
27311.721773139139
 31
0.0
  0
INSERT
  5
2336
  8
SP
  2
_OPEN
 10
21416.106388399519
 20
27311.721773139139
 30
0.0
 41
80.0
 42
80.0
 43
80.0
 50
180.0
  0
INSERT
  5
2337
  8
SP
  2
_OPEN
 10
22581.10638839953
 20
27311.721773139139
 30
0.0
 41
80.0
 42
80.0
 43
80.0
  0
TEXT
  5
2338
  8
SP
 10
21786.65761893558
 20
27331.721773139139
 30
0.0
 40
120.0
  1
1165
 51
15.0
  0
POINT
  5
2339
  8
DEFPOINTS
 62
     0
 10
21416.106388399519
 20
27052.84314482841
 30
0.0
  0
POINT
  5
233A
  8
DEFPOINTS
 62
     0
 10
22581.10638839953
 20
26787.847841656188
 30
0.0
  0
POINT
  5
233B
  8
DEFPOINTS
 62
     0
 10
22581.10638839953
 20
27311.721773139139
 30
0.0
  0
ENDBLK
  5
1915
  8
0
  0
BLOCK
  8
0
  2
*D10
 70
     1
 10
0.0
 20
0.0
 30
0.0
  3
*D10
  1

  0
LINE
  5
22AB
  8
SP
 10
19476.106388399519
 20
25434.847841656188
 30
0.0
 11
19476.106388399519
 21
27351.721773139139
 31
0.0
  0
LINE
  5
22AC
  8
SP
 10
21336.106388399519
 20
27311.721773139139
 30
0.0
 11
19556.106388399519
 21
27311.721773139139
 31
0.0
  0
INSERT
  5
22AD
  8
SP
  2
_OPEN
 10
21416.106388399519
 20
27311.721773139139
 30
0.0
 41
80.0
 42
80.0
 43
80.0
  0
INSERT
  5
22AE
  8
SP
  2
_OPEN
 10
19476.106388399519
 20
27311.721773139139
 30
0.0
 41
80.0
 42
80.0
 43
80.0
 50
180.0
  0
TEXT
  5
22AF
  8
SP
 10
20222.93418113478
 20
27331.721773139139
 30
0.0
 40
120.0
  1
1940
 51
15.0
  0
POINT
  5
22B0
  8
DEFPOINTS
 62
     0
 10
21416.106388399519
 20
27311.721773139139
 30
0.0
  0
POINT
  5
22B1
  8
DEFPOINTS
 62
     0
 10
19476.106388399519
 20
25394.847841656188
 30
0.0
  0
POINT
  5
22B2
  8
DEFPOINTS
 62
     0
 10
19476.106388399519
 20
27311.721773139139
 30
0.0
  0
ENDBLK
  5
1921
  8
0
  0
BLOCK
  8
0
  2
*D11
 70
     1
 10
0.0
 20
0.0
 30
0.0
  3
*D11
  1

  0
LINE
  5
233C
  8
SP
 10
22421.106388399519
 20
26853.847841656188
 30
0.0
 11
23041.092653889638
 21
26853.847841656188
 31
0.0
  0
LINE
  5
233D
  8
SP
 10
23028.340832108439
 20
26058.847841656181
 30
0.0
 11
22961.092653889638
 21
26058.847841656181
 31
0.0
  0
LINE
  5
233E
  8
SP
 10
23001.092653889638
 20
26773.847841656188
 30
0.0
 11
23001.092653889638
 21
26138.847841656181
 31
0.0
  0
INSERT
  5
233F
  8
SP
  2
_OPEN
 10
23001.092653889638
 20
26853.847841656188
 30
0.0
 41
80.0
 42
80.0
 43
80.0
 50
90.0
  0
INSERT
  5
2340
  8
SP
  2
_OPEN
 10
23001.092653889638
 20
26058.847841656181
 30
0.0
 41
80.0
 42
80.0
 43
80.0
 50
270.0
  0
TEXT
  5
2341
  8
SP
 10
22981.092653889631
 20
26280.270890110321
 30
0.0
 40
120.0
  1
795
 50
90.0
 51
15.0
  0
POINT
  5
2342
  8
DEFPOINTS
 62
     0
 10
22381.106388399519
 20
26853.847841656188
 30
0.0
  0
POINT
  5
2343
  8
DEFPOINTS
 62
     0
 10
23068.340832108439
 20
26058.847841656181
 30
0.0
  0
POINT
  5
2344
  8
DEFPOINTS
 62
     0
 10
23001.092653889638
 20
26058.847841656181
 30
0.0
  0
ENDBLK
  5
192F
  8
0
  0
BLOCK
  8
0
  2
*D12
 70
     1
 10
0.0
 20
0.0
 30
0.0
  3
*D12
  1

  0
LINE
  5
2310
  8
SP
 10
21836.106388399519
 20
23608.847841656188
 30
0.0
 11
23041.092653889638
 21
23608.847841656188
 31
0.0
  0
LINE
  5
2311
  8
SP
 10
23001.092653889638
 20
25978.847841656181
 30
0.0
 11
23001.092653889638
 21
23688.847841656188
 31
0.0
  0
INSERT
  5
2312
  8
SP
  2
_OPEN
 10
23001.092653889638
 20
26058.847841656181
 30
0.0
 41
80.0
 42
80.0
 43
80.0
 50
90.0
  0
INSERT
  5
2313
  8
SP
  2
_OPEN
 10
23001.092653889638
 20
23608.847841656188
 30
0.0
 41
80.0
 42
80.0
 43
80.0
 50
270.0
  0
TEXT
  5
2314
  8
SP
 10
22981.092653889631
 20
24612.261738023819
 30
0.0
 40
120.0
  1
2450
 50
90.0
 51
15.0
  0
POINT
  5
2315
  8
DEFPOINTS
 62
     0
 10
23001.092653889638
 20
26058.847841656181
 30
0.0
  0
POINT
  5
2316
  8
DEFPOINTS
 62
     0
 10
21796.106388399519
 20
23608.847841656188
 30
0.0
  0
POINT
  5
2317
  8
DEFPOINTS
 62
     0
 10
23001.092653889638
 20
23608.847841656188
 30
0.0
  0
ENDBLK
  5
193B
  8
0
  0
BLOCK
  8
0
  2
*D13
 70
     1
 10
0.0
 20
0.0
 30
0.0
  3
*D13
  1

  0
LINE
  5
22B3
  8
SP
 10
22476.106388399519
 20
18732.42499394789
 30
0.0
 11
22476.106388399519
 21
17978.503064608962
 31
0.0
  0
LINE
  5
22B4
  8
SP
 10
19476.106388399519
 20
18732.42499394789
 30
0.0
 11
19476.106388399519
 21
17978.503064608962
 31
0.0
  0
LINE
  5
22B5
  8
SP
 10
22396.106388399519
 20
18018.503064608962
 30
0.0
 11
19556.106388399519
 21
18018.503064608962
 31
0.0
  0
INSERT
  5
22B6
  8
SP
  2
_OPEN
 10
22476.106388399519
 20
18018.503064608962
 30
0.0
 41
80.0
 42
80.0
 43
80.0
  0
INSERT
  5
22B7
  8
SP
  2
_OPEN
 10
19476.106388399519
 20
18018.503064608962
 30
0.0
 41
80.0
 42
80.0
 43
80.0
 50
180.0
  0
TEXT
  5
22B8
  8
SP
 10
20751.458008282229
 20
18038.503064608962
 30
0.0
 40
120.0
  1
3000
 51
15.0
  0
POINT
  5
22B9
  8
DEFPOINTS
 62
     0
 10
22476.106388399519
 20
18772.42499394789
 30
0.0
  0
POINT
  5
22BA
  8
DEFPOINTS
 62
     0
 10
19476.106388399519
 20
18772.42499394789
 30
0.0
  0
POINT
  5
22BB
  8
DEFPOINTS
 62
     0
 10
19476.106388399519
 20
18018.503064608962
 30
0.0
  0
ENDBLK
  5
1966
  8
0
  0
BLOCK
  8
0
  2
*D14
 70
     1
 10
0.0
 20
0.0
 30
0.0
  3
*D14
  1

  0
LINE
  5
238C
  8
SP
 10
19476.106388399519
 20
18732.42499394789
 30
0.0
 11
19476.106388399519
 21
18297.217615229591
 31
0.0
  0
LINE
  5
238D
  8
SP
 10
21336.106388399519
 20
18337.217615229591
 30
0.0
 11
19556.106388399519
 21
18337.217615229591
 31
0.0
  0
INSERT
  5
238E
  8
SP
  2
_OPEN
 10
21416.106388399519
 20
18337.217615229591
 30
0.0
 41
80.0
 42
80.0
 43
80.0
  0
INSERT
  5
238F
  8
SP
  2
_OPEN
 10
19476.106388399519
 20
18337.217615229591
 30
0.0
 41
80.0
 42
80.0
 43
80.0
 50
180.0
  0
TEXT
  8
0
  40
120
  5
23A3
  72
0
  71
0
 10
20206.1
 20
18204.8
 30
0.000000
  1
1940
  0
POINT
  5
2391
  8
DEFPOINTS
 62
     0
 10
21416.106388399519
 20
18691.770818937679
 30
0.0
  0
POINT
  5
2392
  8
DEFPOINTS
 62
     0
 10
19476.106388399519
 20
18772.42499394789
 30
0.0
  0
POINT
  5
2393
  8
DEFPOINTS
 62
     0
 10
19476.106388399519
 20
18337.217615229591
 30
0.0
  0
ENDBLK
  5
1971
  8
0
  0
BLOCK
  8
0
  2
*D15
 70
     1
 10
0.0
 20
0.0
 30
0.0
  3
*D15
  1

  0
LINE
  5
22F3
  8
SP
 10
22476.106388399519
 20
18732.42499394789
 30
0.0
 11
22476.106388399519
 21
18297.217615229591
 31
0.0
  0
LINE
  5
22F4
  8
SP
 10
21416.106388399519
 20
18651.770818937679
 30
0.0
 11
21416.106388399519
 21
18297.217615229591
 31
0.0
  0
LINE
  5
22F5
  8
SP
 10
22396.106388399519
 20
18337.217615229591
 30
0.0
 11
21496.106388399519
 21
18337.217615229591
 31
0.0
  0
INSERT
  5
22F6
  8
SP
  2
_OPEN
 10
22476.106388399519
 20
18337.217615229591
 30
0.0
 41
80.0
 42
80.0
 43
80.0
  0
INSERT
  5
22F7
  8
SP
  2
_OPEN
 10
21416.106388399519
 20
18337.217615229591
 30
0.0
 41
80.0
 42
80.0
 43
80.0
 50
180.0
  0
TEXT
  5
22F8
  8
SP
 10
21722.93418113478
 20
18357.217615229591
 30
0.0
 40
120.0
  1
1060
 51
15.0
  0
POINT
  5
22F9
  8
DEFPOINTS
 62
     0
 10
22476.106388399519
 20
18772.42499394789
 30
0.0
  0
POINT
  5
22FA
  8
DEFPOINTS
 62
     0
 10
21416.106388399519
 20
18691.770818937679
 30
0.0
  0
POINT
  5
22FB
  8
DEFPOINTS
 62
     0
 10
21416.106388399519
 20
18337.217615229591
 30
0.0
  0
ENDBLK
  5
1994
  8
0
  0
BLOCK
  8
0
  2
*D16
 70
     1
 10
0.0
 20
0.0
 30
0.0
  3
*D16
  1

  0
LINE
  5
2318
  8
SP
 10
22581.106388399519
 20
22422.42499394789
 30
0.0
 11
22581.106388399519
 21
22894.22301011048
 31
0.0
  0
LINE
  5
2319
  8
SP
 10
21416.106388399519
 20
22422.690532512261
 30
0.0
 11
21416.106388399519
 21
22894.22301011048
 31
0.0
  0
LINE
  5
231A
  8
SP
 10
22501.106388399519
 20
22854.22301011048
 30
0.0
 11
21496.106388399519
 21
22854.22301011048
 31
0.0
  0
INSERT
  5
231B
  8
SP
  2
_OPEN
 10
22581.106388399519
 20
22854.22301011048
 30
0.0
 41
80.0
 42
80.0
 43
80.0
  0
INSERT
  5
231C
  8
SP
  2
_OPEN
 10
21416.106388399519
 20
22854.22301011048
 30
0.0
 41
80.0
 42
80.0
 43
80.0
 50
180.0
  0
TEXT
  5
231D
  8
SP
 10
21786.657618935569
 20
22874.22301011048
 30
0.0
 40
120.0
  1
1165
 51
15.0
  0
POINT
  5
231E
  8
DEFPOINTS
 62
     0
 10
22581.106388399519
 20
22382.42499394789
 30
0.0
  0
POINT
  5
231F
  8
DEFPOINTS
 62
     0
 10
21416.106388399519
 20
22382.690532512261
 30
0.0
  0
POINT
  5
2320
  8
DEFPOINTS
 62
     0
 10
21416.106388399519
 20
22854.22301011048
 30
0.0
  0
ENDBLK
  5
19A0
  8
0
  0
BLOCK
  8
0
  2
*D17
 70
     1
 10
0.0
 20
0.0
 30
0.0
  3
*D17
  1

  0
LINE
  5
22DC
  8
SP
 10
24345.681833359711
 20
18732.4249773419
 30
0.0
 11
24345.681833359711
 21
17992.906819612668
 31
0.0
  0
LINE
  5
22DD
  8
SP
 10
27195.681833359711
 20
18732.4249773419
 30
0.0
 11
27195.681833359711
 21
17992.906819612668
 31
0.0
  0
LINE
  5
22DE
  8
SP
 10
24425.681833359711
 20
18032.906819612668
 30
0.0
 11
27115.681833359711
 21
18032.906819612668
 31
0.0
  0
INSERT
  5
22DF
  8
SP
  2
_OPEN
 10
24345.681833359711
 20
18032.906819612668
 30
0.0
 41
80.0
 42
80.0
 43
80.0
 50
180.0
  0
INSERT
  5
22E0
  8
SP
  2
_OPEN
 10
27195.681833359711
 20
18032.906819612668
 30
0.0
 41
80.0
 42
80.0
 43
80.0
  0
TEXT
  5
22E1
  8
SP
 10
25549.095729727342
 20
18052.906819612668
 30
0.0
 40
120.0
  1
2850
 51
15.0
  0
POINT
  5
22E2
  8
DEFPOINTS
 62
     0
 10
24345.681833359711
 20
18772.4249773419
 30
0.0
  0
POINT
  5
22E3
  8
DEFPOINTS
 62
     0
 10
27195.681833359711
 20
18772.4249773419
 30
0.0
  0
POINT
  5
22E4
  8
DEFPOINTS
 62
     0
 10
27195.681833359711
 20
18032.906819612668
 30
0.0
  0
ENDBLK
  5
22E6
  8
0
  0
BLOCK
  8
0
  2
*D18
 70
     1
 10
0.0
 20
0.0
 30
0.0
  3
*D18
  1

  0
LINE
  5
22E8
  8
SP
 10
24345.681833359711
 20
18732.4249773419
 30
0.0
 11
24345.681833359711
 21
18292.94436457759
 31
0.0
  0
LINE
  5
22E9
  8
SP
 10
26456.681833359711
 20
18711.497925347969
 30
0.0
 11
26456.681833359711
 21
18292.94436457759
 31
0.0
  0
LINE
  5
22EA
  8
SP
 10
24425.681833359711
 20
18332.94436457759
 30
0.0
 11
26376.681833359711
 21
18332.94436457759
 31
0.0
  0
INSERT
  5
22EB
  8
SP
  2
_OPEN
 10
24345.681833359711
 20
18332.94436457759
 30
0.0
 41
80.0
 42
80.0
 43
80.0
 50
180.0
  0
INSERT
  5
22EC
  8
SP
  2
_OPEN
 10
26456.681833359711
 20
18332.94436457759
 30
0.0
 41
80.0
 42
80.0
 43
80.0
  0
TEXT
  5
22ED
  8
SP
 10
25222.247738956699
 20
18352.94436457759
 30
0.0
 40
120.0
  1
2111
 51
15.0
  0
POINT
  5
22EE
  8
DEFPOINTS
 62
     0
 10
24345.681833359711
 20
18772.4249773419
 30
0.0
  0
POINT
  5
22EF
  8
DEFPOINTS
 62
     0
 10
26456.681833359711
 20
18751.497925347969
 30
0.0
  0
POINT
  5
22F0
  8
DEFPOINTS
 62
     0
 10
26456.681833359711
 20
18332.94436457759
 30
0.0
  0
ENDBLK
  5
22F2
  8
0
  0
BLOCK
  8
0
  2
*D19
 70
     1
 10
0.0
 20
0.0
 30
0.0
  3
*D19
  1

  0
LINE
  5
2394
  8
SP
 10
27195.681833359711
 20
18732.4249773419
 30
0.0
 11
27195.681833359711
 21
18292.94436457759
 31
0.0
  0
LINE
  5
2395
  8
SP
 10
26536.681833359711
 20
18332.94436457759
 30
0.0
 11
27115.681833359711
 21
18332.94436457759
 31
0.0
  0
INSERT
  5
2396
  8
SP
  2
_OPEN
 10
26456.681833359711
 20
18332.94436457759
 30
0.0
 41
80.0
 42
80.0
 43
80.0
 50
180.0
  0
INSERT
  5
2397
  8
SP
  2
_OPEN
 10
27195.681833359711
 20
18332.94436457759
 30
0.0
 41
80.0
 42
80.0
 43
80.0
  0
TEXT
  8
0
  40
120
  5
23A4
  72
0
  71
0
 10
26586.2
 20
18200.5
 30
0.000000
  1
739
  0
POINT
  5
2399
  8
DEFPOINTS
 62
     0
 10
26456.681833359711
 20
18751.497925347969
 30
0.0
  0
POINT
  5
239A
  8
DEFPOINTS
 62
     0
 10
27195.681833359711
 20
18772.4249773419
 30
0.0
  0
POINT
  5
239B
  8
DEFPOINTS
 62
     0
 10
27195.681833359711
 20
18332.94436457759
 30
0.0
  0
ENDBLK
  5
2306
  8
0
  0
BLOCK
  8
0
  2
*D20
 70
     1
 10
0.0
 20
0.0
 30
0.0
  3
*D20
  1

  0
LINE
  5
2346
  8
SP
 10
27291.681833359711
 20
21290.798793947892
 30
0.0
 11
27871.68997557144
 21
21290.798793947892
 31
0.0
  0
LINE
  5
2347
  8
SP
 10
27291.681833359711
 20
19490.798793947892
 30
0.0
 11
27871.68997557144
 21
19490.798793947892
 31
0.0
  0
LINE
  5
2348
  8
SP
 10
27831.68997557144
 20
21210.798793947892
 30
0.0
 11
27831.68997557144
 21
19570.798793947892
 31
0.0
  0
INSERT
  5
2349
  8
SP
  2
_OPEN
 10
27831.68997557144
 20
21290.798793947892
 30
0.0
 41
80.0
 42
80.0
 43
80.0
 50
90.0
  0
INSERT
  5
234A
  8
SP
  2
_OPEN
 10
27831.68997557144
 20
19490.798793947892
 30
0.0
 41
80.0
 42
80.0
 43
80.0
 50
270.0
  0
INSERT
  5
234B
  8
SP
  2
*U22
 10
0.0
 20
0.0
 30
0.0
  0
POINT
  5
234C
  8
DEFPOINTS
 62
     0
 10
27251.681833359711
 20
21290.798793947892
 30
0.0
  0
POINT
  5
234D
  8
DEFPOINTS
 62
     0
 10
27251.681833359711
 20
19490.798793947892
 30
0.0
  0
POINT
  5
234E
  8
DEFPOINTS
 62
     0
 10
27831.68997557144
 20
19490.798793947892
 30
0.0
  0
ENDBLK
  5
2350
  8
0
  0
BLOCK
  8
0
  2
*D21
 70
     1
 10
0.0
 20
0.0
 30
0.0
  3
*D21
  1

  0
LINE
  5
2352
  8
SP
 10
26456.681833359711
 20
22835.116940016989
 30
0.0
 11
26456.681833359711
 21
22803.174600652601
 31
0.0
  0
LINE
  5
2353
  8
SP
 10
27251.681833359711
 20
21395.798793947892
 30
0.0
 11
27251.681833359711
 21
22883.174600652601
 31
0.0
  0
LINE
  5
2354
  8
SP
 10
26536.681833359711
 20
22843.174600652601
 30
0.0
 11
27171.681833359711
 21
22843.174600652601
 31
0.0
  0
INSERT
  5
2355
  8
SP
  2
_OPEN
 10
26456.681833359711
 20
22843.174600652601
 30
0.0
 41
80.0
 42
80.0
 43
80.0
 50
180.0
  0
INSERT
  5
2356
  8
SP
  2
_OPEN
 10
27251.681833359711
 20
22843.174600652601
 30
0.0
 41
80.0
 42
80.0
 43
80.0
  0
TEXT
  5
2357
  8
SP
 10
26609.467256857952
 20
22863.174600652601
 30
0.0
 40
120.0
  1
795
 51
15.0
  0
POINT
  5
2358
  8
DEFPOINTS
 62
     0
 10
26456.681833359711
 20
22875.116940016989
 30
0.0
  0
POINT
  5
2359
  8
DEFPOINTS
 62
     0
 10
27251.681833359711
 20
21355.798793947892
 30
0.0
  0
POINT
  5
235A
  8
DEFPOINTS
 62
     0
 10
27251.681833359711
 20
22843.174600652601
 30
0.0
  0
ENDBLK
  5
235C
  8
0
  0
BLOCK
  8
0
  2
*U22
 70
     1
 10
0.0
 20
0.0
 30
0.0
  3
*U22
  1

  0
TEXT
  5
239D
  8
SP
 10
27811.68997557144
 20
20093.79137711108
 30
0.0
 40
120.0
  1
\U+2205
 50
90.0
 51
15.0
  0
TEXT
  5
239E
  8
SP
 10
27811.68997557144
 20
20202.362805682511
 30
0.0
 40
120.0
  1
1800
 50
90.0
 51
15.0
  0
ENDBLK
  5
23A0
  8
0
  0
ENDSEC
  0
SECTION
  2
ENTITIES
  0
INSERT
  5
89
  8
FUTO
  2
まっすぐの矢印
 10
22866.767999064661
 20
21958.867290608228
 30
0.0
 41
-2.0
 42
2.0
 43
2.0
 50
270.0
  0
LINE
  5
AF
  8
CT
 10
21416.106388399519
 20
20392.42499394789
 30
0.0
 11
22636.686866579221
 21
20284.157621405539
 31
0.0
  0
LINE
  5
B2
  8
CT
 10
22961.460387443622
 20
20392.42499394789
 30
0.0
 11
19501.47828188942
 21
20392.42499394789
 31
0.0
  0
DIMENSION
  5
CF
  8
SP
  2
*D4
 10
23125.515477605109
 20
18922.42499394789
 30
0.0
 11
23559.040176208578
 21
19073.501030920059
 31
0.0
 70
   128
  1
(<>)
 13
22441.219600732009
 23
19062.42499394789
 33
0.0
 14
22476.106388399519
 24
18922.42499394789
 34
0.0
 50
90.0
1001
ACAD
1000
DSTYLE
1002
{
1070
   287
1070
     4
1070
    40
1040
40.0
1070
    75
1070
     1
1070
   279
1070
     1
1070
   289
1070
     3
1070
     7
1000
DOT
1002
}
  0
DIMENSION
  5
E7
  8
SP
  2
*D8
 10
23125.515477605109
 20
18772.42499394789
 30
0.0
 11
23045.515477605109
 21
18452.42499394789
 31
0.0
 70
     0
 13
22476.106388399519
 23
18922.42499394789
 33
0.0
 14
22476.106388399519
 24
18772.42499394789
 34
0.0
 50
90.0
1001
ACAD
1000
DSTYLE
1002
{
1070
   287
1070
     1
1070
    40
1040
40.0
1070
    75
1070
     1
1070
   289
1070
     1
1070
     6
1000
DOT
1002
}
  0
DIMENSION
  5
F5
  8
SP
  2
*D7
 10
23125.515477605109
 20
19062.42499394789
 30
0.0
 11
23045.515477605109
 21
19727.42499394789
 31
0.0
 70
     0
 13
22938.860077040161
 23
20392.42499394789
 33
0.0
 14
22441.219600732009
 24
19062.42499394789
 34
0.0
 50
90.0
1001
ACAD
1000
DSTYLE
1002
{
1070
    40
1040
40.0
1002
}
  0
LINE
  5
104
  8
CT
 10
21416.106388399519
 20
22382.690532512261
 30
0.0
 11
21416.106388399519
 21
18691.770818937679
 31
0.0
  0
LINE
  5
10B
  8
FUTO
 10
20022.16235271838
 20
19303.287709034292
 30
0.0
 11
21597.916612946141
 21
19948.189648381711
 31
0.0
  0
ARC
  5
10E
  8
FUTO
 10
19916.106388399519
 20
19562.42499394789
 30
0.0
 40
280.0
 50
125.65684022602289
 51
292.25759497155337
  0
LINE
  5
10F
  8
SL
 10
21559.193459262078
 20
20067.538721304722
 30
0.0
 11
19996.71882268829
 21
19379.39047414892
 31
0.0
  0
LINE
  5
110
  8
SL
 10
19803.849461273301
 20
19727.949561043471
 30
0.0
 11
21216.85034275048
 21
20686.23110054254
 31
0.0
  0
ARC
  5
111
  8
FUTO
 10
19916.106388399519
 20
19562.42499394789
 30
0.0
 40
310.0
 50
300.10230806831191
 51
239.897691931688
  0
LINE
  5
112
  8
CT
 10
19916.106388399519
 20
20227.190879874201
 30
0.0
 11
19916.106388399519
 21
19240.133677686739
 31
0.0
  0
LINE
  5
113
  8
FUTO
 10
20357.106388399519
 20
20383.42499394789
 30
0.0
 11
20357.106388399519
 21
20223.417874321389
 31
0.0
  0
LINE
  5
114
  8
FUTO
 10
20859.993105025831
 20
19646.182975539788
 30
0.0
 11
20716.106388399519
 21
19226.589888486302
 31
0.0
  0
LINE
  5
115
  8
FUTO
 10
22457.106388399519
 20
20383.42499394789
 30
0.0
 11
22457.106388399519
 21
19212.42499394789
 31
0.0
  0
LINE
  5
116
  8
FUTO
 10
22466.106388399519
 20
20383.42499394789
 30
0.0
 11
22466.106388399519
 21
19212.42499394789
 31
0.0
  0
LINE
  5
117
  8
FUTO
 10
20366.106388399519
 20
20401.42499394788
 30
0.0
 11
20366.106388399519
 21
20229.874755833938
 31
0.0
  0
LINE
  5
118
  8
FUTO
 10
20375.106388399519
 20
20401.42499394788
 30
0.0
 11
20375.106388399519
 21
20236.33163734647
 31
0.0
  0
LINE
  5
119
  8
CT
 10
19916.106388399519
 20
19275.923730947889
 30
0.0
 11
19916.106388399519
 21
19860.19540994789
 31
0.0
  0
LINE
  5
11D
  8
KL
 10
21758.15481422357
 20
20270.42499394789
 30
0.0
 11
21810.25859763729
 21
20118.483328710579
 31
0.0
  0
ARC
  5
122
  8
FUTO
 10
21305.606388399519
 20
20281.92499394789
 30
0.0
 40
1201.5
 50
309.60989471180039
 51
7.7248117103407843
  0
ARC
  5
123
  8
KL
 10
21305.606388399519
 20
20281.92499394789
 30
0.0
 40
1181.4999999999991
 50
269.00582105632787
 51
0.0
  0
ARC
  5
124
  8
KL
 10
21285.106388399519
 20
20523.42499394788
 30
0.0
 40
1423.0
 50
185.26336540589651
 51
270.0
  0
DIMENSION
  5
13A
  8
SP
  2
*D14
 10
19476.106388399519
 20
18337.217615229591
 30
0.0
 11
20446.106388399519
 21
18417.217615229591
 31
0.0
 70
     0
 13
21416.106388399519
 23
18691.770818937679
 33
0.0
 14
19476.106388399519
 24
18772.42499394789
 34
0.0
1001
ACAD
1000
DSTYLE
1002
{
1070
   287
1070
     4
1070
    40
1040
40.0
1070
    75
1070
     1
1070
   279
1070
     1
1070
   289
1070
     3
1002
}
  0
LINE
  5
146
  8
FUTO
 10
22476.106388399519
 20
18922.42499394789
 30
0.0
 11
19476.106388399519
 21
18922.42499394789
 31
0.0
1001
ACAD
1000
ASC_BOUNDS
1002
{
1070
    19
1005
0
1002
}
  0
LINE
  5
147
  8
FUTO
 10
22476.106388399519
 20
18910.42499394789
 30
0.0
 11
19476.106388399519
 21
18910.42499394789
 31
0.0
  0
LINE
  5
148
  8
FUTO
 10
22476.106388399519
 20
18784.42499394789
 30
0.0
 11
19476.106388399519
 21
18784.42499394789
 31
0.0
  0
LINE
  5
149
  8
FUTO
 10
22476.106388399519
 20
18772.42499394789
 30
0.0
 11
19476.106388399519
 21
18772.42499394789
 31
0.0
  0
DIMENSION
  5
14A
  8
SP
  2
*D13
 10
19476.106388399519
 20
18018.503064608962
 30
0.0
 11
20976.106388399519
 21
18098.503064608962
 31
0.0
 70
     0
 13
22476.106388399519
 23
18772.42499394789
 33
0.0
 14
19476.106388399519
 24
18772.42499394789
 34
0.0
1001
ACAD
1000
DSTYLE
1002
{
1070
    40
1040
40.0
1002
}
  0
LINE
  5
157
  8
FUTO
 10
22476.106388399519
 20
19200.42499394789
 30
0.0
 11
19476.106388399519
 21
19200.42499394789
 31
0.0
  0
LINE
  5
158
  8
FUTO
 10
22476.106388399519
 20
19074.42499394789
 30
0.0
 11
19476.106388399519
 21
19074.42499394789
 31
0.0
  0
LINE
  5
159
  8
FUTO
 10
22476.106388399519
 20
19212.42499394789
 30
0.0
 11
19476.106388399519
 21
19212.42499394789
 31
0.0
  0
LINE
  5
15A
  8
FUTO
 10
22476.106388399519
 20
19062.42499394789
 30
0.0
 11
19476.106388399519
 21
19062.42499394789
 31
0.0
1001
ACAD
1000
ASC_BOUNDS
1002
{
1070
    19
1005
0
1002
}
  0
LINE
  5
15B
  8
FUTO
 10
20196.106388399519
 20
19312.42499394789
 30
0.0
 11
20099.409416197759
 21
19312.42499394789
 31
0.0
  0
LINE
  5
15C
  8
FUTO
 10
20196.106388399519
 20
19282.42499394789
 30
0.0
 11
20086.106388399519
 21
19282.42499394789
 31
0.0
  0
LINE
  5
15D
  8
FUTO
 10
20016.106388399519
 20
19282.42499394789
 30
0.0
 11
20231.106388399519
 21
19282.42499394789
 31
0.0
  0
LINE
  5
15E
  8
FUTO
 10
20241.106388399519
 20
19212.42499394789
 30
0.0
 11
20016.106388399519
 21
19212.42499394789
 31
0.0
  0
LINE
  5
15F
  8
CT
 10
20253.565352589281
 20
19562.42499394789
 30
0.0
 11
19572.829166206491
 21
19562.42499394789
 31
0.0
  0
LINE
  5
160
  8
CT
 10
19868.003320891639
 20
19125.562814008539
 30
0.0
 11
19868.003320891639
 21
18860.822309373889
 31
0.0
  0
LINE
  5
161
  8
FUTO
 10
19724.15009889258
 20
19062.42499394789
 30
0.0
 11
19724.15009889258
 21
19051.42499394789
 31
0.0
  0
LINE
  5
162
  8
FUTO
 10
19652.15009889258
 20
19062.42499394789
 30
0.0
 11
19652.15009889258
 21
19051.42499394789
 31
0.0
  0
LINE
  5
163
  8
CT
 10
19688.15009889258
 20
19076.95297715511
 30
0.0
 11
19688.15009889258
 21
18902.74620225095
 31
0.0
  0
ARC
  5
164
  8
FUTO
 10
19744.65009889258
 20
19042.42499394788
 30
0.0
 40
9.0
 50
0.0
 51
90.0
  0
LINE
  5
165
  8
FUTO
 10
19622.65009889258
 20
18966.42499394789
 30
0.0
 11
19753.65009889258
 21
18966.42499394789
 31
0.0
  0
LINE
  5
166
  8
FUTO
 10
19476.106388399519
 20
18922.42499394789
 30
0.0
 11
19476.106388399519
 21
18772.42499394789
 31
0.0
  0
LINE
  5
167
  8
FUTO
 10
19652.15009889258
 20
19057.42499394789
 30
0.0
 11
19724.15009889258
 21
19057.42499394789
 31
0.0
  0
ARC
  5
168
  8
FUTO
 10
19631.65009889258
 20
19042.42499394788
 30
0.0
 40
9.0
 50
89.999999999999915
 51
180.0
  0
LINE
  5
169
  8
FUTO
 10
19622.65009889258
 20
19042.42499394788
 30
0.0
 11
19622.65009889258
 21
18966.42499394789
 31
0.0
  0
LINE
  5
16A
  8
FUTO
 10
19652.15009889258
 20
18922.42499394789
 30
0.0
 11
19724.15009889258
 21
18922.42499394789
 31
0.0
  0
LINE
  5
16B
  8
FUTO
 10
19724.15009889258
 20
18933.42499394789
 30
0.0
 11
19724.15009889258
 21
18922.42499394789
 31
0.0
  0
LINE
  5
16C
  8
FUTO
 10
19652.15009889258
 20
18933.42499394789
 30
0.0
 11
19652.15009889258
 21
18922.42499394789
 31
0.0
  0
LINE
  5
16D
  8
FUTO
 10
19737.15009889258
 20
18966.42499394789
 30
0.0
 11
19737.15009889258
 21
18940.42499394789
 31
0.0
  0
ARC
  5
16E
  8
FUTO
 10
19730.150098892591
 20
18940.42499394789
 30
0.0
 40
7.0
 50
270.00000000000011
 51
0.0000000000000254
  0
LINE
  5
16F
  8
FUTO
 10
19646.15009889258
 20
18933.42499394789
 30
0.0
 11
19730.150098892591
 21
18933.42499394789
 31
0.0
  0
LINE
  5
170
  8
FUTO
 10
19639.15009889258
 20
18966.42499394789
 30
0.0
 11
19639.15009889258
 21
18940.42499394789
 31
0.0
  0
ARC
  5
171
  8
FUTO
 10
19646.15009889258
 20
18940.42499394789
 30
0.0
 40
7.0
 50
179.99999999999989
 51
269.99999999999977
  0
LINE
  5
172
  8
FUTO
 10
19652.15009889258
 20
18927.42499394789
 30
0.0
 11
19724.15009889258
 21
18927.42499394789
 31
0.0
  0
LINE
  5
173
  8
FUTO
 10
19631.65009889258
 20
19051.42499394789
 30
0.0
 11
19744.65009889258
 21
19051.42499394789
 31
0.0
  0
LINE
  5
174
  8
FUTO
 10
19753.65009889258
 20
19042.42499394788
 30
0.0
 11
19753.65009889258
 21
18966.42499394789
 31
0.0
  0
LINE
  5
175
  8
FUTO
 10
19601.106388399519
 20
19282.42499394789
 30
0.0
 11
19816.106388399519
 21
19282.42499394789
 31
0.0
  0
LINE
  5
176
  8
FUTO
 10
19816.106388399519
 20
19212.42499394789
 30
0.0
 11
19591.106388399519
 21
19212.42499394789
 31
0.0
  0
CIRCLE
  5
177
  8
SL
 10
19916.106388399519
 20
19562.42499394789
 30
0.0
 40
200.0
  0
LINE
  5
178
  8
FUTO
 10
19636.106388399519
 20
19429.38364699134
 30
0.0
 11
19636.106388399519
 21
19282.42499394789
 31
0.0
  0
LINE
  5
179
  8
FUTO
 10
19476.106388399519
 20
19212.42499394789
 30
0.0
 11
19476.106388399519
 21
19062.42499394789
 31
0.0
  0
LINE
  5
17A
  8
FUTO
 10
19652.15009889258
 20
19062.42499394789
 30
0.0
 11
19724.15009889258
 21
19062.42499394789
 31
0.0
  0
LINE
  5
17B
  8
CT
 10
19687.606388399519
 20
19327.594442437541
 30
0.0
 11
19687.606388399519
 21
19240.133677686739
 31
0.0
  0
LINE
  5
17C
  8
FUTO
 10
19732.80336060129
 20
19312.42499394789
 30
0.0
 11
19636.106388399519
 21
19312.42499394789
 31
0.0
  0
LINE
  5
17D
  8
FUTO
 10
19746.106388399519
 20
19303.195366011569
 30
0.0
 11
19746.106388399519
 21
19282.42499394789
 31
0.0
  0
LINE
  5
17E
  8
FUTO
 10
19746.106388399519
 20
19282.42499394789
 30
0.0
 11
19636.106388399519
 21
19282.42499394789
 31
0.0
  0
LINE
  5
17F
  8
FUTO
 10
19591.106388399519
 20
19212.42499394789
 30
0.0
 11
19601.106388399519
 21
19282.42499394789
 31
0.0
  0
LINE
  5
180
  8
CT
 10
19916.106388399519
 20
19071.006608759431
 30
0.0
 11
19916.106388399519
 21
19736.52300814449
 31
0.0
  0
LINE
  5
181
  8
FUTO
 10
20071.585520675129
 20
19294.23431658042
 30
0.0
 11
19760.62725612392
 21
19294.23431658042
 31
0.0
  0
LINE
  5
182
  8
FUTO
 10
19816.106388399519
 20
19272.42499394789
 30
0.0
 11
20016.106388399519
 21
19272.42499394789
 31
0.0
  0
LINE
  5
183
  8
FUTO
 10
19816.106388399519
 20
19222.42499394789
 30
0.0
 11
20016.106388399519
 21
19222.42499394789
 31
0.0
  0
LINE
  5
184
  8
FUTO
 10
19816.106388399519
 20
19272.42499394789
 30
0.0
 11
19816.106388399519
 21
19282.42499394789
 31
0.0
  0
LINE
  5
185
  8
FUTO
 10
19816.106388399519
 20
19212.42499394789
 30
0.0
 11
19816.106388399519
 21
19222.42499394789
 31
0.0
  0
LINE
  5
186
  8
CT
 10
20144.606388399519
 20
19327.594442437541
 30
0.0
 11
20144.606388399519
 21
19235.968879365279
 31
0.0
  0
LINE
  5
187
  8
FUTO
 10
20086.106388399519
 20
19303.195366011569
 30
0.0
 11
20086.106388399519
 21
19282.42499394789
 31
0.0
  0
LINE
  5
188
  8
FUTO
 10
20016.106388399519
 20
19272.42499394789
 30
0.0
 11
20016.106388399519
 21
19282.42499394789
 31
0.0
  0
LINE
  5
189
  8
FUTO
 10
20159.106388399519
 20
19282.42499394789
 30
0.0
 11
20059.106388399519
 21
19282.42499394789
 31
0.0
  0
LINE
  5
18A
  8
FUTO
 10
20016.106388399519
 20
19212.42499394789
 30
0.0
 11
20016.106388399519
 21
19222.42499394789
 31
0.0
  0
LINE
  5
18B
  8
CT
 10
20466.009994289769
 20
19076.95297715511
 30
0.0
 11
20466.009994289769
 21
18902.74620225095
 31
0.0
  0
LINE
  5
18C
  8
FUTO
 10
20430.009994289769
 20
19062.42499394789
 30
0.0
 11
20430.009994289769
 21
19051.42499394789
 31
0.0
  0
LINE
  5
18D
  8
FUTO
 10
20502.009994289769
 20
19062.42499394789
 30
0.0
 11
20502.009994289769
 21
19051.42499394789
 31
0.0
  0
LINE
  5
18E
  8
FUTO
 10
20531.509994289761
 20
19042.42499394788
 30
0.0
 11
20531.509994289761
 21
18966.42499394789
 31
0.0
  0
LINE
  5
18F
  8
FUTO
 10
20409.509994289761
 20
19051.42499394789
 30
0.0
 11
20522.509994289761
 21
19051.42499394789
 31
0.0
  0
LINE
  5
190
  8
FUTO
 10
20430.009994289769
 20
18927.42499394789
 30
0.0
 11
20502.009994289769
 21
18927.42499394789
 31
0.0
  0
ARC
  5
191
  8
FUTO
 10
20424.009994289769
 20
18940.42499394789
 30
0.0
 40
7.0
 50
179.99999999999989
 51
269.99999999999977
  0
LINE
  5
192
  8
FUTO
 10
20417.009994289761
 20
18966.42499394789
 30
0.0
 11
20417.009994289761
 21
18940.42499394789
 31
0.0
  0
LINE
  5
193
  8
FUTO
 10
20424.009994289769
 20
18933.42499394789
 30
0.0
 11
20508.009994289769
 21
18933.42499394789
 31
0.0
  0
ARC
  5
194
  8
FUTO
 10
20508.009994289769
 20
18940.42499394789
 30
0.0
 40
7.0
 50
270.00000000000011
 51
0.0000000000000254
  0
LINE
  5
195
  8
FUTO
 10
20515.009994289761
 20
18966.42499394789
 30
0.0
 11
20515.009994289761
 21
18940.42499394789
 31
0.0
  0
LINE
  5
196
  8
FUTO
 10
20430.009994289769
 20
18933.42499394789
 30
0.0
 11
20430.009994289769
 21
18922.42499394789
 31
0.0
  0
LINE
  5
197
  8
FUTO
 10
20502.009994289769
 20
18933.42499394789
 30
0.0
 11
20502.009994289769
 21
18922.42499394789
 31
0.0
  0
LINE
  5
198
  8
FUTO
 10
20430.009994289769
 20
18922.42499394789
 30
0.0
 11
20502.009994289769
 21
18922.42499394789
 31
0.0
  0
LINE
  5
199
  8
FUTO
 10
20400.509994289761
 20
19042.42499394788
 30
0.0
 11
20400.509994289761
 21
18966.42499394789
 31
0.0
  0
ARC
  5
19A
  8
FUTO
 10
20409.509994289761
 20
19042.42499394788
 30
0.0
 40
9.0
 50
89.999999999999915
 51
180.0
  0
LINE
  5
19B
  8
FUTO
 10
20430.009994289769
 20
19057.42499394789
 30
0.0
 11
20502.009994289769
 21
19057.42499394789
 31
0.0
  0
LINE
  5
19C
  8
FUTO
 10
20400.509994289761
 20
18966.42499394789
 30
0.0
 11
20531.509994289761
 21
18966.42499394789
 31
0.0
  0
ARC
  5
19D
  8
FUTO
 10
20522.509994289761
 20
19042.42499394788
 30
0.0
 40
9.0
 50
0.0
 51
90.0
  0
LINE
  5
1A1
  8
FUTO
 10
20716.106388399519
 20
18922.42499394789
 30
0.0
 11
20716.106388399519
 21
18772.42499394789
 31
0.0
  0
LINE
  5
1A2
  8
FUTO
 10
20707.106388399519
 20
18922.42499394789
 30
0.0
 11
20707.106388399519
 21
18772.42499394789
 31
0.0
  0
LINE
  5
1A3
  8
FUTO
 10
20725.106388399519
 20
18922.42499394789
 30
0.0
 11
20725.106388399519
 21
18772.42499394789
 31
0.0
  0
ARC
  5
1A4
  8
FUTO
 10
21285.106388399519
 20
20523.42499394788
 30
0.0
 40
1443.0
 50
229.06835973620599
 51
245.3021570415371
  0
LINE
  5
1A7
  8
FUTO
 10
20196.10638839953
 20
19429.383646991359
 30
0.0
 11
20196.106388399519
 21
19282.42499394789
 31
0.0
  0
LINE
  5
1A8
  8
FUTO
 10
20372.996186511569
 20
19431.186933993959
 30
0.0
 11
20330.999590644638
 21
19381.538301461311
 31
0.0
  0
LINE
  5
1A9
  8
FUTO
 10
20359.253351944029
 20
19442.81167046621
 30
0.0
 11
20317.256756077099
 21
19393.163037933551
 31
0.0
  0
LINE
  5
1AA
  8
FUTO
 10
20366.106388399519
 20
19436.977572302461
 30
0.0
 11
20324.12817336087
 21
19387.350669697429
 31
0.0
  0
LINE
  5
1AB
  8
FUTO
 10
20231.106388399519
 20
19282.42499394789
 30
0.0
 11
20241.106388399519
 21
19212.42499394789
 31
0.0
  0
LINE
  5
1AC
  8
FUTO
 10
20330.99959064466
 20
19381.5383014613
 30
0.0
 11
20317.256756077099
 21
19393.163037933558
 31
0.0
  0
LINE
  5
1AD
  8
FUTO
 10
20430.009994289769
 20
19062.42499394789
 30
0.0
 11
20502.009994289769
 21
19062.42499394789
 31
0.0
  0
LINE
  5
1AE
  8
KL
 10
20791.106388399519
 20
19212.42499394789
 30
0.0
 11
20791.106388399519
 21
19062.42499394789
 31
0.0
  0
LINE
  5
1AF
  8
FUTO
 10
20725.106388399519
 20
19212.42499394789
 30
0.0
 11
20725.106388399519
 21
19062.42499394789
 31
0.0
  0
LINE
  5
1B0
  8
FUTO
 10
20707.106388399519
 20
19212.42499394789
 30
0.0
 11
20707.106388399519
 21
19062.42499394789
 31
0.0
  0
LINE
  5
1B1
  8
FUTO
 10
20716.106388399519
 20
19212.42499394789
 30
0.0
 11
20716.106388399519
 21
19062.42499394789
 31
0.0
  0
LINE
  5
1B2
  8
KL
 10
20716.106388399519
 20
19226.589888486302
 30
0.0
 11
20716.106388399519
 21
19062.42499394789
 31
0.0
  0
DIMENSION
  5
1B3
  8
SP
  2
*D15
 10
21416.106388399519
 20
18337.217615229591
 30
0.0
 11
21946.106388399519
 21
18417.217615229591
 31
0.0
 70
     0
 13
22476.106388399519
 23
18772.42499394789
 33
0.0
 14
21416.106388399519
 24
18691.770818937679
 34
0.0
1001
ACAD
1000
DSTYLE
1002
{
1070
    40
1040
40.0
1002
}
  0
LINE
  5
1C0
  8
FUTO
 10
21292.588149509189
 20
19062.42499394789
 30
0.0
 11
21292.588149509189
 21
19051.42499394789
 31
0.0
  0
LINE
  5
1C1
  8
FUTO
 10
21220.588149509189
 20
19062.42499394789
 30
0.0
 11
21220.588149509189
 21
19051.42499394789
 31
0.0
  0
LINE
  5
1C2
  8
CT
 10
21256.588149509189
 20
19076.95297715511
 30
0.0
 11
21256.588149509189
 21
18902.74620225095
 31
0.0
  0
LINE
  5
1C3
  8
FUTO
 10
21191.088149509189
 20
18966.42499394789
 30
0.0
 11
21322.088149509189
 21
18966.42499394789
 31
0.0
  0
LINE
  5
1C4
  8
FUTO
 10
21220.588149509189
 20
19057.42499394789
 30
0.0
 11
21292.588149509189
 21
19057.42499394789
 31
0.0
  0
LINE
  5
1C5
  8
FUTO
 10
21220.588149509189
 20
18922.42499394789
 30
0.0
 11
21292.588149509189
 21
18922.42499394789
 31
0.0
  0
LINE
  5
1C6
  8
FUTO
 10
21214.588149509189
 20
18933.42499394789
 30
0.0
 11
21298.588149509189
 21
18933.42499394789
 31
0.0
  0
LINE
  5
1C7
  8
FUTO
 10
21220.588149509189
 20
18927.42499394789
 30
0.0
 11
21292.588149509189
 21
18927.42499394789
 31
0.0
  0
LINE
  5
1C8
  8
FUTO
 10
21200.088149509189
 20
19051.42499394789
 30
0.0
 11
21313.088149509189
 21
19051.42499394789
 31
0.0
  0
ARC
  5
1C9
  8
FUTO
 10
21200.088149509189
 20
19042.42499394788
 30
0.0
 40
9.0
 50
89.999999999999915
 51
180.0
  0
LINE
  5
1CA
  8
FUTO
 10
21191.088149509189
 20
19042.42499394788
 30
0.0
 11
21191.088149509189
 21
18966.42499394789
 31
0.0
  0
LINE
  5
1CB
  8
FUTO
 10
21220.588149509189
 20
18933.42499394789
 30
0.0
 11
21220.588149509189
 21
18922.42499394789
 31
0.0
  0
LINE
  5
1CC
  8
FUTO
 10
21207.588149509189
 20
18966.42499394789
 30
0.0
 11
21207.588149509189
 21
18940.42499394789
 31
0.0
  0
ARC
  5
1CD
  8
FUTO
 10
21214.588149509189
 20
18940.42499394789
 30
0.0
 40
7.0
 50
179.99999999999989
 51
269.99999999999977
  0
ARC
  5
1CE
  8
FUTO
 10
21313.088149509189
 20
19042.42499394788
 30
0.0
 40
9.0
 50
0.0
 51
90.0
  0
LINE
  5
1CF
  8
FUTO
 10
21292.588149509189
 20
18933.42499394789
 30
0.0
 11
21292.588149509189
 21
18922.42499394789
 31
0.0
  0
LINE
  5
1D0
  8
FUTO
 10
21305.588149509189
 20
18966.42499394789
 30
0.0
 11
21305.588149509189
 21
18940.42499394789
 31
0.0
  0
ARC
  5
1D1
  8
FUTO
 10
21298.588149509189
 20
18940.42499394789
 30
0.0
 40
7.0
 50
270.00000000000011
 51
0.0000000000000254
  0
LINE
  5
1D2
  8
FUTO
 10
21322.088149509189
 20
19042.42499394788
 30
0.0
 11
21322.088149509189
 21
18966.42499394789
 31
0.0
  0
LINE
  5
1D3
  8
FUTO
 10
21220.588149509189
 20
19062.42499394789
 30
0.0
 11
21292.588149509189
 21
19062.42499394789
 31
0.0
  0
LINE
  5
1D4
  8
CT
 10
22294.22197162293
 20
19076.95297715511
 30
0.0
 11
22294.22197162293
 21
18902.74620225095
 31
0.0
  0
LINE
  5
1D5
  8
FUTO
 10
22330.22197162293
 20
19062.42499394789
 30
0.0
 11
22330.22197162293
 21
19051.42499394789
 31
0.0
  0
LINE
  5
1D6
  8
FUTO
 10
22258.22197162293
 20
19062.42499394789
 30
0.0
 11
22258.22197162293
 21
19051.42499394789
 31
0.0
  0
LINE
  5
1D7
  8
FUTO
 10
22237.72197162293
 20
19051.42499394789
 30
0.0
 11
22350.72197162293
 21
19051.42499394789
 31
0.0
  0
LINE
  5
1D8
  8
FUTO
 10
22258.22197162293
 20
18927.42499394789
 30
0.0
 11
22330.22197162293
 21
18927.42499394789
 31
0.0
  0
LINE
  5
1D9
  8
FUTO
 10
22252.22197162293
 20
18933.42499394789
 30
0.0
 11
22336.22197162293
 21
18933.42499394789
 31
0.0
  0
LINE
  5
1DA
  8
FUTO
 10
22258.22197162293
 20
18922.42499394789
 30
0.0
 11
22330.22197162293
 21
18922.42499394789
 31
0.0
  0
LINE
  5
1DB
  8
FUTO
 10
22258.22197162293
 20
19057.42499394789
 30
0.0
 11
22330.22197162293
 21
19057.42499394789
 31
0.0
  0
LINE
  5
1DC
  8
FUTO
 10
22228.72197162293
 20
18966.42499394789
 30
0.0
 11
22359.72197162293
 21
18966.42499394789
 31
0.0
  0
ARC
  5
1DD
  8
FUTO
 10
22252.22197162293
 20
18940.42499394789
 30
0.0
 40
7.0
 50
179.99999999999989
 51
269.99999999999977
  0
LINE
  5
1DE
  8
FUTO
 10
22245.22197162293
 20
18966.42499394789
 30
0.0
 11
22245.22197162293
 21
18940.42499394789
 31
0.0
  0
LINE
  5
1DF
  8
FUTO
 10
22258.22197162293
 20
18933.42499394789
 30
0.0
 11
22258.22197162293
 21
18922.42499394789
 31
0.0
  0
LINE
  5
1E0
  8
FUTO
 10
22228.72197162293
 20
19042.42499394788
 30
0.0
 11
22228.72197162293
 21
18966.42499394789
 31
0.0
  0
ARC
  5
1E1
  8
FUTO
 10
22237.72197162293
 20
19042.42499394788
 30
0.0
 40
9.0
 50
89.999999999999915
 51
180.0
  0
LINE
  5
1E2
  8
FUTO
 10
22116.106388399519
 20
18922.42499394789
 30
0.0
 11
22116.106388399519
 21
18772.42499394789
 31
0.0
  0
LINE
  5
1E3
  8
FUTO
 10
22359.72197162293
 20
19042.42499394788
 30
0.0
 11
22359.72197162293
 21
18966.42499394789
 31
0.0
  0
ARC
  5
1E4
  8
FUTO
 10
22336.22197162293
 20
18940.42499394789
 30
0.0
 40
7.0
 50
270.00000000000011
 51
0.0000000000000254
  0
LINE
  5
1E5
  8
FUTO
 10
22343.22197162293
 20
18966.42499394789
 30
0.0
 11
22343.22197162293
 21
18940.42499394789
 31
0.0
  0
LINE
  5
1E6
  8
FUTO
 10
22330.22197162293
 20
18933.42499394789
 30
0.0
 11
22330.22197162293
 21
18922.42499394789
 31
0.0
  0
ARC
  5
1E7
  8
FUTO
 10
22350.72197162293
 20
19042.42499394788
 30
0.0
 40
9.0
 50
0.0
 51
90.0
  0
LINE
  5
1E8
  8
FUTO
 10
22476.106388399519
 20
18922.42499394789
 30
0.0
 11
22476.106388399519
 21
18772.42499394789
 31
0.0
  0
LINE
  5
1E9
  8
FUTO
 10
22258.22197162293
 20
19062.42499394789
 30
0.0
 11
22330.22197162293
 21
19062.42499394789
 31
0.0
  0
LINE
  5
1EC
  8
KL
 10
22041.106388399519
 20
19212.42499394789
 30
0.0
 11
22041.106388399519
 21
19062.42499394789
 31
0.0
  0
LINE
  5
1ED
  8
FUTO
 10
22116.106388399519
 20
19212.42499394789
 30
0.0
 11
22116.106388399519
 21
19062.42499394789
 31
0.0
  0
LINE
  5
1EE
  8
KL
 10
22116.106388399519
 20
19226.589888486302
 30
0.0
 11
22116.106388399519
 21
19062.42499394789
 31
0.0
  0
LINE
  5
1EF
  8
FUTO
 10
22476.106388399519
 20
19212.42499394789
 30
0.0
 11
22476.106388399519
 21
19062.42499394789
 31
0.0
  0
LINE
  5
1F0
  8
FUTO
 10
19727.226473954681
 20
25319.847841656188
 30
0.0
 11
19727.226473954681
 21
25167.847841656188
 31
0.0
  0
LINE
  5
1F1
  8
FUTO
 10
19476.106388399519
 20
25394.847841656188
 30
0.0
 11
19476.106388399519
 21
25319.847841656188
 31
0.0
  0
LINE
  5
1F2
  8
CT
 10
19916.106388399519
 20
25245.21973021431
 30
0.0
 11
19916.106388399519
 21
23701.753018609539
 31
0.0
  0
LINE
  5
1F3
  8
FUTO
 10
20716.106388399519
 20
25319.847841656188
 30
0.0
 11
20716.106388399519
 21
23947.847841656188
 31
0.0
  0
LINE
  5
1F4
  8
FUTO
 10
20791.106388399519
 20
25319.847841656188
 30
0.0
 11
20791.106388399519
 21
24022.847841656188
 31
0.0
  0
LINE
  5
1F5
  8
FUTO
 10
22041.106388399519
 20
25319.847841656188
 30
0.0
 11
22041.106388399519
 21
24022.847841656188
 31
0.0
  0
LINE
  5
1F6
  8
FUTO
 10
22116.106388399519
 20
25319.847841656188
 30
0.0
 11
22116.106388399519
 21
23947.847841656188
 31
0.0
  0
DIMENSION
  5
253
  8
SP
  2
*D16
 10
21416.106388399519
 20
22854.22301011048
 30
0.0
 11
21998.606388399519
 21
22934.22301011048
 31
0.0
 70
     0
 13
22581.106388399519
 23
22382.42499394789
 33
0.0
 14
21416.106388399519
 24
22382.690532512261
 34
0.0
1001
ACAD
1000
DSTYLE
1002
{
1070
    40
1040
40.0
1002
}
  0
LINE
  5
262
  8
KL
 10
21074.05796257548
 20
20270.42499394789
 30
0.0
 11
20859.993105025831
 21
19646.182975539788
 31
0.0
  0
ARC
  5
263
  8
FUTO
 10
21416.106388399519
 20
20392.42499394789
 30
0.0
 40
480.0
 50
292.25759497155337
 51
125.65684022602289
  0
LINE
  5
264
  8
FUTO
 10
19752.88617895493
 20
19789.93139655859
 30
0.0
 11
21136.300315065939
 21
20782.435969851958
 31
0.0
  0
LINE
  5
265
  8
FUTO
 10
21116.10638839953
 20
20270.42499394789
 30
0.0
 11
21074.05796257548
 21
20270.42499394789
 31
0.0
  0
LINE
  5
267
  8
FUTO
 10
19818.106388399519
 20
20383.42499394789
 30
0.0
 11
20580.134188095381
 21
20383.424993947901
 31
0.0
  0
LINE
  5
268
  8
FUTO
 10
19818.106388399519
 20
20401.42499394788
 30
0.0
 11
20605.223699136499
 21
20401.42499394788
 31
0.0
  0
ARC
  5
269
  8
FUTO
 10
21547.106388399519
 20
20523.42499394788
 30
0.0
 40
1705.0
 50
94.406540507256949
 51
184.10326320891221
  0
ARC
  5
26A
  8
KL
 10
21547.106388399519
 20
20523.42499394788
 30
0.0
 40
1685.0
 50
95.387940861003216
 51
175.16337676580599
  0
LINE
  5
26D
  8
FUTO
 10
20375.10638839953
 20
21761.746842257118
 30
0.0
 11
20375.106388399519
 21
20392.42499394789
 31
0.0
  0
LINE
  5
26E
  8
FUTO
 10
20366.106388399519
 20
21753.1664301856
 30
0.0
 11
20366.106388399519
 21
20392.42499394789
 31
0.0
  0
LINE
  5
26F
  8
KL
 10
19868.106388399519
 20
20392.88764297124
 30
0.0
 11
19868.106388399519
 21
20665.495399029322
 31
0.0
  0
LINE
  5
272
  8
CT
 10
19814.399973775249
 20
20012.42499394789
 30
0.0
 11
19660.103036255568
 21
20012.42499394789
 31
0.0
  0
LINE
  5
273
  8
FUTO
 10
20126.106388399519
 20
20152.42499394789
 30
0.0
 11
19736.106388399519
 21
20152.42499394789
 31
0.0
  0
LINE
  5
274
  8
FUTO
 10
20126.106388399519
 20
19887.42499394789
 30
0.0
 11
19736.106388399519
 21
19887.42499394789
 31
0.0
  0
ARC
  5
275
  8
FUTO
 10
19736.106388399519
 20
20132.42499394789
 30
0.0
 40
20.0
 50
90.0
 51
180.0
  0
ARC
  5
276
  8
FUTO
 10
19736.106388399519
 20
19907.42499394789
 30
0.0
 40
20.0
 50
180.0
 51
270.0
  0
LINE
  5
277
  8
FUTO
 10
19716.106388399519
 20
20132.42499394789
 30
0.0
 11
19716.106388399519
 21
19907.42499394789
 31
0.0
  0
ARC
  5
279
  8
FUTO
 10
20126.106388399519
 20
20132.42499394789
 30
0.0
 40
20.0
 50
0.0
 51
90.0
  0
LINE
  5
27A
  8
KL
 10
19969.752745597289
 20
19981.785081859689
 30
0.0
 11
19933.439507630621
 21
19964.851940903431
 31
0.0
  0
LINE
  5
27B
  8
CT
 10
20032.785592255001
 20
19939.458216238942
 30
0.0
 11
19925.839309018938
 21
19889.58834535475
 31
0.0
  0
LINE
  5
27C
  8
KL
 10
19920.15024714285
 20
19969.688836156391
 30
0.0
 11
19983.542986403951
 21
19833.742668100898
 31
0.0
  0
LINE
  5
27D
  8
KL
 10
19933.439507630621
 20
19964.851940903431
 30
0.0
 11
19988.379881656911
 21
19847.031928588669
 31
0.0
  0
LINE
  5
27E
  8
KL
 10
19965.526562979881
 20
19990.84815973006
 30
0.0
 11
19920.15024714285
 21
19969.688836156391
 31
0.0
  0
LINE
  5
27F
  8
KL
 10
20028.919302240989
 20
19854.901991674571
 30
0.0
 11
19983.542986403951
 21
19833.742668100898
 31
0.0
  0
LINE
  5
280
  8
KL
 10
20024.693119623578
 20
19863.965069544931
 30
0.0
 11
19988.379881656911
 21
19847.031928588669
 31
0.0
  0
ARC
  5
281
  8
FUTO
 10
20126.106388399519
 20
19907.42499394789
 30
0.0
 40
20.0
 50
270.0
 51
0.0
  0
LINE
  5
282
  8
FUTO
 10
20146.106388399519
 20
20132.42499394789
 30
0.0
 11
20146.106388399519
 21
19907.42499394789
 31
0.0
  0
LINE
  5
283
  8
FUTO
 10
19818.106388399519
 20
20401.42499394788
 30
0.0
 11
19818.106388399519
 21
20383.42499394789
 31
0.0
  0
ARC
  5
284
  8
FUTO
 10
21285.106388399519
 20
20523.42499394788
 30
0.0
 40
1443.0
 50
185.5676000385219
 51
194.8982488347483
  0
LINE
  5
285
  8
FUTO
 10
22516.106388399519
 20
20394.42499394789
 30
0.0
 11
22516.106388399519
 21
22382.42499394789
 31
0.0
  0
LINE
  5
286
  8
FUTO
 10
22581.106388399519
 20
20606.984765980222
 30
0.0
 11
22581.106388399519
 21
21634.386934725011
 31
0.0
  0
LINE
  5
287
  8
FUTO
 10
22581.106388399519
 20
20606.984765980222
 30
0.0
 11
22581.106388399519
 21
22382.42499394789
 31
0.0
  0
LINE
  5
288
  8
FUTO
 10
22575.106388399519
 20
20605.926804095969
 30
0.0
 11
22575.106388399519
 21
21640.386934725011
 31
0.0
  0
LINE
  5
289
  8
FUTO
 10
22457.106388399519
 20
22321.818631207479
 30
0.0
 11
22457.106388399519
 21
20401.42499394788
 31
0.0
  0
LINE
  5
28A
  8
FUTO
 10
22466.106388399519
 20
22322.667470554909
 30
0.0
 11
22466.106388399519
 21
20401.42499394788
 31
0.0
  0
LINE
  5
291
  8
KL
 10
21614.327202636821
 20
20365.807165277962
 30
0.0
 11
21893.349903234619
 21
20341.057421026399
 31
0.0
  0
LINE
  5
292
  8
KL
 10
21615.91758614064
 20
20383.736768740138
 30
0.0
 11
21894.940286738431
 21
20358.987024488579
 31
0.0
  0
LINE
  5
294
  8
FUTO
 10
21716.106388399519
 20
20270.42499394789
 30
0.0
 11
21758.15481422357
 21
20270.42499394789
 31
0.0
  0
CIRCLE
  5
295
  8
SL
 10
21416.106388399519
 20
20392.42499394789
 30
0.0
 40
355.0
  0
ARC
  5
296
  8
FUTO
 10
21468.106388399519
 20
20482.491635941471
 30
0.0
 40
15.000000000000099
 50
325.86450299682889
 51
154.1354970031779
  0
ARC
  5
297
  8
FUTO
 10
21416.106388399519
 20
20392.42499394789
 30
0.0
 40
103.9999999999995
 50
68.270994006339876
 51
111.72900599366061
  0
LINE
  5
298
  8
CT
 10
21416.106388399519
 20
20516.193753112599
 30
0.0
 11
21416.106388399519
 21
20262.601270045769
 31
0.0
  0
ARC
  5
299
  8
FUTO
 10
21364.106388399519
 20
20482.491635941471
 30
0.0
 40
15.000000000000201
 50
25.864502996822321
 51
214.13549700317051
  0
ARC
  5
29E
  8
FUTO
 10
21468.106388399519
 20
20302.35835195431
 30
0.0
 40
14.99999999999998
 50
205.8645029968221
 51
34.135497003171587
  0
CIRCLE
  5
29F
  8
FUTO
 10
21416.106388399519
 20
20392.42499394789
 30
0.0
 40
41.5
  0
LINE
  5
2A0
  8
FUTO
 10
21331.106388399519
 20
20285.42499394788
 30
0.0
 11
21501.106388399519
 21
20285.42499394788
 31
0.0
  0
LINE
  5
2A2
  8
KL
 10
21758.15481422357
 20
20270.42499394789
 30
0.0
 11
21416.106388399519
 21
20270.42499394789
 31
0.0
  0
LINE
  5
2A4
  8
FUTO
 10
21292.106388399519
 20
20316.42499394789
 30
0.0
 11
21224.106388399519
 21
20316.42499394789
 31
0.0
  0
LINE
  5
2A5
  8
FUTO
 10
21211.106388399519
 20
20280.42499394789
 30
0.0
 11
21331.106388399519
 21
20280.42499394789
 31
0.0
  0
LINE
  5
2A6
  8
KL
 10
21074.05796257548
 20
20270.42499394789
 30
0.0
 11
21416.106388399519
 21
20270.42499394789
 31
0.0
  0
LINE
  5
2A7
  8
FUTO
 10
21211.106388399519
 20
20280.42499394789
 30
0.0
 11
21211.106388399519
 21
20270.42499394789
 31
0.0
  0
ARC
  5
2A8
  8
FUTO
 10
21224.106388399519
 20
20313.42499394789
 30
0.0
 40
3.0
 50
90.0
 51
180.0
  0
LINE
  5
2A9
  8
FUTO
 10
21221.106388399519
 20
20313.42499394789
 30
0.0
 11
21221.106388399519
 21
20280.42499394789
 31
0.0
  0
LINE
  5
2AA
  8
KL
 10
21216.106388399519
 20
20401.42499394788
 30
0.0
 11
21216.106388399519
 21
20383.42499394789
 31
0.0
  0
ARC
  5
2AD
  8
FUTO
 10
21416.106388399519
 20
20392.42499394789
 30
0.0
 40
104.0000000000007
 50
248.2709940063402
 51
291.72900599366039
  0
ARC
  5
2AE
  8
FUTO
 10
21312.106388399519
 20
20392.42499394789
 30
0.0
 40
15.0
 50
85.864502996829486
 51
274.13549700317049
  0
ARC
  5
2AF
  8
FUTO
 10
21292.106388399519
 20
20336.42499394789
 30
0.0
 40
20.0
 50
270.0
 51
0.0
  0
LINE
  5
2B0
  8
FUTO
 10
21331.106388399519
 20
20280.42499394789
 30
0.0
 11
21331.106388399519
 21
20285.42499394788
 31
0.0
  0
LINE
  5
2B1
  8
CT
 10
21256.106388399519
 20
20270.42499394789
 30
0.0
 11
21256.106388399519
 21
20326.42499394789
 31
0.0
  0
LINE
  5
2B2
  8
FUTO
 10
21312.106388399519
 20
20377.42499394789
 30
0.0
 11
21312.106388399519
 21
20336.42499394789
 31
0.0
  0
ARC
  5
2B3
  8
FUTO
 10
21364.106388399519
 20
20302.35835195431
 30
0.0
 40
14.999999999999719
 50
145.86450299682909
 51
334.13549700317708
  0
ARC
  5
2B4
  8
FUTO
 10
21416.106388399519
 20
20392.42499394789
 30
0.0
 40
104.0000000000002
 50
188.27099400634
 51
231.72900599366079
  0
ARC
  5
2B5
  8
FUTO
 10
21416.106388399519
 20
20392.42499394789
 30
0.0
 40
103.9999999999998
 50
128.27099400633969
 51
171.72900599366039
  0
LINE
  5
2B6
  8
KL
 10
21615.91758614064
 20
20383.736768740138
 30
0.0
 11
21614.327202636821
 21
20365.807165277962
 31
0.0
  0
LINE
  5
2B7
  8
FUTO
 10
21621.106388399519
 20
20270.42499394789
 30
0.0
 11
21621.106388399519
 21
20280.42499394789
 31
0.0
  0
ARC
  5
2B8
  8
FUTO
 10
21608.106388399519
 20
20313.42499394789
 30
0.0
 40
3.0
 50
0.0
 51
90.0
  0
LINE
  5
2B9
  8
FUTO
 10
21611.106388399519
 20
20280.42499394789
 30
0.0
 11
21611.106388399519
 21
20313.42499394789
 31
0.0
  0
LINE
  5
2BA
  8
CT
 10
21576.106388399519
 20
20270.42499394789
 30
0.0
 11
21576.106388399519
 21
20326.42499394789
 31
0.0
  0
LINE
  5
2BB
  8
FUTO
 10
21608.106388399519
 20
20316.42499394789
 30
0.0
 11
21540.106388399519
 21
20316.42499394789
 31
0.0
  0
LINE
  5
2BC
  8
FUTO
 10
21520.106388399519
 20
20336.42499394789
 30
0.0
 11
21520.106388399519
 21
20377.42499394789
 31
0.0
  0
ARC
  5
2BD
  8
FUTO
 10
21540.106388399519
 20
20336.42499394789
 30
0.0
 40
20.0
 50
180.0
 51
270.0
  0
LINE
  5
2BE
  8
FUTO
 10
21501.106388399519
 20
20285.42499394788
 30
0.0
 11
21501.106388399519
 21
20280.42499394789
 31
0.0
  0
LINE
  5
2BF
  8
FUTO
 10
21501.106388399519
 20
20280.42499394789
 30
0.0
 11
21621.106388399519
 21
20280.42499394789
 31
0.0
  0
ARC
  5
2C0
  8
FUTO
 10
21520.106388399519
 20
20392.42499394789
 30
0.0
 40
15.0
 50
270.0
 51
94.135497003170499
  0
ARC
  5
2C1
  8
FUTO
 10
21416.106388399519
 20
20392.42499394789
 30
0.0
 40
103.9999999999998
 50
308.27099400633961
 51
351.72900599366039
  0
ARC
  5
2C2
  8
FUTO
 10
21416.106388399519
 20
20392.42499394789
 30
0.0
 40
103.9999999999994
 50
8.2709940063397092
 51
51.729005993660358
  0
INSERT
  5
2C5
  8
FUTO
  2
左回転矢印
 10
21603.540994951771
 20
21090.864067296829
 30
0.0
 41
-2.0
 42
2.0
 43
2.0
  0
LINE
  5
2D0
  8
FUTO
 10
21443.160890916632
 20
20492.844383975669
 30
0.0
 11
21443.160890916632
 21
20496.42499394789
 31
0.0
  0
LINE
  5
2D1
  8
FUTO
 10
21389.051885882422
 20
20492.844383975669
 30
0.0
 11
21389.051885882422
 21
20496.42499394789
 31
0.0
  0
LINE
  5
2D2
  8
FUTO
 10
21389.051885882422
 20
20496.42499394789
 30
0.0
 11
21443.160890916632
 21
20496.42499394789
 31
0.0
  0
LINE
  5
2D3
  8
FUTO
 10
22575.106388399519
 20
20394.42499394789
 30
0.0
 11
22575.106388399519
 21
20641.77338488802
 31
0.0
  0
LINE
  5
2D4
  8
FUTO
 10
22581.106388399519
 20
20394.42499394789
 30
0.0
 11
22581.106388399519
 21
20643.111968046978
 31
0.0
  0
LINE
  5
2D5
  8
FUTO
 10
22581.106388399519
 20
20394.42499394789
 30
0.0
 11
22581.106388399519
 21
20588.707086966278
 31
0.0
  0
ARC
  5
2D6
  8
KL
 10
21526.606388399519
 20
20281.92499394789
 30
0.0
 40
960.5
 50
0.0
 51
35.700636604433633
  0
LINE
  5
2D8
  8
FUTO
 10
22496.20287755947
 20
20443.42499394788
 30
0.0
 11
22581.106388399519
 21
20443.42499394788
 31
0.0
  0
LINE
  5
2D9
  8
FUTO
 10
22516.106388399519
 20
20394.42499394789
 30
0.0
 11
22581.106388399519
 21
20394.42499394789
 31
0.0
  0
LINE
  5
2DA
  8
FUTO
 10
22516.106388399519
 20
20394.42499394789
 30
0.0
 11
22581.106388399519
 21
20394.42499394789
 31
0.0
  0
LINE
  5
2DB
  8
KL
 10
22469.80202028084
 20
20463.42499394789
 30
0.0
 11
22581.106388399519
 21
20463.42499394789
 31
0.0
  0
LINE
  5
2DC
  8
FUTO
 10
22603.873678806551
 20
20296.10353827944
 30
0.0
 11
22606.28333950962
 21
20277.819124721522
 31
0.0
  0
LINE
  5
2DD
  8
FUTO
 10
22581.106388399519
 20
22333.513751105489
 30
0.0
 11
21387.008979350208
 21
22220.891877164078
 31
0.0
  0
LINE
  5
2DE
  8
KL
 10
22581.106388399519
 20
22313.42499394789
 30
0.0
 11
21388.88695482293
 21
22200.98024217035
 31
0.0
  0
LINE
  5
2E3
  8
FUTO
 10
22575.106388399519
 20
21640.386934725011
 30
0.0
 11
22575.106388399519
 21
22382.42499394789
 31
0.0
  0
LINE
  5
2E4
  8
FUTO
 10
22516.106388399519
 20
22382.42499394789
 30
0.0
 11
22581.106388399519
 21
22382.42499394789
 31
0.0
  0
LINE
  5
2FF
  8
FUTO
 10
19476.106388399519
 20
24022.847841656188
 30
0.0
 11
22116.106388399519
 21
24022.847841656188
 31
0.0
  0
LINE
  5
300
  8
FUTO
 10
19476.106388399519
 20
23947.847841656188
 30
0.0
 11
22116.106388399519
 21
23947.847841656188
 31
0.0
  0
LINE
  5
3C8
  8
FUTO
 10
19862.106388399519
 20
26722.847841656188
 30
0.0
 11
22581.106388399519
 21
26722.847841656188
 31
0.0
  0
LINE
  5
3C9
  8
FUTO
 10
20356.106388399519
 20
25394.847841656188
 30
0.0
 11
22581.106388399519
 21
25394.847841656188
 31
0.0
  0
LINE
  5
3CA
  8
FUTO
 10
20356.106388399519
 20
25319.847841656188
 30
0.0
 11
22476.106388399519
 21
25319.847841656188
 31
0.0
  0
LINE
  5
3CB
  8
FUTO
 10
20356.106388399519
 20
26797.847841656188
 30
0.0
 11
22476.106388399519
 21
26797.847841656188
 31
0.0
  0
LINE
  5
3DA
  8
FUTO
 10
19476.106388399519
 20
25319.847841656188
 30
0.0
 11
20716.106388399519
 21
25319.847841656188
 31
0.0
  0
LINE
  5
3DB
  8
FUTO
 10
19476.106388399519
 20
25394.847841656188
 30
0.0
 11
19812.106388399519
 21
25394.847841656188
 31
0.0
  0
LINE
  5
406
  8
FUTO
 10
22476.106388399519
 20
25319.847841656188
 30
0.0
 11
22476.106388399519
 21
25344.847841656181
 31
0.0
  0
LINE
  5
438
  8
SL
 10
24326.681833359711
 20
20670.798793947892
 30
0.0
 11
24326.681833359711
 21
19670.798793947892
 31
0.0
  0
LINE
  5
439
  8
SL
 10
24156.681833359711
 20
20670.798793947892
 30
0.0
 11
24156.681833359711
 21
19670.798793947892
 31
0.0
  0
LINE
  5
43A
  8
CT
 10
26456.681833359711
 20
22574.167390279639
 30
0.0
 11
26456.681833359711
 21
18751.497925347969
 31
0.0
  0
LINE
  5
43C
  8
FUTO
 10
27119.881833359708
 20
19212.4249773419
 30
0.0
 11
27119.881833359708
 21
20459.498793947889
 31
0.0
  0
LINE
  5
43D
  8
FUTO
 10
27116.681833359718
 20
19212.4249773419
 30
0.0
 11
27116.681833359711
 21
20459.498793947889
 31
0.0
  0
LINE
  5
43E
  8
FUTO
 10
25796.681833359718
 20
19212.4249773419
 30
0.0
 11
25796.681833359711
 21
20459.498793947889
 31
0.0
  0
LINE
  5
43F
  8
FUTO
 10
25793.48183335971
 20
19212.4249773419
 30
0.0
 11
25793.48183335971
 21
20459.498793947889
 31
0.0
  0
LINE
  5
441
  8
FUTO
 10
24356.681833359711
 20
20770.798793947892
 30
0.0
 11
24356.681833359711
 21
19310.798793947892
 31
0.0
  0
LINE
  5
442
  8
FUTO
 10
24006.681833359711
 20
20770.798793947892
 30
0.0
 11
24006.681833359711
 21
19310.798793947892
 31
0.0
  0
LINE
  5
445
  8
FUTO
 10
25406.681833359711
 20
20240.798793947892
 30
0.0
 11
25406.6818333597
 21
20230.798793947892
 31
0.0
  0
LINE
  5
446
  8
FUTO
 10
25586.681833359711
 20
20240.798793947892
 30
0.0
 11
25586.681833359711
 21
19212.4249773419
 31
0.0
  0
LINE
  5
449
  8
FUTO
 10
24585.681833359711
 20
20268.798793947892
 30
0.0
 11
24585.681833359711
 21
20230.798793947892
 31
0.0
  0
LINE
  5
44A
  8
FUTO
 10
24405.681833359711
 20
20268.798793947892
 30
0.0
 11
24405.681833359711
 21
19212.4249773419
 31
0.0
  0
DIMENSION
  5
44B
  8
SP
  2
*D20
 10
27831.68997557144
 20
19490.798793947892
 30
0.0
 11
27751.68997557144
 21
20390.798793947892
 31
0.0
 70
     0
  1
%%C<>
 13
27251.681833359711
 23
21290.798793947892
 33
0.0
 14
27251.681833359711
 24
19490.798793947892
 34
0.0
 50
90.0
1001
ACAD
1000
DSTYLE
1002
{
1070
    40
1040
40.0
1002
}
  0
LINE
  5
461
  8
KL
 10
27125.881833359708
 20
21355.798793947892
 30
0.0
 11
27125.881833359708
 21
19425.798793947892
 31
0.0
  0
LINE
  5
462
  8
FUTO
 10
27245.681833359711
 20
21355.798793947892
 30
0.0
 11
27245.681833359711
 21
19425.798793947892
 31
0.0
  0
LINE
  5
463
  8
FUTO
 10
27251.681833359711
 20
21355.798793947892
 30
0.0
 11
27251.681833359711
 21
19425.798793947892
 31
0.0
  0
LINE
  5
464
  8
FUTO
 10
25703.48183335971
 20
20269.013216939591
 30
0.0
 11
25703.48183335971
 21
19212.4249773419
 31
0.0
  0
LINE
  5
465
  8
FUTO
 10
27209.881833359708
 20
20269.013216939591
 30
0.0
 11
27209.881833359708
 21
19212.4249773419
 31
0.0
  0
LINE
  5
46B
  8
FUTO
 10
25717.681833359711
 20
18910.4249773419
 30
0.0
 11
27120.67783335971
 21
18910.4249773419
 31
0.0
  0
LINE
  5
46C
  8
FUTO
 10
25717.681833359711
 20
18784.4249773419
 30
0.0
 11
27120.67783335971
 21
18784.4249773419
 31
0.0
  0
LINE
  5
46D
  8
FUTO
 10
25717.681833359711
 20
19074.4249773419
 30
0.0
 11
27120.67783335971
 21
19074.4249773419
 31
0.0
  0
LINE
  5
46E
  8
FUTO
 10
25717.681833359711
 20
19200.4249773419
 30
0.0
 11
27120.67783335971
 21
19200.4249773419
 31
0.0
  0
LINE
  5
46F
  8
KL
 10
25796.681833359718
 20
19098.798793947892
 30
0.0
 11
27116.681833359718
 21
19098.798793947892
 31
0.0
  0
LINE
  5
470
  8
FUTO
 10
24345.685833359708
 20
18922.4249773419
 30
0.0
 11
27200.681833359711
 21
18922.4249773419
 31
0.0
1001
ACAD
1000
ASC_BOUNDS
1002
{
1070
    19
1002
}
  0
LINE
  5
471
  8
FUTO
 10
24345.681833359711
 20
19062.4249773419
 30
0.0
 11
27195.681833359711
 21
19062.424977341911
 31
0.0
1001
ACAD
1000
ASC_BOUNDS
1002
{
1070
    19
1005
0
1005
0
1005
0
1002
}
  0
DIMENSION
  5
472
  8
SP
  2
*D18
 10
26456.681833359711
 20
18332.94436457759
 30
0.0
 11
25401.181833359711
 21
18412.94436457759
 31
0.0
 70
     0
 13
24345.681833359711
 23
18772.4249773419
 33
0.0
 14
26456.681833359711
 24
18751.497925347969
 34
0.0
1001
ACAD
1000
DSTYLE
1002
{
1070
    40
1040
40.0
1002
}
  0
DIMENSION
  5
47F
  8
SP
  2
*D17
 10
27195.681833359711
 20
18032.906819612668
 30
0.0
 11
25770.681833359711
 21
18112.906819612668
 31
0.0
 70
     0
 13
24345.681833359711
 23
18772.4249773419
 33
0.0
 14
27195.681833359711
 24
18772.4249773419
 34
0.0
1001
ACAD
1000
DSTYLE
1002
{
1070
    40
1040
40.0
1002
}
  0
LINE
  5
48C
  8
FUTO
 10
24345.681833359711
 20
18772.4249773419
 30
0.0
 11
27195.67783335971
 21
18772.4249773419
 31
0.0
  0
LINE
  5
48D
  8
FUTO
 10
24345.681833359711
 20
19212.4249773419
 30
0.0
 11
27209.881833359708
 21
19212.4249773419
 31
0.0
  0
LINE
  5
48E
  8
CT
 10
23948.3725618108
 20
19560.798793947892
 30
0.0
 11
24528.87509466691
 21
19560.798793947892
 31
0.0
  0
LINE
  5
48F
  8
FUTO
 10
24315.185833359708
 20
18964.798793947892
 30
0.0
 11
24446.185833359708
 21
18964.798793947892
 31
0.0
  0
ARC
  5
490
  8
FUTO
 10
24437.185833359708
 20
19040.798793947892
 30
0.0
 40
9.0
 50
0.0
 51
90.0
  0
LINE
  5
491
  8
FUTO
 10
24420.685833359708
 20
18784.4249773419
 30
0.0
 11
25699.791937965219
 21
18784.4249773419
 31
0.0
  0
LINE
  5
492
  8
FUTO
 10
24420.685833359708
 20
18910.4249773419
 30
0.0
 11
25699.79193796523
 21
18910.4249773419
 31
0.0
  0
LINE
  5
493
  8
FUTO
 10
24420.685833359708
 20
19200.4249773419
 30
0.0
 11
25699.79193796523
 21
19200.4249773419
 31
0.0
  0
LINE
  5
494
  8
FUTO
 10
24420.685833359708
 20
19074.4249773419
 30
0.0
 11
25699.79193796523
 21
19074.4249773419
 31
0.0
  0
LINE
  5
495
  8
CT
 10
24380.685833359708
 20
19075.326777155111
 30
0.0
 11
24380.685833359708
 21
18901.120002250951
 31
0.0
  0
LINE
  5
496
  8
FUTO
 10
24424.185833359708
 20
19060.798793947892
 30
0.0
 11
24424.185833359708
 21
19049.798793947892
 31
0.0
  0
LINE
  5
497
  8
FUTO
 10
24419.185833359708
 20
19060.798793947892
 30
0.0
 11
24419.185833359708
 21
19055.798793947892
 31
0.0
  0
LINE
  5
498
  8
FUTO
 10
24337.185833359708
 20
19060.798793947892
 30
0.0
 11
24337.185833359708
 21
19049.798793947892
 31
0.0
  0
LINE
  5
499
  8
FUTO
 10
24342.185833359708
 20
19060.798793947892
 30
0.0
 11
24342.185833359708
 21
19055.798793947892
 31
0.0
  0
LINE
  5
49A
  8
FUTO
 10
24324.185833359708
 20
19049.798793947892
 30
0.0
 11
24437.185833359708
 21
19049.798793947892
 31
0.0
  0
LINE
  5
49B
  8
FUTO
 10
24342.185833359708
 20
18925.798793947892
 30
0.0
 11
24342.185833359708
 21
18920.798793947892
 31
0.0
  0
LINE
  5
49C
  8
FUTO
 10
24337.185833359708
 20
18931.961396782299
 30
0.0
 11
24337.185833359708
 21
18920.798793947892
 31
0.0
  0
LINE
  5
49D
  8
FUTO
 10
24337.185833359708
 20
18920.798793947892
 30
0.0
 11
24342.185833359708
 21
18920.798793947892
 31
0.0
  0
LINE
  5
49E
  8
FUTO
 10
24419.185833359708
 20
18925.798793947892
 30
0.0
 11
24419.185833359708
 21
18920.798793947892
 31
0.0
  0
LINE
  5
49F
  8
FUTO
 10
24419.185833359708
 20
18920.798793947892
 30
0.0
 11
24424.185833359708
 21
18920.798793947892
 31
0.0
  0
LINE
  5
4A0
  8
FUTO
 10
24424.185833359708
 20
18931.961396782299
 30
0.0
 11
24424.185833359708
 21
18920.798793947892
 31
0.0
  0
LINE
  5
4A1
  8
FUTO
 10
24342.185833359708
 20
18925.798793947892
 30
0.0
 11
24419.185833359708
 21
18925.798793947892
 31
0.0
  0
LINE
  5
4A2
  8
FUTO
 10
24429.685833359708
 20
18964.798793947892
 30
0.0
 11
24429.685833359708
 21
18938.798793947892
 31
0.0
  0
ARC
  5
4A3
  8
FUTO
 10
24422.685833359708
 20
18938.798793947892
 30
0.0
 40
7.0
 50
270.00000000000011
 51
0.0000000000000254
  0
LINE
  5
4A4
  8
FUTO
 10
24338.685833359708
 20
18931.798793947892
 30
0.0
 11
24422.685833359708
 21
18931.798793947892
 31
0.0
  0
LINE
  5
4A5
  8
FUTO
 10
24331.685833359708
 20
18964.798793947892
 30
0.0
 11
24331.685833359708
 21
18938.798793947892
 31
0.0
  0
ARC
  5
4A6
  8
FUTO
 10
24338.685833359708
 20
18938.798793947892
 30
0.0
 40
7.0
 50
179.99999999999989
 51
269.99999999999977
  0
ARC
  5
4A7
  8
FUTO
 10
24324.185833359708
 20
19040.798793947892
 30
0.0
 40
9.0
 50
89.999999999999915
 51
180.0
  0
LINE
  5
4A8
  8
FUTO
 10
24315.185833359708
 20
19040.798793947892
 30
0.0
 11
24315.185833359708
 21
18964.798793947892
 31
0.0
  0
LINE
  5
4A9
  8
FUTO
 10
24342.185833359708
 20
19055.798793947892
 30
0.0
 11
24419.185833359708
 21
19055.798793947892
 31
0.0
  0
LINE
  5
4AA
  8
FUTO
 10
24420.685833359708
 20
18922.4249773419
 30
0.0
 11
24420.685833359708
 21
18772.4249773419
 31
0.0
  0
LINE
  5
4AB
  8
FUTO
 10
24420.685833359708
 20
18772.4249773419
 30
0.0
 11
24345.685833359708
 21
18772.4249773419
 31
0.0
  0
LINE
  5
4AC
  8
FUTO
 10
24410.534456330712
 20
18785.102009971371
 30
0.0
 11
24349.33721038872
 21
18779.747944712439
 31
0.0
  0
LINE
  5
4AD
  8
FUTO
 10
24420.685833359708
 20
18922.4249773419
 30
0.0
 11
24345.685833359708
 21
18922.4249773419
 31
0.0
1001
ACAD
1000
ASC_BOUNDS
1002
{
1070
    19
1002
}
  0
LINE
  5
4AE
  8
FUTO
 10
24410.534456330712
 20
18909.747944712439
 30
0.0
 11
24349.33721038872
 21
18915.102009971371
 31
0.0
  0
LINE
  5
4AF
  8
FUTO
 10
24414.185833359708
 20
18905.763165920071
 30
0.0
 11
24414.185833359708
 21
18789.08678876374
 31
0.0
  0
ARC
  5
4B0
  8
FUTO
 10
24410.185833359708
 20
18789.08678876374
 30
0.0
 40
4.0
 50
274.99999999999972
 51
0.0
  0
LINE
  5
4B1
  8
FUTO
 10
24420.685833359708
 20
18922.4249773419
 30
0.0
 11
24420.685833359708
 21
18772.4249773419
 31
0.0
  0
ARC
  5
4B2
  8
FUTO
 10
24410.185833359708
 20
18905.763165920071
 30
0.0
 40
4.0
 50
0.0
 51
85.000000000000256
  0
ARC
  5
4B3
  8
FUTO
 10
24349.685833359708
 20
18775.763165920071
 30
0.0
 40
4.0
 50
95.000000000000185
 51
180.0
  0
LINE
  5
4B4
  8
FUTO
 10
24345.685833359708
 20
18772.4249773419
 30
0.0
 11
24345.685833359708
 21
18775.763165920071
 31
0.0
  0
LINE
  5
4B5
  8
FUTO
 10
24345.685833359708
 20
18922.4249773419
 30
0.0
 11
24345.685833359708
 21
18919.08678876374
 31
0.0
  0
ARC
  5
4B6
  8
FUTO
 10
24349.685833359708
 20
18919.08678876374
 30
0.0
 40
4.0
 50
180.0
 51
264.99999999999977
  0
ARC
  5
4B7
  8
FUTO
 10
24350.681833359711
 20
18774.846977341909
 30
0.0
 40
5.0
 50
95.001000000000005
 51
180.00099999999989
  0
LINE
  5
4B8
  8
FUTO
 10
24350.24883335971
 20
18779.827977341902
 30
0.0
 11
24405.05283335971
 21
18784.624977341911
 31
0.0
  0
LINE
  5
4B9
  8
FUTO
 10
24345.681833359711
 20
18772.4249773419
 30
0.0
 11
24345.681833359711
 21
18774.846977341909
 31
0.0
  0
LINE
  5
4BA
  8
FUTO
 10
24345.681833359711
 20
18772.4249773419
 30
0.0
 11
24420.681833359711
 21
18772.4249773419
 31
0.0
  0
LINE
  5
4BB
  8
SL
 10
24326.681833359711
 20
19670.798793947892
 30
0.0
 11
24326.681833359711
 21
19420.798793947892
 31
0.0
  0
LINE
  5
4BC
  8
SL
 10
24156.681833359711
 20
19670.798793947892
 30
0.0
 11
24156.681833359711
 21
19420.798793947892
 31
0.0
  0
LINE
  5
4BD
  8
SL
 10
24156.681833359711
 20
19420.798793947892
 30
0.0
 11
24326.681833359711
 21
19420.798793947892
 31
0.0
  0
LINE
  5
4BE
  8
FUTO
 10
24006.681833359711
 20
19310.798793947892
 30
0.0
 11
24356.681833359711
 21
19310.798793947892
 31
0.0
  0
LINE
  5
4BF
  8
FUTO
 10
24419.185833359708
 20
19060.798793947892
 30
0.0
 11
24424.185833359708
 21
19060.798793947892
 31
0.0
  0
LINE
  5
4C0
  8
FUTO
 10
24337.185833359708
 20
19060.798793947892
 30
0.0
 11
24342.185833359708
 21
19060.798793947892
 31
0.0
  0
LINE
  5
4C1
  8
FUTO
 10
24345.681833359711
 20
19062.4249773419
 30
0.0
 11
24420.681833359711
 21
19062.4249773419
 31
0.0
  0
LINE
  5
4C2
  8
FUTO
 10
24345.681833359711
 20
19062.4249773419
 30
0.0
 11
24345.681833359711
 21
19064.846977341909
 31
0.0
  0
LINE
  5
4C3
  8
FUTO
 10
24350.24883335971
 20
19069.827977341902
 30
0.0
 11
24405.05283335971
 21
19074.624977341911
 31
0.0
  0
ARC
  5
4C4
  8
FUTO
 10
24349.685833359708
 20
19209.08678876374
 30
0.0
 40
4.0
 50
180.0
 51
264.99999999999977
  0
LINE
  5
4C5
  8
FUTO
 10
24345.685833359708
 20
19212.4249773419
 30
0.0
 11
24345.685833359708
 21
19209.08678876374
 31
0.0
  0
LINE
  5
4C6
  8
FUTO
 10
24345.685833359708
 20
19062.4249773419
 30
0.0
 11
24345.685833359708
 21
19065.763165920071
 31
0.0
  0
ARC
  5
4C7
  8
FUTO
 10
24349.685833359708
 20
19065.763165920071
 30
0.0
 40
4.0
 50
95.000000000000185
 51
180.0
  0
ARC
  5
4C8
  8
FUTO
 10
24410.185833359708
 20
19195.763165920071
 30
0.0
 40
4.0
 50
0.0
 51
85.000000000000256
  0
LINE
  5
4C9
  8
FUTO
 10
24420.685833359708
 20
19212.4249773419
 30
0.0
 11
24420.685833359708
 21
19062.4249773419
 31
0.0
  0
ARC
  5
4CA
  8
FUTO
 10
24410.185833359708
 20
19079.08678876374
 30
0.0
 40
4.0
 50
274.99999999999972
 51
0.0
  0
LINE
  5
4CB
  8
FUTO
 10
24414.185833359708
 20
19195.763165920071
 30
0.0
 11
24414.185833359708
 21
19079.08678876374
 31
0.0
  0
LINE
  5
4CC
  8
FUTO
 10
24410.534456330712
 20
19199.747944712439
 30
0.0
 11
24349.33721038872
 21
19205.102009971371
 31
0.0
  0
LINE
  5
4CD
  8
FUTO
 10
24420.685833359708
 20
19212.4249773419
 30
0.0
 11
24345.685833359708
 21
19212.4249773419
 31
0.0
  0
LINE
  5
4CE
  8
FUTO
 10
24410.534456330712
 20
19075.102009971371
 30
0.0
 11
24349.33721038872
 21
19069.747944712439
 31
0.0
  0
LINE
  5
4CF
  8
FUTO
 10
24420.685833359708
 20
19062.4249773419
 30
0.0
 11
24345.685833359708
 21
19062.4249773419
 31
0.0
  0
LINE
  5
4D0
  8
FUTO
 10
24420.685833359708
 20
19212.4249773419
 30
0.0
 11
24420.685833359708
 21
19062.4249773419
 31
0.0
  0
LINE
  5
4D1
  8
SL
 10
24156.681833359711
 20
19700.798793947892
 30
0.0
 11
24326.681833359711
 21
19700.798793947892
 31
0.0
  0
LINE
  5
4D4
  8
FUTO
 10
24446.185833359708
 20
19040.798793947892
 30
0.0
 11
24446.185833359708
 21
18964.798793947892
 31
0.0
  0
LINE
  5
4D5
  8
CT
 10
25677.681833359711
 20
19075.326777155111
 30
0.0
 11
25677.681833359711
 21
18901.120002250951
 31
0.0
  0
LINE
  5
4D6
  8
FUTO
 10
25721.181833359711
 20
19060.798793947892
 30
0.0
 11
25721.181833359711
 21
19049.798793947892
 31
0.0
  0
LINE
  5
4D7
  8
FUTO
 10
25716.181833359711
 20
19060.798793947892
 30
0.0
 11
25716.181833359711
 21
19055.798793947892
 31
0.0
  0
LINE
  5
4D8
  8
FUTO
 10
25634.181833359711
 20
19060.798793947892
 30
0.0
 11
25634.181833359711
 21
19049.798793947892
 31
0.0
  0
LINE
  5
4D9
  8
FUTO
 10
25639.181833359711
 20
19060.798793947892
 30
0.0
 11
25639.181833359711
 21
19055.798793947892
 31
0.0
  0
LINE
  5
4DA
  8
FUTO
 10
25716.181833359711
 20
18920.798793947892
 30
0.0
 11
25721.181833359711
 21
18920.798793947892
 31
0.0
  0
LINE
  5
4DB
  8
FUTO
 10
25635.681833359711
 20
18931.798793947892
 30
0.0
 11
25719.681833359711
 21
18931.798793947892
 31
0.0
  0
LINE
  5
4DC
  8
1
 10
25643.482833359711
 20
18772.4249773419
 30
0.0
 11
25718.482833359711
 21
18772.4249773419
 31
0.0
  0
LINE
  5
4DD
  8
FUTO
 10
25621.181833359711
 20
19049.798793947892
 30
0.0
 11
25734.181833359711
 21
19049.798793947892
 31
0.0
  0
LINE
  5
4DE
  8
FUTO
 10
25612.181833359711
 20
18964.798793947892
 30
0.0
 11
25743.181833359711
 21
18964.798793947892
 31
0.0
  0
LINE
  5
4DF
  8
FUTO
 10
25639.181833359711
 20
18925.798793947892
 30
0.0
 11
25639.181833359711
 21
18920.798793947892
 31
0.0
  0
LINE
  5
4E0
  8
FUTO
 10
25634.181833359711
 20
18931.961396782299
 30
0.0
 11
25634.181833359711
 21
18920.798793947892
 31
0.0
  0
LINE
  5
4E1
  8
FUTO
 10
25634.181833359711
 20
18920.798793947892
 30
0.0
 11
25639.181833359711
 21
18920.798793947892
 31
0.0
  0
LINE
  5
4E2
  8
FUTO
 10
25716.181833359711
 20
18925.798793947892
 30
0.0
 11
25716.181833359711
 21
18920.798793947892
 31
0.0
  0
LINE
  5
4E3
  8
FUTO
 10
25639.181833359711
 20
18925.798793947892
 30
0.0
 11
25716.181833359711
 21
18925.798793947892
 31
0.0
  0
LINE
  5
4E4
  8
FUTO
 10
25628.681833359711
 20
18964.798793947892
 30
0.0
 11
25628.681833359711
 21
18938.798793947892
 31
0.0
  0
ARC
  5
4E5
  8
FUTO
 10
25635.681833359711
 20
18938.798793947892
 30
0.0
 40
7.0
 50
179.99999999999989
 51
269.99999999999977
  0
ARC
  5
4E6
  8
FUTO
 10
25621.181833359711
 20
19040.798793947892
 30
0.0
 40
9.0
 50
89.999999999999915
 51
180.0
  0
LINE
  5
4E7
  8
FUTO
 10
25612.181833359711
 20
19040.798793947892
 30
0.0
 11
25612.181833359711
 21
18964.798793947892
 31
0.0
  0
LINE
  5
4E8
  8
FUTO
 10
25639.181833359711
 20
19055.798793947892
 30
0.0
 11
25716.181833359711
 21
19055.798793947892
 31
0.0
  0
LINE
  5
4E9
  8
FUTO
 10
25717.681833359711
 20
18772.4249773419
 30
0.0
 11
25642.681833359711
 21
18772.4249773419
 31
0.0
  0
LINE
  5
4EA
  8
FUTO
 10
25707.5304563307
 20
18785.102009971371
 30
0.0
 11
25646.333210388719
 21
18779.747944712439
 31
0.0
  0
LINE
  5
4EB
  8
FUTO
 10
25642.67783335971
 20
18772.4249773419
 30
0.0
 11
25717.67783335971
 21
18772.4249773419
 31
0.0
  0
LINE
  5
4EC
  8
FUTO
 10
25717.681833359711
 20
18922.4249773419
 30
0.0
 11
25642.681833359711
 21
18922.4249773419
 31
0.0
  0
LINE
  5
4ED
  8
FUTO
 10
25707.5304563307
 20
18909.747944712439
 30
0.0
 11
25646.333210388719
 21
18915.102009971371
 31
0.0
  0
ARC
  5
4EE
  8
FUTO
 10
25646.681833359711
 20
18775.763165920071
 30
0.0
 40
4.0
 50
95.000000000000185
 51
180.0
  0
LINE
  5
4EF
  8
FUTO
 10
25642.681833359711
 20
18772.4249773419
 30
0.0
 11
25642.681833359711
 21
18775.763165920071
 31
0.0
  0
LINE
  5
4F0
  8
FUTO
 10
25642.67783335971
 20
18772.4249773419
 30
0.0
 11
25642.67783335971
 21
18774.846977341909
 31
0.0
  0
LINE
  5
4F1
  8
FUTO
 10
25642.681833359711
 20
18922.4249773419
 30
0.0
 11
25642.681833359711
 21
18919.08678876374
 31
0.0
  0
ARC
  5
4F2
  8
FUTO
 10
25646.681833359711
 20
18919.08678876374
 30
0.0
 40
4.0
 50
180.0
 51
264.99999999999972
  0
LINE
  5
4F3
  8
FUTO
 10
25647.244833359709
 20
18779.827977341902
 30
0.0
 11
25702.04883335971
 21
18784.624977341911
 31
0.0
  0
LINE
  5
4F4
  8
FUTO
 10
25717.681833359711
 20
18922.4249773419
 30
0.0
 11
25717.681833359711
 21
18772.4249773419
 31
0.0
  0
LINE
  5
4F5
  8
FUTO
 10
25711.181833359711
 20
18905.763165920071
 30
0.0
 11
25711.181833359711
 21
18789.08678876374
 31
0.0
  0
LINE
  5
4F6
  8
FUTO
 10
25717.681833359711
 20
18922.4249773419
 30
0.0
 11
25717.681833359711
 21
18772.4249773419
 31
0.0
  0
ARC
  5
4F7
  8
FUTO
 10
25707.181833359711
 20
18789.08678876374
 30
0.0
 40
4.0
 50
275.0
 51
0.0
  0
ARC
  5
4F8
  8
FUTO
 10
25707.181833359711
 20
18905.763165920071
 30
0.0
 40
4.0
 50
0.0
 51
84.999999999999957
  0
ARC
  5
4F9
  8
FUTO
 10
25734.181833359711
 20
19040.798793947892
 30
0.0
 40
9.0
 50
0.0
 51
90.0
  0
LINE
  5
4FA
  8
FUTO
 10
25743.181833359711
 20
19040.798793947892
 30
0.0
 11
25743.181833359711
 21
18964.798793947892
 31
0.0
  0
LINE
  5
4FB
  8
FUTO
 10
25721.181833359711
 20
18931.961396782299
 30
0.0
 11
25721.181833359711
 21
18920.798793947892
 31
0.0
  0
LINE
  5
4FC
  8
FUTO
 10
25726.681833359711
 20
18964.798793947892
 30
0.0
 11
25726.681833359711
 21
18938.798793947892
 31
0.0
  0
ARC
  5
4FD
  8
FUTO
 10
25719.681833359711
 20
18938.798793947892
 30
0.0
 40
7.0
 50
270.00000000000011
 51
0.0000000000000254
  0
LINE
  5
4FE
  8
FUTO
 10
25716.181833359711
 20
19060.798793947892
 30
0.0
 11
25721.181833359711
 21
19060.798793947892
 31
0.0
  0
LINE
  5
4FF
  8
1
 10
25643.482833359711
 20
19062.4249773419
 30
0.0
 11
25718.482833359711
 21
19062.4249773419
 31
0.0
  0
LINE
  5
500
  8
FUTO
 10
25634.181833359711
 20
19060.798793947892
 30
0.0
 11
25639.181833359711
 21
19060.798793947892
 31
0.0
  0
LINE
  5
501
  8
FUTO
 10
25717.681833359711
 20
19212.4249773419
 30
0.0
 11
25642.681833359711
 21
19212.4249773419
 31
0.0
  0
LINE
  5
502
  8
FUTO
 10
25707.5304563307
 20
19199.747944712439
 30
0.0
 11
25646.333210388719
 21
19205.102009971371
 31
0.0
  0
ARC
  5
503
  8
FUTO
 10
25707.181833359711
 20
19195.763165920071
 30
0.0
 40
4.0
 50
0.0
 51
84.999999999999957
  0
LINE
  5
504
  8
FUTO
 10
25642.681833359711
 20
19212.4249773419
 30
0.0
 11
25642.681833359711
 21
19209.08678876374
 31
0.0
  0
ARC
  5
505
  8
FUTO
 10
25646.681833359711
 20
19209.08678876374
 30
0.0
 40
4.0
 50
180.0
 51
264.99999999999972
  0
LINE
  5
506
  8
FUTO
 10
25717.681833359711
 20
19062.4249773419
 30
0.0
 11
25642.681833359711
 21
19062.4249773419
 31
0.0
  0
LINE
  5
507
  8
FUTO
 10
25707.5304563307
 20
19075.102009971371
 30
0.0
 11
25646.333210388719
 21
19069.747944712439
 31
0.0
  0
ARC
  5
508
  8
FUTO
 10
25707.181833359711
 20
19079.08678876374
 30
0.0
 40
4.0
 50
275.0
 51
0.0
  0
ARC
  5
509
  8
FUTO
 10
25646.681833359711
 20
19065.763165920071
 30
0.0
 40
4.0
 50
95.000000000000185
 51
180.0
  0
LINE
  5
50A
  8
FUTO
 10
25642.681833359711
 20
19062.4249773419
 30
0.0
 11
25642.681833359711
 21
19065.763165920071
 31
0.0
  0
LINE
  5
50B
  8
FUTO
 10
25642.67783335971
 20
19062.4249773419
 30
0.0
 11
25642.67783335971
 21
19064.846977341909
 31
0.0
  0
LINE
  5
50C
  8
FUTO
 10
25647.244833359709
 20
19069.827977341902
 30
0.0
 11
25702.04883335971
 21
19074.624977341911
 31
0.0
  0
LINE
  5
50D
  8
FUTO
 10
25642.67783335971
 20
19062.4249773419
 30
0.0
 11
25717.67783335971
 21
19062.4249773419
 31
0.0
  0
LINE
  5
50E
  8
FUTO
 10
25717.681833359711
 20
19212.4249773419
 30
0.0
 11
25717.681833359711
 21
19062.4249773419
 31
0.0
  0
LINE
  5
50F
  8
FUTO
 10
25711.181833359711
 20
19195.763165920071
 30
0.0
 11
25711.181833359711
 21
19079.08678876374
 31
0.0
  0
LINE
  5
510
  8
FUTO
 10
25717.681833359711
 20
19212.4249773419
 30
0.0
 11
25717.681833359711
 21
19062.4249773419
 31
0.0
  0
LINE
  5
511
  8
FUTO
 10
25793.48183335971
 20
19083.798793947892
 30
0.0
 11
25796.681833359718
 21
19083.798793947892
 31
0.0
  0
LINE
  5
512
  8
KL
 10
25793.48183335971
 20
19083.798793947892
 30
0.0
 11
25793.48183335971
 21
19212.4249773419
 31
0.0
  0
LINE
  5
513
  8
KL
 10
25796.681833359718
 20
19083.798793947892
 30
0.0
 11
25796.681833359718
 21
19212.4249773419
 31
0.0
  0
DIMENSION
  5
517
  8
SP
  2
*D19
 10
27195.681833359711
 20
18332.94436457759
 30
0.0
 11
26826.181833359711
 21
18412.94436457759
 31
0.0
 70
     0
 13
26456.681833359711
 23
18751.497925347969
 33
0.0
 14
27195.681833359711
 24
18772.4249773419
 34
0.0
1001
ACAD
1000
DSTYLE
1002
{
1070
   287
1070
     4
1070
    40
1040
40.0
1070
    75
1070
     1
1070
   279
1070
     1
1070
   289
1070
     3
1002
}
  0
LINE
  5
525
  8
FUTO
 10
27122.181833359711
 20
19060.798793947892
 30
0.0
 11
27122.181833359711
 21
19055.798793947892
 31
0.0
  0
LINE
  5
526
  8
FUTO
 10
27117.181833359711
 20
19060.798793947892
 30
0.0
 11
27117.181833359711
 21
19049.798793947892
 31
0.0
  0
LINE
  5
527
  8
FUTO
 10
27199.181833359711
 20
19060.798793947892
 30
0.0
 11
27199.181833359711
 21
19055.798793947892
 31
0.0
  0
LINE
  5
528
  8
FUTO
 10
27204.181833359711
 20
19060.798793947892
 30
0.0
 11
27204.181833359711
 21
19049.798793947892
 31
0.0
  0
LINE
  5
529
  8
CT
 10
27160.681833359711
 20
19075.326777155111
 30
0.0
 11
27160.681833359711
 21
18901.120002250951
 31
0.0
  0
ARC
  5
52A
  8
FUTO
 10
27202.681833359711
 20
18938.798793947892
 30
0.0
 40
7.0
 50
270.00000000000011
 51
0.0000000000000254
  0
LINE
  5
52B
  8
FUTO
 10
27095.181833359711
 20
18964.798793947892
 30
0.0
 11
27226.181833359711
 21
18964.798793947892
 31
0.0
  0
LINE
  5
52C
  8
FUTO
 10
27104.181833359711
 20
19049.798793947892
 30
0.0
 11
27217.181833359711
 21
19049.798793947892
 31
0.0
  0
LINE
  5
52D
  8
FUTO
 10
27122.181833359711
 20
19055.798793947892
 30
0.0
 11
27199.181833359711
 21
19055.798793947892
 31
0.0
  0
LINE
  5
52E
  8
FUTO
 10
27095.181833359711
 20
19040.798793947892
 30
0.0
 11
27095.181833359711
 21
18964.798793947892
 31
0.0
  0
ARC
  5
52F
  8
FUTO
 10
27104.181833359711
 20
19040.798793947892
 30
0.0
 40
9.0
 50
89.999999999999915
 51
180.0
  0
ARC
  5
530
  8
FUTO
 10
27118.681833359711
 20
18938.798793947892
 30
0.0
 40
7.0
 50
179.99999999999989
 51
269.99999999999977
  0
LINE
  5
531
  8
FUTO
 10
27111.681833359711
 20
18964.798793947892
 30
0.0
 11
27111.681833359711
 21
18938.798793947892
 31
0.0
  0
LINE
  5
532
  8
FUTO
 10
27118.681833359711
 20
18931.798793947892
 30
0.0
 11
27202.681833359711
 21
18931.798793947892
 31
0.0
  0
LINE
  5
533
  8
FUTO
 10
27122.181833359711
 20
18925.798793947892
 30
0.0
 11
27199.181833359711
 21
18925.798793947892
 31
0.0
  0
LINE
  5
534
  8
FUTO
 10
27204.181833359711
 20
18931.961396782299
 30
0.0
 11
27204.181833359711
 21
18920.798793947892
 31
0.0
  0
LINE
  5
535
  8
FUTO
 10
27199.181833359711
 20
18920.798793947892
 30
0.0
 11
27204.181833359711
 21
18920.798793947892
 31
0.0
  0
LINE
  5
536
  8
FUTO
 10
27199.181833359711
 20
18925.798793947892
 30
0.0
 11
27199.181833359711
 21
18920.798793947892
 31
0.0
  0
LINE
  5
537
  8
FUTO
 10
27117.181833359711
 20
18920.798793947892
 30
0.0
 11
27122.181833359711
 21
18920.798793947892
 31
0.0
  0
LINE
  5
538
  8
FUTO
 10
27117.181833359711
 20
18931.961396782299
 30
0.0
 11
27117.181833359711
 21
18920.798793947892
 31
0.0
  0
LINE
  5
539
  8
FUTO
 10
27122.181833359711
 20
18925.798793947892
 30
0.0
 11
27122.181833359711
 21
18920.798793947892
 31
0.0
  0
LINE
  5
53A
  8
FUTO
 10
27195.681833359711
 20
18772.4249773419
 30
0.0
 11
27120.681833359711
 21
18772.4249773419
 31
0.0
  0
LINE
  5
53B
  8
FUTO
 10
27191.114833359708
 20
18779.827977341902
 30
0.0
 11
27136.310833359708
 21
18784.624977341911
 31
0.0
  0
LINE
  5
53C
  8
1
 10
27194.876833359711
 20
18772.4249773419
 30
0.0
 11
27119.876833359711
 21
18772.4249773419
 31
0.0
  0
LINE
  5
53D
  8
FUTO
 10
27130.829210388722
 20
18785.102009971371
 30
0.0
 11
27192.026456330699
 21
18779.747944712439
 31
0.0
  0
LINE
  5
53E
  8
FUTO
 10
27120.67783335971
 20
18772.4249773419
 30
0.0
 11
27195.67783335971
 21
18772.4249773419
 31
0.0
  0
LINE
  5
53F
  8
FUTO
 10
27130.829210388722
 20
18909.747944712439
 30
0.0
 11
27192.026456330699
 21
18915.102009971371
 31
0.0
  0
LINE
  5
540
  8
FUTO
 10
27120.67783335971
 20
18922.4249773419
 30
0.0
 11
27195.67783335971
 21
18922.4249773419
 31
0.0
1001
ACAD
1000
ASC_BOUNDS
1002
{
1070
    19
1005
0
1002
}
  0
LINE
  5
541
  8
FUTO
 10
27120.67783335971
 20
18922.4249773419
 30
0.0
 11
27120.67783335971
 21
18772.4249773419
 31
0.0
  0
LINE
  5
542
  8
FUTO
 10
27127.17783335971
 20
18905.763165920071
 30
0.0
 11
27127.17783335971
 21
18789.08678876374
 31
0.0
  0
LINE
  5
543
  8
FUTO
 10
27120.67783335971
 20
18922.4249773419
 30
0.0
 11
27120.67783335971
 21
18772.4249773419
 31
0.0
  0
ARC
  5
544
  8
FUTO
 10
27131.17783335971
 20
18789.08678876374
 30
0.0
 40
4.0
 50
180.0
 51
264.99999999999989
  0
ARC
  5
545
  8
FUTO
 10
27131.17783335971
 20
18905.763165920071
 30
0.0
 40
4.0
 50
95.000000000000057
 51
180.0
  0
LINE
  5
546
  8
FUTO
 10
27195.681833359711
 20
18772.4249773419
 30
0.0
 11
27195.681833359711
 21
18774.846977341909
 31
0.0
  0
LINE
  5
547
  8
FUTO
 10
27195.67783335971
 20
18772.4249773419
 30
0.0
 11
27195.67783335971
 21
18775.763165920071
 31
0.0
  0
ARC
  5
548
  8
FUTO
 10
27191.67783335971
 20
18775.763165920071
 30
0.0
 40
4.0
 50
0.0
 51
84.999999999999801
  0
ARC
  5
549
  8
FUTO
 10
27191.67783335971
 20
18919.08678876374
 30
0.0
 40
4.0
 50
275.00000000000011
 51
0.0
  0
LINE
  5
54A
  8
FUTO
 10
27195.67783335971
 20
18922.4249773419
 30
0.0
 11
27195.67783335971
 21
18919.08678876374
 31
0.0
  0
LINE
  5
54B
  8
FUTO
 10
27226.181833359711
 20
19040.798793947892
 30
0.0
 11
27226.181833359711
 21
18964.798793947892
 31
0.0
  0
ARC
  5
54C
  8
FUTO
 10
27217.181833359711
 20
19040.798793947892
 30
0.0
 40
9.0
 50
0.0
 51
90.0
  0
LINE
  5
54D
  8
FUTO
 10
27209.681833359711
 20
18964.798793947892
 30
0.0
 11
27209.681833359711
 21
18938.798793947892
 31
0.0
  0
LINE
  5
54E
  8
FUTO
 10
27116.681833359718
 20
19098.798793947892
 30
0.0
 11
27266.681833359711
 21
19098.798793947892
 31
0.0
  0
LINE
  5
54F
  8
FUTO
 10
27266.681833359711
 20
19132.798793947892
 30
0.0
 11
27116.681833359718
 21
19132.798793947892
 31
0.0
  0
LINE
  5
550
  8
CT
 10
27081.769147876639
 20
19115.798793947892
 30
0.0
 11
27318.267326353842
 21
19115.798793947892
 31
0.0
  0
LINE
  5
551
  8
FUTO
 10
27117.181833359711
 20
19060.798793947892
 30
0.0
 11
27122.181833359711
 21
19060.798793947892
 31
0.0
  0
LINE
  5
552
  8
FUTO
 10
27199.181833359711
 20
19060.798793947892
 30
0.0
 11
27204.181833359711
 21
19060.798793947892
 31
0.0
  0
LINE
  5
553
  8
KL
 10
27116.681833359718
 20
19083.798793947892
 30
0.0
 11
27119.881833359708
 21
19083.798793947892
 31
0.0
  0
LINE
  5
554
  8
FUTO
 10
27195.681833359711
 20
19062.4249773419
 30
0.0
 11
27120.681833359711
 21
19062.4249773419
 31
0.0
  0
LINE
  5
555
  8
FUTO
 10
27191.114833359708
 20
19069.827977341902
 30
0.0
 11
27136.310833359708
 21
19074.624977341911
 31
0.0
  0
LINE
  5
556
  8
FUTO
 10
27195.681833359711
 20
19062.4249773419
 30
0.0
 11
27195.681833359711
 21
19064.846977341909
 31
0.0
  0
LINE
  5
557
  8
1
 10
27194.876833359711
 20
19062.4249773419
 30
0.0
 11
27119.876833359711
 21
19062.4249773419
 31
0.0
  0
ARC
  5
558
  8
FUTO
 10
27191.67783335971
 20
19209.08678876374
 30
0.0
 40
4.0
 50
275.00000000000011
 51
0.0
  0
LINE
  5
559
  8
FUTO
 10
27195.67783335971
 20
19212.4249773419
 30
0.0
 11
27195.67783335971
 21
19209.08678876374
 31
0.0
  0
LINE
  5
55A
  8
FUTO
 10
27195.67783335971
 20
19062.4249773419
 30
0.0
 11
27195.67783335971
 21
19065.763165920071
 31
0.0
  0
ARC
  5
55B
  8
FUTO
 10
27191.67783335971
 20
19065.763165920071
 30
0.0
 40
4.0
 50
0.0
 51
84.999999999999801
  0
ARC
  5
55C
  8
FUTO
 10
27131.17783335971
 20
19195.763165920071
 30
0.0
 40
4.0
 50
95.000000000000057
 51
180.0
  0
LINE
  5
55D
  8
FUTO
 10
27120.67783335971
 20
19212.4249773419
 30
0.0
 11
27120.67783335971
 21
19062.4249773419
 31
0.0
  0
ARC
  5
55E
  8
FUTO
 10
27131.17783335971
 20
19079.08678876374
 30
0.0
 40
4.0
 50
180.0
 51
264.99999999999989
  0
LINE
  5
55F
  8
FUTO
 10
27127.17783335971
 20
19195.763165920071
 30
0.0
 11
27127.17783335971
 21
19079.08678876374
 31
0.0
  0
LINE
  5
560
  8
FUTO
 10
27130.829210388722
 20
19199.747944712439
 30
0.0
 11
27192.026456330699
 21
19205.102009971371
 31
0.0
  0
LINE
  5
561
  8
FUTO
 10
27120.67783335971
 20
19212.4249773419
 30
0.0
 11
27195.67783335971
 21
19212.4249773419
 31
0.0
  0
LINE
  5
562
  8
FUTO
 10
27130.829210388722
 20
19075.102009971371
 30
0.0
 11
27192.026456330699
 21
19069.747944712439
 31
0.0
  0
LINE
  5
563
  8
FUTO
 10
27120.67783335971
 20
19062.4249773419
 30
0.0
 11
27195.67783335971
 21
19062.4249773419
 31
0.0
  0
LINE
  5
564
  8
FUTO
 10
27120.67783335971
 20
19212.4249773419
 30
0.0
 11
27120.67783335971
 21
19062.4249773419
 31
0.0
  0
LINE
  5
565
  8
KL
 10
27119.881833359708
 20
19083.798793947892
 30
0.0
 11
27119.881833359708
 21
19212.4249773419
 31
0.0
  0
LINE
  5
566
  8
KL
 10
27116.681833359718
 20
19083.798793947892
 30
0.0
 11
27116.681833359718
 21
19212.4249773419
 31
0.0
  0
LINE
  5
567
  8
FUTO
 10
27307.78599850526
 20
19094.97057727406
 30
0.0
 11
27307.78599850526
 21
19136.627010621731
 31
0.0
  0
LINE
  5
568
  8
FUTO
 10
27266.681833359711
 20
19094.97057727406
 30
0.0
 11
27266.681833359711
 21
19136.627010621731
 31
0.0
  0
LINE
  5
569
  8
FUTO
 10
27266.681833359711
 20
19094.97057727406
 30
0.0
 11
27307.78599850526
 21
19094.97057727406
 31
0.0
  0
LINE
  5
56A
  8
FUTO
 10
27266.681833359711
 20
19136.627010621731
 30
0.0
 11
27307.78599850526
 21
19136.627010621731
 31
0.0
  0
LINE
  5
56B
  8
KL
 10
27119.881833359708
 20
19484.798793947892
 30
0.0
 11
27209.881833359708
 21
19484.798793947892
 31
0.0
  0
LINE
  5
56C
  8
KL
 10
27119.881833359708
 20
19490.798793947892
 30
0.0
 11
27251.681833359711
 21
19490.798793947892
 31
0.0
  0
LINE
  5
56D
  8
HOSO
 10
27077.347823748791
 20
19450.798793947892
 30
0.0
 11
27151.455438897061
 21
19450.798793947892
 31
0.0
  0
LINE
  5
56E
  8
KL
 10
27119.881833359708
 20
19425.798793947892
 30
0.0
 11
27125.881833359708
 21
19425.798793947892
 31
0.0
  0
LINE
  5
56F
  8
FUTO
 10
27209.881833359708
 20
19484.798793947892
 30
0.0
 11
27251.681833359711
 21
19484.798793947892
 31
0.0
  0
LINE
  5
570
  8
FUTO
 10
27245.681833359711
 20
19425.798793947892
 30
0.0
 11
27251.681833359711
 21
19425.798793947892
 31
0.0
  0
LINE
  5
571
  8
HOSO
 10
27218.199287173691
 20
19450.798793947892
 30
0.0
 11
27292.30690232195
 21
19450.798793947892
 31
0.0
  0
LINE
  5
5F6
  8
FUTO
 10
25942.678833359711
 20
21240.798793947892
 30
0.0
 11
26424.682833359711
 21
21240.798793947892
 31
0.0
  0
LINE
  5
5F7
  8
FUTO
 10
25733.48183335971
 20
22371.798793947892
 30
0.0
 11
27179.881833359719
 21
22371.798793947892
 31
0.0
  0
LINE
  5
5F8
  8
FUTO
 10
25793.48183335971
 20
22311.798793947892
 30
0.0
 11
27119.881833359719
 21
22311.798793947892
 31
0.0
  0
LINE
  5
5FD
  8
FUTO
 10
25796.681833359711
 20
20840.798793947892
 30
0.0
 11
27116.681833359711
 21
20840.798793947892
 31
0.0
  0
LINE
  5
5FE
  8
FUTO
 10
25733.48183335971
 20
20401.798793947892
 30
0.0
 11
27179.881833359708
 21
20401.798793947892
 31
0.0
  0
LINE
  5
5FF
  8
FUTO
 10
25796.681833359711
 20
20461.798793947892
 30
0.0
 11
27116.681833359711
 21
20461.798793947892
 31
0.0
  0
LINE
  5
600
  8
FUTO
 10
25728.48183335971
 20
20285.032372245329
 30
0.0
 11
27184.881833359708
 21
20285.032372245329
 31
0.0
  0
LINE
  5
601
  8
FUTO
 10
25728.48183335971
 20
20303.03237224534
 30
0.0
 11
27184.881833359708
 21
20303.03237224534
 31
0.0
  0
LINE
  5
602
  8
CT
 10
25728.48183335971
 20
20294.03237224534
 30
0.0
 11
27184.881833359708
 21
20294.03237224534
 31
0.0
  0
LINE
  5
61E
  8
CT
 10
23954.75571167493
 20
20390.798793947892
 30
0.0
 11
27450.67713653194
 21
20390.798793947892
 31
0.0
  0
LINE
  5
623
  8
FUTO
 10
24562.181833359711
 20
20494.798793947892
 30
0.0
 11
24429.181833359711
 21
20494.798793947892
 31
0.0
  0
LINE
  5
624
  8
FUTO
 10
24429.181833359711
 20
20286.798793947892
 30
0.0
 11
24440.681833359711
 21
20286.798793947892
 31
0.0
  0
ARC
  5
625
  8
FUTO
 10
24446.681833359711
 20
20308.798793947892
 30
0.0
 40
6.0
 50
90.0
 51
180.0
  0
LINE
  5
626
  8
FUTO
 10
24405.681833359711
 20
20268.798793947892
 30
0.0
 11
24585.681833359711
 21
20268.798793947892
 31
0.0
  0
ARC
  5
628
  8
FUTO
 10
24429.181833359711
 20
20488.798793947892
 30
0.0
 40
6.0
 50
90.0
 51
180.0
  0
LINE
  5
629
  8
SL
 10
24156.681833359711
 20
20110.798793947892
 30
0.0
 11
24326.681833359711
 21
20110.798793947892
 31
0.0
  0
LINE
  5
62A
  8
FUTO
 10
24423.181833359711
 20
20480.798793947892
 30
0.0
 11
24418.181833359711
 21
20480.798793947892
 31
0.0
  0
ARC
  5
62B
  8
FUTO
 10
24429.181833359711
 20
20292.798793947892
 30
0.0
 40
6.0
 50
180.0
 51
270.0
  0
LINE
  5
62C
  8
FUTO
 10
24418.181833359711
 20
20300.798793947892
 30
0.0
 11
24423.181833359711
 21
20300.798793947892
 31
0.0
  0
LINE
  5
62D
  8
FUTO
 10
24423.181833359711
 20
20488.798793947892
 30
0.0
 11
24423.181833359711
 21
20292.798793947892
 31
0.0
  0
LINE
  5
62E
  8
FUTO
 10
24418.181833359711
 20
20480.798793947892
 30
0.0
 11
24418.181833359711
 21
20300.798793947892
 31
0.0
  0
LINE
  5
62F
  8
FUTO
 10
24326.681833359711
 20
20343.298793947892
 30
0.0
 11
24418.181833359711
 21
20343.298793947892
 31
0.0
  0
LINE
  5
630
  8
FUTO
 10
24326.681833359711
 20
20438.298793947892
 30
0.0
 11
24418.181833359711
 21
20438.298793947892
 31
0.0
  0
LINE
  5
631
  8
SL
 10
24156.681833359711
 20
20670.798793947892
 30
0.0
 11
24326.681833359711
 21
20670.798793947892
 31
0.0
  0
LINE
  5
632
  8
FUTO
 10
24006.681833359711
 20
20770.798793947892
 30
0.0
 11
24356.681833359711
 21
20770.798793947892
 31
0.0
  0
LINE
  5
633
  8
FUTO
 10
25733.48183335971
 20
20401.798793947892
 30
0.0
 11
25733.48183335971
 21
22371.798793947892
 31
0.0
  0
LINE
  5
634
  8
FUTO
 10
25942.678833359711
 20
20840.798793947892
 30
0.0
 11
25942.678833359711
 21
21254.798793947892
 31
0.0
  0
LINE
  5
635
  8
FUTO
 10
25930.678833359711
 20
20840.798793947892
 30
0.0
 11
25930.678833359711
 21
21254.798793947892
 31
0.0
  0
LINE
  5
636
  8
FUTO
 10
25793.48183335971
 20
20459.498793947889
 30
0.0
 11
25793.48183335971
 21
22290.798793947892
 31
0.0
  0
LINE
  5
637
  8
FUTO
 10
25796.681833359711
 20
20459.498793947889
 30
0.0
 11
25796.681833359711
 21
22290.798793947892
 31
0.0
  0
LINE
  5
638
  8
FUTO
 10
25728.48183335971
 20
22251.153497616
 30
0.0
 11
25728.48183335971
 21
20285.032372245329
 31
0.0
  0
LINE
  5
63B
  8
SL
 10
25376.193454685788
 20
20606.873463758151
 30
0.0
 11
24610.815497888099
 21
20606.873463758151
 31
0.0
  0
LINE
  5
63D
  8
FUTO
 10
25406.681833359711
 20
20230.798793947892
 30
0.0
 11
24585.681833359711
 21
20230.798793947892
 31
0.0
  0
LINE
  5
63E
  8
FUTO
 10
24573.181833359711
 20
20338.298793947892
 30
0.0
 11
25403.181833359711
 21
20338.298793947892
 31
0.0
  0
LINE
  5
63F
  8
FUTO
 10
24573.181833359711
 20
20443.298793947892
 30
0.0
 11
25403.181833359711
 21
20443.298793947892
 31
0.0
  0
LINE
  5
640
  8
SL
 10
24610.815497888099
 20
20606.873463758151
 30
0.0
 11
24610.815497888099
 21
20230.798793947892
 31
0.0
  0
LINE
  5
641
  8
CT
 10
24495.681833359711
 20
20571.864708367521
 30
0.0
 11
24495.681833359711
 21
20181.864540422099
 31
0.0
  0
ARC
  5
642
  8
FUTO
 10
24562.181833359711
 20
20488.798793947892
 30
0.0
 40
6.0
 50
0.0
 51
90.0
  0
LINE
  5
643
  8
FUTO
 10
24550.681833359711
 20
20494.798793947892
 30
0.0
 11
24550.681833359711
 21
20268.798793947892
 31
0.0
  0
LINE
  5
644
  8
FUTO
 10
24440.681833359711
 20
20494.798793947892
 30
0.0
 11
24440.681833359711
 21
20268.798793947892
 31
0.0
  0
LINE
  5
645
  8
CT
 10
24495.681833359711
 20
20514.5675531126
 30
0.0
 11
24495.681833359711
 21
20260.97507004577
 31
0.0
  0
LINE
  5
646
  8
FUTO
 10
24568.181833359711
 20
20480.798793947892
 30
0.0
 11
24573.181833359711
 21
20480.798793947892
 31
0.0
  0
LINE
  5
647
  8
FUTO
 10
24573.181833359711
 20
20300.798793947892
 30
0.0
 11
24568.181833359711
 21
20300.798793947892
 31
0.0
  0
ARC
  5
648
  8
FUTO
 10
24562.181833359711
 20
20292.798793947892
 30
0.0
 40
6.0
 50
270.0
 51
0.0
  0
LINE
  5
649
  8
FUTO
 10
24562.181833359711
 20
20286.798793947892
 30
0.0
 11
24550.681833359711
 21
20286.798793947892
 31
0.0
  0
ARC
  5
64A
  8
FUTO
 10
24544.681833359711
 20
20308.798793947892
 30
0.0
 40
6.0
 50
0.0
 51
90.0
  0
LINE
  5
64B
  8
FUTO
 10
24573.181833359711
 20
20480.798793947892
 30
0.0
 11
24573.181833359711
 21
20300.798793947892
 31
0.0
  0
LINE
  5
64C
  8
FUTO
 10
24568.181833359711
 20
20488.798793947892
 30
0.0
 11
24568.181833359711
 21
20292.798793947892
 31
0.0
  0
LINE
  5
64D
  8
FUTO
 10
24440.681833359711
 20
20278.798793947892
 30
0.0
 11
24550.681833359711
 21
20278.798793947892
 31
0.0
  0
LINE
  5
64E
  8
FUTO
 10
24544.681833359711
 20
20314.798793947892
 30
0.0
 11
24446.681833359711
 21
20314.798793947892
 31
0.0
  0
LINE
  5
653
  8
SL
 10
25376.193454685788
 20
20606.873463758151
 30
0.0
 11
25376.193454685788
 21
20230.798793947892
 31
0.0
  0
LINE
  5
654
  8
CT
 10
25496.681833359711
 20
20599.569622028132
 30
0.0
 11
25496.681833359711
 21
20149.89731826054
 31
0.0
  0
LINE
  5
655
  8
FUTO
 10
25575.181833359711
 20
20498.298793947892
 30
0.0
 11
25590.181833359711
 21
20474.798793947892
 31
0.0
  0
LINE
  5
656
  8
FUTO
 10
25563.181833359711
 20
20520.798793947892
 30
0.0
 11
25563.181833359711
 21
20305.798793947892
 31
0.0
  0
LINE
  5
657
  8
FUTO
 10
25563.181833359711
 20
20295.798793947892
 30
0.0
 11
25563.181833359711
 21
20520.7987307535
 31
0.0
  0
LINE
  5
658
  8
FUTO
 10
25575.181833359711
 20
20260.798793947892
 30
0.0
 11
25575.181833359711
 21
20520.798793947892
 31
0.0
  0
LINE
  5
659
  8
FUTO
 10
25403.181833359711
 20
20474.798793947892
 30
0.0
 11
25418.181833359711
 21
20498.298793947892
 31
0.0
  0
LINE
  5
65A
  8
FUTO
 10
25430.181833359711
 20
20520.798793947892
 30
0.0
 11
25430.181833359711
 21
20305.798793947892
 31
0.0
  0
LINE
  5
65B
  8
CT
 10
25496.681833359711
 20
20554.9603736141
 30
0.0
 11
25496.681833359711
 21
20213.090750769999
 31
0.0
  0
LINE
  5
65C
  8
FUTO
 10
25418.181833359711
 20
20520.798793947892
 30
0.0
 11
25418.181833359711
 21
20260.798793947892
 31
0.0
  0
LINE
  5
662
  8
FUTO
 10
25728.48183335971
 20
20285.032372245329
 30
0.0
 11
25703.48183335971
 21
20269.013216939591
 31
0.0
  0
LINE
  5
663
  8
KL
 10
25703.48183335971
 20
20338.298793947892
 30
0.0
 11
25930.678833359711
 21
20338.298793947892
 31
0.0
  0
LINE
  5
664
  8
FUTO
 10
25586.681833359711
 20
20240.798793947892
 30
0.0
 11
25406.681833359711
 21
20240.798793947892
 31
0.0
  0
LINE
  5
665
  8
FUTO
 10
25571.681833359711
 20
20250.798793947892
 30
0.0
 11
25421.681833359711
 21
20250.798793947892
 31
0.0
  0
LINE
  5
666
  8
FUTO
 10
25421.681833359711
 20
20305.798793947892
 30
0.0
 11
25571.681833359711
 21
20305.798793947892
 31
0.0
  0
LINE
  5
667
  8
FUTO
 10
25403.181833359711
 20
20306.798793947892
 30
0.0
 11
25403.181833359711
 21
20474.798793947892
 31
0.0
  0
LINE
  5
668
  8
FUTO
 10
25418.181833359711
 20
20260.798793947892
 30
0.0
 11
25421.681833359711
 21
20260.798793947892
 31
0.0
  0
LINE
  5
669
  8
CT
 10
25446.681833359711
 20
20215.843701596641
 30
0.0
 11
25446.681833359711
 21
20336.616226718412
 31
0.0
  0
LINE
  5
66A
  8
FUTO
 10
25421.681833359711
 20
20240.798793947892
 30
0.0
 11
25421.681833359711
 21
20305.798793947892
 31
0.0
  0
LINE
  5
66B
  8
FUTO
 10
25418.181833359711
 20
20283.298793947892
 30
0.0
 11
25403.181833359711
 21
20306.798793947892
 31
0.0
  0
LINE
  5
66C
  8
FUTO
 10
25590.181833359711
 20
20443.298793947892
 30
0.0
 11
25728.48183335971
 21
20443.298793947892
 31
0.0
  0
LINE
  5
66E
  8
FUTO
 10
25590.181833359711
 20
20338.298793947892
 30
0.0
 11
25728.48183335971
 21
20338.298793947892
 31
0.0
  0
LINE
  5
67F
  8
CT
 10
25608.072171596039
 20
20390.798793947892
 30
0.0
 11
25717.414793471951
 21
20390.798793947892
 31
0.0
  0
LINE
  5
69D
  8
FUTO
 10
25590.181833359711
 20
20474.798793947892
 30
0.0
 11
25590.181833359711
 21
20306.798793947892
 31
0.0
  0
LINE
  5
69E
  8
FUTO
 10
25571.681833359711
 20
20260.798793947892
 30
0.0
 11
25575.181833359711
 21
20260.798793947892
 31
0.0
  0
LINE
  5
69F
  8
FUTO
 10
25571.681833359711
 20
20305.798793947892
 30
0.0
 11
25571.681833359711
 21
20240.798793947892
 31
0.0
  0
LINE
  5
6A0
  8
FUTO
 10
25590.181833359711
 20
20306.798793947892
 30
0.0
 11
25575.181833359711
 21
20283.298793947892
 31
0.0
  0
LINE
  5
6A1
  8
CT
 10
25546.681833359711
 20
20215.843701596641
 30
0.0
 11
25546.681833359711
 21
20336.616226718412
 31
0.0
  0
LINE
  5
6A8
  8
KL
 10
25728.48183335971
 20
20443.298793947892
 30
0.0
 11
25930.678833359711
 21
20443.298793947892
 31
0.0
  0
LINE
  5
6AC
  8
FUTO
 10
25558.181833359711
 20
20538.798793947892
 30
0.0
 11
25435.181833359711
 21
20538.798793947892
 31
0.0
  0
LINE
  5
6AD
  8
FUTO
 10
25435.181833359711
 20
20538.798793947892
 30
0.0
 11
25435.181833359711
 21
20520.798793947892
 31
0.0
  0
LINE
  5
6AE
  8
FUTO
 10
25435.181833359711
 20
20520.798793947892
 30
0.0
 11
25418.181833359711
 21
20520.798793947892
 31
0.0
  0
LINE
  5
6B7
  8
FUTO
 10
25575.181833359711
 20
20520.798793947892
 30
0.0
 11
25558.181833359711
 21
20520.798793947892
 31
0.0
  0
LINE
  5
6B8
  8
FUTO
 10
25558.181833359711
 20
20520.798793947892
 30
0.0
 11
25558.181833359711
 21
20538.798793947892
 31
0.0
  0
LINE
  5
6BC
  8
FUTO
 10
25793.48183335971
 20
21335.998793947889
 30
0.0
 11
25793.48183335971
 21
22290.798793947892
 31
0.0
  0
LINE
  5
6BD
  8
FUTO
 10
25942.678833359711
 20
21254.798793947892
 30
0.0
 11
25930.678833359711
 21
21254.798793947892
 31
0.0
  0
LINE
  5
6BE
  8
FUTO
 10
25728.48183335971
 20
22251.153497616
 30
0.0
 11
25733.48183335971
 21
22251.153497616
 31
0.0
  0
LINE
  5
6BF
  8
FUTO
 10
25793.48183335971
 20
22290.798793947892
 30
0.0
 11
25793.48183335971
 21
22311.798793947892
 31
0.0
  0
LINE
  5
6C0
  8
FUTO
 10
25796.681833359711
 20
22290.798793947892
 30
0.0
 11
25796.681833359711
 21
22311.798793947892
 31
0.0
  0
DIMENSION
  5
6CD
  8
SP
  2
*D21
 10
27251.681833359711
 20
22843.174600652601
 30
0.0
 11
26785.544208403819
 21
22843.174600652601
 31
0.0
 70
   128
 13
26456.681833359711
 23
22875.116940016989
 33
0.0
 14
27251.681833359711
 24
21355.798793947892
 34
0.0
1001
ACAD
1000
DSTYLE
1002
{
1070
    40
1040
40.0
1002
}
  0
LINE
  5
6DA
  8
FUTO
 10
26424.682833359711
 20
21254.798793947892
 30
0.0
 11
26424.682833359711
 21
20840.798793947892
 31
0.0
  0
LINE
  5
6DB
  8
FUTO
 10
27179.881833359708
 20
20401.798793947892
 30
0.0
 11
27179.881833359719
 21
22371.798793947892
 31
0.0
  0
LINE
  5
6DC
  8
FUTO
 10
27119.881833359708
 20
21290.798793947892
 30
0.0
 11
26821.99883335971
 21
20981.084793947892
 31
0.0
  0
LINE
  5
6DD
  8
FUTO
 10
27122.186833359701
 20
21288.580793947891
 30
0.0
 11
26824.307833359711
 21
20978.865793947891
 31
0.0
  0
LINE
  5
6DE
  8
FUTO
 10
26427.881833359708
 20
20840.798793947892
 30
0.0
 11
26427.881833359708
 21
21254.798793947892
 31
0.0
  0
LINE
  5
6DF
  8
FUTO
 10
26427.881833359708
 20
21254.798793947892
 30
0.0
 11
26586.88983335971
 21
21007.189793947891
 31
0.0
  0
LINE
  5
6E0
  8
FUTO
 10
26427.881833359708
 20
21243.693793947888
 30
0.0
 11
26581.842833359711
 21
21003.947793947889
 31
0.0
  0
LINE
  5
6E1
  8
FUTO
 10
27116.681833359711
 20
20459.498793947889
 30
0.0
 11
27116.681833359711
 21
22290.798793947892
 31
0.0
  0
LINE
  5
6E2
  8
FUTO
 10
27119.881833359708
 20
20459.498793947889
 30
0.0
 11
27119.881833359708
 21
22290.798793947892
 31
0.0
  0
LINE
  5
6E3
  8
FUTO
 10
27184.881833360349
 20
22251.153497616
 30
0.0
 11
27184.881833359668
 21
20285.032372245329
 31
0.0
  0
LINE
  5
6FA
  8
FUTO
 10
26651.682833359711
 20
20840.798793947892
 30
0.0
 11
26651.682833359711
 21
20971.798793947892
 31
0.0
  0
ARC
  5
6FB
  8
FUTO
 10
26706.682833359711
 20
21091.998793947889
 30
0.0
 40
163.1999999999999
 50
250.30520048423409
 51
316.11599999999987
  0
ARC
  5
6FC
  8
FUTO
 10
26706.682833359711
 20
21091.998793947889
 30
0.0
 40
160.0
 50
249.89400000000001
 51
316.11599999999987
  0
ARC
  5
6FD
  8
1
 10
26706.682833359711
 20
21091.998793947889
 30
0.0
 40
160.0
 50
239.1699999999999
 51
249.89400000000001
  0
ARC
  5
6FE
  8
FUTO
 10
26651.682833359711
 20
21048.798793947892
 30
0.0
 40
77.0
 50
212.70799999999991
 51
270.0
  0
ARC
  5
6FF
  8
FUTO
 10
26651.682833359711
 20
21048.798793947892
 30
0.0
 40
83.0
 50
212.70799999999991
 51
270.0
  0
ARC
  5
700
  8
KL
 10
26706.682833359711
 20
21091.998793947889
 30
0.0
 40
163.1999999999999
 50
239.1699999999999
 51
250.30520048423409
  0
LINE
  5
701
  8
FUTO
 10
27184.881833359708
 20
20285.032372245329
 30
0.0
 11
27209.881833359708
 21
20269.013216939591
 31
0.0
  0
INSERT
  5
702
  8
FUTO
  2
まっすぐの矢印
 10
27447.154985930221
 20
20876.345096796998
 30
0.0
 41
2.0
 42
2.0
 43
2.0
 50
90.0
  0
LINE
  5
703
  8
FUTO
 10
26424.682833359711
 20
21254.798793947892
 30
0.0
 11
26427.881833359708
 21
21254.798793947892
 31
0.0
  0
LINE
  5
704
  8
FUTO
 10
27184.881833359708
 20
21296.798793947892
 30
0.0
 11
27251.681833359711
 21
21296.798793947892
 31
0.0
  0
LINE
  5
705
  8
KL
 10
27119.881833359708
 20
21290.798793947892
 30
0.0
 11
27251.681833359711
 21
21290.798793947892
 31
0.0
  0
LINE
  5
706
  8
HOSO
 10
27090.943863551711
 20
21330.798793947892
 30
0.0
 11
27150.774212381792
 21
21330.798793947892
 31
0.0
  0
LINE
  5
707
  8
KL
 10
27125.881833359708
 20
21355.798793947892
 30
0.0
 11
27119.881833359708
 21
21355.798793947892
 31
0.0
  0
LINE
  5
708
  8
KL
 10
27119.881833359708
 20
21296.798793947892
 30
0.0
 11
27184.881833359708
 21
21296.798793947892
 31
0.0
  0
LINE
  5
709
  8
FUTO
 10
27245.681833359711
 20
21355.798793947892
 30
0.0
 11
27251.681833359711
 21
21355.798793947892
 31
0.0
  0
LINE
  5
70A
  8
HOSO
 10
27219.014056800032
 20
21330.798793947892
 30
0.0
 11
27278.844405630101
 21
21330.798793947892
 31
0.0
  0
LINE
  5
70B
  8
FUTO
 10
27179.881833359719
 20
22251.153497616
 30
0.0
 11
27184.881833360349
 21
22251.153497616
 31
0.0
  0
LINE
  5
70C
  8
FUTO
 10
27116.681833359711
 20
22290.798793947892
 30
0.0
 11
27116.681833359711
 21
22311.798793947892
 31
0.0
  0
LINE
  5
70D
  8
FUTO
 10
27119.881833359708
 20
22290.798793947892
 30
0.0
 11
27119.881833359708
 21
22311.798793947892
 31
0.0
  0
LINE
  5
88D
  8
CT
 10
19736.071229061239
 20
26058.847841656188
 30
0.0
 11
23068.340832108439
 21
26058.847841656181
 31
0.0
  0
LINE
  5
88E
  8
FUTO
 10
22581.106388399519
 20
25329.847841656188
 30
0.0
 11
22581.10638839953
 21
26787.847841656188
 31
0.0
  0
LINE
  5
89C
  8
FUTO
 10
22516.106388399519
 20
25329.847841656188
 30
0.0
 11
22581.106388399519
 21
25329.847841656188
 31
0.0
  0
LINE
  5
89D
  8
FUTO
 10
22516.106388399519
 20
25329.847841656188
 30
0.0
 11
22516.106388399519
 21
26787.847841656188
 31
0.0
  0
LINE
  5
89E
  8
FUTO
 10
22516.106388399519
 20
26787.847841656188
 30
0.0
 11
22581.106388399519
 21
26787.847841656188
 31
0.0
  0
LINE
  5
89F
  8
FUTO
 10
19862.106388399519
 20
26722.847841656188
 30
0.0
 11
19862.106388399519
 21
25394.847841656188
 31
0.0
  0
LINE
  5
8A0
  8
FUTO
 10
19812.106388399519
 20
26772.847841656188
 30
0.0
 11
22516.106388399519
 21
26772.847841656188
 31
0.0
  0
LINE
  5
8A1
  8
FUTO
 10
19812.106388399519
 20
26772.847841656188
 30
0.0
 11
19812.106388399519
 21
25344.847841656188
 31
0.0
  0
LINE
  5
8A2
  8
FUTO
 10
19812.106388399519
 20
25344.847841656188
 30
0.0
 11
22516.106388399519
 21
25344.847841656188
 31
0.0
  0
LINE
  5
8A3
  8
FUTO
 10
19862.106388399519
 20
25394.847841656188
 30
0.0
 11
20716.106388399519
 21
25394.847841656188
 31
0.0
  0
LINE
  5
8A4
  8
FUTO
 10
20356.10638839953
 20
26772.847841656188
 30
0.0
 11
20356.106388399519
 21
26797.847841656199
 31
0.0
  0
LINE
  5
8A5
  8
FUTO
 10
22476.106388399519
 20
26772.847841656188
 30
0.0
 11
22476.106388399519
 21
26797.847841656188
 31
0.0
  0
LINE
  5
132F
  8
FUTO
 10
21796.106388399519
 20
23608.847841656188
 30
0.0
 11
19636.106388399519
 21
23608.847841656188
 31
0.0
  0
LINE
  5
1330
  8
FUTO
 10
21796.106388399519
 20
23958.847841656188
 30
0.0
 11
19636.106388399519
 21
23958.847841656188
 31
0.0
  0
LINE
  5
1336
  8
SL
 10
21696.106388399519
 20
23758.847841656188
 30
0.0
 11
19716.106388399519
 21
23758.847841656188
 31
0.0
  0
LINE
  5
1337
  8
SL
 10
21696.106388399519
 20
23928.847841656188
 30
0.0
 11
19716.106388399519
 21
23928.847841656188
 31
0.0
  0
LINE
  5
1338
  8
CT
 10
21416.106388399519
 20
23556.921719971411
 30
0.0
 11
21416.106388399519
 21
27052.84314482841
 31
0.0
  0
LINE
  5
1342
  8
FUTO
 10
21520.106388399519
 20
24031.347841656188
 30
0.0
 11
21520.106388399519
 21
24042.847841656188
 31
0.0
  0
LINE
  5
1343
  8
FUTO
 10
21312.106388399519
 20
24164.347841656188
 30
0.0
 11
21312.106388399519
 21
24031.347841656188
 31
0.0
  0
ARC
  5
1344
  8
FUTO
 10
21318.106388399519
 20
24031.347841656188
 30
0.0
 40
6.0
 50
180.0
 51
270.0
  0
LINE
  5
1345
  8
SL
 10
21136.106388399519
 20
23758.847841656188
 30
0.0
 11
21136.106388399519
 21
23928.847841656188
 31
0.0
  0
LINE
  5
1346
  8
FUTO
 10
21368.606388399519
 20
23928.847841656188
 30
0.0
 11
21368.606388399519
 21
24020.347841656188
 31
0.0
  0
LINE
  5
1347
  8
FUTO
 10
21463.606388399519
 20
23928.847841656188
 30
0.0
 11
21463.606388399519
 21
24020.347841656188
 31
0.0
  0
LINE
  5
1348
  8
FUTO
 10
21326.106388399519
 20
24020.347841656188
 30
0.0
 11
21506.106388399519
 21
24020.347841656188
 31
0.0
  0
LINE
  5
1349
  8
FUTO
 10
21318.106388399519
 20
24025.347841656188
 30
0.0
 11
21514.106388399519
 21
24025.347841656188
 31
0.0
  0
LINE
  5
134A
  8
FUTO
 10
21506.106388399519
 20
24020.347841656188
 30
0.0
 11
21506.106388399519
 21
24025.347841656188
 31
0.0
  0
ARC
  5
134B
  8
FUTO
 10
21514.106388399519
 20
24031.347841656188
 30
0.0
 40
6.0
 50
270.0
 51
0.0
  0
LINE
  5
134C
  8
FUTO
 10
21326.106388399519
 20
24025.347841656188
 30
0.0
 11
21326.106388399519
 21
24020.347841656188
 31
0.0
  0
LINE
  5
1353
  8
FUTO
 10
21363.606388399519
 20
24175.347841656188
 30
0.0
 11
21363.606388399519
 21
25005.347841656188
 31
0.0
  0
LINE
  5
1354
  8
FUTO
 10
21468.606388399519
 20
24175.347841656188
 30
0.0
 11
21468.606388399519
 21
25005.347841656188
 31
0.0
  0
LINE
  5
1357
  8
CT
 10
21292.337629234811
 20
24097.847841656188
 30
0.0
 11
21545.930112301648
 21
24097.847841656188
 31
0.0
  0
LINE
  5
1358
  8
FUTO
 10
21312.106388399519
 20
24042.847841656188
 30
0.0
 11
21520.106388399519
 21
24042.847841656188
 31
0.0
  0
LINE
  5
1359
  8
FUTO
 10
21312.106388399519
 20
24152.847841656188
 30
0.0
 11
21520.106388399519
 21
24152.847841656188
 31
0.0
  0
ARC
  5
135A
  8
FUTO
 10
21318.106388399519
 20
24164.347841656188
 30
0.0
 40
6.0
 50
90.0
 51
180.0
  0
LINE
  5
135B
  8
CT
 10
21235.040473979901
 20
24097.847841656188
 30
0.0
 11
21625.040641925309
 21
24097.847841656188
 31
0.0
  0
LINE
  5
135F
  8
FUTO
 10
21318.106388399519
 20
24170.347841656188
 30
0.0
 11
21514.106388399519
 21
24170.347841656188
 31
0.0
  0
LINE
  5
1360
  8
FUTO
 10
21326.106388399519
 20
24175.347841656188
 30
0.0
 11
21506.106388399519
 21
24175.347841656188
 31
0.0
  0
LINE
  5
1362
  8
FUTO
 10
21520.106388399519
 20
24164.347841656188
 30
0.0
 11
21520.106388399519
 21
24152.847841656188
 31
0.0
  0
ARC
  5
1363
  8
FUTO
 10
21514.106388399519
 20
24164.347841656188
 30
0.0
 40
6.0
 50
0.0
 51
90.0
  0
LINE
  5
1364
  8
FUTO
 10
21506.106388399519
 20
24175.347841656188
 30
0.0
 11
21506.106388399519
 21
24170.347841656188
 31
0.0
  0
LINE
  5
1365
  8
FUTO
 10
21326.106388399519
 20
24170.347841656188
 30
0.0
 11
21326.106388399519
 21
24175.347841656188
 31
0.0
  0
LINE
  5
136A
  8
FUTO
 10
21286.106388399519
 20
25020.347841656188
 30
0.0
 11
21546.106388399519
 21
25020.347841656188
 31
0.0
  0
LINE
  5
136B
  8
CT
 10
21251.944808733311
 20
25098.847841656188
 30
0.0
 11
21593.814431577412
 21
25098.847841656188
 31
0.0
  0
LINE
  5
136C
  8
FUTO
 10
21286.106388399519
 20
25032.347841656188
 30
0.0
 11
21546.106388399519
 21
25032.347841656188
 31
0.0
  0
LINE
  5
136D
  8
FUTO
 10
21332.106388399519
 20
25005.347841656188
 30
0.0
 11
21308.606388399519
 21
25020.347841656188
 31
0.0
  0
LINE
  5
136E
  8
FUTO
 10
21546.106388399519
 20
25177.347841656188
 30
0.0
 11
21286.106388399519
 21
25177.347841656188
 31
0.0
  0
LINE
  5
136F
  8
FUTO
 10
21546.10638839953
 20
25165.347841656188
 30
0.0
 11
21286.106451593911
 21
25165.347841656188
 31
0.0
  0
LINE
  5
1370
  8
FUTO
 10
21286.106388399519
 20
25165.347841656188
 30
0.0
 11
21501.106388399519
 21
25165.347841656188
 31
0.0
  0
LINE
  5
1371
  8
FUTO
 10
21308.606388399519
 20
25177.347841656188
 30
0.0
 11
21332.106388399519
 21
25192.347841656188
 31
0.0
  0
LINE
  5
1372
  8
CT
 10
21207.335560319279
 20
25098.847841656188
 30
0.0
 11
21657.007864086871
 21
25098.847841656188
 31
0.0
  0
LINE
  5
137E
  8
FUTO
 10
21523.606388399519
 20
25020.347841656188
 30
0.0
 11
21500.106388399519
 21
25005.347841656188
 31
0.0
  0
LINE
  5
1381
  8
FUTO
 10
21546.106388399519
 20
25020.347841656188
 30
0.0
 11
21546.106388399519
 21
25023.847841656188
 31
0.0
  0
LINE
  5
1382
  8
FUTO
 10
21500.106388399519
 20
25005.347841656188
 30
0.0
 11
21332.106388399519
 21
25005.347841656188
 31
0.0
  0
LINE
  5
1384
  8
FUTO
 10
21500.106388399519
 20
25192.347841656188
 30
0.0
 11
21523.606388399519
 21
25177.347841656188
 31
0.0
  0
LINE
  5
1386
  8
FUTO
 10
21546.106388399519
 20
25173.847841656188
 30
0.0
 11
21546.106388399519
 21
25177.347841656188
 31
0.0
  0
LINE
  5
1387
  8
FUTO
 10
21332.106388399519
 20
25192.347841656188
 30
0.0
 11
21500.106388399519
 21
25192.347841656188
 31
0.0
  0
LINE
  5
13A3
  8
CT
 10
21416.106388399519
 20
25210.238179892509
 30
0.0
 11
21416.106388399519
 21
25319.580801768429
 31
0.0
  0
LINE
  5
13B2
  8
FUTO
 10
21468.606388399519
 20
25192.347841656188
 30
0.0
 11
21468.606388399519
 21
25344.847841656188
 31
0.0
  0
LINE
  5
13B4
  8
FUTO
 10
21363.606388399519
 20
25192.347841656188
 30
0.0
 11
21363.60638839953
 21
25344.847841656188
 31
0.0
  0
LINE
  5
13BE
  8
FUTO
 10
21268.106388399519
 20
25160.347841656188
 30
0.0
 11
21268.106388399519
 21
25037.347841656188
 31
0.0
  0
LINE
  5
13BF
  8
FUTO
 10
21286.106388399519
 20
25037.347841656188
 30
0.0
 11
21286.106388399519
 21
25020.347841656188
 31
0.0
  0
LINE
  5
13C0
  8
FUTO
 10
21268.106388399519
 20
25037.347841656188
 30
0.0
 11
21286.106388399519
 21
25037.347841656188
 31
0.0
  0
LINE
  5
13C1
  8
FUTO
 10
21286.106388399519
 20
25160.347841656188
 30
0.0
 11
21268.106388399519
 21
25160.347841656188
 31
0.0
  0
LINE
  5
13C2
  8
FUTO
 10
21286.106388399519
 20
25177.347841656188
 30
0.0
 11
21286.106388399519
 21
25160.347841656188
 31
0.0
  0
LINE
  5
13E1
  8
FUTO
 10
21796.106388399519
 20
23608.847841656188
 30
0.0
 11
21796.106388399519
 21
23958.847841656188
 31
0.0
  0
LINE
  5
13E2
  8
SL
 10
21696.106388399519
 20
23758.847841656188
 30
0.0
 11
21696.106388399519
 21
23928.847841656188
 31
0.0
  0
DIMENSION
  5
1417
  8
SP
  2
*D5
 10
26456.681833359711
 20
22843.174600652601
 30
0.0
 11
25231.681833359711
 21
22954.60317208117
 31
0.0
 70
     0
  1
(<>)
 13
24006.681833359711
 23
20770.798793947892
 33
0.0
 14
26456.681833359711
 24
22371.798793947892
 34
0.0
1001
ACAD
1000
DSTYLE
1002
{
1070
    40
1040
40.0
1002
}
  0
LINE
  5
1453
  8
FUTO
 10
21520.106388399519
 20
24164.347841656188
 30
0.0
 11
21520.106388399519
 21
24031.347841656188
 31
0.0
  0
LINE
  5
1454
  8
FUTO
 10
21564.106388399519
 20
25160.347841656188
 30
0.0
 11
21564.106388399519
 21
25037.347841656188
 31
0.0
  0
LINE
  5
1455
  8
FUTO
 10
21564.106388399519
 20
25037.347841656188
 30
0.0
 11
21546.106388399519
 21
25037.347841656188
 31
0.0
  0
LINE
  5
1456
  8
FUTO
 10
21546.106388399519
 20
25037.347841656188
 30
0.0
 11
21546.106388399519
 21
25020.347841656188
 31
0.0
  0
LINE
  5
1457
  8
FUTO
 10
21546.106388399519
 20
25177.347841656188
 30
0.0
 11
21546.106388399519
 21
25160.347841656188
 31
0.0
  0
LINE
  5
1458
  8
FUTO
 10
21546.106388399519
 20
25160.347841656188
 30
0.0
 11
21564.106388399519
 21
25160.347841656188
 31
0.0
  0
LINE
  5
1698
  8
KL
 10
24395.181833359718
 20
19280.798793947892
 30
0.0
 11
24395.181833359711
 21
19210.798793949762
 31
0.0
  0
LINE
  5
1699
  8
KL
 10
25095.181833359718
 20
19280.798793947892
 30
0.0
 11
25095.181833359711
 21
19210.798793949791
 31
0.0
  0
LINE
  5
169A
  8
KL
 10
24890.181833359711
 20
19280.798793947892
 30
0.0
 11
24395.181833359718
 21
19280.798793947892
 31
0.0
  0
LINE
  5
169B
  8
KL
 10
24395.181833359711
 20
19280.798793947892
 30
0.0
 11
25095.181833359718
 21
19280.798793947892
 31
0.0
  0
LINE
  5
16AB
  8
FUTO
 10
24331.681833359711
 20
19660.798793947892
 30
0.0
 11
24331.681833359711
 21
19460.798793947892
 31
0.0
  0
LINE
  5
16AC
  8
KL
 10
25565.681833359711
 20
19820.798793947892
 30
0.0
 11
25565.681833359711
 21
19342.649855865799
 31
0.0
  0
LINE
  5
16AD
  8
FUTO
 10
24351.681833359711
 20
19870.798793947892
 30
0.0
 11
24351.681833359711
 21
19294.572070475711
 31
0.0
  0
LINE
  5
16AE
  8
KL
 10
24430.681833359711
 20
19870.798793947892
 30
0.0
 11
24430.681833359711
 21
19294.572070475711
 31
0.0
  0
LINE
  5
16AF
  8
KL
 10
25315.681833359711
 20
19870.798793947892
 30
0.0
 11
25315.681833359711
 21
19292.649855865799
 31
0.0
  0
LINE
  5
16B0
  8
CT
 10
24745.181833359711
 20
19907.438161934529
 30
0.0
 11
24745.181833359711
 21
19188.8502669308
 31
0.0
  0
LINE
  5
16B1
  8
KL
 10
24890.181833359711
 20
19280.798793947892
 30
0.0
 11
25010.181833359711
 21
19280.798793947892
 31
0.0
  0
LINE
  5
16B2
  8
KL
 10
24480.181833359711
 20
19310.798793947892
 30
0.0
 11
25010.181833359711
 21
19310.798793947892
 31
0.0
  0
LINE
  5
16B3
  8
KL
 10
25315.681833359711
 20
19292.64985586581
 30
0.0
 11
25515.681833359711
 21
19292.64985586581
 31
0.0
  0
ARC
  5
16B4
  8
KL
 10
25515.681833359711
 20
19342.649855865799
 30
0.0
 40
50.0
 50
270.0
 51
0.0
  0
LINE
  5
16B5
  8
KL
 10
25010.181833359711
 20
19292.64985586581
 30
0.0
 11
25295.35661536155
 21
19292.64985586581
 31
0.0
  0
LINE
  5
16B6
  8
KL
 10
25315.681833359711
 20
19304.18314352525
 30
0.0
 11
25295.35661536155
 21
19292.64985586581
 31
0.0
  0
LINE
  5
16B7
  8
CT
 10
24973.681833359711
 20
19334.78954570683
 30
0.0
 11
24973.681833359711
 21
19264.316503624352
 31
0.0
  0
LINE
  5
16B8
  8
KL
 10
25010.181833359711
 20
19310.798793947892
 30
0.0
 11
25010.181833359711
 21
19280.798793947892
 31
0.0
  0
LINE
  5
16B9
  8
KL
 10
24890.181833359711
 20
19292.649855865799
 30
0.0
 11
24600.181833359711
 21
19292.64985586581
 31
0.0
  0
LINE
  5
16BA
  8
KL
 10
24890.181833359711
 20
19292.649855865799
 30
0.0
 11
24890.181833359711
 21
19280.798793947892
 31
0.0
  0
LINE
  5
16BB
  8
KL
 10
24480.181833359711
 20
19310.798793947892
 30
0.0
 11
24480.181833359711
 21
19280.798793947892
 31
0.0
  0
LINE
  5
16BC
  8
CT
 10
24516.681833359711
 20
19334.78954570683
 30
0.0
 11
24516.681833359711
 21
19264.316503624352
 31
0.0
  0
LINE
  5
16BD
  8
KL
 10
24480.181833359711
 20
19294.572070475711
 30
0.0
 11
24351.681833359711
 21
19294.572070475711
 31
0.0
  0
LINE
  5
16BE
  8
KL
 10
24600.181833359711
 20
19292.649855865799
 30
0.0
 11
24600.181833359711
 21
19280.798793947892
 31
0.0
  0
LINE
  5
16BF
  8
KL
 10
24480.181833359711
 20
19280.798793947892
 30
0.0
 11
24600.181833359711
 21
19280.798793947899
 31
0.0
  0
LINE
  5
16C0
  8
FUTO
 10
24351.681833359711
 20
19460.798793947892
 30
0.0
 11
24331.681833359711
 21
19460.798793947892
 31
0.0
  0
LINE
  5
16C1
  8
KL
 10
25294.28700719414
 20
19870.798793947892
 30
0.0
 11
24351.681833359711
 21
19870.798793947892
 31
0.0
  0
LINE
  5
16C2
  8
CT
 10
25602.324598824151
 20
19560.798793947892
 30
0.0
 11
24130.533002520318
 21
19560.798793947892
 31
0.0
  0
LINE
  5
16C3
  8
KL
 10
25515.681833359711
 20
19870.798793947892
 30
0.0
 11
25315.681833359711
 21
19870.798793947892
 31
0.0
  0
ARC
  5
16C4
  8
KL
 10
25515.681833359711
 20
19820.798793947892
 30
0.0
 40
50.0
 50
0.0
 51
90.0
  0
LINE
  5
16C5
  8
KL
 10
25315.681833359711
 20
19846.247663519149
 30
0.0
 11
25294.28700719414
 21
19870.798793947892
 31
0.0
  0
LINE
  5
16C6
  8
FUTO
 10
24331.681833359711
 20
19603.298793947892
 30
0.0
 11
24156.681833359711
 21
19603.298793947892
 31
0.0
  0
LINE
  5
16C7
  8
FUTO
 10
24331.681833359711
 20
19518.298793947892
 30
0.0
 11
24156.681833359711
 21
19518.298793947892
 31
0.0
  0
LINE
  5
16C8
  8
CT
 10
24540.681833359711
 20
20194.168507912382
 30
0.0
 11
24540.681833359711
 21
19795.308976356599
 31
0.0
  0
LINE
  5
16C9
  8
FUTO
 10
24351.681833359711
 20
19660.798793947892
 30
0.0
 11
24331.681833359711
 21
19660.798793947892
 31
0.0
  0
LINE
  5
16CA
  8
KL
 10
24640.681833359711
 20
20150.798793947892
 30
0.0
 11
24440.681833359711
 21
20150.798793947892
 31
0.0
  0
LINE
  5
16CB
  8
KL
 10
24640.681833359711
 20
19885.798793947892
 30
0.0
 11
24440.681833359711
 21
19885.798793947892
 31
0.0
  0
LINE
  5
16CC
  8
CT
 10
24704.547760546091
 20
20010.798793947892
 30
0.0
 11
24402.41157116157
 21
20010.798793947892
 31
0.0
  0
LINE
  5
16CD
  8
KL
 10
24660.681833359711
 20
20130.798793947892
 30
0.0
 11
24660.681833359711
 21
19905.798793947892
 31
0.0
  0
ARC
  5
16CE
  8
KL
 10
24640.681833359711
 20
19905.798793947892
 30
0.0
 40
20.0
 50
270.0
 51
0.0
  0
ARC
  5
16CF
  8
KL
 10
24640.681833359711
 20
20130.798793947892
 30
0.0
 40
20.0
 50
0.0
 51
90.0
  0
LINE
  5
16D0
  8
KL
 10
24420.681833359711
 20
20130.798793947892
 30
0.0
 11
24420.681833359711
 21
19905.798793947892
 31
0.0
  0
ARC
  5
16D1
  8
KL
 10
24440.681833359711
 20
19905.798793947892
 30
0.0
 40
20.0
 50
180.0
 51
270.0
  0
ARC
  5
16D2
  8
KL
 10
24440.681833359711
 20
20130.798793947892
 30
0.0
 40
20.0
 50
90.0
 51
180.0
  0
LINE
  5
16D3
  8
FUTO
 10
24326.681833359711
 20
19603.298793947892
 30
0.0
 11
24326.681833359711
 21
19518.298793947892
 31
0.0
  0
LINE
  5
16D4
  8
FUTO
 10
24156.681833359711
 20
19603.298793947892
 30
0.0
 11
24156.681833359711
 21
19518.298793947892
 31
0.0
  0
LINE
  5
17EE
  8
FUTO
 10
20226.106388399479
 20
24896.453015490632
 30
0.0
 11
20226.106388399508
 21
23953.84784165621
 31
0.0
  0
LINE
  5
17EF
  8
CT
 10
19916.106388399468
 20
25204.490607120631
 30
0.0
 11
19916.106388399519
 21
23732.699010816799
 31
0.0
  0
LINE
  5
17F0
  8
FUTO
 10
19606.106388399479
 20
24896.45301549061
 30
0.0
 11
19606.106388399519
 21
23953.847841656188
 31
0.0
  0
LINE
  5
17F1
  8
FUTO
 10
20126.106388399508
 20
24022.847841656199
 30
0.0
 11
19736.106388399508
 21
24022.847841656188
 31
0.0
  0
LINE
  5
17F2
  8
CT
 10
19707.79352902219
 20
24142.847841656188
 30
0.0
 11
20170.776168036711
 21
24142.847841656199
 31
0.0
  0
LINE
  5
17F3
  8
CT
 10
19569.46702041286
 20
24347.347841656181
 30
0.0
 11
20288.054915416589
 21
24347.34784165621
 31
0.0
  0
LINE
  5
17F4
  8
FUTO
 10
19606.106388399519
 20
23953.847841656188
 30
0.0
 11
20226.106388399508
 21
23953.84784165621
 31
0.0
  0
LINE
  5
17F5
  8
FUTO
 10
19816.106388399508
 20
23933.847841656188
 30
0.0
 11
20016.106388399508
 21
23933.847841656199
 31
0.0
  0
LINE
  5
17F6
  8
FUTO
 10
20126.106388399501
 20
24262.847841656199
 30
0.0
 11
19736.106388399501
 21
24262.847841656188
 31
0.0
  0
LINE
  5
17F7
  8
FUTO
 10
19546.761999556598
 20
23997.347841656181
 30
0.0
 11
19546.76199955658
 21
24697.347841656181
 31
0.0
  0
LINE
  5
17F8
  8
FUTO
 10
19716.106388399501
 20
24242.847841656188
 30
0.0
 11
19716.106388399508
 21
24142.847841656188
 31
0.0
  0
LINE
  5
17F9
  8
CT
 10
19916.106388399599
 20
23587.396885486101
 30
0.0
 11
19916.10638839901
 21
24845.803281602279
 31
0.0
  0
LINE
  5
17FA
  8
FUTO
 10
19606.106388399508
 20
23997.347841656181
 30
0.0
 11
19546.761999556598
 21
23997.347841656181
 31
0.0
  0
LINE
  5
17FE
  8
FUTO
 10
19958.606388399519
 20
23933.847841656199
 30
0.0
 11
19958.606388399519
 21
23758.847841656199
 31
0.0
  0
LINE
  5
17FF
  8
FUTO
 10
19873.606388399519
 20
23933.847841656188
 30
0.0
 11
19873.606388399519
 21
23758.847841656188
 31
0.0
  0
LINE
  5
1802
  8
FUTO
 10
19873.606388399519
 20
23758.847841656188
 30
0.0
 11
19958.606388399519
 21
23758.847841656199
 31
0.0
  0
ARC
  5
1804
  8
FUTO
 10
19736.106388399508
 20
24042.847841656188
 30
0.0
 40
20.0
 50
180.0
 51
270.0
  0
LINE
  5
1805
  8
FUTO
 10
19716.106388399508
 20
24042.847841656181
 30
0.0
 11
19716.106388399508
 21
24142.847841656188
 31
0.0
  0
LINE
  5
1806
  8
FUTO
 10
19606.106388399508
 20
24032.847841656181
 30
0.0
 11
19718.78588032382
 21
24032.847841656181
 31
0.0
  0
LINE
  5
1807
  8
FUTO
 10
19873.606388399519
 20
23928.847841656188
 30
0.0
 11
19958.606388399519
 21
23928.847841656199
 31
0.0
  0
LINE
  5
1808
  8
FUTO
 10
19816.106388399508
 20
23953.847841656188
 30
0.0
 11
19816.106388399508
 21
23933.847841656188
 31
0.0
  0
LINE
  5
1809
  8
FUTO
 10
19606.10638839949
 20
24697.347841656181
 30
0.0
 11
19546.76199955658
 21
24697.347841656181
 31
0.0
  0
ARC
  5
180A
  8
FUTO
 10
19736.106388399501
 20
24242.847841656188
 30
0.0
 40
20.0
 50
90.0
 51
180.0
  0
LINE
  5
180B
  8
FUTO
 10
20285.450777242419
 20
23997.347841656199
 30
0.0
 11
20285.4507772424
 21
24697.34784165621
 31
0.0
  0
LINE
  5
180C
  8
FUTO
 10
20146.106388399501
 20
24242.847841656199
 30
0.0
 11
20146.106388399508
 21
24142.847841656199
 31
0.0
  0
LINE
  5
180F
  8
FUTO
 10
20143.426896475201
 20
24032.847841656199
 30
0.0
 11
20226.106388399508
 21
24032.847841656199
 31
0.0
  0
LINE
  5
1810
  8
CT
 10
20190.677943353709
 20
24118.847841656199
 30
0.0
 11
20261.150985436179
 21
24118.84784165621
 31
0.0
  0
ARC
  5
1811
  8
FUTO
 10
20126.106388399508
 20
24042.847841656199
 30
0.0
 40
20.0
 50
270.0
 51
0.0
  0
LINE
  5
1812
  8
FUTO
 10
20146.106388399508
 20
24042.847841656199
 30
0.0
 11
20146.106388399508
 21
24142.847841656199
 31
0.0
  0
LINE
  5
1813
  8
FUTO
 10
20016.106388399508
 20
23953.847841656199
 30
0.0
 11
20016.106388399508
 21
23933.847841656199
 31
0.0
  0
LINE
  5
1814
  8
FUTO
 10
20226.106388399508
 20
23997.347841656199
 30
0.0
 11
20285.450777242419
 21
23997.347841656199
 31
0.0
  0
ARC
  5
1815
  8
FUTO
 10
20126.106388399501
 20
24242.847841656199
 30
0.0
 40
20.0
 50
0.0
 51
90.0
  0
LINE
  5
1816
  8
CT
 10
20190.67794335369
 20
24575.847841656199
 30
0.0
 11
20261.150985436168
 21
24575.84784165621
 31
0.0
  0
LINE
  5
1817
  8
FUTO
 10
20226.10638839949
 20
24697.34784165621
 30
0.0
 11
20285.4507772424
 21
24697.34784165621
 31
0.0
  0
LINE
  5
181A
  8
FUTO
 10
19606.106388399479
 20
24917.847841656181
 30
0.0
 11
20226.106388399479
 21
24917.84784165621
 31
0.0
  0
LINE
  5
181B
  8
FUTO
 10
19656.106388399468
 20
25167.847841656188
 30
0.0
 11
20176.106388399468
 21
25167.847841656199
 31
0.0
  0
LINE
  5
181F
  8
FUTO
 10
19630.65751882823
 20
24917.847841656181
 30
0.0
 11
19606.106388399479
 21
24896.45301549061
 31
0.0
  0
ARC
  5
1820
  8
FUTO
 10
19656.106388399468
 20
25117.847841656188
 30
0.0
 40
50.0
 50
90.0
 51
180.0
  0
LINE
  5
1821
  8
FUTO
 10
19606.106388399468
 20
25117.847841656181
 30
0.0
 11
19606.106388399479
 21
24917.847841656181
 31
0.0
  0
ARC
  5
1824
  8
FUTO
 10
20176.106388399468
 20
25117.847841656199
 30
0.0
 40
50.0
 50
0.0
 51
90.0
  0
LINE
  5
1825
  8
FUTO
 10
20201.555257970729
 20
24917.847841656199
 30
0.0
 11
20226.106388399479
 21
24896.453015490632
 31
0.0
  0
LINE
  5
1826
  8
FUTO
 10
20226.106388399468
 20
25117.84784165621
 30
0.0
 11
20226.106388399479
 21
24917.84784165621
 31
0.0
  0
LINE
  5
1827
  8
FUTO
 10
19476.106388399519
 20
24022.847841656188
 30
0.0
 11
19476.106388399519
 21
23947.847841656188
 31
0.0
  0
LINE
  5
1828
  8
FUTO
 10
19652.226473954681
 20
25319.847841656188
 30
0.0
 11
19652.226473954681
 21
25167.69707699537
 31
0.0
  0
LINE
  5
1829
  8
FUTO
 10
20179.98630284418
 20
25319.847841656308
 30
0.0
 11
20179.986302844249
 21
25167.69707699549
 31
0.0
  0
LINE
  5
182A
  8
FUTO
 10
20104.98630284418
 20
25319.847841656268
 30
0.0
 11
20104.986302844249
 21
25167.847841656268
 31
0.0
  0
LINE
  5
182B
  8
SL
 10
19716.106388399519
 20
23758.847841656188
 30
0.0
 11
19716.106388399519
 21
23928.847841656188
 31
0.0
  0
LINE
  5
182D
  8
FUTO
 10
19636.106388399519
 20
23608.847841656188
 30
0.0
 11
19636.106388399519
 21
23958.847841656188
 31
0.0
  0
LINE
  5
182F
  8
FUTO
 10
21758.15481422357
 20
24022.847841656181
 30
0.0
 11
21758.15481422357
 21
25344.847841656188
 31
0.0
  0
LINE
  5
1830
  8
FUTO
 10
21074.05796257548
 20
24022.847841656181
 30
0.0
 11
21074.05796257548
 21
25344.847841656188
 31
0.0
  0
LINE
  5
1832
  8
FUTO
 10
20451.106388399519
 20
26853.847841656188
 30
0.0
 11
22381.106388399519
 21
26853.847841656188
 31
0.0
  0
LINE
  5
1833
  8
FUTO
 10
20451.106388399519
 20
26847.847841656188
 30
0.0
 11
22381.106388399519
 21
26847.847841656188
 31
0.0
  0
LINE
  5
1834
  8
KL
 10
20451.106388399519
 20
26728.047841656178
 30
0.0
 11
22381.106388399519
 21
26728.047841656189
 31
0.0
  0
LINE
  5
1839
  8
KL
 10
22316.106388399519
 20
26722.047841656189
 30
0.0
 11
22316.106388399519
 21
26853.847841656188
 31
0.0
  0
LINE
  5
183A
  8
KL
 10
22322.106388399519
 20
26722.047841656189
 30
0.0
 11
22322.106388399519
 21
26812.047841656189
 31
0.0
  0
LINE
  5
183B
  8
KL
 10
22381.106388399519
 20
26722.047841656189
 30
0.0
 11
22381.106388399519
 21
26728.047841656189
 31
0.0
  0
LINE
  5
183C
  8
HOSO
 10
22356.106388399519
 20
26679.513832045272
 30
0.0
 11
22356.106388399519
 21
26753.621447193538
 31
0.0
  0
LINE
  5
183D
  8
HOSO
 10
22356.106388399519
 20
26820.365295470161
 30
0.0
 11
22356.106388399519
 21
26894.472910618431
 31
0.0
  0
LINE
  5
183E
  8
FUTO
 10
22381.106388399519
 20
26847.847841656188
 30
0.0
 11
22381.106388399519
 21
26853.847841656188
 31
0.0
  0
LINE
  5
183F
  8
FUTO
 10
22322.106388399519
 20
26812.047841656189
 30
0.0
 11
22322.106388399519
 21
26853.847841656188
 31
0.0
  0
INSERT
  5
185B
  8
FUTO
  2
まっすぐの矢印
 10
20930.560085550409
 20
27049.320994226691
 30
0.0
 41
2.0
 42
2.0
 43
2.0
 50
180.0
  0
LINE
  5
185D
  8
KL
 10
20516.106388399519
 20
26722.047841656189
 30
0.0
 11
20516.106388399519
 21
26853.847841656188
 31
0.0
  0
LINE
  5
185E
  8
FUTO
 10
20510.106388399519
 20
26787.047841656189
 30
0.0
 11
20510.106388399519
 21
26853.847841656188
 31
0.0
  0
LINE
  5
185F
  8
KL
 10
20510.106388399519
 20
26722.047841656189
 30
0.0
 11
20510.106388399519
 21
26787.047841656189
 31
0.0
  0
LINE
  5
1860
  8
KL
 10
20451.106388399519
 20
26728.047841656178
 30
0.0
 11
20451.106388399519
 21
26722.047841656189
 31
0.0
  0
LINE
  5
1861
  8
HOSO
 10
20476.106388399519
 20
26693.109871848192
 30
0.0
 11
20476.106388399519
 21
26752.940220678269
 31
0.0
  0
LINE
  5
1862
  8
HOSO
 10
20476.106388399519
 20
26821.180065096509
 30
0.0
 11
20476.106388399519
 21
26881.010413926579
 31
0.0
  0
LINE
  5
1863
  8
FUTO
 10
20451.106388399519
 20
26847.847841656188
 30
0.0
 11
20451.106388399519
 21
26853.847841656188
 31
0.0
  0
LINE
  5
188E
  8
FUTO
 10
21810.25859763729
 20
20118.483328710579
 30
0.0
 11
22116.106388399519
 21
19226.589888486302
 31
0.0
  0
LINE
  5
188F
  8
FUTO
 10
21894.940286738431
 20
20358.987024488579
 30
0.0
 11
22603.873678806551
 21
20296.10353827944
 31
0.0
  0
LINE
  5
1890
  8
FUTO
 10
21893.349903234619
 20
20341.057421026399
 30
0.0
 11
22606.28333950962
 21
20277.819124721522
 31
0.0
  0
LINE
  5
1891
  8
KL
 10
20605.223699136499
 20
20401.42499394788
 30
0.0
 11
21216.106388399519
 21
20401.42499394788
 31
0.0
  0
LINE
  5
1892
  8
KL
 10
20580.134188095381
 20
20383.424993947901
 30
0.0
 11
21216.106388399519
 21
20383.42499394789
 31
0.0
  0
LINE
  5
1893
  8
FUTO
 10
20366.106388399519
 20
19444.052155138768
 30
0.0
 11
20366.106388399519
 21
19212.42499394789
 31
0.0
  0
LINE
  5
1894
  8
FUTO
 10
20375.106388399519
 20
19447.735545119442
 30
0.0
 11
20375.106388399519
 21
19212.42499394789
 31
0.0
  0
LINE
  5
1895
  8
KL
 10
20357.106388399519
 20
20223.417874321389
 30
0.0
 11
20357.106388399519
 21
19440.27351703063
 31
0.0
  0
LINE
  5
1896
  8
KL
 10
20366.106388399519
 20
20229.874755833938
 30
0.0
 11
20366.106388399519
 21
19444.052155138768
 31
0.0
  0
LINE
  5
1897
  8
KL
 10
20375.106388399519
 20
20236.33163734647
 30
0.0
 11
20375.106388399519
 21
19447.735545119442
 31
0.0
  0
DIMENSION
  5
18AD
  8
SP
  2
*D6
 10
23125.515477605109
 20
22382.42499394789
 30
0.0
 11
23045.515477605109
 21
21387.42499394789
 31
0.0
 70
     0
 13
22961.460387443622
 23
20392.42499394789
 33
0.0
 14
22581.106388399519
 24
22382.42499394789
 34
0.0
 50
90.0
1001
ACAD
1000
DSTYLE
1002
{
1070
    40
1040
40.0
1002
}
  0
DIMENSION
  5
1909
  8
SP
  2
*D9
 10
22581.10638839953
 20
27311.721773139139
 30
0.0
 11
21998.60638839953
 21
27391.721773139139
 31
0.0
 70
     0
 13
21416.106388399519
 23
27052.84314482841
 33
0.0
 14
22581.10638839953
 24
26787.847841656188
 34
0.0
1001
ACAD
1000
DSTYLE
1002
{
1070
    40
1040
40.0
1002
}
  0
DIMENSION
  5
1916
  8
SP
  2
*D10
 10
19476.106388399519
 20
27311.721773139139
 30
0.0
 11
20446.106388399519
 21
27391.721773139139
 31
0.0
 70
     0
 13
21416.106388399519
 23
27311.721773139139
 33
0.0
 14
19476.106388399519
 24
25394.847841656188
 34
0.0
1001
ACAD
1000
DSTYLE
1002
{
1070
    40
1040
40.0
1002
}
  0
DIMENSION
  5
1923
  8
SP
  2
*D11
 10
23001.092653889638
 20
26058.847841656181
 30
0.0
 11
22921.092653889631
 21
26456.347841656188
 31
0.0
 70
     0
 13
22381.106388399519
 23
26853.847841656188
 33
0.0
 14
23068.340832108439
 24
26058.847841656181
 34
0.0
 50
90.0
1001
ACAD
1000
DSTYLE
1002
{
1070
    40
1040
40.0
1002
}
  0
DIMENSION
  5
1930
  8
SP
  2
*D12
 10
23001.092653889638
 20
23608.847841656188
 30
0.0
 11
22921.092653889638
 21
24833.847841656188
 31
0.0
 70
     0
 13
23001.092653889638
 23
26058.847841656181
 33
0.0
 14
21796.106388399519
 24
23608.847841656188
 34
0.0
 50
90.0
1001
ACAD
1000
DSTYLE
1002
{
1070
    40
1040
40.0
1002
}
  0
TEXT
  5
210B
  8
SP
 10
43407.5739223688
 20
26377.53992574981
 30
0.0
 40
100.0
  1
 
  0
LINE
  5
210C
  8
4
 10
27788.880772888911
 20
16803.51971141118
 30
0.0
 11
27788.880772888911
 21
15603.51971141118
 31
0.0
  0
LINE
  5
210D
  8
4
 10
23588.880772888919
 20
16803.51971141118
 30
0.0
 11
23588.880772888919
 21
15603.51971141118
 31
0.0
  0
LINE
  5
210E
  8
4
 10
20588.880772888911
 20
16803.51971141118
 30
0.0
 11
20588.880772888911
 21
15603.51971141118
 31
0.0
  0
LINE
  5
2111
  8
4
 10
20588.880772888911
 20
15603.51971141118
 30
0.0
 11
27788.880772888911
 21
15603.51971141118
 31
0.0
  0
LINE
  5
2112
  8
4
 10
20588.880772888911
 20
16203.51971141118
 30
0.0
 11
27788.880772888911
 21
16203.51971141118
 31
0.0
  0
TEXT
  5
2113
  8
4
 10
20819.893257970329
 20
16392.77786661085
 30
0.0
 40
300.0
  1
機器名称
  0
TEXT
  5
2114
  8
4
 10
20806.429409037701
 20
15733.39065180324
 30
0.0
 40
300.0
  1
機器型番
  0
TEXT
  5
2115
  8
4
 10
23617.63914309517
 20
16336.64352555286
 30
0.0
 40
270.0
  1
ミツヤリミットロードファン
  0
TEXT
  5
2116
  8
4
 10
23808.80774640181
 20
15706.47721709084
 30
0.0
 40
300.0
  1
LL#11-1
  0
TEXT
  5
2118
  8
4
 10
18585.88633286559
 20
29006.805568606971
 30
0.0
 40
432.0
  1
遠心式片吸込片持リミットロードファン
  0
LINE
  5
2119
  8
4
 10
18188.880772888911
 20
28619.972237000009
 30
0.0
 11
27788.880772888911
 21
28619.972237000009
 31
0.0
  0
LINE
  5
211A
  8
4
 10
18188.880772888911
 20
29819.972237000009
 30
0.0
 11
27788.880772888911
 21
29819.972237000009
 31
0.0
  0
LINE
  5
211B
  8
4
 10
20588.880772888911
 20
16803.51971141118
 30
0.0
 11
27788.880772888911
 21
16803.51971141118
 31
0.0
  0
LINE
  5
211C
  8
4
 10
18188.880772888911
 20
29819.972237000009
 30
0.0
 11
18188.880772888911
 21
28619.972237000009
 31
0.0
  0
TEXT
  5
211D
  8
4
 10
18723.921869795351
 20
28097.436576689252
 30
0.0
 40
323.99999999999989
  1
右回転右横向
  0
TEXT
  5
211E
  8
4
 10
25502.698128384662
 20
30039.886200383029
 30
0.0
 40
336.00000000000011
  1
No.
  0
TEXT
  5
211F
  8
4
 10
25467.027231610751
 20
27244.922589925569
 30
0.0
 40
323.99999999999989
  1
縮尺：1/60
  0
LINE
  5
2120
  8
4
 10
27788.880772888911
 20
29819.972237000009
 30
0.0
 11
27788.880772888911
 21
28619.972237000009
 31
0.0
  0
LINE
  5
2121
  8
4
 10
29288.880772888911
 20
31503.51971141118
 30
0.0
 11
29288.880772888911
 21
31503.51971141118
 31
0.0
  0
LINE
  5
2122
  8
4
 10
25332.585307048099
 20
29891.10121016359
 30
0.0
 11
25332.585307048099
 21
30523.433280709702
 31
0.0
  0
LINE
  5
2123
  8
4
 10
25332.585307048099
 20
30523.433280709702
 30
0.0
 11
27788.880772888911
 21
30523.433280709702
 31
0.0
  0
LINE
  5
2124
  8
4
 10
27788.880772888911
 20
30523.433280709702
 30
0.0
 11
27788.880772888911
 21
29891.10121016359
 31
0.0
  0
LINE
  5
2125
  8
4
 10
27788.880772888911
 20
29891.10121016359
 30
0.0
 11
25332.585307048099
 21
29891.10121016359
 31
0.0
  0
LINE
  5
2126
  8
4
 10
16688.880772888911
 20
13803.51971141118
 30
0.0
 11
16688.880772888911
 21
31503.51971141118
 31
0.0
  0
LINE
  5
2127
  8
4
 10
16688.880772888911
 20
31503.51971141118
 30
0.0
 11
29288.880772888911
 21
31503.51971141118
 31
0.0
  0
LINE
  5
2128
  8
4
 10
29288.880772888911
 20
31503.51971141118
 30
0.0
 11
29288.880772888911
 21
13803.51971141118
 31
0.0
  0
LINE
  5
2129
  8
4
 10
29288.880772888911
 20
13803.51971141118
 30
0.0
 11
16688.880772888911
 21
13803.51971141118
 31
0.0
  0
TEXT
  5
212A
  8
4
 10
21800.657656982072
 20
28097.506501337619
 30
0.0
 40
323.99999999999989
  1
床置防振ベット
  0
ENDSEC
  0
EOF
