  0
SECTION
  2
HEADER
  9
$ACADVER
  1
AC1009
  9
$INSBASE
 10
0.0
 20
0.0
 30
0.0
  9
$EXTMIN
 10
22729.561235125901
 20
15800.40439482775
 30
0.0
  9
$EXTMAX
 10
35329.561235125897
 20
33500.404394827747
 30
0.0
  9
$LIMMIN
 10
0.0
 20
0.0
  9
$LIMMAX
 10
297.0
 20
210.0
  9
$ORTHOMODE
 70
     0
  9
$REGENMODE
 70
     1
  9
$FILLMODE
 70
     1
  9
$QTEXTMODE
 70
     0
  9
$MIRRTEXT
 70
     0
  9
$DRAGMODE
 70
     2
  9
$LTSCALE
 40
200.0
  9
$OSMODE
 70
    37
  9
$ATTMODE
 70
     1
  9
$TEXTSIZE
 40
150.0
  9
$TRACEWID
 40
0.05
  9
$TEXTSTYLE
  7
STANDARD
  9
$CLAYER
  8
FUTO
  9
$CELTYPE
  6
BYLAYER
  9
$CECOLOR
 62
   256
  9
$DIMSCALE
 40
40.0
  9
$DIMASZ
 40
2.0
  9
$DIMEXO
 40
1.0
  9
$DIMDLI
 40
10.0
  9
$DIMRND
 40
0.0
  9
$DIMDLE
 40
0.0
  9
$DIMEXE
 40
1.0
  9
$DIMTP
 40
0.0
  9
$DIMTM
 40
0.0
  9
$DIMTXT
 40
3.0
  9
$DIMCEN
 40
0.0
  9
$DIMTSZ
 40
0.0
  9
$DIMTOL
 70
     0
  9
$DIMLIM
 70
     0
  9
$DIMTIH
 70
     0
  9
$DIMTOH
 70
     0
  9
$DIMSE1
 70
     0
  9
$DIMSE2
 70
     0
  9
$DIMTAD
 70
     1
  9
$DIMZIN
 70
     8
  9
$DIMBLK
  1

  9
$DIMASO
 70
     1
  9
$DIMSHO
 70
     1
  9
$DIMPOST
  1

  9
$DIMAPOST
  1

  9
$DIMALT
 70
     0
  9
$DIMALTD
 70
     2
  9
$DIMALTF
 40
0.03937
  9
$DIMLFAC
 40
1.0
  9
$DIMTOFL
 70
     1
  9
$DIMTVP
 40
0.0
  9
$DIMTIX
 70
     0
  9
$DIMSOXD
 70
     0
  9
$DIMSAH
 70
     1
  9
$DIMBLK1
  1
OPEN
  9
$DIMBLK2
  1
OPEN
  9
$DIMSTYLE
  2
MATSU
  9
$DIMCLRD
 70
   256
  9
$DIMCLRE
 70
   256
  9
$DIMCLRT
 70
   256
  9
$DIMTFAC
 40
1.0
  9
$DIMGAP
 40
0.5
  9
$LUNITS
 70
     2
  9
$LUPREC
 70
     3
  9
$SKETCHINC
 40
0.1
  9
$FILLETRAD
 40
7.0
  9
$AUNITS
 70
     0
  9
$AUPREC
 70
     2
  9
$MENU
  1
acad
  9
$ELEVATION
 40
0.0
  9
$PELEVATION
 40
0.0
  9
$THICKNESS
 40
0.0
  9
$LIMCHECK
 70
     0
  9
$BLIPMODE
 70
     0
  9
$CHAMFERA
 40
0.0
  9
$CHAMFERB
 40
0.0
  9
$SKPOLY
 70
     0
  9
$TDCREATE
 40
2451593.4082031241
  9
$TDUPDATE
 40
2454953.6509326152
  9
$TDINDWG
 40
0.5572317477
  9
$TDUSRTIMER
 40
0.5572317477
  9
$USRTIMER
 70
     1
  9
$ANGBASE
 50
0.0
  9
$ANGDIR
 70
     0
  9
$PDMODE
 70
     0
  9
$PDSIZE
 40
1.0
  9
$PLINEWID
 40
0.0
  9
$COORDS
 70
     1
  9
$SPLFRAME
 70
     0
  9
$SPLINETYPE
 70
     6
  9
$SPLINESEGS
 70
     8
  9
$ATTDIA
 70
     0
  9
$ATTREQ
 70
     1
  9
$HANDLING
 70
 10241
  9
$HANDSEED
  5
244B
  9
$SURFTAB1
 70
     6
  9
$SURFTAB2
 70
     6
  9
$SURFTYPE
 70
     6
  9
$SURFU
 70
     6
  9
$SURFV
 70
     6
  9
$UCSNAME
  2

  9
$UCSORG
 10
0.0
 20
0.0
 30
0.0
  9
$UCSXDIR
 10
1.0
 20
0.0
 30
0.0
  9
$UCSYDIR
 10
0.0
 20
1.0
 30
0.0
  9
$PUCSNAME
  2

  9
$PUCSORG
 10
0.0
 20
0.0
 30
0.0
  9
$PUCSXDIR
 10
1.0
 20
0.0
 30
0.0
  9
$PUCSYDIR
 10
0.0
 20
1.0
 30
0.0
  9
$USERI1
 70
     0
  9
$USERI2
 70
     0
  9
$USERI3
 70
     0
  9
$USERI4
 70
     0
  9
$USERI5
 70
     0
  9
$USERR1
 40
0.0
  9
$USERR2
 40
0.0
  9
$USERR3
 40
0.0
  9
$USERR4
 40
0.0
  9
$USERR5
 40
0.0
  9
$WORLDVIEW
 70
     1
  9
$SHADEDGE
 70
     3
  9
$SHADEDIF
 70
    70
  9
$TILEMODE
 70
     1
  9
$MAXACTVP
 70
    16
  9
$PLIMCHECK
 70
     0
  9
$PEXTMIN
 10
1.0000000000000000E+020
 20
1.0000000000000000E+020
 30
1.0000000000000000E+020
  9
$PEXTMAX
 10
-1.0000000000000000E+020
 20
-1.0000000000000000E+020
 30
-1.0000000000000000E+020
  9
$PLIMMIN
 10
0.0
 20
0.0
  9
$PLIMMAX
 10
12.0
 20
9.0
  9
$UNITMODE
 70
     0
  9
$VISRETAIN
 70
     0
  9
$PLINEGEN
 70
     0
  9
$PSLTSCALE
 70
     0
  0
ENDSEC
  0
SECTION
  2
TABLES
  0
TABLE
  2
VPORT
 70
     2
  0
VPORT
  2
*ACTIVE
 70
     0
 10
0.0
 20
0.0
 11
1.0
 21
1.0
 12
34864.032752674371
 22
17810.946680090059
 13
0.0
 23
0.0
 14
5.0
 24
5.0
 15
0.0
 25
0.0
 16
0.0
 26
0.0
 36
1.0
 17
0.0
 27
0.0
 37
0.0
 40
5660.6771882322209
 41
3.1666666666666661
 42
50.0
 43
0.0
 44
0.0
 50
0.0
 51
0.0
 71
     0
 72
   100
 73
     1
 74
     0
 75
     0
 76
     0
 77
     0
 78
     0
  0
ENDTAB
  0
TABLE
  2
LTYPE
 70
     4
  0
LTYPE
  2
CONTINUOUS
 70
     0
  3
Solid line
 72
    65
 73
     0
 40
0.0
  0
LTYPE
  2
CENTER
 70
     0
  3
____ _ ____ _ ____ _ ____ _ ____ _ ____ _ ____ 
 72
    65
 73
     4
 40
2.0
 49
1.25
 49
-0.25
 49
0.25
 49
-0.25
  0
LTYPE
  2
HIDDEN
 70
     0
  3
__ __ __ __ __ __ __ __ __ __ __ __ __ __ __ __
 72
    65
 73
     2
 40
0.375
 49
0.25
 49
-0.125
  0
LTYPE
  2
PHANTOM
 70
     0
  3
______  __  __  ______  __  __  ______  __  __ 
 72
    65
 73
     6
 40
2.5
 49
1.25
 49
-0.25
 49
0.25
 49
-0.25
 49
0.25
 49
-0.25
  0
ENDTAB
  0
TABLE
  2
LAYER
 70
    10
  0
LAYER
  2
0
 70
     0
 62
     7
  6
CONTINUOUS
  0
LAYER
  2
CT
 70
     0
 62
     3
  6
CENTER
  0
LAYER
  2
FUTO
 70
     0
 62
     4
  6
CONTINUOUS
  0
LAYER
  2
HOSO
 70
     0
 62
     7
  6
CONTINUOUS
  0
LAYER
  2
KL
 70
     0
 62
     7
  6
HIDDEN
  0
LAYER
  2
SL
 70
     0
 62
     1
  6
PHANTOM
  0
LAYER
  2
SP
 70
     0
 62
     2
  6
CONTINUOUS
  0
LAYER
  2
1
 70
     0
 62
     7
  6
CONTINUOUS
  0
LAYER
  2
DEFPOINTS
 70
     0
 62
     7
  6
CONTINUOUS
  0
LAYER
  2
4
 70
     0
 62
     7
  6
CONTINUOUS
  0
ENDTAB
  0
TABLE
  2
STYLE
 70
     1
  0
STYLE
  2
STANDARD
 70
     0
 40
0.0
 41
1.0
 50
15.0
 71
     0
 42
150.0
  3
C:\Program Files\AutoCAD LT\simplex.shx
  4
bigfont.shx
  0
ENDTAB
  0
TABLE
  2
VIEW
 70
     0
  0
ENDTAB
  0
TABLE
  2
UCS
 70
     0
  0
ENDTAB
  0
TABLE
  2
APPID
 70
     2
  0
APPID
  2
ACAD
 70
     0
  0
APPID
  2
CONTENTBLOCKICON
 70
     0
  0
ENDTAB
  0
TABLE
  2
DIMSTYLE
 70
     2
  0
DIMSTYLE
  2
MATSU
 70
     0
  3

  4

  5

  6
OPEN
  7
OPEN
 40
1.0
 41
2.0
 42
1.0
 43
10.0
 44
1.0
 45
0.0
 46
0.0
 47
0.0
 48
0.0
140
3.0
141
0.0
142
0.0
143
0.03937
144
1.0
145
0.0
146
1.0
147
0.5
 71
     0
 72
     0
 73
     0
 74
     0
 75
     0
 76
     0
 77
     1
 78
     8
170
     0
171
     2
172
     1
173
     1
174
     0
175
     0
176
   256
177
   256
178
   256
  0
DIMSTYLE
  2
STANDARD
 70
     0
  3

  4

  5

  6

  7

 40
1.0
 41
0.18
 42
0.0625
 43
0.38
 44
0.18
 45
0.0
 46
0.0
 47
0.0
 48
0.0
140
0.18
141
0.09
142
0.0
143
25.399999999999999
144
1.0
145
0.0
146
1.0
147
0.09
 71
     0
 72
     0
 73
     1
 74
     1
 75
     0
 76
     0
 77
     0
 78
     0
170
     0
171
     2
172
     0
173
     0
174
     0
175
     0
176
     0
177
     0
178
     0
  0
ENDTAB
  0
ENDSEC
  0
SECTION
  2
BLOCKS
  0
BLOCK
  8
0
  2
$MODEL_SPACE
 70
     0
 10
0.0
 20
0.0
 30
0.0
  3
$MODEL_SPACE
  1

  0
ENDBLK
  5
7
  8
0
  0
BLOCK
 67
     1
  8
0
  2
$PAPER_SPACE
 70
     0
 10
0.0
 20
0.0
 30
0.0
  3
$PAPER_SPACE
  1

  0
ENDBLK
  5
A
 67
     1
  8
0
  0
BLOCK
  8
0
  2
_OPEN
 70
     0
 10
0.0
 20
0.0
 30
0.0
  3
_OPEN
  1

  0
LINE
  5
27
  8
0
  6
BYBLOCK
 62
     0
 10
-1.0
 20
0.1666666666666666
 30
0.0
 11
0.0
 21
0.0
 31
0.0
  0
LINE
  5
28
  8
0
  6
BYBLOCK
 62
     0
 10
0.0
 20
0.0
 30
0.0
 11
-1.0
 21
-0.1666666666666666
 31
0.0
  0
LINE
  5
29
  8
0
  6
BYBLOCK
 62
     0
 10
0.0
 20
0.0
 30
0.0
 11
-1.0
 21
0.0
 31
0.0
  0
ENDBLK
  5
2B
  8
0
  0
BLOCK
  8
0
  2
_DOT
 70
     0
 10
0.0
 20
0.0
 30
0.0
  3
_DOT
  1

  0
POLYLINE
  5
DB
  8
0
  6
BYBLOCK
 62
     0
 66
     1
 10
0.0
 20
0.0
 30
0.0
 70
     1
 40
0.25
 41
0.25
  0
VERTEX
  5
2425
  8
0
  6
BYBLOCK
 62
     0
 10
-0.125
 20
0.0
 30
0.0
 42
1.0
  0
VERTEX
  5
2426
  8
0
  6
BYBLOCK
 62
     0
 10
0.125
 20
0.0
 30
0.0
 42
1.0
  0
SEQEND
  5
2427
  8
0
  6
BYBLOCK
 62
     0
  0
LINE
  5
DF
  8
0
  6
BYBLOCK
 62
     0
 10
-0.25
 20
0.0
 30
0.0
 11
-1.0
 21
0.0
 31
0.0
  0
ENDBLK
  5
E1
  8
0
  0
BLOCK
  8
0
  2
まっすぐの矢印
 70
     0
 10
0.0
 20
0.0
 30
0.0
  3
まっすぐの矢印
  1

  0
LINE
  5
8C
  8
SP
 10
13.01863531255526
 20
-41.453946163708451
 30
0.0
 11
13.01863531255526
 21
-93.495696758840026
 31
0.0
  0
LINE
  5
8D
  8
SP
 10
13.01863531255526
 20
-93.495696758840026
 30
0.0
 11
-13.01863531255526
 21
-93.495696758840026
 31
0.0
  0
LINE
  5
8E
  8
SP
 10
-13.01863531255526
 20
-93.495696758840026
 30
0.0
 11
-13.01863531255526
 21
-41.453946163708451
 31
0.0
  0
LINE
  5
8F
  8
SP
 10
-13.01863531255526
 20
-41.453946163708451
 30
0.0
 11
-32.06015471115802
 21
-41.453946163708451
 31
0.0
  0
LINE
  5
90
  8
SP
 10
-32.06015471115802
 20
-41.453946163708451
 30
0.0
 11
0.0
 21
0.0
 31
0.0
  0
LINE
  5
91
  8
SP
 10
0.0
 20
0.0
 30
0.0
 11
32.06015471115802
 21
-41.453946163708451
 31
0.0
  0
LINE
  5
92
  8
SP
 10
32.06015471115802
 20
-41.453946163708451
 30
0.0
 11
13.01863531255526
 21
-41.453946163708451
 31
0.0
  0
ENDBLK
  5
94
  8
0
  0
BLOCK
  8
0
  2
左回転矢印
 70
     0
 10
0.0
 20
0.0
 30
0.0
  3
左回転矢印
  1

  0
LINE
  5
2C7
  8
SP
 10
43.930449171819873
 20
24.859487323637271
 30
0.0
 11
38.511878498580238
 21
44.478978865188871
 31
0.0
  0
LINE
  5
2C8
  8
SP
 10
38.511878498580238
 20
44.478978865188871
 30
0.0
 11
0.0
 21
0.0
 31
0.0
  0
LINE
  5
2C9
  8
SP
 10
0.0
 20
0.0
 30
0.0
 11
52.57968174421967
 21
-6.4575435924972453
 31
0.0
  0
LINE
  5
2CA
  8
SP
 10
52.57968174421967
 20
-6.4575435924972453
 30
0.0
 11
48.189912989015284
 21
9.436875093862227
 31
0.0
  0
ARC
  5
2CB
  8
SP
 10
93.893649146691985
 20
-156.0466295121104
 30
0.0
 40
171.67883327727239
 50
67.881388989212894
 51
105.4392492786835
  0
LINE
  5
2CC
  8
SP
 10
158.53505643637521
 20
2.997736182040398
 30
0.0
 11
164.55945966006539
 21
17.820238190756751
 31
0.0
  0
ARC
  5
2CD
  8
SP
 10
93.893649146692198
 20
-156.04662951211091
 30
0.0
 40
187.67883327727299
 50
67.881388989212994
 51
105.4392492786836
  0
ENDBLK
  5
2CF
  8
0
  0
BLOCK
  8
0
  2
*D4
 70
     1
 10
0.0
 20
0.0
 30
0.0
  3
*D4
  1

  0
LINE
  5
2418
  8
SP
 10
28605.485799232181
 20
20821.146800958821
 30
0.0
 11
29254.894888437779
 21
20821.146800958821
 31
0.0
  0
LINE
  5
2419
  8
SP
 10
29214.894888437779
 20
21041.146800958821
 30
0.0
 11
29214.894888437779
 21
21121.146800958821
 31
0.0
  0
LINE
  5
241A
  8
SP
 10
29214.894888437779
 20
20741.146800958821
 30
0.0
 11
29214.894888437779
 21
20661.146800958821
 31
0.0
  0
LINE
  5
241B
  8
SP
 10
29214.894888437779
 20
20891.146800958821
 30
0.0
 11
29652.77109537982
 21
20952.222837930982
 31
0.0
  0
LINE
  5
241C
  8
SP
 10
29652.77109537982
 20
20952.222837930982
 30
0.0
 11
29652.77109537982
 21
21431.512234199661
 31
0.0
  0
TEXT
  8
0
  40
120
  5
2447
  72
0
  71
0
 10
29301.3
 20
20979.5
 30
0.000000
  1
(140)
  0
LINE
  5
241E
  8
SP
 10
29214.894888437779
 20
20961.146800958821
 30
0.0
 11
29214.894888437779
 21
20821.146800958821
 31
0.0
  0
LINE
  5
241F
  8
SP
 10
29214.894888437779
 20
20961.146800958821
 30
0.0
 11
29214.894888437779
 21
20821.146800958821
 31
0.0
  0
INSERT
  5
2420
  8
SP
  2
_OPEN
 10
29214.894888437779
 20
20961.146800958821
 30
0.0
 41
80.0
 42
80.0
 43
80.0
 50
270.0
  0
INSERT
  5
2421
  8
SP
  2
_DOT
 10
29214.894888437779
 20
20821.146800958821
 30
0.0
 41
80.0
 42
80.0
 43
80.0
 50
90.0
  0
POINT
  5
2422
  8
DEFPOINTS
 62
     0
 10
28530.599011564671
 20
20961.146800958821
 30
0.0
  0
POINT
  5
2423
  8
DEFPOINTS
 62
     0
 10
28565.485799232181
 20
20821.146800958821
 30
0.0
  0
POINT
  5
2424
  8
DEFPOINTS
 62
     0
 10
29214.894888437779
 20
20821.146800958821
 30
0.0
  0
ENDBLK
  5
88C
  8
0
  0
BLOCK
  8
0
  2
*D5
 70
     1
 10
0.0
 20
0.0
 30
0.0
  3
*D5
  1

  0
LINE
  5
23B9
  8
SP
 10
30096.061244192369
 20
23529.520600958818
 30
0.0
 11
30096.061244192369
 21
24922.85089965368
 31
0.0
  0
LINE
  5
23BA
  8
SP
 10
32546.061244192369
 20
24451.475092948971
 30
0.0
 11
32546.061244192369
 21
24922.85089965368
 31
0.0
  0
LINE
  5
23BB
  8
SP
 10
30176.061244192369
 20
24882.85089965368
 30
0.0
 11
32466.061244192369
 21
24882.85089965368
 31
0.0
  0
INSERT
  5
23BC
  8
SP
  2
_OPEN
 10
30096.061244192369
 20
24882.85089965368
 30
0.0
 41
80.0
 42
80.0
 43
80.0
 50
180.0
  0
INSERT
  5
23BD
  8
SP
  2
_OPEN
 10
32546.061244192369
 20
24882.85089965368
 30
0.0
 41
80.0
 42
80.0
 43
80.0
  0
TEXT
  5
23BE
  8
FUTO
 10
31024.068555287398
 20
24954.279471082249
 30
0.0
 40
120.0
  1
(2450)
 51
15.0
  0
POINT
  5
23BF
  8
DEFPOINTS
 62
     0
 10
30096.061244192369
 20
23489.520600958818
 30
0.0
  0
POINT
  5
23C0
  8
DEFPOINTS
 62
     0
 10
32546.061244192369
 20
24411.475092948971
 30
0.0
  0
POINT
  5
23C1
  8
DEFPOINTS
 62
     0
 10
32546.061244192369
 20
24882.85089965368
 30
0.0
  0
ENDBLK
  5
1423
  8
0
  0
BLOCK
  8
0
  2
*D6
 70
     1
 10
0.0
 20
0.0
 30
0.0
  3
*D6
  1

  0
LINE
  5
2428
  8
SP
 10
28605.485799232181
 20
20671.14680095881
 30
0.0
 11
29254.894888437779
 21
20671.14680095881
 31
0.0
  0
LINE
  5
2429
  8
SP
 10
29214.894888437779
 20
20901.146800958821
 30
0.0
 11
29214.894888437779
 21
20981.146800958821
 31
0.0
  0
LINE
  5
242A
  8
SP
 10
29214.894888437779
 20
20591.146800958821
 30
0.0
 11
29214.894888437779
 21
20191.146800958821
 31
0.0
  0
LINE
  5
242B
  8
SP
 10
29214.894888437779
 20
20821.146800958821
 30
0.0
 11
29214.894888437779
 21
20671.14680095881
 31
0.0
  0
INSERT
  5
242C
  8
SP
  2
_DOT
 10
29214.894888437779
 20
20821.146800958821
 30
0.0
 41
80.0
 42
80.0
 43
80.0
 50
270.0
  0
INSERT
  5
242D
  8
SP
  2
_OPEN
 10
29214.894888437779
 20
20671.14680095881
 30
0.0
 41
80.0
 42
80.0
 43
80.0
 50
90.0
  0
TEXT
  8
0
  40
120
  5
2448
  72
0
  71
0
 10
28894.9
 20
20138.7
 30
0.000000
  1
150
  0
POINT
  5
242F
  8
DEFPOINTS
 62
     0
 10
28565.485799232181
 20
20821.146800958821
 30
0.0
  0
POINT
  5
2430
  8
DEFPOINTS
 62
     0
 10
28565.485799232181
 20
20671.14680095881
 30
0.0
  0
POINT
  5
2431
  8
DEFPOINTS
 62
     0
 10
29214.894888437779
 20
20671.14680095881
 30
0.0
  0
ENDBLK
  5
18FA
  8
0
  0
BLOCK
  8
0
  2
*D7
 70
     1
 10
0.0
 20
0.0
 30
0.0
  3
*D7
  1

  0
LINE
  5
23DC
  8
SP
 10
27505.485799232181
 20
29014.23083234172
 30
0.0
 11
27505.485799232181
 21
29273.109460652438
 31
0.0
  0
LINE
  5
23DD
  8
SP
 10
28670.485799232189
 20
28749.235529169491
 30
0.0
 11
28670.485799232189
 21
29273.109460652438
 31
0.0
  0
LINE
  5
23DE
  8
SP
 10
27585.485799232189
 20
29233.109460652438
 30
0.0
 11
28590.485799232189
 21
29233.109460652438
 31
0.0
  0
INSERT
  5
23DF
  8
SP
  2
_OPEN
 10
27505.485799232181
 20
29233.109460652438
 30
0.0
 41
80.0
 42
80.0
 43
80.0
 50
180.0
  0
INSERT
  5
23E0
  8
SP
  2
_OPEN
 10
28670.485799232189
 20
29233.109460652438
 30
0.0
 41
80.0
 42
80.0
 43
80.0
  0
TEXT
  5
23E1
  8
FUTO
 10
27876.037029768238
 20
29253.109460652438
 30
0.0
 40
120.0
  1
1165
 51
15.0
  0
POINT
  5
23E2
  8
DEFPOINTS
 62
     0
 10
27505.485799232181
 20
28974.23083234172
 30
0.0
  0
POINT
  5
23E3
  8
DEFPOINTS
 62
     0
 10
28670.485799232189
 20
28709.235529169491
 30
0.0
  0
POINT
  5
23E4
  8
DEFPOINTS
 62
     0
 10
28670.485799232189
 20
29233.109460652438
 30
0.0
  0
ENDBLK
  5
1915
  8
0
  0
BLOCK
  8
0
  2
*D8
 70
     1
 10
0.0
 20
0.0
 30
0.0
  3
*D8
  1

  0
LINE
  5
235D
  8
SP
 10
25565.485799232189
 20
27356.235529169491
 30
0.0
 11
25565.485799232189
 21
29273.109460652438
 31
0.0
  0
LINE
  5
235E
  8
SP
 10
27425.485799232181
 20
29233.109460652438
 30
0.0
 11
25645.485799232189
 21
29233.109460652438
 31
0.0
  0
INSERT
  5
235F
  8
SP
  2
_OPEN
 10
27505.485799232181
 20
29233.109460652438
 30
0.0
 41
80.0
 42
80.0
 43
80.0
  0
INSERT
  5
2360
  8
SP
  2
_OPEN
 10
25565.485799232189
 20
29233.109460652438
 30
0.0
 41
80.0
 42
80.0
 43
80.0
 50
180.0
  0
TEXT
  5
2361
  8
FUTO
 10
26312.313591967439
 20
29253.109460652438
 30
0.0
 40
120.0
  1
1940
 51
15.0
  0
POINT
  5
2362
  8
DEFPOINTS
 62
     0
 10
27505.485799232181
 20
29233.109460652438
 30
0.0
  0
POINT
  5
2363
  8
DEFPOINTS
 62
     0
 10
25565.485799232189
 20
27316.235529169491
 30
0.0
  0
POINT
  5
2364
  8
DEFPOINTS
 62
     0
 10
25565.485799232189
 20
29233.109460652438
 30
0.0
  0
ENDBLK
  5
1921
  8
0
  0
BLOCK
  8
0
  2
*D9
 70
     1
 10
0.0
 20
0.0
 30
0.0
  3
*D9
  1

  0
LINE
  5
23E5
  8
SP
 10
28510.485799232181
 20
28775.235529169491
 30
0.0
 11
29130.4720647223
 21
28775.235529169491
 31
0.0
  0
LINE
  5
23E6
  8
SP
 10
29117.720242941101
 20
27980.235529169491
 30
0.0
 11
29050.4720647223
 21
27980.235529169491
 31
0.0
  0
LINE
  5
23E7
  8
SP
 10
29090.4720647223
 20
28695.235529169498
 30
0.0
 11
29090.4720647223
 21
28060.235529169491
 31
0.0
  0
INSERT
  5
23E8
  8
SP
  2
_OPEN
 10
29090.4720647223
 20
28775.235529169491
 30
0.0
 41
80.0
 42
80.0
 43
80.0
 50
90.0
  0
INSERT
  5
23E9
  8
SP
  2
_OPEN
 10
29090.4720647223
 20
27980.235529169491
 30
0.0
 41
80.0
 42
80.0
 43
80.0
 50
270.0
  0
TEXT
  5
23EA
  8
FUTO
 10
29070.472064722289
 20
28201.658577623632
 30
0.0
 40
120.0
  1
795
 50
90.0
 51
15.0
  0
POINT
  5
23EB
  8
DEFPOINTS
 62
     0
 10
28470.485799232181
 20
28775.235529169491
 30
0.0
  0
POINT
  5
23EC
  8
DEFPOINTS
 62
     0
 10
29157.720242941101
 20
27980.235529169491
 30
0.0
  0
POINT
  5
23ED
  8
DEFPOINTS
 62
     0
 10
29090.4720647223
 20
27980.235529169491
 30
0.0
  0
ENDBLK
  5
192F
  8
0
  0
BLOCK
  8
0
  2
*D10
 70
     1
 10
0.0
 20
0.0
 30
0.0
  3
*D10
  1

  0
LINE
  5
23C2
  8
SP
 10
27925.485799232181
 20
25530.235529169498
 30
0.0
 11
29130.4720647223
 21
25530.235529169498
 31
0.0
  0
LINE
  5
23C3
  8
SP
 10
29090.4720647223
 20
27900.235529169491
 30
0.0
 11
29090.4720647223
 21
25610.235529169498
 31
0.0
  0
INSERT
  5
23C4
  8
SP
  2
_OPEN
 10
29090.4720647223
 20
27980.235529169491
 30
0.0
 41
80.0
 42
80.0
 43
80.0
 50
90.0
  0
INSERT
  5
23C5
  8
SP
  2
_OPEN
 10
29090.4720647223
 20
25530.235529169498
 30
0.0
 41
80.0
 42
80.0
 43
80.0
 50
270.0
  0
TEXT
  5
23C6
  8
FUTO
 10
29070.472064722289
 20
26533.649425537129
 30
0.0
 40
120.0
  1
2450
 50
90.0
 51
15.0
  0
POINT
  5
23C7
  8
DEFPOINTS
 62
     0
 10
29090.4720647223
 20
27980.235529169491
 30
0.0
  0
POINT
  5
23C8
  8
DEFPOINTS
 62
     0
 10
27885.485799232181
 20
25530.235529169498
 30
0.0
  0
POINT
  5
23C9
  8
DEFPOINTS
 62
     0
 10
29090.4720647223
 20
25530.235529169498
 30
0.0
  0
ENDBLK
  5
193B
  8
0
  0
BLOCK
  8
0
  2
*D11
 70
     1
 10
0.0
 20
0.0
 30
0.0
  3
*D11
  1

  0
LINE
  5
2365
  8
SP
 10
28565.485799232181
 20
20631.14680095881
 30
0.0
 11
28565.485799232181
 21
19877.224871619888
 31
0.0
  0
LINE
  5
2366
  8
SP
 10
25565.485799232189
 20
20631.14680095881
 30
0.0
 11
25565.485799232189
 21
19877.224871619888
 31
0.0
  0
LINE
  5
2367
  8
SP
 10
28485.485799232181
 20
19917.224871619888
 30
0.0
 11
25645.485799232189
 21
19917.224871619888
 31
0.0
  0
INSERT
  5
2368
  8
SP
  2
_OPEN
 10
28565.485799232181
 20
19917.224871619888
 30
0.0
 41
80.0
 42
80.0
 43
80.0
  0
INSERT
  5
2369
  8
SP
  2
_OPEN
 10
25565.485799232189
 20
19917.224871619888
 30
0.0
 41
80.0
 42
80.0
 43
80.0
 50
180.0
  0
TEXT
  5
236A
  8
FUTO
 10
26840.837419114891
 20
19937.224871619888
 30
0.0
 40
120.0
  1
3000
 51
15.0
  0
POINT
  5
236B
  8
DEFPOINTS
 62
     0
 10
28565.485799232181
 20
20671.14680095881
 30
0.0
  0
POINT
  5
236C
  8
DEFPOINTS
 62
     0
 10
25565.485799232189
 20
20671.14680095881
 30
0.0
  0
POINT
  5
236D
  8
DEFPOINTS
 62
     0
 10
25565.485799232189
 20
19917.224871619888
 30
0.0
  0
ENDBLK
  5
1983
  8
0
  0
BLOCK
  8
0
  2
*D12
 70
     1
 10
0.0
 20
0.0
 30
0.0
  3
*D12
  1

  0
LINE
  5
2432
  8
SP
 10
25565.485799232189
 20
20631.14680095881
 30
0.0
 11
25565.485799232189
 21
20195.93942224051
 31
0.0
  0
LINE
  5
2433
  8
SP
 10
27425.485799232181
 20
20235.93942224051
 30
0.0
 11
25645.485799232189
 21
20235.93942224051
 31
0.0
  0
INSERT
  5
2434
  8
SP
  2
_OPEN
 10
27505.485799232181
 20
20235.93942224051
 30
0.0
 41
80.0
 42
80.0
 43
80.0
  0
INSERT
  5
2435
  8
SP
  2
_OPEN
 10
25565.485799232189
 20
20235.93942224051
 30
0.0
 41
80.0
 42
80.0
 43
80.0
 50
180.0
  0
TEXT
  8
0
  40
120
  5
2449
  72
0
  71
0
 10
26295.5
 20
20103.5
 30
0.000000
  1
1940
  0
POINT
  5
2437
  8
DEFPOINTS
 62
     0
 10
27505.485799232181
 20
20590.492625948598
 30
0.0
  0
POINT
  5
2438
  8
DEFPOINTS
 62
     0
 10
25565.485799232189
 20
20671.14680095881
 30
0.0
  0
POINT
  5
2439
  8
DEFPOINTS
 62
     0
 10
25565.485799232189
 20
20235.93942224051
 30
0.0
  0
ENDBLK
  5
198E
  8
0
  0
BLOCK
  8
0
  2
*D13
 70
     1
 10
0.0
 20
0.0
 30
0.0
  3
*D13
  1

  0
LINE
  5
239E
  8
SP
 10
28565.485799232181
 20
20631.14680095881
 30
0.0
 11
28565.485799232181
 21
20195.93942224051
 31
0.0
  0
LINE
  5
239F
  8
SP
 10
27505.485799232181
 20
20550.492625948598
 30
0.0
 11
27505.485799232181
 21
20195.93942224051
 31
0.0
  0
LINE
  5
23A0
  8
SP
 10
28485.485799232181
 20
20235.93942224051
 30
0.0
 11
27585.485799232189
 21
20235.93942224051
 31
0.0
  0
INSERT
  5
23A1
  8
SP
  2
_OPEN
 10
28565.485799232181
 20
20235.93942224051
 30
0.0
 41
80.0
 42
80.0
 43
80.0
  0
INSERT
  5
23A2
  8
SP
  2
_OPEN
 10
27505.485799232181
 20
20235.93942224051
 30
0.0
 41
80.0
 42
80.0
 43
80.0
 50
180.0
  0
TEXT
  5
23A3
  8
FUTO
 10
27812.31359196745
 20
20255.93942224051
 30
0.0
 40
120.0
  1
1060
 51
15.0
  0
POINT
  5
23A4
  8
DEFPOINTS
 62
     0
 10
28565.485799232181
 20
20671.14680095881
 30
0.0
  0
POINT
  5
23A5
  8
DEFPOINTS
 62
     0
 10
27505.485799232181
 20
20590.492625948598
 30
0.0
  0
POINT
  5
23A6
  8
DEFPOINTS
 62
     0
 10
27505.485799232181
 20
20235.93942224051
 30
0.0
  0
ENDBLK
  5
199A
  8
0
  0
BLOCK
  8
0
  2
*D14
 70
     1
 10
0.0
 20
0.0
 30
0.0
  3
*D14
  1

  0
LINE
  5
23D3
  8
SP
 10
28670.485799232181
 20
23114.953281401831
 30
0.0
 11
28670.485799232181
 21
24939.338617464349
 31
0.0
  0
LINE
  5
23D4
  8
SP
 10
27505.485799232181
 20
24467.806139866119
 30
0.0
 11
27505.485799232181
 21
24939.338617464349
 31
0.0
  0
LINE
  5
23D5
  8
SP
 10
28590.485799232181
 20
24899.338617464349
 30
0.0
 11
27585.485799232189
 21
24899.338617464349
 31
0.0
  0
INSERT
  5
23D6
  8
SP
  2
_OPEN
 10
28670.485799232181
 20
24899.338617464349
 30
0.0
 41
80.0
 42
80.0
 43
80.0
  0
INSERT
  5
23D7
  8
SP
  2
_OPEN
 10
27505.485799232181
 20
24899.338617464349
 30
0.0
 41
80.0
 42
80.0
 43
80.0
 50
180.0
  0
TEXT
  5
23D8
  8
FUTO
 10
27876.037029768238
 20
24919.338617464349
 30
0.0
 40
120.0
  1
1165
 51
15.0
  0
POINT
  5
23D9
  8
DEFPOINTS
 62
     0
 10
28670.485799232181
 20
23074.953281401831
 30
0.0
  0
POINT
  5
23DA
  8
DEFPOINTS
 62
     0
 10
27505.485799232181
 20
24427.806139866119
 30
0.0
  0
POINT
  5
23DB
  8
DEFPOINTS
 62
     0
 10
27505.485799232181
 20
24899.338617464349
 30
0.0
  0
ENDBLK
  5
19AE
  8
0
  0
BLOCK
  8
0
  2
*D15
 70
     1
 10
0.0
 20
0.0
 30
0.0
  3
*D15
  1

  0
LINE
  5
238C
  8
SP
 10
30435.061244192369
 20
20631.14678435283
 30
0.0
 11
30435.061244192369
 21
19891.628626623598
 31
0.0
  0
LINE
  5
238D
  8
SP
 10
33285.061244192373
 20
20631.14678435283
 30
0.0
 11
33285.061244192373
 21
19891.628626623598
 31
0.0
  0
LINE
  5
238E
  8
SP
 10
30515.061244192369
 20
19931.628626623598
 30
0.0
 11
33205.061244192373
 21
19931.628626623598
 31
0.0
  0
INSERT
  5
238F
  8
SP
  2
_OPEN
 10
30435.061244192369
 20
19931.628626623598
 30
0.0
 41
80.0
 42
80.0
 43
80.0
 50
180.0
  0
INSERT
  5
2390
  8
SP
  2
_OPEN
 10
33285.061244192373
 20
19931.628626623598
 30
0.0
 41
80.0
 42
80.0
 43
80.0
  0
TEXT
  5
2391
  8
FUTO
 10
31638.47514056
 20
19951.628626623598
 30
0.0
 40
120.0
  1
2850
 51
15.0
  0
POINT
  5
2392
  8
DEFPOINTS
 62
     0
 10
30435.061244192369
 20
20671.14678435283
 30
0.0
  0
POINT
  5
2393
  8
DEFPOINTS
 62
     0
 10
33285.061244192373
 20
20671.14678435283
 30
0.0
  0
POINT
  5
2394
  8
DEFPOINTS
 62
     0
 10
33285.061244192373
 20
19931.628626623598
 30
0.0
  0
ENDBLK
  5
1A36
  8
0
  0
BLOCK
  8
0
  2
*D16
 70
     1
 10
0.0
 20
0.0
 30
0.0
  3
*D16
  1

  0
LINE
  5
2395
  8
SP
 10
30435.061244192369
 20
20631.14678435283
 30
0.0
 11
30435.061244192369
 21
20191.66617158852
 31
0.0
  0
LINE
  5
2396
  8
SP
 10
32546.061244192369
 20
20610.219732358899
 30
0.0
 11
32546.061244192369
 21
20191.66617158852
 31
0.0
  0
LINE
  5
2397
  8
SP
 10
30515.061244192369
 20
20231.66617158852
 30
0.0
 11
32466.061244192369
 21
20231.66617158852
 31
0.0
  0
INSERT
  5
2398
  8
SP
  2
_OPEN
 10
30435.061244192369
 20
20231.66617158852
 30
0.0
 41
80.0
 42
80.0
 43
80.0
 50
180.0
  0
INSERT
  5
2399
  8
SP
  2
_OPEN
 10
32546.061244192369
 20
20231.66617158852
 30
0.0
 41
80.0
 42
80.0
 43
80.0
  0
TEXT
  5
239A
  8
FUTO
 10
31311.627149789361
 20
20251.66617158852
 30
0.0
 40
120.0
  1
2111
 51
15.0
  0
POINT
  5
239B
  8
DEFPOINTS
 62
     0
 10
30435.061244192369
 20
20671.14678435283
 30
0.0
  0
POINT
  5
239C
  8
DEFPOINTS
 62
     0
 10
32546.061244192369
 20
20650.219732358899
 30
0.0
  0
POINT
  5
239D
  8
DEFPOINTS
 62
     0
 10
32546.061244192369
 20
20231.66617158852
 30
0.0
  0
ENDBLK
  5
1A42
  8
0
  0
BLOCK
  8
0
  2
*D17
 70
     1
 10
0.0
 20
0.0
 30
0.0
  3
*D17
  1

  0
LINE
  5
243A
  8
SP
 10
33285.061244192373
 20
20631.14678435283
 30
0.0
 11
33285.061244192373
 21
20191.66617158852
 31
0.0
  0
LINE
  5
243B
  8
SP
 10
32626.061244192369
 20
20231.66617158852
 30
0.0
 11
33205.061244192373
 21
20231.66617158852
 31
0.0
  0
INSERT
  5
243C
  8
SP
  2
_OPEN
 10
32546.061244192369
 20
20231.66617158852
 30
0.0
 41
80.0
 42
80.0
 43
80.0
 50
180.0
  0
INSERT
  5
243D
  8
SP
  2
_OPEN
 10
33285.061244192373
 20
20231.66617158852
 30
0.0
 41
80.0
 42
80.0
 43
80.0
  0
TEXT
  8
0
  40
120
  5
244A
  72
0
  71
0
 10
32675.6
 20
20099.3
 30
0.000000
  1
739
  0
POINT
  5
243F
  8
DEFPOINTS
 62
     0
 10
32546.061244192369
 20
20650.219732358899
 30
0.0
  0
POINT
  5
2440
  8
DEFPOINTS
 62
     0
 10
33285.061244192373
 20
20671.14678435283
 30
0.0
  0
POINT
  5
2441
  8
DEFPOINTS
 62
     0
 10
33285.061244192373
 20
20231.66617158852
 30
0.0
  0
ENDBLK
  5
1A4D
  8
0
  0
BLOCK
  8
0
  2
*D18
 70
     1
 10
0.0
 20
0.0
 30
0.0
  3
*D18
  1

  0
LINE
  5
23FA
  8
SP
 10
32546.061244192369
 20
24874.793239018061
 30
0.0
 11
32546.061244192369
 21
24842.85089965368
 31
0.0
  0
LINE
  5
23FB
  8
SP
 10
33341.061244192373
 20
24114.520600958818
 30
0.0
 11
33341.061244192373
 21
24922.85089965368
 31
0.0
  0
LINE
  5
23FC
  8
SP
 10
32626.061244192369
 20
24882.85089965368
 30
0.0
 11
33261.061244192373
 21
24882.85089965368
 31
0.0
  0
INSERT
  5
23FD
  8
SP
  2
_OPEN
 10
32546.061244192369
 20
24882.85089965368
 30
0.0
 41
80.0
 42
80.0
 43
80.0
 50
180.0
  0
INSERT
  5
23FE
  8
SP
  2
_OPEN
 10
33341.061244192373
 20
24882.85089965368
 30
0.0
 41
80.0
 42
80.0
 43
80.0
  0
TEXT
  5
23FF
  8
FUTO
 10
32698.84666769061
 20
24902.85089965368
 30
0.0
 40
120.0
  1
795
 51
15.0
  0
POINT
  5
2400
  8
DEFPOINTS
 62
     0
 10
32546.061244192369
 20
24914.793239018061
 30
0.0
  0
POINT
  5
2401
  8
DEFPOINTS
 62
     0
 10
33341.061244192373
 20
24074.520600958818
 30
0.0
  0
POINT
  5
2402
  8
DEFPOINTS
 62
     0
 10
33341.061244192373
 20
24882.85089965368
 30
0.0
  0
ENDBLK
  5
1A85
  8
0
  0
BLOCK
  8
0
  2
*D19
 70
     1
 10
0.0
 20
0.0
 30
0.0
  3
*D19
  1

  0
LINE
  5
2376
  8
SP
 10
28605.485799232181
 20
20961.146800958821
 30
0.0
 11
29254.894888437779
 21
20961.146800958821
 31
0.0
  0
LINE
  5
2377
  8
SP
 10
29090.83979827628
 20
23111.146800958821
 30
0.0
 11
29254.894888437779
 21
23111.146800958821
 31
0.0
  0
LINE
  5
2378
  8
SP
 10
29214.894888437779
 20
21041.146800958821
 30
0.0
 11
29214.894888437779
 21
23031.146800958821
 31
0.0
  0
INSERT
  5
2379
  8
SP
  2
_OPEN
 10
29214.894888437779
 20
20961.146800958821
 30
0.0
 41
80.0
 42
80.0
 43
80.0
 50
270.0
  0
INSERT
  5
237A
  8
SP
  2
_OPEN
 10
29214.894888437779
 20
23111.146800958821
 30
0.0
 41
80.0
 42
80.0
 43
80.0
 50
90.0
  0
TEXT
  5
237B
  8
FUTO
 10
29194.894888437771
 20
21825.989268755031
 30
0.0
 40
120.0
  1
2150
 50
90.0
 51
15.0
  0
POINT
  5
237C
  8
DEFPOINTS
 62
     0
 10
28565.485799232181
 20
20961.146800958821
 30
0.0
  0
POINT
  5
237D
  8
DEFPOINTS
 62
     0
 10
29050.83979827628
 20
23111.146800958821
 30
0.0
  0
POINT
  5
237E
  8
DEFPOINTS
 62
     0
 10
29214.894888437779
 20
23111.146800958821
 30
0.0
  0
ENDBLK
  5
1A9B
  8
0
  0
BLOCK
  8
0
  2
*D20
 70
     1
 10
0.0
 20
0.0
 30
0.0
  3
*D20
  1

  0
LINE
  5
23CA
  8
SP
 10
27653.2975029954
 20
24403.146800958821
 30
0.0
 11
29254.894888437779
 21
24403.146800958821
 31
0.0
  0
LINE
  5
23CB
  8
SP
 10
29090.83979827628
 20
23111.146800958821
 30
0.0
 11
29254.894888437779
 21
23111.146800958821
 31
0.0
  0
LINE
  5
23CC
  8
SP
 10
29214.894888437779
 20
24323.146800958821
 30
0.0
 11
29214.894888437779
 21
23191.146800958821
 31
0.0
  0
INSERT
  5
23CD
  8
SP
  2
_OPEN
 10
29214.894888437779
 20
24403.146800958821
 30
0.0
 41
80.0
 42
80.0
 43
80.0
 50
90.0
  0
INSERT
  5
23CE
  8
SP
  2
_OPEN
 10
29214.894888437779
 20
23111.146800958821
 30
0.0
 41
80.0
 42
80.0
 43
80.0
 50
270.0
  0
TEXT
  5
23CF
  8
FUTO
 10
29194.894888437771
 20
23533.974593694082
 30
0.0
 40
120.0
  1
1292
 50
90.0
 51
15.0
  0
POINT
  5
23D0
  8
DEFPOINTS
 62
     0
 10
27613.2975029954
 20
24403.146800958821
 30
0.0
  0
POINT
  5
23D1
  8
DEFPOINTS
 62
     0
 10
29050.83979827628
 20
23111.146800958821
 30
0.0
  0
POINT
  5
23D2
  8
DEFPOINTS
 62
     0
 10
29214.894888437779
 20
23111.146800958821
 30
0.0
  0
ENDBLK
  5
1AB2
  8
0
  0
BLOCK
  8
0
  2
*D21
 70
     1
 10
0.0
 20
0.0
 30
0.0
  3
*D21
  1

  0
LINE
  5
23EF
  8
SP
 10
33381.061244192373
 20
24009.520600958818
 30
0.0
 11
33961.06938640411
 21
24009.520600958818
 31
0.0
  0
LINE
  5
23F0
  8
SP
 10
33381.061244192373
 20
22209.520600958818
 30
0.0
 11
33961.06938640411
 21
22209.520600958818
 31
0.0
  0
LINE
  5
23F1
  8
SP
 10
33921.06938640411
 20
23929.520600958818
 30
0.0
 11
33921.06938640411
 21
22289.520600958818
 31
0.0
  0
INSERT
  5
23F2
  8
SP
  2
_OPEN
 10
33921.06938640411
 20
24009.520600958818
 30
0.0
 41
80.0
 42
80.0
 43
80.0
 50
90.0
  0
INSERT
  5
23F3
  8
SP
  2
_OPEN
 10
33921.06938640411
 20
22209.520600958818
 30
0.0
 41
80.0
 42
80.0
 43
80.0
 50
270.0
  0
INSERT
  5
23F4
  8
FUTO
  2
*U22
 10
0.0
 20
0.0
 30
0.0
  0
POINT
  5
23F5
  8
DEFPOINTS
 62
     0
 10
33341.061244192373
 20
24009.520600958818
 30
0.0
  0
POINT
  5
23F6
  8
DEFPOINTS
 62
     0
 10
33341.061244192373
 20
22209.520600958818
 30
0.0
  0
POINT
  5
23F7
  8
DEFPOINTS
 62
     0
 10
33921.06938640411
 20
22209.520600958818
 30
0.0
  0
ENDBLK
  5
23F9
  8
0
  0
BLOCK
  8
0
  2
*U22
 70
     1
 10
0.0
 20
0.0
 30
0.0
  3
*U22
  1

  0
TEXT
  5
2443
  8
FUTO
 10
33901.069386404102
 20
22812.51318412201
 30
0.0
 40
120.0
  1
\U+2205
 50
90.0
 51
15.0
  0
TEXT
  5
2444
  8
FUTO
 10
33901.069386404102
 20
22921.084612693441
 30
0.0
 40
120.0
  1
1800
 50
90.0
 51
15.0
  0
ENDBLK
  5
2446
  8
0
  0
ENDSEC
  0
SECTION
  2
ENTITIES
  0
INSERT
  5
89
  8
FUTO
  2
まっすぐの矢印
 10
28956.14740989733
 20
21544.704504298468
 30
0.0
 41
2.0
 42
2.0
 43
2.0
 50
270.0
  0
LINE
  5
AF
  8
CT
 10
27505.485799232181
 20
23111.146800958821
 30
0.0
 11
28677.021294713311
 21
23215.08980380811
 31
0.0
  0
LINE
  5
B2
  8
CT
 10
29050.83979827628
 20
23111.146800958821
 30
0.0
 11
25590.857692722089
 21
23111.146800958821
 31
0.0
  0
DIMENSION
  5
CF
  8
SP
  2
*D4
 10
29214.894888437779
 20
20821.146800958821
 30
0.0
 11
29652.77109537982
 21
20972.222837930989
 31
0.0
 70
   128
  1
(<>)
 13
28530.599011564671
 23
20961.146800958821
 33
0.0
 14
28565.485799232181
 24
20821.146800958821
 34
0.0
 50
90.0
1001
ACAD
1000
DSTYLE
1002
{
1070
   287
1070
     4
1070
    40
1040
40.0
1070
    75
1070
     1
1070
   279
1070
     1
1070
   289
1070
     3
1070
     7
1000
DOT
1002
}
  0
DIMENSION
  5
E7
  8
SP
  2
*D6
 10
29214.894888437779
 20
20671.14680095881
 30
0.0
 11
29134.894888437771
 21
20351.146800958821
 31
0.0
 70
     0
 13
28565.485799232181
 23
20821.146800958821
 33
0.0
 14
28565.485799232181
 24
20671.14680095881
 34
0.0
 50
90.0
1001
ACAD
1000
DSTYLE
1002
{
1070
   287
1070
     1
1070
    40
1040
40.0
1070
    75
1070
     1
1070
   289
1070
     1
1070
     6
1000
DOT
1002
}
  0
LINE
  5
104
  8
CT
 10
27505.485799232181
 20
24427.806139866119
 30
0.0
 11
27505.485799232181
 21
20569.594531171209
 31
0.0
  0
ARC
  5
10E
  8
FUTO
 10
26005.485799232189
 20
21461.146800958821
 30
0.0
 40
280.0
 50
142.87206734797689
 51
312.58055463983533
  0
ARC
  5
111
  8
FUTO
 10
26005.485799232189
 20
21461.146800958821
 30
0.0
 40
310.0
 50
300.10230806831191
 51
239.897691931688
  0
LINE
  5
112
  8
CT
 10
26005.485799232189
 20
22125.912686885131
 30
0.0
 11
26005.485799232189
 21
21138.855484697669
 31
0.0
  0
LINE
  5
115
  8
FUTO
 10
28546.485799232181
 20
23120.146800958821
 30
0.0
 11
28546.485799232181
 21
23564.648258681671
 31
0.0
  0
LINE
  5
116
  8
FUTO
 10
28555.485799232189
 20
23120.146800958821
 30
0.0
 11
28555.485799232189
 21
23532.841273917449
 31
0.0
  0
LINE
  5
117
  8
FUTO
 10
26455.485799232189
 20
23120.146800958821
 30
0.0
 11
26455.485799232189
 21
22948.596562844861
 31
0.0
  0
LINE
  5
118
  8
FUTO
 10
26464.485799232189
 20
23120.146800958821
 30
0.0
 11
26464.485799232189
 21
22955.0534443574
 31
0.0
  0
LINE
  5
119
  8
CT
 10
26005.485799232189
 20
21174.645537958819
 30
0.0
 11
26005.485799232189
 21
21758.91721695882
 31
0.0
  0
ARC
  5
122
  8
FUTO
 10
27394.985799232181
 20
23221.646800958821
 30
0.0
 40
1201.5
 50
352.27518828965918
 51
84.72314371307364
  0
ARC
  5
123
  8
KL
 10
27394.985799232181
 20
23221.646800958821
 30
0.0
 40
1181.4999999999991
 50
0.000000000000007
 51
90.994178943672054
  0
ARC
  5
124
  8
KL
 10
27374.485799232181
 20
22980.146800958821
 30
0.0
 40
1423.0
 50
89.999999999999986
 51
174.73663459410341
  0
DIMENSION
  5
13A
  8
SP
  2
*D12
 10
25565.485799232189
 20
20235.93942224051
 30
0.0
 11
26535.485799232189
 21
20315.93942224051
 31
0.0
 70
     0
 13
27505.485799232181
 23
20590.492625948598
 33
0.0
 14
25565.485799232189
 24
20671.14680095881
 34
0.0
1001
ACAD
1000
DSTYLE
1002
{
1070
   287
1070
     4
1070
    40
1040
40.0
1070
    75
1070
     1
1070
   279
1070
     1
1070
   289
1070
     3
1002
}
  0
LINE
  5
146
  8
FUTO
 10
28565.485799232181
 20
20821.146800958821
 30
0.0
 11
25565.485799232189
 21
20821.146800958821
 31
0.0
1001
ACAD
1000
ASC_BOUNDS
1002
{
1070
    19
1005
0
1002
}
  0
LINE
  5
147
  8
FUTO
 10
28565.485799232181
 20
20809.146800958821
 30
0.0
 11
25565.485799232189
 21
20809.146800958821
 31
0.0
  0
LINE
  5
148
  8
FUTO
 10
28565.485799232181
 20
20683.146800958821
 30
0.0
 11
25565.485799232189
 21
20683.146800958821
 31
0.0
  0
LINE
  5
149
  8
FUTO
 10
28565.485799232181
 20
20671.14680095881
 30
0.0
 11
25565.485799232189
 21
20671.14680095881
 31
0.0
  0
DIMENSION
  5
14A
  8
SP
  2
*D11
 10
25565.485799232189
 20
19917.224871619888
 30
0.0
 11
27065.485799232181
 21
19997.224871619888
 31
0.0
 70
     0
 13
28565.485799232181
 23
20671.14680095881
 33
0.0
 14
25565.485799232189
 24
20671.14680095881
 34
0.0
1001
ACAD
1000
DSTYLE
1002
{
1070
    40
1040
40.0
1002
}
  0
LINE
  5
157
  8
FUTO
 10
28565.485799232181
 20
21099.146800958821
 30
0.0
 11
25565.485799232189
 21
21099.146800958821
 31
0.0
  0
LINE
  5
158
  8
FUTO
 10
28565.485799232181
 20
20973.146800958821
 30
0.0
 11
25565.485799232189
 21
20973.146800958821
 31
0.0
  0
LINE
  5
159
  8
FUTO
 10
28565.485799232181
 20
21111.14680095881
 30
0.0
 11
25565.485799232189
 21
21111.14680095881
 31
0.0
  0
LINE
  5
15A
  8
FUTO
 10
28565.485799232181
 20
20961.146800958821
 30
0.0
 11
25565.485799232189
 21
20961.146800958821
 31
0.0
1001
ACAD
1000
ASC_BOUNDS
1002
{
1070
    19
1005
0
1002
}
  0
LINE
  5
15B
  8
FUTO
 10
26285.485799232189
 20
21211.146800958821
 30
0.0
 11
26188.788827030421
 21
21211.146800958821
 31
0.0
  0
LINE
  5
15C
  8
FUTO
 10
26285.485799232189
 20
21181.146800958821
 30
0.0
 11
26175.485799232181
 21
21181.146800958821
 31
0.0
  0
LINE
  5
15D
  8
FUTO
 10
26105.485799232181
 20
21181.146800958821
 30
0.0
 11
26320.485799232181
 21
21181.146800958821
 31
0.0
  0
LINE
  5
15E
  8
FUTO
 10
26330.485799232181
 20
21111.14680095881
 30
0.0
 11
26105.485799232181
 21
21111.14680095881
 31
0.0
  0
LINE
  5
15F
  8
CT
 10
26342.94476342194
 20
21461.146800958821
 30
0.0
 11
25662.20857703916
 21
21461.146800958821
 31
0.0
  0
LINE
  5
160
  8
CT
 10
25957.382731724301
 20
21024.284621019469
 30
0.0
 11
25957.382731724301
 21
20759.544116384812
 31
0.0
  0
LINE
  5
161
  8
FUTO
 10
25813.529509725249
 20
20961.146800958821
 30
0.0
 11
25813.529509725249
 21
20950.146800958821
 31
0.0
  0
LINE
  5
162
  8
FUTO
 10
25741.529509725238
 20
20961.146800958821
 30
0.0
 11
25741.529509725238
 21
20950.146800958821
 31
0.0
  0
LINE
  5
163
  8
CT
 10
25777.529509725238
 20
20975.674784166029
 30
0.0
 11
25777.529509725238
 21
20801.46800926188
 31
0.0
  0
ARC
  5
164
  8
FUTO
 10
25834.029509725249
 20
20941.146800958821
 30
0.0
 40
9.0
 50
0.000000000000007
 51
90.0
  0
LINE
  5
165
  8
FUTO
 10
25712.029509725249
 20
20865.146800958821
 30
0.0
 11
25843.029509725238
 21
20865.146800958821
 31
0.0
  0
LINE
  5
166
  8
FUTO
 10
25565.485799232189
 20
20821.146800958821
 30
0.0
 11
25565.485799232189
 21
20671.14680095881
 31
0.0
  0
LINE
  5
167
  8
FUTO
 10
25741.529509725238
 20
20956.146800958821
 30
0.0
 11
25813.529509725249
 21
20956.146800958821
 31
0.0
  0
ARC
  5
168
  8
FUTO
 10
25721.029509725238
 20
20941.146800958821
 30
0.0
 40
9.0
 50
89.999999999999915
 51
180.0
  0
LINE
  5
169
  8
FUTO
 10
25712.029509725249
 20
20941.146800958821
 30
0.0
 11
25712.029509725249
 21
20865.146800958821
 31
0.0
  0
LINE
  5
16A
  8
FUTO
 10
25741.529509725238
 20
20821.146800958821
 30
0.0
 11
25813.529509725249
 21
20821.146800958821
 31
0.0
  0
LINE
  5
16B
  8
FUTO
 10
25813.529509725249
 20
20832.146800958821
 30
0.0
 11
25813.529509725249
 21
20821.146800958821
 31
0.0
  0
LINE
  5
16C
  8
FUTO
 10
25741.529509725238
 20
20832.146800958821
 30
0.0
 11
25741.529509725238
 21
20821.146800958821
 31
0.0
  0
LINE
  5
16D
  8
FUTO
 10
25826.529509725249
 20
20865.146800958821
 30
0.0
 11
25826.529509725249
 21
20839.146800958821
 31
0.0
  0
ARC
  5
16E
  8
FUTO
 10
25819.529509725238
 20
20839.146800958821
 30
0.0
 40
7.0
 50
270.00000000000011
 51
0.0000000000000325
  0
LINE
  5
16F
  8
FUTO
 10
25735.529509725249
 20
20832.146800958821
 30
0.0
 11
25819.529509725238
 21
20832.146800958821
 31
0.0
  0
LINE
  5
170
  8
FUTO
 10
25728.529509725238
 20
20865.146800958821
 30
0.0
 11
25728.529509725238
 21
20839.146800958821
 31
0.0
  0
ARC
  5
171
  8
FUTO
 10
25735.529509725249
 20
20839.146800958821
 30
0.0
 40
7.0
 50
179.99999999999989
 51
269.99999999999977
  0
LINE
  5
172
  8
FUTO
 10
25741.529509725238
 20
20826.146800958821
 30
0.0
 11
25813.529509725249
 21
20826.146800958821
 31
0.0
  0
LINE
  5
173
  8
FUTO
 10
25721.029509725238
 20
20950.146800958821
 30
0.0
 11
25834.029509725249
 21
20950.146800958821
 31
0.0
  0
LINE
  5
174
  8
FUTO
 10
25843.029509725238
 20
20941.146800958821
 30
0.0
 11
25843.029509725238
 21
20865.146800958821
 31
0.0
  0
LINE
  5
175
  8
FUTO
 10
25690.485799232181
 20
21181.146800958821
 30
0.0
 11
25905.485799232181
 21
21181.146800958821
 31
0.0
  0
LINE
  5
176
  8
FUTO
 10
25905.485799232181
 20
21111.14680095881
 30
0.0
 11
25680.485799232181
 21
21111.14680095881
 31
0.0
  0
CIRCLE
  5
177
  8
SL
 10
26005.485799232189
 20
21461.146800958821
 30
0.0
 40
200.0
  0
LINE
  5
178
  8
FUTO
 10
25725.485799232189
 20
21328.105454002271
 30
0.0
 11
25725.485799232189
 21
21181.146800958821
 31
0.0
  0
LINE
  5
179
  8
FUTO
 10
25565.485799232189
 20
21111.14680095881
 30
0.0
 11
25565.485799232189
 21
20961.146800958821
 31
0.0
  0
LINE
  5
17A
  8
FUTO
 10
25741.529509725238
 20
20961.146800958821
 30
0.0
 11
25813.529509725249
 21
20961.146800958821
 31
0.0
  0
LINE
  5
17B
  8
CT
 10
25776.985799232189
 20
21226.31624944846
 30
0.0
 11
25776.985799232189
 21
21138.855484697669
 31
0.0
  0
LINE
  5
17C
  8
FUTO
 10
25822.182771433949
 20
21211.146800958821
 30
0.0
 11
25725.485799232189
 21
21211.146800958821
 31
0.0
  0
LINE
  5
17D
  8
FUTO
 10
25835.485799232189
 20
21201.917173022499
 30
0.0
 11
25835.485799232189
 21
21181.146800958821
 31
0.0
  0
LINE
  5
17E
  8
FUTO
 10
25835.485799232189
 20
21181.146800958821
 30
0.0
 11
25725.485799232189
 21
21181.146800958821
 31
0.0
  0
LINE
  5
17F
  8
FUTO
 10
25680.485799232181
 20
21111.14680095881
 30
0.0
 11
25690.485799232181
 21
21181.146800958821
 31
0.0
  0
LINE
  5
180
  8
CT
 10
26005.485799232189
 20
20969.728415770362
 30
0.0
 11
26005.485799232189
 21
21635.24481515542
 31
0.0
  0
LINE
  5
181
  8
FUTO
 10
26160.964931507791
 20
21192.95612359135
 30
0.0
 11
25850.006666956579
 21
21192.95612359135
 31
0.0
  0
LINE
  5
182
  8
FUTO
 10
25905.485799232181
 20
21171.146800958821
 30
0.0
 11
26105.485799232181
 21
21171.146800958821
 31
0.0
  0
LINE
  5
183
  8
FUTO
 10
25905.485799232181
 20
21121.146800958821
 30
0.0
 11
26105.485799232181
 21
21121.146800958821
 31
0.0
  0
LINE
  5
184
  8
FUTO
 10
25905.485799232181
 20
21171.146800958821
 30
0.0
 11
25905.485799232181
 21
21181.146800958821
 31
0.0
  0
LINE
  5
185
  8
FUTO
 10
25905.485799232181
 20
21111.14680095881
 30
0.0
 11
25905.485799232181
 21
21121.146800958821
 31
0.0
  0
LINE
  5
186
  8
CT
 10
26233.985799232189
 20
21226.31624944846
 30
0.0
 11
26233.985799232189
 21
21134.690686376209
 31
0.0
  0
LINE
  5
187
  8
FUTO
 10
26175.485799232181
 20
21201.917173022499
 30
0.0
 11
26175.485799232181
 21
21181.146800958821
 31
0.0
  0
LINE
  5
188
  8
FUTO
 10
26105.485799232181
 20
21171.146800958821
 30
0.0
 11
26105.485799232181
 21
21181.146800958821
 31
0.0
  0
LINE
  5
189
  8
FUTO
 10
26248.485799232181
 20
21181.146800958821
 30
0.0
 11
26148.485799232189
 21
21181.146800958821
 31
0.0
  0
LINE
  5
18A
  8
FUTO
 10
26105.485799232181
 20
21111.14680095881
 30
0.0
 11
26105.485799232181
 21
21121.146800958821
 31
0.0
  0
LINE
  5
18B
  8
CT
 10
26555.389405122431
 20
20975.674784166029
 30
0.0
 11
26555.389405122431
 21
20801.46800926188
 31
0.0
  0
LINE
  5
18C
  8
FUTO
 10
26519.389405122431
 20
20961.146800958821
 30
0.0
 11
26519.389405122431
 21
20950.146800958821
 31
0.0
  0
LINE
  5
18D
  8
FUTO
 10
26591.389405122431
 20
20961.146800958821
 30
0.0
 11
26591.389405122431
 21
20950.146800958821
 31
0.0
  0
LINE
  5
18E
  8
FUTO
 10
26620.88940512242
 20
20941.146800958821
 30
0.0
 11
26620.88940512242
 21
20865.146800958821
 31
0.0
  0
LINE
  5
18F
  8
FUTO
 10
26498.88940512242
 20
20950.146800958821
 30
0.0
 11
26611.889405122431
 21
20950.146800958821
 31
0.0
  0
LINE
  5
190
  8
FUTO
 10
26519.389405122431
 20
20826.146800958821
 30
0.0
 11
26591.389405122431
 21
20826.146800958821
 31
0.0
  0
ARC
  5
191
  8
FUTO
 10
26513.389405122431
 20
20839.146800958821
 30
0.0
 40
7.0
 50
179.99999999999989
 51
269.99999999999977
  0
LINE
  5
192
  8
FUTO
 10
26506.389405122431
 20
20865.146800958821
 30
0.0
 11
26506.389405122431
 21
20839.146800958821
 31
0.0
  0
LINE
  5
193
  8
FUTO
 10
26513.389405122431
 20
20832.146800958821
 30
0.0
 11
26597.389405122431
 21
20832.146800958821
 31
0.0
  0
ARC
  5
194
  8
FUTO
 10
26597.389405122431
 20
20839.146800958821
 30
0.0
 40
7.0
 50
270.00000000000011
 51
0.0000000000000325
  0
LINE
  5
195
  8
FUTO
 10
26604.389405122431
 20
20865.146800958821
 30
0.0
 11
26604.389405122431
 21
20839.146800958821
 31
0.0
  0
LINE
  5
196
  8
FUTO
 10
26519.389405122431
 20
20832.146800958821
 30
0.0
 11
26519.389405122431
 21
20821.146800958821
 31
0.0
  0
LINE
  5
197
  8
FUTO
 10
26591.389405122431
 20
20832.146800958821
 30
0.0
 11
26591.389405122431
 21
20821.146800958821
 31
0.0
  0
LINE
  5
198
  8
FUTO
 10
26519.389405122431
 20
20821.146800958821
 30
0.0
 11
26591.389405122431
 21
20821.146800958821
 31
0.0
  0
LINE
  5
199
  8
FUTO
 10
26489.889405122431
 20
20941.146800958821
 30
0.0
 11
26489.889405122431
 21
20865.146800958821
 31
0.0
  0
ARC
  5
19A
  8
FUTO
 10
26498.88940512242
 20
20941.146800958821
 30
0.0
 40
9.0
 50
89.999999999999915
 51
180.0
  0
LINE
  5
19B
  8
FUTO
 10
26519.389405122431
 20
20956.146800958821
 30
0.0
 11
26591.389405122431
 21
20956.146800958821
 31
0.0
  0
LINE
  5
19C
  8
FUTO
 10
26489.889405122431
 20
20865.146800958821
 30
0.0
 11
26620.88940512242
 21
20865.146800958821
 31
0.0
  0
ARC
  5
19D
  8
FUTO
 10
26611.889405122431
 20
20941.146800958821
 30
0.0
 40
9.0
 50
0.000000000000007
 51
90.0
  0
LINE
  5
1A1
  8
FUTO
 10
26805.485799232189
 20
20821.146800958821
 30
0.0
 11
26805.485799232189
 21
20671.14680095881
 31
0.0
  0
LINE
  5
1A2
  8
FUTO
 10
26796.485799232189
 20
20821.146800958821
 30
0.0
 11
26796.485799232189
 21
20671.14680095881
 31
0.0
  0
LINE
  5
1A3
  8
FUTO
 10
26814.485799232181
 20
20821.146800958821
 30
0.0
 11
26814.485799232181
 21
20671.14680095881
 31
0.0
  0
ARC
  5
1A4
  8
FUTO
 10
27374.485799232181
 20
22980.146800958821
 30
0.0
 40
1443.0
 50
84.791340681045625
 51
130.93164026379389
  0
LINE
  5
1A7
  8
FUTO
 10
26285.485799232189
 20
21328.105454002289
 30
0.0
 11
26285.485799232189
 21
21181.146800958821
 31
0.0
  0
LINE
  5
1A8
  8
KL
 10
26462.375597344231
 20
21772.49760192031
 30
0.0
 11
26420.379001477311
 21
21722.848969387662
 31
0.0
  0
LINE
  5
1A9
  8
KL
 10
26448.632762776691
 20
21784.12233839255
 30
0.0
 11
26406.636166909761
 21
21734.473705859898
 31
0.0
  0
LINE
  5
1AA
  8
KL
 10
26455.485799232189
 20
21778.288240228809
 30
0.0
 11
26413.50758419354
 21
21728.66133762378
 31
0.0
  0
LINE
  5
1AB
  8
FUTO
 10
26320.485799232181
 20
21181.146800958821
 30
0.0
 11
26330.485799232181
 21
21111.14680095881
 31
0.0
  0
LINE
  5
1AC
  8
KL
 10
26420.379001477319
 20
21722.848969387651
 30
0.0
 11
26406.636166909761
 21
21734.473705859909
 31
0.0
  0
LINE
  5
1AD
  8
FUTO
 10
26519.389405122431
 20
20961.146800958821
 30
0.0
 11
26591.389405122431
 21
20961.146800958821
 31
0.0
  0
LINE
  5
1AE
  8
KL
 10
26880.485799232181
 20
21111.14680095881
 30
0.0
 11
26880.485799232181
 21
20961.146800958821
 31
0.0
  0
LINE
  5
1AF
  8
FUTO
 10
26814.485799232181
 20
21111.14680095881
 30
0.0
 11
26814.485799232181
 21
20961.146800958821
 31
0.0
  0
LINE
  5
1B0
  8
FUTO
 10
26796.485799232189
 20
21111.14680095881
 30
0.0
 11
26796.485799232189
 21
20961.146800958821
 31
0.0
  0
LINE
  5
1B1
  8
FUTO
 10
26805.485799232189
 20
21111.14680095881
 30
0.0
 11
26805.485799232189
 21
20961.146800958821
 31
0.0
  0
LINE
  5
1B2
  8
KL
 10
26805.485799232189
 20
21125.311695497228
 30
0.0
 11
26805.485799232189
 21
20961.146800958821
 31
0.0
  0
DIMENSION
  5
1B3
  8
SP
  2
*D13
 10
27505.485799232181
 20
20235.93942224051
 30
0.0
 11
28035.485799232181
 21
20315.93942224051
 31
0.0
 70
     0
 13
28565.485799232181
 23
20671.14680095881
 33
0.0
 14
27505.485799232181
 24
20590.492625948598
 34
0.0
1001
ACAD
1000
DSTYLE
1002
{
1070
    40
1040
40.0
1002
}
  0
LINE
  5
1C0
  8
FUTO
 10
27381.967560341851
 20
20961.146800958821
 30
0.0
 11
27381.967560341851
 21
20950.146800958821
 31
0.0
  0
LINE
  5
1C1
  8
FUTO
 10
27309.967560341851
 20
20961.146800958821
 30
0.0
 11
27309.967560341851
 21
20950.146800958821
 31
0.0
  0
LINE
  5
1C2
  8
CT
 10
27345.967560341851
 20
20975.674784166029
 30
0.0
 11
27345.967560341851
 21
20801.46800926188
 31
0.0
  0
LINE
  5
1C3
  8
FUTO
 10
27280.467560341851
 20
20865.146800958821
 30
0.0
 11
27411.467560341851
 21
20865.146800958821
 31
0.0
  0
LINE
  5
1C4
  8
FUTO
 10
27309.967560341851
 20
20956.146800958821
 30
0.0
 11
27381.967560341851
 21
20956.146800958821
 31
0.0
  0
LINE
  5
1C5
  8
FUTO
 10
27309.967560341851
 20
20821.146800958821
 30
0.0
 11
27381.967560341851
 21
20821.146800958821
 31
0.0
  0
LINE
  5
1C6
  8
FUTO
 10
27303.967560341851
 20
20832.146800958821
 30
0.0
 11
27387.967560341851
 21
20832.146800958821
 31
0.0
  0
LINE
  5
1C7
  8
FUTO
 10
27309.967560341851
 20
20826.146800958821
 30
0.0
 11
27381.967560341851
 21
20826.146800958821
 31
0.0
  0
LINE
  5
1C8
  8
FUTO
 10
27289.467560341851
 20
20950.146800958821
 30
0.0
 11
27402.467560341851
 21
20950.146800958821
 31
0.0
  0
ARC
  5
1C9
  8
FUTO
 10
27289.467560341851
 20
20941.146800958821
 30
0.0
 40
9.0
 50
89.999999999999915
 51
180.0
  0
LINE
  5
1CA
  8
FUTO
 10
27280.467560341851
 20
20941.146800958821
 30
0.0
 11
27280.467560341851
 21
20865.146800958821
 31
0.0
  0
LINE
  5
1CB
  8
FUTO
 10
27309.967560341851
 20
20832.146800958821
 30
0.0
 11
27309.967560341851
 21
20821.146800958821
 31
0.0
  0
LINE
  5
1CC
  8
FUTO
 10
27296.967560341851
 20
20865.146800958821
 30
0.0
 11
27296.967560341851
 21
20839.146800958821
 31
0.0
  0
ARC
  5
1CD
  8
FUTO
 10
27303.967560341851
 20
20839.146800958821
 30
0.0
 40
7.0
 50
179.99999999999989
 51
269.99999999999977
  0
ARC
  5
1CE
  8
FUTO
 10
27402.467560341851
 20
20941.146800958821
 30
0.0
 40
9.0
 50
0.000000000000007
 51
90.0
  0
LINE
  5
1CF
  8
FUTO
 10
27381.967560341851
 20
20832.146800958821
 30
0.0
 11
27381.967560341851
 21
20821.146800958821
 31
0.0
  0
LINE
  5
1D0
  8
FUTO
 10
27394.967560341851
 20
20865.146800958821
 30
0.0
 11
27394.967560341851
 21
20839.146800958821
 31
0.0
  0
ARC
  5
1D1
  8
FUTO
 10
27387.967560341851
 20
20839.146800958821
 30
0.0
 40
7.0
 50
270.00000000000011
 51
0.0000000000000325
  0
LINE
  5
1D2
  8
FUTO
 10
27411.467560341851
 20
20941.146800958821
 30
0.0
 11
27411.467560341851
 21
20865.146800958821
 31
0.0
  0
LINE
  5
1D3
  8
FUTO
 10
27309.967560341851
 20
20961.146800958821
 30
0.0
 11
27381.967560341851
 21
20961.146800958821
 31
0.0
  0
LINE
  5
1D4
  8
CT
 10
28383.601382455588
 20
20975.674784166029
 30
0.0
 11
28383.601382455588
 21
20801.46800926188
 31
0.0
  0
LINE
  5
1D5
  8
FUTO
 10
28419.601382455588
 20
20961.146800958821
 30
0.0
 11
28419.601382455588
 21
20950.146800958821
 31
0.0
  0
LINE
  5
1D6
  8
FUTO
 10
28347.601382455588
 20
20961.146800958821
 30
0.0
 11
28347.601382455588
 21
20950.146800958821
 31
0.0
  0
LINE
  5
1D7
  8
FUTO
 10
28327.101382455588
 20
20950.146800958821
 30
0.0
 11
28440.101382455588
 21
20950.146800958821
 31
0.0
  0
LINE
  5
1D8
  8
FUTO
 10
28347.601382455588
 20
20826.146800958821
 30
0.0
 11
28419.601382455588
 21
20826.146800958821
 31
0.0
  0
LINE
  5
1D9
  8
FUTO
 10
28341.601382455588
 20
20832.146800958821
 30
0.0
 11
28425.601382455588
 21
20832.146800958821
 31
0.0
  0
LINE
  5
1DA
  8
FUTO
 10
28347.601382455588
 20
20821.146800958821
 30
0.0
 11
28419.601382455588
 21
20821.146800958821
 31
0.0
  0
LINE
  5
1DB
  8
FUTO
 10
28347.601382455588
 20
20956.146800958821
 30
0.0
 11
28419.601382455588
 21
20956.146800958821
 31
0.0
  0
LINE
  5
1DC
  8
FUTO
 10
28318.101382455588
 20
20865.146800958821
 30
0.0
 11
28449.101382455588
 21
20865.146800958821
 31
0.0
  0
ARC
  5
1DD
  8
FUTO
 10
28341.601382455588
 20
20839.146800958821
 30
0.0
 40
7.0
 50
179.99999999999989
 51
269.99999999999977
  0
LINE
  5
1DE
  8
FUTO
 10
28334.601382455588
 20
20865.146800958821
 30
0.0
 11
28334.601382455588
 21
20839.146800958821
 31
0.0
  0
LINE
  5
1DF
  8
FUTO
 10
28347.601382455588
 20
20832.146800958821
 30
0.0
 11
28347.601382455588
 21
20821.146800958821
 31
0.0
  0
LINE
  5
1E0
  8
FUTO
 10
28318.101382455588
 20
20941.146800958821
 30
0.0
 11
28318.101382455588
 21
20865.146800958821
 31
0.0
  0
ARC
  5
1E1
  8
FUTO
 10
28327.101382455588
 20
20941.146800958821
 30
0.0
 40
9.0
 50
89.999999999999915
 51
180.0
  0
LINE
  5
1E2
  8
FUTO
 10
28205.485799232181
 20
20821.146800958821
 30
0.0
 11
28205.485799232181
 21
20671.14680095881
 31
0.0
  0
LINE
  5
1E3
  8
FUTO
 10
28449.101382455588
 20
20941.146800958821
 30
0.0
 11
28449.101382455588
 21
20865.146800958821
 31
0.0
  0
ARC
  5
1E4
  8
FUTO
 10
28425.601382455588
 20
20839.146800958821
 30
0.0
 40
7.0
 50
270.00000000000011
 51
0.0000000000000325
  0
LINE
  5
1E5
  8
FUTO
 10
28432.601382455588
 20
20865.146800958821
 30
0.0
 11
28432.601382455588
 21
20839.146800958821
 31
0.0
  0
LINE
  5
1E6
  8
FUTO
 10
28419.601382455588
 20
20832.146800958821
 30
0.0
 11
28419.601382455588
 21
20821.146800958821
 31
0.0
  0
ARC
  5
1E7
  8
FUTO
 10
28440.101382455588
 20
20941.146800958821
 30
0.0
 40
9.0
 50
0.000000000000007
 51
90.0
  0
LINE
  5
1E8
  8
FUTO
 10
28565.485799232181
 20
20821.146800958821
 30
0.0
 11
28565.485799232181
 21
20671.14680095881
 31
0.0
  0
LINE
  5
1E9
  8
FUTO
 10
28347.601382455588
 20
20961.146800958821
 30
0.0
 11
28419.601382455588
 21
20961.146800958821
 31
0.0
  0
LINE
  5
1EC
  8
KL
 10
28130.485799232181
 20
21111.14680095881
 30
0.0
 11
28130.485799232181
 21
20961.146800958821
 31
0.0
  0
LINE
  5
1ED
  8
FUTO
 10
28205.485799232181
 20
21111.14680095881
 30
0.0
 11
28205.485799232181
 21
20961.146800958821
 31
0.0
  0
LINE
  5
1EE
  8
KL
 10
28205.485799232181
 20
21125.311695497228
 30
0.0
 11
28205.485799232181
 21
20961.146800958821
 31
0.0
  0
LINE
  5
1EF
  8
FUTO
 10
28565.485799232181
 20
21111.14680095881
 30
0.0
 11
28565.485799232181
 21
20961.146800958821
 31
0.0
  0
LINE
  5
1F0
  8
FUTO
 10
25816.605884787339
 20
27241.235529169498
 30
0.0
 11
25816.605884787339
 21
27089.235529169491
 31
0.0
  0
LINE
  5
1F1
  8
FUTO
 10
25565.485799232189
 20
27316.235529169491
 30
0.0
 11
25565.485799232189
 21
27241.235529169498
 31
0.0
  0
LINE
  5
1F2
  8
CT
 10
26005.485799232189
 20
27166.60741772762
 30
0.0
 11
26005.485799232189
 21
25623.140706122838
 31
0.0
  0
LINE
  5
1F3
  8
FUTO
 10
26805.485799232181
 20
27241.235529169491
 30
0.0
 11
26805.485799232189
 21
25869.235529169491
 31
0.0
  0
LINE
  5
1F4
  8
FUTO
 10
26880.485799232181
 20
27241.235529169491
 30
0.0
 11
26880.485799232181
 21
25944.235529169491
 31
0.0
  0
LINE
  5
1F5
  8
FUTO
 10
28130.485799232181
 20
27241.235529169491
 30
0.0
 11
28130.485799232181
 21
25944.235529169491
 31
0.0
  0
LINE
  5
1F6
  8
FUTO
 10
28205.485799232181
 20
27241.235529169491
 30
0.0
 11
28205.485799232181
 21
25869.235529169491
 31
0.0
  0
DIMENSION
  5
253
  8
SP
  2
*D14
 10
27505.485799232181
 20
24899.338617464349
 30
0.0
 11
28087.985799232189
 21
24979.338617464349
 31
0.0
 70
     0
 13
28670.485799232181
 23
23074.953281401831
 33
0.0
 14
27505.485799232181
 24
24427.806139866119
 34
0.0
1001
ACAD
1000
DSTYLE
1002
{
1070
    40
1040
40.0
1002
}
  0
ARC
  5
263
  8
FUTO
 10
27505.485799232181
 20
23111.146800958821
 30
0.0
 40
480.0
 50
312.58055463983533
 51
142.87206734797709
  0
LINE
  5
265
  8
FUTO
 10
27205.485799232189
 20
22989.146800958821
 30
0.0
 11
27163.437373408138
 21
22989.146800958821
 31
0.0
  0
LINE
  5
267
  8
FUTO
 10
25907.485799232181
 20
23102.146800958821
 30
0.0
 11
26669.513598928039
 21
23102.146800958821
 31
0.0
  0
LINE
  5
268
  8
FUTO
 10
25907.485799232181
 20
23120.146800958821
 30
0.0
 11
26694.603109969161
 21
23120.146800958821
 31
0.0
  0
ARC
  5
269
  8
FUTO
 10
27636.485799232189
 20
22980.146800958821
 30
0.0
 40
1705.0
 50
232.5407366052483
 51
243.25815117692221
  0
ARC
  5
26A
  8
KL
 10
27636.485799232189
 20
22980.146800958821
 30
0.0
 40
1685.0
 50
184.83662323419401
 51
264.6120591389967
  0
LINE
  5
26D
  8
FUTO
 10
26464.485799232189
 20
24100.03474178147
 30
0.0
 11
26464.485799232189
 21
23111.146800958821
 31
0.0
  0
LINE
  5
26E
  8
FUTO
 10
26455.485799232189
 20
24092.661070530219
 30
0.0
 11
26455.485799232189
 21
23111.146800958821
 31
0.0
  0
LINE
  5
26F
  8
KL
 10
25957.485799232189
 20
23110.68415193546
 30
0.0
 11
25957.485799232189
 21
22838.07639587739
 31
0.0
  0
LINE
  5
272
  8
CT
 10
25903.779384607911
 20
21911.146800958821
 30
0.0
 11
25749.48244708823
 21
21911.146800958821
 31
0.0
  0
LINE
  5
273
  8
FUTO
 10
26215.485799232181
 20
22051.146800958821
 30
0.0
 11
25825.485799232181
 21
22051.146800958821
 31
0.0
  0
LINE
  5
274
  8
FUTO
 10
26215.485799232181
 20
21786.146800958821
 30
0.0
 11
25825.485799232181
 21
21786.146800958821
 31
0.0
  0
ARC
  5
275
  8
FUTO
 10
25825.485799232181
 20
22031.146800958821
 30
0.0
 40
20.0
 50
90.0
 51
180.0
  0
ARC
  5
276
  8
FUTO
 10
25825.485799232181
 20
21806.146800958821
 30
0.0
 40
20.0
 50
180.0
 51
270.0
  0
LINE
  5
277
  8
FUTO
 10
25805.485799232189
 20
22031.146800958821
 30
0.0
 11
25805.485799232189
 21
21806.146800958821
 31
0.0
  0
ARC
  5
279
  8
FUTO
 10
26215.485799232181
 20
22031.146800958821
 30
0.0
 40
20.0
 50
0.000000000000007
 51
90.0
  0
LINE
  5
27A
  8
KL
 10
26042.818475170781
 20
22367.863009836641
 30
0.0
 11
26006.505237204099
 21
22350.929868880379
 31
0.0
  0
LINE
  5
27B
  8
CT
 10
26105.85132182849
 20
22325.536144215879
 30
0.0
 11
25998.905038592431
 21
22275.666273331692
 31
0.0
  0
LINE
  5
27C
  8
KL
 10
25993.215976716339
 20
22355.766764133339
 30
0.0
 11
26056.60871597744
 21
22219.82059607784
 31
0.0
  0
LINE
  5
27D
  8
KL
 10
26006.505237204099
 20
22350.929868880379
 30
0.0
 11
26061.445611230389
 21
22233.109856565621
 31
0.0
  0
LINE
  5
27E
  8
KL
 10
26038.59229255337
 20
22376.926087707008
 30
0.0
 11
25993.215976716339
 21
22355.766764133339
 31
0.0
  0
LINE
  5
27F
  8
KL
 10
26101.985031814482
 20
22240.97991965152
 30
0.0
 11
26056.60871597744
 21
22219.82059607784
 31
0.0
  0
LINE
  5
280
  8
KL
 10
26097.758849197071
 20
22250.042997521879
 30
0.0
 11
26061.445611230389
 21
22233.109856565621
 31
0.0
  0
ARC
  5
281
  8
FUTO
 10
26215.485799232181
 20
21806.146800958821
 30
0.0
 40
20.0
 50
270.0
 51
0.000000000000007
  0
LINE
  5
282
  8
FUTO
 10
26235.485799232181
 20
22031.146800958821
 30
0.0
 11
26235.485799232181
 21
21806.146800958821
 31
0.0
  0
LINE
  5
283
  8
FUTO
 10
25907.485799232181
 20
23120.146800958821
 30
0.0
 11
25907.485799232181
 21
23102.146800958821
 31
0.0
  0
ARC
  5
284
  8
FUTO
 10
27374.485799232181
 20
22980.146800958821
 30
0.0
 40
1443.0
 50
129.55864164540509
 51
174.4323999614779
  0
LINE
  5
285
  8
FUTO
 10
28605.485799232181
 20
23109.146800958821
 30
0.0
 11
28605.485799232181
 21
21121.146800958821
 31
0.0
  0
LINE
  5
286
  8
FUTO
 10
28670.485799232181
 20
22896.587028926479
 30
0.0
 11
28670.485799232181
 21
21869.184860181689
 31
0.0
  0
LINE
  5
287
  8
FUTO
 10
28670.485799232181
 20
22896.587028926479
 30
0.0
 11
28670.485799232181
 21
21121.146800958821
 31
0.0
  0
LINE
  5
288
  8
FUTO
 10
28664.485799232181
 20
22897.644990810739
 30
0.0
 11
28664.485799232181
 21
21863.184860181689
 31
0.0
  0
LINE
  5
289
  8
FUTO
 10
28546.485799232181
 20
21111.14680095881
 30
0.0
 11
28546.485799232181
 21
23102.146800958821
 31
0.0
  0
LINE
  5
28A
  8
FUTO
 10
28555.485799232181
 20
21111.14680095881
 30
0.0
 11
28555.485799232189
 21
23102.146800958821
 31
0.0
  0
LINE
  5
291
  8
KL
 10
27703.70661346948
 20
23137.764629628738
 30
0.0
 11
27982.729314067281
 21
23162.514373880302
 31
0.0
  0
LINE
  5
292
  8
KL
 10
27705.296996973299
 20
23119.835026166569
 30
0.0
 11
27984.319697571089
 21
23144.584770418129
 31
0.0
  0
CIRCLE
  5
295
  8
SL
 10
27505.485799232181
 20
23111.146800958821
 30
0.0
 40
355.0
  0
ARC
  5
296
  8
FUTO
 10
27557.485799232181
 20
23201.213442952401
 30
0.0
 40
15.000000000000099
 50
325.86450299682889
 51
154.1354970031779
  0
ARC
  5
297
  8
FUTO
 10
27505.485799232181
 20
23111.146800958821
 30
0.0
 40
103.9999999999995
 50
68.270994006339905
 51
111.72900599366061
  0
LINE
  5
298
  8
CT
 10
27505.485799232181
 20
23234.915560123522
 30
0.0
 11
27505.485799232181
 21
22981.323077056699
 31
0.0
  0
ARC
  5
299
  8
FUTO
 10
27453.485799232189
 20
23201.213442952401
 30
0.0
 40
15.000000000000201
 50
25.864502996822338
 51
214.13549700317051
  0
ARC
  5
29E
  8
FUTO
 10
27557.485799232181
 20
23021.08015896524
 30
0.0
 40
14.99999999999998
 50
205.8645029968221
 51
34.135497003171601
  0
CIRCLE
  5
29F
  8
FUTO
 10
27505.485799232181
 20
23111.146800958821
 30
0.0
 40
41.5
  0
LINE
  5
2A0
  8
FUTO
 10
27420.485799232181
 20
23004.146800958821
 30
0.0
 11
27590.485799232189
 21
23004.146800958821
 31
0.0
  0
LINE
  5
2A2
  8
KL
 10
27847.534225056232
 20
22989.146800958821
 30
0.0
 11
27505.485799232181
 21
22989.146800958821
 31
0.0
  0
LINE
  5
2A4
  8
FUTO
 10
27381.485799232189
 20
23035.146800958821
 30
0.0
 11
27313.485799232181
 21
23035.146800958821
 31
0.0
  0
LINE
  5
2A5
  8
FUTO
 10
27300.485799232181
 20
22999.146800958821
 30
0.0
 11
27420.485799232181
 21
22999.146800958821
 31
0.0
  0
LINE
  5
2A6
  8
KL
 10
27163.437373408138
 20
22989.146800958821
 30
0.0
 11
27505.485799232181
 21
22989.146800958821
 31
0.0
  0
LINE
  5
2A7
  8
FUTO
 10
27300.485799232181
 20
22999.146800958821
 30
0.0
 11
27300.485799232181
 21
22989.146800958821
 31
0.0
  0
ARC
  5
2A8
  8
FUTO
 10
27313.485799232181
 20
23032.146800958821
 30
0.0
 40
3.0
 50
90.0
 51
180.0
  0
LINE
  5
2A9
  8
FUTO
 10
27310.485799232189
 20
23032.146800958821
 30
0.0
 11
27310.485799232189
 21
22999.146800958821
 31
0.0
  0
LINE
  5
2AA
  8
KL
 10
27305.485799232181
 20
23120.146800958821
 30
0.0
 11
27305.485799232181
 21
23102.146800958821
 31
0.0
  0
ARC
  5
2AD
  8
FUTO
 10
27505.485799232181
 20
23111.146800958821
 30
0.0
 40
104.0000000000007
 50
248.2709940063402
 51
291.72900599366039
  0
ARC
  5
2AE
  8
FUTO
 10
27401.485799232181
 20
23111.146800958821
 30
0.0
 40
15.0
 50
85.864502996829515
 51
274.13549700317049
  0
ARC
  5
2AF
  8
FUTO
 10
27381.485799232189
 20
23055.146800958821
 30
0.0
 40
20.0
 50
270.0
 51
0.000000000000007
  0
LINE
  5
2B0
  8
FUTO
 10
27420.485799232181
 20
22999.146800958821
 30
0.0
 11
27420.485799232181
 21
23004.146800958821
 31
0.0
  0
LINE
  5
2B1
  8
CT
 10
27345.485799232181
 20
22989.146800958821
 30
0.0
 11
27345.485799232181
 21
23045.146800958821
 31
0.0
  0
LINE
  5
2B2
  8
FUTO
 10
27401.485799232181
 20
23096.146800958821
 30
0.0
 11
27401.485799232181
 21
23055.146800958821
 31
0.0
  0
ARC
  5
2B3
  8
FUTO
 10
27453.485799232189
 20
23021.08015896524
 30
0.0
 40
14.999999999999719
 50
145.86450299682909
 51
334.13549700317708
  0
ARC
  5
2B4
  8
FUTO
 10
27505.485799232181
 20
23111.146800958821
 30
0.0
 40
104.0000000000002
 50
188.27099400634009
 51
231.72900599366079
  0
ARC
  5
2B5
  8
FUTO
 10
27505.485799232181
 20
23111.146800958821
 30
0.0
 40
103.9999999999998
 50
128.27099400633969
 51
171.72900599366039
  0
LINE
  5
2B6
  8
KL
 10
27705.296996973299
 20
23119.835026166569
 30
0.0
 11
27703.70661346948
 21
23137.764629628738
 31
0.0
  0
LINE
  5
2B7
  8
FUTO
 10
27710.485799232189
 20
22989.146800958821
 30
0.0
 11
27710.485799232189
 21
22999.146800958821
 31
0.0
  0
ARC
  5
2B8
  8
FUTO
 10
27697.485799232189
 20
23032.146800958821
 30
0.0
 40
3.0
 50
0.000000000000007
 51
90.0
  0
LINE
  5
2B9
  8
FUTO
 10
27700.485799232181
 20
22999.146800958821
 30
0.0
 11
27700.485799232181
 21
23032.146800958821
 31
0.0
  0
LINE
  5
2BA
  8
CT
 10
27665.485799232189
 20
22989.146800958821
 30
0.0
 11
27665.485799232189
 21
23045.146800958821
 31
0.0
  0
LINE
  5
2BB
  8
FUTO
 10
27697.485799232189
 20
23035.146800958821
 30
0.0
 11
27629.485799232181
 21
23035.146800958821
 31
0.0
  0
LINE
  5
2BC
  8
FUTO
 10
27609.485799232189
 20
23055.146800958821
 30
0.0
 11
27609.485799232189
 21
23096.146800958821
 31
0.0
  0
ARC
  5
2BD
  8
FUTO
 10
27629.485799232181
 20
23055.146800958821
 30
0.0
 40
20.0
 50
180.0
 51
270.0
  0
LINE
  5
2BE
  8
FUTO
 10
27590.485799232189
 20
23004.146800958821
 30
0.0
 11
27590.485799232189
 21
22999.146800958821
 31
0.0
  0
LINE
  5
2BF
  8
FUTO
 10
27590.485799232189
 20
22999.146800958821
 30
0.0
 11
27710.485799232189
 21
22999.146800958821
 31
0.0
  0
ARC
  5
2C0
  8
FUTO
 10
27609.485799232189
 20
23111.146800958821
 30
0.0
 40
15.0
 50
270.0
 51
94.135497003170499
  0
ARC
  5
2C1
  8
FUTO
 10
27505.485799232181
 20
23111.146800958821
 30
0.0
 40
103.9999999999998
 50
308.27099400633961
 51
351.72900599366039
  0
ARC
  5
2C2
  8
FUTO
 10
27505.485799232181
 20
23111.146800958821
 30
0.0
 40
103.9999999999994
 50
8.2709940063397234
 51
51.729005993660351
  0
INSERT
  5
2C5
  8
FUTO
  2
左回転矢印
 10
27318.051192679941
 20
23809.585874307759
 30
0.0
 41
2.0
 42
2.0
 43
2.0
  0
LINE
  5
2D0
  8
FUTO
 10
27532.54030174929
 20
23211.566190986599
 30
0.0
 11
27532.54030174929
 21
23215.146800958821
 31
0.0
  0
LINE
  5
2D1
  8
FUTO
 10
27478.43129671508
 20
23211.566190986599
 30
0.0
 11
27478.43129671508
 21
23215.146800958821
 31
0.0
  0
LINE
  5
2D2
  8
FUTO
 10
27478.43129671508
 20
23215.146800958821
 30
0.0
 11
27532.54030174929
 21
23215.146800958821
 31
0.0
  0
LINE
  5
2D3
  8
FUTO
 10
28664.485799232181
 20
23109.146800958821
 30
0.0
 11
28664.485799232181
 21
22861.798410018691
 31
0.0
  0
LINE
  5
2D4
  8
FUTO
 10
28670.485799232181
 20
23109.146800958821
 30
0.0
 11
28670.485799232181
 21
22860.459826859729
 31
0.0
  0
LINE
  5
2D5
  8
FUTO
 10
28670.485799232181
 20
23109.146800958821
 30
0.0
 11
28670.485799232181
 21
22914.864707940429
 31
0.0
  0
ARC
  5
2D6
  8
KL
 10
27615.985799232181
 20
23221.646800958821
 30
0.0
 40
960.5
 50
324.29936339556627
 51
0.000000000000007
  0
LINE
  5
2D8
  8
FUTO
 10
28585.582288392139
 20
23060.146800958821
 30
0.0
 11
28670.485799232181
 21
23060.146800958821
 31
0.0
  0
LINE
  5
2D9
  8
FUTO
 10
28605.485799232181
 20
23109.146800958821
 30
0.0
 11
28670.485799232181
 21
23109.146800958821
 31
0.0
  0
LINE
  5
2DA
  8
FUTO
 10
28605.485799232181
 20
23109.146800958821
 30
0.0
 11
28670.485799232181
 21
23109.146800958821
 31
0.0
  0
LINE
  5
2DB
  8
KL
 10
28559.181431113509
 20
23040.146800958821
 30
0.0
 11
28670.485799232181
 21
23040.146800958821
 31
0.0
  0
LINE
  5
2DC
  8
FUTO
 10
28644.208106940649
 20
23203.143886934209
 30
0.0
 11
28646.617767643711
 21
23221.428300492131
 31
0.0
  0
LINE
  5
2DD
  8
FUTO
 10
28670.485799232181
 20
21170.058043801218
 30
0.0
 11
28188.155577704481
 21
21215.549251633482
 31
0.0
  0
LINE
  5
2DE
  8
KL
 10
28670.485799232181
 20
21190.146800958821
 30
0.0
 11
27478.266365655589
 21
21302.591552736361
 31
0.0
  0
LINE
  5
2E3
  8
FUTO
 10
28664.485799232181
 20
21863.184860181689
 30
0.0
 11
28664.485799232181
 21
21121.146800958821
 31
0.0
  0
LINE
  5
2E4
  8
FUTO
 10
28605.485799232181
 20
21121.146800958821
 30
0.0
 11
28670.485799232181
 21
21121.146800958821
 31
0.0
  0
LINE
  5
2FF
  8
FUTO
 10
25565.485799232189
 20
25944.235529169491
 30
0.0
 11
28205.485799232181
 21
25944.235529169491
 31
0.0
  0
LINE
  5
300
  8
FUTO
 10
25565.485799232189
 20
25869.235529169498
 30
0.0
 11
28205.485799232181
 21
25869.235529169491
 31
0.0
  0
LINE
  5
3C8
  8
FUTO
 10
25951.485799232181
 20
28644.235529169491
 30
0.0
 11
28670.485799232181
 21
28644.235529169491
 31
0.0
  0
LINE
  5
3C9
  8
FUTO
 10
26445.485799232189
 20
27316.235529169491
 30
0.0
 11
28670.485799232181
 21
27316.235529169491
 31
0.0
  0
LINE
  5
3CA
  8
FUTO
 10
26445.485799232189
 20
27241.235529169498
 30
0.0
 11
28565.485799232181
 21
27241.235529169491
 31
0.0
  0
LINE
  5
3CB
  8
FUTO
 10
26445.485799232189
 20
28719.235529169491
 30
0.0
 11
28565.485799232181
 21
28719.235529169491
 31
0.0
  0
LINE
  5
3DA
  8
FUTO
 10
25565.485799232189
 20
27241.235529169498
 30
0.0
 11
26805.485799232181
 21
27241.235529169498
 31
0.0
  0
LINE
  5
3DB
  8
FUTO
 10
25565.485799232189
 20
27316.235529169491
 30
0.0
 11
25901.485799232181
 21
27316.235529169491
 31
0.0
  0
LINE
  5
406
  8
FUTO
 10
28565.485799232181
 20
27241.235529169491
 30
0.0
 11
28565.485799232181
 21
27266.235529169491
 31
0.0
  0
LINE
  5
438
  8
SL
 10
30416.061244192369
 20
23389.520600958818
 30
0.0
 11
30416.061244192369
 21
21319.520600958818
 31
0.0
  0
LINE
  5
439
  8
SL
 10
30246.061244192369
 20
23389.520600958818
 30
0.0
 11
30246.06124419238
 21
21319.520600958818
 31
0.0
  0
LINE
  5
43A
  8
CT
 10
32546.061244192369
 20
24613.843689280719
 30
0.0
 11
32546.061244192369
 21
20591.07987129928
 31
0.0
  0
LINE
  5
43C
  8
FUTO
 10
33209.261244192377
 20
21111.14678435283
 30
0.0
 11
33209.261244192377
 21
21128.520600958818
 31
0.0
  0
LINE
  5
43D
  8
FUTO
 10
33206.061244192388
 20
21111.14678435283
 30
0.0
 11
33206.061244192388
 21
21128.520600958818
 31
0.0
  0
LINE
  5
43E
  8
FUTO
 10
31886.061244192369
 20
21111.14678435283
 30
0.0
 11
31886.061244192369
 21
21128.520600958818
 31
0.0
  0
LINE
  5
43F
  8
FUTO
 10
31882.86124419238
 20
21111.14678435283
 30
0.0
 11
31882.86124419238
 21
21128.520600958818
 31
0.0
  0
LINE
  5
441
  8
FUTO
 10
30446.061244192369
 20
23489.520600958818
 30
0.0
 11
30446.061244192369
 21
21209.520600958818
 31
0.0
  0
LINE
  5
442
  8
FUTO
 10
30096.061244192369
 20
23489.520600958818
 30
0.0
 11
30096.06124419238
 21
21209.520600958818
 31
0.0
  0
LINE
  5
445
  8
FUTO
 10
31496.061244192369
 20
22959.520600958818
 30
0.0
 11
31496.061244192369
 21
22949.520600958818
 31
0.0
  0
LINE
  5
446
  8
FUTO
 10
31676.061244192369
 20
22959.520600958818
 30
0.0
 11
31676.061244192369
 21
21111.14678435283
 31
0.0
  0
LINE
  5
449
  8
FUTO
 10
30675.061244192369
 20
22987.520600958818
 30
0.0
 11
30675.061244192369
 21
22949.520600958818
 31
0.0
  0
LINE
  5
44A
  8
FUTO
 10
30495.061244192369
 20
22987.520600958818
 30
0.0
 11
30495.061244192369
 21
21769.520600958818
 31
0.0
  0
DIMENSION
  5
44B
  8
SP
  2
*D21
 10
33921.06938640411
 20
22209.520600958818
 30
0.0
 11
33841.069386404102
 21
23109.520600958818
 31
0.0
 70
     0
  1
%%C<>
 13
33341.061244192373
 23
24009.520600958818
 33
0.0
 14
33341.061244192373
 24
22209.520600958818
 34
0.0
 50
90.0
1001
ACAD
1000
DSTYLE
1002
{
1070
    40
1040
40.0
1002
}
  0
LINE
  5
461
  8
KL
 10
33215.26124419237
 20
24074.520600958818
 30
0.0
 11
33215.261244192377
 21
22144.520600958818
 31
0.0
  0
LINE
  5
462
  8
FUTO
 10
33335.061244192373
 20
24074.520600958818
 30
0.0
 11
33335.061244192373
 21
22144.520600958818
 31
0.0
  0
LINE
  5
463
  8
FUTO
 10
33341.061244192373
 20
24074.520600958818
 30
0.0
 11
33341.061244192373
 21
22144.520600958818
 31
0.0
  0
LINE
  5
464
  8
FUTO
 10
31792.861244192369
 20
23185.640028730519
 30
0.0
 11
31792.861244192369
 21
21111.14678435283
 31
0.0
  0
LINE
  5
465
  8
FUTO
 10
33299.26124419237
 20
23185.640028730559
 30
0.0
 11
33299.26124419237
 21
21111.14678435283
 31
0.0
  0
LINE
  5
46B
  8
FUTO
 10
31807.061244192369
 20
20809.14678435283
 30
0.0
 11
33210.057244192372
 21
20809.14678435283
 31
0.0
  0
LINE
  5
46C
  8
FUTO
 10
31807.061244192369
 20
20683.14678435283
 30
0.0
 11
33210.057244192372
 21
20683.14678435283
 31
0.0
  0
LINE
  5
46D
  8
FUTO
 10
31807.061244192369
 20
20973.14678435283
 30
0.0
 11
33210.057244192372
 21
20973.14678435283
 31
0.0
  0
LINE
  5
46E
  8
FUTO
 10
31807.061244192369
 20
21099.14678435283
 30
0.0
 11
33210.057244192372
 21
21099.14678435283
 31
0.0
  0
LINE
  5
470
  8
FUTO
 10
30435.065244192381
 20
20821.14678435283
 30
0.0
 11
33290.061244192373
 21
20821.14678435283
 31
0.0
1001
ACAD
1000
ASC_BOUNDS
1002
{
1070
    19
1002
}
  0
LINE
  5
471
  8
FUTO
 10
30435.061244192369
 20
20961.14678435283
 30
0.0
 11
33285.061244192373
 21
20961.14678435283
 31
0.0
1001
ACAD
1000
ASC_BOUNDS
1002
{
1070
    19
1005
0
1005
0
1005
0
1002
}
  0
DIMENSION
  5
472
  8
SP
  2
*D16
 10
32546.061244192369
 20
20231.66617158852
 30
0.0
 11
31490.561244192369
 21
20311.66617158852
 31
0.0
 70
     0
 13
30435.061244192369
 23
20671.14678435283
 33
0.0
 14
32546.061244192369
 24
20650.219732358899
 34
0.0
1001
ACAD
1000
DSTYLE
1002
{
1070
    40
1040
40.0
1002
}
  0
DIMENSION
  5
47F
  8
SP
  2
*D15
 10
33285.061244192373
 20
19931.628626623598
 30
0.0
 11
31860.061244192369
 21
20011.628626623598
 31
0.0
 70
     0
 13
30435.061244192369
 23
20671.14678435283
 33
0.0
 14
33285.061244192373
 24
20671.14678435283
 34
0.0
1001
ACAD
1000
DSTYLE
1002
{
1070
    40
1040
40.0
1002
}
  0
LINE
  5
48C
  8
FUTO
 10
30435.06124419238
 20
20671.14678435283
 30
0.0
 11
33285.057244192372
 21
20671.14678435283
 31
0.0
  0
LINE
  5
48D
  8
KL
 10
30435.06124419238
 20
21111.14678435283
 30
0.0
 11
33299.26124419237
 21
21111.14678435283
 31
0.0
  0
LINE
  5
48E
  8
CT
 10
30037.751972643458
 20
21459.520600958818
 30
0.0
 11
30618.254505499579
 21
21459.520600958818
 31
0.0
  0
LINE
  5
48F
  8
FUTO
 10
30404.565244192381
 20
20863.520600958818
 30
0.0
 11
30535.56524419237
 21
20863.520600958818
 31
0.0
  0
ARC
  5
490
  8
FUTO
 10
30526.565244192381
 20
20939.520600958818
 30
0.0
 40
9.0
 50
0.0
 51
90.0
  0
LINE
  5
491
  8
FUTO
 10
30510.06524419237
 20
20683.14678435283
 30
0.0
 11
31789.171348797881
 21
20683.14678435283
 31
0.0
  0
LINE
  5
492
  8
FUTO
 10
30510.06524419237
 20
20809.14678435283
 30
0.0
 11
31789.1713487979
 21
20809.14678435283
 31
0.0
  0
LINE
  5
493
  8
FUTO
 10
30510.06524419237
 20
21099.14678435283
 30
0.0
 11
31789.1713487979
 21
21099.14678435283
 31
0.0
  0
LINE
  5
494
  8
FUTO
 10
30510.06524419237
 20
20973.14678435283
 30
0.0
 11
31789.1713487979
 21
20973.14678435283
 31
0.0
  0
LINE
  5
495
  8
CT
 10
30470.06524419237
 20
20974.048584166041
 30
0.0
 11
30470.06524419237
 21
20799.841809261881
 31
0.0
  0
LINE
  5
496
  8
FUTO
 10
30513.56524419237
 20
20959.520600958818
 30
0.0
 11
30513.56524419237
 21
20948.520600958818
 31
0.0
  0
LINE
  5
497
  8
FUTO
 10
30508.56524419237
 20
20959.520600958818
 30
0.0
 11
30508.56524419237
 21
20954.520600958818
 31
0.0
  0
LINE
  5
498
  8
FUTO
 10
30426.56524419237
 20
20959.520600958818
 30
0.0
 11
30426.56524419237
 21
20948.520600958818
 31
0.0
  0
LINE
  5
499
  8
FUTO
 10
30431.565244192381
 20
20959.520600958818
 30
0.0
 11
30431.565244192381
 21
20954.520600958818
 31
0.0
  0
LINE
  5
49A
  8
FUTO
 10
30413.56524419237
 20
20948.520600958818
 30
0.0
 11
30526.565244192381
 21
20948.520600958818
 31
0.0
  0
LINE
  5
49B
  8
FUTO
 10
30431.565244192381
 20
20824.520600958818
 30
0.0
 11
30431.565244192381
 21
20819.520600958818
 31
0.0
  0
LINE
  5
49C
  8
FUTO
 10
30426.56524419237
 20
20830.683203793229
 30
0.0
 11
30426.56524419237
 21
20819.520600958818
 31
0.0
  0
LINE
  5
49D
  8
FUTO
 10
30426.56524419237
 20
20819.520600958818
 30
0.0
 11
30431.565244192381
 21
20819.520600958818
 31
0.0
  0
LINE
  5
49E
  8
FUTO
 10
30508.56524419237
 20
20824.520600958818
 30
0.0
 11
30508.56524419237
 21
20819.520600958818
 31
0.0
  0
LINE
  5
49F
  8
FUTO
 10
30508.56524419237
 20
20819.520600958818
 30
0.0
 11
30513.56524419237
 21
20819.520600958818
 31
0.0
  0
LINE
  5
4A0
  8
FUTO
 10
30513.56524419237
 20
20830.683203793229
 30
0.0
 11
30513.56524419237
 21
20819.520600958818
 31
0.0
  0
LINE
  5
4A1
  8
FUTO
 10
30431.565244192381
 20
20824.520600958818
 30
0.0
 11
30508.56524419237
 21
20824.520600958818
 31
0.0
  0
LINE
  5
4A2
  8
FUTO
 10
30519.065244192381
 20
20863.520600958818
 30
0.0
 11
30519.065244192381
 21
20837.520600958818
 31
0.0
  0
ARC
  5
4A3
  8
FUTO
 10
30512.06524419237
 20
20837.520600958818
 30
0.0
 40
7.0
 50
270.00000000000011
 51
0.0000000000000254
  0
LINE
  5
4A4
  8
FUTO
 10
30428.06524419237
 20
20830.520600958818
 30
0.0
 11
30512.06524419237
 21
20830.520600958818
 31
0.0
  0
LINE
  5
4A5
  8
FUTO
 10
30421.06524419237
 20
20863.520600958818
 30
0.0
 11
30421.06524419237
 21
20837.520600958818
 31
0.0
  0
ARC
  5
4A6
  8
FUTO
 10
30428.06524419237
 20
20837.520600958818
 30
0.0
 40
7.0
 50
179.99999999999989
 51
269.99999999999977
  0
ARC
  5
4A7
  8
FUTO
 10
30413.56524419237
 20
20939.520600958818
 30
0.0
 40
9.0
 50
89.999999999999915
 51
180.0
  0
LINE
  5
4A8
  8
FUTO
 10
30404.565244192381
 20
20939.520600958818
 30
0.0
 11
30404.565244192381
 21
20863.520600958818
 31
0.0
  0
LINE
  5
4A9
  8
FUTO
 10
30431.565244192381
 20
20954.520600958818
 30
0.0
 11
30508.56524419237
 21
20954.520600958818
 31
0.0
  0
LINE
  5
4AA
  8
FUTO
 10
30510.06524419237
 20
20821.14678435283
 30
0.0
 11
30510.06524419237
 21
20671.14678435283
 31
0.0
  0
LINE
  5
4AB
  8
FUTO
 10
30510.06524419237
 20
20671.14678435283
 30
0.0
 11
30435.065244192381
 21
20671.14678435283
 31
0.0
  0
LINE
  5
4AC
  8
FUTO
 10
30499.91386716337
 20
20683.823816982302
 30
0.0
 11
30438.716621221382
 21
20678.469751723369
 31
0.0
  0
LINE
  5
4AD
  8
FUTO
 10
30510.06524419237
 20
20821.14678435283
 30
0.0
 11
30435.065244192381
 21
20821.14678435283
 31
0.0
1001
ACAD
1000
ASC_BOUNDS
1002
{
1070
    19
1002
}
  0
LINE
  5
4AE
  8
FUTO
 10
30499.91386716337
 20
20808.469751723369
 30
0.0
 11
30438.716621221382
 21
20813.823816982302
 31
0.0
  0
LINE
  5
4AF
  8
FUTO
 10
30503.565244192381
 20
20804.484972931001
 30
0.0
 11
30503.565244192381
 21
20687.80859577467
 31
0.0
  0
ARC
  5
4B0
  8
FUTO
 10
30499.56524419237
 20
20687.80859577467
 30
0.0
 40
4.0
 50
274.99999999999972
 51
0.0
  0
LINE
  5
4B1
  8
FUTO
 10
30510.06524419237
 20
20821.14678435283
 30
0.0
 11
30510.06524419237
 21
20671.14678435283
 31
0.0
  0
ARC
  5
4B2
  8
FUTO
 10
30499.56524419237
 20
20804.484972931001
 30
0.0
 40
4.0
 50
0.0
 51
85.000000000000256
  0
ARC
  5
4B3
  8
FUTO
 10
30439.065244192381
 20
20674.484972931001
 30
0.0
 40
4.0
 50
95.000000000000185
 51
180.0
  0
LINE
  5
4B4
  8
FUTO
 10
30435.065244192381
 20
20671.14678435283
 30
0.0
 11
30435.065244192381
 21
20674.484972931001
 31
0.0
  0
LINE
  5
4B5
  8
FUTO
 10
30435.065244192381
 20
20821.14678435283
 30
0.0
 11
30435.065244192381
 21
20817.80859577467
 31
0.0
  0
ARC
  5
4B6
  8
FUTO
 10
30439.065244192381
 20
20817.80859577467
 30
0.0
 40
4.0
 50
180.0
 51
264.99999999999977
  0
ARC
  5
4B7
  8
FUTO
 10
30440.06124419238
 20
20673.568784352839
 30
0.0
 40
5.0
 50
95.001000000000005
 51
180.00099999999989
  0
LINE
  5
4B8
  8
FUTO
 10
30439.628244192369
 20
20678.549784352828
 30
0.0
 11
30494.432244192369
 21
20683.346784352841
 31
0.0
  0
LINE
  5
4B9
  8
FUTO
 10
30435.061244192369
 20
20671.14678435283
 30
0.0
 11
30435.061244192369
 21
20673.568784352839
 31
0.0
  0
LINE
  5
4BA
  8
FUTO
 10
30435.061244192369
 20
20671.14678435283
 30
0.0
 11
30510.061244192369
 21
20671.14678435283
 31
0.0
  0
LINE
  5
4BB
  8
SL
 10
30416.061244192369
 20
21569.520600958818
 30
0.0
 11
30416.061244192369
 21
21319.520600958818
 31
0.0
  0
LINE
  5
4BC
  8
SL
 10
30246.061244192369
 20
21569.520600958818
 30
0.0
 11
30246.061244192369
 21
21319.520600958818
 31
0.0
  0
LINE
  5
4BD
  8
SL
 10
30246.061244192369
 20
21319.520600958818
 30
0.0
 11
30416.061244192369
 21
21319.520600958818
 31
0.0
  0
LINE
  5
4BE
  8
FUTO
 10
30096.061244192369
 20
21209.520600958818
 30
0.0
 11
30446.061244192369
 21
21209.520600958818
 31
0.0
  0
LINE
  5
4BF
  8
FUTO
 10
30508.56524419237
 20
20959.520600958818
 30
0.0
 11
30513.56524419237
 21
20959.520600958818
 31
0.0
  0
LINE
  5
4C0
  8
FUTO
 10
30426.56524419237
 20
20959.520600958818
 30
0.0
 11
30431.565244192381
 21
20959.520600958818
 31
0.0
  0
LINE
  5
4C1
  8
FUTO
 10
30435.061244192369
 20
20961.14678435283
 30
0.0
 11
30510.061244192369
 21
20961.14678435283
 31
0.0
  0
LINE
  5
4C2
  8
FUTO
 10
30435.061244192369
 20
20961.14678435283
 30
0.0
 11
30435.061244192369
 21
20963.568784352839
 31
0.0
  0
LINE
  5
4C3
  8
FUTO
 10
30439.628244192369
 20
20968.549784352828
 30
0.0
 11
30494.432244192369
 21
20973.346784352831
 31
0.0
  0
ARC
  5
4C4
  8
FUTO
 10
30439.065244192381
 20
21107.80859577467
 30
0.0
 40
4.0
 50
180.0
 51
264.99999999999977
  0
LINE
  5
4C5
  8
FUTO
 10
30435.065244192381
 20
21111.14678435283
 30
0.0
 11
30435.065244192381
 21
21107.80859577467
 31
0.0
  0
LINE
  5
4C6
  8
FUTO
 10
30435.065244192381
 20
20961.14678435283
 30
0.0
 11
30435.065244192381
 21
20964.484972931001
 31
0.0
  0
ARC
  5
4C7
  8
FUTO
 10
30439.065244192381
 20
20964.484972931001
 30
0.0
 40
4.0
 50
95.000000000000185
 51
180.0
  0
ARC
  5
4C8
  8
FUTO
 10
30499.56524419237
 20
21094.484972931001
 30
0.0
 40
4.0
 50
0.0
 51
85.000000000000256
  0
LINE
  5
4C9
  8
FUTO
 10
30510.06524419237
 20
21111.14678435283
 30
0.0
 11
30510.06524419237
 21
20961.14678435283
 31
0.0
  0
ARC
  5
4CA
  8
FUTO
 10
30499.56524419237
 20
20977.80859577467
 30
0.0
 40
4.0
 50
274.99999999999972
 51
0.0
  0
LINE
  5
4CB
  8
FUTO
 10
30503.565244192381
 20
21094.484972931001
 30
0.0
 11
30503.565244192381
 21
20977.80859577467
 31
0.0
  0
LINE
  5
4CC
  8
FUTO
 10
30499.91386716337
 20
21098.469751723369
 30
0.0
 11
30438.716621221382
 21
21103.823816982302
 31
0.0
  0
LINE
  5
4CD
  8
FUTO
 10
30510.06524419237
 20
21111.14678435283
 30
0.0
 11
30435.065244192381
 21
21111.14678435283
 31
0.0
  0
LINE
  5
4CE
  8
FUTO
 10
30499.91386716337
 20
20973.823816982302
 30
0.0
 11
30438.716621221382
 21
20968.469751723369
 31
0.0
  0
LINE
  5
4CF
  8
FUTO
 10
30510.06524419237
 20
20961.14678435283
 30
0.0
 11
30435.065244192381
 21
20961.14678435283
 31
0.0
  0
LINE
  5
4D0
  8
FUTO
 10
30510.06524419237
 20
21111.14678435283
 30
0.0
 11
30510.06524419237
 21
20961.14678435283
 31
0.0
  0
LINE
  5
4D1
  8
SL
 10
30246.061244192369
 20
21599.520600958818
 30
0.0
 11
30416.061244192369
 21
21599.520600958818
 31
0.0
  0
LINE
  5
4D4
  8
FUTO
 10
30535.56524419237
 20
20939.520600958818
 30
0.0
 11
30535.56524419237
 21
20863.520600958818
 31
0.0
  0
LINE
  5
4D5
  8
CT
 10
31767.061244192369
 20
20974.048584166041
 30
0.0
 11
31767.061244192369
 21
20799.841809261881
 31
0.0
  0
LINE
  5
4D6
  8
FUTO
 10
31810.561244192369
 20
20959.520600958818
 30
0.0
 11
31810.561244192369
 21
20948.520600958818
 31
0.0
  0
LINE
  5
4D7
  8
FUTO
 10
31805.561244192369
 20
20959.520600958818
 30
0.0
 11
31805.561244192369
 21
20954.520600958818
 31
0.0
  0
LINE
  5
4D8
  8
FUTO
 10
31723.561244192369
 20
20959.520600958818
 30
0.0
 11
31723.561244192369
 21
20948.520600958818
 31
0.0
  0
LINE
  5
4D9
  8
FUTO
 10
31728.561244192369
 20
20959.520600958818
 30
0.0
 11
31728.561244192369
 21
20954.520600958818
 31
0.0
  0
LINE
  5
4DA
  8
FUTO
 10
31805.561244192369
 20
20819.520600958818
 30
0.0
 11
31810.561244192369
 21
20819.520600958818
 31
0.0
  0
LINE
  5
4DB
  8
FUTO
 10
31725.061244192369
 20
20830.520600958818
 30
0.0
 11
31809.061244192369
 21
20830.520600958818
 31
0.0
  0
LINE
  5
4DC
  8
1
 10
31732.862244192369
 20
20671.14678435283
 30
0.0
 11
31807.862244192369
 21
20671.14678435283
 31
0.0
  0
LINE
  5
4DD
  8
FUTO
 10
31710.561244192369
 20
20948.520600958818
 30
0.0
 11
31823.561244192369
 21
20948.520600958818
 31
0.0
  0
LINE
  5
4DE
  8
FUTO
 10
31701.561244192369
 20
20863.520600958818
 30
0.0
 11
31832.561244192369
 21
20863.520600958818
 31
0.0
  0
LINE
  5
4DF
  8
FUTO
 10
31728.561244192369
 20
20824.520600958818
 30
0.0
 11
31728.561244192369
 21
20819.520600958818
 31
0.0
  0
LINE
  5
4E0
  8
FUTO
 10
31723.561244192369
 20
20830.683203793229
 30
0.0
 11
31723.561244192369
 21
20819.520600958818
 31
0.0
  0
LINE
  5
4E1
  8
FUTO
 10
31723.561244192369
 20
20819.520600958818
 30
0.0
 11
31728.561244192369
 21
20819.520600958818
 31
0.0
  0
LINE
  5
4E2
  8
FUTO
 10
31805.561244192369
 20
20824.520600958818
 30
0.0
 11
31805.561244192369
 21
20819.520600958818
 31
0.0
  0
LINE
  5
4E3
  8
FUTO
 10
31728.561244192369
 20
20824.520600958818
 30
0.0
 11
31805.561244192369
 21
20824.520600958818
 31
0.0
  0
LINE
  5
4E4
  8
FUTO
 10
31718.061244192369
 20
20863.520600958818
 30
0.0
 11
31718.061244192369
 21
20837.520600958818
 31
0.0
  0
ARC
  5
4E5
  8
FUTO
 10
31725.061244192369
 20
20837.520600958818
 30
0.0
 40
7.0
 50
179.99999999999989
 51
269.99999999999977
  0
ARC
  5
4E6
  8
FUTO
 10
31710.561244192369
 20
20939.520600958818
 30
0.0
 40
9.0
 50
89.999999999999915
 51
180.0
  0
LINE
  5
4E7
  8
FUTO
 10
31701.561244192369
 20
20939.520600958818
 30
0.0
 11
31701.561244192369
 21
20863.520600958818
 31
0.0
  0
LINE
  5
4E8
  8
FUTO
 10
31728.561244192369
 20
20954.520600958818
 30
0.0
 11
31805.561244192369
 21
20954.520600958818
 31
0.0
  0
LINE
  5
4E9
  8
FUTO
 10
31807.061244192369
 20
20671.14678435283
 30
0.0
 11
31732.061244192369
 21
20671.14678435283
 31
0.0
  0
LINE
  5
4EA
  8
FUTO
 10
31796.909867163358
 20
20683.823816982302
 30
0.0
 11
31735.712621221381
 21
20678.469751723369
 31
0.0
  0
LINE
  5
4EB
  8
FUTO
 10
31732.057244192369
 20
20671.14678435283
 30
0.0
 11
31807.057244192369
 21
20671.14678435283
 31
0.0
  0
LINE
  5
4EC
  8
FUTO
 10
31807.061244192369
 20
20821.14678435283
 30
0.0
 11
31732.061244192369
 21
20821.14678435283
 31
0.0
  0
LINE
  5
4ED
  8
FUTO
 10
31796.909867163358
 20
20808.469751723369
 30
0.0
 11
31735.712621221381
 21
20813.823816982302
 31
0.0
  0
ARC
  5
4EE
  8
FUTO
 10
31736.061244192369
 20
20674.484972931001
 30
0.0
 40
4.0
 50
95.000000000000185
 51
180.0
  0
LINE
  5
4EF
  8
FUTO
 10
31732.061244192369
 20
20671.14678435283
 30
0.0
 11
31732.061244192369
 21
20674.484972931001
 31
0.0
  0
LINE
  5
4F0
  8
FUTO
 10
31732.057244192369
 20
20671.14678435283
 30
0.0
 11
31732.057244192369
 21
20673.568784352839
 31
0.0
  0
LINE
  5
4F1
  8
FUTO
 10
31732.061244192369
 20
20821.14678435283
 30
0.0
 11
31732.061244192369
 21
20817.80859577467
 31
0.0
  0
ARC
  5
4F2
  8
FUTO
 10
31736.061244192369
 20
20817.80859577467
 30
0.0
 40
4.0
 50
180.0
 51
264.99999999999972
  0
LINE
  5
4F3
  8
FUTO
 10
31736.624244192371
 20
20678.549784352828
 30
0.0
 11
31791.428244192371
 21
20683.346784352841
 31
0.0
  0
LINE
  5
4F4
  8
FUTO
 10
31807.061244192369
 20
20821.14678435283
 30
0.0
 11
31807.061244192369
 21
20671.14678435283
 31
0.0
  0
LINE
  5
4F5
  8
FUTO
 10
31800.56124419238
 20
20804.484972931001
 30
0.0
 11
31800.56124419238
 21
20687.80859577467
 31
0.0
  0
LINE
  5
4F6
  8
FUTO
 10
31807.061244192369
 20
20821.14678435283
 30
0.0
 11
31807.061244192369
 21
20671.14678435283
 31
0.0
  0
ARC
  5
4F7
  8
FUTO
 10
31796.561244192369
 20
20687.80859577467
 30
0.0
 40
4.0
 50
275.0
 51
0.0
  0
ARC
  5
4F8
  8
FUTO
 10
31796.561244192369
 20
20804.484972931001
 30
0.0
 40
4.0
 50
0.0
 51
84.999999999999957
  0
ARC
  5
4F9
  8
FUTO
 10
31823.561244192369
 20
20939.520600958818
 30
0.0
 40
9.0
 50
0.0
 51
90.0
  0
LINE
  5
4FA
  8
FUTO
 10
31832.561244192369
 20
20939.520600958818
 30
0.0
 11
31832.561244192369
 21
20863.520600958818
 31
0.0
  0
LINE
  5
4FB
  8
FUTO
 10
31810.561244192369
 20
20830.683203793229
 30
0.0
 11
31810.561244192369
 21
20819.520600958818
 31
0.0
  0
LINE
  5
4FC
  8
FUTO
 10
31816.061244192369
 20
20863.520600958818
 30
0.0
 11
31816.061244192369
 21
20837.520600958818
 31
0.0
  0
ARC
  5
4FD
  8
FUTO
 10
31809.061244192369
 20
20837.520600958818
 30
0.0
 40
7.0
 50
270.00000000000011
 51
0.0000000000000254
  0
LINE
  5
4FE
  8
FUTO
 10
31805.561244192369
 20
20959.520600958818
 30
0.0
 11
31810.561244192369
 21
20959.520600958818
 31
0.0
  0
LINE
  5
4FF
  8
1
 10
31732.862244192369
 20
20961.14678435283
 30
0.0
 11
31807.862244192369
 21
20961.14678435283
 31
0.0
  0
LINE
  5
500
  8
FUTO
 10
31723.561244192369
 20
20959.520600958818
 30
0.0
 11
31728.561244192369
 21
20959.520600958818
 31
0.0
  0
LINE
  5
501
  8
FUTO
 10
31807.061244192369
 20
21111.14678435283
 30
0.0
 11
31732.061244192369
 21
21111.14678435283
 31
0.0
  0
LINE
  5
502
  8
FUTO
 10
31796.909867163358
 20
21098.469751723369
 30
0.0
 11
31735.712621221381
 21
21103.823816982302
 31
0.0
  0
ARC
  5
503
  8
FUTO
 10
31796.561244192369
 20
21094.484972931001
 30
0.0
 40
4.0
 50
0.0
 51
84.999999999999957
  0
LINE
  5
504
  8
FUTO
 10
31732.061244192369
 20
21111.14678435283
 30
0.0
 11
31732.061244192369
 21
21107.80859577467
 31
0.0
  0
ARC
  5
505
  8
FUTO
 10
31736.061244192369
 20
21107.80859577467
 30
0.0
 40
4.0
 50
180.0
 51
264.99999999999972
  0
LINE
  5
506
  8
FUTO
 10
31807.061244192369
 20
20961.14678435283
 30
0.0
 11
31732.061244192369
 21
20961.14678435283
 31
0.0
  0
LINE
  5
507
  8
FUTO
 10
31796.909867163358
 20
20973.823816982302
 30
0.0
 11
31735.712621221381
 21
20968.469751723369
 31
0.0
  0
ARC
  5
508
  8
FUTO
 10
31796.561244192369
 20
20977.80859577467
 30
0.0
 40
4.0
 50
275.0
 51
0.0
  0
ARC
  5
509
  8
FUTO
 10
31736.061244192369
 20
20964.484972931001
 30
0.0
 40
4.0
 50
95.000000000000185
 51
180.0
  0
LINE
  5
50A
  8
FUTO
 10
31732.061244192369
 20
20961.14678435283
 30
0.0
 11
31732.061244192369
 21
20964.484972931001
 31
0.0
  0
LINE
  5
50B
  8
FUTO
 10
31732.057244192369
 20
20961.14678435283
 30
0.0
 11
31732.057244192369
 21
20963.568784352839
 31
0.0
  0
LINE
  5
50C
  8
FUTO
 10
31736.624244192371
 20
20968.549784352828
 30
0.0
 11
31791.428244192371
 21
20973.346784352831
 31
0.0
  0
LINE
  5
50D
  8
FUTO
 10
31732.057244192369
 20
20961.14678435283
 30
0.0
 11
31807.057244192369
 21
20961.14678435283
 31
0.0
  0
LINE
  5
50E
  8
FUTO
 10
31807.061244192369
 20
21111.14678435283
 30
0.0
 11
31807.061244192369
 21
20961.14678435283
 31
0.0
  0
LINE
  5
50F
  8
FUTO
 10
31800.56124419238
 20
21094.484972931001
 30
0.0
 11
31800.56124419238
 21
20977.80859577467
 31
0.0
  0
LINE
  5
510
  8
FUTO
 10
31807.061244192369
 20
21111.14678435283
 30
0.0
 11
31807.061244192369
 21
20961.14678435283
 31
0.0
  0
DIMENSION
  5
517
  8
SP
  2
*D17
 10
33285.061244192373
 20
20231.66617158852
 30
0.0
 11
32915.561244192373
 21
20311.66617158852
 31
0.0
 70
     0
 13
32546.061244192369
 23
20650.219732358899
 33
0.0
 14
33285.061244192373
 24
20671.14678435283
 34
0.0
1001
ACAD
1000
DSTYLE
1002
{
1070
   287
1070
     4
1070
    40
1040
40.0
1070
    75
1070
     1
1070
   279
1070
     1
1070
   289
1070
     3
1002
}
  0
LINE
  5
525
  8
FUTO
 10
33211.561244192373
 20
20959.520600958818
 30
0.0
 11
33211.561244192373
 21
20954.520600958818
 31
0.0
  0
LINE
  5
526
  8
FUTO
 10
33206.561244192373
 20
20959.520600958818
 30
0.0
 11
33206.561244192373
 21
20948.520600958818
 31
0.0
  0
LINE
  5
527
  8
FUTO
 10
33288.561244192373
 20
20959.520600958818
 30
0.0
 11
33288.561244192373
 21
20954.520600958818
 31
0.0
  0
LINE
  5
528
  8
FUTO
 10
33293.561244192373
 20
20959.520600958818
 30
0.0
 11
33293.561244192373
 21
20948.520600958818
 31
0.0
  0
LINE
  5
529
  8
CT
 10
33250.061244192373
 20
20974.048584166041
 30
0.0
 11
33250.061244192373
 21
20799.841809261881
 31
0.0
  0
ARC
  5
52A
  8
FUTO
 10
33292.061244192373
 20
20837.520600958818
 30
0.0
 40
7.0
 50
270.00000000000011
 51
0.0000000000000254
  0
LINE
  5
52B
  8
FUTO
 10
33184.561244192373
 20
20863.520600958818
 30
0.0
 11
33315.561244192373
 21
20863.520600958818
 31
0.0
  0
LINE
  5
52C
  8
FUTO
 10
33193.561244192373
 20
20948.520600958818
 30
0.0
 11
33306.561244192373
 21
20948.520600958818
 31
0.0
  0
LINE
  5
52D
  8
FUTO
 10
33211.561244192373
 20
20954.520600958818
 30
0.0
 11
33288.561244192373
 21
20954.520600958818
 31
0.0
  0
LINE
  5
52E
  8
FUTO
 10
33184.561244192373
 20
20939.520600958818
 30
0.0
 11
33184.561244192373
 21
20863.520600958818
 31
0.0
  0
ARC
  5
52F
  8
FUTO
 10
33193.561244192373
 20
20939.520600958818
 30
0.0
 40
9.0
 50
89.999999999999915
 51
180.0
  0
ARC
  5
530
  8
FUTO
 10
33208.061244192373
 20
20837.520600958818
 30
0.0
 40
7.0
 50
179.99999999999989
 51
269.99999999999977
  0
LINE
  5
531
  8
FUTO
 10
33201.061244192373
 20
20863.520600958818
 30
0.0
 11
33201.061244192373
 21
20837.520600958818
 31
0.0
  0
LINE
  5
532
  8
FUTO
 10
33208.061244192373
 20
20830.520600958818
 30
0.0
 11
33292.061244192373
 21
20830.520600958818
 31
0.0
  0
LINE
  5
533
  8
FUTO
 10
33211.561244192373
 20
20824.520600958818
 30
0.0
 11
33288.561244192373
 21
20824.520600958818
 31
0.0
  0
LINE
  5
534
  8
FUTO
 10
33293.561244192373
 20
20830.683203793229
 30
0.0
 11
33293.561244192373
 21
20819.520600958818
 31
0.0
  0
LINE
  5
535
  8
FUTO
 10
33288.561244192373
 20
20819.520600958818
 30
0.0
 11
33293.561244192373
 21
20819.520600958818
 31
0.0
  0
LINE
  5
536
  8
FUTO
 10
33288.561244192373
 20
20824.520600958818
 30
0.0
 11
33288.561244192373
 21
20819.520600958818
 31
0.0
  0
LINE
  5
537
  8
FUTO
 10
33206.561244192373
 20
20819.520600958818
 30
0.0
 11
33211.561244192373
 21
20819.520600958818
 31
0.0
  0
LINE
  5
538
  8
FUTO
 10
33206.561244192373
 20
20830.683203793229
 30
0.0
 11
33206.561244192373
 21
20819.520600958818
 31
0.0
  0
LINE
  5
539
  8
FUTO
 10
33211.561244192373
 20
20824.520600958818
 30
0.0
 11
33211.561244192373
 21
20819.520600958818
 31
0.0
  0
LINE
  5
53A
  8
FUTO
 10
33285.061244192373
 20
20671.14678435283
 30
0.0
 11
33210.061244192373
 21
20671.14678435283
 31
0.0
  0
LINE
  5
53B
  8
FUTO
 10
33280.494244192378
 20
20678.549784352828
 30
0.0
 11
33225.690244192367
 21
20683.346784352841
 31
0.0
  0
LINE
  5
53C
  8
1
 10
33284.25624419238
 20
20671.14678435283
 30
0.0
 11
33209.256244192373
 21
20671.14678435283
 31
0.0
  0
LINE
  5
53D
  8
FUTO
 10
33220.208621221384
 20
20683.823816982302
 30
0.0
 11
33281.405867163368
 21
20678.469751723369
 31
0.0
  0
LINE
  5
53E
  8
FUTO
 10
33210.057244192372
 20
20671.14678435283
 30
0.0
 11
33285.057244192372
 21
20671.14678435283
 31
0.0
  0
LINE
  5
53F
  8
FUTO
 10
33220.208621221384
 20
20808.469751723369
 30
0.0
 11
33281.405867163368
 21
20813.823816982302
 31
0.0
  0
LINE
  5
540
  8
FUTO
 10
33210.057244192372
 20
20821.14678435283
 30
0.0
 11
33285.057244192372
 21
20821.14678435283
 31
0.0
1001
ACAD
1000
ASC_BOUNDS
1002
{
1070
    19
1005
0
1002
}
  0
LINE
  5
541
  8
FUTO
 10
33210.057244192372
 20
20821.14678435283
 30
0.0
 11
33210.057244192372
 21
20671.14678435283
 31
0.0
  0
LINE
  5
542
  8
FUTO
 10
33216.557244192372
 20
20804.484972931001
 30
0.0
 11
33216.557244192372
 21
20687.80859577467
 31
0.0
  0
LINE
  5
543
  8
FUTO
 10
33210.057244192372
 20
20821.14678435283
 30
0.0
 11
33210.057244192372
 21
20671.14678435283
 31
0.0
  0
ARC
  5
544
  8
FUTO
 10
33220.557244192372
 20
20687.80859577467
 30
0.0
 40
4.0
 50
180.0
 51
264.99999999999989
  0
ARC
  5
545
  8
FUTO
 10
33220.557244192372
 20
20804.484972931001
 30
0.0
 40
4.0
 50
95.000000000000057
 51
180.0
  0
LINE
  5
546
  8
FUTO
 10
33285.061244192373
 20
20671.14678435283
 30
0.0
 11
33285.061244192373
 21
20673.568784352839
 31
0.0
  0
LINE
  5
547
  8
FUTO
 10
33285.057244192372
 20
20671.14678435283
 30
0.0
 11
33285.057244192372
 21
20674.484972931001
 31
0.0
  0
ARC
  5
548
  8
FUTO
 10
33281.057244192372
 20
20674.484972931001
 30
0.0
 40
4.0
 50
0.0
 51
84.999999999999801
  0
ARC
  5
549
  8
FUTO
 10
33281.057244192372
 20
20817.80859577467
 30
0.0
 40
4.0
 50
275.00000000000011
 51
0.0
  0
LINE
  5
54A
  8
FUTO
 10
33285.057244192372
 20
20821.14678435283
 30
0.0
 11
33285.057244192372
 21
20817.80859577467
 31
0.0
  0
LINE
  5
54B
  8
FUTO
 10
33315.561244192373
 20
20939.520600958818
 30
0.0
 11
33315.561244192373
 21
20863.520600958818
 31
0.0
  0
ARC
  5
54C
  8
FUTO
 10
33306.561244192373
 20
20939.520600958818
 30
0.0
 40
9.0
 50
0.0
 51
90.0
  0
LINE
  5
54D
  8
FUTO
 10
33299.061244192373
 20
20863.520600958818
 30
0.0
 11
33299.061244192373
 21
20837.520600958818
 31
0.0
  0
LINE
  5
551
  8
FUTO
 10
33206.561244192373
 20
20959.520600958818
 30
0.0
 11
33211.561244192373
 21
20959.520600958818
 31
0.0
  0
LINE
  5
552
  8
FUTO
 10
33288.561244192373
 20
20959.520600958818
 30
0.0
 11
33293.561244192373
 21
20959.520600958818
 31
0.0
  0
LINE
  5
554
  8
FUTO
 10
33285.061244192373
 20
20961.14678435283
 30
0.0
 11
33210.061244192373
 21
20961.14678435283
 31
0.0
  0
LINE
  5
555
  8
FUTO
 10
33280.494244192378
 20
20968.549784352828
 30
0.0
 11
33225.690244192367
 21
20973.346784352831
 31
0.0
  0
LINE
  5
556
  8
FUTO
 10
33285.061244192373
 20
20961.14678435283
 30
0.0
 11
33285.061244192373
 21
20963.568784352839
 31
0.0
  0
LINE
  5
557
  8
1
 10
33284.25624419238
 20
20961.14678435283
 30
0.0
 11
33209.256244192373
 21
20961.14678435283
 31
0.0
  0
ARC
  5
558
  8
FUTO
 10
33281.057244192372
 20
21107.80859577467
 30
0.0
 40
4.0
 50
275.00000000000011
 51
0.0
  0
LINE
  5
559
  8
FUTO
 10
33285.057244192372
 20
21111.14678435283
 30
0.0
 11
33285.057244192372
 21
21107.80859577467
 31
0.0
  0
LINE
  5
55A
  8
FUTO
 10
33285.057244192372
 20
20961.14678435283
 30
0.0
 11
33285.057244192372
 21
20964.484972931001
 31
0.0
  0
ARC
  5
55B
  8
FUTO
 10
33281.057244192372
 20
20964.484972931001
 30
0.0
 40
4.0
 50
0.0
 51
84.999999999999801
  0
ARC
  5
55C
  8
FUTO
 10
33220.557244192372
 20
21094.484972931001
 30
0.0
 40
4.0
 50
95.000000000000057
 51
180.0
  0
LINE
  5
55D
  8
FUTO
 10
33210.057244192372
 20
21111.14678435283
 30
0.0
 11
33210.057244192372
 21
20961.14678435283
 31
0.0
  0
ARC
  5
55E
  8
FUTO
 10
33220.557244192372
 20
20977.80859577467
 30
0.0
 40
4.0
 50
180.0
 51
264.99999999999989
  0
LINE
  5
55F
  8
FUTO
 10
33216.557244192372
 20
21094.484972931001
 30
0.0
 11
33216.557244192372
 21
20977.80859577467
 31
0.0
  0
LINE
  5
560
  8
FUTO
 10
33220.208621221384
 20
21098.469751723369
 30
0.0
 11
33281.405867163368
 21
21103.823816982302
 31
0.0
  0
LINE
  5
561
  8
FUTO
 10
33210.057244192372
 20
21111.14678435283
 30
0.0
 11
33285.057244192372
 21
21111.14678435283
 31
0.0
  0
LINE
  5
562
  8
FUTO
 10
33220.208621221384
 20
20973.823816982302
 30
0.0
 11
33281.405867163368
 21
20968.469751723369
 31
0.0
  0
LINE
  5
563
  8
FUTO
 10
33210.057244192372
 20
20961.14678435283
 30
0.0
 11
33285.057244192372
 21
20961.14678435283
 31
0.0
  0
LINE
  5
564
  8
FUTO
 10
33210.057244192372
 20
21111.14678435283
 30
0.0
 11
33210.057244192372
 21
20961.14678435283
 31
0.0
  0
LINE
  5
56B
  8
KL
 10
33209.261244192377
 20
22203.520600958818
 30
0.0
 11
33299.26124419237
 21
22203.520600958818
 31
0.0
  0
LINE
  5
56C
  8
KL
 10
33209.261244192377
 20
22209.520600958818
 30
0.0
 11
33341.061244192373
 21
22209.520600958818
 31
0.0
  0
LINE
  5
56D
  8
HOSO
 10
33166.727234581449
 20
22169.520600958818
 30
0.0
 11
33240.834849729719
 21
22169.520600958818
 31
0.0
  0
LINE
  5
56E
  8
KL
 10
33209.261244192377
 20
22144.520600958818
 30
0.0
 11
33215.261244192377
 21
22144.520600958818
 31
0.0
  0
LINE
  5
56F
  8
FUTO
 10
33299.26124419237
 20
22203.520600958818
 30
0.0
 11
33341.061244192373
 21
22203.520600958818
 31
0.0
  0
LINE
  5
570
  8
FUTO
 10
33335.061244192373
 20
22144.520600958818
 30
0.0
 11
33341.061244192373
 21
22144.520600958818
 31
0.0
  0
LINE
  5
571
  8
HOSO
 10
33307.578698006349
 20
22169.520600958818
 30
0.0
 11
33381.686313154612
 21
22169.520600958818
 31
0.0
  0
LINE
  5
600
  8
FUTO
 10
31817.861244192409
 20
23201.659184036282
 30
0.0
 11
33274.261244192399
 21
23201.659184036282
 31
0.0
  0
LINE
  5
601
  8
FUTO
 10
31817.861244192409
 20
23219.659184036282
 30
0.0
 11
33274.261244192399
 21
23219.659184036282
 31
0.0
  0
LINE
  5
61E
  8
CT
 10
30044.135122507589
 20
23109.520600958818
 30
0.0
 11
33540.056547364598
 21
23109.520600958818
 31
0.0
  0
LINE
  5
623
  8
FUTO
 10
30651.56124419238
 20
23213.520600958818
 30
0.0
 11
30518.561244192369
 21
23213.520600958818
 31
0.0
  0
LINE
  5
624
  8
FUTO
 10
30518.561244192369
 20
23005.520600958818
 30
0.0
 11
30530.061244192369
 21
23005.520600958818
 31
0.0
  0
ARC
  5
625
  8
FUTO
 10
30536.061244192369
 20
23027.520600958818
 30
0.0
 40
6.0
 50
90.0
 51
180.0
  0
LINE
  5
626
  8
FUTO
 10
30495.061244192369
 20
22987.520600958818
 30
0.0
 11
30675.061244192369
 21
22987.520600958818
 31
0.0
  0
ARC
  5
628
  8
FUTO
 10
30518.561244192369
 20
23207.520600958818
 30
0.0
 40
6.0
 50
90.0
 51
180.0
  0
LINE
  5
62A
  8
FUTO
 10
30512.561244192369
 20
23199.520600958818
 30
0.0
 11
30507.561244192369
 21
23199.520600958818
 31
0.0
  0
ARC
  5
62B
  8
FUTO
 10
30518.561244192369
 20
23011.520600958818
 30
0.0
 40
6.0
 50
180.0
 51
270.0
  0
LINE
  5
62C
  8
FUTO
 10
30507.561244192369
 20
23019.520600958818
 30
0.0
 11
30512.561244192369
 21
23019.520600958818
 31
0.0
  0
LINE
  5
62D
  8
FUTO
 10
30512.561244192369
 20
23207.520600958818
 30
0.0
 11
30512.561244192369
 21
23011.520600958818
 31
0.0
  0
LINE
  5
62E
  8
FUTO
 10
30507.561244192369
 20
23199.520600958818
 30
0.0
 11
30507.561244192369
 21
23019.520600958818
 31
0.0
  0
LINE
  5
62F
  8
FUTO
 10
30416.061244192369
 20
23062.020600958818
 30
0.0
 11
30507.561244192369
 21
23062.020600958818
 31
0.0
  0
LINE
  5
630
  8
FUTO
 10
30416.061244192369
 20
23157.020600958818
 30
0.0
 11
30507.561244192369
 21
23157.020600958818
 31
0.0
  0
LINE
  5
631
  8
SL
 10
30246.061244192369
 20
23389.520600958818
 30
0.0
 11
30416.061244192369
 21
23389.520600958818
 31
0.0
  0
LINE
  5
632
  8
FUTO
 10
30096.061244192369
 20
23489.520600958818
 30
0.0
 11
30446.061244192369
 21
23489.520600958818
 31
0.0
  0
LINE
  5
636
  8
FUTO
 10
31882.861244192369
 20
23178.220600958819
 30
0.0
 11
31882.861244192369
 21
24396.34198561524
 31
0.0
  0
LINE
  5
637
  8
FUTO
 10
31886.061244192369
 20
23178.220600958819
 30
0.0
 11
31886.061244192369
 21
24396.34198561524
 31
0.0
  0
LINE
  5
638
  8
FUTO
 10
31817.861244192369
 20
24396.34198561524
 30
0.0
 11
31817.861244192361
 21
23201.65918403626
 31
0.0
  0
LINE
  5
63B
  8
SL
 10
31465.57286551845
 20
23325.59527076907
 30
0.0
 11
30700.194908720761
 21
23325.59527076907
 31
0.0
  0
LINE
  5
63D
  8
FUTO
 10
31496.061244192369
 20
22949.520600958818
 30
0.0
 11
30675.061244192369
 21
22949.520600958818
 31
0.0
  0
LINE
  5
63E
  8
FUTO
 10
30662.561244192369
 20
23057.020600958818
 30
0.0
 11
31492.561244192369
 21
23057.020600958818
 31
0.0
  0
LINE
  5
63F
  8
FUTO
 10
30662.561244192369
 20
23162.020600958818
 30
0.0
 11
31492.561244192369
 21
23162.020600958818
 31
0.0
  0
LINE
  5
640
  8
SL
 10
30700.194908720761
 20
23325.59527076907
 30
0.0
 11
30700.194908720761
 21
22949.520600958818
 31
0.0
  0
LINE
  5
641
  8
CT
 10
30585.061244192369
 20
23290.586515378451
 30
0.0
 11
30585.061244192369
 21
22900.586347433029
 31
0.0
  0
ARC
  5
642
  8
FUTO
 10
30651.56124419238
 20
23207.520600958818
 30
0.0
 40
6.0
 50
0.0
 51
90.0
  0
LINE
  5
643
  8
FUTO
 10
30640.06124419238
 20
23213.520600958818
 30
0.0
 11
30640.06124419238
 21
22987.520600958818
 31
0.0
  0
LINE
  5
644
  8
FUTO
 10
30530.061244192369
 20
23213.520600958818
 30
0.0
 11
30530.061244192369
 21
22987.520600958818
 31
0.0
  0
LINE
  5
645
  8
CT
 10
30585.061244192369
 20
23233.28936012353
 30
0.0
 11
30585.061244192369
 21
22979.696877056689
 31
0.0
  0
LINE
  5
646
  8
FUTO
 10
30657.561244192369
 20
23199.520600958818
 30
0.0
 11
30662.561244192369
 21
23199.520600958818
 31
0.0
  0
LINE
  5
647
  8
FUTO
 10
30662.561244192369
 20
23019.520600958818
 30
0.0
 11
30657.561244192369
 21
23019.520600958818
 31
0.0
  0
ARC
  5
648
  8
FUTO
 10
30651.56124419238
 20
23011.520600958818
 30
0.0
 40
6.0
 50
270.0
 51
0.0
  0
LINE
  5
649
  8
FUTO
 10
30651.56124419238
 20
23005.520600958818
 30
0.0
 11
30640.06124419238
 21
23005.520600958818
 31
0.0
  0
ARC
  5
64A
  8
FUTO
 10
30634.061244192369
 20
23027.520600958818
 30
0.0
 40
6.0
 50
0.0
 51
90.0
  0
LINE
  5
64B
  8
FUTO
 10
30662.561244192369
 20
23199.520600958818
 30
0.0
 11
30662.561244192369
 21
23019.520600958818
 31
0.0
  0
LINE
  5
64C
  8
FUTO
 10
30657.561244192369
 20
23207.520600958818
 30
0.0
 11
30657.561244192369
 21
23011.520600958818
 31
0.0
  0
LINE
  5
64D
  8
FUTO
 10
30530.061244192369
 20
22997.520600958818
 30
0.0
 11
30640.06124419238
 21
22997.520600958818
 31
0.0
  0
LINE
  5
64E
  8
FUTO
 10
30634.061244192369
 20
23033.520600958818
 30
0.0
 11
30536.061244192369
 21
23033.520600958818
 31
0.0
  0
LINE
  5
653
  8
SL
 10
31465.57286551845
 20
23325.59527076907
 30
0.0
 11
31465.57286551845
 21
22949.520600958818
 31
0.0
  0
LINE
  5
654
  8
CT
 10
31586.061244192369
 20
23318.291429039062
 30
0.0
 11
31586.061244192369
 21
22868.619125271471
 31
0.0
  0
LINE
  5
655
  8
FUTO
 10
31664.561244192369
 20
23217.020600958818
 30
0.0
 11
31679.561244192369
 21
23193.520600958818
 31
0.0
  0
LINE
  5
656
  8
FUTO
 10
31652.561244192369
 20
23239.520600958818
 30
0.0
 11
31652.561244192369
 21
23024.520600958818
 31
0.0
  0
LINE
  5
657
  8
FUTO
 10
31652.561244192369
 20
23014.520600958818
 30
0.0
 11
31652.561244192369
 21
23239.520537764431
 31
0.0
  0
LINE
  5
658
  8
FUTO
 10
31664.561244192369
 20
22979.520600958818
 30
0.0
 11
31664.561244192369
 21
23239.520600958818
 31
0.0
  0
LINE
  5
659
  8
FUTO
 10
31492.561244192369
 20
23193.520600958818
 30
0.0
 11
31507.561244192369
 21
23217.020600958818
 31
0.0
  0
LINE
  5
65A
  8
FUTO
 10
31519.561244192369
 20
23239.520600958818
 30
0.0
 11
31519.561244192369
 21
23024.520600958818
 31
0.0
  0
LINE
  5
65B
  8
CT
 10
31586.061244192369
 20
23273.68218062503
 30
0.0
 11
31586.061244192369
 21
22931.81255778093
 31
0.0
  0
LINE
  5
65C
  8
FUTO
 10
31507.561244192369
 20
23239.520600958818
 30
0.0
 11
31507.561244192369
 21
22979.520600958818
 31
0.0
  0
LINE
  5
662
  8
FUTO
 10
31817.861244192402
 20
23201.659184036282
 30
0.0
 11
31792.861244192402
 21
23185.640028730541
 31
0.0
  0
LINE
  5
664
  8
FUTO
 10
31676.061244192369
 20
22959.520600958818
 30
0.0
 11
31496.061244192369
 21
22959.520600958818
 31
0.0
  0
LINE
  5
665
  8
FUTO
 10
31661.061244192369
 20
22969.520600958818
 30
0.0
 11
31511.061244192369
 21
22969.520600958818
 31
0.0
  0
LINE
  5
666
  8
FUTO
 10
31511.061244192369
 20
23024.520600958818
 30
0.0
 11
31661.061244192369
 21
23024.520600958818
 31
0.0
  0
LINE
  5
667
  8
FUTO
 10
31492.561244192369
 20
23025.520600958818
 30
0.0
 11
31492.561244192369
 21
23193.520600958818
 31
0.0
  0
LINE
  5
668
  8
FUTO
 10
31507.561244192369
 20
22979.520600958818
 30
0.0
 11
31511.061244192369
 21
22979.520600958818
 31
0.0
  0
LINE
  5
669
  8
CT
 10
31536.061244192369
 20
22934.565508607571
 30
0.0
 11
31536.061244192369
 21
23055.338033729338
 31
0.0
  0
LINE
  5
66A
  8
FUTO
 10
31511.061244192369
 20
22959.520600958818
 30
0.0
 11
31511.061244192369
 21
23024.520600958818
 31
0.0
  0
LINE
  5
66B
  8
FUTO
 10
31507.561244192369
 20
23002.020600958818
 30
0.0
 11
31492.561244192369
 21
23025.520600958818
 31
0.0
  0
LINE
  5
66C
  8
FUTO
 10
31679.561244192369
 20
23162.020600958818
 30
0.0
 11
31792.861244192369
 21
23162.020600958818
 31
0.0
  0
LINE
  5
66E
  8
FUTO
 10
31679.561244192369
 20
23057.020600958818
 30
0.0
 11
31792.861244192369
 21
23057.020600958818
 31
0.0
  0
LINE
  5
67F
  8
CT
 10
31697.451582428701
 20
23109.520600958818
 30
0.0
 11
31806.79420430461
 21
23109.520600958818
 31
0.0
  0
LINE
  5
69D
  8
FUTO
 10
31679.561244192369
 20
23193.520600958818
 30
0.0
 11
31679.561244192369
 21
23025.520600958818
 31
0.0
  0
LINE
  5
69E
  8
FUTO
 10
31661.061244192369
 20
22979.520600958818
 30
0.0
 11
31664.561244192369
 21
22979.520600958818
 31
0.0
  0
LINE
  5
69F
  8
FUTO
 10
31661.061244192369
 20
23024.520600958818
 30
0.0
 11
31661.061244192369
 21
22959.520600958818
 31
0.0
  0
LINE
  5
6A0
  8
FUTO
 10
31679.561244192369
 20
23025.520600958818
 30
0.0
 11
31664.561244192369
 21
23002.020600958818
 31
0.0
  0
LINE
  5
6A1
  8
CT
 10
31636.061244192369
 20
22934.565508607571
 30
0.0
 11
31636.061244192369
 21
23055.338033729338
 31
0.0
  0
LINE
  5
6AC
  8
FUTO
 10
31647.561244192369
 20
23257.520600958818
 30
0.0
 11
31524.561244192369
 21
23257.520600958818
 31
0.0
  0
LINE
  5
6AD
  8
FUTO
 10
31524.561244192369
 20
23257.520600958818
 30
0.0
 11
31524.561244192369
 21
23239.520600958818
 31
0.0
  0
LINE
  5
6AE
  8
FUTO
 10
31524.561244192369
 20
23239.520600958818
 30
0.0
 11
31507.561244192369
 21
23239.520600958818
 31
0.0
  0
LINE
  5
6B7
  8
FUTO
 10
31664.561244192369
 20
23239.520600958818
 30
0.0
 11
31647.561244192369
 21
23239.520600958818
 31
0.0
  0
LINE
  5
6B8
  8
FUTO
 10
31647.561244192369
 20
23239.520600958818
 30
0.0
 11
31647.561244192369
 21
23257.520600958818
 31
0.0
  0
LINE
  5
6BC
  8
FUTO
 10
31882.861244192369
 20
24054.720600958819
 30
0.0
 11
31882.861244192369
 21
24396.34198561524
 31
0.0
  0
DIMENSION
  5
6CD
  8
SP
  2
*D18
 10
33341.061244192373
 20
24882.85089965368
 30
0.0
 11
32874.92361923647
 21
24882.85089965368
 31
0.0
 70
   128
 13
32546.061244192369
 23
24914.793239018061
 33
0.0
 14
33341.061244192373
 24
24074.520600958818
 34
0.0
1001
ACAD
1000
DSTYLE
1002
{
1070
    40
1040
40.0
1002
}
  0
LINE
  5
6E1
  8
FUTO
 10
33206.061244192373
 20
23178.220600958819
 30
0.0
 11
33206.061244192373
 21
24396.34198561524
 31
0.0
  0
LINE
  5
6E2
  8
FUTO
 10
33209.261244192377
 20
23178.220600958819
 30
0.0
 11
33209.261244192377
 21
24396.34198561524
 31
0.0
  0
LINE
  5
6E3
  8
FUTO
 10
33274.261244192807
 20
24396.34198561524
 30
0.0
 11
33274.261244192399
 21
23201.659184036282
 31
0.0
  0
LINE
  5
701
  8
FUTO
 10
33274.261244192443
 20
23201.65918403626
 30
0.0
 11
33299.261244192443
 21
23185.640028730511
 31
0.0
  0
INSERT
  5
702
  8
FUTO
  2
まっすぐの矢印
 10
33536.53439676288
 20
23595.066903807929
 30
0.0
 41
2.0
 42
2.0
 43
2.0
 50
90.0
  0
LINE
  5
704
  8
FUTO
 10
33274.261244192377
 20
24015.520600958818
 30
0.0
 11
33341.061244192373
 21
24015.520600958818
 31
0.0
  0
LINE
  5
705
  8
KL
 10
33209.261244192377
 20
24009.520600958818
 30
0.0
 11
33341.061244192373
 21
24009.520600958818
 31
0.0
  0
LINE
  5
706
  8
HOSO
 10
33180.323274384376
 20
24049.520600958818
 30
0.0
 11
33240.15362321445
 21
24049.520600958818
 31
0.0
  0
LINE
  5
707
  8
KL
 10
33215.26124419237
 20
24074.520600958818
 30
0.0
 11
33209.261244192377
 21
24074.520600958818
 31
0.0
  0
LINE
  5
708
  8
KL
 10
33209.261244192377
 20
24015.520600958818
 30
0.0
 11
33274.261244192377
 21
24015.520600958818
 31
0.0
  0
LINE
  5
709
  8
FUTO
 10
33335.061244192373
 20
24074.520600958818
 30
0.0
 11
33341.061244192373
 21
24074.520600958818
 31
0.0
  0
LINE
  5
70A
  8
HOSO
 10
33308.39346763269
 20
24049.520600958818
 30
0.0
 11
33368.223816462763
 21
24049.520600958818
 31
0.0
  0
LINE
  5
88D
  8
CT
 10
25825.450639893901
 20
27980.235529169498
 30
0.0
 11
29157.720242941101
 21
27980.235529169491
 31
0.0
  0
LINE
  5
88E
  8
FUTO
 10
28670.485799232181
 20
27251.235529169491
 30
0.0
 11
28670.485799232189
 21
28709.235529169491
 31
0.0
  0
LINE
  5
89C
  8
FUTO
 10
28605.485799232181
 20
27251.235529169491
 30
0.0
 11
28670.485799232181
 21
27251.235529169491
 31
0.0
  0
LINE
  5
89D
  8
FUTO
 10
28605.485799232181
 20
27251.235529169491
 30
0.0
 11
28605.485799232181
 21
28709.235529169491
 31
0.0
  0
LINE
  5
89E
  8
FUTO
 10
28605.485799232181
 20
28709.235529169491
 30
0.0
 11
28670.485799232181
 21
28709.235529169491
 31
0.0
  0
LINE
  5
89F
  8
FUTO
 10
25951.485799232181
 20
28644.235529169491
 30
0.0
 11
25951.485799232181
 21
27316.235529169491
 31
0.0
  0
LINE
  5
8A0
  8
FUTO
 10
25901.485799232181
 20
28694.235529169491
 30
0.0
 11
28605.485799232181
 21
28694.235529169491
 31
0.0
  0
LINE
  5
8A1
  8
FUTO
 10
25901.485799232181
 20
28694.235529169491
 30
0.0
 11
25901.485799232181
 21
27266.235529169498
 31
0.0
  0
LINE
  5
8A2
  8
FUTO
 10
25901.485799232181
 20
27266.235529169498
 30
0.0
 11
28605.485799232181
 21
27266.235529169491
 31
0.0
  0
LINE
  5
8A3
  8
FUTO
 10
25951.485799232181
 20
27316.235529169491
 30
0.0
 11
26805.485799232181
 21
27316.235529169491
 31
0.0
  0
LINE
  5
8A4
  8
FUTO
 10
26445.485799232189
 20
28694.235529169491
 30
0.0
 11
26445.485799232189
 21
28719.235529169498
 31
0.0
  0
LINE
  5
8A5
  8
FUTO
 10
28565.485799232181
 20
28694.235529169491
 30
0.0
 11
28565.485799232181
 21
28719.235529169491
 31
0.0
  0
LINE
  5
132F
  8
FUTO
 10
27885.485799232181
 20
25530.235529169498
 30
0.0
 11
25725.485799232189
 21
25530.235529169498
 31
0.0
  0
LINE
  5
1330
  8
FUTO
 10
27885.485799232181
 20
25880.235529169498
 30
0.0
 11
25725.485799232189
 21
25880.235529169498
 31
0.0
  0
LINE
  5
1336
  8
SL
 10
27785.485799232189
 20
25680.235529169498
 30
0.0
 11
25805.485799232189
 21
25680.235529169498
 31
0.0
  0
LINE
  5
1337
  8
SL
 10
27785.485799232189
 20
25850.235529169498
 30
0.0
 11
25805.485799232189
 21
25850.235529169498
 31
0.0
  0
LINE
  5
1338
  8
CT
 10
27505.485799232181
 20
25478.30940748471
 30
0.0
 11
27505.485799232181
 21
28974.23083234172
 31
0.0
  0
LINE
  5
1342
  8
FUTO
 10
27609.485799232189
 20
25952.735529169498
 30
0.0
 11
27609.485799232189
 21
25964.235529169498
 31
0.0
  0
LINE
  5
1343
  8
FUTO
 10
27401.485799232181
 20
26085.735529169491
 30
0.0
 11
27401.485799232181
 21
25952.735529169498
 31
0.0
  0
ARC
  5
1344
  8
FUTO
 10
27407.485799232189
 20
25952.735529169498
 30
0.0
 40
6.0
 50
180.0
 51
270.0
  0
LINE
  5
1345
  8
SL
 10
27225.485799232181
 20
25680.235529169498
 30
0.0
 11
27225.485799232181
 21
25850.235529169498
 31
0.0
  0
LINE
  5
1346
  8
FUTO
 10
27457.985799232181
 20
25850.235529169498
 30
0.0
 11
27457.985799232181
 21
25941.735529169498
 31
0.0
  0
LINE
  5
1347
  8
FUTO
 10
27552.985799232189
 20
25850.235529169498
 30
0.0
 11
27552.985799232189
 21
25941.735529169498
 31
0.0
  0
LINE
  5
1348
  8
FUTO
 10
27415.485799232189
 20
25941.735529169498
 30
0.0
 11
27595.485799232181
 21
25941.735529169498
 31
0.0
  0
LINE
  5
1349
  8
FUTO
 10
27407.485799232189
 20
25946.735529169491
 30
0.0
 11
27603.485799232181
 21
25946.735529169491
 31
0.0
  0
LINE
  5
134A
  8
FUTO
 10
27595.485799232181
 20
25941.735529169498
 30
0.0
 11
27595.485799232181
 21
25946.735529169491
 31
0.0
  0
ARC
  5
134B
  8
FUTO
 10
27603.485799232181
 20
25952.735529169498
 30
0.0
 40
6.0
 50
270.0
 51
0.000000000000007
  0
LINE
  5
134C
  8
FUTO
 10
27415.485799232189
 20
25946.735529169491
 30
0.0
 11
27415.485799232189
 21
25941.735529169498
 31
0.0
  0
LINE
  5
1353
  8
FUTO
 10
27452.985799232181
 20
26096.735529169491
 30
0.0
 11
27452.985799232181
 21
26926.735529169498
 31
0.0
  0
LINE
  5
1354
  8
FUTO
 10
27557.985799232189
 20
26096.735529169491
 30
0.0
 11
27557.985799232189
 21
26926.735529169498
 31
0.0
  0
LINE
  5
1357
  8
CT
 10
27381.71704006748
 20
26019.235529169491
 30
0.0
 11
27635.30952313431
 21
26019.235529169491
 31
0.0
  0
LINE
  5
1358
  8
FUTO
 10
27401.485799232181
 20
25964.235529169498
 30
0.0
 11
27609.485799232189
 21
25964.235529169498
 31
0.0
  0
LINE
  5
1359
  8
FUTO
 10
27401.485799232181
 20
26074.235529169491
 30
0.0
 11
27609.485799232189
 21
26074.235529169491
 31
0.0
  0
ARC
  5
135A
  8
FUTO
 10
27407.485799232189
 20
26085.735529169491
 30
0.0
 40
6.0
 50
90.0
 51
180.0
  0
LINE
  5
135B
  8
CT
 10
27324.41988481256
 20
26019.235529169491
 30
0.0
 11
27714.420052757971
 21
26019.235529169491
 31
0.0
  0
LINE
  5
135F
  8
FUTO
 10
27407.485799232189
 20
26091.735529169498
 30
0.0
 11
27603.485799232181
 21
26091.735529169498
 31
0.0
  0
LINE
  5
1360
  8
FUTO
 10
27415.485799232189
 20
26096.735529169491
 30
0.0
 11
27595.485799232181
 21
26096.735529169491
 31
0.0
  0
LINE
  5
1362
  8
FUTO
 10
27609.485799232189
 20
26085.735529169491
 30
0.0
 11
27609.485799232189
 21
26074.235529169491
 31
0.0
  0
ARC
  5
1363
  8
FUTO
 10
27603.485799232181
 20
26085.735529169491
 30
0.0
 40
6.0
 50
0.000000000000007
 51
90.0
  0
LINE
  5
1364
  8
FUTO
 10
27595.485799232181
 20
26096.735529169491
 30
0.0
 11
27595.485799232181
 21
26091.735529169498
 31
0.0
  0
LINE
  5
1365
  8
FUTO
 10
27415.485799232189
 20
26091.735529169498
 30
0.0
 11
27415.485799232189
 21
26096.735529169491
 31
0.0
  0
LINE
  5
136A
  8
FUTO
 10
27375.485799232189
 20
26941.735529169498
 30
0.0
 11
27635.485799232181
 21
26941.735529169498
 31
0.0
  0
LINE
  5
136B
  8
CT
 10
27341.32421956598
 20
27020.235529169498
 30
0.0
 11
27683.19384241007
 21
27020.235529169498
 31
0.0
  0
LINE
  5
136C
  8
FUTO
 10
27375.485799232189
 20
26953.735529169498
 30
0.0
 11
27635.485799232181
 21
26953.735529169498
 31
0.0
  0
LINE
  5
136D
  8
FUTO
 10
27421.485799232189
 20
26926.735529169498
 30
0.0
 11
27397.985799232189
 21
26941.735529169498
 31
0.0
  0
LINE
  5
136E
  8
FUTO
 10
27635.485799232181
 20
27098.735529169491
 30
0.0
 11
27375.485799232189
 21
27098.735529169491
 31
0.0
  0
LINE
  5
136F
  8
FUTO
 10
27635.485799232189
 20
27086.735529169498
 30
0.0
 11
27375.485862426569
 21
27086.735529169498
 31
0.0
  0
LINE
  5
1370
  8
FUTO
 10
27375.485799232189
 20
27086.735529169498
 30
0.0
 11
27590.485799232189
 21
27086.735529169498
 31
0.0
  0
LINE
  5
1371
  8
FUTO
 10
27397.985799232189
 20
27098.735529169491
 30
0.0
 11
27421.485799232189
 21
27113.735529169498
 31
0.0
  0
LINE
  5
1372
  8
CT
 10
27296.714971151941
 20
27020.235529169498
 30
0.0
 11
27746.38727491954
 21
27020.235529169498
 31
0.0
  0
LINE
  5
137E
  8
FUTO
 10
27612.985799232181
 20
26941.735529169498
 30
0.0
 11
27589.485799232181
 21
26926.735529169498
 31
0.0
  0
LINE
  5
1381
  8
FUTO
 10
27635.485799232181
 20
26941.735529169498
 30
0.0
 11
27635.485799232181
 21
26945.235529169491
 31
0.0
  0
LINE
  5
1382
  8
FUTO
 10
27589.485799232181
 20
26926.735529169498
 30
0.0
 11
27421.485799232189
 21
26926.735529169498
 31
0.0
  0
LINE
  5
1384
  8
FUTO
 10
27589.485799232181
 20
27113.735529169498
 30
0.0
 11
27612.985799232181
 21
27098.735529169491
 31
0.0
  0
LINE
  5
1386
  8
FUTO
 10
27635.485799232181
 20
27095.235529169491
 30
0.0
 11
27635.485799232181
 21
27098.735529169491
 31
0.0
  0
LINE
  5
1387
  8
FUTO
 10
27421.485799232189
 20
27113.735529169498
 30
0.0
 11
27589.485799232181
 21
27113.735529169498
 31
0.0
  0
LINE
  5
13A3
  8
CT
 10
27505.485799232181
 20
27131.625867405819
 30
0.0
 11
27505.485799232181
 21
27240.968489281731
 31
0.0
  0
LINE
  5
13B2
  8
FUTO
 10
27557.985799232189
 20
27113.735529169498
 30
0.0
 11
27557.985799232189
 21
27266.235529169491
 31
0.0
  0
LINE
  5
13B4
  8
FUTO
 10
27452.985799232181
 20
27113.735529169498
 30
0.0
 11
27452.985799232189
 21
27266.235529169498
 31
0.0
  0
LINE
  5
13BE
  8
FUTO
 10
27357.485799232181
 20
27081.735529169491
 30
0.0
 11
27357.485799232181
 21
26958.735529169498
 31
0.0
  0
LINE
  5
13BF
  8
FUTO
 10
27375.485799232189
 20
26958.735529169498
 30
0.0
 11
27375.485799232189
 21
26941.735529169498
 31
0.0
  0
LINE
  5
13C0
  8
FUTO
 10
27357.485799232181
 20
26958.735529169498
 30
0.0
 11
27375.485799232189
 21
26958.735529169498
 31
0.0
  0
LINE
  5
13C1
  8
FUTO
 10
27375.485799232189
 20
27081.735529169491
 30
0.0
 11
27357.485799232181
 21
27081.735529169491
 31
0.0
  0
LINE
  5
13C2
  8
FUTO
 10
27375.485799232189
 20
27098.735529169491
 30
0.0
 11
27375.485799232189
 21
27081.735529169491
 31
0.0
  0
LINE
  5
13E1
  8
FUTO
 10
27885.485799232181
 20
25530.235529169498
 30
0.0
 11
27885.485799232181
 21
25880.235529169498
 31
0.0
  0
LINE
  5
13E2
  8
SL
 10
27785.485799232189
 20
25680.235529169498
 30
0.0
 11
27785.485799232189
 21
25850.235529169498
 31
0.0
  0
DIMENSION
  5
1417
  8
SP
  2
*D5
 10
32546.061244192369
 20
24882.85089965368
 30
0.0
 11
31321.061244192369
 21
24994.279471082249
 31
0.0
 70
     0
  1
(<>)
 13
30096.061244192369
 23
23489.520600958818
 33
0.0
 14
32546.061244192369
 24
24411.475092948971
 34
0.0
1001
ACAD
1000
DSTYLE
1002
{
1070
    40
1040
40.0
1002
}
  0
LINE
  5
1453
  8
FUTO
 10
27609.485799232189
 20
26085.735529169491
 30
0.0
 11
27609.485799232189
 21
25952.735529169498
 31
0.0
  0
LINE
  5
1454
  8
FUTO
 10
27653.485799232189
 20
27081.735529169491
 30
0.0
 11
27653.485799232189
 21
26958.735529169498
 31
0.0
  0
LINE
  5
1455
  8
FUTO
 10
27653.485799232189
 20
26958.735529169498
 30
0.0
 11
27635.485799232181
 21
26958.735529169498
 31
0.0
  0
LINE
  5
1456
  8
FUTO
 10
27635.485799232181
 20
26958.735529169498
 30
0.0
 11
27635.485799232181
 21
26941.735529169498
 31
0.0
  0
LINE
  5
1457
  8
FUTO
 10
27635.485799232181
 20
27098.735529169491
 30
0.0
 11
27635.485799232181
 21
27081.735529169491
 31
0.0
  0
LINE
  5
1458
  8
FUTO
 10
27635.485799232181
 20
27081.735529169491
 30
0.0
 11
27653.485799232189
 21
27081.735529169491
 31
0.0
  0
LINE
  5
1698
  8
KL
 10
30484.56124419238
 20
21179.520600958818
 30
0.0
 11
30484.561244192369
 21
21109.520600960681
 31
0.0
  0
LINE
  5
1699
  8
KL
 10
31184.56124419238
 20
21179.520600958818
 30
0.0
 11
31184.561244192369
 21
21109.52060096071
 31
0.0
  0
LINE
  5
169A
  8
KL
 10
30979.561244192369
 20
21179.520600958818
 30
0.0
 11
30484.56124419238
 21
21179.520600958818
 31
0.0
  0
LINE
  5
169B
  8
KL
 10
30484.561244192369
 20
21179.520600958818
 30
0.0
 11
31184.56124419238
 21
21179.520600958818
 31
0.0
  0
LINE
  5
16AB
  8
FUTO
 10
30421.06124419238
 20
21559.520600958818
 30
0.0
 11
30421.06124419238
 21
21359.520600958818
 31
0.0
  0
LINE
  5
16AC
  8
KL
 10
31655.061244192369
 20
21719.520600958818
 30
0.0
 11
31655.061244192369
 21
21241.371662876729
 31
0.0
  0
LINE
  5
16AD
  8
FUTO
 10
30441.061244192369
 20
21769.520600958818
 30
0.0
 11
30441.061244192369
 21
21193.293877486642
 31
0.0
  0
LINE
  5
16AE
  8
KL
 10
30520.06124419238
 20
21769.520600958818
 30
0.0
 11
30520.06124419238
 21
21193.293877486642
 31
0.0
  0
LINE
  5
16AF
  8
KL
 10
31405.061244192369
 20
21769.520600958818
 30
0.0
 11
31405.061244192369
 21
21191.371662876729
 31
0.0
  0
LINE
  5
16B0
  8
CT
 10
30834.561244192369
 20
21806.159968945449
 30
0.0
 11
30834.561244192369
 21
21087.572073941741
 31
0.0
  0
LINE
  5
16B1
  8
KL
 10
30979.561244192369
 20
21179.520600958818
 30
0.0
 11
31099.561244192369
 21
21179.520600958818
 31
0.0
  0
LINE
  5
16B2
  8
KL
 10
30569.56124419238
 20
21209.520600958818
 30
0.0
 11
31099.561244192369
 21
21209.520600958818
 31
0.0
  0
LINE
  5
16B3
  8
KL
 10
31405.061244192369
 20
21191.371662876729
 30
0.0
 11
31605.061244192369
 21
21191.371662876729
 31
0.0
  0
ARC
  5
16B4
  8
KL
 10
31605.061244192369
 20
21241.371662876729
 30
0.0
 40
50.0
 50
270.0
 51
0.0
  0
LINE
  5
16B5
  8
KL
 10
31099.561244192369
 20
21191.371662876729
 30
0.0
 11
31384.736026194209
 21
21191.371662876729
 31
0.0
  0
LINE
  5
16B6
  8
KL
 10
31405.061244192369
 20
21202.90495053618
 30
0.0
 11
31384.736026194219
 21
21191.371662876729
 31
0.0
  0
LINE
  5
16B7
  8
CT
 10
31063.06124419238
 20
21233.51135271776
 30
0.0
 11
31063.06124419238
 21
21163.038310635278
 31
0.0
  0
LINE
  5
16B8
  8
KL
 10
31099.561244192369
 20
21209.520600958818
 30
0.0
 11
31099.561244192369
 21
21179.520600958818
 31
0.0
  0
LINE
  5
16B9
  8
KL
 10
30979.561244192369
 20
21191.371662876729
 30
0.0
 11
30689.56124419238
 21
21191.371662876729
 31
0.0
  0
LINE
  5
16BA
  8
KL
 10
30979.561244192369
 20
21191.371662876729
 30
0.0
 11
30979.561244192369
 21
21179.520600958818
 31
0.0
  0
LINE
  5
16BB
  8
KL
 10
30569.56124419238
 20
21209.520600958818
 30
0.0
 11
30569.56124419238
 21
21179.520600958818
 31
0.0
  0
LINE
  5
16BC
  8
CT
 10
30606.061244192369
 20
21233.51135271776
 30
0.0
 11
30606.061244192369
 21
21163.038310635278
 31
0.0
  0
LINE
  5
16BD
  8
KL
 10
30569.56124419238
 20
21193.293877486642
 30
0.0
 11
30441.061244192369
 21
21193.293877486642
 31
0.0
  0
LINE
  5
16BE
  8
KL
 10
30689.56124419238
 20
21191.371662876729
 30
0.0
 11
30689.56124419238
 21
21179.520600958818
 31
0.0
  0
LINE
  5
16BF
  8
KL
 10
30569.56124419238
 20
21179.520600958818
 30
0.0
 11
30689.56124419238
 21
21179.520600958818
 31
0.0
  0
LINE
  5
16C0
  8
FUTO
 10
30441.061244192369
 20
21359.520600958818
 30
0.0
 11
30421.06124419238
 21
21359.520600958818
 31
0.0
  0
LINE
  5
16C1
  8
KL
 10
31383.666418026809
 20
21769.520600958818
 30
0.0
 11
30441.061244192369
 21
21769.520600958818
 31
0.0
  0
LINE
  5
16C2
  8
CT
 10
31691.704009656809
 20
21459.520600958818
 30
0.0
 11
30219.91241335298
 21
21459.520600958818
 31
0.0
  0
LINE
  5
16C3
  8
KL
 10
31605.061244192369
 20
21769.520600958818
 30
0.0
 11
31405.061244192369
 21
21769.520600958818
 31
0.0
  0
ARC
  5
16C4
  8
KL
 10
31605.061244192369
 20
21719.520600958818
 30
0.0
 40
50.0
 50
0.0
 51
90.0
  0
LINE
  5
16C5
  8
KL
 10
31405.061244192369
 20
21744.969470530072
 30
0.0
 11
31383.666418026809
 21
21769.520600958818
 31
0.0
  0
LINE
  5
16C6
  8
FUTO
 10
30421.06124419238
 20
21502.020600958818
 30
0.0
 11
30246.061244192369
 21
21502.020600958818
 31
0.0
  0
LINE
  5
16C7
  8
FUTO
 10
30421.06124419238
 20
21417.020600958818
 30
0.0
 11
30246.061244192369
 21
21417.020600958818
 31
0.0
  0
LINE
  5
16C8
  8
CT
 10
30630.061244192369
 20
22092.890314923308
 30
0.0
 11
30630.061244192369
 21
21694.030783367529
 31
0.0
  0
LINE
  5
16C9
  8
FUTO
 10
30441.061244192369
 20
21559.520600958818
 30
0.0
 11
30421.06124419238
 21
21559.520600958818
 31
0.0
  0
LINE
  5
16CA
  8
KL
 10
30730.061244192369
 20
22049.520600958818
 30
0.0
 11
30530.061244192369
 21
22049.520600958818
 31
0.0
  0
LINE
  5
16CB
  8
KL
 10
30730.061244192369
 20
21784.520600958818
 30
0.0
 11
30530.061244192369
 21
21784.520600958818
 31
0.0
  0
LINE
  5
16CC
  8
CT
 10
30793.927171378749
 20
21909.520600958818
 30
0.0
 11
30491.79098199424
 21
21909.520600958818
 31
0.0
  0
LINE
  5
16CD
  8
KL
 10
30750.061244192369
 20
22029.520600958818
 30
0.0
 11
30750.061244192369
 21
21804.520600958818
 31
0.0
  0
ARC
  5
16CE
  8
KL
 10
30730.061244192369
 20
21804.520600958818
 30
0.0
 40
20.0
 50
270.0
 51
0.0
  0
ARC
  5
16CF
  8
KL
 10
30730.061244192369
 20
22029.520600958818
 30
0.0
 40
20.0
 50
0.0
 51
90.0
  0
LINE
  5
16D0
  8
KL
 10
30510.061244192369
 20
22029.520600958818
 30
0.0
 11
30510.061244192369
 21
21804.520600958818
 31
0.0
  0
ARC
  5
16D1
  8
KL
 10
30530.061244192369
 20
21804.520600958818
 30
0.0
 40
20.0
 50
180.0
 51
270.0
  0
ARC
  5
16D2
  8
KL
 10
30530.061244192369
 20
22029.520600958818
 30
0.0
 40
20.0
 50
90.0
 51
180.0
  0
LINE
  5
16D3
  8
FUTO
 10
30416.061244192369
 20
21502.020600958818
 30
0.0
 11
30416.061244192369
 21
21417.020600958818
 31
0.0
  0
LINE
  5
16D4
  8
FUTO
 10
30246.061244192369
 20
21502.020600958818
 30
0.0
 11
30246.061244192369
 21
21417.020600958818
 31
0.0
  0
LINE
  5
17EE
  8
FUTO
 10
26315.485799232141
 20
26817.840703003942
 30
0.0
 11
26315.485799232181
 21
25875.235529169509
 31
0.0
  0
LINE
  5
17EF
  8
CT
 10
26005.48579923213
 20
27125.878294633931
 30
0.0
 11
26005.485799232189
 21
25654.086698330098
 31
0.0
  0
LINE
  5
17F0
  8
FUTO
 10
25695.485799232141
 20
26817.840703003909
 30
0.0
 11
25695.485799232181
 21
25875.235529169491
 31
0.0
  0
LINE
  5
17F1
  8
FUTO
 10
26215.48579923217
 20
25944.235529169509
 30
0.0
 11
25825.48579923217
 21
25944.235529169491
 31
0.0
  0
LINE
  5
17F2
  8
CT
 10
25797.17293985486
 20
26064.235529169491
 30
0.0
 11
26260.155578869369
 21
26064.235529169509
 31
0.0
  0
LINE
  5
17F3
  8
CT
 10
25658.846431245529
 20
26268.735529169491
 30
0.0
 11
26377.434326249251
 21
26268.735529169509
 31
0.0
  0
LINE
  5
17F4
  8
FUTO
 10
25695.485799232181
 20
25875.235529169491
 30
0.0
 11
26315.485799232181
 21
25875.235529169509
 31
0.0
  0
LINE
  5
17F5
  8
FUTO
 10
25905.485799232181
 20
25855.235529169491
 30
0.0
 11
26105.485799232181
 21
25855.235529169498
 31
0.0
  0
LINE
  5
17F6
  8
FUTO
 10
26215.485799232159
 20
26184.235529169509
 30
0.0
 11
25825.485799232159
 21
26184.235529169491
 31
0.0
  0
LINE
  5
17F7
  8
FUTO
 10
25636.14141038926
 20
25918.735529169491
 30
0.0
 11
25636.141410389238
 21
26618.735529169491
 31
0.0
  0
LINE
  5
17F8
  8
FUTO
 10
25805.485799232159
 20
26164.235529169498
 30
0.0
 11
25805.48579923217
 21
26064.235529169491
 31
0.0
  0
LINE
  5
17F9
  8
CT
 10
26005.485799232269
 20
25508.784572999411
 30
0.0
 11
26005.485799231679
 21
26767.190969115589
 31
0.0
  0
LINE
  5
17FA
  8
FUTO
 10
25695.48579923217
 20
25918.735529169491
 30
0.0
 11
25636.14141038926
 21
25918.735529169491
 31
0.0
  0
LINE
  5
17FE
  8
FUTO
 10
26047.985799232181
 20
25855.235529169498
 30
0.0
 11
26047.985799232181
 21
25680.235529169498
 31
0.0
  0
LINE
  5
17FF
  8
FUTO
 10
25962.985799232181
 20
25855.235529169491
 30
0.0
 11
25962.985799232181
 21
25680.235529169498
 31
0.0
  0
LINE
  5
1802
  8
FUTO
 10
25962.985799232181
 20
25680.235529169498
 30
0.0
 11
26047.985799232181
 21
25680.235529169498
 31
0.0
  0
ARC
  5
1804
  8
FUTO
 10
25825.48579923217
 20
25964.235529169498
 30
0.0
 40
20.0
 50
180.0
 51
270.0
  0
LINE
  5
1805
  8
FUTO
 10
25805.48579923217
 20
25964.235529169491
 30
0.0
 11
25805.48579923217
 21
26064.235529169491
 31
0.0
  0
LINE
  5
1806
  8
FUTO
 10
25695.48579923217
 20
25954.235529169491
 30
0.0
 11
25808.165291156482
 21
25954.235529169491
 31
0.0
  0
LINE
  5
1807
  8
FUTO
 10
25962.985799232181
 20
25850.235529169498
 30
0.0
 11
26047.985799232181
 21
25850.235529169498
 31
0.0
  0
LINE
  5
1808
  8
FUTO
 10
25905.485799232181
 20
25875.235529169498
 30
0.0
 11
25905.485799232181
 21
25855.235529169491
 31
0.0
  0
LINE
  5
1809
  8
FUTO
 10
25695.485799232149
 20
26618.735529169491
 30
0.0
 11
25636.141410389238
 21
26618.735529169491
 31
0.0
  0
ARC
  5
180A
  8
FUTO
 10
25825.485799232159
 20
26164.235529169498
 30
0.0
 40
20.0
 50
90.0
 51
180.0
  0
LINE
  5
180B
  8
FUTO
 10
26374.830188075081
 20
25918.735529169509
 30
0.0
 11
26374.830188075059
 21
26618.735529169509
 31
0.0
  0
LINE
  5
180C
  8
FUTO
 10
26235.485799232159
 20
26164.235529169509
 30
0.0
 11
26235.485799232181
 21
26064.235529169509
 31
0.0
  0
LINE
  5
180F
  8
FUTO
 10
26232.806307307859
 20
25954.235529169498
 30
0.0
 11
26315.48579923217
 21
25954.235529169509
 31
0.0
  0
LINE
  5
1810
  8
CT
 10
26280.057354186381
 20
26040.235529169509
 30
0.0
 11
26350.530396268849
 21
26040.235529169509
 31
0.0
  0
ARC
  5
1811
  8
FUTO
 10
26215.48579923217
 20
25964.235529169509
 30
0.0
 40
20.0
 50
270.0
 51
0.000000000000007
  0
LINE
  5
1812
  8
FUTO
 10
26235.48579923217
 20
25964.235529169509
 30
0.0
 11
26235.485799232181
 21
26064.235529169509
 31
0.0
  0
LINE
  5
1813
  8
FUTO
 10
26105.485799232181
 20
25875.235529169498
 30
0.0
 11
26105.485799232181
 21
25855.235529169498
 31
0.0
  0
LINE
  5
1814
  8
FUTO
 10
26315.48579923217
 20
25918.735529169509
 30
0.0
 11
26374.830188075081
 21
25918.735529169509
 31
0.0
  0
ARC
  5
1815
  8
FUTO
 10
26215.485799232159
 20
26164.235529169509
 30
0.0
 40
20.0
 50
0.000000000000007
 51
90.0
  0
LINE
  5
1816
  8
CT
 10
26280.05735418636
 20
26497.235529169509
 30
0.0
 11
26350.53039626883
 21
26497.235529169509
 31
0.0
  0
LINE
  5
1817
  8
FUTO
 10
26315.485799232149
 20
26618.735529169509
 30
0.0
 11
26374.830188075059
 21
26618.735529169509
 31
0.0
  0
LINE
  5
181A
  8
FUTO
 10
25695.485799232141
 20
26839.235529169491
 30
0.0
 11
26315.485799232141
 21
26839.235529169509
 31
0.0
  0
LINE
  5
181B
  8
FUTO
 10
25745.48579923213
 20
27089.235529169491
 30
0.0
 11
26265.48579923213
 21
27089.235529169509
 31
0.0
  0
LINE
  5
181F
  8
FUTO
 10
25720.036929660891
 20
26839.235529169491
 30
0.0
 11
25695.485799232141
 21
26817.840703003909
 31
0.0
  0
ARC
  5
1820
  8
FUTO
 10
25745.48579923213
 20
27039.235529169491
 30
0.0
 40
50.0
 50
90.0
 51
180.0
  0
LINE
  5
1821
  8
FUTO
 10
25695.485799232141
 20
27039.235529169491
 30
0.0
 11
25695.485799232141
 21
26839.235529169491
 31
0.0
  0
ARC
  5
1824
  8
FUTO
 10
26265.48579923213
 20
27039.235529169509
 30
0.0
 40
50.0
 50
0.000000000000007
 51
90.0
  0
LINE
  5
1825
  8
FUTO
 10
26290.934668803391
 20
26839.235529169509
 30
0.0
 11
26315.485799232141
 21
26817.840703003942
 31
0.0
  0
LINE
  5
1826
  8
FUTO
 10
26315.48579923213
 20
27039.235529169509
 30
0.0
 11
26315.485799232141
 21
26839.235529169509
 31
0.0
  0
LINE
  5
1827
  8
FUTO
 10
25565.485799232189
 20
25944.235529169491
 30
0.0
 11
25565.485799232189
 21
25869.235529169498
 31
0.0
  0
LINE
  5
1828
  8
FUTO
 10
25741.605884787339
 20
27241.235529169498
 30
0.0
 11
25741.605884787339
 21
27089.084764508669
 31
0.0
  0
LINE
  5
1829
  8
FUTO
 10
26269.365713676842
 20
27241.235529169619
 30
0.0
 11
26269.365713676911
 21
27089.084764508789
 31
0.0
  0
LINE
  5
182A
  8
FUTO
 10
26194.365713676849
 20
27241.235529169579
 30
0.0
 11
26194.365713676911
 21
27089.235529169579
 31
0.0
  0
LINE
  5
182B
  8
SL
 10
25805.485799232189
 20
25680.235529169498
 30
0.0
 11
25805.485799232189
 21
25850.235529169498
 31
0.0
  0
LINE
  5
182D
  8
FUTO
 10
25725.485799232189
 20
25530.235529169498
 30
0.0
 11
25725.485799232189
 21
25880.235529169498
 31
0.0
  0
LINE
  5
182F
  8
FUTO
 10
27847.534225056232
 20
25944.235529169491
 30
0.0
 11
27847.534225056232
 21
27266.235529169498
 31
0.0
  0
LINE
  5
1830
  8
FUTO
 10
27163.437373408138
 20
25944.235529169491
 30
0.0
 11
27163.437373408138
 21
27266.235529169498
 31
0.0
  0
LINE
  5
1832
  8
FUTO
 10
26540.485799232189
 20
28775.235529169491
 30
0.0
 11
28470.485799232181
 21
28775.235529169491
 31
0.0
  0
LINE
  5
1833
  8
FUTO
 10
26540.485799232189
 20
28769.235529169498
 30
0.0
 11
28470.485799232181
 21
28769.235529169498
 31
0.0
  0
LINE
  5
1834
  8
KL
 10
26540.485799232189
 20
28649.435529169488
 30
0.0
 11
28470.485799232181
 21
28649.435529169499
 31
0.0
  0
LINE
  5
1839
  8
KL
 10
28405.485799232181
 20
28643.435529169488
 30
0.0
 11
28405.485799232181
 21
28775.235529169491
 31
0.0
  0
LINE
  5
183A
  8
KL
 10
28411.485799232181
 20
28643.435529169488
 30
0.0
 11
28411.485799232181
 21
28733.435529169499
 31
0.0
  0
LINE
  5
183B
  8
KL
 10
28470.485799232181
 20
28643.435529169488
 30
0.0
 11
28470.485799232181
 21
28649.435529169499
 31
0.0
  0
LINE
  5
183C
  8
HOSO
 10
28445.485799232181
 20
28600.901519558582
 30
0.0
 11
28445.485799232181
 21
28675.009134706841
 31
0.0
  0
LINE
  5
183D
  8
HOSO
 10
28445.485799232181
 20
28741.752982983471
 30
0.0
 11
28445.485799232181
 21
28815.860598131731
 31
0.0
  0
LINE
  5
183E
  8
FUTO
 10
28470.485799232181
 20
28769.235529169498
 30
0.0
 11
28470.485799232181
 21
28775.235529169491
 31
0.0
  0
LINE
  5
183F
  8
FUTO
 10
28411.485799232181
 20
28733.435529169499
 30
0.0
 11
28411.485799232181
 21
28775.235529169491
 31
0.0
  0
INSERT
  5
185B
  8
FUTO
  2
まっすぐの矢印
 10
27019.939496383071
 20
28970.708681740001
 30
0.0
 41
2.0
 42
2.0
 43
2.0
 50
180.0
  0
LINE
  5
185D
  8
KL
 10
26605.485799232189
 20
28643.435529169488
 30
0.0
 11
26605.485799232189
 21
28775.235529169491
 31
0.0
  0
LINE
  5
185E
  8
FUTO
 10
26599.485799232189
 20
28708.435529169499
 30
0.0
 11
26599.485799232189
 21
28775.235529169491
 31
0.0
  0
LINE
  5
185F
  8
KL
 10
26599.485799232189
 20
28643.435529169488
 30
0.0
 11
26599.485799232189
 21
28708.435529169499
 31
0.0
  0
LINE
  5
1860
  8
KL
 10
26540.485799232189
 20
28649.435529169488
 30
0.0
 11
26540.485799232189
 21
28643.435529169488
 31
0.0
  0
LINE
  5
1861
  8
HOSO
 10
26565.485799232189
 20
28614.497559361502
 30
0.0
 11
26565.485799232189
 21
28674.327908191572
 31
0.0
  0
LINE
  5
1862
  8
HOSO
 10
26565.485799232189
 20
28742.567752609812
 30
0.0
 11
26565.485799232189
 21
28802.398101439889
 31
0.0
  0
LINE
  5
1863
  8
FUTO
 10
26540.485799232189
 20
28769.235529169498
 30
0.0
 11
26540.485799232189
 21
28775.235529169491
 31
0.0
  0
LINE
  5
188F
  8
FUTO
 10
27984.319697571089
 20
23144.584770418129
 30
0.0
 11
28644.208106940649
 21
23203.143886934209
 31
0.0
  0
LINE
  5
1890
  8
FUTO
 10
27982.729314067281
 20
23162.514373880302
 30
0.0
 11
28646.617767643711
 21
23221.428300492131
 31
0.0
  0
LINE
  5
1891
  8
KL
 10
26694.603109969161
 20
23120.146800958821
 30
0.0
 11
27305.485799232181
 21
23120.146800958821
 31
0.0
  0
LINE
  5
1892
  8
KL
 10
26669.513598928039
 20
23102.146800958821
 30
0.0
 11
27305.485799232181
 21
23102.146800958821
 31
0.0
  0
LINE
  5
1893
  8
KL
 10
26455.485799232189
 20
22162.773962149698
 30
0.0
 11
26455.485799232189
 21
21494.395286008519
 31
0.0
  0
LINE
  5
1894
  8
KL
 10
26464.485799232189
 20
22166.457352130368
 30
0.0
 11
26464.485799232189
 21
21502.665574779279
 31
0.0
  0
LINE
  5
1895
  8
FUTO
 10
26446.485799232189
 20
23102.146800958821
 30
0.0
 11
26446.485799232189
 21
22507.548695177618
 31
0.0
  0
LINE
  5
1896
  8
FUTO
 10
26455.485799232189
 20
22948.596562844861
 30
0.0
 11
26455.485799232189
 21
22531.32485971753
 31
0.0
  0
LINE
  5
1897
  8
FUTO
 10
26464.485799232189
 20
22955.0534443574
 30
0.0
 11
26464.485799232189
 21
22531.32485971753
 31
0.0
  0
DIMENSION
  5
1909
  8
SP
  2
*D7
 10
28670.485799232189
 20
29233.109460652438
 30
0.0
 11
28087.985799232189
 21
29313.109460652438
 31
0.0
 70
     0
 13
27505.485799232181
 23
28974.23083234172
 33
0.0
 14
28670.485799232189
 24
28709.235529169491
 34
0.0
1001
ACAD
1000
DSTYLE
1002
{
1070
    40
1040
40.0
1002
}
  0
DIMENSION
  5
1916
  8
SP
  2
*D8
 10
25565.485799232189
 20
29233.109460652438
 30
0.0
 11
26535.485799232189
 21
29313.109460652438
 31
0.0
 70
     0
 13
27505.485799232181
 23
29233.109460652438
 33
0.0
 14
25565.485799232189
 24
27316.235529169491
 34
0.0
1001
ACAD
1000
DSTYLE
1002
{
1070
    40
1040
40.0
1002
}
  0
DIMENSION
  5
1923
  8
SP
  2
*D9
 10
29090.4720647223
 20
27980.235529169491
 30
0.0
 11
29010.472064722289
 21
28377.735529169498
 31
0.0
 70
     0
 13
28470.485799232181
 23
28775.235529169491
 33
0.0
 14
29157.720242941101
 24
27980.235529169491
 34
0.0
 50
90.0
1001
ACAD
1000
DSTYLE
1002
{
1070
    40
1040
40.0
1002
}
  0
DIMENSION
  5
1930
  8
SP
  2
*D10
 10
29090.4720647223
 20
25530.235529169498
 30
0.0
 11
29010.472064722289
 21
26755.235529169498
 31
0.0
 70
     0
 13
29090.4720647223
 23
27980.235529169491
 33
0.0
 14
27885.485799232181
 24
25530.235529169498
 34
0.0
 50
90.0
1001
ACAD
1000
DSTYLE
1002
{
1070
    40
1040
40.0
1002
}
  0
LINE
  5
19B8
  8
FUTO
 10
30495.061244192369
 20
21769.520600958818
 30
0.0
 11
30495.061244192369
 21
21111.14678435283
 31
0.0
  0
LINE
  5
1A4E
  8
FUTO
 10
28205.485799232181
 20
21125.311695497228
 30
0.0
 11
27881.421599556092
 21
22812.697016179489
 31
0.0
  0
LINE
  5
1A4F
  8
SL
 10
25848.504292045971
 20
21585.06938324932
 30
0.0
 11
27226.84362397666
 21
23331.10938452445
 31
0.0
  0
LINE
  5
1A50
  8
SL
 10
26143.764440656709
 20
21316.651066330462
 30
0.0
 11
27750.930387760709
 21
22854.66687199349
 31
0.0
  0
LINE
  5
1A51
  8
FUTO
 10
25782.244666415601
 20
21630.153891398139
 30
0.0
 11
27122.786714403748
 21
23400.87324171195
 31
0.0
  0
LINE
  5
1A52
  8
FUTO
 10
26194.941110027659
 20
21254.97530629627
 30
0.0
 11
27830.266332024421
 21
22757.70995296587
 31
0.0
  0
LINE
  5
1A53
  8
KL
 10
26446.485799232189
 20
22507.548695177618
 30
0.0
 11
26446.485799232189
 21
21781.584184956981
 31
0.0
  0
LINE
  5
1A54
  8
KL
 10
26455.485799232189
 20
22531.32485971753
 30
0.0
 11
26455.485799232189
 21
22162.773962149698
 31
0.0
  0
LINE
  5
1A55
  8
KL
 10
26464.485799232189
 20
22531.32485971753
 30
0.0
 11
26464.485799232189
 21
22166.457352130368
 31
0.0
  0
LINE
  5
1A56
  8
FUTO
 10
26805.485799232189
 20
21125.311695497228
 30
0.0
 11
26966.563606111551
 21
21964.035402366389
 31
0.0
  0
LINE
  5
1A57
  8
KL
 10
27881.421599556092
 20
22812.697016179489
 30
0.0
 11
27847.534225056232
 21
22989.146800958821
 31
0.0
  0
LINE
  5
1A58
  8
KL
 10
26966.563606111551
 20
21964.035402366389
 30
0.0
 11
27163.437373408138
 21
22989.146800958821
 31
0.0
  0
LINE
  5
1A59
  8
FUTO
 10
26455.485799232189
 20
21494.395286008519
 30
0.0
 11
26455.485799232189
 21
21111.14680095881
 31
0.0
  0
LINE
  5
1A5A
  8
FUTO
 10
26464.485799232189
 20
21502.665574779279
 30
0.0
 11
26464.485799232189
 21
21111.14680095881
 31
0.0
  0
ARC
  5
1A5B
  8
FUTO
 10
27636.485799232189
 20
22980.146800958821
 30
0.0
 40
1705.0
 50
175.8967367910877
 51
209.96988591637529
  0
LINE
  5
1A65
  8
FUTO
 10
31882.86124419238
 20
21188.520600958818
 30
0.0
 11
33209.261244192377
 21
21188.520600958818
 31
0.0
  0
LINE
  5
1A66
  8
FUTO
 10
31822.861244192369
 20
21128.520600958818
 30
0.0
 11
33269.261244192377
 21
21128.520600958818
 31
0.0
  0
LINE
  5
1A67
  8
FUTO
 10
31886.061244192369
 20
21209.520600958818
 30
0.0
 11
31886.061244192369
 21
21188.520600958818
 31
0.0
  0
LINE
  5
1A68
  8
FUTO
 10
31882.861244192369
 20
21209.520600958818
 30
0.0
 11
31882.861244192369
 21
21188.520600958818
 31
0.0
  0
LINE
  5
1A6A
  8
FUTO
 10
31822.861244192369
 20
23107.520600958818
 30
0.0
 11
31822.861244192369
 21
21128.520600958818
 31
0.0
  0
LINE
  5
1A6B
  8
FUTO
 10
33209.261244192377
 20
21209.520600958818
 30
0.0
 11
33209.261244192377
 21
21188.520600958818
 31
0.0
  0
LINE
  5
1A6C
  8
FUTO
 10
33206.061244192373
 20
21209.520600958818
 30
0.0
 11
33206.061244192373
 21
21188.520600958818
 31
0.0
  0
LINE
  5
1A6E
  8
FUTO
 10
33269.261244192348
 20
23107.520600958818
 30
0.0
 11
33269.261244192377
 21
21128.520600958818
 31
0.0
  0
LINE
  5
1A6F
  8
FUTO
 10
31817.861244192369
 20
24396.34198561524
 30
0.0
 11
33274.261244192807
 21
24396.34198561524
 31
0.0
  0
DIMENSION
  5
1A8F
  8
SP
  2
*D19
 10
29214.894888437779
 20
23111.146800958821
 30
0.0
 11
29134.894888437771
 21
22036.146800958821
 31
0.0
 70
     0
 13
28565.485799232181
 23
20961.146800958821
 33
0.0
 14
29050.83979827628
 24
23111.146800958821
 34
0.0
 50
90.0
1001
ACAD
1000
DSTYLE
1002
{
1070
    40
1040
40.0
1002
}
  0
LINE
  5
1AA5
  8
CT
 10
27613.2975029954
 20
24403.146800958821
 30
0.0
 11
27505.485799232181
 21
24403.146800958821
 31
0.0
  0
DIMENSION
  5
1AA6
  8
SP
  2
*D20
 10
29214.894888437779
 20
23111.146800958821
 30
0.0
 11
29134.894888437771
 21
23757.146800958832
 31
0.0
 70
     0
 13
27613.2975029954
 23
24403.146800958821
 33
0.0
 14
29050.83979827628
 24
23111.146800958821
 34
0.0
 50
90.0
1001
ACAD
1000
DSTYLE
1002
{
1070
    40
1040
40.0
1002
}
  0
LINE
  5
1AE4
  8
FUTO
 10
31817.861244192369
 20
23210.659184036289
 30
0.0
 11
33274.261244192407
 21
23210.659184036289
 31
0.0
  0
LINE
  5
1B60
  8
FUTO
 10
31882.86124419238
 20
21188.520600958818
 30
0.0
 11
31882.861244192369
 21
23178.220600958819
 31
0.0
  0
LINE
  5
1B61
  8
FUTO
 10
31886.061244192369
 20
21188.520600958818
 30
0.0
 11
31886.061244192369
 21
23178.220600958819
 31
0.0
  0
LINE
  5
1B62
  8
FUTO
 10
33206.061244192388
 20
21188.520600958818
 30
0.0
 11
33206.061244192373
 21
23178.220600958819
 31
0.0
  0
LINE
  5
1B63
  8
FUTO
 10
33209.261244192377
 20
21188.520600958818
 30
0.0
 11
33209.261244192377
 21
23178.220600958819
 31
0.0
  0
LINE
  5
1B64
  8
FUTO
 10
31886.061244192369
 20
23038.520600958818
 30
0.0
 11
33209.261244192377
 21
23038.520600958818
 31
0.0
  0
LINE
  5
1B65
  8
FUTO
 10
31822.861244192369
 20
23107.520600958818
 30
0.0
 11
33269.261244192348
 21
23107.520600958818
 31
0.0
  0
TEXT
  5
21DC
  8
SP
 10
49448.254384605782
 20
28374.424609166381
 30
0.0
 40
100.0
  1
 
  0
LINE
  5
21DD
  8
4
 10
33829.561235125897
 20
18800.40439482775
 30
0.0
 11
33829.561235125897
 21
17600.40439482775
 31
0.0
  0
LINE
  5
21DE
  8
4
 10
29629.561235125901
 20
18800.40439482775
 30
0.0
 11
29629.561235125901
 21
17600.40439482775
 31
0.0
  0
LINE
  5
21DF
  8
4
 10
26629.561235125901
 20
18800.40439482775
 30
0.0
 11
26629.561235125901
 21
17600.40439482775
 31
0.0
  0
LINE
  5
21E2
  8
4
 10
26629.561235125901
 20
17600.40439482775
 30
0.0
 11
33829.561235125897
 21
17600.40439482775
 31
0.0
  0
LINE
  5
21E3
  8
4
 10
26629.561235125901
 20
18200.40439482775
 30
0.0
 11
33829.561235125897
 21
18200.40439482775
 31
0.0
  0
TEXT
  5
21E4
  8
4
 10
26860.573720207311
 20
18389.662550027431
 30
0.0
 40
300.0
  1
機器名称
  0
TEXT
  5
21E5
  8
4
 10
26847.109871274679
 20
17730.27533521982
 30
0.0
 40
300.0
  1
機器型番
  0
TEXT
  5
21E6
  8
4
 10
29658.319605332152
 20
18333.52820896943
 30
0.0
 40
270.0
  1
ミツヤリミットロードファン
  0
TEXT
  5
21E7
  8
4
 10
29849.488208638792
 20
17703.361900507411
 30
0.0
 40
300.0
  1
LL#11-1
  0
TEXT
  5
21E9
  8
4
 10
24626.566795102572
 20
31003.690252023542
 30
0.0
 40
432.0
  1
遠心式片吸込片持リミットロードファン
  0
LINE
  5
21EA
  8
4
 10
24229.561235125901
 20
30616.85692041658
 30
0.0
 11
33829.561235125897
 21
30616.85692041658
 31
0.0
  0
LINE
  5
21EB
  8
4
 10
24229.561235125901
 20
31816.85692041658
 30
0.0
 11
33829.561235125897
 21
31816.85692041658
 31
0.0
  0
LINE
  5
21EC
  8
4
 10
26629.561235125901
 20
18800.40439482775
 30
0.0
 11
33829.561235125897
 21
18800.40439482775
 31
0.0
  0
LINE
  5
21ED
  8
4
 10
24229.561235125901
 20
31816.85692041658
 30
0.0
 11
24229.561235125901
 21
30616.85692041658
 31
0.0
  0
TEXT
  5
21EE
  8
4
 10
24764.602332032329
 20
30094.321260105811
 30
0.0
 40
323.99999999999989
  1
左回転右横向
  0
TEXT
  5
21EF
  8
4
 10
31543.37859062164
 20
32036.770883799611
 30
0.0
 40
336.00000000000011
  1
No.
  0
TEXT
  5
21F0
  8
4
 10
31507.707693847729
 20
29241.80727334215
 30
0.0
 40
323.99999999999989
  1
縮尺：1/60
  0
LINE
  5
21F1
  8
4
 10
33829.561235125897
 20
31816.85692041658
 30
0.0
 11
33829.561235125897
 21
30616.85692041658
 31
0.0
  0
LINE
  5
21F2
  8
4
 10
35329.561235125897
 20
33500.404394827747
 30
0.0
 11
35329.561235125897
 21
33500.404394827747
 31
0.0
  0
LINE
  5
21F3
  8
4
 10
31373.265769285081
 20
31887.985893580149
 30
0.0
 11
31373.265769285081
 21
32520.317964126269
 31
0.0
  0
LINE
  5
21F4
  8
4
 10
31373.265769285081
 20
32520.317964126269
 30
0.0
 11
33829.561235125897
 21
32520.317964126269
 31
0.0
  0
LINE
  5
21F5
  8
4
 10
33829.561235125897
 20
32520.317964126269
 30
0.0
 11
33829.561235125897
 21
31887.985893580149
 31
0.0
  0
LINE
  5
21F6
  8
4
 10
33829.561235125897
 20
31887.985893580149
 30
0.0
 11
31373.265769285081
 21
31887.985893580149
 31
0.0
  0
LINE
  5
21F7
  8
4
 10
22729.561235125901
 20
15800.40439482775
 30
0.0
 11
22729.561235125901
 21
33500.404394827747
 31
0.0
  0
LINE
  5
21F8
  8
4
 10
22729.561235125901
 20
33500.404394827747
 30
0.0
 11
35329.561235125897
 21
33500.404394827747
 31
0.0
  0
LINE
  5
21F9
  8
4
 10
35329.561235125897
 20
33500.404394827747
 30
0.0
 11
35329.561235125897
 21
15800.40439482775
 31
0.0
  0
LINE
  5
21FA
  8
4
 10
35329.561235125897
 20
15800.40439482775
 30
0.0
 11
22729.561235125901
 21
15800.40439482775
 31
0.0
  0
TEXT
  5
21FB
  8
4
 10
27841.33811921905
 20
30094.391184754189
 30
0.0
 40
323.99999999999989
  1
床置防振ベット
  0
ENDSEC
  0
EOF
