  0
SECTION
  2
HEADER
  9
$ACADVER
  1
AC1009
  9
$INSBASE
 10
0.0
 20
0.0
 30
0.0
  9
$EXTMIN
 10
27917.661033865708
 20
23680.06452524192
 30
0.0
  9
$EXTMAX
 10
40517.661033865712
 20
41380.064525241927
 30
0.0
  9
$LIMMIN
 10
0.0
 20
0.0
  9
$LIMMAX
 10
297.0
 20
210.0
  9
$ORTHOMODE
 70
     0
  9
$REGENMODE
 70
     1
  9
$FILLMODE
 70
     1
  9
$QTEXTMODE
 70
     0
  9
$MIRRTEXT
 70
     0
  9
$DRAGMODE
 70
     2
  9
$LTSCALE
 40
200.0
  9
$OSMODE
 70
    37
  9
$ATTMODE
 70
     1
  9
$TEXTSIZE
 40
150.0
  9
$TRACEWID
 40
0.05
  9
$TEXTSTYLE
  7
STANDARD
  9
$CLAYER
  8
FUTO
  9
$CELTYPE
  6
BYLAYER
  9
$CECOLOR
 62
   256
  9
$DIMSCALE
 40
40.0
  9
$DIMASZ
 40
2.0
  9
$DIMEXO
 40
1.0
  9
$DIMDLI
 40
10.0
  9
$DIMRND
 40
0.0
  9
$DIMDLE
 40
0.0
  9
$DIMEXE
 40
1.0
  9
$DIMTP
 40
0.0
  9
$DIMTM
 40
0.0
  9
$DIMTXT
 40
3.0
  9
$DIMCEN
 40
0.0
  9
$DIMTSZ
 40
0.0
  9
$DIMTOL
 70
     0
  9
$DIMLIM
 70
     0
  9
$DIMTIH
 70
     0
  9
$DIMTOH
 70
     0
  9
$DIMSE1
 70
     0
  9
$DIMSE2
 70
     0
  9
$DIMTAD
 70
     1
  9
$DIMZIN
 70
     8
  9
$DIMBLK
  1

  9
$DIMASO
 70
     1
  9
$DIMSHO
 70
     1
  9
$DIMPOST
  1

  9
$DIMAPOST
  1

  9
$DIMALT
 70
     0
  9
$DIMALTD
 70
     2
  9
$DIMALTF
 40
0.03937
  9
$DIMLFAC
 40
1.0
  9
$DIMTOFL
 70
     1
  9
$DIMTVP
 40
0.0
  9
$DIMTIX
 70
     0
  9
$DIMSOXD
 70
     0
  9
$DIMSAH
 70
     1
  9
$DIMBLK1
  1
OPEN
  9
$DIMBLK2
  1
OPEN
  9
$DIMSTYLE
  2
MATSU
  9
$DIMCLRD
 70
   256
  9
$DIMCLRE
 70
   256
  9
$DIMCLRT
 70
   256
  9
$DIMTFAC
 40
1.0
  9
$DIMGAP
 40
0.5
  9
$LUNITS
 70
     2
  9
$LUPREC
 70
     3
  9
$SKETCHINC
 40
0.1
  9
$FILLETRAD
 40
7.0
  9
$AUNITS
 70
     0
  9
$AUPREC
 70
     2
  9
$MENU
  1
acad
  9
$ELEVATION
 40
0.0
  9
$PELEVATION
 40
0.0
  9
$THICKNESS
 40
0.0
  9
$LIMCHECK
 70
     0
  9
$BLIPMODE
 70
     0
  9
$CHAMFERA
 40
0.0
  9
$CHAMFERB
 40
0.0
  9
$SKPOLY
 70
     0
  9
$TDCREATE
 40
2451593.4082031241
  9
$TDUPDATE
 40
2454953.650880347
  9
$TDINDWG
 40
0.5613090741
  9
$TDUSRTIMER
 40
0.5613090741
  9
$USRTIMER
 70
     1
  9
$ANGBASE
 50
0.0
  9
$ANGDIR
 70
     0
  9
$PDMODE
 70
     0
  9
$PDSIZE
 40
1.0
  9
$PLINEWID
 40
0.0
  9
$COORDS
 70
     1
  9
$SPLFRAME
 70
     0
  9
$SPLINETYPE
 70
     6
  9
$SPLINESEGS
 70
     8
  9
$ATTDIA
 70
     0
  9
$ATTREQ
 70
     1
  9
$HANDLING
 70
 10241
  9
$HANDSEED
  5
268E
  9
$SURFTAB1
 70
     6
  9
$SURFTAB2
 70
     6
  9
$SURFTYPE
 70
     6
  9
$SURFU
 70
     6
  9
$SURFV
 70
     6
  9
$UCSNAME
  2

  9
$UCSORG
 10
0.0
 20
0.0
 30
0.0
  9
$UCSXDIR
 10
1.0
 20
0.0
 30
0.0
  9
$UCSYDIR
 10
0.0
 20
1.0
 30
0.0
  9
$PUCSNAME
  2

  9
$PUCSORG
 10
0.0
 20
0.0
 30
0.0
  9
$PUCSXDIR
 10
1.0
 20
0.0
 30
0.0
  9
$PUCSYDIR
 10
0.0
 20
1.0
 30
0.0
  9
$USERI1
 70
     0
  9
$USERI2
 70
     0
  9
$USERI3
 70
     0
  9
$USERI4
 70
     0
  9
$USERI5
 70
     0
  9
$USERR1
 40
0.0
  9
$USERR2
 40
0.0
  9
$USERR3
 40
0.0
  9
$USERR4
 40
0.0
  9
$USERR5
 40
0.0
  9
$WORLDVIEW
 70
     1
  9
$SHADEDGE
 70
     3
  9
$SHADEDIF
 70
    70
  9
$TILEMODE
 70
     1
  9
$MAXACTVP
 70
    16
  9
$PLIMCHECK
 70
     0
  9
$PEXTMIN
 10
1.0000000000000000E+020
 20
1.0000000000000000E+020
 30
1.0000000000000000E+020
  9
$PEXTMAX
 10
-1.0000000000000000E+020
 20
-1.0000000000000000E+020
 30
-1.0000000000000000E+020
  9
$PLIMMIN
 10
0.0
 20
0.0
  9
$PLIMMAX
 10
12.0
 20
9.0
  9
$UNITMODE
 70
     0
  9
$VISRETAIN
 70
     0
  9
$PLINEGEN
 70
     0
  9
$PSLTSCALE
 70
     0
  0
ENDSEC
  0
SECTION
  2
TABLES
  0
TABLE
  2
VPORT
 70
     2
  0
VPORT
  2
*ACTIVE
 70
     0
 10
0.0
 20
0.0
 11
1.0
 21
1.0
 12
39988.087180083559
 22
25864.025403660871
 13
0.0
 23
0.0
 14
5.0
 24
5.0
 15
0.0
 25
0.0
 16
0.0
 26
0.0
 36
1.0
 17
0.0
 27
0.0
 37
0.0
 40
5957.7634557947422
 41
3.1666666666666661
 42
50.0
 43
0.0
 44
0.0
 50
0.0
 51
0.0
 71
     0
 72
   100
 73
     1
 74
     0
 75
     0
 76
     0
 77
     0
 78
     0
  0
ENDTAB
  0
TABLE
  2
LTYPE
 70
     4
  0
LTYPE
  2
CONTINUOUS
 70
     0
  3
Solid line
 72
    65
 73
     0
 40
0.0
  0
LTYPE
  2
CENTER
 70
     0
  3
____ _ ____ _ ____ _ ____ _ ____ _ ____ _ ____ 
 72
    65
 73
     4
 40
2.0
 49
1.25
 49
-0.25
 49
0.25
 49
-0.25
  0
LTYPE
  2
HIDDEN
 70
     0
  3
__ __ __ __ __ __ __ __ __ __ __ __ __ __ __ __
 72
    65
 73
     2
 40
0.375
 49
0.25
 49
-0.125
  0
LTYPE
  2
PHANTOM
 70
     0
  3
______  __  __  ______  __  __  ______  __  __ 
 72
    65
 73
     6
 40
2.5
 49
1.25
 49
-0.25
 49
0.25
 49
-0.25
 49
0.25
 49
-0.25
  0
ENDTAB
  0
TABLE
  2
LAYER
 70
    10
  0
LAYER
  2
0
 70
     0
 62
     7
  6
CONTINUOUS
  0
LAYER
  2
CT
 70
     0
 62
     3
  6
CENTER
  0
LAYER
  2
FUTO
 70
     0
 62
     4
  6
CONTINUOUS
  0
LAYER
  2
HOSO
 70
     0
 62
     7
  6
CONTINUOUS
  0
LAYER
  2
KL
 70
     0
 62
     7
  6
HIDDEN
  0
LAYER
  2
SL
 70
     0
 62
     1
  6
PHANTOM
  0
LAYER
  2
SP
 70
     0
 62
     2
  6
CONTINUOUS
  0
LAYER
  2
1
 70
     0
 62
     7
  6
CONTINUOUS
  0
LAYER
  2
DEFPOINTS
 70
     0
 62
     7
  6
CONTINUOUS
  0
LAYER
  2
4
 70
     0
 62
     7
  6
CONTINUOUS
  0
ENDTAB
  0
TABLE
  2
STYLE
 70
     1
  0
STYLE
  2
STANDARD
 70
     0
 40
0.0
 41
1.0
 50
15.0
 71
     0
 42
150.0
  3
C:\Program Files\AutoCAD LT\simplex.shx
  4
bigfont.shx
  0
ENDTAB
  0
TABLE
  2
VIEW
 70
     0
  0
ENDTAB
  0
TABLE
  2
UCS
 70
     0
  0
ENDTAB
  0
TABLE
  2
APPID
 70
     2
  0
APPID
  2
ACAD
 70
     0
  0
APPID
  2
CONTENTBLOCKICON
 70
     0
  0
ENDTAB
  0
TABLE
  2
DIMSTYLE
 70
     2
  0
DIMSTYLE
  2
MATSU
 70
     0
  3

  4

  5

  6
OPEN
  7
OPEN
 40
1.0
 41
2.0
 42
1.0
 43
10.0
 44
1.0
 45
0.0
 46
0.0
 47
0.0
 48
0.0
140
3.0
141
0.0
142
0.0
143
0.03937
144
1.0
145
0.0
146
1.0
147
0.5
 71
     0
 72
     0
 73
     0
 74
     0
 75
     0
 76
     0
 77
     1
 78
     8
170
     0
171
     2
172
     1
173
     1
174
     0
175
     0
176
   256
177
   256
178
   256
  0
DIMSTYLE
  2
STANDARD
 70
     0
  3

  4

  5

  6

  7

 40
1.0
 41
0.18
 42
0.0625
 43
0.38
 44
0.18
 45
0.0
 46
0.0
 47
0.0
 48
0.0
140
0.18
141
0.09
142
0.0
143
25.399999999999999
144
1.0
145
0.0
146
1.0
147
0.09
 71
     0
 72
     0
 73
     1
 74
     1
 75
     0
 76
     0
 77
     0
 78
     0
170
     0
171
     2
172
     0
173
     0
174
     0
175
     0
176
     0
177
     0
178
     0
  0
ENDTAB
  0
ENDSEC
  0
SECTION
  2
BLOCKS
  0
BLOCK
  8
0
  2
$MODEL_SPACE
 70
     0
 10
0.0
 20
0.0
 30
0.0
  3
$MODEL_SPACE
  1

  0
ENDBLK
  5
7
  8
0
  0
BLOCK
 67
     1
  8
0
  2
$PAPER_SPACE
 70
     0
 10
0.0
 20
0.0
 30
0.0
  3
$PAPER_SPACE
  1

  0
ENDBLK
  5
A
 67
     1
  8
0
  0
BLOCK
  8
0
  2
_OPEN
 70
     0
 10
0.0
 20
0.0
 30
0.0
  3
_OPEN
  1

  0
LINE
  5
27
  8
0
  6
BYBLOCK
 62
     0
 10
-1.0
 20
0.1666666666666666
 30
0.0
 11
0.0
 21
0.0
 31
0.0
  0
LINE
  5
28
  8
0
  6
BYBLOCK
 62
     0
 10
0.0
 20
0.0
 30
0.0
 11
-1.0
 21
-0.1666666666666666
 31
0.0
  0
LINE
  5
29
  8
0
  6
BYBLOCK
 62
     0
 10
0.0
 20
0.0
 30
0.0
 11
-1.0
 21
0.0
 31
0.0
  0
ENDBLK
  5
2B
  8
0
  0
BLOCK
  8
0
  2
_DOT
 70
     0
 10
0.0
 20
0.0
 30
0.0
  3
_DOT
  1

  0
POLYLINE
  5
DB
  8
0
  6
BYBLOCK
 62
     0
 66
     1
 10
0.0
 20
0.0
 30
0.0
 70
     1
 40
0.25
 41
0.25
  0
VERTEX
  5
2668
  8
0
  6
BYBLOCK
 62
     0
 10
-0.125
 20
0.0
 30
0.0
 42
1.0
  0
VERTEX
  5
2669
  8
0
  6
BYBLOCK
 62
     0
 10
0.125
 20
0.0
 30
0.0
 42
1.0
  0
SEQEND
  5
266A
  8
0
  6
BYBLOCK
 62
     0
  0
LINE
  5
DF
  8
0
  6
BYBLOCK
 62
     0
 10
-0.25
 20
0.0
 30
0.0
 11
-1.0
 21
0.0
 31
0.0
  0
ENDBLK
  5
E1
  8
0
  0
BLOCK
  8
0
  2
まっすぐの矢印
 70
     0
 10
0.0
 20
0.0
 30
0.0
  3
まっすぐの矢印
  1

  0
LINE
  5
8C
  8
SP
 10
13.01863531255526
 20
-41.453946163708451
 30
0.0
 11
13.01863531255526
 21
-93.495696758840026
 31
0.0
  0
LINE
  5
8D
  8
SP
 10
13.01863531255526
 20
-93.495696758840026
 30
0.0
 11
-13.01863531255526
 21
-93.495696758840026
 31
0.0
  0
LINE
  5
8E
  8
SP
 10
-13.01863531255526
 20
-93.495696758840026
 30
0.0
 11
-13.01863531255526
 21
-41.453946163708451
 31
0.0
  0
LINE
  5
8F
  8
SP
 10
-13.01863531255526
 20
-41.453946163708451
 30
0.0
 11
-32.06015471115802
 21
-41.453946163708451
 31
0.0
  0
LINE
  5
90
  8
SP
 10
-32.06015471115802
 20
-41.453946163708451
 30
0.0
 11
0.0
 21
0.0
 31
0.0
  0
LINE
  5
91
  8
SP
 10
0.0
 20
0.0
 30
0.0
 11
32.06015471115802
 21
-41.453946163708451
 31
0.0
  0
LINE
  5
92
  8
SP
 10
32.06015471115802
 20
-41.453946163708451
 30
0.0
 11
13.01863531255526
 21
-41.453946163708451
 31
0.0
  0
ENDBLK
  5
94
  8
0
  0
BLOCK
  8
0
  2
左回転矢印
 70
     0
 10
0.0
 20
0.0
 30
0.0
  3
左回転矢印
  1

  0
LINE
  5
2C7
  8
SP
 10
43.930449171819873
 20
24.859487323637271
 30
0.0
 11
38.511878498580238
 21
44.478978865188871
 31
0.0
  0
LINE
  5
2C8
  8
SP
 10
38.511878498580238
 20
44.478978865188871
 30
0.0
 11
0.0
 21
0.0
 31
0.0
  0
LINE
  5
2C9
  8
SP
 10
0.0
 20
0.0
 30
0.0
 11
52.57968174421967
 21
-6.4575435924972453
 31
0.0
  0
LINE
  5
2CA
  8
SP
 10
52.57968174421967
 20
-6.4575435924972453
 30
0.0
 11
48.189912989015284
 21
9.436875093862227
 31
0.0
  0
ARC
  5
2CB
  8
SP
 10
93.893649146691985
 20
-156.0466295121104
 30
0.0
 40
171.67883327727239
 50
67.881388989212894
 51
105.4392492786835
  0
LINE
  5
2CC
  8
SP
 10
158.53505643637521
 20
2.997736182040398
 30
0.0
 11
164.55945966006539
 21
17.820238190756751
 31
0.0
  0
ARC
  5
2CD
  8
SP
 10
93.893649146692198
 20
-156.04662951211091
 30
0.0
 40
187.67883327727299
 50
67.881388989212994
 51
105.4392492786836
  0
ENDBLK
  5
2CF
  8
0
  0
BLOCK
  8
0
  2
*D4
 70
     1
 10
0.0
 20
0.0
 30
0.0
  3
*D4
  1

  0
LINE
  5
265B
  8
SP
 10
30891.989199236388
 20
29230.560920475389
 30
0.0
 11
30242.580110030802
 21
29230.560920475389
 31
0.0
  0
LINE
  5
265C
  8
SP
 10
30282.580110030802
 20
29450.560920475378
 30
0.0
 11
30282.580110030802
 21
29530.560920475389
 31
0.0
  0
LINE
  5
265D
  8
SP
 10
30282.580110030802
 20
29150.560920475389
 30
0.0
 11
30282.580110030802
 21
29070.560920475389
 31
0.0
  0
LINE
  5
265E
  8
SP
 10
30282.580110030802
 20
29300.560920475378
 30
0.0
 11
30058.99856502132
 21
29361.636957447561
 31
0.0
  0
LINE
  5
265F
  8
SP
 10
30058.99856502132
 20
29361.636957447561
 30
0.0
 11
30058.99856502132
 21
29840.92635371623
 31
0.0
  0
TEXT
  8
0
  40
120
  5
268A
  72
0
  71
0
 10
29707.6
 20
29388.9
 30
0.000000
  1
(140)
  0
LINE
  5
2661
  8
SP
 10
30282.580110030802
 20
29370.560920475389
 30
0.0
 11
30282.580110030802
 21
29230.560920475389
 31
0.0
  0
LINE
  5
2662
  8
SP
 10
30282.580110030802
 20
29370.560920475389
 30
0.0
 11
30282.580110030802
 21
29230.560920475389
 31
0.0
  0
INSERT
  5
2663
  8
SP
  2
_OPEN
 10
30282.580110030802
 20
29370.560920475389
 30
0.0
 41
80.0
 42
80.0
 43
80.0
 50
270.0
  0
INSERT
  5
2664
  8
SP
  2
_DOT
 10
30282.580110030802
 20
29230.560920475389
 30
0.0
 41
80.0
 42
80.0
 43
80.0
 50
90.0
  0
POINT
  5
2665
  8
DEFPOINTS
 62
     0
 10
30966.875986903899
 20
29370.560920475389
 30
0.0
  0
POINT
  5
2666
  8
DEFPOINTS
 62
     0
 10
30931.989199236388
 20
29230.560920475389
 30
0.0
  0
POINT
  5
2667
  8
DEFPOINTS
 62
     0
 10
30282.580110030802
 20
29230.560920475389
 30
0.0
  0
ENDBLK
  5
88C
  8
0
  0
BLOCK
  8
0
  2
*D5
 70
     1
 10
0.0
 20
0.0
 30
0.0
  3
*D5
  1

  0
LINE
  5
262C
  8
SP
 10
34726.952116172179
 20
31378.93472047539
 30
0.0
 11
34726.952116172179
 21
32512.112773783989
 31
0.0
  0
LINE
  5
262D
  8
SP
 10
37176.952116172179
 20
32232.15659496138
 30
0.0
 11
37176.952116172179
 21
32512.112773783989
 31
0.0
  0
LINE
  5
262E
  8
SP
 10
34806.952116172179
 20
32472.112773783989
 30
0.0
 11
37096.952116172179
 21
32472.112773783989
 31
0.0
  0
INSERT
  5
262F
  8
SP
  2
_OPEN
 10
34726.952116172179
 20
32472.112773783989
 30
0.0
 41
80.0
 42
80.0
 43
80.0
 50
180.0
  0
INSERT
  5
2630
  8
SP
  2
_OPEN
 10
37176.952116172179
 20
32472.112773783989
 30
0.0
 41
80.0
 42
80.0
 43
80.0
  0
TEXT
  5
2631
  8
FUTO
 10
35654.959427267197
 20
32543.541345212561
 30
0.0
 40
120.0
  1
(2450)
 51
15.0
  0
POINT
  5
2632
  8
DEFPOINTS
 62
     0
 10
34726.952116172179
 20
31338.93472047539
 30
0.0
  0
POINT
  5
2633
  8
DEFPOINTS
 62
     0
 10
37176.952116172179
 20
32192.15659496138
 30
0.0
  0
POINT
  5
2634
  8
DEFPOINTS
 62
     0
 10
37176.952116172179
 20
32472.112773783989
 30
0.0
  0
ENDBLK
  5
1423
  8
0
  0
BLOCK
  8
0
  2
*D6
 70
     1
 10
0.0
 20
0.0
 30
0.0
  3
*D6
  1

  0
LINE
  5
2623
  8
SP
 10
31991.989199236388
 20
32346.944172465071
 30
0.0
 11
31991.989199236388
 21
32510.999262626559
 31
0.0
  0
LINE
  5
2624
  8
SP
 10
33981.989199236392
 20
32165.560920475389
 30
0.0
 11
33981.989199236392
 21
32510.999262626559
 31
0.0
  0
LINE
  5
2625
  8
SP
 10
32071.989199236388
 20
32470.999262626559
 30
0.0
 11
33901.989199236392
 21
32470.999262626559
 31
0.0
  0
INSERT
  5
2626
  8
SP
  2
_OPEN
 10
31991.989199236388
 20
32470.999262626559
 30
0.0
 41
80.0
 42
80.0
 43
80.0
 50
180.0
  0
INSERT
  5
2627
  8
SP
  2
_OPEN
 10
33981.989199236392
 20
32470.999262626559
 30
0.0
 41
80.0
 42
80.0
 43
80.0
  0
TEXT
  5
2628
  8
FUTO
 10
32763.816991971649
 20
32490.999262626559
 30
0.0
 40
120.0
  1
1990
 51
15.0
  0
POINT
  5
2629
  8
DEFPOINTS
 62
     0
 10
31991.989199236388
 20
32306.944172465071
 30
0.0
  0
POINT
  5
262A
  8
DEFPOINTS
 62
     0
 10
33981.989199236392
 20
32125.560920475389
 30
0.0
  0
POINT
  5
262B
  8
DEFPOINTS
 62
     0
 10
33981.989199236392
 20
32470.999262626559
 30
0.0
  0
ENDBLK
  5
18B9
  8
0
  0
BLOCK
  8
0
  2
*D7
 70
     1
 10
0.0
 20
0.0
 30
0.0
  3
*D7
  1

  0
LINE
  5
266B
  8
SP
 10
30891.989199236388
 20
29080.560920475389
 30
0.0
 11
30242.580110030802
 21
29080.560920475389
 31
0.0
  0
LINE
  5
266C
  8
SP
 10
30282.580110030802
 20
29310.560920475389
 30
0.0
 11
30282.580110030802
 21
29390.560920475389
 31
0.0
  0
LINE
  5
266D
  8
SP
 10
30282.580110030802
 20
29000.560920475389
 30
0.0
 11
30282.580110030802
 21
28600.560920475389
 31
0.0
  0
LINE
  5
266E
  8
SP
 10
30282.580110030802
 20
29230.560920475389
 30
0.0
 11
30282.580110030802
 21
29080.560920475389
 31
0.0
  0
INSERT
  5
266F
  8
SP
  2
_DOT
 10
30282.580110030802
 20
29230.560920475389
 30
0.0
 41
80.0
 42
80.0
 43
80.0
 50
270.0
  0
INSERT
  5
2670
  8
SP
  2
_OPEN
 10
30282.580110030802
 20
29080.560920475389
 30
0.0
 41
80.0
 42
80.0
 43
80.0
 50
90.0
  0
TEXT
  8
0
  40
120
  5
268B
  72
0
  71
0
 10
29962.6
 20
28548.2
 30
0.000000
  1
150
  0
POINT
  5
2672
  8
DEFPOINTS
 62
     0
 10
30931.989199236388
 20
29230.560920475389
 30
0.0
  0
POINT
  5
2673
  8
DEFPOINTS
 62
     0
 10
30931.989199236388
 20
29080.560920475389
 30
0.0
  0
POINT
  5
2674
  8
DEFPOINTS
 62
     0
 10
30282.580110030802
 20
29080.560920475389
 30
0.0
  0
ENDBLK
  5
18FA
  8
0
  0
BLOCK
  8
0
  2
*D8
 70
     1
 10
0.0
 20
0.0
 30
0.0
  3
*D8
  1

  0
LINE
  5
25EF
  8
SP
 10
30986.989199236388
 20
36348.798435098259
 30
0.0
 11
30244.67644228059
 21
36348.798435098259
 31
0.0
  0
LINE
  5
25F0
  8
SP
 10
30299.754755527469
 20
35553.798435098252
 30
0.0
 11
30244.67644228059
 21
35553.798435098252
 31
0.0
  0
LINE
  5
25F1
  8
SP
 10
30284.67644228059
 20
36268.798435098259
 30
0.0
 11
30284.67644228059
 21
35633.798435098252
 31
0.0
  0
INSERT
  5
25F2
  8
SP
  2
_OPEN
 10
30284.67644228059
 20
36348.798435098259
 30
0.0
 41
80.0
 42
80.0
 43
80.0
 50
90.0
  0
INSERT
  5
25F3
  8
SP
  2
_OPEN
 10
30284.67644228059
 20
35553.798435098252
 30
0.0
 41
80.0
 42
80.0
 43
80.0
 50
270.0
  0
TEXT
  5
25F4
  8
FUTO
 10
30264.67644228059
 20
35765.171372306213
 30
0.0
 40
120.0
  1
795
 50
90.0
 51
15.0
  0
POINT
  5
25F5
  8
DEFPOINTS
 62
     0
 10
31026.989199236388
 20
36348.798435098259
 30
0.0
  0
POINT
  5
25F6
  8
DEFPOINTS
 62
     0
 10
30339.754755527469
 20
35553.798435098252
 30
0.0
  0
POINT
  5
25F7
  8
DEFPOINTS
 62
     0
 10
30284.67644228059
 20
35553.798435098252
 30
0.0
  0
ENDBLK
  5
192F
  8
0
  0
BLOCK
  8
0
  2
*D9
 70
     1
 10
0.0
 20
0.0
 30
0.0
  3
*D9
  1

  0
LINE
  5
25B4
  8
SP
 10
30367.002933746269
 20
35553.798435098252
 30
0.0
 11
30244.676442280601
 21
35553.798435098252
 31
0.0
  0
LINE
  5
25B5
  8
SP
 10
31571.989199236388
 20
33103.798435098259
 30
0.0
 11
30244.676442280601
 21
33103.798435098259
 31
0.0
  0
LINE
  5
25B6
  8
SP
 10
30284.676442280601
 20
35473.798435098252
 30
0.0
 11
30284.676442280601
 21
33183.798435098259
 31
0.0
  0
INSERT
  5
25B7
  8
SP
  2
_OPEN
 10
30284.676442280601
 20
35553.798435098252
 30
0.0
 41
80.0
 42
80.0
 43
80.0
 50
90.0
  0
INSERT
  5
25B8
  8
SP
  2
_OPEN
 10
30284.676442280601
 20
33103.798435098259
 30
0.0
 41
80.0
 42
80.0
 43
80.0
 50
270.0
  0
TEXT
  5
25B9
  8
FUTO
 10
30264.676442280601
 20
34029.79552543824
 30
0.0
 40
120.0
  1
2450
 50
90.0
 51
15.0
  0
POINT
  5
25BA
  8
DEFPOINTS
 62
     0
 10
30407.002933746269
 20
35553.798435098252
 30
0.0
  0
POINT
  5
25BB
  8
DEFPOINTS
 62
     0
 10
31611.989199236388
 20
33103.798435098259
 30
0.0
  0
POINT
  5
25BC
  8
DEFPOINTS
 62
     0
 10
30284.676442280601
 20
33103.798435098259
 30
0.0
  0
ENDBLK
  5
193B
  8
0
  0
BLOCK
  8
0
  2
*D10
 70
     1
 10
0.0
 20
0.0
 30
0.0
  3
*D10
  1

  0
LINE
  5
25C6
  8
SP
 10
30931.989199236388
 20
29040.560920475389
 30
0.0
 11
30931.989199236388
 21
28286.63899113646
 31
0.0
  0
LINE
  5
25C7
  8
SP
 10
33931.989199236392
 20
29040.560920475389
 30
0.0
 11
33931.989199236392
 21
28286.63899113646
 31
0.0
  0
LINE
  5
25C8
  8
SP
 10
31011.989199236388
 20
28326.63899113646
 30
0.0
 11
33851.989199236392
 21
28326.63899113646
 31
0.0
  0
INSERT
  5
25C9
  8
SP
  2
_OPEN
 10
30931.989199236388
 20
28326.63899113646
 30
0.0
 41
80.0
 42
80.0
 43
80.0
 50
180.0
  0
INSERT
  5
25CA
  8
SP
  2
_OPEN
 10
33931.989199236392
 20
28326.63899113646
 30
0.0
 41
80.0
 42
80.0
 43
80.0
  0
TEXT
  5
25CB
  8
FUTO
 10
32207.34081911909
 20
28346.63899113646
 30
0.0
 40
120.0
  1
3000
 51
15.0
  0
POINT
  5
25CC
  8
DEFPOINTS
 62
     0
 10
30931.989199236388
 20
29080.560920475389
 30
0.0
  0
POINT
  5
25CD
  8
DEFPOINTS
 62
     0
 10
33931.989199236392
 20
29080.560920475389
 30
0.0
  0
POINT
  5
25CE
  8
DEFPOINTS
 62
     0
 10
33931.989199236392
 20
28326.63899113646
 30
0.0
  0
ENDBLK
  5
1983
  8
0
  0
BLOCK
  8
0
  2
*D11
 70
     1
 10
0.0
 20
0.0
 30
0.0
  3
*D11
  1

  0
LINE
  5
2675
  8
SP
 10
33931.989199236392
 20
29040.560920475389
 30
0.0
 11
33931.989199236392
 21
28605.353541757078
 31
0.0
  0
LINE
  5
2676
  8
SP
 10
32071.989199236388
 20
28645.353541757078
 30
0.0
 11
33851.989199236392
 21
28645.353541757078
 31
0.0
  0
INSERT
  5
2677
  8
SP
  2
_OPEN
 10
31991.989199236388
 20
28645.353541757078
 30
0.0
 41
80.0
 42
80.0
 43
80.0
 50
180.0
  0
INSERT
  5
2678
  8
SP
  2
_OPEN
 10
33931.989199236392
 20
28645.353541757078
 30
0.0
 41
80.0
 42
80.0
 43
80.0
  0
TEXT
  8
0
  40
120
  5
268C
  72
0
  71
0
 10
32722.0
 20
28513.0
 30
0.000000
  1
1940
  0
POINT
  5
267A
  8
DEFPOINTS
 62
     0
 10
31991.989199236388
 20
28999.906745465181
 30
0.0
  0
POINT
  5
267B
  8
DEFPOINTS
 62
     0
 10
33931.989199236392
 20
29080.560920475389
 30
0.0
  0
POINT
  5
267C
  8
DEFPOINTS
 62
     0
 10
33931.989199236392
 20
28645.353541757078
 30
0.0
  0
ENDBLK
  5
198E
  8
0
  0
BLOCK
  8
0
  2
*D12
 70
     1
 10
0.0
 20
0.0
 30
0.0
  3
*D12
  1

  0
LINE
  5
25BD
  8
SP
 10
30931.989199236388
 20
29040.560920475389
 30
0.0
 11
30931.989199236388
 21
28605.353541757078
 31
0.0
  0
LINE
  5
25BE
  8
SP
 10
31991.989199236388
 20
28959.90674546517
 30
0.0
 11
31991.989199236388
 21
28605.353541757078
 31
0.0
  0
LINE
  5
25BF
  8
SP
 10
31011.989199236388
 20
28645.353541757078
 30
0.0
 11
31911.989199236388
 21
28645.353541757078
 31
0.0
  0
INSERT
  5
25C0
  8
SP
  2
_OPEN
 10
30931.989199236388
 20
28645.353541757078
 30
0.0
 41
80.0
 42
80.0
 43
80.0
 50
180.0
  0
INSERT
  5
25C1
  8
SP
  2
_OPEN
 10
31991.989199236388
 20
28645.353541757078
 30
0.0
 41
80.0
 42
80.0
 43
80.0
  0
TEXT
  5
25C2
  8
FUTO
 10
31238.816991971649
 20
28665.353541757078
 30
0.0
 40
120.0
  1
1060
 51
15.0
  0
POINT
  5
25C3
  8
DEFPOINTS
 62
     0
 10
30931.989199236388
 20
29080.560920475389
 30
0.0
  0
POINT
  5
25C4
  8
DEFPOINTS
 62
     0
 10
31991.989199236388
 20
28999.906745465181
 30
0.0
  0
POINT
  5
25C5
  8
DEFPOINTS
 62
     0
 10
31991.989199236388
 20
28645.353541757078
 30
0.0
  0
ENDBLK
  5
199A
  8
0
  0
BLOCK
  8
0
  2
*D13
 70
     1
 10
0.0
 20
0.0
 30
0.0
  3
*D13
  1

  0
LINE
  5
2600
  8
SP
 10
35065.952116172179
 20
29040.560903869398
 30
0.0
 11
35065.952116172179
 21
28301.04274614017
 31
0.0
  0
LINE
  5
2601
  8
SP
 10
37915.952116172179
 20
29040.560903869398
 30
0.0
 11
37915.952116172179
 21
28301.04274614017
 31
0.0
  0
LINE
  5
2602
  8
SP
 10
35145.952116172179
 20
28341.04274614017
 30
0.0
 11
37835.952116172179
 21
28341.04274614017
 31
0.0
  0
INSERT
  5
2603
  8
SP
  2
_OPEN
 10
35065.952116172179
 20
28341.04274614017
 30
0.0
 41
80.0
 42
80.0
 43
80.0
 50
180.0
  0
INSERT
  5
2604
  8
SP
  2
_OPEN
 10
37915.952116172179
 20
28341.04274614017
 30
0.0
 41
80.0
 42
80.0
 43
80.0
  0
TEXT
  5
2605
  8
FUTO
 10
36269.366012539809
 20
28361.04274614017
 30
0.0
 40
120.0
  1
2850
 51
15.0
  0
POINT
  5
2606
  8
DEFPOINTS
 62
     0
 10
35065.952116172179
 20
29080.560903869398
 30
0.0
  0
POINT
  5
2607
  8
DEFPOINTS
 62
     0
 10
37915.952116172179
 20
29080.560903869398
 30
0.0
  0
POINT
  5
2608
  8
DEFPOINTS
 62
     0
 10
37915.952116172179
 20
28341.04274614017
 30
0.0
  0
ENDBLK
  5
1A49
  8
0
  0
BLOCK
  8
0
  2
*D14
 70
     1
 10
0.0
 20
0.0
 30
0.0
  3
*D14
  1

  0
LINE
  5
2609
  8
SP
 10
35065.952116172179
 20
29040.560903869398
 30
0.0
 11
35065.952116172179
 21
28601.080291105089
 31
0.0
  0
LINE
  5
260A
  8
SP
 10
37176.952116172179
 20
29019.633851875471
 30
0.0
 11
37176.952116172179
 21
28601.080291105089
 31
0.0
  0
LINE
  5
260B
  8
SP
 10
35145.952116172179
 20
28641.080291105089
 30
0.0
 11
37096.952116172179
 21
28641.080291105089
 31
0.0
  0
INSERT
  5
260C
  8
SP
  2
_OPEN
 10
35065.952116172179
 20
28641.080291105089
 30
0.0
 41
80.0
 42
80.0
 43
80.0
 50
180.0
  0
INSERT
  5
260D
  8
SP
  2
_OPEN
 10
37176.952116172179
 20
28641.080291105089
 30
0.0
 41
80.0
 42
80.0
 43
80.0
  0
TEXT
  5
260E
  8
FUTO
 10
35942.518021769167
 20
28661.080291105089
 30
0.0
 40
120.0
  1
2111
 51
15.0
  0
POINT
  5
260F
  8
DEFPOINTS
 62
     0
 10
35065.952116172179
 20
29080.560903869398
 30
0.0
  0
POINT
  5
2610
  8
DEFPOINTS
 62
     0
 10
37176.952116172179
 20
29059.633851875471
 30
0.0
  0
POINT
  5
2611
  8
DEFPOINTS
 62
     0
 10
37176.952116172179
 20
28641.080291105089
 30
0.0
  0
ENDBLK
  5
1A55
  8
0
  0
BLOCK
  8
0
  2
*D15
 70
     1
 10
0.0
 20
0.0
 30
0.0
  3
*D15
  1

  0
LINE
  5
267D
  8
SP
 10
37915.952116172179
 20
29040.560903869398
 30
0.0
 11
37915.952116172179
 21
28601.080291105089
 31
0.0
  0
LINE
  5
267E
  8
SP
 10
37256.952116172179
 20
28641.080291105089
 30
0.0
 11
37835.952116172179
 21
28641.080291105089
 31
0.0
  0
INSERT
  5
267F
  8
SP
  2
_OPEN
 10
37176.952116172179
 20
28641.080291105089
 30
0.0
 41
80.0
 42
80.0
 43
80.0
 50
180.0
  0
INSERT
  5
2680
  8
SP
  2
_OPEN
 10
37915.952116172179
 20
28641.080291105089
 30
0.0
 41
80.0
 42
80.0
 43
80.0
  0
TEXT
  8
0
  40
120
  5
268D
  72
0
  71
0
 10
37306.5
 20
28508.7
 30
0.000000
  1
739
  0
POINT
  5
2682
  8
DEFPOINTS
 62
     0
 10
37176.952116172179
 20
29059.633851875471
 30
0.0
  0
POINT
  5
2683
  8
DEFPOINTS
 62
     0
 10
37915.952116172179
 20
29080.560903869398
 30
0.0
  0
POINT
  5
2684
  8
DEFPOINTS
 62
     0
 10
37915.952116172179
 20
28641.080291105089
 30
0.0
  0
ENDBLK
  5
1A60
  8
0
  0
BLOCK
  8
0
  2
*D16
 70
     1
 10
0.0
 20
0.0
 30
0.0
  3
*D16
  1

  0
LINE
  5
261A
  8
SP
 10
37176.952116172179
 20
32464.055113148381
 30
0.0
 11
37176.952116172179
 21
32432.112773783989
 31
0.0
  0
LINE
  5
261B
  8
SP
 10
37971.952116172179
 20
31963.93472047539
 30
0.0
 11
37971.952116172179
 21
32512.112773783989
 31
0.0
  0
LINE
  5
261C
  8
SP
 10
37256.952116172179
 20
32472.112773783989
 30
0.0
 11
37891.952116172179
 21
32472.112773783989
 31
0.0
  0
INSERT
  5
261D
  8
SP
  2
_OPEN
 10
37176.952116172179
 20
32472.112773783989
 30
0.0
 41
80.0
 42
80.0
 43
80.0
 50
180.0
  0
INSERT
  5
261E
  8
SP
  2
_OPEN
 10
37971.952116172179
 20
32472.112773783989
 30
0.0
 41
80.0
 42
80.0
 43
80.0
  0
TEXT
  5
261F
  8
FUTO
 10
37329.737539670423
 20
32492.112773783989
 30
0.0
 40
120.0
  1
795
 51
15.0
  0
POINT
  5
2620
  8
DEFPOINTS
 62
     0
 10
37176.952116172179
 20
32504.055113148381
 30
0.0
  0
POINT
  5
2621
  8
DEFPOINTS
 62
     0
 10
37971.952116172179
 20
31923.93472047539
 30
0.0
  0
POINT
  5
2622
  8
DEFPOINTS
 62
     0
 10
37971.952116172179
 20
32472.112773783989
 30
0.0
  0
ENDBLK
  5
1B13
  8
0
  0
BLOCK
  8
0
  2
*D17
 70
     1
 10
0.0
 20
0.0
 30
0.0
  3
*D17
  1

  0
LINE
  5
25D9
  8
SP
 10
30891.989199236388
 20
29370.560920475389
 30
0.0
 11
30242.580110030802
 21
29370.560920475389
 31
0.0
  0
LINE
  5
25DA
  8
SP
 10
30406.63520019229
 20
30960.560920475378
 30
0.0
 11
30242.580110030802
 21
30960.560920475378
 31
0.0
  0
LINE
  5
25DB
  8
SP
 10
30282.580110030802
 20
29450.560920475378
 30
0.0
 11
30282.580110030802
 21
30880.560920475389
 31
0.0
  0
INSERT
  5
25DC
  8
SP
  2
_OPEN
 10
30282.580110030802
 20
29370.560920475389
 30
0.0
 41
80.0
 42
80.0
 43
80.0
 50
270.0
  0
INSERT
  5
25DD
  8
SP
  2
_OPEN
 10
30282.580110030802
 20
30960.560920475378
 30
0.0
 41
80.0
 42
80.0
 43
80.0
 50
90.0
  0
TEXT
  5
25DE
  8
FUTO
 10
30262.580110030802
 20
29942.38871321065
 30
0.0
 40
120.0
  1
1590
 50
90.0
 51
15.0
  0
POINT
  5
25DF
  8
DEFPOINTS
 62
     0
 10
30931.989199236388
 20
29370.560920475389
 30
0.0
  0
POINT
  5
25E0
  8
DEFPOINTS
 62
     0
 10
30446.63520019229
 20
30960.560920475378
 30
0.0
  0
POINT
  5
25E1
  8
DEFPOINTS
 62
     0
 10
30282.580110030802
 20
30960.560920475378
 30
0.0
  0
ENDBLK
  5
1B77
  8
0
  0
BLOCK
  8
0
  2
*D18
 70
     1
 10
0.0
 20
0.0
 30
0.0
  3
*D18
  1

  0
LINE
  5
25AB
  8
SP
 10
30406.63520019229
 20
30960.560920475378
 30
0.0
 11
30242.580110030802
 21
30960.560920475378
 31
0.0
  0
LINE
  5
25AC
  8
SP
 10
31953.989199236388
 20
32125.560920475389
 30
0.0
 11
30242.580110030802
 21
32125.560920475389
 31
0.0
  0
LINE
  5
25AD
  8
SP
 10
30282.580110030802
 20
31040.560920475378
 30
0.0
 11
30282.580110030802
 21
32045.560920475389
 31
0.0
  0
INSERT
  5
25AE
  8
SP
  2
_OPEN
 10
30282.580110030802
 20
30960.560920475378
 30
0.0
 41
80.0
 42
80.0
 43
80.0
 50
270.0
  0
INSERT
  5
25AF
  8
SP
  2
_OPEN
 10
30282.580110030802
 20
32125.560920475389
 30
0.0
 41
80.0
 42
80.0
 43
80.0
 50
90.0
  0
TEXT
  5
25B0
  8
FUTO
 10
30262.580110030802
 20
31331.112151011439
 30
0.0
 40
120.0
  1
1165
 50
90.0
 51
15.0
  0
POINT
  5
25B1
  8
DEFPOINTS
 62
     0
 10
30446.63520019229
 20
30960.560920475378
 30
0.0
  0
POINT
  5
25B2
  8
DEFPOINTS
 62
     0
 10
31993.989199236388
 20
32125.560920475389
 30
0.0
  0
POINT
  5
25B3
  8
DEFPOINTS
 62
     0
 10
30282.580110030802
 20
32125.560920475389
 30
0.0
  0
ENDBLK
  5
1B84
  8
0
  0
BLOCK
  8
0
  2
*D19
 70
     1
 10
0.0
 20
0.0
 30
0.0
  3
*D19
  1

  0
LINE
  5
25A2
  8
SP
 10
31991.989199236388
 20
36587.793738270477
 30
0.0
 11
31991.989199236388
 21
36860.786073027382
 31
0.0
  0
LINE
  5
25A3
  8
SP
 10
30649.989199236388
 20
36307.798435098252
 30
0.0
 11
30649.989199236388
 21
36860.786073027382
 31
0.0
  0
LINE
  5
25A4
  8
SP
 10
31911.989199236388
 20
36820.786073027382
 30
0.0
 11
30729.989199236388
 21
36820.786073027382
 31
0.0
  0
INSERT
  5
25A5
  8
SP
  2
_OPEN
 10
31991.989199236388
 20
36820.786073027382
 30
0.0
 41
80.0
 42
80.0
 43
80.0
  0
INSERT
  5
25A6
  8
SP
  2
_OPEN
 10
30649.989199236388
 20
36820.786073027382
 30
0.0
 41
80.0
 42
80.0
 43
80.0
 50
180.0
  0
TEXT
  5
25A7
  8
FUTO
 10
31097.816991971649
 20
36840.786073027382
 30
0.0
 40
120.0
  1
1342
 51
15.0
  0
POINT
  5
25A8
  8
DEFPOINTS
 62
     0
 10
31991.989199236388
 20
36547.793738270477
 30
0.0
  0
POINT
  5
25A9
  8
DEFPOINTS
 62
     0
 10
30649.989199236388
 20
36267.798435098252
 30
0.0
  0
POINT
  5
25AA
  8
DEFPOINTS
 62
     0
 10
30649.989199236388
 20
36820.786073027382
 30
0.0
  0
ENDBLK
  5
1BB5
  8
0
  0
BLOCK
  8
0
  2
*D20
 70
     1
 10
0.0
 20
0.0
 30
0.0
  3
*D20
  1

  0
LINE
  5
2635
  8
SP
 10
31991.989199236388
 20
36587.793738270477
 30
0.0
 11
31991.989199236388
 21
36860.786073027382
 31
0.0
  0
LINE
  5
2636
  8
SP
 10
33981.989199236392
 20
36322.798435098252
 30
0.0
 11
33981.989199236392
 21
36860.786073027382
 31
0.0
  0
LINE
  5
2637
  8
SP
 10
32071.989199236388
 20
36820.786073027382
 30
0.0
 11
33901.989199236392
 21
36820.786073027382
 31
0.0
  0
INSERT
  5
2638
  8
SP
  2
_OPEN
 10
31991.989199236388
 20
36820.786073027382
 30
0.0
 41
80.0
 42
80.0
 43
80.0
 50
180.0
  0
INSERT
  5
2639
  8
SP
  2
_OPEN
 10
33981.989199236392
 20
36820.786073027382
 30
0.0
 41
80.0
 42
80.0
 43
80.0
  0
TEXT
  5
263A
  8
FUTO
 10
32763.816991971649
 20
36840.786073027382
 30
0.0
 40
120.0
  1
1990
 51
15.0
  0
POINT
  5
263B
  8
DEFPOINTS
 62
     0
 10
31991.989199236388
 20
36547.793738270477
 30
0.0
  0
POINT
  5
263C
  8
DEFPOINTS
 62
     0
 10
33981.989199236392
 20
36282.798435098252
 30
0.0
  0
POINT
  5
263D
  8
DEFPOINTS
 62
     0
 10
33981.989199236392
 20
36820.786073027382
 30
0.0
  0
ENDBLK
  5
1BC2
  8
0
  0
BLOCK
  8
0
  2
*D21
 70
     1
 10
0.0
 20
0.0
 30
0.0
  3
*D21
  1

  0
LINE
  5
263E
  8
SP
 10
38011.952116172179
 20
31858.93472047539
 30
0.0
 11
38591.960258383908
 21
31858.93472047539
 31
0.0
  0
LINE
  5
263F
  8
SP
 10
38011.952116172179
 20
30058.93472047539
 30
0.0
 11
38591.960258383908
 21
30058.93472047539
 31
0.0
  0
LINE
  5
2640
  8
SP
 10
38551.960258383908
 20
31778.93472047539
 30
0.0
 11
38551.960258383908
 21
30138.93472047539
 31
0.0
  0
INSERT
  5
2641
  8
SP
  2
_OPEN
 10
38551.960258383908
 20
31858.93472047539
 30
0.0
 41
80.0
 42
80.0
 43
80.0
 50
90.0
  0
INSERT
  5
2642
  8
SP
  2
_OPEN
 10
38551.960258383908
 20
30058.93472047539
 30
0.0
 41
80.0
 42
80.0
 43
80.0
 50
270.0
  0
INSERT
  5
2643
  8
FUTO
  2
*U22
 10
0.0
 20
0.0
 30
0.0
  0
POINT
  5
2644
  8
DEFPOINTS
 62
     0
 10
37971.952116172179
 20
31858.93472047539
 30
0.0
  0
POINT
  5
2645
  8
DEFPOINTS
 62
     0
 10
37971.952116172179
 20
30058.93472047539
 30
0.0
  0
POINT
  5
2646
  8
DEFPOINTS
 62
     0
 10
38551.960258383908
 20
30058.93472047539
 30
0.0
  0
ENDBLK
  5
1C45
  8
0
  0
BLOCK
  8
0
  2
*U22
 70
     1
 10
0.0
 20
0.0
 30
0.0
  3
*U22
  1

  0
TEXT
  5
2686
  8
FUTO
 10
38531.960258383908
 20
30661.927303638578
 30
0.0
 40
120.0
  1
\U+2205
 50
90.0
 51
15.0
  0
TEXT
  5
2687
  8
FUTO
 10
38531.960258383908
 20
30770.498732209999
 30
0.0
 40
120.0
  1
1800
 50
90.0
 51
15.0
  0
ENDBLK
  5
2689
  8
0
  0
ENDSEC
  0
SECTION
  2
ENTITIES
  0
INSERT
  5
89
  8
FUTO
  2
まっすぐの矢印
 10
33558.43149589673
 20
32411.222531140531
 30
0.0
 41
2.0
 42
2.0
 43
2.0
  0
LINE
  5
B2
  8
CT
 10
30446.63520019229
 20
30960.560920475378
 30
0.0
 11
33906.617305746491
 21
30960.560920475378
 31
0.0
  0
DIMENSION
  5
CF
  8
SP
  2
*D4
 10
30282.580110030802
 20
29230.560920475389
 30
0.0
 11
30058.998565021309
 21
29381.636957447561
 31
0.0
 70
   128
  1
(<>)
 13
30966.875986903899
 23
29370.560920475389
 33
0.0
 14
30931.989199236388
 24
29230.560920475389
 34
0.0
 50
90.0
1001
ACAD
1000
DSTYLE
1002
{
1070
   287
1070
     4
1070
    40
1040
40.0
1070
    75
1070
     1
1070
   279
1070
     1
1070
   289
1070
     3
1070
     7
1000
DOT
1002
}
  0
DIMENSION
  5
E7
  8
SP
  2
*D7
 10
30282.580110030802
 20
29080.560920475389
 30
0.0
 11
30202.580110030791
 21
28760.560920475389
 31
0.0
 70
     0
 13
30931.989199236388
 23
29230.560920475389
 33
0.0
 14
30931.989199236388
 24
29080.560920475389
 34
0.0
 50
90.0
1001
ACAD
1000
DSTYLE
1002
{
1070
   287
1070
     1
1070
    40
1040
40.0
1070
    75
1070
     1
1070
   289
1070
     1
1070
     6
1000
DOT
1002
}
  0
LINE
  5
104
  8
CT
 10
31991.989199236388
 20
32281.669334586939
 30
0.0
 11
31991.989199236388
 21
28967.653360691522
 31
0.0
  0
ARC
  5
10E
  8
FUTO
 10
33491.989199236392
 20
29870.560920475378
 30
0.0
 40
280.0
 50
240.18746141754721
 51
47.803228589811383
  0
ARC
  5
111
  8
FUTO
 10
33491.989199236392
 20
29870.560920475378
 30
0.0
 40
310.0
 50
300.10230806831191
 51
239.897691931688
  0
LINE
  5
112
  8
CT
 10
33491.989199236392
 20
30535.326806401699
 30
0.0
 11
33491.989199236392
 21
29548.269604214242
 31
0.0
  0
LINE
  5
113
  8
FUTO
 10
33050.989199236392
 20
30951.560920475389
 30
0.0
 11
33050.989199236392
 21
30648.33812971093
 31
0.0
  0
LINE
  5
115
  8
FUTO
 10
30950.989199236388
 20
30951.560920475389
 30
0.0
 11
30950.989199236388
 21
29520.560920475389
 31
0.0
  0
LINE
  5
116
  8
FUTO
 10
30941.989199236388
 20
30951.560920475389
 30
0.0
 11
30941.989199236388
 21
29520.560920475389
 31
0.0
  0
LINE
  5
117
  8
FUTO
 10
33041.989199236392
 20
30969.560920475378
 30
0.0
 11
33041.989199236392
 21
30656.497907311528
 31
0.0
  0
LINE
  5
118
  8
FUTO
 10
33032.989199236392
 20
30969.560920475378
 30
0.0
 11
33032.989199236392
 21
30664.65768491213
 31
0.0
  0
LINE
  5
119
  8
CT
 10
33491.989199236392
 20
29584.059657475391
 30
0.0
 11
33491.989199236392
 21
30168.331336475381
 31
0.0
  0
ARC
  5
122
  8
FUTO
 10
31881.489199236388
 20
30850.060920475389
 30
0.0
 40
1201.5
 50
82.275188289659212
 51
174.7231437130738
  0
ARC
  5
123
  8
KL
 10
31881.489199236388
 20
30850.060920475389
 30
0.0
 40
1181.4999999999991
 50
89.999999999999986
 51
180.99417894367201
  0
ARC
  5
124
  8
KL
 10
32122.989199236388
 20
30829.560920475389
 30
0.0
 40
1423.0
 50
180.0
 51
264.73663459410341
  0
DIMENSION
  5
13A
  8
SP
  2
*D11
 10
33931.989199236392
 20
28645.353541757078
 30
0.0
 11
32961.989199236392
 21
28725.353541757078
 31
0.0
 70
     0
 13
31991.989199236388
 23
28999.906745465181
 33
0.0
 14
33931.989199236392
 24
29080.560920475389
 34
0.0
 50
180.0
1001
ACAD
1000
DSTYLE
1002
{
1070
   287
1070
     4
1070
    40
1040
40.0
1070
    75
1070
     1
1070
   279
1070
     1
1070
   289
1070
     3
1002
}
  0
LINE
  5
146
  8
FUTO
 10
30931.989199236388
 20
29230.560920475389
 30
0.0
 11
33931.989199236392
 21
29230.560920475389
 31
0.0
1001
ACAD
1000
ASC_BOUNDS
1002
{
1070
    19
1005
0
1002
}
  0
LINE
  5
147
  8
FUTO
 10
30931.989199236388
 20
29218.560920475389
 30
0.0
 11
33931.989199236392
 21
29218.560920475389
 31
0.0
  0
LINE
  5
148
  8
FUTO
 10
30931.989199236388
 20
29092.560920475378
 30
0.0
 11
33931.989199236392
 21
29092.560920475378
 31
0.0
  0
LINE
  5
149
  8
FUTO
 10
30931.989199236388
 20
29080.560920475389
 30
0.0
 11
33931.989199236392
 21
29080.560920475389
 31
0.0
  0
DIMENSION
  5
14A
  8
SP
  2
*D10
 10
33931.989199236392
 20
28326.63899113646
 30
0.0
 11
32431.989199236388
 21
28406.63899113646
 31
0.0
 70
     0
 13
30931.989199236388
 23
29080.560920475389
 33
0.0
 14
33931.989199236392
 24
29080.560920475389
 34
0.0
 50
180.0
1001
ACAD
1000
DSTYLE
1002
{
1070
    40
1040
40.0
1002
}
  0
LINE
  5
157
  8
FUTO
 10
30931.989199236388
 20
29508.560920475378
 30
0.0
 11
33931.989199236392
 21
29508.560920475378
 31
0.0
  0
LINE
  5
158
  8
FUTO
 10
30931.989199236388
 20
29382.560920475378
 30
0.0
 11
33931.989199236392
 21
29382.560920475378
 31
0.0
  0
LINE
  5
159
  8
FUTO
 10
30931.989199236388
 20
29520.560920475389
 30
0.0
 11
33931.989199236392
 21
29520.560920475389
 31
0.0
  0
LINE
  5
15A
  8
FUTO
 10
30931.989199236388
 20
29370.560920475389
 30
0.0
 11
33931.989199236392
 21
29370.560920475389
 31
0.0
1001
ACAD
1000
ASC_BOUNDS
1002
{
1070
    19
1005
0
1002
}
  0
LINE
  5
15B
  8
FUTO
 10
33211.989199236392
 20
29620.560920475378
 30
0.0
 11
33308.686171438159
 21
29620.560920475378
 31
0.0
  0
LINE
  5
15C
  8
FUTO
 10
33211.989199236392
 20
29590.560920475389
 30
0.0
 11
33321.989199236392
 21
29590.560920475389
 31
0.0
  0
LINE
  5
15D
  8
FUTO
 10
33391.989199236392
 20
29590.560920475389
 30
0.0
 11
33176.989199236392
 21
29590.560920475389
 31
0.0
  0
LINE
  5
15E
  8
FUTO
 10
33166.989199236392
 20
29520.560920475389
 30
0.0
 11
33391.989199236392
 21
29520.560920475389
 31
0.0
  0
LINE
  5
15F
  8
CT
 10
33154.53023504663
 20
29870.560920475378
 30
0.0
 11
33835.26642142942
 21
29870.560920475378
 31
0.0
  0
LINE
  5
160
  8
CT
 10
33540.092266744279
 20
29433.698740536041
 30
0.0
 11
33540.092266744279
 21
29168.95823590138
 31
0.0
  0
LINE
  5
161
  8
FUTO
 10
33683.945488743331
 20
29370.560920475389
 30
0.0
 11
33683.945488743331
 21
29359.560920475378
 31
0.0
  0
LINE
  5
162
  8
FUTO
 10
33755.945488743331
 20
29370.560920475389
 30
0.0
 11
33755.945488743331
 21
29359.560920475378
 31
0.0
  0
LINE
  5
163
  8
CT
 10
33719.945488743331
 20
29385.088903682601
 30
0.0
 11
33719.945488743331
 21
29210.882128778449
 31
0.0
  0
ARC
  5
164
  8
FUTO
 10
33663.445488743331
 20
29350.560920475389
 30
0.0
 40
9.0
 50
90.0
 51
180.0
  0
LINE
  5
165
  8
FUTO
 10
33785.445488743331
 20
29274.560920475389
 30
0.0
 11
33654.445488743331
 21
29274.560920475389
 31
0.0
  0
LINE
  5
166
  8
FUTO
 10
33931.989199236392
 20
29230.560920475389
 30
0.0
 11
33931.989199236392
 21
29080.560920475389
 31
0.0
  0
LINE
  5
167
  8
FUTO
 10
33755.945488743331
 20
29365.560920475378
 30
0.0
 11
33683.945488743331
 21
29365.560920475378
 31
0.0
  0
ARC
  5
168
  8
FUTO
 10
33776.445488743331
 20
29350.560920475389
 30
0.0
 40
9.0
 50
359.99999999999989
 51
90.000000000000099
  0
LINE
  5
169
  8
FUTO
 10
33785.445488743331
 20
29350.560920475389
 30
0.0
 11
33785.445488743331
 21
29274.560920475389
 31
0.0
  0
LINE
  5
16A
  8
FUTO
 10
33755.945488743331
 20
29230.560920475389
 30
0.0
 11
33683.945488743331
 21
29230.560920475389
 31
0.0
  0
LINE
  5
16B
  8
FUTO
 10
33683.945488743331
 20
29241.560920475378
 30
0.0
 11
33683.945488743331
 21
29230.560920475389
 31
0.0
  0
LINE
  5
16C
  8
FUTO
 10
33755.945488743331
 20
29241.560920475378
 30
0.0
 11
33755.945488743331
 21
29230.560920475389
 31
0.0
  0
LINE
  5
16D
  8
FUTO
 10
33670.945488743331
 20
29274.560920475389
 30
0.0
 11
33670.945488743331
 21
29248.560920475389
 31
0.0
  0
ARC
  5
16E
  8
FUTO
 10
33677.945488743331
 20
29248.560920475389
 30
0.0
 40
7.0
 50
179.99999999999989
 51
269.99999999999977
  0
LINE
  5
16F
  8
FUTO
 10
33761.945488743331
 20
29241.560920475378
 30
0.0
 11
33677.945488743331
 21
29241.560920475378
 31
0.0
  0
LINE
  5
170
  8
FUTO
 10
33768.945488743331
 20
29274.560920475389
 30
0.0
 11
33768.945488743331
 21
29248.560920475389
 31
0.0
  0
ARC
  5
171
  8
FUTO
 10
33761.945488743331
 20
29248.560920475389
 30
0.0
 40
7.0
 50
270.00000000000011
 51
0.0000000000000579
  0
LINE
  5
172
  8
FUTO
 10
33755.945488743331
 20
29235.560920475378
 30
0.0
 11
33683.945488743331
 21
29235.560920475378
 31
0.0
  0
LINE
  5
173
  8
FUTO
 10
33776.445488743331
 20
29359.560920475378
 30
0.0
 11
33663.445488743331
 21
29359.560920475378
 31
0.0
  0
LINE
  5
174
  8
FUTO
 10
33654.445488743331
 20
29350.560920475389
 30
0.0
 11
33654.445488743331
 21
29274.560920475389
 31
0.0
  0
LINE
  5
175
  8
FUTO
 10
33806.989199236392
 20
29590.560920475389
 30
0.0
 11
33591.989199236392
 21
29590.560920475389
 31
0.0
  0
LINE
  5
176
  8
FUTO
 10
33591.989199236392
 20
29520.560920475389
 30
0.0
 11
33816.989199236392
 21
29520.560920475389
 31
0.0
  0
CIRCLE
  5
177
  8
SL
 10
33491.989199236392
 20
29870.560920475378
 30
0.0
 40
200.0
  0
LINE
  5
178
  8
FUTO
 10
33771.989199236392
 20
29737.519573518839
 30
0.0
 11
33771.989199236392
 21
29590.560920475389
 31
0.0
  0
LINE
  5
179
  8
FUTO
 10
33931.989199236392
 20
29520.560920475389
 30
0.0
 11
33931.989199236392
 21
29370.560920475389
 31
0.0
  0
LINE
  5
17A
  8
FUTO
 10
33755.945488743331
 20
29370.560920475389
 30
0.0
 11
33683.945488743331
 21
29370.560920475389
 31
0.0
  0
LINE
  5
17B
  8
CT
 10
33720.489199236392
 20
29635.730368965029
 30
0.0
 11
33720.489199236392
 21
29548.269604214242
 31
0.0
  0
LINE
  5
17C
  8
FUTO
 10
33675.292227034617
 20
29620.560920475378
 30
0.0
 11
33771.989199236392
 21
29620.560920475378
 31
0.0
  0
LINE
  5
17D
  8
FUTO
 10
33661.989199236392
 20
29611.331292539071
 30
0.0
 11
33661.989199236392
 21
29590.560920475389
 31
0.0
  0
LINE
  5
17E
  8
FUTO
 10
33661.989199236392
 20
29590.560920475389
 30
0.0
 11
33771.989199236392
 21
29590.560920475389
 31
0.0
  0
LINE
  5
17F
  8
FUTO
 10
33816.989199236392
 20
29520.560920475389
 30
0.0
 11
33806.989199236392
 21
29590.560920475389
 31
0.0
  0
LINE
  5
180
  8
CT
 10
33491.989199236392
 20
29379.14253528693
 30
0.0
 11
33491.989199236392
 21
30044.658934671988
 31
0.0
  0
LINE
  5
181
  8
FUTO
 10
33336.510066960778
 20
29602.370243107911
 30
0.0
 11
33647.468331511991
 21
29602.370243107911
 31
0.0
  0
LINE
  5
182
  8
FUTO
 10
33591.989199236392
 20
29580.560920475378
 30
0.0
 11
33391.989199236392
 21
29580.560920475378
 31
0.0
  0
LINE
  5
183
  8
FUTO
 10
33591.989199236392
 20
29530.560920475389
 30
0.0
 11
33391.989199236392
 21
29530.560920475389
 31
0.0
  0
LINE
  5
184
  8
FUTO
 10
33591.989199236392
 20
29580.560920475378
 30
0.0
 11
33591.989199236392
 21
29590.560920475389
 31
0.0
  0
LINE
  5
185
  8
FUTO
 10
33591.989199236392
 20
29520.560920475389
 30
0.0
 11
33591.989199236392
 21
29530.560920475389
 31
0.0
  0
LINE
  5
186
  8
CT
 10
33263.489199236392
 20
29635.730368965029
 30
0.0
 11
33263.489199236392
 21
29544.104805892781
 31
0.0
  0
LINE
  5
187
  8
FUTO
 10
33321.989199236392
 20
29611.331292539071
 30
0.0
 11
33321.989199236392
 21
29590.560920475389
 31
0.0
  0
LINE
  5
188
  8
FUTO
 10
33391.989199236392
 20
29580.560920475378
 30
0.0
 11
33391.989199236392
 21
29590.560920475389
 31
0.0
  0
LINE
  5
189
  8
FUTO
 10
33248.989199236392
 20
29590.560920475389
 30
0.0
 11
33348.989199236392
 21
29590.560920475389
 31
0.0
  0
LINE
  5
18A
  8
FUTO
 10
33391.989199236392
 20
29520.560920475389
 30
0.0
 11
33391.989199236392
 21
29530.560920475389
 31
0.0
  0
LINE
  5
18B
  8
CT
 10
32942.08559334615
 20
29385.088903682601
 30
0.0
 11
32942.08559334615
 21
29210.882128778449
 31
0.0
  0
LINE
  5
18C
  8
FUTO
 10
32978.085593346143
 20
29370.560920475389
 30
0.0
 11
32978.085593346143
 21
29359.560920475378
 31
0.0
  0
LINE
  5
18D
  8
FUTO
 10
32906.08559334615
 20
29370.560920475389
 30
0.0
 11
32906.08559334615
 21
29359.560920475378
 31
0.0
  0
LINE
  5
18E
  8
FUTO
 10
32876.58559334615
 20
29350.560920475389
 30
0.0
 11
32876.58559334615
 21
29274.560920475389
 31
0.0
  0
LINE
  5
18F
  8
FUTO
 10
32998.58559334615
 20
29359.560920475378
 30
0.0
 11
32885.58559334615
 21
29359.560920475378
 31
0.0
  0
LINE
  5
190
  8
FUTO
 10
32978.085593346143
 20
29235.560920475378
 30
0.0
 11
32906.08559334615
 21
29235.560920475378
 31
0.0
  0
ARC
  5
191
  8
FUTO
 10
32984.08559334615
 20
29248.560920475389
 30
0.0
 40
7.0
 50
270.00000000000011
 51
0.0000000000000579
  0
LINE
  5
192
  8
FUTO
 10
32991.085593346143
 20
29274.560920475389
 30
0.0
 11
32991.085593346143
 21
29248.560920475389
 31
0.0
  0
LINE
  5
193
  8
FUTO
 10
32984.08559334615
 20
29241.560920475378
 30
0.0
 11
32900.08559334615
 21
29241.560920475378
 31
0.0
  0
ARC
  5
194
  8
FUTO
 10
32900.08559334615
 20
29248.560920475389
 30
0.0
 40
7.0
 50
179.99999999999989
 51
269.99999999999977
  0
LINE
  5
195
  8
FUTO
 10
32893.08559334615
 20
29274.560920475389
 30
0.0
 11
32893.08559334615
 21
29248.560920475389
 31
0.0
  0
LINE
  5
196
  8
FUTO
 10
32978.085593346143
 20
29241.560920475378
 30
0.0
 11
32978.085593346143
 21
29230.560920475389
 31
0.0
  0
LINE
  5
197
  8
FUTO
 10
32906.08559334615
 20
29241.560920475378
 30
0.0
 11
32906.08559334615
 21
29230.560920475389
 31
0.0
  0
LINE
  5
198
  8
FUTO
 10
32978.085593346143
 20
29230.560920475389
 30
0.0
 11
32906.08559334615
 21
29230.560920475389
 31
0.0
  0
LINE
  5
199
  8
FUTO
 10
33007.58559334615
 20
29350.560920475389
 30
0.0
 11
33007.58559334615
 21
29274.560920475389
 31
0.0
  0
ARC
  5
19A
  8
FUTO
 10
32998.58559334615
 20
29350.560920475389
 30
0.0
 40
9.0
 50
359.99999999999989
 51
90.000000000000099
  0
LINE
  5
19B
  8
FUTO
 10
32978.085593346143
 20
29365.560920475378
 30
0.0
 11
32906.08559334615
 21
29365.560920475378
 31
0.0
  0
LINE
  5
19C
  8
FUTO
 10
33007.58559334615
 20
29274.560920475389
 30
0.0
 11
32876.58559334615
 21
29274.560920475389
 31
0.0
  0
ARC
  5
19D
  8
FUTO
 10
32885.58559334615
 20
29350.560920475389
 30
0.0
 40
9.0
 50
90.0
 51
180.0
  0
LINE
  5
1A1
  8
FUTO
 10
32691.989199236388
 20
29230.560920475389
 30
0.0
 11
32691.989199236388
 21
29080.560920475389
 31
0.0
  0
LINE
  5
1A2
  8
FUTO
 10
32700.989199236388
 20
29230.560920475389
 30
0.0
 11
32700.989199236388
 21
29080.560920475389
 31
0.0
  0
LINE
  5
1A3
  8
FUTO
 10
32682.989199236388
 20
29230.560920475389
 30
0.0
 11
32682.989199236388
 21
29080.560920475389
 31
0.0
  0
ARC
  5
1A4
  8
FUTO
 10
32122.989199236388
 20
30829.560920475389
 30
0.0
 40
1443.0
 50
174.79134068104571
 51
236.2638327697731
  0
LINE
  5
1A7
  8
FUTO
 10
33211.989199236377
 20
29737.519573518861
 30
0.0
 11
33211.989199236392
 21
29590.560920475389
 31
0.0
  0
LINE
  5
1A8
  8
FUTO
 10
33035.099401124338
 20
29673.444540703538
 30
0.0
 11
33077.095996991273
 21
29623.79590817089
 31
0.0
  0
LINE
  5
1A9
  8
FUTO
 10
33048.842235691882
 20
29685.069277175779
 30
0.0
 11
33090.838831558809
 21
29635.420644643131
 31
0.0
  0
LINE
  5
1AA
  8
FUTO
 10
33041.989199236392
 20
29679.235179012041
 30
0.0
 11
33083.967414275037
 21
29629.608276407009
 31
0.0
  0
LINE
  5
1AB
  8
FUTO
 10
33176.989199236392
 20
29590.560920475389
 30
0.0
 11
33166.989199236392
 21
29520.560920475389
 31
0.0
  0
LINE
  5
1AC
  8
FUTO
 10
33077.095996991251
 20
29623.79590817088
 30
0.0
 11
33090.838831558809
 21
29635.420644643131
 31
0.0
  0
LINE
  5
1AD
  8
FUTO
 10
32978.085593346143
 20
29370.560920475389
 30
0.0
 11
32906.08559334615
 21
29370.560920475389
 31
0.0
  0
LINE
  5
1AE
  8
KL
 10
32616.989199236388
 20
29520.560920475389
 30
0.0
 11
32616.989199236388
 21
29370.560920475389
 31
0.0
  0
LINE
  5
1AF
  8
FUTO
 10
32682.989199236388
 20
29520.560920475389
 30
0.0
 11
32682.989199236388
 21
29370.560920475389
 31
0.0
  0
LINE
  5
1B0
  8
FUTO
 10
32700.989199236388
 20
29520.560920475389
 30
0.0
 11
32700.989199236388
 21
29370.560920475389
 31
0.0
  0
LINE
  5
1B1
  8
FUTO
 10
32691.989199236388
 20
29520.560920475389
 30
0.0
 11
32691.989199236388
 21
29370.560920475389
 31
0.0
  0
LINE
  5
1B2
  8
KL
 10
32691.989199236388
 20
29534.7258150138
 30
0.0
 11
32691.989199236388
 21
29370.560920475389
 31
0.0
  0
DIMENSION
  5
1B3
  8
SP
  2
*D12
 10
31991.989199236388
 20
28645.353541757078
 30
0.0
 11
31461.989199236388
 21
28725.353541757078
 31
0.0
 70
     0
 13
30931.989199236388
 23
29080.560920475389
 33
0.0
 14
31991.989199236388
 24
28999.906745465181
 34
0.0
 50
180.0
1001
ACAD
1000
DSTYLE
1002
{
1070
    40
1040
40.0
1002
}
  0
LINE
  5
1C0
  8
FUTO
 10
32115.507438126719
 20
29370.560920475389
 30
0.0
 11
32115.507438126719
 21
29359.560920475378
 31
0.0
  0
LINE
  5
1C1
  8
FUTO
 10
32187.507438126719
 20
29370.560920475389
 30
0.0
 11
32187.507438126719
 21
29359.560920475378
 31
0.0
  0
LINE
  5
1C2
  8
CT
 10
32151.507438126719
 20
29385.088903682601
 30
0.0
 11
32151.507438126719
 21
29210.882128778449
 31
0.0
  0
LINE
  5
1C3
  8
FUTO
 10
32217.007438126719
 20
29274.560920475389
 30
0.0
 11
32086.007438126719
 21
29274.560920475389
 31
0.0
  0
LINE
  5
1C4
  8
FUTO
 10
32187.507438126719
 20
29365.560920475378
 30
0.0
 11
32115.507438126719
 21
29365.560920475378
 31
0.0
  0
LINE
  5
1C5
  8
FUTO
 10
32187.507438126719
 20
29230.560920475389
 30
0.0
 11
32115.507438126719
 21
29230.560920475389
 31
0.0
  0
LINE
  5
1C6
  8
FUTO
 10
32193.507438126719
 20
29241.560920475378
 30
0.0
 11
32109.507438126719
 21
29241.560920475378
 31
0.0
  0
LINE
  5
1C7
  8
FUTO
 10
32187.507438126719
 20
29235.560920475378
 30
0.0
 11
32115.507438126719
 21
29235.560920475378
 31
0.0
  0
LINE
  5
1C8
  8
FUTO
 10
32208.007438126719
 20
29359.560920475378
 30
0.0
 11
32095.007438126719
 21
29359.560920475378
 31
0.0
  0
ARC
  5
1C9
  8
FUTO
 10
32208.007438126719
 20
29350.560920475389
 30
0.0
 40
9.0
 50
359.99999999999989
 51
90.000000000000099
  0
LINE
  5
1CA
  8
FUTO
 10
32217.007438126719
 20
29350.560920475389
 30
0.0
 11
32217.007438126719
 21
29274.560920475389
 31
0.0
  0
LINE
  5
1CB
  8
FUTO
 10
32187.507438126719
 20
29241.560920475378
 30
0.0
 11
32187.507438126719
 21
29230.560920475389
 31
0.0
  0
LINE
  5
1CC
  8
FUTO
 10
32200.507438126719
 20
29274.560920475389
 30
0.0
 11
32200.507438126719
 21
29248.560920475389
 31
0.0
  0
ARC
  5
1CD
  8
FUTO
 10
32193.507438126719
 20
29248.560920475389
 30
0.0
 40
7.0
 50
270.00000000000011
 51
0.0000000000000579
  0
ARC
  5
1CE
  8
FUTO
 10
32095.007438126719
 20
29350.560920475389
 30
0.0
 40
9.0
 50
90.0
 51
180.0
  0
LINE
  5
1CF
  8
FUTO
 10
32115.507438126719
 20
29241.560920475378
 30
0.0
 11
32115.507438126719
 21
29230.560920475389
 31
0.0
  0
LINE
  5
1D0
  8
FUTO
 10
32102.507438126719
 20
29274.560920475389
 30
0.0
 11
32102.507438126719
 21
29248.560920475389
 31
0.0
  0
ARC
  5
1D1
  8
FUTO
 10
32109.507438126719
 20
29248.560920475389
 30
0.0
 40
7.0
 50
179.99999999999989
 51
269.99999999999977
  0
LINE
  5
1D2
  8
FUTO
 10
32086.007438126719
 20
29350.560920475389
 30
0.0
 11
32086.007438126719
 21
29274.560920475389
 31
0.0
  0
LINE
  5
1D3
  8
FUTO
 10
32187.507438126719
 20
29370.560920475389
 30
0.0
 11
32115.507438126719
 21
29370.560920475389
 31
0.0
  0
LINE
  5
1D4
  8
CT
 10
31113.873616012981
 20
29385.088903682601
 30
0.0
 11
31113.873616012981
 21
29210.882128778449
 31
0.0
  0
LINE
  5
1D5
  8
FUTO
 10
31077.873616012981
 20
29370.560920475389
 30
0.0
 11
31077.873616012981
 21
29359.560920475378
 31
0.0
  0
LINE
  5
1D6
  8
FUTO
 10
31149.873616012981
 20
29370.560920475389
 30
0.0
 11
31149.873616012981
 21
29359.560920475378
 31
0.0
  0
LINE
  5
1D7
  8
FUTO
 10
31170.373616012981
 20
29359.560920475378
 30
0.0
 11
31057.373616012981
 21
29359.560920475378
 31
0.0
  0
LINE
  5
1D8
  8
FUTO
 10
31149.873616012981
 20
29235.560920475378
 30
0.0
 11
31077.873616012981
 21
29235.560920475378
 31
0.0
  0
LINE
  5
1D9
  8
FUTO
 10
31155.873616012981
 20
29241.560920475378
 30
0.0
 11
31071.873616012981
 21
29241.560920475378
 31
0.0
  0
LINE
  5
1DA
  8
FUTO
 10
31149.873616012981
 20
29230.560920475389
 30
0.0
 11
31077.873616012981
 21
29230.560920475389
 31
0.0
  0
LINE
  5
1DB
  8
FUTO
 10
31149.873616012981
 20
29365.560920475378
 30
0.0
 11
31077.873616012981
 21
29365.560920475378
 31
0.0
  0
LINE
  5
1DC
  8
FUTO
 10
31179.373616012981
 20
29274.560920475389
 30
0.0
 11
31048.373616012981
 21
29274.560920475389
 31
0.0
  0
ARC
  5
1DD
  8
FUTO
 10
31155.873616012981
 20
29248.560920475389
 30
0.0
 40
7.0
 50
270.00000000000011
 51
0.0000000000000579
  0
LINE
  5
1DE
  8
FUTO
 10
31162.873616012981
 20
29274.560920475389
 30
0.0
 11
31162.873616012981
 21
29248.560920475389
 31
0.0
  0
LINE
  5
1DF
  8
FUTO
 10
31149.873616012981
 20
29241.560920475378
 30
0.0
 11
31149.873616012981
 21
29230.560920475389
 31
0.0
  0
LINE
  5
1E0
  8
FUTO
 10
31179.373616012981
 20
29350.560920475389
 30
0.0
 11
31179.373616012981
 21
29274.560920475389
 31
0.0
  0
ARC
  5
1E1
  8
FUTO
 10
31170.373616012981
 20
29350.560920475389
 30
0.0
 40
9.0
 50
359.99999999999989
 51
90.000000000000099
  0
LINE
  5
1E2
  8
FUTO
 10
31291.989199236388
 20
29230.560920475389
 30
0.0
 11
31291.989199236388
 21
29080.560920475389
 31
0.0
  0
LINE
  5
1E3
  8
FUTO
 10
31048.373616012981
 20
29350.560920475389
 30
0.0
 11
31048.373616012981
 21
29274.560920475389
 31
0.0
  0
ARC
  5
1E4
  8
FUTO
 10
31071.873616012981
 20
29248.560920475389
 30
0.0
 40
7.0
 50
179.99999999999989
 51
269.99999999999977
  0
LINE
  5
1E5
  8
FUTO
 10
31064.873616012981
 20
29274.560920475389
 30
0.0
 11
31064.873616012981
 21
29248.560920475389
 31
0.0
  0
LINE
  5
1E6
  8
FUTO
 10
31077.873616012981
 20
29241.560920475378
 30
0.0
 11
31077.873616012981
 21
29230.560920475389
 31
0.0
  0
ARC
  5
1E7
  8
FUTO
 10
31057.373616012981
 20
29350.560920475389
 30
0.0
 40
9.0
 50
90.0
 51
180.0
  0
LINE
  5
1E8
  8
FUTO
 10
30931.989199236388
 20
29230.560920475389
 30
0.0
 11
30931.989199236388
 21
29080.560920475389
 31
0.0
  0
LINE
  5
1E9
  8
FUTO
 10
31149.873616012981
 20
29370.560920475389
 30
0.0
 11
31077.873616012981
 21
29370.560920475389
 31
0.0
  0
LINE
  5
1EC
  8
KL
 10
31366.989199236388
 20
29520.560920475389
 30
0.0
 11
31366.989199236388
 21
29370.560920475389
 31
0.0
  0
LINE
  5
1ED
  8
FUTO
 10
31291.989199236388
 20
29520.560920475389
 30
0.0
 11
31291.989199236388
 21
29370.560920475389
 31
0.0
  0
LINE
  5
1EE
  8
KL
 10
31291.989199236388
 20
29534.7258150138
 30
0.0
 11
31291.989199236388
 21
29370.560920475389
 31
0.0
  0
LINE
  5
1EF
  8
FUTO
 10
30931.989199236388
 20
29520.560920475389
 30
0.0
 11
30931.989199236388
 21
29370.560920475389
 31
0.0
  0
LINE
  5
1F0
  8
FUTO
 10
33680.869113681227
 20
34814.798435098259
 30
0.0
 11
33680.869113681227
 21
34662.798435098259
 31
0.0
  0
LINE
  5
1F1
  8
FUTO
 10
33931.989199236392
 20
34824.798435098252
 30
0.0
 11
33931.989199236392
 21
34814.798435098259
 31
0.0
  0
LINE
  5
1F2
  8
CT
 10
33491.989199236392
 20
34740.170323656377
 30
0.0
 11
33491.989199236392
 21
33196.703612051591
 31
0.0
  0
LINE
  5
1F3
  8
FUTO
 10
32691.989199236388
 20
34814.798435098259
 30
0.0
 11
32691.989199236388
 21
33442.798435098259
 31
0.0
  0
LINE
  5
1F4
  8
FUTO
 10
32616.989199236388
 20
34814.798435098259
 30
0.0
 11
32616.989199236388
 21
33517.798435098259
 31
0.0
  0
LINE
  5
1F5
  8
FUTO
 10
31366.989199236388
 20
34814.798435098259
 30
0.0
 11
31366.989199236388
 21
33517.798435098259
 31
0.0
  0
LINE
  5
1F6
  8
FUTO
 10
31291.989199236388
 20
34814.798435098259
 30
0.0
 11
31291.989199236388
 21
33442.798435098259
 31
0.0
  0
ARC
  5
263
  8
FUTO
 10
31991.989199236388
 20
30960.560920475378
 30
0.0
 40
480.0
 50
47.803228589811539
 51
240.1874614175469
  0
LINE
  5
267
  8
FUTO
 10
33885.936529227933
 20
30951.560920475389
 30
0.0
 11
32827.961399540531
 21
30951.560920475389
 31
0.0
  0
LINE
  5
268
  8
FUTO
 10
33885.936529227933
 20
30969.560920475378
 30
0.0
 11
32802.871888499409
 21
30969.560920475378
 31
0.0
  0
ARC
  5
269
  8
FUTO
 10
32122.989199236388
 20
31091.560920475389
 30
0.0
 40
1705.0
 50
292.86725764747092
 51
307.45752721647972
  0
ARC
  5
26A
  8
KL
 10
32122.989199236388
 20
31091.560920475389
 30
0.0
 40
1685.0
 50
274.83662323419389
 51
354.6120591389967
  0
LINE
  5
26D
  8
FUTO
 10
33032.989199236392
 20
32060.560920475389
 30
0.0
 11
33032.989199236392
 21
30960.560920475378
 31
0.0
  0
LINE
  5
26E
  8
FUTO
 10
33041.989199236392
 20
32060.560920475389
 30
0.0
 11
33041.989199236392
 21
30960.560920475378
 31
0.0
  0
LINE
  5
26F
  8
KL
 10
31992.451848259741
 20
29412.560920475389
 30
0.0
 11
32265.059604317819
 21
29412.560920475389
 31
0.0
  0
LINE
  5
272
  8
CT
 10
33593.695613860662
 20
30320.560920475389
 30
0.0
 11
33747.992551380339
 21
30320.560920475389
 31
0.0
  0
LINE
  5
273
  8
FUTO
 10
33281.989199236392
 20
30460.560920475389
 30
0.0
 11
33671.989199236392
 21
30460.560920475389
 31
0.0
  0
LINE
  5
274
  8
FUTO
 10
33281.989199236392
 20
30195.560920475389
 30
0.0
 11
33671.989199236392
 21
30195.560920475389
 31
0.0
  0
ARC
  5
275
  8
FUTO
 10
33671.989199236392
 20
30440.560920475389
 30
0.0
 40
20.0
 50
0.000000000000007
 51
90.0
  0
ARC
  5
276
  8
FUTO
 10
33671.989199236392
 20
30215.560920475389
 30
0.0
 40
20.0
 50
270.0
 51
0.000000000000007
  0
LINE
  5
277
  8
FUTO
 10
33691.989199236392
 20
30440.560920475389
 30
0.0
 11
33691.989199236392
 21
30215.560920475389
 31
0.0
  0
ARC
  5
279
  8
FUTO
 10
33281.989199236392
 20
30440.560920475389
 30
0.0
 40
20.0
 50
90.0
 51
180.0
  0
LINE
  5
27A
  8
FUTO
 10
33712.680944894681
 20
30463.47609212223
 30
0.0
 11
33748.994182861359
 21
30446.542951165971
 31
0.0
  0
LINE
  5
27B
  8
CT
 10
33649.648098236983
 20
30421.149226501471
 30
0.0
 11
33756.594381473042
 21
30371.27935561728
 31
0.0
  0
LINE
  5
27C
  8
FUTO
 10
33762.28344334913
 20
30451.379846418931
 30
0.0
 11
33698.890704088022
 21
30315.433678363432
 31
0.0
  0
LINE
  5
27D
  8
FUTO
 10
33748.994182861359
 20
30446.542951165971
 30
0.0
 11
33694.053808835073
 21
30328.722938851199
 31
0.0
  0
LINE
  5
27E
  8
FUTO
 10
33716.907127512088
 20
30472.5391699926
 30
0.0
 11
33762.28344334913
 21
30451.379846418931
 31
0.0
  0
LINE
  5
27F
  8
KL
 10
33653.514388250987
 20
30336.593001937101
 30
0.0
 11
33698.890704088022
 21
30315.433678363432
 31
0.0
  0
LINE
  5
280
  8
KL
 10
33657.740570868402
 20
30345.656079807472
 30
0.0
 11
33694.053808835073
 21
30328.722938851199
 31
0.0
  0
ARC
  5
281
  8
FUTO
 10
33281.989199236392
 20
30215.560920475389
 30
0.0
 40
20.0
 50
180.0
 51
270.0
  0
LINE
  5
282
  8
FUTO
 10
33261.989199236392
 20
30440.560920475389
 30
0.0
 11
33261.989199236392
 21
30215.560920475389
 31
0.0
  0
LINE
  5
283
  8
FUTO
 10
33885.936529227933
 20
30969.560920475378
 30
0.0
 11
33885.936529227933
 21
30951.560920475389
 31
0.0
  0
LINE
  5
285
  8
FUTO
 10
31993.989199236388
 20
32060.560920475389
 30
0.0
 11
33981.989199236392
 21
32060.560920475389
 31
0.0
  0
LINE
  5
286
  8
FUTO
 10
32206.548971268719
 20
32125.560920475389
 30
0.0
 11
33233.951140013509
 21
32125.560920475389
 31
0.0
  0
LINE
  5
287
  8
FUTO
 10
32206.548971268719
 20
32125.560920475389
 30
0.0
 11
33981.989199236392
 21
32125.560920475389
 31
0.0
  0
LINE
  5
288
  8
FUTO
 10
32205.49100938447
 20
32119.560920475389
 30
0.0
 11
33239.951140013509
 21
32119.560920475389
 31
0.0
  0
CIRCLE
  5
295
  8
SL
 10
31991.989199236388
 20
30960.560920475378
 30
0.0
 40
355.0
  0
ARC
  5
296
  8
FUTO
 10
31939.989199236388
 20
31050.62756246897
 30
0.0
 40
15.000000000000099
 50
25.864502996822029
 51
214.135497003171
  0
ARC
  5
297
  8
FUTO
 10
31991.989199236388
 20
30960.560920475378
 30
0.0
 40
103.9999999999995
 50
68.270994006339393
 51
111.7290059936601
  0
LINE
  5
298
  8
CT
 10
31991.989199236388
 20
31084.32967964009
 30
0.0
 11
31991.989199236388
 21
30830.73719657326
 31
0.0
  0
ARC
  5
299
  8
FUTO
 10
32043.989199236388
 20
31050.62756246897
 30
0.0
 40
15.000000000000201
 50
325.8645029968294
 51
154.13549700317759
  0
ARC
  5
29E
  8
FUTO
 10
31939.989199236388
 20
30870.494278481801
 30
0.0
 40
14.99999999999998
 50
145.86450299682841
 51
334.13549700317782
  0
CIRCLE
  5
29F
  8
FUTO
 10
31991.989199236388
 20
30960.560920475378
 30
0.0
 40
41.5
  0
LINE
  5
2A0
  8
FUTO
 10
32076.989199236388
 20
30853.560920475378
 30
0.0
 11
31906.989199236388
 21
30853.560920475378
 31
0.0
  0
LINE
  5
2A2
  8
KL
 10
31649.940773412342
 20
30838.560920475378
 30
0.0
 11
31991.989199236388
 21
30838.560920475378
 31
0.0
  0
LINE
  5
2A4
  8
FUTO
 10
32115.989199236388
 20
30884.560920475389
 30
0.0
 11
32183.989199236388
 21
30884.560920475389
 31
0.0
  0
LINE
  5
2A5
  8
FUTO
 10
32196.989199236388
 20
30848.560920475389
 30
0.0
 11
32076.989199236388
 21
30848.560920475389
 31
0.0
  0
LINE
  5
2A6
  8
KL
 10
32334.037625060431
 20
30838.560920475378
 30
0.0
 11
31991.989199236388
 21
30838.560920475378
 31
0.0
  0
LINE
  5
2A7
  8
FUTO
 10
32196.989199236388
 20
30848.560920475389
 30
0.0
 11
32196.989199236388
 21
30838.560920475378
 31
0.0
  0
ARC
  5
2A8
  8
FUTO
 10
32183.989199236388
 20
30881.560920475389
 30
0.0
 40
3.0
 50
0.000000000000007
 51
90.0
  0
LINE
  5
2A9
  8
FUTO
 10
32186.989199236388
 20
30881.560920475389
 30
0.0
 11
32186.989199236388
 21
30848.560920475389
 31
0.0
  0
LINE
  5
2AA
  8
KL
 10
32191.989199236388
 20
30969.560920475378
 30
0.0
 11
32191.989199236388
 21
30951.560920475389
 31
0.0
  0
ARC
  5
2AD
  8
FUTO
 10
31991.989199236388
 20
30960.560920475389
 30
0.0
 40
104.0000000000007
 50
248.27099400633949
 51
291.72900599365971
  0
ARC
  5
2AE
  8
FUTO
 10
32095.989199236388
 20
30960.560920475378
 30
0.0
 40
15.0
 50
265.86450299682951
 51
94.135497003170499
  0
ARC
  5
2AF
  8
FUTO
 10
32115.989199236388
 20
30904.560920475389
 30
0.0
 40
20.0
 50
180.0
 51
270.0
  0
LINE
  5
2B0
  8
FUTO
 10
32076.989199236388
 20
30848.560920475389
 30
0.0
 11
32076.989199236388
 21
30853.560920475378
 31
0.0
  0
LINE
  5
2B1
  8
CT
 10
32151.989199236388
 20
30838.560920475378
 30
0.0
 11
32151.989199236388
 21
30894.560920475389
 31
0.0
  0
LINE
  5
2B2
  8
FUTO
 10
32095.989199236388
 20
30945.560920475389
 30
0.0
 11
32095.989199236388
 21
30904.560920475389
 31
0.0
  0
ARC
  5
2B3
  8
FUTO
 10
32043.989199236388
 20
30870.494278481801
 30
0.0
 40
14.999999999999719
 50
205.86450299682281
 51
34.135497003170862
  0
ARC
  5
2B4
  8
FUTO
 10
31991.989199236388
 20
30960.560920475389
 30
0.0
 40
104.0000000000002
 50
308.27099400633909
 51
351.72900599365983
  0
ARC
  5
2B5
  8
FUTO
 10
31991.989199236388
 20
30960.560920475378
 30
0.0
 40
103.9999999999998
 50
8.2709940063395706
 51
51.729005993660287
  0
LINE
  5
2B7
  8
FUTO
 10
31786.989199236388
 20
30838.560920475378
 30
0.0
 11
31786.989199236388
 21
30848.560920475389
 31
0.0
  0
ARC
  5
2B8
  8
FUTO
 10
31799.989199236388
 20
30881.560920475389
 30
0.0
 40
3.0
 50
90.0
 51
180.0
  0
LINE
  5
2B9
  8
FUTO
 10
31796.989199236388
 20
30848.560920475389
 30
0.0
 11
31796.989199236388
 21
30881.560920475389
 31
0.0
  0
LINE
  5
2BA
  8
CT
 10
31831.989199236388
 20
30838.560920475378
 30
0.0
 11
31831.989199236388
 21
30894.560920475389
 31
0.0
  0
LINE
  5
2BB
  8
FUTO
 10
31799.989199236388
 20
30884.560920475389
 30
0.0
 11
31867.989199236388
 21
30884.560920475389
 31
0.0
  0
LINE
  5
2BC
  8
FUTO
 10
31887.989199236388
 20
30904.560920475389
 30
0.0
 11
31887.989199236388
 21
30945.560920475389
 31
0.0
  0
ARC
  5
2BD
  8
FUTO
 10
31867.989199236388
 20
30904.560920475389
 30
0.0
 40
20.0
 50
270.0
 51
0.000000000000007
  0
LINE
  5
2BE
  8
FUTO
 10
31906.989199236388
 20
30853.560920475378
 30
0.0
 11
31906.989199236388
 21
30848.560920475389
 31
0.0
  0
LINE
  5
2BF
  8
FUTO
 10
31906.989199236388
 20
30848.560920475389
 30
0.0
 11
31786.989199236388
 21
30848.560920475389
 31
0.0
  0
ARC
  5
2C0
  8
FUTO
 10
31887.989199236388
 20
30960.560920475378
 30
0.0
 40
15.0
 50
85.864502996829515
 51
270.0
  0
ARC
  5
2C1
  8
FUTO
 10
31991.989199236388
 20
30960.560920475378
 30
0.0
 40
103.9999999999998
 50
188.27099400633949
 51
231.72900599366031
  0
ARC
  5
2C2
  8
FUTO
 10
31991.989199236388
 20
30960.560920475378
 30
0.0
 40
103.9999999999994
 50
128.27099400633961
 51
171.72900599366019
  0
INSERT
  5
2C5
  8
FUTO
  2
左回転矢印
 10
31804.554592684141
 20
31658.999993824331
 30
0.0
 41
2.0
 42
2.0
 43
2.0
  0
LINE
  5
2D0
  8
FUTO
 10
31964.93469671928
 20
31060.980310503171
 30
0.0
 11
31964.93469671928
 21
31064.560920475389
 31
0.0
  0
LINE
  5
2D1
  8
FUTO
 10
32019.04370175349
 20
31060.980310503171
 30
0.0
 11
32019.04370175349
 21
31064.560920475389
 31
0.0
  0
LINE
  5
2D2
  8
FUTO
 10
32019.04370175349
 20
31064.560920475389
 30
0.0
 11
31964.93469671928
 21
31064.560920475389
 31
0.0
  0
LINE
  5
2D3
  8
FUTO
 10
31993.989199236388
 20
32119.560920475389
 30
0.0
 11
32241.337590176521
 21
32119.560920475389
 31
0.0
  0
LINE
  5
2D4
  8
FUTO
 10
31993.989199236388
 20
32125.560920475389
 30
0.0
 11
32242.67617333548
 21
32125.560920475389
 31
0.0
  0
LINE
  5
2D5
  8
FUTO
 10
31993.989199236388
 20
32125.560920475389
 30
0.0
 11
32188.271292254769
 21
32125.560920475389
 31
0.0
  0
ARC
  5
2D6
  8
KL
 10
31881.489199236388
 20
31071.060920475389
 30
0.0
 40
960.5
 50
54.29936339556636
 51
89.999999999999986
  0
LINE
  5
2D8
  8
FUTO
 10
32042.989199236388
 20
32040.65740963534
 30
0.0
 11
32042.989199236388
 21
32125.560920475389
 31
0.0
  0
LINE
  5
2D9
  8
FUTO
 10
31993.989199236388
 20
32060.560920475389
 30
0.0
 11
31993.989199236388
 21
32125.560920475389
 31
0.0
  0
LINE
  5
2DA
  8
FUTO
 10
31993.989199236388
 20
32060.560920475389
 30
0.0
 11
31993.989199236388
 21
32125.560920475389
 31
0.0
  0
LINE
  5
2DB
  8
KL
 10
32062.989199236388
 20
32014.25655235671
 30
0.0
 11
32062.989199236388
 21
32125.560920475389
 31
0.0
  0
LINE
  5
2DD
  8
FUTO
 10
33933.077956393987
 20
32125.560920475389
 30
0.0
 11
33820.456082452583
 21
30931.463511426078
 31
0.0
  0
LINE
  5
2DE
  8
KL
 10
33912.989199236392
 20
32125.560920475389
 30
0.0
 11
33800.544447458837
 21
30933.341486898789
 31
0.0
  0
LINE
  5
2E3
  8
FUTO
 10
33239.951140013509
 20
32119.560920475389
 30
0.0
 11
33981.989199236392
 21
32119.560920475389
 31
0.0
  0
LINE
  5
2E4
  8
FUTO
 10
33981.989199236392
 20
32060.560920475389
 30
0.0
 11
33981.989199236392
 21
32125.560920475389
 31
0.0
  0
LINE
  5
2FF
  8
FUTO
 10
33931.989199236392
 20
33517.798435098259
 30
0.0
 11
31291.989199236388
 21
33517.798435098259
 31
0.0
  0
LINE
  5
300
  8
FUTO
 10
33931.989199236392
 20
33442.798435098259
 30
0.0
 11
31291.989199236388
 21
33442.798435098259
 31
0.0
  0
LINE
  5
3C8
  8
FUTO
 10
33916.989199236392
 20
36217.798435098259
 30
0.0
 11
30699.989199236388
 21
36217.798435098259
 31
0.0
  0
LINE
  5
3C9
  8
FUTO
 10
33051.989199236392
 20
34889.798435098259
 30
0.0
 11
30699.989199236388
 21
34889.798435098252
 31
0.0
  0
LINE
  5
3CA
  8
FUTO
 10
33051.989199236392
 20
34814.798435098259
 30
0.0
 11
30931.989199236388
 21
34814.798435098259
 31
0.0
  0
LINE
  5
3CB
  8
FUTO
 10
33051.989199236392
 20
36292.798435098252
 30
0.0
 11
30931.989199236388
 21
36292.798435098252
 31
0.0
  0
LINE
  5
3DA
  8
FUTO
 10
33931.989199236392
 20
34814.798435098259
 30
0.0
 11
32691.989199236388
 21
34814.798435098259
 31
0.0
  0
LINE
  5
3DB
  8
FUTO
 10
33916.989199236392
 20
34889.798435098259
 30
0.0
 11
33595.989199236392
 21
34889.798435098259
 31
0.0
  0
LINE
  5
406
  8
FUTO
 10
30931.989199236388
 20
34814.798435098259
 30
0.0
 11
30931.989199236388
 21
34839.798435098252
 31
0.0
  0
LINE
  5
438
  8
SL
 10
35046.952116172179
 20
31238.93472047539
 30
0.0
 11
35046.952116172171
 21
30008.93472047539
 31
0.0
  0
LINE
  5
439
  8
SL
 10
34876.952116172179
 20
31238.93472047539
 30
0.0
 11
34876.952116172193
 21
30008.93472047539
 31
0.0
  0
LINE
  5
43A
  8
CT
 10
37176.952116172179
 20
32203.105563411031
 30
0.0
 11
37176.952116172179
 21
29011.346706707242
 31
0.0
  0
LINE
  5
43C
  8
FUTO
 10
37840.152116172183
 20
29520.560903869398
 30
0.0
 11
37840.15211617219
 21
31027.634720475391
 31
0.0
  0
LINE
  5
43D
  8
FUTO
 10
37836.952116172193
 20
29520.560903869398
 30
0.0
 11
37836.952116172179
 21
31027.634720475391
 31
0.0
  0
LINE
  5
43E
  8
FUTO
 10
36516.952116172179
 20
29520.560903869398
 30
0.0
 11
36516.952116172179
 21
31027.634720475391
 31
0.0
  0
LINE
  5
43F
  8
FUTO
 10
36513.752116172189
 20
29520.560903869398
 30
0.0
 11
36513.752116172182
 21
31027.634720475391
 31
0.0
  0
LINE
  5
441
  8
FUTO
 10
35076.952116172179
 20
31338.93472047539
 30
0.0
 11
35076.952116172179
 21
29618.93472047539
 31
0.0
  0
LINE
  5
442
  8
FUTO
 10
34726.952116172179
 20
31338.93472047539
 30
0.0
 11
34726.952116172179
 21
29618.93472047539
 31
0.0
  0
LINE
  5
445
  8
FUTO
 10
36126.952116172171
 20
30808.93472047539
 30
0.0
 11
36126.952116172171
 21
30798.93472047539
 31
0.0
  0
LINE
  5
446
  8
FUTO
 10
36306.952116172179
 20
30808.93472047539
 30
0.0
 11
36306.952116172179
 21
29520.560903869398
 31
0.0
  0
LINE
  5
449
  8
FUTO
 10
35305.952116172179
 20
30836.93472047539
 30
0.0
 11
35305.952116172179
 21
30798.93472047539
 31
0.0
  0
LINE
  5
44A
  8
FUTO
 10
35125.952116172179
 20
30836.93472047539
 30
0.0
 11
35125.952116172179
 21
30178.934720475379
 31
0.0
  0
DIMENSION
  5
44B
  8
SP
  2
*D21
 10
38551.960258383908
 20
30058.93472047539
 30
0.0
 11
38471.960258383901
 21
30958.93472047539
 31
0.0
 70
     0
  1
%%C<>
 13
37971.952116172179
 23
31858.93472047539
 33
0.0
 14
37971.952116172179
 24
30058.93472047539
 34
0.0
 50
90.0
1001
ACAD
1000
DSTYLE
1002
{
1070
    40
1040
40.0
1002
}
  0
LINE
  5
461
  8
KL
 10
37846.152116172183
 20
31923.93472047539
 30
0.0
 11
37846.15211617219
 21
29993.93472047539
 31
0.0
  0
LINE
  5
462
  8
FUTO
 10
37965.952116172179
 20
31923.93472047539
 30
0.0
 11
37965.952116172179
 21
29993.93472047539
 31
0.0
  0
LINE
  5
463
  8
FUTO
 10
37971.952116172179
 20
31923.93472047539
 30
0.0
 11
37971.952116172179
 21
29993.93472047539
 31
0.0
  0
LINE
  5
464
  8
FUTO
 10
36423.752116172182
 20
30933.915565169638
 30
0.0
 11
36423.752116172182
 21
29520.560903869398
 31
0.0
  0
LINE
  5
465
  8
FUTO
 10
37930.152116172183
 20
30933.915565169638
 30
0.0
 11
37930.152116172183
 21
29520.560903869398
 31
0.0
  0
LINE
  5
46B
  8
FUTO
 10
36437.952116172179
 20
29218.560903869398
 30
0.0
 11
37840.948116172178
 21
29218.560903869398
 31
0.0
  0
LINE
  5
46C
  8
FUTO
 10
36437.952116172179
 20
29092.560903869398
 30
0.0
 11
37840.948116172178
 21
29092.560903869398
 31
0.0
  0
LINE
  5
46D
  8
FUTO
 10
36437.952116172179
 20
29382.560903869398
 30
0.0
 11
37840.948116172178
 21
29382.560903869398
 31
0.0
  0
LINE
  5
46E
  8
FUTO
 10
36437.952116172179
 20
29508.560903869398
 30
0.0
 11
37840.948116172178
 21
29508.560903869398
 31
0.0
  0
LINE
  5
46F
  8
KL
 10
36516.952116172179
 20
29406.93472047539
 30
0.0
 11
37836.952116172193
 21
29406.93472047539
 31
0.0
  0
LINE
  5
470
  8
FUTO
 10
35065.956116172179
 20
29230.560903869409
 30
0.0
 11
37920.952116172179
 21
29230.560903869409
 31
0.0
1001
ACAD
1000
ASC_BOUNDS
1002
{
1070
    19
1002
}
  0
LINE
  5
471
  8
FUTO
 10
35065.952116172179
 20
29370.560903869398
 30
0.0
 11
37915.952116172179
 21
29370.560903869409
 31
0.0
1001
ACAD
1000
ASC_BOUNDS
1002
{
1070
    19
1005
0
1005
0
1005
0
1002
}
  0
DIMENSION
  5
472
  8
SP
  2
*D14
 10
37176.952116172179
 20
28641.080291105089
 30
0.0
 11
36121.452116172179
 21
28721.080291105089
 31
0.0
 70
     0
 13
35065.952116172179
 23
29080.560903869398
 33
0.0
 14
37176.952116172179
 24
29059.633851875471
 34
0.0
1001
ACAD
1000
DSTYLE
1002
{
1070
    40
1040
40.0
1002
}
  0
DIMENSION
  5
47F
  8
SP
  2
*D13
 10
37915.952116172179
 20
28341.04274614017
 30
0.0
 11
36490.952116172179
 21
28421.04274614017
 31
0.0
 70
     0
 13
35065.952116172179
 23
29080.560903869398
 33
0.0
 14
37915.952116172179
 24
29080.560903869398
 34
0.0
1001
ACAD
1000
DSTYLE
1002
{
1070
    40
1040
40.0
1002
}
  0
LINE
  5
48C
  8
FUTO
 10
35065.952116172179
 20
29080.560903869398
 30
0.0
 11
37915.948116172178
 21
29080.560903869398
 31
0.0
  0
LINE
  5
48D
  8
FUTO
 10
35065.952116172179
 20
29520.560903869398
 30
0.0
 11
37930.152116172183
 21
29520.560903869398
 31
0.0
  0
LINE
  5
48E
  8
CT
 10
34668.642844623268
 20
30128.93472047539
 30
0.0
 11
35249.145377479392
 21
30128.93472047539
 31
0.0
  0
LINE
  5
48F
  8
FUTO
 10
35035.456116172187
 20
29272.93472047539
 30
0.0
 11
35166.456116172179
 21
29272.93472047539
 31
0.0
  0
ARC
  5
490
  8
FUTO
 10
35157.456116172179
 20
29348.93472047539
 30
0.0
 40
9.0
 50
0.0
 51
90.0
  0
LINE
  5
491
  8
FUTO
 10
35140.956116172179
 20
29092.560903869398
 30
0.0
 11
36420.062220777691
 21
29092.560903869398
 31
0.0
  0
LINE
  5
492
  8
FUTO
 10
35140.956116172179
 20
29218.560903869398
 30
0.0
 11
36420.062220777698
 21
29218.560903869398
 31
0.0
  0
LINE
  5
493
  8
FUTO
 10
35140.956116172179
 20
29508.560903869398
 30
0.0
 11
36420.062220777698
 21
29508.560903869398
 31
0.0
  0
LINE
  5
494
  8
FUTO
 10
35140.956116172179
 20
29382.560903869398
 30
0.0
 11
36420.062220777698
 21
29382.560903869398
 31
0.0
  0
LINE
  5
495
  8
CT
 10
35100.956116172179
 20
29383.462703682599
 30
0.0
 11
35100.956116172179
 21
29209.25592877845
 31
0.0
  0
LINE
  5
496
  8
FUTO
 10
35144.456116172179
 20
29368.93472047539
 30
0.0
 11
35144.456116172179
 21
29357.93472047539
 31
0.0
  0
LINE
  5
497
  8
FUTO
 10
35139.456116172179
 20
29368.93472047539
 30
0.0
 11
35139.456116172179
 21
29363.93472047539
 31
0.0
  0
LINE
  5
498
  8
FUTO
 10
35057.456116172179
 20
29368.93472047539
 30
0.0
 11
35057.456116172179
 21
29357.93472047539
 31
0.0
  0
LINE
  5
499
  8
FUTO
 10
35062.456116172179
 20
29368.93472047539
 30
0.0
 11
35062.456116172179
 21
29363.93472047539
 31
0.0
  0
LINE
  5
49A
  8
FUTO
 10
35044.456116172179
 20
29357.93472047539
 30
0.0
 11
35157.456116172179
 21
29357.93472047539
 31
0.0
  0
LINE
  5
49B
  8
FUTO
 10
35062.456116172179
 20
29233.93472047539
 30
0.0
 11
35062.456116172179
 21
29228.93472047539
 31
0.0
  0
LINE
  5
49C
  8
FUTO
 10
35057.456116172179
 20
29240.097323309801
 30
0.0
 11
35057.456116172179
 21
29228.93472047539
 31
0.0
  0
LINE
  5
49D
  8
FUTO
 10
35057.456116172179
 20
29228.93472047539
 30
0.0
 11
35062.456116172179
 21
29228.93472047539
 31
0.0
  0
LINE
  5
49E
  8
FUTO
 10
35139.456116172179
 20
29233.934720475379
 30
0.0
 11
35139.456116172179
 21
29228.93472047539
 31
0.0
  0
LINE
  5
49F
  8
FUTO
 10
35139.456116172179
 20
29228.93472047539
 30
0.0
 11
35144.456116172179
 21
29228.93472047539
 31
0.0
  0
LINE
  5
4A0
  8
FUTO
 10
35144.456116172179
 20
29240.097323309801
 30
0.0
 11
35144.456116172179
 21
29228.93472047539
 31
0.0
  0
LINE
  5
4A1
  8
FUTO
 10
35062.456116172179
 20
29233.93472047539
 30
0.0
 11
35139.456116172179
 21
29233.93472047539
 31
0.0
  0
LINE
  5
4A2
  8
FUTO
 10
35149.956116172179
 20
29272.93472047539
 30
0.0
 11
35149.956116172179
 21
29246.934720475379
 31
0.0
  0
ARC
  5
4A3
  8
FUTO
 10
35142.956116172179
 20
29246.934720475379
 30
0.0
 40
7.0
 50
270.00000000000011
 51
0.0000000000000254
  0
LINE
  5
4A4
  8
FUTO
 10
35058.956116172179
 20
29239.934720475379
 30
0.0
 11
35142.956116172179
 21
29239.934720475379
 31
0.0
  0
LINE
  5
4A5
  8
FUTO
 10
35051.956116172179
 20
29272.93472047539
 30
0.0
 11
35051.956116172179
 21
29246.934720475379
 31
0.0
  0
ARC
  5
4A6
  8
FUTO
 10
35058.956116172179
 20
29246.934720475379
 30
0.0
 40
7.0
 50
179.99999999999989
 51
269.99999999999977
  0
ARC
  5
4A7
  8
FUTO
 10
35044.456116172179
 20
29348.93472047539
 30
0.0
 40
9.0
 50
89.999999999999915
 51
180.0
  0
LINE
  5
4A8
  8
FUTO
 10
35035.456116172187
 20
29348.93472047539
 30
0.0
 11
35035.456116172187
 21
29272.93472047539
 31
0.0
  0
LINE
  5
4A9
  8
FUTO
 10
35062.456116172179
 20
29363.93472047539
 30
0.0
 11
35139.456116172179
 21
29363.93472047539
 31
0.0
  0
LINE
  5
4AA
  8
FUTO
 10
35140.956116172179
 20
29230.560903869409
 30
0.0
 11
35140.956116172179
 21
29080.560903869398
 31
0.0
  0
LINE
  5
4AB
  8
FUTO
 10
35140.956116172179
 20
29080.560903869398
 30
0.0
 11
35065.956116172179
 21
29080.560903869398
 31
0.0
  0
LINE
  5
4AC
  8
FUTO
 10
35130.804739143168
 20
29093.23793649887
 30
0.0
 11
35069.607493201198
 21
29087.88387123993
 31
0.0
  0
LINE
  5
4AD
  8
FUTO
 10
35140.956116172179
 20
29230.560903869409
 30
0.0
 11
35065.956116172179
 21
29230.560903869409
 31
0.0
1001
ACAD
1000
ASC_BOUNDS
1002
{
1070
    19
1002
}
  0
LINE
  5
4AE
  8
FUTO
 10
35130.804739143168
 20
29217.883871239941
 30
0.0
 11
35069.607493201198
 21
29223.23793649887
 31
0.0
  0
LINE
  5
4AF
  8
FUTO
 10
35134.456116172187
 20
29213.899092447569
 30
0.0
 11
35134.456116172187
 21
29097.222715291231
 31
0.0
  0
ARC
  5
4B0
  8
FUTO
 10
35130.456116172179
 20
29097.222715291231
 30
0.0
 40
4.0
 50
274.99999999999972
 51
0.0
  0
LINE
  5
4B1
  8
FUTO
 10
35140.956116172179
 20
29230.560903869409
 30
0.0
 11
35140.956116172179
 21
29080.560903869398
 31
0.0
  0
ARC
  5
4B2
  8
FUTO
 10
35130.456116172179
 20
29213.899092447569
 30
0.0
 40
4.0
 50
0.0
 51
85.000000000000256
  0
ARC
  5
4B3
  8
FUTO
 10
35069.956116172179
 20
29083.899092447569
 30
0.0
 40
4.0
 50
95.000000000000185
 51
180.0
  0
LINE
  5
4B4
  8
FUTO
 10
35065.956116172179
 20
29080.560903869398
 30
0.0
 11
35065.956116172179
 21
29083.899092447569
 31
0.0
  0
LINE
  5
4B5
  8
FUTO
 10
35065.956116172179
 20
29230.560903869409
 30
0.0
 11
35065.956116172179
 21
29227.222715291231
 31
0.0
  0
ARC
  5
4B6
  8
FUTO
 10
35069.956116172179
 20
29227.222715291231
 30
0.0
 40
4.0
 50
180.0
 51
264.99999999999977
  0
ARC
  5
4B7
  8
FUTO
 10
35070.952116172179
 20
29082.982903869412
 30
0.0
 40
5.0
 50
95.001000000000005
 51
180.00099999999989
  0
LINE
  5
4B8
  8
FUTO
 10
35070.519116172189
 20
29087.9639038694
 30
0.0
 11
35125.323116172178
 21
29092.760903869399
 31
0.0
  0
LINE
  5
4B9
  8
FUTO
 10
35065.952116172179
 20
29080.560903869398
 30
0.0
 11
35065.952116172179
 21
29082.982903869412
 31
0.0
  0
LINE
  5
4BA
  8
FUTO
 10
35065.952116172179
 20
29080.560903869398
 30
0.0
 11
35140.952116172179
 21
29080.560903869398
 31
0.0
  0
LINE
  5
4BB
  8
SL
 10
35046.952116172171
 20
30008.93472047539
 30
0.0
 11
35046.952116172179
 21
29728.93472047539
 31
0.0
  0
LINE
  5
4BC
  8
SL
 10
34876.952116172179
 20
30008.93472047539
 30
0.0
 11
34876.952116172179
 21
29728.93472047539
 31
0.0
  0
LINE
  5
4BD
  8
SL
 10
34876.952116172179
 20
29728.93472047539
 30
0.0
 11
35046.952116172179
 21
29728.93472047539
 31
0.0
  0
LINE
  5
4BE
  8
FUTO
 10
34726.952116172179
 20
29618.93472047539
 30
0.0
 11
35076.952116172179
 21
29618.93472047539
 31
0.0
  0
LINE
  5
4BF
  8
FUTO
 10
35139.456116172179
 20
29368.93472047539
 30
0.0
 11
35144.456116172179
 21
29368.93472047539
 31
0.0
  0
LINE
  5
4C0
  8
FUTO
 10
35057.456116172179
 20
29368.93472047539
 30
0.0
 11
35062.456116172179
 21
29368.93472047539
 31
0.0
  0
LINE
  5
4C1
  8
FUTO
 10
35065.952116172179
 20
29370.560903869398
 30
0.0
 11
35140.952116172179
 21
29370.560903869398
 31
0.0
  0
LINE
  5
4C2
  8
FUTO
 10
35065.952116172179
 20
29370.560903869398
 30
0.0
 11
35065.952116172179
 21
29372.982903869401
 31
0.0
  0
LINE
  5
4C3
  8
FUTO
 10
35070.519116172189
 20
29377.963903869411
 30
0.0
 11
35125.323116172178
 21
29382.760903869399
 31
0.0
  0
ARC
  5
4C4
  8
FUTO
 10
35069.956116172179
 20
29517.222715291231
 30
0.0
 40
4.0
 50
180.0
 51
264.99999999999977
  0
LINE
  5
4C5
  8
FUTO
 10
35065.956116172179
 20
29520.560903869398
 30
0.0
 11
35065.956116172179
 21
29517.222715291231
 31
0.0
  0
LINE
  5
4C6
  8
FUTO
 10
35065.956116172179
 20
29370.560903869398
 30
0.0
 11
35065.956116172179
 21
29373.899092447569
 31
0.0
  0
ARC
  5
4C7
  8
FUTO
 10
35069.956116172179
 20
29373.899092447569
 30
0.0
 40
4.0
 50
95.000000000000185
 51
180.0
  0
ARC
  5
4C8
  8
FUTO
 10
35130.456116172179
 20
29503.899092447569
 30
0.0
 40
4.0
 50
0.0
 51
85.000000000000256
  0
LINE
  5
4C9
  8
FUTO
 10
35140.956116172179
 20
29520.560903869398
 30
0.0
 11
35140.956116172179
 21
29370.560903869398
 31
0.0
  0
ARC
  5
4CA
  8
FUTO
 10
35130.456116172179
 20
29387.222715291231
 30
0.0
 40
4.0
 50
274.99999999999972
 51
0.0
  0
LINE
  5
4CB
  8
FUTO
 10
35134.456116172187
 20
29503.899092447569
 30
0.0
 11
35134.456116172187
 21
29387.222715291231
 31
0.0
  0
LINE
  5
4CC
  8
FUTO
 10
35130.804739143168
 20
29507.883871239941
 30
0.0
 11
35069.607493201198
 21
29513.23793649887
 31
0.0
  0
LINE
  5
4CD
  8
FUTO
 10
35140.956116172179
 20
29520.560903869398
 30
0.0
 11
35065.956116172179
 21
29520.560903869398
 31
0.0
  0
LINE
  5
4CE
  8
FUTO
 10
35130.804739143168
 20
29383.23793649887
 30
0.0
 11
35069.607493201198
 21
29377.883871239941
 31
0.0
  0
LINE
  5
4CF
  8
FUTO
 10
35140.956116172179
 20
29370.560903869398
 30
0.0
 11
35065.956116172179
 21
29370.560903869398
 31
0.0
  0
LINE
  5
4D0
  8
FUTO
 10
35140.956116172179
 20
29520.560903869398
 30
0.0
 11
35140.956116172179
 21
29370.560903869398
 31
0.0
  0
LINE
  5
4D1
  8
SL
 10
34876.952116172179
 20
30008.93472047539
 30
0.0
 11
35046.952116172179
 21
30008.93472047539
 31
0.0
  0
LINE
  5
4D4
  8
FUTO
 10
35166.456116172179
 20
29348.93472047539
 30
0.0
 11
35166.456116172179
 21
29272.93472047539
 31
0.0
  0
LINE
  5
4D5
  8
CT
 10
36397.952116172179
 20
29383.462703682599
 30
0.0
 11
36397.952116172179
 21
29209.25592877845
 31
0.0
  0
LINE
  5
4D6
  8
FUTO
 10
36441.452116172179
 20
29368.93472047539
 30
0.0
 11
36441.452116172179
 21
29357.93472047539
 31
0.0
  0
LINE
  5
4D7
  8
FUTO
 10
36436.452116172179
 20
29368.93472047539
 30
0.0
 11
36436.452116172179
 21
29363.93472047539
 31
0.0
  0
LINE
  5
4D8
  8
FUTO
 10
36354.452116172179
 20
29368.93472047539
 30
0.0
 11
36354.452116172179
 21
29357.93472047539
 31
0.0
  0
LINE
  5
4D9
  8
FUTO
 10
36359.452116172179
 20
29368.93472047539
 30
0.0
 11
36359.452116172179
 21
29363.93472047539
 31
0.0
  0
LINE
  5
4DA
  8
FUTO
 10
36436.452116172179
 20
29228.93472047539
 30
0.0
 11
36441.452116172179
 21
29228.93472047539
 31
0.0
  0
LINE
  5
4DB
  8
FUTO
 10
36355.952116172179
 20
29239.934720475379
 30
0.0
 11
36439.952116172179
 21
29239.934720475379
 31
0.0
  0
LINE
  5
4DC
  8
1
 10
36363.753116172178
 20
29080.560903869398
 30
0.0
 11
36438.753116172178
 21
29080.560903869398
 31
0.0
  0
LINE
  5
4DD
  8
FUTO
 10
36341.452116172179
 20
29357.93472047539
 30
0.0
 11
36454.452116172179
 21
29357.93472047539
 31
0.0
  0
LINE
  5
4DE
  8
FUTO
 10
36332.452116172179
 20
29272.93472047539
 30
0.0
 11
36463.452116172179
 21
29272.93472047539
 31
0.0
  0
LINE
  5
4DF
  8
FUTO
 10
36359.452116172179
 20
29233.93472047539
 30
0.0
 11
36359.452116172179
 21
29228.93472047539
 31
0.0
  0
LINE
  5
4E0
  8
FUTO
 10
36354.452116172179
 20
29240.097323309801
 30
0.0
 11
36354.452116172179
 21
29228.93472047539
 31
0.0
  0
LINE
  5
4E1
  8
FUTO
 10
36354.452116172179
 20
29228.93472047539
 30
0.0
 11
36359.452116172179
 21
29228.93472047539
 31
0.0
  0
LINE
  5
4E2
  8
FUTO
 10
36436.452116172179
 20
29233.934720475379
 30
0.0
 11
36436.452116172179
 21
29228.93472047539
 31
0.0
  0
LINE
  5
4E3
  8
FUTO
 10
36359.452116172179
 20
29233.93472047539
 30
0.0
 11
36436.452116172179
 21
29233.93472047539
 31
0.0
  0
LINE
  5
4E4
  8
FUTO
 10
36348.952116172179
 20
29272.93472047539
 30
0.0
 11
36348.952116172179
 21
29246.934720475379
 31
0.0
  0
ARC
  5
4E5
  8
FUTO
 10
36355.952116172179
 20
29246.934720475379
 30
0.0
 40
7.0
 50
179.99999999999989
 51
269.99999999999977
  0
ARC
  5
4E6
  8
FUTO
 10
36341.452116172179
 20
29348.93472047539
 30
0.0
 40
9.0
 50
89.999999999999915
 51
180.0
  0
LINE
  5
4E7
  8
FUTO
 10
36332.452116172179
 20
29348.93472047539
 30
0.0
 11
36332.452116172179
 21
29272.93472047539
 31
0.0
  0
LINE
  5
4E8
  8
FUTO
 10
36359.452116172179
 20
29363.93472047539
 30
0.0
 11
36436.452116172179
 21
29363.93472047539
 31
0.0
  0
LINE
  5
4E9
  8
FUTO
 10
36437.952116172179
 20
29080.560903869398
 30
0.0
 11
36362.952116172179
 21
29080.560903869398
 31
0.0
  0
LINE
  5
4EA
  8
FUTO
 10
36427.800739143167
 20
29093.23793649887
 30
0.0
 11
36366.60349320119
 21
29087.88387123993
 31
0.0
  0
LINE
  5
4EB
  8
FUTO
 10
36362.948116172178
 20
29080.560903869398
 30
0.0
 11
36437.948116172178
 21
29080.560903869398
 31
0.0
  0
LINE
  5
4EC
  8
FUTO
 10
36437.952116172179
 20
29230.560903869409
 30
0.0
 11
36362.952116172179
 21
29230.560903869409
 31
0.0
  0
LINE
  5
4ED
  8
FUTO
 10
36427.800739143167
 20
29217.883871239941
 30
0.0
 11
36366.60349320119
 21
29223.23793649887
 31
0.0
  0
ARC
  5
4EE
  8
FUTO
 10
36366.952116172179
 20
29083.899092447569
 30
0.0
 40
4.0
 50
95.000000000000185
 51
180.0
  0
LINE
  5
4EF
  8
FUTO
 10
36362.952116172179
 20
29080.560903869398
 30
0.0
 11
36362.952116172179
 21
29083.899092447569
 31
0.0
  0
LINE
  5
4F0
  8
FUTO
 10
36362.948116172178
 20
29080.560903869398
 30
0.0
 11
36362.948116172178
 21
29082.982903869412
 31
0.0
  0
LINE
  5
4F1
  8
FUTO
 10
36362.952116172179
 20
29230.560903869409
 30
0.0
 11
36362.952116172179
 21
29227.222715291231
 31
0.0
  0
ARC
  5
4F2
  8
FUTO
 10
36366.952116172179
 20
29227.222715291231
 30
0.0
 40
4.0
 50
180.0
 51
264.99999999999972
  0
LINE
  5
4F3
  8
FUTO
 10
36367.515116172188
 20
29087.9639038694
 30
0.0
 11
36422.319116172177
 21
29092.760903869399
 31
0.0
  0
LINE
  5
4F4
  8
FUTO
 10
36437.952116172179
 20
29230.560903869409
 30
0.0
 11
36437.952116172179
 21
29080.560903869398
 31
0.0
  0
LINE
  5
4F5
  8
FUTO
 10
36431.452116172179
 20
29213.899092447569
 30
0.0
 11
36431.452116172179
 21
29097.222715291231
 31
0.0
  0
LINE
  5
4F6
  8
FUTO
 10
36437.952116172179
 20
29230.560903869409
 30
0.0
 11
36437.952116172179
 21
29080.560903869398
 31
0.0
  0
ARC
  5
4F7
  8
FUTO
 10
36427.452116172179
 20
29097.222715291231
 30
0.0
 40
4.0
 50
275.0
 51
0.0
  0
ARC
  5
4F8
  8
FUTO
 10
36427.452116172179
 20
29213.899092447569
 30
0.0
 40
4.0
 50
0.0
 51
84.999999999999957
  0
ARC
  5
4F9
  8
FUTO
 10
36454.452116172179
 20
29348.93472047539
 30
0.0
 40
9.0
 50
0.0
 51
90.0
  0
LINE
  5
4FA
  8
FUTO
 10
36463.452116172179
 20
29348.93472047539
 30
0.0
 11
36463.452116172179
 21
29272.93472047539
 31
0.0
  0
LINE
  5
4FB
  8
FUTO
 10
36441.452116172179
 20
29240.097323309801
 30
0.0
 11
36441.452116172179
 21
29228.93472047539
 31
0.0
  0
LINE
  5
4FC
  8
FUTO
 10
36446.952116172179
 20
29272.93472047539
 30
0.0
 11
36446.952116172179
 21
29246.934720475379
 31
0.0
  0
ARC
  5
4FD
  8
FUTO
 10
36439.952116172179
 20
29246.934720475379
 30
0.0
 40
7.0
 50
270.00000000000011
 51
0.0000000000000254
  0
LINE
  5
4FE
  8
FUTO
 10
36436.452116172179
 20
29368.93472047539
 30
0.0
 11
36441.452116172179
 21
29368.93472047539
 31
0.0
  0
LINE
  5
4FF
  8
1
 10
36363.753116172178
 20
29370.560903869398
 30
0.0
 11
36438.753116172178
 21
29370.560903869398
 31
0.0
  0
LINE
  5
500
  8
FUTO
 10
36354.452116172179
 20
29368.93472047539
 30
0.0
 11
36359.452116172179
 21
29368.93472047539
 31
0.0
  0
LINE
  5
501
  8
FUTO
 10
36437.952116172179
 20
29520.560903869398
 30
0.0
 11
36362.952116172179
 21
29520.560903869398
 31
0.0
  0
LINE
  5
502
  8
FUTO
 10
36427.800739143167
 20
29507.883871239941
 30
0.0
 11
36366.60349320119
 21
29513.23793649887
 31
0.0
  0
ARC
  5
503
  8
FUTO
 10
36427.452116172179
 20
29503.899092447569
 30
0.0
 40
4.0
 50
0.0
 51
84.999999999999957
  0
LINE
  5
504
  8
FUTO
 10
36362.952116172179
 20
29520.560903869398
 30
0.0
 11
36362.952116172179
 21
29517.222715291231
 31
0.0
  0
ARC
  5
505
  8
FUTO
 10
36366.952116172179
 20
29517.222715291231
 30
0.0
 40
4.0
 50
180.0
 51
264.99999999999972
  0
LINE
  5
506
  8
FUTO
 10
36437.952116172179
 20
29370.560903869398
 30
0.0
 11
36362.952116172179
 21
29370.560903869398
 31
0.0
  0
LINE
  5
507
  8
FUTO
 10
36427.800739143167
 20
29383.23793649887
 30
0.0
 11
36366.60349320119
 21
29377.883871239941
 31
0.0
  0
ARC
  5
508
  8
FUTO
 10
36427.452116172179
 20
29387.222715291231
 30
0.0
 40
4.0
 50
275.0
 51
0.0
  0
ARC
  5
509
  8
FUTO
 10
36366.952116172179
 20
29373.899092447569
 30
0.0
 40
4.0
 50
95.000000000000185
 51
180.0
  0
LINE
  5
50A
  8
FUTO
 10
36362.952116172179
 20
29370.560903869398
 30
0.0
 11
36362.952116172179
 21
29373.899092447569
 31
0.0
  0
LINE
  5
50B
  8
FUTO
 10
36362.948116172178
 20
29370.560903869398
 30
0.0
 11
36362.948116172178
 21
29372.982903869401
 31
0.0
  0
LINE
  5
50C
  8
FUTO
 10
36367.515116172188
 20
29377.963903869411
 30
0.0
 11
36422.319116172177
 21
29382.760903869399
 31
0.0
  0
LINE
  5
50D
  8
FUTO
 10
36362.948116172178
 20
29370.560903869398
 30
0.0
 11
36437.948116172178
 21
29370.560903869398
 31
0.0
  0
LINE
  5
50E
  8
FUTO
 10
36437.952116172179
 20
29520.560903869398
 30
0.0
 11
36437.952116172179
 21
29370.560903869398
 31
0.0
  0
LINE
  5
50F
  8
FUTO
 10
36431.452116172179
 20
29503.899092447569
 30
0.0
 11
36431.452116172179
 21
29387.222715291231
 31
0.0
  0
LINE
  5
510
  8
FUTO
 10
36437.952116172179
 20
29520.560903869398
 30
0.0
 11
36437.952116172179
 21
29370.560903869398
 31
0.0
  0
LINE
  5
511
  8
FUTO
 10
36513.752116172189
 20
29391.93472047539
 30
0.0
 11
36516.952116172193
 21
29391.93472047539
 31
0.0
  0
LINE
  5
512
  8
KL
 10
36513.752116172189
 20
29391.93472047539
 30
0.0
 11
36513.752116172189
 21
29520.560903869398
 31
0.0
  0
LINE
  5
513
  8
KL
 10
36516.952116172179
 20
29391.93472047539
 30
0.0
 11
36516.952116172179
 21
29520.560903869398
 31
0.0
  0
DIMENSION
  5
517
  8
SP
  2
*D15
 10
37915.952116172179
 20
28641.080291105089
 30
0.0
 11
37546.452116172179
 21
28721.080291105089
 31
0.0
 70
     0
 13
37176.952116172179
 23
29059.633851875471
 33
0.0
 14
37915.952116172179
 24
29080.560903869398
 34
0.0
1001
ACAD
1000
DSTYLE
1002
{
1070
   287
1070
     4
1070
    40
1040
40.0
1070
    75
1070
     1
1070
   279
1070
     1
1070
   289
1070
     3
1002
}
  0
LINE
  5
525
  8
FUTO
 10
37842.452116172179
 20
29368.93472047539
 30
0.0
 11
37842.452116172179
 21
29363.93472047539
 31
0.0
  0
LINE
  5
526
  8
FUTO
 10
37837.452116172179
 20
29368.93472047539
 30
0.0
 11
37837.452116172179
 21
29357.93472047539
 31
0.0
  0
LINE
  5
527
  8
FUTO
 10
37919.452116172179
 20
29368.93472047539
 30
0.0
 11
37919.452116172179
 21
29363.93472047539
 31
0.0
  0
LINE
  5
528
  8
FUTO
 10
37924.452116172179
 20
29368.93472047539
 30
0.0
 11
37924.452116172179
 21
29357.93472047539
 31
0.0
  0
LINE
  5
529
  8
CT
 10
37880.952116172179
 20
29383.462703682599
 30
0.0
 11
37880.952116172179
 21
29209.25592877845
 31
0.0
  0
ARC
  5
52A
  8
FUTO
 10
37922.952116172179
 20
29246.934720475379
 30
0.0
 40
7.0
 50
270.00000000000011
 51
0.0000000000000254
  0
LINE
  5
52B
  8
FUTO
 10
37815.452116172179
 20
29272.93472047539
 30
0.0
 11
37946.452116172179
 21
29272.93472047539
 31
0.0
  0
LINE
  5
52C
  8
FUTO
 10
37824.452116172179
 20
29357.93472047539
 30
0.0
 11
37937.452116172179
 21
29357.93472047539
 31
0.0
  0
LINE
  5
52D
  8
FUTO
 10
37842.452116172179
 20
29363.93472047539
 30
0.0
 11
37919.452116172179
 21
29363.93472047539
 31
0.0
  0
LINE
  5
52E
  8
FUTO
 10
37815.452116172179
 20
29348.93472047539
 30
0.0
 11
37815.452116172179
 21
29272.93472047539
 31
0.0
  0
ARC
  5
52F
  8
FUTO
 10
37824.452116172179
 20
29348.93472047539
 30
0.0
 40
9.0
 50
89.999999999999915
 51
180.0
  0
ARC
  5
530
  8
FUTO
 10
37838.952116172179
 20
29246.934720475379
 30
0.0
 40
7.0
 50
179.99999999999989
 51
269.99999999999977
  0
LINE
  5
531
  8
FUTO
 10
37831.952116172179
 20
29272.93472047539
 30
0.0
 11
37831.952116172179
 21
29246.934720475379
 31
0.0
  0
LINE
  5
532
  8
FUTO
 10
37838.952116172179
 20
29239.934720475379
 30
0.0
 11
37922.952116172179
 21
29239.934720475379
 31
0.0
  0
LINE
  5
533
  8
FUTO
 10
37842.452116172179
 20
29233.93472047539
 30
0.0
 11
37919.452116172179
 21
29233.93472047539
 31
0.0
  0
LINE
  5
534
  8
FUTO
 10
37924.452116172179
 20
29240.097323309801
 30
0.0
 11
37924.452116172179
 21
29228.93472047539
 31
0.0
  0
LINE
  5
535
  8
FUTO
 10
37919.452116172179
 20
29228.93472047539
 30
0.0
 11
37924.452116172179
 21
29228.93472047539
 31
0.0
  0
LINE
  5
536
  8
FUTO
 10
37919.452116172179
 20
29233.934720475379
 30
0.0
 11
37919.452116172179
 21
29228.93472047539
 31
0.0
  0
LINE
  5
537
  8
FUTO
 10
37837.452116172179
 20
29228.93472047539
 30
0.0
 11
37842.452116172179
 21
29228.93472047539
 31
0.0
  0
LINE
  5
538
  8
FUTO
 10
37837.452116172179
 20
29240.097323309801
 30
0.0
 11
37837.452116172179
 21
29228.93472047539
 31
0.0
  0
LINE
  5
539
  8
FUTO
 10
37842.452116172179
 20
29233.93472047539
 30
0.0
 11
37842.452116172179
 21
29228.93472047539
 31
0.0
  0
LINE
  5
53A
  8
FUTO
 10
37915.952116172179
 20
29080.560903869398
 30
0.0
 11
37840.952116172179
 21
29080.560903869398
 31
0.0
  0
LINE
  5
53B
  8
FUTO
 10
37911.385116172183
 20
29087.9639038694
 30
0.0
 11
37856.581116172179
 21
29092.760903869399
 31
0.0
  0
LINE
  5
53C
  8
1
 10
37915.147116172178
 20
29080.560903869398
 30
0.0
 11
37840.147116172178
 21
29080.560903869398
 31
0.0
  0
LINE
  5
53D
  8
FUTO
 10
37851.099493201189
 20
29093.23793649887
 30
0.0
 11
37912.296739143167
 21
29087.88387123993
 31
0.0
  0
LINE
  5
53E
  8
FUTO
 10
37840.948116172178
 20
29080.560903869398
 30
0.0
 11
37915.948116172178
 21
29080.560903869398
 31
0.0
  0
LINE
  5
53F
  8
FUTO
 10
37851.099493201189
 20
29217.883871239941
 30
0.0
 11
37912.296739143167
 21
29223.23793649887
 31
0.0
  0
LINE
  5
540
  8
FUTO
 10
37840.948116172178
 20
29230.560903869409
 30
0.0
 11
37915.948116172178
 21
29230.560903869409
 31
0.0
1001
ACAD
1000
ASC_BOUNDS
1002
{
1070
    19
1005
0
1002
}
  0
LINE
  5
541
  8
FUTO
 10
37840.948116172178
 20
29230.560903869409
 30
0.0
 11
37840.948116172178
 21
29080.560903869398
 31
0.0
  0
LINE
  5
542
  8
FUTO
 10
37847.448116172178
 20
29213.899092447569
 30
0.0
 11
37847.448116172178
 21
29097.222715291231
 31
0.0
  0
LINE
  5
543
  8
FUTO
 10
37840.948116172178
 20
29230.560903869409
 30
0.0
 11
37840.948116172178
 21
29080.560903869398
 31
0.0
  0
ARC
  5
544
  8
FUTO
 10
37851.448116172178
 20
29097.222715291231
 30
0.0
 40
4.0
 50
180.0
 51
264.99999999999989
  0
ARC
  5
545
  8
FUTO
 10
37851.448116172178
 20
29213.899092447569
 30
0.0
 40
4.0
 50
95.000000000000057
 51
180.0
  0
LINE
  5
546
  8
FUTO
 10
37915.952116172179
 20
29080.560903869398
 30
0.0
 11
37915.952116172179
 21
29082.982903869412
 31
0.0
  0
LINE
  5
547
  8
FUTO
 10
37915.948116172178
 20
29080.560903869398
 30
0.0
 11
37915.948116172178
 21
29083.899092447569
 31
0.0
  0
ARC
  5
548
  8
FUTO
 10
37911.948116172178
 20
29083.899092447569
 30
0.0
 40
4.0
 50
0.0
 51
84.999999999999801
  0
ARC
  5
549
  8
FUTO
 10
37911.948116172178
 20
29227.222715291231
 30
0.0
 40
4.0
 50
275.00000000000011
 51
0.0
  0
LINE
  5
54A
  8
FUTO
 10
37915.948116172178
 20
29230.560903869409
 30
0.0
 11
37915.948116172178
 21
29227.222715291231
 31
0.0
  0
LINE
  5
54B
  8
FUTO
 10
37946.452116172179
 20
29348.93472047539
 30
0.0
 11
37946.452116172179
 21
29272.93472047539
 31
0.0
  0
ARC
  5
54C
  8
FUTO
 10
37937.452116172179
 20
29348.93472047539
 30
0.0
 40
9.0
 50
0.0
 51
90.0
  0
LINE
  5
54D
  8
FUTO
 10
37929.952116172179
 20
29272.93472047539
 30
0.0
 11
37929.952116172179
 21
29246.934720475379
 31
0.0
  0
LINE
  5
54E
  8
FUTO
 10
37836.952116172193
 20
29406.93472047539
 30
0.0
 11
37986.952116172193
 21
29406.93472047539
 31
0.0
  0
LINE
  5
54F
  8
FUTO
 10
37986.952116172193
 20
29440.93472047539
 30
0.0
 11
37836.952116172193
 21
29440.93472047539
 31
0.0
  0
LINE
  5
550
  8
CT
 10
37802.039430689118
 20
29423.93472047539
 30
0.0
 11
38038.537609166313
 21
29423.93472047539
 31
0.0
  0
LINE
  5
551
  8
FUTO
 10
37837.452116172179
 20
29368.93472047539
 30
0.0
 11
37842.452116172179
 21
29368.93472047539
 31
0.0
  0
LINE
  5
552
  8
FUTO
 10
37919.452116172179
 20
29368.93472047539
 30
0.0
 11
37924.452116172179
 21
29368.93472047539
 31
0.0
  0
LINE
  5
553
  8
KL
 10
37836.952116172193
 20
29391.93472047539
 30
0.0
 11
37840.15211617219
 21
29391.93472047539
 31
0.0
  0
LINE
  5
554
  8
FUTO
 10
37915.952116172179
 20
29370.560903869398
 30
0.0
 11
37840.952116172179
 21
29370.560903869398
 31
0.0
  0
LINE
  5
555
  8
FUTO
 10
37911.385116172183
 20
29377.963903869411
 30
0.0
 11
37856.581116172179
 21
29382.760903869399
 31
0.0
  0
LINE
  5
556
  8
FUTO
 10
37915.952116172179
 20
29370.560903869398
 30
0.0
 11
37915.952116172179
 21
29372.982903869401
 31
0.0
  0
LINE
  5
557
  8
1
 10
37915.147116172178
 20
29370.560903869398
 30
0.0
 11
37840.147116172178
 21
29370.560903869398
 31
0.0
  0
ARC
  5
558
  8
FUTO
 10
37911.948116172178
 20
29517.222715291231
 30
0.0
 40
4.0
 50
275.00000000000011
 51
0.0
  0
LINE
  5
559
  8
FUTO
 10
37915.948116172178
 20
29520.560903869398
 30
0.0
 11
37915.948116172178
 21
29517.222715291231
 31
0.0
  0
LINE
  5
55A
  8
FUTO
 10
37915.948116172178
 20
29370.560903869398
 30
0.0
 11
37915.948116172178
 21
29373.899092447569
 31
0.0
  0
ARC
  5
55B
  8
FUTO
 10
37911.948116172178
 20
29373.899092447569
 30
0.0
 40
4.0
 50
0.0
 51
84.999999999999801
  0
ARC
  5
55C
  8
FUTO
 10
37851.448116172178
 20
29503.899092447569
 30
0.0
 40
4.0
 50
95.000000000000057
 51
180.0
  0
LINE
  5
55D
  8
FUTO
 10
37840.948116172178
 20
29520.560903869398
 30
0.0
 11
37840.948116172178
 21
29370.560903869398
 31
0.0
  0
ARC
  5
55E
  8
FUTO
 10
37851.448116172178
 20
29387.222715291231
 30
0.0
 40
4.0
 50
180.0
 51
264.99999999999989
  0
LINE
  5
55F
  8
FUTO
 10
37847.448116172178
 20
29503.899092447569
 30
0.0
 11
37847.448116172178
 21
29387.222715291231
 31
0.0
  0
LINE
  5
560
  8
FUTO
 10
37851.099493201189
 20
29507.883871239941
 30
0.0
 11
37912.296739143167
 21
29513.23793649887
 31
0.0
  0
LINE
  5
561
  8
FUTO
 10
37840.948116172178
 20
29520.560903869398
 30
0.0
 11
37915.948116172178
 21
29520.560903869398
 31
0.0
  0
LINE
  5
562
  8
FUTO
 10
37851.099493201189
 20
29383.23793649887
 30
0.0
 11
37912.296739143167
 21
29377.883871239941
 31
0.0
  0
LINE
  5
563
  8
FUTO
 10
37840.948116172178
 20
29370.560903869398
 30
0.0
 11
37915.948116172178
 21
29370.560903869398
 31
0.0
  0
LINE
  5
564
  8
FUTO
 10
37840.948116172178
 20
29520.560903869398
 30
0.0
 11
37840.948116172178
 21
29370.560903869398
 31
0.0
  0
LINE
  5
565
  8
KL
 10
37840.15211617219
 20
29391.93472047539
 30
0.0
 11
37840.15211617219
 21
29520.560903869398
 31
0.0
  0
LINE
  5
566
  8
KL
 10
37836.952116172193
 20
29391.93472047539
 30
0.0
 11
37836.952116172193
 21
29520.560903869398
 31
0.0
  0
LINE
  5
567
  8
FUTO
 10
38028.056281317731
 20
29403.106503801559
 30
0.0
 11
38028.056281317731
 21
29444.762937149218
 31
0.0
  0
LINE
  5
568
  8
FUTO
 10
37986.952116172179
 20
29403.106503801559
 30
0.0
 11
37986.952116172179
 21
29444.762937149218
 31
0.0
  0
LINE
  5
569
  8
FUTO
 10
37986.952116172193
 20
29403.106503801559
 30
0.0
 11
38028.056281317731
 21
29403.106503801559
 31
0.0
  0
LINE
  5
56A
  8
FUTO
 10
37986.952116172193
 20
29444.762937149218
 30
0.0
 11
38028.056281317731
 21
29444.762937149218
 31
0.0
  0
LINE
  5
56B
  8
KL
 10
37840.15211617219
 20
30052.93472047539
 30
0.0
 11
37930.152116172183
 21
30052.93472047539
 31
0.0
  0
LINE
  5
56C
  8
KL
 10
37840.15211617219
 20
30058.93472047539
 30
0.0
 11
37971.952116172179
 21
30058.93472047539
 31
0.0
  0
LINE
  5
56D
  8
HOSO
 10
37797.618106561269
 20
30018.93472047539
 30
0.0
 11
37871.725721709532
 21
30018.93472047539
 31
0.0
  0
LINE
  5
56E
  8
KL
 10
37840.152116172183
 20
29993.93472047539
 30
0.0
 11
37846.15211617219
 21
29993.93472047539
 31
0.0
  0
LINE
  5
56F
  8
FUTO
 10
37930.152116172183
 20
30052.93472047539
 30
0.0
 11
37971.952116172179
 21
30052.93472047539
 31
0.0
  0
LINE
  5
570
  8
FUTO
 10
37965.952116172179
 20
29993.93472047539
 30
0.0
 11
37971.952116172179
 21
29993.93472047539
 31
0.0
  0
LINE
  5
571
  8
HOSO
 10
37938.469569986162
 20
30018.93472047539
 30
0.0
 11
38012.577185134418
 21
30018.93472047539
 31
0.0
  0
LINE
  5
600
  8
FUTO
 10
36448.752116172182
 20
30949.93472047539
 30
0.0
 11
37905.152116172183
 21
30949.93472047539
 31
0.0
  0
LINE
  5
601
  8
FUTO
 10
36448.752116172182
 20
30967.93472047539
 30
0.0
 11
37905.152116172183
 21
30967.93472047539
 31
0.0
  0
LINE
  5
61E
  8
CT
 10
34675.025994487398
 20
30958.93472047539
 30
0.0
 11
38170.947419344411
 21
30958.93472047539
 31
0.0
  0
LINE
  5
623
  8
FUTO
 10
35282.452116172179
 20
31062.93472047539
 30
0.0
 11
35149.452116172179
 21
31062.93472047539
 31
0.0
  0
LINE
  5
624
  8
FUTO
 10
35149.452116172179
 20
30854.93472047539
 30
0.0
 11
35160.952116172179
 21
30854.93472047539
 31
0.0
  0
ARC
  5
625
  8
FUTO
 10
35166.952116172179
 20
30876.93472047539
 30
0.0
 40
6.0
 50
90.0
 51
180.0
  0
LINE
  5
626
  8
FUTO
 10
35125.952116172179
 20
30836.93472047539
 30
0.0
 11
35305.952116172179
 21
30836.93472047539
 31
0.0
  0
ARC
  5
628
  8
FUTO
 10
35149.452116172179
 20
31056.93472047539
 30
0.0
 40
6.0
 50
90.0
 51
180.0
  0
LINE
  5
629
  8
SL
 10
34876.952116172179
 20
30678.93472047539
 30
0.0
 11
35046.952116172179
 21
30678.93472047539
 31
0.0
  0
LINE
  5
62A
  8
FUTO
 10
35143.452116172179
 20
31048.93472047539
 30
0.0
 11
35138.452116172179
 21
31048.93472047539
 31
0.0
  0
ARC
  5
62B
  8
FUTO
 10
35149.452116172179
 20
30860.93472047539
 30
0.0
 40
6.0
 50
180.0
 51
270.0
  0
LINE
  5
62C
  8
FUTO
 10
35138.452116172179
 20
30868.93472047539
 30
0.0
 11
35143.452116172179
 21
30868.93472047539
 31
0.0
  0
LINE
  5
62D
  8
FUTO
 10
35143.452116172179
 20
31056.93472047539
 30
0.0
 11
35143.452116172179
 21
30860.93472047539
 31
0.0
  0
LINE
  5
62E
  8
FUTO
 10
35138.452116172179
 20
31048.93472047539
 30
0.0
 11
35138.452116172179
 21
30868.93472047539
 31
0.0
  0
LINE
  5
62F
  8
FUTO
 10
35046.952116172179
 20
30911.43472047539
 30
0.0
 11
35138.452116172179
 21
30911.43472047539
 31
0.0
  0
LINE
  5
630
  8
FUTO
 10
35046.952116172179
 20
31006.43472047539
 30
0.0
 11
35138.452116172179
 21
31006.43472047539
 31
0.0
  0
LINE
  5
631
  8
SL
 10
34876.952116172179
 20
31238.93472047539
 30
0.0
 11
35046.952116172179
 21
31238.93472047539
 31
0.0
  0
LINE
  5
632
  8
FUTO
 10
34726.952116172179
 20
31338.93472047539
 30
0.0
 11
35076.952116172179
 21
31338.93472047539
 31
0.0
  0
LINE
  5
636
  8
FUTO
 10
36513.752116172182
 20
31027.634720475391
 30
0.0
 11
36513.752116172189
 21
32123.93472047539
 31
0.0
  0
LINE
  5
637
  8
FUTO
 10
36516.952116172179
 20
31027.634720475391
 30
0.0
 11
36516.952116172179
 21
32123.93472047539
 31
0.0
  0
LINE
  5
638
  8
FUTO
 10
36448.752116172182
 20
32123.93472047539
 30
0.0
 11
36448.752116172182
 21
30949.934720475379
 31
0.0
  0
LINE
  5
63B
  8
SL
 10
36096.463737498263
 20
31175.009390285639
 30
0.0
 11
35331.085780700567
 21
31175.009390285639
 31
0.0
  0
LINE
  5
63D
  8
FUTO
 10
36126.952116172171
 20
30798.93472047539
 30
0.0
 11
35305.952116172179
 21
30798.93472047539
 31
0.0
  0
LINE
  5
63E
  8
FUTO
 10
35293.452116172179
 20
30906.43472047539
 30
0.0
 11
36123.452116172179
 21
30906.43472047539
 31
0.0
  0
LINE
  5
63F
  8
FUTO
 10
35293.452116172179
 20
31011.43472047539
 30
0.0
 11
36123.452116172179
 21
31011.43472047539
 31
0.0
  0
LINE
  5
640
  8
SL
 10
35331.085780700567
 20
31175.009390285639
 30
0.0
 11
35331.085780700567
 21
30798.93472047539
 31
0.0
  0
LINE
  5
641
  8
CT
 10
35215.952116172179
 20
31140.000634895008
 30
0.0
 11
35215.952116172179
 21
30750.000466949601
 31
0.0
  0
ARC
  5
642
  8
FUTO
 10
35282.452116172179
 20
31056.93472047539
 30
0.0
 40
6.0
 50
0.0
 51
90.0
  0
LINE
  5
643
  8
FUTO
 10
35270.952116172179
 20
31062.93472047539
 30
0.0
 11
35270.952116172179
 21
30836.93472047539
 31
0.0
  0
LINE
  5
644
  8
FUTO
 10
35160.952116172179
 20
31062.93472047539
 30
0.0
 11
35160.952116172179
 21
30836.93472047539
 31
0.0
  0
LINE
  5
645
  8
CT
 10
35215.952116172179
 20
31082.703479640099
 30
0.0
 11
35215.952116172179
 21
30829.110996573268
 31
0.0
  0
LINE
  5
646
  8
FUTO
 10
35288.452116172179
 20
31048.93472047539
 30
0.0
 11
35293.452116172179
 21
31048.93472047539
 31
0.0
  0
LINE
  5
647
  8
FUTO
 10
35293.452116172179
 20
30868.93472047539
 30
0.0
 11
35288.452116172179
 21
30868.93472047539
 31
0.0
  0
ARC
  5
648
  8
FUTO
 10
35282.452116172179
 20
30860.93472047539
 30
0.0
 40
6.0
 50
270.0
 51
0.0
  0
LINE
  5
649
  8
FUTO
 10
35282.452116172179
 20
30854.93472047539
 30
0.0
 11
35270.952116172179
 21
30854.93472047539
 31
0.0
  0
ARC
  5
64A
  8
FUTO
 10
35264.952116172179
 20
30876.93472047539
 30
0.0
 40
6.0
 50
0.0
 51
90.0
  0
LINE
  5
64B
  8
FUTO
 10
35293.452116172179
 20
31048.93472047539
 30
0.0
 11
35293.452116172179
 21
30868.93472047539
 31
0.0
  0
LINE
  5
64C
  8
FUTO
 10
35288.452116172179
 20
31056.93472047539
 30
0.0
 11
35288.452116172179
 21
30860.93472047539
 31
0.0
  0
LINE
  5
64D
  8
FUTO
 10
35160.952116172179
 20
30846.934720475379
 30
0.0
 11
35270.952116172179
 21
30846.934720475379
 31
0.0
  0
LINE
  5
64E
  8
FUTO
 10
35264.952116172179
 20
30882.93472047539
 30
0.0
 11
35166.952116172179
 21
30882.93472047539
 31
0.0
  0
LINE
  5
653
  8
SL
 10
36096.463737498263
 20
31175.009390285639
 30
0.0
 11
36096.463737498263
 21
30798.93472047539
 31
0.0
  0
LINE
  5
654
  8
CT
 10
36216.952116172179
 20
31167.70554855563
 30
0.0
 11
36216.952116172179
 21
30718.033244788028
 31
0.0
  0
LINE
  5
655
  8
FUTO
 10
36295.452116172179
 20
31066.43472047539
 30
0.0
 11
36310.452116172179
 21
31042.93472047539
 31
0.0
  0
LINE
  5
656
  8
FUTO
 10
36283.452116172179
 20
31088.934720475379
 30
0.0
 11
36283.452116172179
 21
30873.93472047539
 31
0.0
  0
LINE
  5
657
  8
FUTO
 10
36283.452116172179
 20
30863.934720475379
 30
0.0
 11
36283.452116172179
 21
31088.934657280999
 31
0.0
  0
LINE
  5
658
  8
FUTO
 10
36295.452116172179
 20
30828.93472047539
 30
0.0
 11
36295.452116172179
 21
31088.934720475379
 31
0.0
  0
LINE
  5
659
  8
FUTO
 10
36123.452116172179
 20
31042.93472047539
 30
0.0
 11
36138.452116172179
 21
31066.43472047539
 31
0.0
  0
LINE
  5
65A
  8
FUTO
 10
36150.452116172179
 20
31088.934720475379
 30
0.0
 11
36150.452116172179
 21
30873.93472047539
 31
0.0
  0
LINE
  5
65B
  8
CT
 10
36216.952116172179
 20
31123.096300141598
 30
0.0
 11
36216.952116172179
 21
30781.226677297502
 31
0.0
  0
LINE
  5
65C
  8
FUTO
 10
36138.452116172179
 20
31088.934720475379
 30
0.0
 11
36138.452116172179
 21
30828.93472047539
 31
0.0
  0
LINE
  5
662
  8
FUTO
 10
36448.752116172182
 20
30949.934720475379
 30
0.0
 11
36423.752116172182
 21
30933.915565169638
 31
0.0
  0
LINE
  5
664
  8
FUTO
 10
36306.952116172179
 20
30808.93472047539
 30
0.0
 11
36126.952116172179
 21
30808.93472047539
 31
0.0
  0
LINE
  5
665
  8
FUTO
 10
36291.952116172179
 20
30818.93472047539
 30
0.0
 11
36141.952116172179
 21
30818.93472047539
 31
0.0
  0
LINE
  5
666
  8
FUTO
 10
36141.952116172179
 20
30873.93472047539
 30
0.0
 11
36291.952116172179
 21
30873.93472047539
 31
0.0
  0
LINE
  5
667
  8
FUTO
 10
36123.452116172179
 20
30874.93472047539
 30
0.0
 11
36123.452116172179
 21
31042.93472047539
 31
0.0
  0
LINE
  5
668
  8
FUTO
 10
36138.452116172179
 20
30828.93472047539
 30
0.0
 11
36141.952116172179
 21
30828.93472047539
 31
0.0
  0
LINE
  5
669
  8
CT
 10
36166.952116172179
 20
30783.97962812414
 30
0.0
 11
36166.952116172179
 21
30904.7521532459
 31
0.0
  0
LINE
  5
66A
  8
FUTO
 10
36141.952116172179
 20
30808.93472047539
 30
0.0
 11
36141.952116172179
 21
30873.93472047539
 31
0.0
  0
LINE
  5
66B
  8
FUTO
 10
36138.452116172179
 20
30851.43472047539
 30
0.0
 11
36123.452116172179
 21
30874.93472047539
 31
0.0
  0
LINE
  5
66C
  8
FUTO
 10
36310.452116172179
 20
31011.43472047539
 30
0.0
 11
36448.752116172182
 21
31011.43472047539
 31
0.0
  0
LINE
  5
66E
  8
FUTO
 10
36310.452116172179
 20
30906.43472047539
 30
0.0
 11
36423.752116172182
 21
30906.43472047539
 31
0.0
  0
LINE
  5
67F
  8
CT
 10
36328.342454408506
 20
30958.93472047539
 30
0.0
 11
36437.685076284419
 21
30958.93472047539
 31
0.0
  0
LINE
  5
69D
  8
FUTO
 10
36310.452116172179
 20
31042.93472047539
 30
0.0
 11
36310.452116172179
 21
30874.93472047539
 31
0.0
  0
LINE
  5
69E
  8
FUTO
 10
36291.952116172179
 20
30828.93472047539
 30
0.0
 11
36295.452116172179
 21
30828.93472047539
 31
0.0
  0
LINE
  5
69F
  8
FUTO
 10
36291.952116172179
 20
30873.93472047539
 30
0.0
 11
36291.952116172179
 21
30808.93472047539
 31
0.0
  0
LINE
  5
6A0
  8
FUTO
 10
36310.452116172179
 20
30874.93472047539
 30
0.0
 11
36295.452116172179
 21
30851.43472047539
 31
0.0
  0
LINE
  5
6A1
  8
CT
 10
36266.952116172179
 20
30783.97962812414
 30
0.0
 11
36266.952116172179
 21
30904.7521532459
 31
0.0
  0
LINE
  5
6AC
  8
FUTO
 10
36278.452116172179
 20
31106.93472047539
 30
0.0
 11
36155.452116172179
 21
31106.93472047539
 31
0.0
  0
LINE
  5
6AD
  8
FUTO
 10
36155.452116172179
 20
31106.93472047539
 30
0.0
 11
36155.452116172179
 21
31088.934720475379
 31
0.0
  0
LINE
  5
6AE
  8
FUTO
 10
36155.452116172179
 20
31088.934720475379
 30
0.0
 11
36138.452116172179
 21
31088.934720475379
 31
0.0
  0
LINE
  5
6B7
  8
FUTO
 10
36295.452116172179
 20
31088.934720475379
 30
0.0
 11
36278.452116172179
 21
31088.934720475379
 31
0.0
  0
LINE
  5
6B8
  8
FUTO
 10
36278.452116172179
 20
31088.934720475379
 30
0.0
 11
36278.452116172179
 21
31106.93472047539
 31
0.0
  0
LINE
  5
6BC
  8
FUTO
 10
36513.752116172182
 20
31904.134720475391
 30
0.0
 11
36513.752116172182
 21
32123.93472047539
 31
0.0
  0
DIMENSION
  5
6CD
  8
SP
  2
*D16
 10
37971.952116172179
 20
32472.112773783989
 30
0.0
 11
37505.81449121629
 21
32472.112773783989
 31
0.0
 70
   128
 13
37176.952116172179
 23
32504.055113148381
 33
0.0
 14
37971.952116172179
 24
31923.93472047539
 34
0.0
1001
ACAD
1000
DSTYLE
1002
{
1070
    40
1040
40.0
1002
}
  0
LINE
  5
6E1
  8
FUTO
 10
37836.952116172179
 20
31027.634720475391
 30
0.0
 11
37836.952116172179
 21
32123.93472047539
 31
0.0
  0
LINE
  5
6E2
  8
FUTO
 10
37840.152116172183
 20
31027.634720475391
 30
0.0
 11
37840.15211617219
 21
32123.93472047539
 31
0.0
  0
LINE
  5
6E3
  8
FUTO
 10
37905.152116172583
 20
32123.93472047539
 30
0.0
 11
37905.152116172168
 21
30949.93472047539
 31
0.0
  0
LINE
  5
701
  8
FUTO
 10
37905.152116172219
 20
30949.934720475361
 30
0.0
 11
37930.152116172212
 21
30933.91556516962
 31
0.0
  0
INSERT
  5
702
  8
FUTO
  2
まっすぐの矢印
 10
38167.425268742692
 20
31444.481023324501
 30
0.0
 41
2.0
 42
2.0
 43
2.0
 50
90.0
  0
LINE
  5
704
  8
FUTO
 10
37905.152116172183
 20
31864.93472047539
 30
0.0
 11
37971.952116172179
 21
31864.93472047539
 31
0.0
  0
LINE
  5
705
  8
KL
 10
37840.152116172183
 20
31858.93472047539
 30
0.0
 11
37971.952116172179
 21
31858.93472047539
 31
0.0
  0
LINE
  5
706
  8
HOSO
 10
37811.214146364189
 20
31898.93472047539
 30
0.0
 11
37871.044495194263
 21
31898.93472047539
 31
0.0
  0
LINE
  5
707
  8
KL
 10
37846.152116172183
 20
31923.93472047539
 30
0.0
 11
37840.152116172183
 21
31923.93472047539
 31
0.0
  0
LINE
  5
708
  8
KL
 10
37840.152116172183
 20
31864.93472047539
 30
0.0
 11
37905.152116172183
 21
31864.93472047539
 31
0.0
  0
LINE
  5
709
  8
FUTO
 10
37965.952116172179
 20
31923.93472047539
 30
0.0
 11
37971.952116172179
 21
31923.93472047539
 31
0.0
  0
LINE
  5
70A
  8
HOSO
 10
37939.284339612503
 20
31898.93472047539
 30
0.0
 11
37999.114688442569
 21
31898.93472047539
 31
0.0
  0
LINE
  5
88D
  8
CT
 10
34127.314290712049
 20
35553.798435098252
 30
0.0
 11
30339.754755527469
 21
35553.798435098252
 31
0.0
  0
LINE
  5
88E
  8
FUTO
 10
33916.989199236392
 20
34889.798435098259
 30
0.0
 11
33916.989199236377
 21
36217.798435098252
 31
0.0
  0
LINE
  5
89C
  8
FUTO
 10
33981.989199236392
 20
34824.798435098252
 30
0.0
 11
31993.989199236388
 21
34824.798435098252
 31
0.0
  0
LINE
  5
89D
  8
FUTO
 10
33981.989199236392
 20
34824.798435098252
 30
0.0
 11
33981.989199236392
 21
36282.798435098252
 31
0.0
  0
LINE
  5
89E
  8
FUTO
 10
33981.989199236392
 20
36282.798435098252
 30
0.0
 11
31993.989199236388
 21
36282.798435098259
 31
0.0
  0
LINE
  5
89F
  8
FUTO
 10
30649.989199236388
 20
36267.798435098252
 30
0.0
 11
30649.989199236388
 21
34839.798435098259
 31
0.0
  0
LINE
  5
8A0
  8
FUTO
 10
31993.989199236388
 20
36267.798435098252
 30
0.0
 11
30649.989199236388
 21
36267.798435098252
 31
0.0
  0
LINE
  5
8A1
  8
FUTO
 10
30699.989199236388
 20
36217.798435098259
 30
0.0
 11
30699.989199236388
 21
34889.798435098252
 31
0.0
  0
LINE
  5
8A2
  8
FUTO
 10
31993.989199236388
 20
34839.798435098259
 30
0.0
 11
30649.989199236388
 21
34839.798435098252
 31
0.0
  0
LINE
  5
8A3
  8
FUTO
 10
33916.989199236377
 20
34889.798435098259
 30
0.0
 11
32691.989199236388
 21
34889.798435098259
 31
0.0
  0
LINE
  5
8A4
  8
FUTO
 10
33051.989199236392
 20
36267.798435098252
 30
0.0
 11
33051.989199236392
 21
36292.798435098252
 31
0.0
  0
LINE
  5
8A5
  8
FUTO
 10
30931.989199236388
 20
36267.798435098252
 30
0.0
 11
30931.989199236388
 21
36292.798435098252
 31
0.0
  0
LINE
  5
132F
  8
FUTO
 10
31611.989199236388
 20
33103.798435098259
 30
0.0
 11
33771.989199236392
 21
33103.798435098259
 31
0.0
  0
LINE
  5
1330
  8
FUTO
 10
31611.989199236388
 20
33453.798435098252
 30
0.0
 11
33771.989199236392
 21
33453.798435098252
 31
0.0
  0
LINE
  5
1336
  8
SL
 10
31711.989199236388
 20
33253.798435098252
 30
0.0
 11
33691.989199236392
 21
33253.798435098252
 31
0.0
  0
LINE
  5
1337
  8
SL
 10
31711.989199236388
 20
33423.798435098259
 30
0.0
 11
33691.989199236392
 21
33423.798435098259
 31
0.0
  0
LINE
  5
1338
  8
CT
 10
31991.989199236388
 20
33051.872313413471
 30
0.0
 11
31991.989199236388
 21
36547.793738270477
 31
0.0
  0
LINE
  5
1342
  8
FUTO
 10
31887.989199236388
 20
33526.298435098252
 30
0.0
 11
31887.989199236388
 21
33537.798435098252
 31
0.0
  0
LINE
  5
1343
  8
FUTO
 10
32095.989199236388
 20
33659.298435098252
 30
0.0
 11
32095.989199236388
 21
33526.298435098252
 31
0.0
  0
ARC
  5
1344
  8
FUTO
 10
32089.989199236388
 20
33526.298435098252
 30
0.0
 40
6.0
 50
270.0
 51
0.000000000000007
  0
LINE
  5
1345
  8
SL
 10
32271.989199236388
 20
33253.798435098252
 30
0.0
 11
32271.989199236388
 21
33423.798435098259
 31
0.0
  0
LINE
  5
1346
  8
FUTO
 10
32039.489199236388
 20
33423.798435098259
 30
0.0
 11
32039.489199236388
 21
33515.298435098259
 31
0.0
  0
LINE
  5
1347
  8
FUTO
 10
31944.489199236388
 20
33423.798435098259
 30
0.0
 11
31944.489199236388
 21
33515.298435098259
 31
0.0
  0
LINE
  5
1348
  8
FUTO
 10
32081.989199236388
 20
33515.298435098259
 30
0.0
 11
31901.989199236388
 21
33515.298435098259
 31
0.0
  0
LINE
  5
1349
  8
FUTO
 10
32089.989199236388
 20
33520.298435098252
 30
0.0
 11
31893.989199236388
 21
33520.298435098252
 31
0.0
  0
LINE
  5
134A
  8
FUTO
 10
31901.989199236388
 20
33515.298435098259
 30
0.0
 11
31901.989199236388
 21
33520.298435098252
 31
0.0
  0
ARC
  5
134B
  8
FUTO
 10
31893.989199236388
 20
33526.298435098252
 30
0.0
 40
6.0
 50
180.0
 51
270.0
  0
LINE
  5
134C
  8
FUTO
 10
32081.989199236388
 20
33520.298435098252
 30
0.0
 11
32081.989199236388
 21
33515.298435098259
 31
0.0
  0
LINE
  5
1353
  8
FUTO
 10
32044.489199236388
 20
33670.298435098259
 30
0.0
 11
32044.489199236388
 21
34500.298435098259
 31
0.0
  0
LINE
  5
1354
  8
FUTO
 10
31939.489199236388
 20
33670.298435098259
 30
0.0
 11
31939.489199236388
 21
34500.298435098259
 31
0.0
  0
LINE
  5
1357
  8
CT
 10
32115.7579584011
 20
33592.798435098252
 30
0.0
 11
31862.165475334259
 21
33592.798435098252
 31
0.0
  0
LINE
  5
1358
  8
FUTO
 10
32095.989199236388
 20
33537.798435098252
 30
0.0
 11
31887.989199236388
 21
33537.798435098252
 31
0.0
  0
LINE
  5
1359
  8
FUTO
 10
32095.989199236388
 20
33647.798435098252
 30
0.0
 11
31887.989199236388
 21
33647.798435098252
 31
0.0
  0
ARC
  5
135A
  8
FUTO
 10
32089.989199236388
 20
33659.298435098252
 30
0.0
 40
6.0
 50
0.000000000000007
 51
90.0
  0
LINE
  5
135B
  8
CT
 10
32173.055113656021
 20
33592.798435098252
 30
0.0
 11
31783.054945710599
 21
33592.798435098252
 31
0.0
  0
LINE
  5
135F
  8
FUTO
 10
32089.989199236388
 20
33665.298435098252
 30
0.0
 11
31893.989199236388
 21
33665.298435098252
 31
0.0
  0
LINE
  5
1360
  8
FUTO
 10
32081.989199236388
 20
33670.298435098259
 30
0.0
 11
31901.989199236388
 21
33670.298435098259
 31
0.0
  0
LINE
  5
1362
  8
FUTO
 10
31887.989199236388
 20
33659.298435098252
 30
0.0
 11
31887.989199236388
 21
33647.798435098252
 31
0.0
  0
ARC
  5
1363
  8
FUTO
 10
31893.989199236388
 20
33659.298435098252
 30
0.0
 40
6.0
 50
90.0
 51
180.0
  0
LINE
  5
1364
  8
FUTO
 10
31901.989199236388
 20
33670.298435098259
 30
0.0
 11
31901.989199236388
 21
33665.298435098252
 31
0.0
  0
LINE
  5
1365
  8
FUTO
 10
32081.989199236388
 20
33665.298435098252
 30
0.0
 11
32081.989199236388
 21
33670.298435098259
 31
0.0
  0
LINE
  5
136A
  8
FUTO
 10
32121.989199236388
 20
34515.298435098252
 30
0.0
 11
31861.989199236388
 21
34515.298435098252
 31
0.0
  0
LINE
  5
136B
  8
CT
 10
32156.1507789026
 20
34593.798435098259
 30
0.0
 11
31814.2811560585
 21
34593.798435098259
 31
0.0
  0
LINE
  5
136C
  8
FUTO
 10
32121.989199236388
 20
34527.298435098259
 30
0.0
 11
31861.989199236388
 21
34527.298435098259
 31
0.0
  0
LINE
  5
136D
  8
FUTO
 10
32075.989199236388
 20
34500.298435098259
 30
0.0
 11
32099.489199236388
 21
34515.298435098252
 31
0.0
  0
LINE
  5
136E
  8
FUTO
 10
31861.989199236388
 20
34672.298435098259
 30
0.0
 11
32121.989199236388
 21
34672.298435098259
 31
0.0
  0
LINE
  5
136F
  8
FUTO
 10
31861.989199236388
 20
34660.298435098259
 30
0.0
 11
32121.989136042012
 21
34660.298435098259
 31
0.0
  0
LINE
  5
1370
  8
FUTO
 10
32121.989199236388
 20
34660.298435098259
 30
0.0
 11
31906.989199236388
 21
34660.298435098259
 31
0.0
  0
LINE
  5
1371
  8
FUTO
 10
32099.489199236388
 20
34672.298435098259
 30
0.0
 11
32075.989199236388
 21
34687.298435098259
 31
0.0
  0
LINE
  5
1372
  8
CT
 10
32200.760027316632
 20
34593.798435098259
 30
0.0
 11
31751.087723549041
 21
34593.798435098259
 31
0.0
  0
LINE
  5
137E
  8
FUTO
 10
31884.489199236388
 20
34515.298435098252
 30
0.0
 11
31907.989199236388
 21
34500.298435098259
 31
0.0
  0
LINE
  5
1381
  8
FUTO
 10
31861.989199236388
 20
34515.298435098252
 30
0.0
 11
31861.989199236388
 21
34518.798435098252
 31
0.0
  0
LINE
  5
1382
  8
FUTO
 10
31907.989199236388
 20
34500.298435098259
 30
0.0
 11
32075.989199236388
 21
34500.298435098259
 31
0.0
  0
LINE
  5
1384
  8
FUTO
 10
31907.989199236388
 20
34687.298435098259
 30
0.0
 11
31884.489199236388
 21
34672.298435098259
 31
0.0
  0
LINE
  5
1386
  8
FUTO
 10
31861.989199236388
 20
34668.798435098259
 30
0.0
 11
31861.989199236388
 21
34672.298435098259
 31
0.0
  0
LINE
  5
1387
  8
FUTO
 10
32075.989199236388
 20
34687.298435098259
 30
0.0
 11
31907.989199236388
 21
34687.298435098259
 31
0.0
  0
LINE
  5
13A3
  8
CT
 10
31991.989199236388
 20
34705.188773334579
 30
0.0
 11
31991.989199236388
 21
34814.531395210492
 31
0.0
  0
LINE
  5
13B2
  8
FUTO
 10
31939.489199236388
 20
34687.298435098259
 30
0.0
 11
31939.489199236388
 21
34839.798435098259
 31
0.0
  0
LINE
  5
13B4
  8
FUTO
 10
32044.489199236388
 20
34687.298435098259
 30
0.0
 11
32044.489199236388
 21
34839.798435098259
 31
0.0
  0
LINE
  5
13BE
  8
FUTO
 10
32139.989199236388
 20
34655.298435098259
 30
0.0
 11
32139.989199236388
 21
34532.298435098252
 31
0.0
  0
LINE
  5
13BF
  8
FUTO
 10
32121.989199236388
 20
34532.298435098252
 30
0.0
 11
32121.989199236388
 21
34515.298435098252
 31
0.0
  0
LINE
  5
13C0
  8
FUTO
 10
32139.989199236388
 20
34532.298435098252
 30
0.0
 11
32121.989199236388
 21
34532.298435098252
 31
0.0
  0
LINE
  5
13C1
  8
FUTO
 10
32121.989199236388
 20
34655.298435098259
 30
0.0
 11
32139.989199236388
 21
34655.298435098259
 31
0.0
  0
LINE
  5
13C2
  8
FUTO
 10
32121.989199236388
 20
34672.298435098259
 30
0.0
 11
32121.989199236388
 21
34655.298435098259
 31
0.0
  0
LINE
  5
13E1
  8
FUTO
 10
31611.989199236388
 20
33103.798435098259
 30
0.0
 11
31611.989199236388
 21
33453.798435098252
 31
0.0
  0
LINE
  5
13E2
  8
SL
 10
31711.989199236388
 20
33253.798435098252
 30
0.0
 11
31711.989199236388
 21
33423.798435098259
 31
0.0
  0
DIMENSION
  5
1417
  8
SP
  2
*D5
 10
37176.952116172179
 20
32472.112773783989
 30
0.0
 11
35951.952116172179
 21
32583.541345212561
 31
0.0
 70
     0
  1
(<>)
 13
34726.952116172179
 23
31338.93472047539
 33
0.0
 14
37176.952116172179
 24
32192.15659496138
 34
0.0
1001
ACAD
1000
DSTYLE
1002
{
1070
    40
1040
40.0
1002
}
  0
LINE
  5
1453
  8
FUTO
 10
31887.989199236388
 20
33659.298435098252
 30
0.0
 11
31887.989199236388
 21
33526.298435098252
 31
0.0
  0
LINE
  5
1454
  8
FUTO
 10
31843.989199236388
 20
34655.298435098259
 30
0.0
 11
31843.989199236388
 21
34532.298435098252
 31
0.0
  0
LINE
  5
1455
  8
FUTO
 10
31843.989199236388
 20
34532.298435098252
 30
0.0
 11
31861.989199236388
 21
34532.298435098252
 31
0.0
  0
LINE
  5
1456
  8
FUTO
 10
31861.989199236388
 20
34532.298435098252
 30
0.0
 11
31861.989199236388
 21
34515.298435098252
 31
0.0
  0
LINE
  5
1457
  8
FUTO
 10
31861.989199236388
 20
34672.298435098259
 30
0.0
 11
31861.989199236388
 21
34655.298435098259
 31
0.0
  0
LINE
  5
1458
  8
FUTO
 10
31861.989199236388
 20
34655.298435098259
 30
0.0
 11
31843.989199236388
 21
34655.298435098259
 31
0.0
  0
LINE
  5
1698
  8
FUTO
 10
35115.452116172193
 20
29588.93472047539
 30
0.0
 11
35115.452116172179
 21
29518.934720477249
 31
0.0
  0
LINE
  5
1699
  8
FUTO
 10
35815.452116172193
 20
29588.93472047539
 30
0.0
 11
35815.452116172179
 21
29518.934720477278
 31
0.0
  0
LINE
  5
169A
  8
FUTO
 10
35610.452116172179
 20
29588.93472047539
 30
0.0
 11
35115.452116172193
 21
29588.93472047539
 31
0.0
  0
LINE
  5
169B
  8
FUTO
 10
35115.452116172179
 20
29588.93472047539
 30
0.0
 11
35815.452116172193
 21
29588.93472047539
 31
0.0
  0
LINE
  5
16AB
  8
FUTO
 10
35051.952116172179
 20
29968.93472047539
 30
0.0
 11
35051.952116172179
 21
29768.93472047539
 31
0.0
  0
LINE
  5
16AC
  8
FUTO
 10
36285.952116172179
 20
30128.93472047539
 30
0.0
 11
36285.952116172179
 21
29650.785782393301
 31
0.0
  0
LINE
  5
16AD
  8
FUTO
 10
35071.952116172179
 20
30178.93472047539
 30
0.0
 11
35071.952116172179
 21
29602.70799700321
 31
0.0
  0
LINE
  5
16AE
  8
FUTO
 10
35150.952116172179
 20
30178.93472047539
 30
0.0
 11
35150.952116172179
 21
29602.70799700321
 31
0.0
  0
LINE
  5
16AF
  8
FUTO
 10
36035.952116172179
 20
30178.93472047539
 30
0.0
 11
36035.952116172179
 21
29600.785782393301
 31
0.0
  0
LINE
  5
16B0
  8
CT
 10
35465.452116172179
 20
30215.574088462032
 30
0.0
 11
35465.452116172179
 21
29496.986193458299
 31
0.0
  0
LINE
  5
16B1
  8
FUTO
 10
35610.452116172179
 20
29588.93472047539
 30
0.0
 11
35730.452116172179
 21
29588.934720475379
 31
0.0
  0
LINE
  5
16B2
  8
FUTO
 10
35200.452116172179
 20
29618.93472047539
 30
0.0
 11
35730.452116172179
 21
29618.93472047539
 31
0.0
  0
LINE
  5
16B3
  8
FUTO
 10
36035.952116172179
 20
29600.785782393301
 30
0.0
 11
36235.952116172179
 21
29600.785782393301
 31
0.0
  0
ARC
  5
16B4
  8
FUTO
 10
36235.952116172179
 20
29650.785782393301
 30
0.0
 40
50.0
 50
270.0
 51
0.0
  0
LINE
  5
16B5
  8
FUTO
 10
35730.452116172179
 20
29600.785782393301
 30
0.0
 11
36015.626898174021
 21
29600.785782393301
 31
0.0
  0
LINE
  5
16B6
  8
FUTO
 10
36035.952116172179
 20
29612.319070052748
 30
0.0
 11
36015.626898174029
 21
29600.785782393301
 31
0.0
  0
LINE
  5
16B7
  8
CT
 10
35693.952116172179
 20
29642.925472234328
 30
0.0
 11
35693.952116172179
 21
29572.452430151861
 31
0.0
  0
LINE
  5
16B8
  8
FUTO
 10
35730.452116172179
 20
29618.93472047539
 30
0.0
 11
35730.452116172179
 21
29588.934720475379
 31
0.0
  0
LINE
  5
16B9
  8
FUTO
 10
35610.452116172179
 20
29600.785782393301
 30
0.0
 11
35320.452116172179
 21
29600.785782393301
 31
0.0
  0
LINE
  5
16BA
  8
FUTO
 10
35610.452116172179
 20
29600.785782393301
 30
0.0
 11
35610.452116172179
 21
29588.934720475379
 31
0.0
  0
LINE
  5
16BB
  8
FUTO
 10
35200.452116172179
 20
29618.93472047539
 30
0.0
 11
35200.452116172179
 21
29588.934720475379
 31
0.0
  0
LINE
  5
16BC
  8
CT
 10
35236.952116172179
 20
29642.925472234328
 30
0.0
 11
35236.952116172179
 21
29572.452430151861
 31
0.0
  0
LINE
  5
16BD
  8
FUTO
 10
35200.452116172179
 20
29602.70799700321
 30
0.0
 11
35071.952116172179
 21
29602.70799700321
 31
0.0
  0
LINE
  5
16BE
  8
FUTO
 10
35320.452116172179
 20
29600.785782393301
 30
0.0
 11
35320.452116172179
 21
29588.934720475379
 31
0.0
  0
LINE
  5
16BF
  8
FUTO
 10
35200.452116172179
 20
29588.93472047539
 30
0.0
 11
35320.452116172179
 21
29588.93472047539
 31
0.0
  0
LINE
  5
16C0
  8
FUTO
 10
35071.952116172179
 20
29768.93472047539
 30
0.0
 11
35051.952116172179
 21
29768.93472047539
 31
0.0
  0
LINE
  5
16C1
  8
FUTO
 10
36014.557290006618
 20
30178.93472047539
 30
0.0
 11
35071.952116172179
 21
30178.93472047539
 31
0.0
  0
LINE
  5
16C2
  8
CT
 10
36322.594881636622
 20
29868.93472047539
 30
0.0
 11
34850.80328533279
 21
29868.93472047539
 31
0.0
  0
LINE
  5
16C3
  8
FUTO
 10
36235.952116172179
 20
30178.93472047539
 30
0.0
 11
36035.952116172179
 21
30178.93472047539
 31
0.0
  0
ARC
  5
16C4
  8
FUTO
 10
36235.952116172179
 20
30128.93472047539
 30
0.0
 40
50.0
 50
0.0
 51
90.0
  0
LINE
  5
16C5
  8
FUTO
 10
36035.952116172179
 20
30154.38359004664
 30
0.0
 11
36014.557290006618
 21
30178.93472047539
 31
0.0
  0
LINE
  5
16C6
  8
FUTO
 10
35051.952116172179
 20
29911.43472047539
 30
0.0
 11
34876.952116172179
 21
29911.43472047539
 31
0.0
  0
LINE
  5
16C7
  8
FUTO
 10
35051.952116172179
 20
29826.43472047539
 30
0.0
 11
34876.952116172179
 21
29826.43472047539
 31
0.0
  0
LINE
  5
16C8
  8
CT
 10
35260.952116172179
 20
30502.304434439891
 30
0.0
 11
35260.952116172179
 21
30103.44490288409
 31
0.0
  0
LINE
  5
16C9
  8
FUTO
 10
35071.952116172179
 20
29968.93472047539
 30
0.0
 11
35051.952116172179
 21
29968.93472047539
 31
0.0
  0
LINE
  5
16CA
  8
FUTO
 10
35360.952116172179
 20
30458.93472047539
 30
0.0
 11
35160.952116172179
 21
30458.93472047539
 31
0.0
  0
LINE
  5
16CB
  8
FUTO
 10
35360.952116172179
 20
30193.93472047539
 30
0.0
 11
35160.952116172179
 21
30193.93472047539
 31
0.0
  0
LINE
  5
16CC
  8
CT
 10
35424.818043358558
 20
30318.93472047539
 30
0.0
 11
35122.681853974049
 21
30318.93472047539
 31
0.0
  0
LINE
  5
16CD
  8
FUTO
 10
35380.952116172179
 20
30438.93472047539
 30
0.0
 11
35380.952116172179
 21
30213.93472047539
 31
0.0
  0
ARC
  5
16CE
  8
FUTO
 10
35360.952116172179
 20
30213.93472047539
 30
0.0
 40
20.0
 50
270.0
 51
0.0
  0
ARC
  5
16CF
  8
FUTO
 10
35360.952116172179
 20
30438.93472047539
 30
0.0
 40
20.0
 50
0.0
 51
90.0
  0
LINE
  5
16D0
  8
FUTO
 10
35140.952116172179
 20
30438.93472047539
 30
0.0
 11
35140.952116172179
 21
30213.93472047539
 31
0.0
  0
ARC
  5
16D1
  8
FUTO
 10
35160.952116172179
 20
30213.93472047539
 30
0.0
 40
20.0
 50
180.0
 51
270.0
  0
ARC
  5
16D2
  8
FUTO
 10
35160.952116172179
 20
30438.93472047539
 30
0.0
 40
20.0
 50
90.0
 51
180.0
  0
LINE
  5
16D3
  8
FUTO
 10
35046.952116172179
 20
29911.43472047539
 30
0.0
 11
35046.952116172179
 21
29826.43472047539
 31
0.0
  0
LINE
  5
16D4
  8
FUTO
 10
34876.952116172179
 20
29911.43472047539
 30
0.0
 11
34876.952116172179
 21
29826.43472047539
 31
0.0
  0
LINE
  5
17EE
  8
FUTO
 10
33181.989199236428
 20
34391.403608932698
 30
0.0
 11
33181.989199236399
 21
33448.798435098273
 31
0.0
  0
LINE
  5
17EF
  8
CT
 10
33491.98919923645
 20
34699.441200562687
 30
0.0
 11
33491.989199236392
 21
33227.64960425887
 31
0.0
  0
LINE
  5
17F0
  8
FUTO
 10
33801.989199236428
 20
34391.403608932669
 30
0.0
 11
33801.989199236392
 21
33448.798435098252
 31
0.0
  0
LINE
  5
17F1
  8
FUTO
 10
33281.989199236399
 20
33517.798435098273
 30
0.0
 11
33671.989199236399
 21
33517.798435098259
 31
0.0
  0
LINE
  5
17F2
  8
CT
 10
33700.302058613721
 20
33637.798435098259
 30
0.0
 11
33237.319419599196
 21
33637.798435098273
 31
0.0
  0
LINE
  5
17F3
  8
CT
 10
33838.628567223052
 20
33842.298435098252
 30
0.0
 11
33120.040672219329
 21
33842.298435098273
 31
0.0
  0
LINE
  5
17F4
  8
FUTO
 10
33801.989199236392
 20
33448.798435098252
 30
0.0
 11
33181.989199236399
 21
33448.798435098273
 31
0.0
  0
LINE
  5
17F5
  8
FUTO
 10
33591.989199236399
 20
33428.798435098252
 30
0.0
 11
33391.989199236399
 21
33428.798435098259
 31
0.0
  0
LINE
  5
17F6
  8
FUTO
 10
33281.989199236406
 20
33757.798435098273
 30
0.0
 11
33671.989199236406
 21
33757.798435098259
 31
0.0
  0
LINE
  5
17F7
  8
FUTO
 10
33861.333588079309
 20
33492.298435098252
 30
0.0
 11
33861.333588079338
 21
34192.298435098252
 31
0.0
  0
LINE
  5
17F8
  8
FUTO
 10
33691.989199236406
 20
33737.798435098252
 30
0.0
 11
33691.989199236399
 21
33637.798435098259
 31
0.0
  0
LINE
  5
17F9
  8
CT
 10
33491.989199236312
 20
33082.347478928168
 30
0.0
 11
33491.989199236901
 21
34340.753875044349
 31
0.0
  0
LINE
  5
17FA
  8
FUTO
 10
33801.989199236399
 20
33492.298435098252
 30
0.0
 11
33861.333588079309
 21
33492.298435098252
 31
0.0
  0
LINE
  5
17FE
  8
FUTO
 10
33449.489199236392
 20
33428.798435098259
 30
0.0
 11
33449.489199236392
 21
33253.798435098259
 31
0.0
  0
LINE
  5
17FF
  8
FUTO
 10
33534.489199236399
 20
33428.798435098252
 30
0.0
 11
33534.489199236392
 21
33253.798435098252
 31
0.0
  0
LINE
  5
1802
  8
FUTO
 10
33534.489199236392
 20
33253.798435098252
 30
0.0
 11
33449.489199236392
 21
33253.798435098259
 31
0.0
  0
ARC
  5
1804
  8
FUTO
 10
33671.989199236399
 20
33537.798435098252
 30
0.0
 40
20.0
 50
270.0
 51
0.000000000000007
  0
LINE
  5
1805
  8
FUTO
 10
33691.989199236399
 20
33537.798435098252
 30
0.0
 11
33691.989199236399
 21
33637.798435098259
 31
0.0
  0
LINE
  5
1806
  8
FUTO
 10
33801.989199236399
 20
33527.798435098252
 30
0.0
 11
33689.309707312088
 21
33527.798435098252
 31
0.0
  0
LINE
  5
1807
  8
FUTO
 10
33534.489199236399
 20
33423.798435098259
 30
0.0
 11
33449.489199236392
 21
33423.798435098259
 31
0.0
  0
LINE
  5
1808
  8
FUTO
 10
33591.989199236399
 20
33448.798435098259
 30
0.0
 11
33591.989199236399
 21
33428.798435098252
 31
0.0
  0
LINE
  5
1809
  8
FUTO
 10
33801.989199236428
 20
34192.298435098252
 30
0.0
 11
33861.333588079338
 21
34192.298435098252
 31
0.0
  0
ARC
  5
180A
  8
FUTO
 10
33671.989199236406
 20
33737.798435098252
 30
0.0
 40
20.0
 50
0.000000000000007
 51
90.0
  0
LINE
  5
180B
  8
FUTO
 10
33122.644810393504
 20
33492.298435098273
 30
0.0
 11
33122.644810393511
 21
34192.298435098273
 31
0.0
  0
LINE
  5
180C
  8
FUTO
 10
33261.989199236406
 20
33737.798435098273
 30
0.0
 11
33261.989199236399
 21
33637.798435098273
 31
0.0
  0
LINE
  5
180F
  8
FUTO
 10
33264.66869116071
 20
33527.798435098259
 30
0.0
 11
33181.989199236406
 21
33527.798435098273
 31
0.0
  0
LINE
  5
1810
  8
CT
 10
33217.417644282199
 20
33613.798435098273
 30
0.0
 11
33146.944602199728
 21
33613.798435098273
 31
0.0
  0
ARC
  5
1811
  8
FUTO
 10
33281.989199236399
 20
33537.798435098273
 30
0.0
 40
20.0
 50
180.0
 51
270.0
  0
LINE
  5
1812
  8
FUTO
 10
33261.989199236399
 20
33537.798435098273
 30
0.0
 11
33261.989199236399
 21
33637.798435098273
 31
0.0
  0
LINE
  5
1813
  8
FUTO
 10
33391.989199236399
 20
33448.798435098259
 30
0.0
 11
33391.989199236399
 21
33428.798435098259
 31
0.0
  0
LINE
  5
1814
  8
FUTO
 10
33181.989199236406
 20
33492.298435098273
 30
0.0
 11
33122.644810393504
 21
33492.298435098273
 31
0.0
  0
ARC
  5
1815
  8
FUTO
 10
33281.989199236406
 20
33737.798435098273
 30
0.0
 40
20.0
 50
90.0
 51
180.0
  0
LINE
  5
1816
  8
CT
 10
33217.417644282221
 20
34070.798435098273
 30
0.0
 11
33146.94460219975
 21
34070.798435098273
 31
0.0
  0
LINE
  5
1817
  8
FUTO
 10
33181.989199236421
 20
34192.298435098273
 30
0.0
 11
33122.644810393511
 21
34192.298435098273
 31
0.0
  0
LINE
  5
181A
  8
FUTO
 10
33801.989199236428
 20
34412.798435098252
 30
0.0
 11
33181.989199236428
 21
34412.798435098273
 31
0.0
  0
LINE
  5
181B
  8
FUTO
 10
33751.989199236443
 20
34662.798435098252
 30
0.0
 11
33231.98919923645
 21
34662.798435098273
 31
0.0
  0
LINE
  5
181F
  8
FUTO
 10
33777.438068807678
 20
34412.798435098252
 30
0.0
 11
33801.989199236428
 21
34391.403608932669
 31
0.0
  0
ARC
  5
1820
  8
FUTO
 10
33751.989199236443
 20
34612.798435098252
 30
0.0
 40
50.0
 50
0.000000000000007
 51
90.0
  0
LINE
  5
1821
  8
FUTO
 10
33801.989199236443
 20
34612.798435098252
 30
0.0
 11
33801.989199236428
 21
34412.798435098252
 31
0.0
  0
ARC
  5
1824
  8
FUTO
 10
33231.989199236443
 20
34612.798435098273
 30
0.0
 40
50.0
 50
90.0
 51
180.0
  0
LINE
  5
1825
  8
FUTO
 10
33206.540329665178
 20
34412.798435098273
 30
0.0
 11
33181.989199236428
 21
34391.403608932698
 31
0.0
  0
LINE
  5
1826
  8
FUTO
 10
33181.989199236443
 20
34612.798435098273
 30
0.0
 11
33181.989199236428
 21
34412.798435098273
 31
0.0
  0
LINE
  5
1827
  8
FUTO
 10
33931.989199236392
 20
33517.798435098259
 30
0.0
 11
33931.989199236392
 21
33442.798435098259
 31
0.0
  0
LINE
  5
1828
  8
FUTO
 10
33755.869113681227
 20
34814.798435098259
 30
0.0
 11
33755.869113681227
 21
34662.647670437429
 31
0.0
  0
LINE
  5
1829
  8
FUTO
 10
33228.109284791732
 20
34814.798435098382
 30
0.0
 11
33228.109284791659
 21
34662.647670437553
 31
0.0
  0
LINE
  5
182A
  8
FUTO
 10
33303.109284791732
 20
34814.798435098339
 30
0.0
 11
33303.109284791652
 21
34662.798435098339
 31
0.0
  0
LINE
  5
182B
  8
SL
 10
33691.989199236392
 20
33253.798435098252
 30
0.0
 11
33691.989199236392
 21
33423.798435098259
 31
0.0
  0
LINE
  5
182D
  8
FUTO
 10
33771.989199236392
 20
33103.798435098259
 30
0.0
 11
33771.989199236392
 21
33453.798435098252
 31
0.0
  0
LINE
  5
182F
  8
FUTO
 10
31649.940773412342
 20
33517.798435098252
 30
0.0
 11
31649.940773412342
 21
34839.798435098259
 31
0.0
  0
LINE
  5
1830
  8
FUTO
 10
32334.037625060431
 20
33517.798435098252
 30
0.0
 11
32334.037625060431
 21
34839.798435098259
 31
0.0
  0
LINE
  5
1832
  8
FUTO
 10
32956.989199236392
 20
36348.798435098259
 30
0.0
 11
31026.989199236388
 21
36348.798435098259
 31
0.0
  0
LINE
  5
1833
  8
FUTO
 10
32956.989199236392
 20
36342.798435098259
 30
0.0
 11
31026.989199236388
 21
36342.798435098259
 31
0.0
  0
LINE
  5
1834
  8
KL
 10
32956.989199236392
 20
36222.998435098249
 30
0.0
 11
31026.989199236388
 21
36222.998435098249
 31
0.0
  0
LINE
  5
1839
  8
KL
 10
31091.989199236388
 20
36216.998435098249
 30
0.0
 11
31091.989199236388
 21
36348.798435098259
 31
0.0
  0
LINE
  5
183A
  8
KL
 10
31085.989199236388
 20
36216.998435098249
 30
0.0
 11
31085.989199236388
 21
36306.998435098249
 31
0.0
  0
LINE
  5
183B
  8
KL
 10
31026.989199236388
 20
36216.998435098249
 30
0.0
 11
31026.989199236388
 21
36222.998435098249
 31
0.0
  0
LINE
  5
183C
  8
HOSO
 10
31051.989199236388
 20
36174.464425487342
 30
0.0
 11
31051.989199236388
 21
36248.572040635598
 31
0.0
  0
LINE
  5
183D
  8
HOSO
 10
31051.989199236388
 20
36315.315888912228
 30
0.0
 11
31051.989199236388
 21
36389.423504060498
 31
0.0
  0
LINE
  5
183E
  8
FUTO
 10
31026.989199236388
 20
36342.798435098259
 30
0.0
 11
31026.989199236388
 21
36348.798435098259
 31
0.0
  0
LINE
  5
183F
  8
FUTO
 10
31085.989199236388
 20
36306.998435098249
 30
0.0
 11
31085.989199236388
 21
36348.798435098259
 31
0.0
  0
INSERT
  5
185B
  8
FUTO
  2
まっすぐの矢印
 10
32477.535502085499
 20
36544.271587668758
 30
0.0
 41
-2.0
 42
2.0
 43
2.0
 50
180.0
  0
LINE
  5
185D
  8
KL
 10
32891.989199236392
 20
36216.998435098249
 30
0.0
 11
32891.989199236392
 21
36348.798435098259
 31
0.0
  0
LINE
  5
185E
  8
FUTO
 10
32897.989199236392
 20
36281.998435098249
 30
0.0
 11
32897.989199236392
 21
36348.798435098259
 31
0.0
  0
LINE
  5
185F
  8
KL
 10
32897.989199236392
 20
36216.998435098249
 30
0.0
 11
32897.989199236392
 21
36281.998435098249
 31
0.0
  0
LINE
  5
1860
  8
KL
 10
32956.989199236392
 20
36222.998435098249
 30
0.0
 11
32956.989199236392
 21
36216.998435098249
 31
0.0
  0
LINE
  5
1861
  8
HOSO
 10
32931.989199236392
 20
36188.060465290262
 30
0.0
 11
32931.989199236392
 21
36247.890814120328
 31
0.0
  0
LINE
  5
1862
  8
HOSO
 10
32931.989199236392
 20
36316.130658538568
 30
0.0
 11
32931.989199236392
 21
36375.961007368642
 31
0.0
  0
LINE
  5
1863
  8
FUTO
 10
32956.989199236392
 20
36342.798435098259
 30
0.0
 11
32956.989199236392
 21
36348.798435098259
 31
0.0
  0
LINE
  5
1891
  8
KL
 10
32802.871888499409
 20
30969.560920475378
 30
0.0
 11
32191.989199236388
 21
30969.560920475378
 31
0.0
  0
LINE
  5
1892
  8
KL
 10
32827.961399540531
 20
30951.560920475389
 30
0.0
 11
32191.989199236388
 21
30951.560920475389
 31
0.0
  0
LINE
  5
1893
  8
FUTO
 10
33041.989199236392
 20
30012.188081666271
 30
0.0
 11
33041.989199236392
 21
29520.560920475389
 31
0.0
  0
LINE
  5
1894
  8
FUTO
 10
33032.989199236392
 20
30015.87147164694
 30
0.0
 11
33032.989199236392
 21
29520.560920475389
 31
0.0
  0
LINE
  5
1895
  8
KL
 10
33050.989199236392
 20
30648.33812971093
 30
0.0
 11
33050.989199236392
 21
29800.543892235321
 31
0.0
  0
LINE
  5
1896
  8
KL
 10
33041.989199236392
 20
30656.497907311528
 30
0.0
 11
33041.989199236392
 21
30012.188081666271
 31
0.0
  0
LINE
  5
1897
  8
KL
 10
33032.989199236392
 20
30664.65768491213
 30
0.0
 11
33032.989199236392
 21
30015.87147164694
 31
0.0
  0
DIMENSION
  5
18AD
  8
SP
  2
*D6
 10
33981.989199236392
 20
32470.999262626559
 30
0.0
 11
32986.989199236392
 21
32550.999262626559
 31
0.0
 70
     0
 13
31991.989199236388
 23
32306.944172465071
 33
0.0
 14
33981.989199236392
 24
32125.560920475389
 34
0.0
1001
ACAD
1000
DSTYLE
1002
{
1070
    40
1040
40.0
1002
}
  0
DIMENSION
  5
1923
  8
SP
  2
*D8
 10
30284.67644228059
 20
35553.798435098252
 30
0.0
 11
30284.67644228059
 21
35941.24832385208
 31
0.0
 70
   128
 13
31026.989199236388
 23
36348.798435098259
 33
0.0
 14
30339.754755527469
 24
35553.798435098252
 34
0.0
 50
90.0
1001
ACAD
1000
DSTYLE
1002
{
1070
    40
1040
40.0
1002
}
  0
DIMENSION
  5
1930
  8
SP
  2
*D9
 10
30284.676442280601
 20
33103.798435098259
 30
0.0
 11
30284.67644228059
 21
34251.381629070609
 31
0.0
 70
   128
 13
30407.002933746269
 23
35553.798435098252
 33
0.0
 14
31611.989199236388
 24
33103.798435098259
 34
0.0
 50
90.0
1001
ACAD
1000
DSTYLE
1002
{
1070
    40
1040
40.0
1002
}
  0
LINE
  5
19B8
  8
KL
 10
35125.952116172179
 20
30178.93472047539
 30
0.0
 11
35125.952116172179
 21
29520.560903869398
 31
0.0
  0
LINE
  5
1AEA
  8
FUTO
 10
30654.357091102382
 20
30969.560920475389
 30
0.0
 11
31512.073581653462
 21
30969.560920475378
 31
0.0
  0
LINE
  5
1AEB
  8
FUTO
 10
30654.357091102382
 20
30951.560920475389
 30
0.0
 11
31512.073581653462
 21
30951.560920475389
 31
0.0
  0
LINE
  5
1AEC
  8
KL
 10
31512.073581653462
 20
30969.560920475378
 30
0.0
 11
31791.989199236388
 21
30969.560920475378
 31
0.0
  0
LINE
  5
1AED
  8
KL
 10
31512.073581653462
 20
30951.560920475389
 30
0.0
 11
31791.989199236388
 21
30951.560920475389
 31
0.0
  0
LINE
  5
1AEE
  8
KL
 10
31791.989199236388
 20
30969.560920475378
 30
0.0
 11
31791.989199236388
 21
30951.560920475389
 31
0.0
  0
LINE
  5
1AF1
  8
FUTO
 10
30654.357091102382
 20
30951.560920475389
 30
0.0
 11
30654.357091102382
 21
30969.560920475389
 31
0.0
  0
LINE
  5
1AF2
  8
KL
 10
31649.940773412342
 20
30838.560920475378
 30
0.0
 11
31605.695056229652
 21
30675.645432867761
 31
0.0
  0
LINE
  5
1AF3
  8
KL
 10
32334.037625060431
 20
30838.560920475378
 30
0.0
 11
32535.772343468831
 21
30095.761117249589
 31
0.0
  0
LINE
  5
1AF4
  8
FUTO
 10
30950.989199236388
 20
30969.560920475378
 30
0.0
 11
30950.989199236388
 21
31610.174069947228
 31
0.0
  0
LINE
  5
1AF5
  8
FUTO
 10
30941.989199236388
 20
30969.560920475389
 30
0.0
 11
30941.989199236388
 21
31599.021533591989
 31
0.0
  0
LINE
  5
1AF6
  8
FUTO
 10
32314.39504448665
 20
31316.165294672988
 30
0.0
 11
33680.059275632368
 21
30077.996805423991
 31
0.0
  0
LINE
  5
1AF7
  8
SL
 10
33622.672804205889
 20
30021.960376855441
 30
0.0
 11
32223.952598057251
 21
31229.294955549969
 31
0.0
  0
LINE
  5
1AF8
  8
SL
 10
33388.3554182976
 20
29699.50525863302
 30
0.0
 11
31808.03923807004
 21
30656.937120705181
 31
0.0
  0
LINE
  5
1AF9
  8
FUTO
 10
31753.350550984469
 20
30544.085716458991
 30
0.0
 11
33352.783321089439
 21
29627.617051465819
 31
0.0
  0
LINE
  5
1AFA
  8
FUTO
 10
33050.989199236392
 20
29800.543892235321
 30
0.0
 11
33050.989199236392
 21
29682.531123740209
 31
0.0
  0
LINE
  5
1AFC
  8
FUTO
 10
36448.752116172182
 20
32123.93472047539
 30
0.0
 11
37905.152116172583
 21
32123.93472047539
 31
0.0
  0
LINE
  5
1AFD
  8
FUTO
 10
36448.752116172182
 20
32058.93472047539
 30
0.0
 11
37905.152116172561
 21
32058.93472047539
 31
0.0
  0
LINE
  5
1AFE
  8
FUTO
 10
36448.752116172182
 20
32117.93472047539
 30
0.0
 11
37905.152116172583
 21
32117.93472047539
 31
0.0
  0
LINE
  5
1B50
  8
FUTO
 10
32062.989199236388
 20
34889.798435098259
 30
0.0
 11
32062.989199236388
 21
36222.998435098249
 31
0.0
  0
LINE
  5
1B51
  8
FUTO
 10
31993.989199236388
 20
34824.798435098259
 30
0.0
 11
31993.989199236388
 21
36282.798435098252
 31
0.0
  0
LINE
  5
1B53
  8
FUTO
 10
33916.989199236392
 20
34889.798435098259
 30
0.0
 11
33916.989199236392
 21
36217.798435098259
 31
0.0
  0
LINE
  5
1B5E
  8
FUTO
 10
31605.695056229652
 20
30675.645432867761
 30
0.0
 11
31291.989199236388
 21
29520.560920475389
 31
0.0
  0
LINE
  5
1B5F
  8
FUTO
 10
32535.772343468831
 20
30095.761117249589
 30
0.0
 11
32691.989199236388
 21
29520.560920475389
 31
0.0
  0
ARC
  5
1B60
  8
FUTO
 10
32122.989199236388
 20
31091.560920475389
 30
0.0
 40
1705.0
 50
327.76533956188922
 51
355.59345949274302
  0
DIMENSION
  5
1B6B
  8
SP
  2
*D17
 10
30282.580110030802
 20
30960.560920475378
 30
0.0
 11
30202.580110030791
 21
30165.560920475389
 31
0.0
 70
     0
 13
30931.989199236388
 23
29370.560920475389
 33
0.0
 14
30446.63520019229
 24
30960.560920475378
 34
0.0
 50
90.0
1001
ACAD
1000
DSTYLE
1002
{
1070
    40
1040
40.0
1002
}
  0
DIMENSION
  5
1B78
  8
SP
  2
*D18
 10
30282.580110030802
 20
32125.560920475389
 30
0.0
 11
30202.580110030791
 21
31543.060920475389
 31
0.0
 70
     0
 13
30446.63520019229
 23
30960.560920475378
 33
0.0
 14
31993.989199236388
 24
32125.560920475389
 34
0.0
 50
90.0
1001
ACAD
1000
DSTYLE
1002
{
1070
    40
1040
40.0
1002
}
  0
DIMENSION
  5
1BA9
  8
SP
  2
*D19
 10
30649.989199236388
 20
36820.786073027382
 30
0.0
 11
31320.989199236388
 21
36900.786073027382
 31
0.0
 70
     0
 13
31991.989199236388
 23
36547.793738270477
 33
0.0
 14
30649.989199236388
 24
36267.798435098252
 34
0.0
1001
ACAD
1000
DSTYLE
1002
{
1070
    40
1040
40.0
1002
}
  0
DIMENSION
  5
1BB6
  8
SP
  2
*D20
 10
33981.989199236392
 20
36820.786073027382
 30
0.0
 11
32986.989199236392
 21
36900.786073027382
 31
0.0
 70
     0
 13
31991.989199236388
 23
36547.793738270477
 33
0.0
 14
33981.989199236392
 24
36282.798435098252
 34
0.0
1001
ACAD
1000
DSTYLE
1002
{
1070
    40
1040
40.0
1002
}
  0
LINE
  5
1BD5
  8
SL
 10
32062.989199236388
 20
36217.798435098259
 30
0.0
 11
33916.989199236392
 21
34889.798435098259
 31
0.0
  0
LINE
  5
1BD6
  8
SL
 10
33916.989199236392
 20
36217.798435098259
 30
0.0
 11
32062.989199236388
 21
34889.798435098259
 31
0.0
  0
TEXT
  5
2406
  8
SP
 10
54636.354183345589
 20
36254.084739580547
 30
0.0
 40
100.0
  1
 
  0
LINE
  5
2407
  8
4
 10
39017.661033865719
 20
26680.06452524192
 30
0.0
 11
39017.661033865712
 21
25480.06452524192
 31
0.0
  0
LINE
  5
2408
  8
4
 10
34817.661033865719
 20
26680.06452524192
 30
0.0
 11
34817.661033865719
 21
25480.06452524192
 31
0.0
  0
LINE
  5
2409
  8
4
 10
31817.661033865708
 20
26680.06452524192
 30
0.0
 11
31817.661033865708
 21
25480.06452524192
 31
0.0
  0
LINE
  5
240C
  8
4
 10
31817.661033865708
 20
25480.06452524192
 30
0.0
 11
39017.661033865719
 21
25480.06452524192
 31
0.0
  0
LINE
  5
240D
  8
4
 10
31817.661033865708
 20
26080.06452524192
 30
0.0
 11
39017.661033865719
 21
26080.06452524192
 31
0.0
  0
TEXT
  5
240E
  8
4
 10
32048.673518947129
 20
26269.322680441601
 30
0.0
 40
300.0
  1
機器名称
  0
TEXT
  5
240F
  8
4
 10
32035.209670014501
 20
25609.935465633989
 30
0.0
 40
300.0
  1
機器型番
  0
TEXT
  5
2410
  8
4
 10
34846.419404071967
 20
26213.188339383611
 30
0.0
 40
270.0
  1
ミツヤリミットロードファン
  0
TEXT
  5
2411
  8
4
 10
35037.58800737861
 20
25583.02203092158
 30
0.0
 40
300.0
  1
LL#11-1
  0
TEXT
  5
2413
  8
4
 10
29814.66659384239
 20
38883.350382437719
 30
0.0
 40
432.0
  1
遠心式片吸込片持リミットロードファン
  0
LINE
  5
2414
  8
4
 10
29417.661033865708
 20
38496.517050830749
 30
0.0
 11
39017.661033865719
 21
38496.517050830749
 31
0.0
  0
LINE
  5
2415
  8
4
 10
29417.661033865708
 20
39696.517050830749
 30
0.0
 11
39017.661033865719
 21
39696.517050830749
 31
0.0
  0
LINE
  5
2416
  8
4
 10
31817.661033865708
 20
26680.06452524192
 30
0.0
 11
39017.661033865719
 21
26680.06452524192
 31
0.0
  0
LINE
  5
2417
  8
4
 10
29417.661033865708
 20
39696.517050830749
 30
0.0
 11
29417.661033865708
 21
38496.517050830749
 31
0.0
  0
TEXT
  5
2418
  8
4
 10
29952.702130772152
 20
37973.981390519992
 30
0.0
 40
323.99999999999989
  1
左回転上向
  0
TEXT
  5
2419
  8
4
 10
36731.478389361459
 20
39916.431014213777
 30
0.0
 40
336.00000000000011
  1
No.
  0
TEXT
  5
241A
  8
4
 10
36695.807492587548
 20
37121.467403756324
 30
0.0
 40
323.99999999999989
  1
縮尺：1/60
  0
LINE
  5
241B
  8
4
 10
39017.661033865719
 20
39696.517050830749
 30
0.0
 11
39017.661033865719
 21
38496.517050830749
 31
0.0
  0
LINE
  5
241C
  8
4
 10
40517.661033865712
 20
41380.064525241927
 30
0.0
 11
40517.661033865712
 21
41380.064525241927
 31
0.0
  0
LINE
  5
241D
  8
4
 10
36561.365568024899
 20
39767.646023994334
 30
0.0
 11
36561.365568024899
 21
40399.978094540442
 31
0.0
  0
LINE
  5
241E
  8
4
 10
36561.365568024899
 20
40399.978094540442
 30
0.0
 11
39017.661033865719
 21
40399.978094540442
 31
0.0
  0
LINE
  5
241F
  8
4
 10
39017.661033865719
 20
40399.978094540442
 30
0.0
 11
39017.661033865719
 21
39767.646023994334
 31
0.0
  0
LINE
  5
2420
  8
4
 10
39017.661033865719
 20
39767.646023994334
 30
0.0
 11
36561.365568024899
 21
39767.646023994334
 31
0.0
  0
LINE
  5
2421
  8
4
 10
27917.661033865708
 20
23680.06452524192
 30
0.0
 11
27917.661033865708
 21
41380.064525241927
 31
0.0
  0
LINE
  5
2422
  8
4
 10
27917.661033865708
 20
41380.064525241927
 30
0.0
 11
40517.661033865712
 21
41380.064525241927
 31
0.0
  0
LINE
  5
2423
  8
4
 10
40517.661033865712
 20
41380.064525241927
 30
0.0
 11
40517.661033865712
 21
23680.06452524192
 31
0.0
  0
LINE
  5
2424
  8
4
 10
40517.661033865712
 20
23680.06452524192
 30
0.0
 11
27917.661033865708
 21
23680.06452524192
 31
0.0
  0
TEXT
  5
2425
  8
4
 10
33029.437917958872
 20
37974.05131516837
 30
0.0
 40
323.99999999999989
  1
床置防振ベット
  0
ENDSEC
  0
EOF
