  0
SECTION
  2
HEADER
  9
$ACADVER
  1
AC1009
  9
$INSBASE
 10
0.0
 20
0.0
 30
0.0
  9
$EXTMIN
 10
29978.106128590101
 20
30496.609482933971
 30
0.0
  9
$EXTMAX
 10
42578.106128590101
 20
48196.609482933978
 30
0.0
  9
$LIMMIN
 10
0.0
 20
0.0
  9
$LIMMAX
 10
297.0
 20
210.0
  9
$ORTHOMODE
 70
     0
  9
$REGENMODE
 70
     1
  9
$FILLMODE
 70
     1
  9
$QTEXTMODE
 70
     0
  9
$MIRRTEXT
 70
     0
  9
$DRAGMODE
 70
     2
  9
$LTSCALE
 40
200.0
  9
$OSMODE
 70
    37
  9
$ATTMODE
 70
     1
  9
$TEXTSIZE
 40
150.0
  9
$TRACEWID
 40
0.05
  9
$TEXTSTYLE
  7
STANDARD
  9
$CLAYER
  8
SP
  9
$CELTYPE
  6
BYLAYER
  9
$CECOLOR
 62
   256
  9
$DIMSCALE
 40
40.0
  9
$DIMASZ
 40
2.0
  9
$DIMEXO
 40
1.0
  9
$DIMDLI
 40
10.0
  9
$DIMRND
 40
0.0
  9
$DIMDLE
 40
0.0
  9
$DIMEXE
 40
1.0
  9
$DIMTP
 40
0.0
  9
$DIMTM
 40
0.0
  9
$DIMTXT
 40
3.0
  9
$DIMCEN
 40
0.0
  9
$DIMTSZ
 40
0.0
  9
$DIMTOL
 70
     0
  9
$DIMLIM
 70
     0
  9
$DIMTIH
 70
     0
  9
$DIMTOH
 70
     0
  9
$DIMSE1
 70
     0
  9
$DIMSE2
 70
     0
  9
$DIMTAD
 70
     1
  9
$DIMZIN
 70
     8
  9
$DIMBLK
  1

  9
$DIMASO
 70
     1
  9
$DIMSHO
 70
     1
  9
$DIMPOST
  1

  9
$DIMAPOST
  1

  9
$DIMALT
 70
     0
  9
$DIMALTD
 70
     2
  9
$DIMALTF
 40
0.03937
  9
$DIMLFAC
 40
1.0
  9
$DIMTOFL
 70
     1
  9
$DIMTVP
 40
0.0
  9
$DIMTIX
 70
     0
  9
$DIMSOXD
 70
     0
  9
$DIMSAH
 70
     1
  9
$DIMBLK1
  1
OPEN
  9
$DIMBLK2
  1
OPEN
  9
$DIMSTYLE
  2
MATSU
  9
$DIMCLRD
 70
   256
  9
$DIMCLRE
 70
   256
  9
$DIMCLRT
 70
   256
  9
$DIMTFAC
 40
1.0
  9
$DIMGAP
 40
0.5
  9
$LUNITS
 70
     2
  9
$LUPREC
 70
     3
  9
$SKETCHINC
 40
0.1
  9
$FILLETRAD
 40
7.0
  9
$AUNITS
 70
     0
  9
$AUPREC
 70
     2
  9
$MENU
  1
acad
  9
$ELEVATION
 40
0.0
  9
$PELEVATION
 40
0.0
  9
$THICKNESS
 40
0.0
  9
$LIMCHECK
 70
     0
  9
$BLIPMODE
 70
     0
  9
$CHAMFERA
 40
0.0
  9
$CHAMFERB
 40
0.0
  9
$SKPOLY
 70
     0
  9
$TDCREATE
 40
2451593.4082031241
  9
$TDUPDATE
 40
2454953.6508239228
  9
$TDINDWG
 40
0.5377129745
  9
$TDUSRTIMER
 40
0.5377129745
  9
$USRTIMER
 70
     1
  9
$ANGBASE
 50
0.0
  9
$ANGDIR
 70
     0
  9
$PDMODE
 70
     0
  9
$PDSIZE
 40
1.0
  9
$PLINEWID
 40
0.0
  9
$COORDS
 70
     1
  9
$SPLFRAME
 70
     0
  9
$SPLINETYPE
 70
     6
  9
$SPLINESEGS
 70
     8
  9
$ATTDIA
 70
     0
  9
$ATTREQ
 70
     1
  9
$HANDLING
 70
 10241
  9
$HANDSEED
  5
2446
  9
$SURFTAB1
 70
     6
  9
$SURFTAB2
 70
     6
  9
$SURFTYPE
 70
     6
  9
$SURFU
 70
     6
  9
$SURFV
 70
     6
  9
$UCSNAME
  2

  9
$UCSORG
 10
0.0
 20
0.0
 30
0.0
  9
$UCSXDIR
 10
1.0
 20
0.0
 30
0.0
  9
$UCSYDIR
 10
0.0
 20
1.0
 30
0.0
  9
$PUCSNAME
  2

  9
$PUCSORG
 10
0.0
 20
0.0
 30
0.0
  9
$PUCSXDIR
 10
1.0
 20
0.0
 30
0.0
  9
$PUCSYDIR
 10
0.0
 20
1.0
 30
0.0
  9
$USERI1
 70
     0
  9
$USERI2
 70
     0
  9
$USERI3
 70
     0
  9
$USERI4
 70
     0
  9
$USERI5
 70
     0
  9
$USERR1
 40
0.0
  9
$USERR2
 40
0.0
  9
$USERR3
 40
0.0
  9
$USERR4
 40
0.0
  9
$USERR5
 40
0.0
  9
$WORLDVIEW
 70
     1
  9
$SHADEDGE
 70
     3
  9
$SHADEDIF
 70
    70
  9
$TILEMODE
 70
     1
  9
$MAXACTVP
 70
    16
  9
$PLIMCHECK
 70
     0
  9
$PEXTMIN
 10
1.0000000000000000E+020
 20
1.0000000000000000E+020
 30
1.0000000000000000E+020
  9
$PEXTMAX
 10
-1.0000000000000000E+020
 20
-1.0000000000000000E+020
 30
-1.0000000000000000E+020
  9
$PLIMMIN
 10
0.0
 20
0.0
  9
$PLIMMAX
 10
12.0
 20
9.0
  9
$UNITMODE
 70
     0
  9
$VISRETAIN
 70
     0
  9
$PLINEGEN
 70
     0
  9
$PSLTSCALE
 70
     0
  0
ENDSEC
  0
SECTION
  2
TABLES
  0
TABLE
  2
VPORT
 70
     2
  0
VPORT
  2
*ACTIVE
 70
     0
 10
0.0
 20
0.0
 11
1.0
 21
1.0
 12
41964.128246471562
 22
32627.357650716909
 13
0.0
 23
0.0
 14
5.0
 24
5.0
 15
0.0
 25
0.0
 16
0.0
 26
0.0
 36
1.0
 17
0.0
 27
0.0
 37
0.0
 40
5398.6877505669418
 41
3.1666666666666661
 42
50.0
 43
0.0
 44
0.0
 50
0.0
 51
0.0
 71
     0
 72
   100
 73
     1
 74
     0
 75
     0
 76
     0
 77
     0
 78
     0
  0
ENDTAB
  0
TABLE
  2
LTYPE
 70
     4
  0
LTYPE
  2
CONTINUOUS
 70
     0
  3
Solid line
 72
    65
 73
     0
 40
0.0
  0
LTYPE
  2
CENTER
 70
     0
  3
____ _ ____ _ ____ _ ____ _ ____ _ ____ _ ____ 
 72
    65
 73
     4
 40
2.0
 49
1.25
 49
-0.25
 49
0.25
 49
-0.25
  0
LTYPE
  2
HIDDEN
 70
     0
  3
__ __ __ __ __ __ __ __ __ __ __ __ __ __ __ __
 72
    65
 73
     2
 40
0.375
 49
0.25
 49
-0.125
  0
LTYPE
  2
PHANTOM
 70
     0
  3
______  __  __  ______  __  __  ______  __  __ 
 72
    65
 73
     6
 40
2.5
 49
1.25
 49
-0.25
 49
0.25
 49
-0.25
 49
0.25
 49
-0.25
  0
ENDTAB
  0
TABLE
  2
LAYER
 70
    10
  0
LAYER
  2
0
 70
     0
 62
     7
  6
CONTINUOUS
  0
LAYER
  2
CT
 70
     0
 62
     3
  6
CENTER
  0
LAYER
  2
FUTO
 70
     0
 62
     4
  6
CONTINUOUS
  0
LAYER
  2
HOSO
 70
     0
 62
     7
  6
CONTINUOUS
  0
LAYER
  2
KL
 70
     0
 62
     7
  6
HIDDEN
  0
LAYER
  2
SL
 70
     0
 62
     1
  6
PHANTOM
  0
LAYER
  2
SP
 70
     0
 62
     2
  6
CONTINUOUS
  0
LAYER
  2
1
 70
     0
 62
     7
  6
CONTINUOUS
  0
LAYER
  2
DEFPOINTS
 70
     0
 62
     7
  6
CONTINUOUS
  0
LAYER
  2
4
 70
     0
 62
     7
  6
CONTINUOUS
  0
ENDTAB
  0
TABLE
  2
STYLE
 70
     1
  0
STYLE
  2
STANDARD
 70
     0
 40
0.0
 41
1.0
 50
15.0
 71
     0
 42
150.0
  3
C:\Program Files\AutoCAD LT\simplex.shx
  4
bigfont.shx
  0
ENDTAB
  0
TABLE
  2
VIEW
 70
     0
  0
ENDTAB
  0
TABLE
  2
UCS
 70
     0
  0
ENDTAB
  0
TABLE
  2
APPID
 70
     2
  0
APPID
  2
ACAD
 70
     0
  0
APPID
  2
CONTENTBLOCKICON
 70
     0
  0
ENDTAB
  0
TABLE
  2
DIMSTYLE
 70
     2
  0
DIMSTYLE
  2
MATSU
 70
     0
  3

  4

  5

  6
OPEN
  7
OPEN
 40
1.0
 41
2.0
 42
1.0
 43
10.0
 44
1.0
 45
0.0
 46
0.0
 47
0.0
 48
0.0
140
3.0
141
0.0
142
0.0
143
0.03937
144
1.0
145
0.0
146
1.0
147
0.5
 71
     0
 72
     0
 73
     0
 74
     0
 75
     0
 76
     0
 77
     1
 78
     8
170
     0
171
     2
172
     1
173
     1
174
     0
175
     0
176
   256
177
   256
178
   256
  0
DIMSTYLE
  2
STANDARD
 70
     0
  3

  4

  5

  6

  7

 40
1.0
 41
0.18
 42
0.0625
 43
0.38
 44
0.18
 45
0.0
 46
0.0
 47
0.0
 48
0.0
140
0.18
141
0.09
142
0.0
143
25.399999999999999
144
1.0
145
0.0
146
1.0
147
0.09
 71
     0
 72
     0
 73
     1
 74
     1
 75
     0
 76
     0
 77
     0
 78
     0
170
     0
171
     2
172
     0
173
     0
174
     0
175
     0
176
     0
177
     0
178
     0
  0
ENDTAB
  0
ENDSEC
  0
SECTION
  2
BLOCKS
  0
BLOCK
  8
0
  2
$MODEL_SPACE
 70
     0
 10
0.0
 20
0.0
 30
0.0
  3
$MODEL_SPACE
  1

  0
ENDBLK
  5
7
  8
0
  0
BLOCK
 67
     1
  8
0
  2
$PAPER_SPACE
 70
     0
 10
0.0
 20
0.0
 30
0.0
  3
$PAPER_SPACE
  1

  0
ENDBLK
  5
A
 67
     1
  8
0
  0
BLOCK
  8
0
  2
_OPEN
 70
     0
 10
0.0
 20
0.0
 30
0.0
  3
_OPEN
  1

  0
LINE
  5
27
  8
0
  6
BYBLOCK
 62
     0
 10
-1.0
 20
0.1666666666666666
 30
0.0
 11
0.0
 21
0.0
 31
0.0
  0
LINE
  5
28
  8
0
  6
BYBLOCK
 62
     0
 10
0.0
 20
0.0
 30
0.0
 11
-1.0
 21
-0.1666666666666666
 31
0.0
  0
LINE
  5
29
  8
0
  6
BYBLOCK
 62
     0
 10
0.0
 20
0.0
 30
0.0
 11
-1.0
 21
0.0
 31
0.0
  0
ENDBLK
  5
2B
  8
0
  0
BLOCK
  8
0
  2
_DOT
 70
     0
 10
0.0
 20
0.0
 30
0.0
  3
_DOT
  1

  0
POLYLINE
  5
DB
  8
0
  6
BYBLOCK
 62
     0
 66
     1
 10
0.0
 20
0.0
 30
0.0
 70
     1
 40
0.25
 41
0.25
  0
VERTEX
  5
2420
  8
0
  6
BYBLOCK
 62
     0
 10
-0.125
 20
0.0
 30
0.0
 42
1.0
  0
VERTEX
  5
2421
  8
0
  6
BYBLOCK
 62
     0
 10
0.125
 20
0.0
 30
0.0
 42
1.0
  0
SEQEND
  5
2422
  8
0
  6
BYBLOCK
 62
     0
  0
LINE
  5
DF
  8
0
  6
BYBLOCK
 62
     0
 10
-0.25
 20
0.0
 30
0.0
 11
-1.0
 21
0.0
 31
0.0
  0
ENDBLK
  5
E1
  8
0
  0
BLOCK
  8
0
  2
まっすぐの矢印
 70
     0
 10
0.0
 20
0.0
 30
0.0
  3
まっすぐの矢印
  1

  0
LINE
  5
8C
  8
SP
 10
13.01863531255526
 20
-41.453946163708451
 30
0.0
 11
13.01863531255526
 21
-93.495696758840026
 31
0.0
  0
LINE
  5
8D
  8
SP
 10
13.01863531255526
 20
-93.495696758840026
 30
0.0
 11
-13.01863531255526
 21
-93.495696758840026
 31
0.0
  0
LINE
  5
8E
  8
SP
 10
-13.01863531255526
 20
-93.495696758840026
 30
0.0
 11
-13.01863531255526
 21
-41.453946163708451
 31
0.0
  0
LINE
  5
8F
  8
SP
 10
-13.01863531255526
 20
-41.453946163708451
 30
0.0
 11
-32.06015471115802
 21
-41.453946163708451
 31
0.0
  0
LINE
  5
90
  8
SP
 10
-32.06015471115802
 20
-41.453946163708451
 30
0.0
 11
0.0
 21
0.0
 31
0.0
  0
LINE
  5
91
  8
SP
 10
0.0
 20
0.0
 30
0.0
 11
32.06015471115802
 21
-41.453946163708451
 31
0.0
  0
LINE
  5
92
  8
SP
 10
32.06015471115802
 20
-41.453946163708451
 30
0.0
 11
13.01863531255526
 21
-41.453946163708451
 31
0.0
  0
ENDBLK
  5
94
  8
0
  0
BLOCK
  8
0
  2
左回転矢印
 70
     0
 10
0.0
 20
0.0
 30
0.0
  3
左回転矢印
  1

  0
LINE
  5
2C7
  8
SP
 10
43.930449171819873
 20
24.859487323637271
 30
0.0
 11
38.511878498580238
 21
44.478978865188871
 31
0.0
  0
LINE
  5
2C8
  8
SP
 10
38.511878498580238
 20
44.478978865188871
 30
0.0
 11
0.0
 21
0.0
 31
0.0
  0
LINE
  5
2C9
  8
SP
 10
0.0
 20
0.0
 30
0.0
 11
52.57968174421967
 21
-6.4575435924972453
 31
0.0
  0
LINE
  5
2CA
  8
SP
 10
52.57968174421967
 20
-6.4575435924972453
 30
0.0
 11
48.189912989015284
 21
9.436875093862227
 31
0.0
  0
ARC
  5
2CB
  8
SP
 10
93.893649146691985
 20
-156.0466295121104
 30
0.0
 40
171.67883327727239
 50
67.881388989212894
 51
105.4392492786835
  0
LINE
  5
2CC
  8
SP
 10
158.53505643637521
 20
2.997736182040398
 30
0.0
 11
164.55945966006539
 21
17.820238190756751
 31
0.0
  0
ARC
  5
2CD
  8
SP
 10
93.893649146692198
 20
-156.04662951211091
 30
0.0
 40
187.67883327727299
 50
67.881388989212994
 51
105.4392492786836
  0
ENDBLK
  5
2CF
  8
0
  0
BLOCK
  8
0
  2
*D4
 70
     1
 10
0.0
 20
0.0
 30
0.0
  3
*D4
  1

  0
LINE
  5
2413
  8
SP
 10
33254.695168609171
 20
35882.13899710423
 30
0.0
 11
32605.286079403581
 21
35882.13899710423
 31
0.0
  0
LINE
  5
2414
  8
SP
 10
32645.286079403581
 20
36102.138997104223
 30
0.0
 11
32645.286079403581
 21
36182.138997104223
 31
0.0
  0
LINE
  5
2415
  8
SP
 10
32645.286079403581
 20
35802.13899710423
 30
0.0
 11
32645.286079403581
 21
35722.13899710423
 31
0.0
  0
LINE
  5
2416
  8
SP
 10
32645.286079403581
 20
35952.13899710423
 30
0.0
 11
32421.704534394099
 21
36013.215034076398
 31
0.0
  0
LINE
  5
2417
  8
SP
 10
32421.704534394099
 20
36013.215034076398
 30
0.0
 11
32421.704534394099
 21
36492.50443034507
 31
0.0
  0
TEXT
  8
0
  40
120
  5
2442
  72
0
  71
0
 10
32070.3
 20
36040.5
 30
0.000000
  1
(140)
  0
LINE
  5
2419
  8
SP
 10
32645.286079403581
 20
36022.13899710423
 30
0.0
 11
32645.286079403581
 21
35882.13899710423
 31
0.0
  0
LINE
  5
241A
  8
SP
 10
32645.286079403581
 20
36022.13899710423
 30
0.0
 11
32645.286079403581
 21
35882.13899710423
 31
0.0
  0
INSERT
  5
241B
  8
SP
  2
_OPEN
 10
32645.286079403581
 20
36022.13899710423
 30
0.0
 41
80.0
 42
80.0
 43
80.0
 50
270.0
  0
INSERT
  5
241C
  8
SP
  2
_DOT
 10
32645.286079403581
 20
35882.13899710423
 30
0.0
 41
80.0
 42
80.0
 43
80.0
 50
90.0
  0
POINT
  5
241D
  8
DEFPOINTS
 62
     0
 10
33329.581956276677
 20
36022.13899710423
 30
0.0
  0
POINT
  5
241E
  8
DEFPOINTS
 62
     0
 10
33294.695168609171
 20
35882.13899710423
 30
0.0
  0
POINT
  5
241F
  8
DEFPOINTS
 62
     0
 10
32645.286079403581
 20
35882.13899710423
 30
0.0
  0
ENDBLK
  5
88C
  8
0
  0
BLOCK
  8
0
  2
*D5
 70
     1
 10
0.0
 20
0.0
 30
0.0
  3
*D5
  1

  0
LINE
  5
23F6
  8
SP
 10
36945.270613569352
 20
37770.512797104231
 30
0.0
 11
36945.270613569352
 21
39842.88860380894
 31
0.0
  0
LINE
  5
23F7
  8
SP
 10
39395.270613569352
 20
39371.512797104231
 30
0.0
 11
39395.270613569352
 21
39842.88860380894
 31
0.0
  0
LINE
  5
23F8
  8
SP
 10
37025.270613569352
 20
39802.88860380894
 30
0.0
 11
39315.270613569359
 21
39802.88860380894
 31
0.0
  0
INSERT
  5
23F9
  8
SP
  2
_OPEN
 10
36945.270613569352
 20
39802.88860380894
 30
0.0
 41
80.0
 42
80.0
 43
80.0
 50
180.0
  0
INSERT
  5
23FA
  8
SP
  2
_OPEN
 10
39395.270613569352
 20
39802.88860380894
 30
0.0
 41
80.0
 42
80.0
 43
80.0
  0
TEXT
  5
23FB
  8
SP
 10
37873.277924664369
 20
39874.317175237513
 30
0.0
 40
120.0
  1
(2450)
 51
15.0
  0
POINT
  5
23FC
  8
DEFPOINTS
 62
     0
 10
36945.270613569352
 20
37730.512797104231
 30
0.0
  0
POINT
  5
23FD
  8
DEFPOINTS
 62
     0
 10
39395.270613569352
 20
39331.512797104231
 30
0.0
  0
POINT
  5
23FE
  8
DEFPOINTS
 62
     0
 10
39395.270613569352
 20
39802.88860380894
 30
0.0
  0
ENDBLK
  5
1423
  8
0
  0
BLOCK
  8
0
  2
*D6
 70
     1
 10
0.0
 20
0.0
 30
0.0
  3
*D6
  1

  0
LINE
  5
235E
  8
SP
 10
32769.341169565072
 20
37352.13899710423
 30
0.0
 11
32605.286079403581
 21
37352.13899710423
 31
0.0
  0
LINE
  5
235F
  8
SP
 10
33149.695168609171
 20
39342.13899710423
 30
0.0
 11
32605.286079403581
 21
39342.13899710423
 31
0.0
  0
LINE
  5
2360
  8
SP
 10
32645.286079403581
 20
37432.138997104223
 30
0.0
 11
32645.286079403581
 21
39262.13899710423
 31
0.0
  0
INSERT
  5
2361
  8
SP
  2
_OPEN
 10
32645.286079403581
 20
37352.13899710423
 30
0.0
 41
80.0
 42
80.0
 43
80.0
 50
270.0
  0
INSERT
  5
2362
  8
SP
  2
_OPEN
 10
32645.286079403581
 20
39342.13899710423
 30
0.0
 41
80.0
 42
80.0
 43
80.0
 50
90.0
  0
TEXT
  5
2363
  8
SP
 10
32625.28607940357
 20
38123.966789839491
 30
0.0
 40
120.0
  1
1990
 50
90.0
 51
15.0
  0
POINT
  5
2364
  8
DEFPOINTS
 62
     0
 10
32809.341169565072
 20
37352.13899710423
 30
0.0
  0
POINT
  5
2365
  8
DEFPOINTS
 62
     0
 10
33189.695168609171
 20
39342.13899710423
 30
0.0
  0
POINT
  5
2366
  8
DEFPOINTS
 62
     0
 10
32645.286079403581
 20
39342.13899710423
 30
0.0
  0
ENDBLK
  5
18B9
  8
0
  0
BLOCK
  8
0
  2
*D7
 70
     1
 10
0.0
 20
0.0
 30
0.0
  3
*D7
  1

  0
LINE
  5
2367
  8
SP
 10
32791.941479968533
 20
37352.13899710423
 30
0.0
 11
32605.286079403581
 21
37352.13899710423
 31
0.0
  0
LINE
  5
2368
  8
SP
 10
33289.581956276677
 20
36022.13899710423
 30
0.0
 11
32605.286079403581
 21
36022.13899710423
 31
0.0
  0
LINE
  5
2369
  8
SP
 10
32645.286079403581
 20
37272.13899710423
 30
0.0
 11
32645.286079403581
 21
36102.138997104223
 31
0.0
  0
INSERT
  5
236A
  8
SP
  2
_OPEN
 10
32645.286079403581
 20
37352.13899710423
 30
0.0
 41
80.0
 42
80.0
 43
80.0
 50
90.0
  0
INSERT
  5
236B
  8
SP
  2
_OPEN
 10
32645.286079403581
 20
36022.13899710423
 30
0.0
 41
80.0
 42
80.0
 43
80.0
 50
270.0
  0
TEXT
  5
236C
  8
SP
 10
32625.28607940357
 20
36463.966789839498
 30
0.0
 40
120.0
  1
1330
 50
90.0
 51
15.0
  0
POINT
  5
236D
  8
DEFPOINTS
 62
     0
 10
32831.941479968533
 20
37352.13899710423
 30
0.0
  0
POINT
  5
236E
  8
DEFPOINTS
 62
     0
 10
33329.581956276677
 20
36022.13899710423
 30
0.0
  0
POINT
  5
236F
  8
DEFPOINTS
 62
     0
 10
32645.286079403581
 20
36022.13899710423
 30
0.0
  0
ENDBLK
  5
18ED
  8
0
  0
BLOCK
  8
0
  2
*D8
 70
     1
 10
0.0
 20
0.0
 30
0.0
  3
*D8
  1

  0
LINE
  5
2423
  8
SP
 10
33254.695168609171
 20
35732.13899710423
 30
0.0
 11
32605.286079403581
 21
35732.13899710423
 31
0.0
  0
LINE
  5
2424
  8
SP
 10
32645.286079403581
 20
35962.13899710423
 30
0.0
 11
32645.286079403581
 21
36042.13899710423
 31
0.0
  0
LINE
  5
2425
  8
SP
 10
32645.286079403581
 20
35652.13899710423
 30
0.0
 11
32645.286079403581
 21
35252.138997104223
 31
0.0
  0
LINE
  5
2426
  8
SP
 10
32645.286079403581
 20
35882.13899710423
 30
0.0
 11
32645.286079403581
 21
35732.13899710423
 31
0.0
  0
INSERT
  5
2427
  8
SP
  2
_DOT
 10
32645.286079403581
 20
35882.13899710423
 30
0.0
 41
80.0
 42
80.0
 43
80.0
 50
270.0
  0
INSERT
  5
2428
  8
SP
  2
_OPEN
 10
32645.286079403581
 20
35732.13899710423
 30
0.0
 41
80.0
 42
80.0
 43
80.0
 50
90.0
  0
TEXT
  8
0
  40
120
  5
2443
  72
0
  71
0
 10
32325.3
 20
35199.7
 30
0.000000
  1
150
  0
POINT
  5
242A
  8
DEFPOINTS
 62
     0
 10
33294.695168609171
 20
35882.13899710423
 30
0.0
  0
POINT
  5
242B
  8
DEFPOINTS
 62
     0
 10
33294.695168609171
 20
35732.13899710423
 30
0.0
  0
POINT
  5
242C
  8
DEFPOINTS
 62
     0
 10
32645.286079403581
 20
35732.13899710423
 30
0.0
  0
ENDBLK
  5
18FA
  8
0
  0
BLOCK
  8
0
  2
*D9
 70
     1
 10
0.0
 20
0.0
 30
0.0
  3
*D9
  1

  0
LINE
  5
23ED
  8
SP
 10
34354.695168609171
 20
43752.572025066082
 30
0.0
 11
34354.695168609171
 21
44011.450653376793
 31
0.0
  0
LINE
  5
23EE
  8
SP
 10
33189.695168609171
 20
43487.576721893849
 30
0.0
 11
33189.695168609171
 21
44011.450653376793
 31
0.0
  0
LINE
  5
23EF
  8
SP
 10
34274.695168609171
 20
43971.4506533768
 30
0.0
 11
33269.695168609171
 21
43971.4506533768
 31
0.0
  0
INSERT
  5
23F0
  8
SP
  2
_OPEN
 10
34354.695168609171
 20
43971.4506533768
 30
0.0
 41
80.0
 42
80.0
 43
80.0
  0
INSERT
  5
23F1
  8
SP
  2
_OPEN
 10
33189.695168609171
 20
43971.4506533768
 30
0.0
 41
80.0
 42
80.0
 43
80.0
 50
180.0
  0
TEXT
  5
23F2
  8
SP
 10
33560.24639914521
 20
43991.4506533768
 30
0.0
 40
120.0
  1
1165
 51
15.0
  0
POINT
  5
23F3
  8
DEFPOINTS
 62
     0
 10
34354.695168609171
 20
43712.572025066082
 30
0.0
  0
POINT
  5
23F4
  8
DEFPOINTS
 62
     0
 10
33189.695168609171
 20
43447.576721893849
 30
0.0
  0
POINT
  5
23F5
  8
DEFPOINTS
 62
     0
 10
33189.695168609171
 20
43971.4506533768
 30
0.0
  0
ENDBLK
  5
1915
  8
0
  0
BLOCK
  8
0
  2
*D10
 70
     1
 10
0.0
 20
0.0
 30
0.0
  3
*D10
  1

  0
LINE
  5
23DC
  8
SP
 10
36294.695168609171
 20
42094.576721893849
 30
0.0
 11
36294.695168609171
 21
44011.450653376793
 31
0.0
  0
LINE
  5
23DD
  8
SP
 10
34434.695168609171
 20
43971.4506533768
 30
0.0
 11
36214.695168609171
 21
43971.4506533768
 31
0.0
  0
INSERT
  5
23DE
  8
SP
  2
_OPEN
 10
34354.695168609171
 20
43971.4506533768
 30
0.0
 41
80.0
 42
80.0
 43
80.0
 50
180.0
  0
INSERT
  5
23DF
  8
SP
  2
_OPEN
 10
36294.695168609171
 20
43971.4506533768
 30
0.0
 41
80.0
 42
80.0
 43
80.0
  0
TEXT
  5
23E0
  8
SP
 10
35101.522961344432
 20
43991.4506533768
 30
0.0
 40
120.0
  1
1940
 51
15.0
  0
POINT
  5
23E1
  8
DEFPOINTS
 62
     0
 10
34354.695168609171
 20
43971.4506533768
 30
0.0
  0
POINT
  5
23E2
  8
DEFPOINTS
 62
     0
 10
36294.695168609171
 20
42054.576721893849
 30
0.0
  0
POINT
  5
23E3
  8
DEFPOINTS
 62
     0
 10
36294.695168609171
 20
43971.4506533768
 30
0.0
  0
ENDBLK
  5
1921
  8
0
  0
BLOCK
  8
0
  2
*D11
 70
     1
 10
0.0
 20
0.0
 30
0.0
  3
*D11
  1

  0
LINE
  5
2355
  8
SP
 10
33349.695168609171
 20
43513.576721893864
 30
0.0
 11
32729.708903119052
 21
43513.576721893864
 31
0.0
  0
LINE
  5
2356
  8
SP
 10
32742.460724900251
 20
42718.576721893842
 30
0.0
 11
32809.708903119048
 21
42718.576721893842
 31
0.0
  0
LINE
  5
2357
  8
SP
 10
32769.708903119048
 20
43433.576721893864
 30
0.0
 11
32769.708903119048
 21
42798.576721893842
 31
0.0
  0
INSERT
  5
2358
  8
SP
  2
_OPEN
 10
32769.708903119048
 20
43513.576721893864
 30
0.0
 41
80.0
 42
80.0
 43
80.0
 50
90.0
  0
INSERT
  5
2359
  8
SP
  2
_OPEN
 10
32769.708903119048
 20
42718.576721893842
 30
0.0
 41
80.0
 42
80.0
 43
80.0
 50
270.0
  0
TEXT
  5
235A
  8
SP
 10
32749.708903119052
 20
42939.999770347989
 30
0.0
 40
120.0
  1
795
 50
90.0
 51
15.0
  0
POINT
  5
235B
  8
DEFPOINTS
 62
     0
 10
33389.695168609171
 20
43513.576721893864
 30
0.0
  0
POINT
  5
235C
  8
DEFPOINTS
 62
     0
 10
32702.460724900251
 20
42718.576721893842
 30
0.0
  0
POINT
  5
235D
  8
DEFPOINTS
 62
     0
 10
32769.708903119048
 20
42718.576721893842
 30
0.0
  0
ENDBLK
  5
192F
  8
0
  0
BLOCK
  8
0
  2
*D12
 70
     1
 10
0.0
 20
0.0
 30
0.0
  3
*D12
  1

  0
LINE
  5
234D
  8
SP
 10
33934.695168609171
 20
40268.576721893849
 30
0.0
 11
32729.708903119052
 21
40268.576721893849
 31
0.0
  0
LINE
  5
234E
  8
SP
 10
32769.708903119048
 20
42638.576721893842
 30
0.0
 11
32769.708903119048
 21
40348.576721893849
 31
0.0
  0
INSERT
  5
234F
  8
SP
  2
_OPEN
 10
32769.708903119048
 20
42718.576721893842
 30
0.0
 41
80.0
 42
80.0
 43
80.0
 50
90.0
  0
INSERT
  5
2350
  8
SP
  2
_OPEN
 10
32769.708903119048
 20
40268.576721893849
 30
0.0
 41
80.0
 42
80.0
 43
80.0
 50
270.0
  0
TEXT
  5
2351
  8
SP
 10
32749.708903119052
 20
41271.99061826148
 30
0.0
 40
120.0
  1
2450
 50
90.0
 51
15.0
  0
POINT
  5
2352
  8
DEFPOINTS
 62
     0
 10
32769.708903119048
 20
42718.576721893842
 30
0.0
  0
POINT
  5
2353
  8
DEFPOINTS
 62
     0
 10
33974.695168609171
 20
40268.576721893849
 30
0.0
  0
POINT
  5
2354
  8
DEFPOINTS
 62
     0
 10
32769.708903119048
 20
40268.576721893849
 30
0.0
  0
ENDBLK
  5
193B
  8
0
  0
BLOCK
  8
0
  2
*D13
 70
     1
 10
0.0
 20
0.0
 30
0.0
  3
*D13
  1

  0
LINE
  5
23AA
  8
SP
 10
33294.695168609171
 20
35692.13899710423
 30
0.0
 11
33294.695168609171
 21
34938.217067765298
 31
0.0
  0
LINE
  5
23AB
  8
SP
 10
36294.695168609171
 20
35692.13899710423
 30
0.0
 11
36294.695168609171
 21
34938.217067765298
 31
0.0
  0
LINE
  5
23AC
  8
SP
 10
33374.695168609171
 20
34978.217067765298
 30
0.0
 11
36214.695168609171
 21
34978.217067765298
 31
0.0
  0
INSERT
  5
23AD
  8
SP
  2
_OPEN
 10
33294.695168609171
 20
34978.217067765298
 30
0.0
 41
80.0
 42
80.0
 43
80.0
 50
180.0
  0
INSERT
  5
23AE
  8
SP
  2
_OPEN
 10
36294.695168609171
 20
34978.217067765298
 30
0.0
 41
80.0
 42
80.0
 43
80.0
  0
TEXT
  5
23AF
  8
SP
 10
34570.046788491869
 20
34998.217067765298
 30
0.0
 40
120.0
  1
3000
 51
15.0
  0
POINT
  5
23B0
  8
DEFPOINTS
 62
     0
 10
33294.695168609171
 20
35732.13899710423
 30
0.0
  0
POINT
  5
23B1
  8
DEFPOINTS
 62
     0
 10
36294.695168609171
 20
35732.13899710423
 30
0.0
  0
POINT
  5
23B2
  8
DEFPOINTS
 62
     0
 10
36294.695168609171
 20
34978.217067765298
 30
0.0
  0
ENDBLK
  5
1983
  8
0
  0
BLOCK
  8
0
  2
*D14
 70
     1
 10
0.0
 20
0.0
 30
0.0
  3
*D14
  1

  0
LINE
  5
242D
  8
SP
 10
36294.695168609171
 20
35692.13899710423
 30
0.0
 11
36294.695168609171
 21
35256.931618385919
 31
0.0
  0
LINE
  5
242E
  8
SP
 10
34434.695168609171
 20
35296.931618385919
 30
0.0
 11
36214.695168609171
 21
35296.931618385919
 31
0.0
  0
INSERT
  5
242F
  8
SP
  2
_OPEN
 10
34354.695168609171
 20
35296.931618385919
 30
0.0
 41
80.0
 42
80.0
 43
80.0
 50
180.0
  0
INSERT
  5
2430
  8
SP
  2
_OPEN
 10
36294.695168609171
 20
35296.931618385919
 30
0.0
 41
80.0
 42
80.0
 43
80.0
  0
TEXT
  8
0
  40
120
  5
2444
  72
0
  71
0
 10
35084.7
 20
35164.5
 30
0.000000
  1
1940
  0
POINT
  5
2432
  8
DEFPOINTS
 62
     0
 10
34354.695168609171
 20
35651.484822094011
 30
0.0
  0
POINT
  5
2433
  8
DEFPOINTS
 62
     0
 10
36294.695168609171
 20
35732.13899710423
 30
0.0
  0
POINT
  5
2434
  8
DEFPOINTS
 62
     0
 10
36294.695168609171
 20
35296.931618385919
 30
0.0
  0
ENDBLK
  5
198E
  8
0
  0
BLOCK
  8
0
  2
*D15
 70
     1
 10
0.0
 20
0.0
 30
0.0
  3
*D15
  1

  0
LINE
  5
23BB
  8
SP
 10
33294.695168609171
 20
35692.13899710423
 30
0.0
 11
33294.695168609171
 21
35256.931618385919
 31
0.0
  0
LINE
  5
23BC
  8
SP
 10
34354.695168609171
 20
35611.484822094011
 30
0.0
 11
34354.695168609171
 21
35256.931618385919
 31
0.0
  0
LINE
  5
23BD
  8
SP
 10
33374.695168609171
 20
35296.931618385919
 30
0.0
 11
34274.695168609171
 21
35296.931618385919
 31
0.0
  0
INSERT
  5
23BE
  8
SP
  2
_OPEN
 10
33294.695168609171
 20
35296.931618385919
 30
0.0
 41
80.0
 42
80.0
 43
80.0
 50
180.0
  0
INSERT
  5
23BF
  8
SP
  2
_OPEN
 10
34354.695168609171
 20
35296.931618385919
 30
0.0
 41
80.0
 42
80.0
 43
80.0
  0
TEXT
  5
23C0
  8
SP
 10
33601.522961344432
 20
35316.931618385919
 30
0.0
 40
120.0
  1
1060
 51
15.0
  0
POINT
  5
23C1
  8
DEFPOINTS
 62
     0
 10
33294.695168609171
 20
35732.13899710423
 30
0.0
  0
POINT
  5
23C2
  8
DEFPOINTS
 62
     0
 10
34354.695168609171
 20
35651.484822094011
 30
0.0
  0
POINT
  5
23C3
  8
DEFPOINTS
 62
     0
 10
34354.695168609171
 20
35296.931618385919
 30
0.0
  0
ENDBLK
  5
199A
  8
0
  0
BLOCK
  8
0
  2
*D16
 70
     1
 10
0.0
 20
0.0
 30
0.0
  3
*D16
  1

  0
LINE
  5
23E4
  8
SP
 10
33189.695168609171
 20
39382.13899710423
 30
0.0
 11
33189.695168609171
 21
39853.937013266819
 31
0.0
  0
LINE
  5
23E5
  8
SP
 10
34354.695168609171
 20
39382.404535668597
 30
0.0
 11
34354.695168609171
 21
39853.937013266819
 31
0.0
  0
LINE
  5
23E6
  8
SP
 10
33269.695168609171
 20
39813.937013266819
 30
0.0
 11
34274.695168609171
 21
39813.937013266819
 31
0.0
  0
INSERT
  5
23E7
  8
SP
  2
_OPEN
 10
33189.695168609171
 20
39813.937013266819
 30
0.0
 41
80.0
 42
80.0
 43
80.0
 50
180.0
  0
INSERT
  5
23E8
  8
SP
  2
_OPEN
 10
34354.695168609171
 20
39813.937013266819
 30
0.0
 41
80.0
 42
80.0
 43
80.0
  0
TEXT
  5
23E9
  8
SP
 10
33560.24639914521
 20
39833.937013266826
 30
0.0
 40
120.0
  1
1165
 51
15.0
  0
POINT
  5
23EA
  8
DEFPOINTS
 62
     0
 10
33189.695168609171
 20
39342.13899710423
 30
0.0
  0
POINT
  5
23EB
  8
DEFPOINTS
 62
     0
 10
34354.695168609171
 20
39342.404535668589
 30
0.0
  0
POINT
  5
23EC
  8
DEFPOINTS
 62
     0
 10
34354.695168609171
 20
39813.937013266819
 30
0.0
  0
ENDBLK
  5
19AE
  8
0
  0
BLOCK
  8
0
  2
*D17
 70
     1
 10
0.0
 20
0.0
 30
0.0
  3
*D17
  1

  0
LINE
  5
2388
  8
SP
 10
40230.270613569359
 20
38250.512797104231
 30
0.0
 11
40810.278755781088
 21
38250.512797104231
 31
0.0
  0
LINE
  5
2389
  8
SP
 10
40230.270613569359
 20
36450.512797104231
 30
0.0
 11
40810.278755781088
 21
36450.512797104231
 31
0.0
  0
LINE
  5
238A
  8
SP
 10
40770.278755781081
 20
38170.512797104231
 30
0.0
 11
40770.278755781081
 21
36530.512797104231
 31
0.0
  0
INSERT
  5
238B
  8
SP
  2
_OPEN
 10
40770.278755781081
 20
38250.512797104231
 30
0.0
 41
80.0
 42
80.0
 43
80.0
 50
90.0
  0
INSERT
  5
238C
  8
SP
  2
_OPEN
 10
40770.278755781081
 20
36450.512797104231
 30
0.0
 41
80.0
 42
80.0
 43
80.0
 50
270.0
  0
INSERT
  5
238D
  8
SP
  2
*U22
 10
0.0
 20
0.0
 30
0.0
  0
POINT
  5
238E
  8
DEFPOINTS
 62
     0
 10
40190.270613569352
 20
38250.512797104231
 30
0.0
  0
POINT
  5
238F
  8
DEFPOINTS
 62
     0
 10
40190.270613569352
 20
36450.512797104231
 30
0.0
  0
POINT
  5
2390
  8
DEFPOINTS
 62
     0
 10
40770.278755781081
 20
36450.512797104231
 30
0.0
  0
ENDBLK
  5
2392
  8
0
  0
BLOCK
  8
0
  2
*D18
 70
     1
 10
0.0
 20
0.0
 30
0.0
  3
*D18
  1

  0
LINE
  5
2435
  8
SP
 10
40134.270613569359
 20
35692.138980498239
 30
0.0
 11
40134.270613569359
 21
35252.658367733929
 31
0.0
  0
LINE
  5
2436
  8
SP
 10
39475.270613569359
 20
35292.658367733929
 30
0.0
 11
40054.270613569359
 21
35292.658367733929
 31
0.0
  0
INSERT
  5
2437
  8
SP
  2
_OPEN
 10
39395.270613569352
 20
35292.658367733929
 30
0.0
 41
80.0
 42
80.0
 43
80.0
 50
180.0
  0
INSERT
  5
2438
  8
SP
  2
_OPEN
 10
40134.270613569359
 20
35292.658367733929
 30
0.0
 41
80.0
 42
80.0
 43
80.0
  0
TEXT
  8
0
  40
120
  5
2445
  72
0
  71
0
 10
39524.8
 20
35160.3
 30
0.000000
  1
739
  0
POINT
  5
243A
  8
DEFPOINTS
 62
     0
 10
39395.270613569352
 20
35711.211928504308
 30
0.0
  0
POINT
  5
243B
  8
DEFPOINTS
 62
     0
 10
40134.270613569359
 20
35732.138980498239
 30
0.0
  0
POINT
  5
243C
  8
DEFPOINTS
 62
     0
 10
40134.270613569359
 20
35292.658367733929
 30
0.0
  0
ENDBLK
  5
239D
  8
0
  0
BLOCK
  8
0
  2
*D19
 70
     1
 10
0.0
 20
0.0
 30
0.0
  3
*D19
  1

  0
LINE
  5
239F
  8
SP
 10
37284.270613569352
 20
35692.138980498239
 30
0.0
 11
37284.270613569352
 21
34952.620822769
 31
0.0
  0
LINE
  5
23A0
  8
SP
 10
40134.270613569359
 20
35692.138980498239
 30
0.0
 11
40134.270613569359
 21
34952.620822769
 31
0.0
  0
LINE
  5
23A1
  8
SP
 10
37364.270613569352
 20
34992.620822769
 30
0.0
 11
40054.270613569359
 21
34992.620822769
 31
0.0
  0
INSERT
  5
23A2
  8
SP
  2
_OPEN
 10
37284.270613569352
 20
34992.620822769
 30
0.0
 41
80.0
 42
80.0
 43
80.0
 50
180.0
  0
INSERT
  5
23A3
  8
SP
  2
_OPEN
 10
40134.270613569359
 20
34992.620822769
 30
0.0
 41
80.0
 42
80.0
 43
80.0
  0
TEXT
  5
23A4
  8
SP
 10
38487.684509936989
 20
35012.620822769
 30
0.0
 40
120.0
  1
2850
 51
15.0
  0
POINT
  5
23A5
  8
DEFPOINTS
 62
     0
 10
37284.270613569352
 20
35732.138980498239
 30
0.0
  0
POINT
  5
23A6
  8
DEFPOINTS
 62
     0
 10
40134.270613569359
 20
35732.138980498239
 30
0.0
  0
POINT
  5
23A7
  8
DEFPOINTS
 62
     0
 10
40134.270613569359
 20
34992.620822769
 30
0.0
  0
ENDBLK
  5
23A9
  8
0
  0
BLOCK
  8
0
  2
*D20
 70
     1
 10
0.0
 20
0.0
 30
0.0
  3
*D20
  1

  0
LINE
  5
23C5
  8
SP
 10
37284.270613569352
 20
35692.138980498239
 30
0.0
 11
37284.270613569352
 21
35252.658367733929
 31
0.0
  0
LINE
  5
23C6
  8
SP
 10
39395.270613569352
 20
35671.211928504308
 30
0.0
 11
39395.270613569352
 21
35252.658367733929
 31
0.0
  0
LINE
  5
23C7
  8
SP
 10
37364.270613569352
 20
35292.658367733929
 30
0.0
 11
39315.270613569359
 21
35292.658367733929
 31
0.0
  0
INSERT
  5
23C8
  8
SP
  2
_OPEN
 10
37284.270613569352
 20
35292.658367733929
 30
0.0
 41
80.0
 42
80.0
 43
80.0
 50
180.0
  0
INSERT
  5
23C9
  8
SP
  2
_OPEN
 10
39395.270613569352
 20
35292.658367733929
 30
0.0
 41
80.0
 42
80.0
 43
80.0
  0
TEXT
  5
23CA
  8
SP
 10
38160.83651916634
 20
35312.658367733937
 30
0.0
 40
120.0
  1
2111
 51
15.0
  0
POINT
  5
23CB
  8
DEFPOINTS
 62
     0
 10
37284.270613569352
 20
35732.138980498239
 30
0.0
  0
POINT
  5
23CC
  8
DEFPOINTS
 62
     0
 10
39395.270613569352
 20
35711.211928504308
 30
0.0
  0
POINT
  5
23CD
  8
DEFPOINTS
 62
     0
 10
39395.270613569352
 20
35292.658367733929
 30
0.0
  0
ENDBLK
  5
23CF
  8
0
  0
BLOCK
  8
0
  2
*D21
 70
     1
 10
0.0
 20
0.0
 30
0.0
  3
*D21
  1

  0
LINE
  5
23D1
  8
SP
 10
39395.270613569352
 20
39794.830943173321
 30
0.0
 11
39395.270613569352
 21
39762.88860380894
 31
0.0
  0
LINE
  5
23D2
  8
SP
 10
40190.270613569352
 20
38355.512797104231
 30
0.0
 11
40190.270613569352
 21
39842.88860380894
 31
0.0
  0
LINE
  5
23D3
  8
SP
 10
39475.270613569359
 20
39802.88860380894
 30
0.0
 11
40110.270613569352
 21
39802.88860380894
 31
0.0
  0
INSERT
  5
23D4
  8
SP
  2
_OPEN
 10
39395.270613569352
 20
39802.88860380894
 30
0.0
 41
80.0
 42
80.0
 43
80.0
 50
180.0
  0
INSERT
  5
23D5
  8
SP
  2
_OPEN
 10
40190.270613569352
 20
39802.88860380894
 30
0.0
 41
80.0
 42
80.0
 43
80.0
  0
TEXT
  5
23D6
  8
SP
 10
39548.056037067588
 20
39822.88860380894
 30
0.0
 40
120.0
  1
795
 51
15.0
  0
POINT
  5
23D7
  8
DEFPOINTS
 62
     0
 10
39395.270613569352
 20
39834.830943173321
 30
0.0
  0
POINT
  5
23D8
  8
DEFPOINTS
 62
     0
 10
40190.270613569352
 20
38315.512797104231
 30
0.0
  0
POINT
  5
23D9
  8
DEFPOINTS
 62
     0
 10
40190.270613569352
 20
39802.88860380894
 30
0.0
  0
ENDBLK
  5
23DB
  8
0
  0
BLOCK
  8
0
  2
*U22
 70
     1
 10
0.0
 20
0.0
 30
0.0
  3
*U22
  1

  0
TEXT
  5
243E
  8
SP
 10
40750.278755781081
 20
37053.505380267423
 30
0.0
 40
120.0
  1
\U+2205
 50
90.0
 51
15.0
  0
TEXT
  5
243F
  8
SP
 10
40750.278755781081
 20
37162.07680883885
 30
0.0
 40
120.0
  1
1800
 50
90.0
 51
15.0
  0
ENDBLK
  5
2441
  8
0
  0
ENDSEC
  0
SECTION
  2
ENTITIES
  0
INSERT
  5
89
  8
FUTO
  2
まっすぐの矢印
 10
32904.033557944029
 20
38918.581293764568
 30
0.0
 41
2.0
 42
2.0
 43
2.0
 50
90.0
  0
LINE
  5
AF
  8
CT
 10
34354.695168609171
 20
37352.13899710423
 30
0.0
 11
33134.114690429473
 21
37243.871624561871
 31
0.0
  0
LINE
  5
B2
  8
CT
 10
32809.341169565072
 20
37352.13899710423
 30
0.0
 11
36269.323275119263
 21
37352.13899710423
 31
0.0
  0
DIMENSION
  5
CF
  8
SP
  2
*D4
 10
32645.286079403581
 20
35882.13899710423
 30
0.0
 11
32421.704534394092
 21
36033.215034076398
 31
0.0
 70
   128
  1
(<>)
 13
33329.581956276677
 23
36022.13899710423
 33
0.0
 14
33294.695168609171
 24
35882.13899710423
 34
0.0
 50
90.0
1001
ACAD
1000
DSTYLE
1002
{
1070
   287
1070
     4
1070
    40
1040
40.0
1070
    75
1070
     1
1070
   279
1070
     1
1070
   289
1070
     3
1070
     7
1000
DOT
1002
}
  0
DIMENSION
  5
E7
  8
SP
  2
*D8
 10
32645.286079403581
 20
35732.13899710423
 30
0.0
 11
32565.28607940357
 21
35412.13899710423
 31
0.0
 70
     0
 13
33294.695168609171
 23
35882.13899710423
 33
0.0
 14
33294.695168609171
 24
35732.13899710423
 34
0.0
 50
90.0
1001
ACAD
1000
DSTYLE
1002
{
1070
   287
1070
     1
1070
    40
1040
40.0
1070
    75
1070
     1
1070
   289
1070
     1
1070
     6
1000
DOT
1002
}
  0
DIMENSION
  5
F5
  8
SP
  2
*D7
 10
32645.286079403581
 20
36022.13899710423
 30
0.0
 11
32565.28607940357
 21
36687.13899710423
 31
0.0
 70
     0
 13
32831.941479968533
 23
37352.13899710423
 33
0.0
 14
33329.581956276677
 24
36022.13899710423
 34
0.0
 50
90.0
1001
ACAD
1000
DSTYLE
1002
{
1070
    40
1040
40.0
1002
}
  0
LINE
  5
104
  8
CT
 10
34354.695168609171
 20
39342.404535668589
 30
0.0
 11
34354.695168609171
 21
35651.484822094011
 31
0.0
  0
LINE
  5
10B
  8
FUTO
 10
35748.63920429031
 20
36263.001712190628
 30
0.0
 11
34172.884944062549
 21
36907.903651538043
 31
0.0
  0
ARC
  5
10E
  8
FUTO
 10
35854.695168609171
 20
36522.13899710423
 30
0.0
 40
280.0
 50
247.74240502844651
 51
54.343159773977042
  0
LINE
  5
10F
  8
SL
 10
34211.608097746612
 20
37027.252724461046
 30
0.0
 11
35774.0827343204
 21
36339.104477305249
 31
0.0
  0
LINE
  5
110
  8
SL
 10
35966.952095735382
 20
36687.663564199807
 30
0.0
 11
34553.95121425821
 21
37645.945103698883
 31
0.0
  0
ARC
  5
111
  8
FUTO
 10
35854.695168609171
 20
36522.13899710423
 30
0.0
 40
310.0
 50
300.10230806831191
 51
239.897691931688
  0
LINE
  5
112
  8
CT
 10
35854.695168609171
 20
37186.90488303054
 30
0.0
 11
35854.695168609171
 21
36199.847680843079
 31
0.0
  0
LINE
  5
113
  8
FUTO
 10
35413.695168609171
 20
37343.13899710423
 30
0.0
 11
35413.695168609171
 21
37183.131877477732
 31
0.0
  0
LINE
  5
114
  8
FUTO
 10
34910.808451982863
 20
36605.896978696117
 30
0.0
 11
35054.695168609171
 21
36186.303891642638
 31
0.0
  0
LINE
  5
115
  8
FUTO
 10
33313.695168609171
 20
37343.13899710423
 30
0.0
 11
33313.695168609171
 21
36172.13899710423
 31
0.0
  0
LINE
  5
116
  8
FUTO
 10
33304.695168609171
 20
37343.13899710423
 30
0.0
 11
33304.695168609171
 21
36172.13899710423
 31
0.0
  0
LINE
  5
117
  8
FUTO
 10
35404.695168609171
 20
37361.13899710423
 30
0.0
 11
35404.695168609171
 21
37189.58875899027
 31
0.0
  0
LINE
  5
118
  8
FUTO
 10
35395.695168609171
 20
37361.13899710423
 30
0.0
 11
35395.695168609171
 21
37196.045640502809
 31
0.0
  0
LINE
  5
119
  8
CT
 10
35854.695168609171
 20
36235.637734104232
 30
0.0
 11
35854.695168609171
 21
36819.909413104229
 31
0.0
  0
LINE
  5
11D
  8
KL
 10
34012.646742785131
 20
37230.138997104223
 30
0.0
 11
33960.5429593714
 21
37078.197331866919
 31
0.0
  0
ARC
  5
122
  8
FUTO
 10
34465.195168609171
 20
37241.63899710423
 30
0.0
 40
1201.5
 50
172.27518828965921
 51
230.39010528819949
  0
ARC
  5
123
  8
KL
 10
34465.195168609171
 20
37241.63899710423
 30
0.0
 40
1181.4999999999991
 50
180.0
 51
270.99417894367201
  0
ARC
  5
124
  8
KL
 10
34485.695168609171
 20
37483.13899710423
 30
0.0
 40
1423.0
 50
270.0
 51
354.73663459410341
  0
DIMENSION
  5
13A
  8
SP
  2
*D14
 10
36294.695168609171
 20
35296.931618385919
 30
0.0
 11
35324.695168609171
 21
35376.931618385919
 31
0.0
 70
     0
 13
34354.695168609171
 23
35651.484822094011
 33
0.0
 14
36294.695168609171
 24
35732.13899710423
 34
0.0
 50
180.0
1001
ACAD
1000
DSTYLE
1002
{
1070
   287
1070
     4
1070
    40
1040
40.0
1070
    75
1070
     1
1070
   279
1070
     1
1070
   289
1070
     3
1002
}
  0
LINE
  5
146
  8
FUTO
 10
33294.695168609171
 20
35882.13899710423
 30
0.0
 11
36294.695168609171
 21
35882.13899710423
 31
0.0
1001
ACAD
1000
ASC_BOUNDS
1002
{
1070
    19
1005
0
1002
}
  0
LINE
  5
147
  8
FUTO
 10
33294.695168609171
 20
35870.13899710423
 30
0.0
 11
36294.695168609171
 21
35870.13899710423
 31
0.0
  0
LINE
  5
148
  8
FUTO
 10
33294.695168609171
 20
35744.13899710423
 30
0.0
 11
36294.695168609171
 21
35744.13899710423
 31
0.0
  0
LINE
  5
149
  8
FUTO
 10
33294.695168609171
 20
35732.13899710423
 30
0.0
 11
36294.695168609171
 21
35732.13899710423
 31
0.0
  0
DIMENSION
  5
14A
  8
SP
  2
*D13
 10
36294.695168609171
 20
34978.217067765298
 30
0.0
 11
34794.695168609171
 21
35058.217067765298
 31
0.0
 70
     0
 13
33294.695168609171
 23
35732.13899710423
 33
0.0
 14
36294.695168609171
 24
35732.13899710423
 34
0.0
 50
180.0
1001
ACAD
1000
DSTYLE
1002
{
1070
    40
1040
40.0
1002
}
  0
LINE
  5
157
  8
FUTO
 10
33294.695168609171
 20
36160.13899710423
 30
0.0
 11
36294.695168609171
 21
36160.13899710423
 31
0.0
  0
LINE
  5
158
  8
FUTO
 10
33294.695168609171
 20
36034.13899710423
 30
0.0
 11
36294.695168609171
 21
36034.13899710423
 31
0.0
  0
LINE
  5
159
  8
FUTO
 10
33294.695168609171
 20
36172.13899710423
 30
0.0
 11
36294.695168609171
 21
36172.13899710423
 31
0.0
  0
LINE
  5
15A
  8
FUTO
 10
33294.695168609171
 20
36022.13899710423
 30
0.0
 11
36294.695168609171
 21
36022.13899710423
 31
0.0
1001
ACAD
1000
ASC_BOUNDS
1002
{
1070
    19
1005
0
1002
}
  0
LINE
  5
15B
  8
FUTO
 10
35574.695168609171
 20
36272.13899710423
 30
0.0
 11
35671.392140810931
 21
36272.13899710423
 31
0.0
  0
LINE
  5
15C
  8
FUTO
 10
35574.695168609171
 20
36242.13899710423
 30
0.0
 11
35684.695168609171
 21
36242.13899710423
 31
0.0
  0
LINE
  5
15D
  8
FUTO
 10
35754.695168609171
 20
36242.13899710423
 30
0.0
 11
35539.695168609171
 21
36242.13899710423
 31
0.0
  0
LINE
  5
15E
  8
FUTO
 10
35529.695168609171
 20
36172.13899710423
 30
0.0
 11
35754.695168609171
 21
36172.13899710423
 31
0.0
  0
LINE
  5
15F
  8
CT
 10
35517.236204419409
 20
36522.13899710423
 30
0.0
 11
36197.972390802199
 21
36522.13899710423
 31
0.0
  0
LINE
  5
160
  8
CT
 10
35902.798236117058
 20
36085.276817164879
 30
0.0
 11
35902.798236117058
 21
35820.536312530217
 31
0.0
  0
LINE
  5
161
  8
FUTO
 10
36046.65145811611
 20
36022.13899710423
 30
0.0
 11
36046.65145811611
 21
36011.13899710423
 31
0.0
  0
LINE
  5
162
  8
FUTO
 10
36118.65145811611
 20
36022.13899710423
 30
0.0
 11
36118.65145811611
 21
36011.13899710423
 31
0.0
  0
LINE
  5
163
  8
CT
 10
36082.65145811611
 20
36036.666980311442
 30
0.0
 11
36082.65145811611
 21
35862.460205407289
 31
0.0
  0
ARC
  5
164
  8
FUTO
 10
36026.15145811611
 20
36002.13899710423
 30
0.0
 40
9.0
 50
90.0
 51
180.0
  0
LINE
  5
165
  8
FUTO
 10
36148.15145811611
 20
35926.13899710423
 30
0.0
 11
36017.15145811611
 21
35926.13899710423
 31
0.0
  0
LINE
  5
166
  8
FUTO
 10
36294.695168609171
 20
35882.13899710423
 30
0.0
 11
36294.695168609171
 21
35732.13899710423
 31
0.0
  0
LINE
  5
167
  8
FUTO
 10
36118.65145811611
 20
36017.13899710423
 30
0.0
 11
36046.65145811611
 21
36017.13899710423
 31
0.0
  0
ARC
  5
168
  8
FUTO
 10
36139.15145811611
 20
36002.13899710423
 30
0.0
 40
9.0
 50
359.99999999999989
 51
90.000000000000099
  0
LINE
  5
169
  8
FUTO
 10
36148.15145811611
 20
36002.13899710423
 30
0.0
 11
36148.15145811611
 21
35926.13899710423
 31
0.0
  0
LINE
  5
16A
  8
FUTO
 10
36118.65145811611
 20
35882.13899710423
 30
0.0
 11
36046.65145811611
 21
35882.13899710423
 31
0.0
  0
LINE
  5
16B
  8
FUTO
 10
36046.65145811611
 20
35893.13899710423
 30
0.0
 11
36046.65145811611
 21
35882.13899710423
 31
0.0
  0
LINE
  5
16C
  8
FUTO
 10
36118.65145811611
 20
35893.13899710423
 30
0.0
 11
36118.65145811611
 21
35882.13899710423
 31
0.0
  0
LINE
  5
16D
  8
FUTO
 10
36033.65145811611
 20
35926.13899710423
 30
0.0
 11
36033.65145811611
 21
35900.138997104223
 31
0.0
  0
ARC
  5
16E
  8
FUTO
 10
36040.65145811611
 20
35900.138997104223
 30
0.0
 40
7.0
 50
179.99999999999989
 51
269.99999999999977
  0
LINE
  5
16F
  8
FUTO
 10
36124.65145811611
 20
35893.13899710423
 30
0.0
 11
36040.65145811611
 21
35893.13899710423
 31
0.0
  0
LINE
  5
170
  8
FUTO
 10
36131.65145811611
 20
35926.13899710423
 30
0.0
 11
36131.65145811611
 21
35900.138997104223
 31
0.0
  0
ARC
  5
171
  8
FUTO
 10
36124.65145811611
 20
35900.138997104223
 30
0.0
 40
7.0
 50
270.00000000000011
 51
0.0000000000000579
  0
LINE
  5
172
  8
FUTO
 10
36118.65145811611
 20
35887.13899710423
 30
0.0
 11
36046.65145811611
 21
35887.13899710423
 31
0.0
  0
LINE
  5
173
  8
FUTO
 10
36139.15145811611
 20
36011.13899710423
 30
0.0
 11
36026.15145811611
 21
36011.13899710423
 31
0.0
  0
LINE
  5
174
  8
FUTO
 10
36017.15145811611
 20
36002.13899710423
 30
0.0
 11
36017.15145811611
 21
35926.13899710423
 31
0.0
  0
LINE
  5
175
  8
FUTO
 10
36169.695168609171
 20
36242.13899710423
 30
0.0
 11
35954.695168609171
 21
36242.13899710423
 31
0.0
  0
LINE
  5
176
  8
FUTO
 10
35954.695168609171
 20
36172.13899710423
 30
0.0
 11
36179.695168609171
 21
36172.13899710423
 31
0.0
  0
CIRCLE
  5
177
  8
SL
 10
35854.695168609171
 20
36522.13899710423
 30
0.0
 40
200.0
  0
LINE
  5
178
  8
FUTO
 10
36134.695168609171
 20
36389.097650147683
 30
0.0
 11
36134.695168609171
 21
36242.13899710423
 31
0.0
  0
LINE
  5
179
  8
FUTO
 10
36294.695168609171
 20
36172.13899710423
 30
0.0
 11
36294.695168609171
 21
36022.13899710423
 31
0.0
  0
LINE
  5
17A
  8
FUTO
 10
36118.65145811611
 20
36022.13899710423
 30
0.0
 11
36046.65145811611
 21
36022.13899710423
 31
0.0
  0
LINE
  5
17B
  8
CT
 10
36083.195168609171
 20
36287.308445593881
 30
0.0
 11
36083.195168609171
 21
36199.847680843079
 31
0.0
  0
LINE
  5
17C
  8
FUTO
 10
36037.998196407403
 20
36272.13899710423
 30
0.0
 11
36134.695168609171
 21
36272.13899710423
 31
0.0
  0
LINE
  5
17D
  8
FUTO
 10
36024.695168609171
 20
36262.909369167908
 30
0.0
 11
36024.695168609171
 21
36242.13899710423
 31
0.0
  0
LINE
  5
17E
  8
FUTO
 10
36024.695168609171
 20
36242.13899710423
 30
0.0
 11
36134.695168609171
 21
36242.13899710423
 31
0.0
  0
LINE
  5
17F
  8
FUTO
 10
36179.695168609171
 20
36172.13899710423
 30
0.0
 11
36169.695168609171
 21
36242.13899710423
 31
0.0
  0
LINE
  5
180
  8
CT
 10
35854.695168609171
 20
36030.720611915771
 30
0.0
 11
35854.695168609171
 21
36696.237011300829
 31
0.0
  0
LINE
  5
181
  8
FUTO
 10
35699.216036333557
 20
36253.948319736759
 30
0.0
 11
36010.17430088477
 21
36253.948319736759
 31
0.0
  0
LINE
  5
182
  8
FUTO
 10
35954.695168609171
 20
36232.13899710423
 30
0.0
 11
35754.695168609171
 21
36232.13899710423
 31
0.0
  0
LINE
  5
183
  8
FUTO
 10
35954.695168609171
 20
36182.138997104223
 30
0.0
 11
35754.695168609171
 21
36182.138997104223
 31
0.0
  0
LINE
  5
184
  8
FUTO
 10
35954.695168609171
 20
36232.13899710423
 30
0.0
 11
35954.695168609171
 21
36242.13899710423
 31
0.0
  0
LINE
  5
185
  8
FUTO
 10
35954.695168609171
 20
36172.13899710423
 30
0.0
 11
35954.695168609171
 21
36182.138997104223
 31
0.0
  0
LINE
  5
186
  8
CT
 10
35626.195168609171
 20
36287.308445593881
 30
0.0
 11
35626.195168609171
 21
36195.682882521622
 31
0.0
  0
LINE
  5
187
  8
FUTO
 10
35684.695168609171
 20
36262.909369167908
 30
0.0
 11
35684.695168609171
 21
36242.13899710423
 31
0.0
  0
LINE
  5
188
  8
FUTO
 10
35754.695168609171
 20
36232.13899710423
 30
0.0
 11
35754.695168609171
 21
36242.13899710423
 31
0.0
  0
LINE
  5
189
  8
FUTO
 10
35611.695168609171
 20
36242.13899710423
 30
0.0
 11
35711.695168609171
 21
36242.13899710423
 31
0.0
  0
LINE
  5
18A
  8
FUTO
 10
35754.695168609171
 20
36172.13899710423
 30
0.0
 11
35754.695168609171
 21
36182.138997104223
 31
0.0
  0
LINE
  5
18B
  8
CT
 10
35304.791562718921
 20
36036.666980311442
 30
0.0
 11
35304.791562718921
 21
35862.460205407289
 31
0.0
  0
LINE
  5
18C
  8
FUTO
 10
35340.791562718921
 20
36022.13899710423
 30
0.0
 11
35340.791562718921
 21
36011.13899710423
 31
0.0
  0
LINE
  5
18D
  8
FUTO
 10
35268.791562718921
 20
36022.13899710423
 30
0.0
 11
35268.791562718921
 21
36011.13899710423
 31
0.0
  0
LINE
  5
18E
  8
FUTO
 10
35239.291562718929
 20
36002.13899710423
 30
0.0
 11
35239.291562718929
 21
35926.13899710423
 31
0.0
  0
LINE
  5
18F
  8
FUTO
 10
35361.291562718929
 20
36011.13899710423
 30
0.0
 11
35248.291562718929
 21
36011.13899710423
 31
0.0
  0
LINE
  5
190
  8
FUTO
 10
35340.791562718921
 20
35887.13899710423
 30
0.0
 11
35268.791562718921
 21
35887.13899710423
 31
0.0
  0
ARC
  5
191
  8
FUTO
 10
35346.791562718921
 20
35900.138997104223
 30
0.0
 40
7.0
 50
270.00000000000011
 51
0.0000000000000579
  0
LINE
  5
192
  8
FUTO
 10
35353.791562718929
 20
35926.13899710423
 30
0.0
 11
35353.791562718929
 21
35900.138997104223
 31
0.0
  0
LINE
  5
193
  8
FUTO
 10
35346.791562718921
 20
35893.13899710423
 30
0.0
 11
35262.791562718921
 21
35893.13899710423
 31
0.0
  0
ARC
  5
194
  8
FUTO
 10
35262.791562718921
 20
35900.138997104223
 30
0.0
 40
7.0
 50
179.99999999999989
 51
269.99999999999977
  0
LINE
  5
195
  8
FUTO
 10
35255.791562718929
 20
35926.13899710423
 30
0.0
 11
35255.791562718929
 21
35900.138997104223
 31
0.0
  0
LINE
  5
196
  8
FUTO
 10
35340.791562718921
 20
35893.13899710423
 30
0.0
 11
35340.791562718921
 21
35882.13899710423
 31
0.0
  0
LINE
  5
197
  8
FUTO
 10
35268.791562718921
 20
35893.13899710423
 30
0.0
 11
35268.791562718921
 21
35882.13899710423
 31
0.0
  0
LINE
  5
198
  8
FUTO
 10
35340.791562718921
 20
35882.13899710423
 30
0.0
 11
35268.791562718921
 21
35882.13899710423
 31
0.0
  0
LINE
  5
199
  8
FUTO
 10
35370.291562718929
 20
36002.13899710423
 30
0.0
 11
35370.291562718929
 21
35926.13899710423
 31
0.0
  0
ARC
  5
19A
  8
FUTO
 10
35361.291562718929
 20
36002.13899710423
 30
0.0
 40
9.0
 50
359.99999999999989
 51
90.000000000000099
  0
LINE
  5
19B
  8
FUTO
 10
35340.791562718921
 20
36017.13899710423
 30
0.0
 11
35268.791562718921
 21
36017.13899710423
 31
0.0
  0
LINE
  5
19C
  8
FUTO
 10
35370.291562718929
 20
35926.13899710423
 30
0.0
 11
35239.291562718929
 21
35926.13899710423
 31
0.0
  0
ARC
  5
19D
  8
FUTO
 10
35248.291562718929
 20
36002.13899710423
 30
0.0
 40
9.0
 50
90.0
 51
180.0
  0
LINE
  5
1A1
  8
FUTO
 10
35054.695168609171
 20
35882.13899710423
 30
0.0
 11
35054.695168609171
 21
35732.13899710423
 31
0.0
  0
LINE
  5
1A2
  8
FUTO
 10
35063.695168609171
 20
35882.13899710423
 30
0.0
 11
35063.695168609171
 21
35732.13899710423
 31
0.0
  0
LINE
  5
1A3
  8
FUTO
 10
35045.695168609171
 20
35882.13899710423
 30
0.0
 11
35045.695168609171
 21
35732.13899710423
 31
0.0
  0
ARC
  5
1A4
  8
FUTO
 10
34485.695168609171
 20
37483.13899710423
 30
0.0
 40
1443.0
 50
294.69784295846279
 51
310.93164026379389
  0
LINE
  5
1A7
  8
FUTO
 10
35574.695168609163
 20
36389.097650147698
 30
0.0
 11
35574.695168609171
 21
36242.13899710423
 31
0.0
  0
LINE
  5
1A8
  8
FUTO
 10
35397.805370497117
 20
36390.900937150298
 30
0.0
 11
35439.801966364052
 21
36341.25230461765
 31
0.0
  0
LINE
  5
1A9
  8
FUTO
 10
35411.548205064661
 20
36402.525673622542
 30
0.0
 11
35453.544800931602
 21
36352.877041089887
 31
0.0
  0
LINE
  5
1AA
  8
FUTO
 10
35404.695168609171
 20
36396.69157545879
 30
0.0
 11
35446.673383647823
 21
36347.064672853769
 31
0.0
  0
LINE
  5
1AB
  8
FUTO
 10
35539.695168609171
 20
36242.13899710423
 30
0.0
 11
35529.695168609171
 21
36172.13899710423
 31
0.0
  0
LINE
  5
1AC
  8
FUTO
 10
35439.80196636403
 20
36341.252304617643
 30
0.0
 11
35453.544800931588
 21
36352.877041089901
 31
0.0
  0
LINE
  5
1AD
  8
FUTO
 10
35340.791562718921
 20
36022.13899710423
 30
0.0
 11
35268.791562718921
 21
36022.13899710423
 31
0.0
  0
LINE
  5
1AE
  8
KL
 10
34979.695168609171
 20
36172.13899710423
 30
0.0
 11
34979.695168609171
 21
36022.13899710423
 31
0.0
  0
LINE
  5
1AF
  8
FUTO
 10
35045.695168609171
 20
36172.13899710423
 30
0.0
 11
35045.695168609171
 21
36022.13899710423
 31
0.0
  0
LINE
  5
1B0
  8
FUTO
 10
35063.695168609171
 20
36172.13899710423
 30
0.0
 11
35063.695168609171
 21
36022.13899710423
 31
0.0
  0
LINE
  5
1B1
  8
FUTO
 10
35054.695168609171
 20
36172.13899710423
 30
0.0
 11
35054.695168609171
 21
36022.13899710423
 31
0.0
  0
LINE
  5
1B2
  8
KL
 10
35054.695168609171
 20
36186.303891642638
 30
0.0
 11
35054.695168609171
 21
36022.13899710423
 31
0.0
  0
DIMENSION
  5
1B3
  8
SP
  2
*D15
 10
34354.695168609171
 20
35296.931618385919
 30
0.0
 11
33824.695168609171
 21
35376.931618385919
 31
0.0
 70
     0
 13
33294.695168609171
 23
35732.13899710423
 33
0.0
 14
34354.695168609171
 24
35651.484822094011
 34
0.0
 50
180.0
1001
ACAD
1000
DSTYLE
1002
{
1070
    40
1040
40.0
1002
}
  0
LINE
  5
1C0
  8
FUTO
 10
34478.213407499497
 20
36022.13899710423
 30
0.0
 11
34478.213407499497
 21
36011.13899710423
 31
0.0
  0
LINE
  5
1C1
  8
FUTO
 10
34550.213407499497
 20
36022.13899710423
 30
0.0
 11
34550.213407499497
 21
36011.13899710423
 31
0.0
  0
LINE
  5
1C2
  8
CT
 10
34514.213407499497
 20
36036.666980311442
 30
0.0
 11
34514.213407499497
 21
35862.460205407289
 31
0.0
  0
LINE
  5
1C3
  8
FUTO
 10
34579.713407499497
 20
35926.13899710423
 30
0.0
 11
34448.713407499497
 21
35926.13899710423
 31
0.0
  0
LINE
  5
1C4
  8
FUTO
 10
34550.213407499497
 20
36017.13899710423
 30
0.0
 11
34478.213407499497
 21
36017.13899710423
 31
0.0
  0
LINE
  5
1C5
  8
FUTO
 10
34550.213407499497
 20
35882.13899710423
 30
0.0
 11
34478.213407499497
 21
35882.13899710423
 31
0.0
  0
LINE
  5
1C6
  8
FUTO
 10
34556.213407499497
 20
35893.13899710423
 30
0.0
 11
34472.213407499497
 21
35893.13899710423
 31
0.0
  0
LINE
  5
1C7
  8
FUTO
 10
34550.213407499497
 20
35887.13899710423
 30
0.0
 11
34478.213407499497
 21
35887.13899710423
 31
0.0
  0
LINE
  5
1C8
  8
FUTO
 10
34570.713407499497
 20
36011.13899710423
 30
0.0
 11
34457.713407499497
 21
36011.13899710423
 31
0.0
  0
ARC
  5
1C9
  8
FUTO
 10
34570.713407499497
 20
36002.13899710423
 30
0.0
 40
9.0
 50
359.99999999999989
 51
90.000000000000099
  0
LINE
  5
1CA
  8
FUTO
 10
34579.713407499497
 20
36002.13899710423
 30
0.0
 11
34579.713407499497
 21
35926.13899710423
 31
0.0
  0
LINE
  5
1CB
  8
FUTO
 10
34550.213407499497
 20
35893.13899710423
 30
0.0
 11
34550.213407499497
 21
35882.13899710423
 31
0.0
  0
LINE
  5
1CC
  8
FUTO
 10
34563.213407499497
 20
35926.13899710423
 30
0.0
 11
34563.213407499497
 21
35900.138997104223
 31
0.0
  0
ARC
  5
1CD
  8
FUTO
 10
34556.213407499497
 20
35900.138997104223
 30
0.0
 40
7.0
 50
270.00000000000011
 51
0.0000000000000579
  0
ARC
  5
1CE
  8
FUTO
 10
34457.713407499497
 20
36002.13899710423
 30
0.0
 40
9.0
 50
90.0
 51
180.0
  0
LINE
  5
1CF
  8
FUTO
 10
34478.213407499497
 20
35893.13899710423
 30
0.0
 11
34478.213407499497
 21
35882.13899710423
 31
0.0
  0
LINE
  5
1D0
  8
FUTO
 10
34465.213407499497
 20
35926.13899710423
 30
0.0
 11
34465.213407499497
 21
35900.138997104223
 31
0.0
  0
ARC
  5
1D1
  8
FUTO
 10
34472.213407499497
 20
35900.138997104223
 30
0.0
 40
7.0
 50
179.99999999999989
 51
269.99999999999977
  0
LINE
  5
1D2
  8
FUTO
 10
34448.713407499497
 20
36002.13899710423
 30
0.0
 11
34448.713407499497
 21
35926.13899710423
 31
0.0
  0
LINE
  5
1D3
  8
FUTO
 10
34550.213407499497
 20
36022.13899710423
 30
0.0
 11
34478.213407499497
 21
36022.13899710423
 31
0.0
  0
LINE
  5
1D4
  8
CT
 10
33476.579585385763
 20
36036.666980311442
 30
0.0
 11
33476.579585385763
 21
35862.460205407289
 31
0.0
  0
LINE
  5
1D5
  8
FUTO
 10
33440.579585385763
 20
36022.13899710423
 30
0.0
 11
33440.579585385763
 21
36011.13899710423
 31
0.0
  0
LINE
  5
1D6
  8
FUTO
 10
33512.579585385763
 20
36022.13899710423
 30
0.0
 11
33512.579585385763
 21
36011.13899710423
 31
0.0
  0
LINE
  5
1D7
  8
FUTO
 10
33533.079585385763
 20
36011.13899710423
 30
0.0
 11
33420.079585385763
 21
36011.13899710423
 31
0.0
  0
LINE
  5
1D8
  8
FUTO
 10
33512.579585385763
 20
35887.13899710423
 30
0.0
 11
33440.579585385763
 21
35887.13899710423
 31
0.0
  0
LINE
  5
1D9
  8
FUTO
 10
33518.579585385763
 20
35893.13899710423
 30
0.0
 11
33434.579585385763
 21
35893.13899710423
 31
0.0
  0
LINE
  5
1DA
  8
FUTO
 10
33512.579585385763
 20
35882.13899710423
 30
0.0
 11
33440.579585385763
 21
35882.13899710423
 31
0.0
  0
LINE
  5
1DB
  8
FUTO
 10
33512.579585385763
 20
36017.13899710423
 30
0.0
 11
33440.579585385763
 21
36017.13899710423
 31
0.0
  0
LINE
  5
1DC
  8
FUTO
 10
33542.079585385763
 20
35926.13899710423
 30
0.0
 11
33411.079585385763
 21
35926.13899710423
 31
0.0
  0
ARC
  5
1DD
  8
FUTO
 10
33518.579585385763
 20
35900.138997104223
 30
0.0
 40
7.0
 50
270.00000000000011
 51
0.0000000000000579
  0
LINE
  5
1DE
  8
FUTO
 10
33525.579585385763
 20
35926.13899710423
 30
0.0
 11
33525.579585385763
 21
35900.138997104223
 31
0.0
  0
LINE
  5
1DF
  8
FUTO
 10
33512.579585385763
 20
35893.13899710423
 30
0.0
 11
33512.579585385763
 21
35882.13899710423
 31
0.0
  0
LINE
  5
1E0
  8
FUTO
 10
33542.079585385763
 20
36002.13899710423
 30
0.0
 11
33542.079585385763
 21
35926.13899710423
 31
0.0
  0
ARC
  5
1E1
  8
FUTO
 10
33533.079585385763
 20
36002.13899710423
 30
0.0
 40
9.0
 50
359.99999999999989
 51
90.000000000000099
  0
LINE
  5
1E2
  8
FUTO
 10
33654.695168609171
 20
35882.13899710423
 30
0.0
 11
33654.695168609171
 21
35732.13899710423
 31
0.0
  0
LINE
  5
1E3
  8
FUTO
 10
33411.079585385763
 20
36002.13899710423
 30
0.0
 11
33411.079585385763
 21
35926.13899710423
 31
0.0
  0
ARC
  5
1E4
  8
FUTO
 10
33434.579585385763
 20
35900.138997104223
 30
0.0
 40
7.0
 50
179.99999999999989
 51
269.99999999999977
  0
LINE
  5
1E5
  8
FUTO
 10
33427.579585385763
 20
35926.13899710423
 30
0.0
 11
33427.579585385763
 21
35900.138997104223
 31
0.0
  0
LINE
  5
1E6
  8
FUTO
 10
33440.579585385763
 20
35893.13899710423
 30
0.0
 11
33440.579585385763
 21
35882.13899710423
 31
0.0
  0
ARC
  5
1E7
  8
FUTO
 10
33420.079585385763
 20
36002.13899710423
 30
0.0
 40
9.0
 50
90.0
 51
180.0
  0
LINE
  5
1E8
  8
FUTO
 10
33294.695168609171
 20
35882.13899710423
 30
0.0
 11
33294.695168609171
 21
35732.13899710423
 31
0.0
  0
LINE
  5
1E9
  8
FUTO
 10
33512.579585385763
 20
36022.13899710423
 30
0.0
 11
33440.579585385763
 21
36022.13899710423
 31
0.0
  0
LINE
  5
1EC
  8
KL
 10
33729.695168609171
 20
36172.13899710423
 30
0.0
 11
33729.695168609171
 21
36022.13899710423
 31
0.0
  0
LINE
  5
1ED
  8
FUTO
 10
33654.695168609171
 20
36172.13899710423
 30
0.0
 11
33654.695168609171
 21
36022.13899710423
 31
0.0
  0
LINE
  5
1EE
  8
KL
 10
33654.695168609171
 20
36186.303891642638
 30
0.0
 11
33654.695168609171
 21
36022.13899710423
 31
0.0
  0
LINE
  5
1EF
  8
FUTO
 10
33294.695168609171
 20
36172.13899710423
 30
0.0
 11
33294.695168609171
 21
36022.13899710423
 31
0.0
  0
LINE
  5
1F0
  8
FUTO
 10
36043.575083054013
 20
41979.576721893849
 30
0.0
 11
36043.575083054013
 21
41827.576721893849
 31
0.0
  0
LINE
  5
1F1
  8
FUTO
 10
36294.695168609171
 20
42054.576721893849
 30
0.0
 11
36294.695168609171
 21
41979.576721893849
 31
0.0
  0
LINE
  5
1F2
  8
CT
 10
35854.695168609171
 20
41904.948610451967
 30
0.0
 11
35854.695168609171
 21
40361.481898847203
 31
0.0
  0
LINE
  5
1F3
  8
FUTO
 10
35054.695168609171
 20
41979.576721893849
 30
0.0
 11
35054.695168609171
 21
40607.576721893849
 31
0.0
  0
LINE
  5
1F4
  8
FUTO
 10
34979.695168609171
 20
41979.576721893849
 30
0.0
 11
34979.695168609171
 21
40682.576721893849
 31
0.0
  0
LINE
  5
1F5
  8
FUTO
 10
33729.695168609171
 20
41979.576721893849
 30
0.0
 11
33729.695168609171
 21
40682.576721893849
 31
0.0
  0
LINE
  5
1F6
  8
FUTO
 10
33654.695168609171
 20
41979.576721893849
 30
0.0
 11
33654.695168609171
 21
40607.576721893849
 31
0.0
  0
DIMENSION
  5
253
  8
SP
  2
*D16
 10
34354.695168609171
 20
39813.937013266819
 30
0.0
 11
33772.195168609171
 21
39893.937013266819
 31
0.0
 70
     0
 13
33189.695168609171
 23
39342.13899710423
 33
0.0
 14
34354.695168609171
 24
39342.404535668589
 34
0.0
 50
180.0
1001
ACAD
1000
DSTYLE
1002
{
1070
    40
1040
40.0
1002
}
  0
LINE
  5
262
  8
KL
 10
34696.74359443321
 20
37230.138997104223
 30
0.0
 11
34910.808451982863
 21
36605.896978696132
 31
0.0
  0
ARC
  5
263
  8
FUTO
 10
34354.695168609171
 20
37352.13899710423
 30
0.0
 40
480.0
 50
54.343159773977021
 51
247.74240502844651
  0
LINE
  5
264
  8
FUTO
 10
36017.91537805376
 20
36749.645399714929
 30
0.0
 11
34634.501241942751
 21
37742.149973008301
 31
0.0
  0
LINE
  5
265
  8
FUTO
 10
34654.695168609171
 20
37230.138997104223
 30
0.0
 11
34696.74359443321
 21
37230.13899710423
 31
0.0
  0
LINE
  5
267
  8
FUTO
 10
35952.695168609171
 20
37343.13899710423
 30
0.0
 11
35190.667368913309
 21
37343.13899710423
 31
0.0
  0
LINE
  5
268
  8
FUTO
 10
35952.695168609171
 20
37361.13899710423
 30
0.0
 11
35165.577857872187
 21
37361.13899710423
 31
0.0
  0
ARC
  5
269
  8
FUTO
 10
34223.695168609171
 20
37483.13899710423
 30
0.0
 40
1705.0
 50
355.89673679108768
 51
85.593459492743051
  0
ARC
  5
26A
  8
KL
 10
34223.695168609171
 20
37483.13899710423
 30
0.0
 40
1685.0
 50
4.8366232341939783
 51
84.612059138996784
  0
LINE
  5
26D
  8
FUTO
 10
35395.695168609171
 20
38721.460845413458
 30
0.0
 11
35395.695168609171
 21
37352.13899710423
 31
0.0
  0
LINE
  5
26E
  8
FUTO
 10
35404.695168609171
 20
38712.880433341939
 30
0.0
 11
35404.695168609171
 21
37352.13899710423
 31
0.0
  0
LINE
  5
26F
  8
KL
 10
35902.695168609171
 20
37352.601646127579
 30
0.0
 11
35902.695168609171
 21
37625.209402185661
 31
0.0
  0
LINE
  5
272
  8
CT
 10
35956.401583233441
 20
36972.13899710423
 30
0.0
 11
36110.698520753118
 21
36972.13899710423
 31
0.0
  0
LINE
  5
273
  8
FUTO
 10
35644.695168609171
 20
37112.13899710423
 30
0.0
 11
36034.695168609171
 21
37112.13899710423
 31
0.0
  0
LINE
  5
274
  8
FUTO
 10
35644.695168609171
 20
36847.138997104223
 30
0.0
 11
36034.695168609171
 21
36847.138997104223
 31
0.0
  0
ARC
  5
275
  8
FUTO
 10
36034.695168609171
 20
37092.13899710423
 30
0.0
 40
20.0
 50
0.000000000000007
 51
90.0
  0
ARC
  5
276
  8
FUTO
 10
36034.695168609171
 20
36867.13899710423
 30
0.0
 40
20.0
 50
270.0
 51
0.000000000000007
  0
LINE
  5
277
  8
FUTO
 10
36054.695168609171
 20
37092.13899710423
 30
0.0
 11
36054.695168609171
 21
36867.13899710423
 31
0.0
  0
ARC
  5
279
  8
FUTO
 10
35644.695168609171
 20
37092.13899710423
 30
0.0
 40
20.0
 50
90.0
 51
180.0
  0
LINE
  5
27A
  8
KL
 10
35801.048811411398
 20
36941.499085016039
 30
0.0
 11
35837.362049378069
 21
36924.565944059766
 31
0.0
  0
LINE
  5
27B
  8
CT
 10
35738.015964753693
 20
36899.172219395266
 30
0.0
 11
35844.962247989752
 21
36849.30234851109
 31
0.0
  0
LINE
  5
27C
  8
KL
 10
35850.65130986584
 20
36929.40283931273
 30
0.0
 11
35787.258570604739
 21
36793.456671257241
 31
0.0
  0
LINE
  5
27D
  8
KL
 10
35837.362049378069
 20
36924.565944059766
 30
0.0
 11
35782.421675351783
 21
36806.745931745012
 31
0.0
  0
LINE
  5
27E
  8
KL
 10
35805.274994028798
 20
36950.562162886403
 30
0.0
 11
35850.65130986584
 21
36929.40283931273
 31
0.0
  0
LINE
  5
27F
  8
KL
 10
35741.882254767697
 20
36814.6159948309
 30
0.0
 11
35787.258570604739
 21
36793.456671257241
 31
0.0
  0
LINE
  5
280
  8
KL
 10
35746.108437385112
 20
36823.679072701278
 30
0.0
 11
35782.421675351783
 21
36806.745931745012
 31
0.0
  0
ARC
  5
281
  8
FUTO
 10
35644.695168609171
 20
36867.13899710423
 30
0.0
 40
20.0
 50
180.0
 51
270.0
  0
LINE
  5
282
  8
FUTO
 10
35624.695168609171
 20
37092.13899710423
 30
0.0
 11
35624.695168609171
 21
36867.13899710423
 31
0.0
  0
LINE
  5
283
  8
FUTO
 10
35952.695168609171
 20
37361.13899710423
 30
0.0
 11
35952.695168609171
 21
37343.13899710423
 31
0.0
  0
ARC
  5
284
  8
FUTO
 10
34485.695168609171
 20
37483.13899710423
 30
0.0
 40
1443.0
 50
345.1017511652517
 51
354.43239996147793
  0
LINE
  5
285
  8
FUTO
 10
33254.695168609171
 20
37354.13899710423
 30
0.0
 11
33254.695168609171
 21
39342.13899710423
 31
0.0
  0
LINE
  5
286
  8
FUTO
 10
33189.695168609171
 20
37566.698769136558
 30
0.0
 11
33189.695168609171
 21
38594.100937881347
 31
0.0
  0
LINE
  5
287
  8
FUTO
 10
33189.695168609171
 20
37566.698769136558
 30
0.0
 11
33189.695168609171
 21
39342.13899710423
 31
0.0
  0
LINE
  5
288
  8
FUTO
 10
33195.695168609171
 20
37565.640807252312
 30
0.0
 11
33195.695168609171
 21
38600.100937881347
 31
0.0
  0
LINE
  5
289
  8
FUTO
 10
33313.695168609178
 20
39281.532634363823
 30
0.0
 11
33313.695168609171
 21
37361.13899710423
 31
0.0
  0
LINE
  5
28A
  8
FUTO
 10
33304.695168609171
 20
39282.381473711248
 30
0.0
 11
33304.695168609171
 21
37361.13899710423
 31
0.0
  0
LINE
  5
291
  8
KL
 10
34156.474354371872
 20
37325.521168434308
 30
0.0
 11
33877.451653774071
 21
37300.771424182749
 31
0.0
  0
LINE
  5
292
  8
KL
 10
34154.883970868053
 20
37343.450771896481
 30
0.0
 11
33875.861270270252
 21
37318.701027644907
 31
0.0
  0
CIRCLE
  5
295
  8
SL
 10
34354.695168609171
 20
37352.13899710423
 30
0.0
 40
355.0
  0
ARC
  5
296
  8
FUTO
 10
34302.695168609171
 20
37442.20563909781
 30
0.0
 40
15.000000000000099
 50
25.864502996822029
 51
214.135497003171
  0
ARC
  5
297
  8
FUTO
 10
34354.695168609171
 20
37352.13899710423
 30
0.0
 40
103.9999999999995
 50
68.270994006339393
 51
111.7290059936601
  0
LINE
  5
298
  8
CT
 10
34354.695168609171
 20
37475.907756268927
 30
0.0
 11
34354.695168609171
 21
37222.315273202112
 31
0.0
  0
ARC
  5
299
  8
FUTO
 10
34406.695168609171
 20
37442.20563909781
 30
0.0
 40
15.000000000000201
 50
325.8645029968294
 51
154.13549700317759
  0
ARC
  5
29E
  8
FUTO
 10
34302.695168609171
 20
37262.072355110642
 30
0.0
 40
14.99999999999998
 50
145.86450299682841
 51
334.13549700317782
  0
CIRCLE
  5
29F
  8
FUTO
 10
34354.695168609171
 20
37352.13899710423
 30
0.0
 40
41.5
  0
LINE
  5
2A0
  8
FUTO
 10
34439.695168609171
 20
37245.13899710423
 30
0.0
 11
34269.695168609171
 21
37245.13899710423
 31
0.0
  0
LINE
  5
2A2
  8
KL
 10
34012.646742785131
 20
37230.138997104223
 30
0.0
 11
34354.695168609171
 21
37230.138997104223
 31
0.0
  0
LINE
  5
2A4
  8
FUTO
 10
34478.695168609171
 20
37276.13899710423
 30
0.0
 11
34546.695168609171
 21
37276.13899710423
 31
0.0
  0
LINE
  5
2A5
  8
FUTO
 10
34559.695168609171
 20
37240.13899710423
 30
0.0
 11
34439.695168609171
 21
37240.13899710423
 31
0.0
  0
LINE
  5
2A6
  8
KL
 10
34696.74359443321
 20
37230.138997104223
 30
0.0
 11
34354.695168609171
 21
37230.138997104223
 31
0.0
  0
LINE
  5
2A7
  8
FUTO
 10
34559.695168609171
 20
37240.13899710423
 30
0.0
 11
34559.695168609171
 21
37230.138997104223
 31
0.0
  0
ARC
  5
2A8
  8
FUTO
 10
34546.695168609171
 20
37273.13899710423
 30
0.0
 40
3.0
 50
0.000000000000007
 51
90.0
  0
LINE
  5
2A9
  8
FUTO
 10
34549.695168609171
 20
37273.13899710423
 30
0.0
 11
34549.695168609171
 21
37240.13899710423
 31
0.0
  0
LINE
  5
2AA
  8
KL
 10
34554.695168609171
 20
37361.13899710423
 30
0.0
 11
34554.695168609171
 21
37343.13899710423
 31
0.0
  0
ARC
  5
2AD
  8
FUTO
 10
34354.695168609171
 20
37352.13899710423
 30
0.0
 40
104.0000000000007
 50
248.27099400633949
 51
291.72900599365971
  0
ARC
  5
2AE
  8
FUTO
 10
34458.695168609171
 20
37352.13899710423
 30
0.0
 40
15.0
 50
265.86450299682951
 51
94.135497003170499
  0
ARC
  5
2AF
  8
FUTO
 10
34478.695168609171
 20
37296.13899710423
 30
0.0
 40
20.0
 50
180.0
 51
270.0
  0
LINE
  5
2B0
  8
FUTO
 10
34439.695168609171
 20
37240.13899710423
 30
0.0
 11
34439.695168609171
 21
37245.13899710423
 31
0.0
  0
LINE
  5
2B1
  8
CT
 10
34514.695168609171
 20
37230.138997104223
 30
0.0
 11
34514.695168609171
 21
37286.13899710423
 31
0.0
  0
LINE
  5
2B2
  8
FUTO
 10
34458.695168609171
 20
37337.13899710423
 30
0.0
 11
34458.695168609171
 21
37296.13899710423
 31
0.0
  0
ARC
  5
2B3
  8
FUTO
 10
34406.695168609171
 20
37262.072355110642
 30
0.0
 40
14.999999999999719
 50
205.86450299682281
 51
34.135497003170862
  0
ARC
  5
2B4
  8
FUTO
 10
34354.695168609171
 20
37352.13899710423
 30
0.0
 40
104.0000000000002
 50
308.27099400633909
 51
351.72900599365983
  0
ARC
  5
2B5
  8
FUTO
 10
34354.695168609171
 20
37352.13899710423
 30
0.0
 40
103.9999999999998
 50
8.2709940063395706
 51
51.729005993660287
  0
LINE
  5
2B6
  8
KL
 10
34154.883970868053
 20
37343.450771896481
 30
0.0
 11
34156.474354371872
 21
37325.521168434308
 31
0.0
  0
LINE
  5
2B7
  8
FUTO
 10
34149.695168609171
 20
37230.138997104223
 30
0.0
 11
34149.695168609171
 21
37240.13899710423
 31
0.0
  0
ARC
  5
2B8
  8
FUTO
 10
34162.695168609171
 20
37273.13899710423
 30
0.0
 40
3.0
 50
90.0
 51
180.0
  0
LINE
  5
2B9
  8
FUTO
 10
34159.695168609171
 20
37240.13899710423
 30
0.0
 11
34159.695168609171
 21
37273.13899710423
 31
0.0
  0
LINE
  5
2BA
  8
CT
 10
34194.695168609171
 20
37230.138997104223
 30
0.0
 11
34194.695168609171
 21
37286.13899710423
 31
0.0
  0
LINE
  5
2BB
  8
FUTO
 10
34162.695168609171
 20
37276.13899710423
 30
0.0
 11
34230.695168609171
 21
37276.13899710423
 31
0.0
  0
LINE
  5
2BC
  8
FUTO
 10
34250.695168609171
 20
37296.13899710423
 30
0.0
 11
34250.695168609171
 21
37337.13899710423
 31
0.0
  0
ARC
  5
2BD
  8
FUTO
 10
34230.695168609171
 20
37296.13899710423
 30
0.0
 40
20.0
 50
270.0
 51
0.000000000000007
  0
LINE
  5
2BE
  8
FUTO
 10
34269.695168609171
 20
37245.13899710423
 30
0.0
 11
34269.695168609171
 21
37240.13899710423
 31
0.0
  0
LINE
  5
2BF
  8
FUTO
 10
34269.695168609171
 20
37240.13899710423
 30
0.0
 11
34149.695168609171
 21
37240.13899710423
 31
0.0
  0
ARC
  5
2C0
  8
FUTO
 10
34250.695168609171
 20
37352.13899710423
 30
0.0
 40
15.0
 50
85.864502996829515
 51
270.0
  0
ARC
  5
2C1
  8
FUTO
 10
34354.695168609171
 20
37352.13899710423
 30
0.0
 40
103.9999999999998
 50
188.27099400633949
 51
231.72900599366031
  0
ARC
  5
2C2
  8
FUTO
 10
34354.695168609171
 20
37352.13899710423
 30
0.0
 40
103.9999999999994
 50
128.27099400633961
 51
171.72900599366019
  0
INSERT
  5
2C5
  8
FUTO
  2
左回転矢印
 10
34167.260562056923
 20
38050.578070453172
 30
0.0
 41
2.0
 42
2.0
 43
2.0
  0
LINE
  5
2D0
  8
FUTO
 10
34327.640666092062
 20
37452.558387132012
 30
0.0
 11
34327.640666092062
 21
37456.13899710423
 31
0.0
  0
LINE
  5
2D1
  8
FUTO
 10
34381.749671126279
 20
37452.558387132012
 30
0.0
 11
34381.749671126279
 21
37456.13899710423
 31
0.0
  0
LINE
  5
2D2
  8
FUTO
 10
34381.749671126279
 20
37456.13899710423
 30
0.0
 11
34327.640666092062
 21
37456.13899710423
 31
0.0
  0
LINE
  5
2D3
  8
FUTO
 10
33195.695168609171
 20
37354.13899710423
 30
0.0
 11
33195.695168609171
 21
37601.487388044363
 31
0.0
  0
LINE
  5
2D4
  8
FUTO
 10
33189.695168609171
 20
37354.13899710423
 30
0.0
 11
33189.695168609171
 21
37602.82597120331
 31
0.0
  0
LINE
  5
2D5
  8
FUTO
 10
33189.695168609171
 20
37354.13899710423
 30
0.0
 11
33189.695168609171
 21
37548.421090122611
 31
0.0
  0
ARC
  5
2D6
  8
KL
 10
34244.195168609171
 20
37241.63899710423
 30
0.0
 40
960.5
 50
144.2993633955663
 51
180.0
  0
LINE
  5
2D8
  8
FUTO
 10
33274.59867944922
 20
37403.13899710423
 30
0.0
 11
33189.695168609171
 21
37403.13899710423
 31
0.0
  0
LINE
  5
2D9
  8
FUTO
 10
33254.695168609171
 20
37354.13899710423
 30
0.0
 11
33189.695168609171
 21
37354.13899710423
 31
0.0
  0
LINE
  5
2DA
  8
FUTO
 10
33254.695168609171
 20
37354.13899710423
 30
0.0
 11
33189.695168609171
 21
37354.13899710423
 31
0.0
  0
LINE
  5
2DB
  8
KL
 10
33300.999536727853
 20
37423.13899710423
 30
0.0
 11
33189.695168609171
 21
37423.13899710423
 31
0.0
  0
LINE
  5
2DC
  8
FUTO
 10
33166.927878202128
 20
37255.817541435783
 30
0.0
 11
33164.51821749907
 21
37237.533127877861
 31
0.0
  0
LINE
  5
2DD
  8
FUTO
 10
33189.695168609171
 20
39293.227754261832
 30
0.0
 11
34383.792577658482
 21
39180.605880320421
 31
0.0
  0
LINE
  5
2DE
  8
KL
 10
33189.695168609171
 20
39273.13899710423
 30
0.0
 11
34381.914602185752
 21
39160.694245326682
 31
0.0
  0
LINE
  5
2E3
  8
FUTO
 10
33195.695168609171
 20
38600.100937881347
 30
0.0
 11
33195.695168609171
 21
39342.13899710423
 31
0.0
  0
LINE
  5
2E4
  8
FUTO
 10
33254.695168609171
 20
39342.13899710423
 30
0.0
 11
33189.695168609171
 21
39342.13899710423
 31
0.0
  0
LINE
  5
2FF
  8
FUTO
 10
36294.695168609171
 20
40682.576721893849
 30
0.0
 11
33654.695168609171
 21
40682.576721893849
 31
0.0
  0
LINE
  5
300
  8
FUTO
 10
36294.695168609171
 20
40607.576721893849
 30
0.0
 11
33654.695168609171
 21
40607.576721893849
 31
0.0
  0
LINE
  5
3C8
  8
FUTO
 10
35908.695168609171
 20
43382.576721893849
 30
0.0
 11
33189.695168609171
 21
43382.576721893849
 31
0.0
  0
LINE
  5
3C9
  8
FUTO
 10
35414.695168609171
 20
42054.576721893849
 30
0.0
 11
33189.695168609171
 21
42054.576721893849
 31
0.0
  0
LINE
  5
3CA
  8
FUTO
 10
35414.695168609171
 20
41979.576721893849
 30
0.0
 11
33294.695168609171
 21
41979.576721893849
 31
0.0
  0
LINE
  5
3CB
  8
FUTO
 10
35414.695168609171
 20
43457.576721893849
 30
0.0
 11
33294.695168609171
 21
43457.576721893849
 31
0.0
  0
LINE
  5
3DA
  8
FUTO
 10
36294.695168609171
 20
41979.576721893849
 30
0.0
 11
35054.695168609171
 21
41979.576721893849
 31
0.0
  0
LINE
  5
3DB
  8
FUTO
 10
36294.695168609171
 20
42054.576721893849
 30
0.0
 11
35958.695168609171
 21
42054.576721893849
 31
0.0
  0
LINE
  5
406
  8
FUTO
 10
33294.695168609171
 20
41979.576721893849
 30
0.0
 11
33294.695168609178
 21
42004.576721893849
 31
0.0
  0
LINE
  5
438
  8
SL
 10
37265.270613569352
 20
37630.512797104231
 30
0.0
 11
37265.270613569352
 21
36630.512797104231
 31
0.0
  0
LINE
  5
439
  8
SL
 10
37095.270613569352
 20
37630.512797104231
 30
0.0
 11
37095.270613569352
 21
36630.512797104231
 31
0.0
  0
LINE
  5
43A
  8
CT
 10
39395.270613569352
 20
39533.881393435971
 30
0.0
 11
39395.270613569352
 21
35711.211928504308
 31
0.0
  0
LINE
  5
43C
  8
FUTO
 10
40058.470613569349
 20
36172.138980498239
 30
0.0
 11
40058.470613569349
 21
37419.212797104228
 31
0.0
  0
LINE
  5
43D
  8
FUTO
 10
40055.270613569359
 20
36172.138980498239
 30
0.0
 11
40055.270613569359
 21
37419.212797104228
 31
0.0
  0
LINE
  5
43E
  8
FUTO
 10
38735.270613569359
 20
36172.138980498239
 30
0.0
 11
38735.270613569359
 21
37419.212797104228
 31
0.0
  0
LINE
  5
43F
  8
FUTO
 10
38732.070613569362
 20
36172.138980498239
 30
0.0
 11
38732.070613569362
 21
37419.212797104228
 31
0.0
  0
LINE
  5
441
  8
FUTO
 10
37295.270613569359
 20
37730.512797104231
 30
0.0
 11
37295.270613569359
 21
36270.512797104231
 31
0.0
  0
LINE
  5
442
  8
FUTO
 10
36945.270613569352
 20
37730.512797104231
 30
0.0
 11
36945.270613569352
 21
36270.512797104231
 31
0.0
  0
LINE
  5
445
  8
FUTO
 10
38345.270613569352
 20
37200.512797104231
 30
0.0
 11
38345.270613569352
 21
37190.512797104231
 31
0.0
  0
LINE
  5
446
  8
FUTO
 10
38525.270613569359
 20
37200.512797104231
 30
0.0
 11
38525.270613569359
 21
36172.138980498239
 31
0.0
  0
LINE
  5
449
  8
FUTO
 10
37524.270613569352
 20
37228.512797104231
 30
0.0
 11
37524.270613569352
 21
37190.512797104238
 31
0.0
  0
LINE
  5
44A
  8
FUTO
 10
37344.270613569359
 20
37228.512797104231
 30
0.0
 11
37344.270613569359
 21
36830.512797104231
 31
0.0
  0
DIMENSION
  5
44B
  8
SP
  2
*D17
 10
40770.278755781081
 20
36450.512797104231
 30
0.0
 11
40690.278755781073
 21
37350.512797104238
 31
0.0
 70
     0
  1
%%C<>
 13
40190.270613569352
 23
38250.512797104231
 33
0.0
 14
40190.270613569352
 24
36450.512797104231
 34
0.0
 50
90.0
1001
ACAD
1000
DSTYLE
1002
{
1070
    40
1040
40.0
1002
}
  0
LINE
  5
461
  8
KL
 10
40064.470613569363
 20
38315.512797104231
 30
0.0
 11
40064.470613569363
 21
36385.512797104231
 31
0.0
  0
LINE
  5
462
  8
FUTO
 10
40184.270613569359
 20
38315.512797104231
 30
0.0
 11
40184.270613569359
 21
36385.512797104231
 31
0.0
  0
LINE
  5
463
  8
FUTO
 10
40190.270613569352
 20
38315.512797104231
 30
0.0
 11
40190.270613569352
 21
36385.512797104231
 31
0.0
  0
LINE
  5
464
  8
FUTO
 10
38642.070613569347
 20
37325.493641798479
 30
0.0
 11
38642.070613569362
 21
36172.138980498239
 31
0.0
  0
LINE
  5
465
  8
FUTO
 10
40148.470613569363
 20
37325.493641798479
 30
0.0
 11
40148.470613569363
 21
36172.138980498239
 31
0.0
  0
LINE
  5
46B
  8
FUTO
 10
38656.270613569352
 20
35870.138980498239
 30
0.0
 11
40059.266613569351
 21
35870.138980498239
 31
0.0
  0
LINE
  5
46C
  8
FUTO
 10
38656.270613569352
 20
35744.138980498246
 30
0.0
 11
40059.266613569351
 21
35744.138980498246
 31
0.0
  0
LINE
  5
46D
  8
FUTO
 10
38656.270613569352
 20
36034.138980498239
 30
0.0
 11
40059.266613569351
 21
36034.138980498239
 31
0.0
  0
LINE
  5
46E
  8
FUTO
 10
38656.270613569352
 20
36160.138980498239
 30
0.0
 11
40059.266613569351
 21
36160.138980498239
 31
0.0
  0
LINE
  5
46F
  8
KL
 10
38735.270613569359
 20
36058.512797104231
 30
0.0
 11
40055.270613569359
 21
36058.512797104231
 31
0.0
  0
LINE
  5
470
  8
FUTO
 10
37284.27461356936
 20
35882.138980498239
 30
0.0
 11
40139.270613569359
 21
35882.138980498239
 31
0.0
1001
ACAD
1000
ASC_BOUNDS
1002
{
1070
    19
1002
}
  0
LINE
  5
471
  8
FUTO
 10
37284.270613569352
 20
36022.138980498239
 30
0.0
 11
40134.270613569359
 21
36022.138980498239
 31
0.0
1001
ACAD
1000
ASC_BOUNDS
1002
{
1070
    19
1005
0
1005
0
1005
0
1002
}
  0
DIMENSION
  5
472
  8
SP
  2
*D20
 10
39395.270613569352
 20
35292.658367733929
 30
0.0
 11
38339.770613569359
 21
35372.658367733929
 31
0.0
 70
     0
 13
37284.270613569352
 23
35732.138980498239
 33
0.0
 14
39395.270613569352
 24
35711.211928504308
 34
0.0
1001
ACAD
1000
DSTYLE
1002
{
1070
    40
1040
40.0
1002
}
  0
DIMENSION
  5
47F
  8
SP
  2
*D19
 10
40134.270613569359
 20
34992.620822769
 30
0.0
 11
38709.270613569352
 21
35072.620822769
 31
0.0
 70
     0
 13
37284.270613569352
 23
35732.138980498239
 33
0.0
 14
40134.270613569359
 24
35732.138980498239
 34
0.0
1001
ACAD
1000
DSTYLE
1002
{
1070
    40
1040
40.0
1002
}
  0
LINE
  5
48C
  8
FUTO
 10
37284.270613569352
 20
35732.138980498239
 30
0.0
 11
40134.266613569358
 21
35732.138980498239
 31
0.0
  0
LINE
  5
48D
  8
FUTO
 10
37284.270613569352
 20
36172.138980498239
 30
0.0
 11
40148.470613569363
 21
36172.138980498239
 31
0.0
  0
LINE
  5
48E
  8
CT
 10
36886.96134202044
 20
36520.512797104231
 30
0.0
 11
37467.463874876557
 21
36520.512797104231
 31
0.0
  0
LINE
  5
48F
  8
FUTO
 10
37253.77461356936
 20
35924.512797104231
 30
0.0
 11
37384.77461356936
 21
35924.512797104231
 31
0.0
  0
ARC
  5
490
  8
FUTO
 10
37375.77461356936
 20
36000.512797104231
 30
0.0
 40
9.0
 50
0.0
 51
90.0
  0
LINE
  5
491
  8
FUTO
 10
37359.274613569352
 20
35744.138980498246
 30
0.0
 11
38638.380718174871
 21
35744.138980498246
 31
0.0
  0
LINE
  5
492
  8
FUTO
 10
37359.274613569352
 20
35870.138980498239
 30
0.0
 11
38638.380718174871
 21
35870.138980498239
 31
0.0
  0
LINE
  5
493
  8
FUTO
 10
37359.274613569352
 20
36160.138980498239
 30
0.0
 11
38638.380718174871
 21
36160.138980498239
 31
0.0
  0
LINE
  5
494
  8
FUTO
 10
37359.274613569352
 20
36034.138980498239
 30
0.0
 11
38638.380718174871
 21
36034.138980498239
 31
0.0
  0
LINE
  5
495
  8
CT
 10
37319.274613569352
 20
36035.04078031145
 30
0.0
 11
37319.274613569352
 21
35860.834005407291
 31
0.0
  0
LINE
  5
496
  8
FUTO
 10
37362.77461356936
 20
36020.512797104231
 30
0.0
 11
37362.77461356936
 21
36009.512797104231
 31
0.0
  0
LINE
  5
497
  8
FUTO
 10
37357.77461356936
 20
36020.512797104231
 30
0.0
 11
37357.77461356936
 21
36015.512797104231
 31
0.0
  0
LINE
  5
498
  8
FUTO
 10
37275.77461356936
 20
36020.512797104231
 30
0.0
 11
37275.77461356936
 21
36009.512797104231
 31
0.0
  0
LINE
  5
499
  8
FUTO
 10
37280.77461356936
 20
36020.512797104231
 30
0.0
 11
37280.77461356936
 21
36015.512797104231
 31
0.0
  0
LINE
  5
49A
  8
FUTO
 10
37262.77461356936
 20
36009.512797104231
 30
0.0
 11
37375.77461356936
 21
36009.512797104231
 31
0.0
  0
LINE
  5
49B
  8
FUTO
 10
37280.77461356936
 20
35885.512797104231
 30
0.0
 11
37280.77461356936
 21
35880.512797104231
 31
0.0
  0
LINE
  5
49C
  8
FUTO
 10
37275.77461356936
 20
35891.675399938642
 30
0.0
 11
37275.77461356936
 21
35880.512797104231
 31
0.0
  0
LINE
  5
49D
  8
FUTO
 10
37275.77461356936
 20
35880.512797104231
 30
0.0
 11
37280.77461356936
 21
35880.512797104231
 31
0.0
  0
LINE
  5
49E
  8
FUTO
 10
37357.77461356936
 20
35885.512797104231
 30
0.0
 11
37357.77461356936
 21
35880.512797104231
 31
0.0
  0
LINE
  5
49F
  8
FUTO
 10
37357.77461356936
 20
35880.512797104231
 30
0.0
 11
37362.77461356936
 21
35880.512797104231
 31
0.0
  0
LINE
  5
4A0
  8
FUTO
 10
37362.77461356936
 20
35891.675399938642
 30
0.0
 11
37362.77461356936
 21
35880.512797104231
 31
0.0
  0
LINE
  5
4A1
  8
FUTO
 10
37280.77461356936
 20
35885.512797104231
 30
0.0
 11
37357.77461356936
 21
35885.512797104231
 31
0.0
  0
LINE
  5
4A2
  8
FUTO
 10
37368.27461356936
 20
35924.512797104231
 30
0.0
 11
37368.27461356936
 21
35898.512797104231
 31
0.0
  0
ARC
  5
4A3
  8
FUTO
 10
37361.274613569352
 20
35898.512797104231
 30
0.0
 40
7.0
 50
270.00000000000011
 51
0.0000000000000254
  0
LINE
  5
4A4
  8
FUTO
 10
37277.27461356936
 20
35891.512797104231
 30
0.0
 11
37361.274613569352
 21
35891.512797104231
 31
0.0
  0
LINE
  5
4A5
  8
FUTO
 10
37270.27461356936
 20
35924.512797104231
 30
0.0
 11
37270.27461356936
 21
35898.512797104231
 31
0.0
  0
ARC
  5
4A6
  8
FUTO
 10
37277.27461356936
 20
35898.512797104231
 30
0.0
 40
7.0
 50
179.99999999999989
 51
269.99999999999977
  0
ARC
  5
4A7
  8
FUTO
 10
37262.77461356936
 20
36000.512797104231
 30
0.0
 40
9.0
 50
89.999999999999915
 51
180.0
  0
LINE
  5
4A8
  8
FUTO
 10
37253.77461356936
 20
36000.512797104231
 30
0.0
 11
37253.77461356936
 21
35924.512797104231
 31
0.0
  0
LINE
  5
4A9
  8
FUTO
 10
37280.77461356936
 20
36015.512797104231
 30
0.0
 11
37357.77461356936
 21
36015.512797104231
 31
0.0
  0
LINE
  5
4AA
  8
FUTO
 10
37359.274613569352
 20
35882.138980498239
 30
0.0
 11
37359.274613569352
 21
35732.138980498239
 31
0.0
  0
LINE
  5
4AB
  8
FUTO
 10
37359.274613569352
 20
35732.138980498239
 30
0.0
 11
37284.27461356936
 21
35732.138980498239
 31
0.0
  0
LINE
  5
4AC
  8
FUTO
 10
37349.123236540348
 20
35744.816013127711
 30
0.0
 11
37287.925990598371
 21
35739.461947868782
 31
0.0
  0
LINE
  5
4AD
  8
FUTO
 10
37359.274613569352
 20
35882.138980498239
 30
0.0
 11
37284.27461356936
 21
35882.138980498239
 31
0.0
1001
ACAD
1000
ASC_BOUNDS
1002
{
1070
    19
1002
}
  0
LINE
  5
4AE
  8
FUTO
 10
37349.123236540348
 20
35869.461947868782
 30
0.0
 11
37287.925990598371
 21
35874.816013127711
 31
0.0
  0
LINE
  5
4AF
  8
FUTO
 10
37352.77461356936
 20
35865.477169076417
 30
0.0
 11
37352.77461356936
 21
35748.800791920068
 31
0.0
  0
ARC
  5
4B0
  8
FUTO
 10
37348.77461356936
 20
35748.800791920068
 30
0.0
 40
4.0
 50
274.99999999999972
 51
0.0
  0
LINE
  5
4B1
  8
FUTO
 10
37359.274613569352
 20
35882.138980498239
 30
0.0
 11
37359.274613569352
 21
35732.138980498239
 31
0.0
  0
ARC
  5
4B2
  8
FUTO
 10
37348.77461356936
 20
35865.477169076417
 30
0.0
 40
4.0
 50
0.0
 51
85.000000000000256
  0
ARC
  5
4B3
  8
FUTO
 10
37288.27461356936
 20
35735.47716907641
 30
0.0
 40
4.0
 50
95.000000000000185
 51
180.0
  0
LINE
  5
4B4
  8
FUTO
 10
37284.27461356936
 20
35732.138980498239
 30
0.0
 11
37284.27461356936
 21
35735.47716907641
 31
0.0
  0
LINE
  5
4B5
  8
FUTO
 10
37284.27461356936
 20
35882.138980498239
 30
0.0
 11
37284.27461356936
 21
35878.800791920068
 31
0.0
  0
ARC
  5
4B6
  8
FUTO
 10
37288.27461356936
 20
35878.800791920068
 30
0.0
 40
4.0
 50
180.0
 51
264.99999999999977
  0
ARC
  5
4B7
  8
FUTO
 10
37289.270613569359
 20
35734.560980498252
 30
0.0
 40
5.0
 50
95.001000000000005
 51
180.00099999999989
  0
LINE
  5
4B8
  8
FUTO
 10
37288.837613569347
 20
35739.541980498238
 30
0.0
 11
37343.641613569358
 21
35744.338980498243
 31
0.0
  0
LINE
  5
4B9
  8
FUTO
 10
37284.270613569352
 20
35732.138980498239
 30
0.0
 11
37284.270613569352
 21
35734.560980498252
 31
0.0
  0
LINE
  5
4BA
  8
FUTO
 10
37284.270613569352
 20
35732.138980498239
 30
0.0
 11
37359.270613569359
 21
35732.138980498239
 31
0.0
  0
LINE
  5
4BB
  8
SL
 10
37265.270613569352
 20
36630.512797104231
 30
0.0
 11
37265.270613569352
 21
36380.512797104231
 31
0.0
  0
LINE
  5
4BC
  8
SL
 10
37095.270613569352
 20
36630.512797104231
 30
0.0
 11
37095.270613569352
 21
36380.512797104231
 31
0.0
  0
LINE
  5
4BD
  8
SL
 10
37095.270613569352
 20
36380.512797104231
 30
0.0
 11
37265.270613569352
 21
36380.512797104231
 31
0.0
  0
LINE
  5
4BE
  8
FUTO
 10
36945.270613569352
 20
36270.512797104231
 30
0.0
 11
37295.270613569359
 21
36270.512797104231
 31
0.0
  0
LINE
  5
4BF
  8
FUTO
 10
37357.77461356936
 20
36020.512797104231
 30
0.0
 11
37362.77461356936
 21
36020.512797104231
 31
0.0
  0
LINE
  5
4C0
  8
FUTO
 10
37275.77461356936
 20
36020.512797104231
 30
0.0
 11
37280.77461356936
 21
36020.512797104231
 31
0.0
  0
LINE
  5
4C1
  8
FUTO
 10
37284.270613569352
 20
36022.138980498239
 30
0.0
 11
37359.270613569359
 21
36022.138980498239
 31
0.0
  0
LINE
  5
4C2
  8
FUTO
 10
37284.270613569352
 20
36022.138980498239
 30
0.0
 11
37284.270613569352
 21
36024.560980498252
 31
0.0
  0
LINE
  5
4C3
  8
FUTO
 10
37288.837613569347
 20
36029.541980498238
 30
0.0
 11
37343.641613569358
 21
36034.338980498243
 31
0.0
  0
ARC
  5
4C4
  8
FUTO
 10
37288.27461356936
 20
36168.800791920068
 30
0.0
 40
4.0
 50
180.0
 51
264.99999999999977
  0
LINE
  5
4C5
  8
FUTO
 10
37284.27461356936
 20
36172.138980498239
 30
0.0
 11
37284.27461356936
 21
36168.800791920068
 31
0.0
  0
LINE
  5
4C6
  8
FUTO
 10
37284.27461356936
 20
36022.138980498239
 30
0.0
 11
37284.27461356936
 21
36025.477169076417
 31
0.0
  0
ARC
  5
4C7
  8
FUTO
 10
37288.27461356936
 20
36025.477169076417
 30
0.0
 40
4.0
 50
95.000000000000185
 51
180.0
  0
ARC
  5
4C8
  8
FUTO
 10
37348.77461356936
 20
36155.47716907641
 30
0.0
 40
4.0
 50
0.0
 51
85.000000000000256
  0
LINE
  5
4C9
  8
FUTO
 10
37359.274613569352
 20
36172.138980498239
 30
0.0
 11
37359.274613569352
 21
36022.138980498239
 31
0.0
  0
ARC
  5
4CA
  8
FUTO
 10
37348.77461356936
 20
36038.800791920068
 30
0.0
 40
4.0
 50
274.99999999999972
 51
0.0
  0
LINE
  5
4CB
  8
FUTO
 10
37352.77461356936
 20
36155.47716907641
 30
0.0
 11
37352.77461356936
 21
36038.800791920068
 31
0.0
  0
LINE
  5
4CC
  8
FUTO
 10
37349.123236540348
 20
36159.461947868782
 30
0.0
 11
37287.925990598371
 21
36164.816013127711
 31
0.0
  0
LINE
  5
4CD
  8
FUTO
 10
37359.274613569352
 20
36172.138980498239
 30
0.0
 11
37284.27461356936
 21
36172.138980498239
 31
0.0
  0
LINE
  5
4CE
  8
FUTO
 10
37349.123236540348
 20
36034.816013127711
 30
0.0
 11
37287.925990598371
 21
36029.461947868782
 31
0.0
  0
LINE
  5
4CF
  8
FUTO
 10
37359.274613569352
 20
36022.138980498239
 30
0.0
 11
37284.27461356936
 21
36022.138980498239
 31
0.0
  0
LINE
  5
4D0
  8
FUTO
 10
37359.274613569352
 20
36172.138980498239
 30
0.0
 11
37359.274613569352
 21
36022.138980498239
 31
0.0
  0
LINE
  5
4D1
  8
SL
 10
37095.270613569352
 20
36660.512797104231
 30
0.0
 11
37265.270613569352
 21
36660.512797104231
 31
0.0
  0
LINE
  5
4D4
  8
FUTO
 10
37384.77461356936
 20
36000.512797104231
 30
0.0
 11
37384.77461356936
 21
35924.512797104231
 31
0.0
  0
LINE
  5
4D5
  8
CT
 10
38616.270613569352
 20
36035.04078031145
 30
0.0
 11
38616.270613569352
 21
35860.834005407291
 31
0.0
  0
LINE
  5
4D6
  8
FUTO
 10
38659.770613569359
 20
36020.512797104231
 30
0.0
 11
38659.770613569359
 21
36009.512797104231
 31
0.0
  0
LINE
  5
4D7
  8
FUTO
 10
38654.770613569359
 20
36020.512797104231
 30
0.0
 11
38654.770613569359
 21
36015.512797104231
 31
0.0
  0
LINE
  5
4D8
  8
FUTO
 10
38572.770613569359
 20
36020.512797104231
 30
0.0
 11
38572.770613569359
 21
36009.512797104231
 31
0.0
  0
LINE
  5
4D9
  8
FUTO
 10
38577.770613569352
 20
36020.512797104231
 30
0.0
 11
38577.770613569352
 21
36015.512797104231
 31
0.0
  0
LINE
  5
4DA
  8
FUTO
 10
38654.770613569359
 20
35880.512797104231
 30
0.0
 11
38659.770613569359
 21
35880.512797104231
 31
0.0
  0
LINE
  5
4DB
  8
FUTO
 10
38574.270613569352
 20
35891.512797104231
 30
0.0
 11
38658.270613569352
 21
35891.512797104231
 31
0.0
  0
LINE
  5
4DC
  8
1
 10
38582.071613569351
 20
35732.138980498239
 30
0.0
 11
38657.071613569351
 21
35732.138980498239
 31
0.0
  0
LINE
  5
4DD
  8
FUTO
 10
38559.770613569359
 20
36009.512797104231
 30
0.0
 11
38672.770613569359
 21
36009.512797104231
 31
0.0
  0
LINE
  5
4DE
  8
FUTO
 10
38550.770613569359
 20
35924.512797104231
 30
0.0
 11
38681.770613569359
 21
35924.512797104231
 31
0.0
  0
LINE
  5
4DF
  8
FUTO
 10
38577.770613569352
 20
35885.512797104231
 30
0.0
 11
38577.770613569352
 21
35880.512797104231
 31
0.0
  0
LINE
  5
4E0
  8
FUTO
 10
38572.770613569359
 20
35891.675399938642
 30
0.0
 11
38572.770613569359
 21
35880.512797104231
 31
0.0
  0
LINE
  5
4E1
  8
FUTO
 10
38572.770613569359
 20
35880.512797104231
 30
0.0
 11
38577.770613569352
 21
35880.512797104231
 31
0.0
  0
LINE
  5
4E2
  8
FUTO
 10
38654.770613569359
 20
35885.512797104231
 30
0.0
 11
38654.770613569359
 21
35880.512797104231
 31
0.0
  0
LINE
  5
4E3
  8
FUTO
 10
38577.770613569352
 20
35885.512797104231
 30
0.0
 11
38654.770613569359
 21
35885.512797104231
 31
0.0
  0
LINE
  5
4E4
  8
FUTO
 10
38567.270613569359
 20
35924.512797104231
 30
0.0
 11
38567.270613569359
 21
35898.512797104231
 31
0.0
  0
ARC
  5
4E5
  8
FUTO
 10
38574.270613569352
 20
35898.512797104231
 30
0.0
 40
7.0
 50
179.99999999999989
 51
269.99999999999977
  0
ARC
  5
4E6
  8
FUTO
 10
38559.770613569359
 20
36000.512797104231
 30
0.0
 40
9.0
 50
89.999999999999915
 51
180.0
  0
LINE
  5
4E7
  8
FUTO
 10
38550.770613569359
 20
36000.512797104231
 30
0.0
 11
38550.770613569359
 21
35924.512797104231
 31
0.0
  0
LINE
  5
4E8
  8
FUTO
 10
38577.770613569352
 20
36015.512797104231
 30
0.0
 11
38654.770613569359
 21
36015.512797104231
 31
0.0
  0
LINE
  5
4E9
  8
FUTO
 10
38656.270613569352
 20
35732.138980498239
 30
0.0
 11
38581.270613569359
 21
35732.138980498239
 31
0.0
  0
LINE
  5
4EA
  8
FUTO
 10
38646.119236540348
 20
35744.816013127711
 30
0.0
 11
38584.92199059837
 21
35739.461947868782
 31
0.0
  0
LINE
  5
4EB
  8
FUTO
 10
38581.266613569351
 20
35732.138980498239
 30
0.0
 11
38656.266613569358
 21
35732.138980498239
 31
0.0
  0
LINE
  5
4EC
  8
FUTO
 10
38656.270613569352
 20
35882.138980498239
 30
0.0
 11
38581.270613569359
 21
35882.138980498239
 31
0.0
  0
LINE
  5
4ED
  8
FUTO
 10
38646.119236540348
 20
35869.461947868782
 30
0.0
 11
38584.92199059837
 21
35874.816013127711
 31
0.0
  0
ARC
  5
4EE
  8
FUTO
 10
38585.270613569359
 20
35735.47716907641
 30
0.0
 40
4.0
 50
95.000000000000185
 51
180.0
  0
LINE
  5
4EF
  8
FUTO
 10
38581.270613569359
 20
35732.138980498239
 30
0.0
 11
38581.270613569359
 21
35735.47716907641
 31
0.0
  0
LINE
  5
4F0
  8
FUTO
 10
38581.266613569351
 20
35732.138980498239
 30
0.0
 11
38581.266613569351
 21
35734.560980498252
 31
0.0
  0
LINE
  5
4F1
  8
FUTO
 10
38581.270613569359
 20
35882.138980498239
 30
0.0
 11
38581.270613569359
 21
35878.800791920068
 31
0.0
  0
ARC
  5
4F2
  8
FUTO
 10
38585.270613569359
 20
35878.800791920068
 30
0.0
 40
4.0
 50
180.0
 51
264.99999999999972
  0
LINE
  5
4F3
  8
FUTO
 10
38585.833613569353
 20
35739.541980498238
 30
0.0
 11
38640.637613569357
 21
35744.338980498243
 31
0.0
  0
LINE
  5
4F4
  8
FUTO
 10
38656.270613569352
 20
35882.138980498239
 30
0.0
 11
38656.270613569352
 21
35732.138980498239
 31
0.0
  0
LINE
  5
4F5
  8
FUTO
 10
38649.770613569359
 20
35865.477169076417
 30
0.0
 11
38649.770613569359
 21
35748.800791920068
 31
0.0
  0
LINE
  5
4F6
  8
FUTO
 10
38656.270613569352
 20
35882.138980498239
 30
0.0
 11
38656.270613569352
 21
35732.138980498239
 31
0.0
  0
ARC
  5
4F7
  8
FUTO
 10
38645.770613569359
 20
35748.800791920068
 30
0.0
 40
4.0
 50
275.0
 51
0.0
  0
ARC
  5
4F8
  8
FUTO
 10
38645.770613569359
 20
35865.477169076417
 30
0.0
 40
4.0
 50
0.0
 51
84.999999999999957
  0
ARC
  5
4F9
  8
FUTO
 10
38672.770613569359
 20
36000.512797104231
 30
0.0
 40
9.0
 50
0.0
 51
90.0
  0
LINE
  5
4FA
  8
FUTO
 10
38681.770613569359
 20
36000.512797104231
 30
0.0
 11
38681.770613569359
 21
35924.512797104231
 31
0.0
  0
LINE
  5
4FB
  8
FUTO
 10
38659.770613569359
 20
35891.675399938642
 30
0.0
 11
38659.770613569359
 21
35880.512797104231
 31
0.0
  0
LINE
  5
4FC
  8
FUTO
 10
38665.270613569359
 20
35924.512797104231
 30
0.0
 11
38665.270613569359
 21
35898.512797104231
 31
0.0
  0
ARC
  5
4FD
  8
FUTO
 10
38658.270613569352
 20
35898.512797104231
 30
0.0
 40
7.0
 50
270.00000000000011
 51
0.0000000000000254
  0
LINE
  5
4FE
  8
FUTO
 10
38654.770613569359
 20
36020.512797104231
 30
0.0
 11
38659.770613569359
 21
36020.512797104231
 31
0.0
  0
LINE
  5
4FF
  8
1
 10
38582.071613569351
 20
36022.138980498239
 30
0.0
 11
38657.071613569351
 21
36022.138980498239
 31
0.0
  0
LINE
  5
500
  8
FUTO
 10
38572.770613569359
 20
36020.512797104231
 30
0.0
 11
38577.770613569352
 21
36020.512797104231
 31
0.0
  0
LINE
  5
501
  8
FUTO
 10
38656.270613569352
 20
36172.138980498239
 30
0.0
 11
38581.270613569359
 21
36172.138980498239
 31
0.0
  0
LINE
  5
502
  8
FUTO
 10
38646.119236540348
 20
36159.461947868782
 30
0.0
 11
38584.92199059837
 21
36164.816013127711
 31
0.0
  0
ARC
  5
503
  8
FUTO
 10
38645.770613569359
 20
36155.47716907641
 30
0.0
 40
4.0
 50
0.0
 51
84.999999999999957
  0
LINE
  5
504
  8
FUTO
 10
38581.270613569359
 20
36172.138980498239
 30
0.0
 11
38581.270613569359
 21
36168.800791920068
 31
0.0
  0
ARC
  5
505
  8
FUTO
 10
38585.270613569359
 20
36168.800791920068
 30
0.0
 40
4.0
 50
180.0
 51
264.99999999999972
  0
LINE
  5
506
  8
FUTO
 10
38656.270613569352
 20
36022.138980498239
 30
0.0
 11
38581.270613569359
 21
36022.138980498239
 31
0.0
  0
LINE
  5
507
  8
FUTO
 10
38646.119236540348
 20
36034.816013127711
 30
0.0
 11
38584.92199059837
 21
36029.461947868782
 31
0.0
  0
ARC
  5
508
  8
FUTO
 10
38645.770613569359
 20
36038.800791920068
 30
0.0
 40
4.0
 50
275.0
 51
0.0
  0
ARC
  5
509
  8
FUTO
 10
38585.270613569359
 20
36025.477169076417
 30
0.0
 40
4.0
 50
95.000000000000185
 51
180.0
  0
LINE
  5
50A
  8
FUTO
 10
38581.270613569359
 20
36022.138980498239
 30
0.0
 11
38581.270613569359
 21
36025.477169076417
 31
0.0
  0
LINE
  5
50B
  8
FUTO
 10
38581.266613569351
 20
36022.138980498239
 30
0.0
 11
38581.266613569351
 21
36024.560980498252
 31
0.0
  0
LINE
  5
50C
  8
FUTO
 10
38585.833613569353
 20
36029.541980498238
 30
0.0
 11
38640.637613569357
 21
36034.338980498243
 31
0.0
  0
LINE
  5
50D
  8
FUTO
 10
38581.266613569351
 20
36022.138980498239
 30
0.0
 11
38656.266613569358
 21
36022.138980498239
 31
0.0
  0
LINE
  5
50E
  8
FUTO
 10
38656.270613569352
 20
36172.138980498239
 30
0.0
 11
38656.270613569352
 21
36022.138980498239
 31
0.0
  0
LINE
  5
50F
  8
FUTO
 10
38649.770613569359
 20
36155.47716907641
 30
0.0
 11
38649.770613569359
 21
36038.800791920068
 31
0.0
  0
LINE
  5
510
  8
FUTO
 10
38656.270613569352
 20
36172.138980498239
 30
0.0
 11
38656.270613569352
 21
36022.138980498239
 31
0.0
  0
LINE
  5
511
  8
FUTO
 10
38732.070613569362
 20
36043.512797104231
 30
0.0
 11
38735.270613569359
 21
36043.512797104231
 31
0.0
  0
LINE
  5
512
  8
KL
 10
38732.070613569362
 20
36043.512797104231
 30
0.0
 11
38732.070613569362
 21
36172.138980498239
 31
0.0
  0
LINE
  5
513
  8
KL
 10
38735.270613569359
 20
36043.512797104231
 30
0.0
 11
38735.270613569359
 21
36172.138980498239
 31
0.0
  0
DIMENSION
  5
517
  8
SP
  2
*D18
 10
40134.270613569359
 20
35292.658367733929
 30
0.0
 11
39764.770613569359
 21
35372.658367733929
 31
0.0
 70
     0
 13
39395.270613569352
 23
35711.211928504308
 33
0.0
 14
40134.270613569359
 24
35732.138980498239
 34
0.0
1001
ACAD
1000
DSTYLE
1002
{
1070
   287
1070
     4
1070
    40
1040
40.0
1070
    75
1070
     1
1070
   279
1070
     1
1070
   289
1070
     3
1002
}
  0
LINE
  5
525
  8
FUTO
 10
40060.770613569352
 20
36020.512797104231
 30
0.0
 11
40060.770613569352
 21
36015.512797104231
 31
0.0
  0
LINE
  5
526
  8
FUTO
 10
40055.770613569359
 20
36020.512797104231
 30
0.0
 11
40055.770613569359
 21
36009.512797104231
 31
0.0
  0
LINE
  5
527
  8
FUTO
 10
40137.770613569352
 20
36020.512797104231
 30
0.0
 11
40137.770613569352
 21
36015.512797104231
 31
0.0
  0
LINE
  5
528
  8
FUTO
 10
40142.770613569359
 20
36020.512797104231
 30
0.0
 11
40142.770613569359
 21
36009.512797104231
 31
0.0
  0
LINE
  5
529
  8
CT
 10
40099.270613569352
 20
36035.04078031145
 30
0.0
 11
40099.270613569352
 21
35860.834005407291
 31
0.0
  0
ARC
  5
52A
  8
FUTO
 10
40141.270613569352
 20
35898.512797104231
 30
0.0
 40
7.0
 50
270.00000000000011
 51
0.0000000000000254
  0
LINE
  5
52B
  8
FUTO
 10
40033.770613569352
 20
35924.512797104231
 30
0.0
 11
40164.770613569359
 21
35924.512797104231
 31
0.0
  0
LINE
  5
52C
  8
FUTO
 10
40042.770613569359
 20
36009.512797104231
 30
0.0
 11
40155.770613569352
 21
36009.512797104231
 31
0.0
  0
LINE
  5
52D
  8
FUTO
 10
40060.770613569352
 20
36015.512797104231
 30
0.0
 11
40137.770613569352
 21
36015.512797104231
 31
0.0
  0
LINE
  5
52E
  8
FUTO
 10
40033.770613569352
 20
36000.512797104231
 30
0.0
 11
40033.770613569352
 21
35924.512797104231
 31
0.0
  0
ARC
  5
52F
  8
FUTO
 10
40042.770613569359
 20
36000.512797104231
 30
0.0
 40
9.0
 50
89.999999999999915
 51
180.0
  0
ARC
  5
530
  8
FUTO
 10
40057.270613569352
 20
35898.512797104231
 30
0.0
 40
7.0
 50
179.99999999999989
 51
269.99999999999977
  0
LINE
  5
531
  8
FUTO
 10
40050.270613569352
 20
35924.512797104231
 30
0.0
 11
40050.270613569352
 21
35898.512797104231
 31
0.0
  0
LINE
  5
532
  8
FUTO
 10
40057.270613569352
 20
35891.512797104231
 30
0.0
 11
40141.270613569352
 21
35891.512797104231
 31
0.0
  0
LINE
  5
533
  8
FUTO
 10
40060.770613569352
 20
35885.512797104231
 30
0.0
 11
40137.770613569352
 21
35885.512797104231
 31
0.0
  0
LINE
  5
534
  8
FUTO
 10
40142.770613569359
 20
35891.675399938642
 30
0.0
 11
40142.770613569359
 21
35880.512797104231
 31
0.0
  0
LINE
  5
535
  8
FUTO
 10
40137.770613569352
 20
35880.512797104231
 30
0.0
 11
40142.770613569359
 21
35880.512797104231
 31
0.0
  0
LINE
  5
536
  8
FUTO
 10
40137.770613569352
 20
35885.512797104231
 30
0.0
 11
40137.770613569352
 21
35880.512797104231
 31
0.0
  0
LINE
  5
537
  8
FUTO
 10
40055.770613569359
 20
35880.512797104231
 30
0.0
 11
40060.770613569352
 21
35880.512797104231
 31
0.0
  0
LINE
  5
538
  8
FUTO
 10
40055.770613569359
 20
35891.675399938642
 30
0.0
 11
40055.770613569359
 21
35880.512797104231
 31
0.0
  0
LINE
  5
539
  8
FUTO
 10
40060.770613569352
 20
35885.512797104231
 30
0.0
 11
40060.770613569352
 21
35880.512797104231
 31
0.0
  0
LINE
  5
53A
  8
FUTO
 10
40134.270613569359
 20
35732.138980498239
 30
0.0
 11
40059.270613569359
 21
35732.138980498239
 31
0.0
  0
LINE
  5
53B
  8
FUTO
 10
40129.703613569363
 20
35739.541980498238
 30
0.0
 11
40074.899613569352
 21
35744.338980498243
 31
0.0
  0
LINE
  5
53C
  8
1
 10
40133.465613569359
 20
35732.138980498239
 30
0.0
 11
40058.465613569359
 21
35732.138980498239
 31
0.0
  0
LINE
  5
53D
  8
FUTO
 10
40069.417990598369
 20
35744.816013127711
 30
0.0
 11
40130.615236540347
 21
35739.461947868782
 31
0.0
  0
LINE
  5
53E
  8
FUTO
 10
40059.266613569351
 20
35732.138980498239
 30
0.0
 11
40134.266613569358
 21
35732.138980498239
 31
0.0
  0
LINE
  5
53F
  8
FUTO
 10
40069.417990598369
 20
35869.461947868782
 30
0.0
 11
40130.615236540347
 21
35874.816013127711
 31
0.0
  0
LINE
  5
540
  8
FUTO
 10
40059.266613569351
 20
35882.138980498239
 30
0.0
 11
40134.266613569358
 21
35882.138980498239
 31
0.0
1001
ACAD
1000
ASC_BOUNDS
1002
{
1070
    19
1005
0
1002
}
  0
LINE
  5
541
  8
FUTO
 10
40059.266613569351
 20
35882.138980498239
 30
0.0
 11
40059.266613569351
 21
35732.138980498239
 31
0.0
  0
LINE
  5
542
  8
FUTO
 10
40065.766613569358
 20
35865.477169076417
 30
0.0
 11
40065.766613569358
 21
35748.800791920068
 31
0.0
  0
LINE
  5
543
  8
FUTO
 10
40059.266613569351
 20
35882.138980498239
 30
0.0
 11
40059.266613569351
 21
35732.138980498239
 31
0.0
  0
ARC
  5
544
  8
FUTO
 10
40069.766613569358
 20
35748.800791920068
 30
0.0
 40
4.0
 50
180.0
 51
264.99999999999989
  0
ARC
  5
545
  8
FUTO
 10
40069.766613569358
 20
35865.477169076417
 30
0.0
 40
4.0
 50
95.000000000000057
 51
180.0
  0
LINE
  5
546
  8
FUTO
 10
40134.270613569359
 20
35732.138980498239
 30
0.0
 11
40134.270613569359
 21
35734.560980498252
 31
0.0
  0
LINE
  5
547
  8
FUTO
 10
40134.266613569358
 20
35732.138980498239
 30
0.0
 11
40134.266613569358
 21
35735.47716907641
 31
0.0
  0
ARC
  5
548
  8
FUTO
 10
40130.266613569358
 20
35735.47716907641
 30
0.0
 40
4.0
 50
0.0
 51
84.999999999999801
  0
ARC
  5
549
  8
FUTO
 10
40130.266613569358
 20
35878.800791920068
 30
0.0
 40
4.0
 50
275.00000000000011
 51
0.0
  0
LINE
  5
54A
  8
FUTO
 10
40134.266613569358
 20
35882.138980498239
 30
0.0
 11
40134.266613569358
 21
35878.800791920068
 31
0.0
  0
LINE
  5
54B
  8
FUTO
 10
40164.770613569359
 20
36000.512797104231
 30
0.0
 11
40164.770613569359
 21
35924.512797104231
 31
0.0
  0
ARC
  5
54C
  8
FUTO
 10
40155.770613569352
 20
36000.512797104231
 30
0.0
 40
9.0
 50
0.0
 51
90.0
  0
LINE
  5
54D
  8
FUTO
 10
40148.270613569352
 20
35924.512797104231
 30
0.0
 11
40148.270613569352
 21
35898.512797104231
 31
0.0
  0
LINE
  5
54E
  8
FUTO
 10
40055.270613569359
 20
36058.512797104231
 30
0.0
 11
40205.270613569352
 21
36058.512797104231
 31
0.0
  0
LINE
  5
54F
  8
FUTO
 10
40205.270613569352
 20
36092.512797104231
 30
0.0
 11
40055.270613569359
 21
36092.512797104231
 31
0.0
  0
LINE
  5
550
  8
CT
 10
40020.35792808629
 20
36075.512797104231
 30
0.0
 11
40256.856106563479
 21
36075.512797104231
 31
0.0
  0
LINE
  5
551
  8
FUTO
 10
40055.770613569359
 20
36020.512797104231
 30
0.0
 11
40060.770613569352
 21
36020.512797104231
 31
0.0
  0
LINE
  5
552
  8
FUTO
 10
40137.770613569352
 20
36020.512797104231
 30
0.0
 11
40142.770613569359
 21
36020.512797104231
 31
0.0
  0
LINE
  5
553
  8
KL
 10
40055.270613569359
 20
36043.512797104231
 30
0.0
 11
40058.470613569349
 21
36043.512797104231
 31
0.0
  0
LINE
  5
554
  8
FUTO
 10
40134.270613569359
 20
36022.138980498239
 30
0.0
 11
40059.270613569359
 21
36022.138980498239
 31
0.0
  0
LINE
  5
555
  8
FUTO
 10
40129.703613569363
 20
36029.541980498238
 30
0.0
 11
40074.899613569352
 21
36034.338980498243
 31
0.0
  0
LINE
  5
556
  8
FUTO
 10
40134.270613569359
 20
36022.138980498239
 30
0.0
 11
40134.270613569359
 21
36024.560980498252
 31
0.0
  0
LINE
  5
557
  8
1
 10
40133.465613569359
 20
36022.138980498239
 30
0.0
 11
40058.465613569359
 21
36022.138980498239
 31
0.0
  0
ARC
  5
558
  8
FUTO
 10
40130.266613569358
 20
36168.800791920068
 30
0.0
 40
4.0
 50
275.00000000000011
 51
0.0
  0
LINE
  5
559
  8
FUTO
 10
40134.266613569358
 20
36172.138980498239
 30
0.0
 11
40134.266613569358
 21
36168.800791920068
 31
0.0
  0
LINE
  5
55A
  8
FUTO
 10
40134.266613569358
 20
36022.138980498239
 30
0.0
 11
40134.266613569358
 21
36025.477169076417
 31
0.0
  0
ARC
  5
55B
  8
FUTO
 10
40130.266613569358
 20
36025.477169076417
 30
0.0
 40
4.0
 50
0.0
 51
84.999999999999801
  0
ARC
  5
55C
  8
FUTO
 10
40069.766613569358
 20
36155.47716907641
 30
0.0
 40
4.0
 50
95.000000000000057
 51
180.0
  0
LINE
  5
55D
  8
FUTO
 10
40059.266613569351
 20
36172.138980498239
 30
0.0
 11
40059.266613569351
 21
36022.138980498239
 31
0.0
  0
ARC
  5
55E
  8
FUTO
 10
40069.766613569358
 20
36038.800791920068
 30
0.0
 40
4.0
 50
180.0
 51
264.99999999999989
  0
LINE
  5
55F
  8
FUTO
 10
40065.766613569358
 20
36155.47716907641
 30
0.0
 11
40065.766613569358
 21
36038.800791920068
 31
0.0
  0
LINE
  5
560
  8
FUTO
 10
40069.417990598369
 20
36159.461947868782
 30
0.0
 11
40130.615236540347
 21
36164.816013127711
 31
0.0
  0
LINE
  5
561
  8
FUTO
 10
40059.266613569351
 20
36172.138980498239
 30
0.0
 11
40134.266613569358
 21
36172.138980498239
 31
0.0
  0
LINE
  5
562
  8
FUTO
 10
40069.417990598369
 20
36034.816013127711
 30
0.0
 11
40130.615236540347
 21
36029.461947868782
 31
0.0
  0
LINE
  5
563
  8
FUTO
 10
40059.266613569351
 20
36022.138980498239
 30
0.0
 11
40134.266613569358
 21
36022.138980498239
 31
0.0
  0
LINE
  5
564
  8
FUTO
 10
40059.266613569351
 20
36172.138980498239
 30
0.0
 11
40059.266613569351
 21
36022.138980498239
 31
0.0
  0
LINE
  5
565
  8
KL
 10
40058.470613569349
 20
36043.512797104231
 30
0.0
 11
40058.470613569349
 21
36172.138980498239
 31
0.0
  0
LINE
  5
566
  8
KL
 10
40055.270613569359
 20
36043.512797104231
 30
0.0
 11
40055.270613569359
 21
36172.138980498239
 31
0.0
  0
LINE
  5
567
  8
FUTO
 10
40246.374778714897
 20
36054.684580430403
 30
0.0
 11
40246.374778714897
 21
36096.341013778059
 31
0.0
  0
LINE
  5
568
  8
FUTO
 10
40205.270613569352
 20
36054.684580430403
 30
0.0
 11
40205.270613569352
 21
36096.341013778059
 31
0.0
  0
LINE
  5
569
  8
FUTO
 10
40205.270613569352
 20
36054.684580430388
 30
0.0
 11
40246.374778714897
 21
36054.684580430388
 31
0.0
  0
LINE
  5
56A
  8
FUTO
 10
40205.270613569352
 20
36096.341013778059
 30
0.0
 11
40246.374778714897
 21
36096.341013778059
 31
0.0
  0
LINE
  5
56B
  8
KL
 10
40058.470613569349
 20
36444.512797104231
 30
0.0
 11
40148.470613569363
 21
36444.512797104231
 31
0.0
  0
LINE
  5
56C
  8
KL
 10
40058.470613569349
 20
36450.512797104231
 30
0.0
 11
40190.270613569352
 21
36450.512797104231
 31
0.0
  0
LINE
  5
56D
  8
HOSO
 10
40015.936603958442
 20
36410.512797104231
 30
0.0
 11
40090.044219106698
 21
36410.512797104231
 31
0.0
  0
LINE
  5
56E
  8
KL
 10
40058.470613569349
 20
36385.512797104231
 30
0.0
 11
40064.470613569363
 21
36385.512797104231
 31
0.0
  0
LINE
  5
56F
  8
FUTO
 10
40148.470613569363
 20
36444.512797104231
 30
0.0
 11
40190.270613569352
 21
36444.512797104231
 31
0.0
  0
LINE
  5
570
  8
FUTO
 10
40184.270613569359
 20
36385.512797104231
 30
0.0
 11
40190.270613569352
 21
36385.512797104231
 31
0.0
  0
LINE
  5
571
  8
HOSO
 10
40156.788067383328
 20
36410.512797104231
 30
0.0
 11
40230.895682531591
 21
36410.512797104231
 31
0.0
  0
LINE
  5
5F7
  8
FUTO
 10
38672.070613569362
 20
39331.512797104231
 30
0.0
 11
40118.470613569363
 21
39331.512797104231
 31
0.0
  0
LINE
  5
5F8
  8
FUTO
 10
38732.070613569362
 20
39271.512797104231
 30
0.0
 11
40058.470613569363
 21
39271.512797104231
 31
0.0
  0
LINE
  5
600
  8
FUTO
 10
38667.070613569362
 20
37341.512797104231
 30
0.0
 11
40123.470613569349
 21
37341.512797104231
 31
0.0
  0
LINE
  5
601
  8
FUTO
 10
38667.070613569362
 20
37359.512797104231
 30
0.0
 11
40123.470613569349
 21
37359.512797104231
 31
0.0
  0
LINE
  5
61E
  8
CT
 10
36893.344491884578
 20
37350.512797104231
 30
0.0
 11
40389.265916741577
 21
37350.512797104231
 31
0.0
  0
LINE
  5
623
  8
FUTO
 10
37500.770613569359
 20
37454.512797104231
 30
0.0
 11
37367.770613569352
 21
37454.512797104231
 31
0.0
  0
LINE
  5
624
  8
FUTO
 10
37367.770613569352
 20
37246.512797104231
 30
0.0
 11
37379.270613569352
 21
37246.512797104231
 31
0.0
  0
ARC
  5
625
  8
FUTO
 10
37385.270613569352
 20
37268.512797104231
 30
0.0
 40
6.0
 50
90.0
 51
180.0
  0
LINE
  5
626
  8
FUTO
 10
37344.270613569359
 20
37228.512797104231
 30
0.0
 11
37524.270613569352
 21
37228.512797104231
 31
0.0
  0
ARC
  5
628
  8
FUTO
 10
37367.770613569352
 20
37448.512797104231
 30
0.0
 40
6.0
 50
90.0
 51
180.0
  0
LINE
  5
629
  8
SL
 10
37095.270613569352
 20
37070.512797104231
 30
0.0
 11
37265.270613569352
 21
37070.512797104231
 31
0.0
  0
LINE
  5
62A
  8
FUTO
 10
37361.770613569359
 20
37440.512797104231
 30
0.0
 11
37356.770613569352
 21
37440.512797104231
 31
0.0
  0
ARC
  5
62B
  8
FUTO
 10
37367.770613569352
 20
37252.512797104231
 30
0.0
 40
6.0
 50
180.0
 51
270.0
  0
LINE
  5
62C
  8
FUTO
 10
37356.770613569352
 20
37260.512797104231
 30
0.0
 11
37361.770613569359
 21
37260.512797104231
 31
0.0
  0
LINE
  5
62D
  8
FUTO
 10
37361.770613569359
 20
37448.512797104231
 30
0.0
 11
37361.770613569359
 21
37252.512797104231
 31
0.0
  0
LINE
  5
62E
  8
FUTO
 10
37356.770613569352
 20
37440.512797104231
 30
0.0
 11
37356.770613569352
 21
37260.512797104231
 31
0.0
  0
LINE
  5
62F
  8
FUTO
 10
37265.270613569352
 20
37303.012797104231
 30
0.0
 11
37356.770613569352
 21
37303.012797104231
 31
0.0
  0
LINE
  5
630
  8
FUTO
 10
37265.270613569352
 20
37398.012797104231
 30
0.0
 11
37356.770613569352
 21
37398.012797104231
 31
0.0
  0
LINE
  5
631
  8
SL
 10
37095.270613569352
 20
37630.512797104231
 30
0.0
 11
37265.270613569352
 21
37630.512797104231
 31
0.0
  0
LINE
  5
632
  8
FUTO
 10
36945.270613569352
 20
37730.512797104231
 30
0.0
 11
37295.270613569359
 21
37730.512797104231
 31
0.0
  0
LINE
  5
633
  8
FUTO
 10
38672.070613569362
 20
39210.867500772343
 30
0.0
 11
38672.070613569362
 21
39331.512797104231
 31
0.0
  0
LINE
  5
636
  8
FUTO
 10
38732.070613569362
 20
37419.212797104228
 30
0.0
 11
38732.070613569362
 21
39250.512797104231
 31
0.0
  0
LINE
  5
637
  8
FUTO
 10
38735.270613569359
 20
37419.212797104228
 30
0.0
 11
38735.270613569359
 21
39250.512797104231
 31
0.0
  0
LINE
  5
638
  8
FUTO
 10
38667.070613569347
 20
39210.867500772343
 30
0.0
 11
38667.070613569347
 21
37341.512797104231
 31
0.0
  0
LINE
  5
63B
  8
SL
 10
38314.782234895429
 20
37566.587466914483
 30
0.0
 11
37549.40427809774
 21
37566.587466914483
 31
0.0
  0
LINE
  5
63D
  8
FUTO
 10
38345.270613569352
 20
37190.512797104231
 30
0.0
 11
37524.270613569352
 21
37190.512797104238
 31
0.0
  0
LINE
  5
63E
  8
FUTO
 10
37511.770613569359
 20
37298.012797104231
 30
0.0
 11
38341.770613569352
 21
37298.012797104231
 31
0.0
  0
LINE
  5
63F
  8
FUTO
 10
37511.770613569359
 20
37403.012797104231
 30
0.0
 11
38341.770613569352
 21
37403.012797104231
 31
0.0
  0
LINE
  5
640
  8
SL
 10
37549.40427809774
 20
37566.587466914483
 30
0.0
 11
37549.40427809774
 21
37190.512797104238
 31
0.0
  0
LINE
  5
641
  8
CT
 10
37434.270613569359
 20
37531.578711523864
 30
0.0
 11
37434.270613569359
 21
37141.578543578442
 31
0.0
  0
ARC
  5
642
  8
FUTO
 10
37500.770613569359
 20
37448.512797104231
 30
0.0
 40
6.0
 50
0.0
 51
90.0
  0
LINE
  5
643
  8
FUTO
 10
37489.270613569359
 20
37454.512797104231
 30
0.0
 11
37489.270613569359
 21
37228.512797104231
 31
0.0
  0
LINE
  5
644
  8
FUTO
 10
37379.270613569352
 20
37454.512797104231
 30
0.0
 11
37379.270613569352
 21
37228.512797104231
 31
0.0
  0
LINE
  5
645
  8
CT
 10
37434.270613569359
 20
37474.281556268928
 30
0.0
 11
37434.270613569359
 21
37220.689073202113
 31
0.0
  0
LINE
  5
646
  8
FUTO
 10
37506.770613569359
 20
37440.512797104231
 30
0.0
 11
37511.770613569359
 21
37440.512797104231
 31
0.0
  0
LINE
  5
647
  8
FUTO
 10
37511.770613569359
 20
37260.512797104231
 30
0.0
 11
37506.770613569359
 21
37260.512797104231
 31
0.0
  0
ARC
  5
648
  8
FUTO
 10
37500.770613569359
 20
37252.512797104231
 30
0.0
 40
6.0
 50
270.0
 51
0.0
  0
LINE
  5
649
  8
FUTO
 10
37500.770613569359
 20
37246.512797104231
 30
0.0
 11
37489.270613569359
 21
37246.512797104231
 31
0.0
  0
ARC
  5
64A
  8
FUTO
 10
37483.270613569359
 20
37268.512797104231
 30
0.0
 40
6.0
 50
0.0
 51
90.0
  0
LINE
  5
64B
  8
FUTO
 10
37511.770613569359
 20
37440.512797104231
 30
0.0
 11
37511.770613569359
 21
37260.512797104231
 31
0.0
  0
LINE
  5
64C
  8
FUTO
 10
37506.770613569359
 20
37448.512797104231
 30
0.0
 11
37506.770613569359
 21
37252.512797104231
 31
0.0
  0
LINE
  5
64D
  8
FUTO
 10
37379.270613569352
 20
37238.512797104231
 30
0.0
 11
37489.270613569359
 21
37238.512797104231
 31
0.0
  0
LINE
  5
64E
  8
FUTO
 10
37483.270613569359
 20
37274.512797104231
 30
0.0
 11
37385.270613569352
 21
37274.512797104231
 31
0.0
  0
LINE
  5
653
  8
SL
 10
38314.782234895429
 20
37566.587466914483
 30
0.0
 11
38314.782234895429
 21
37190.512797104231
 31
0.0
  0
LINE
  5
654
  8
CT
 10
38435.270613569352
 20
37559.283625184471
 30
0.0
 11
38435.270613569352
 21
37109.611321416873
 31
0.0
  0
LINE
  5
655
  8
FUTO
 10
38513.770613569359
 20
37458.012797104231
 30
0.0
 11
38528.770613569352
 21
37434.512797104231
 31
0.0
  0
LINE
  5
656
  8
FUTO
 10
38501.770613569352
 20
37480.512797104231
 30
0.0
 11
38501.770613569352
 21
37265.512797104231
 31
0.0
  0
LINE
  5
657
  8
FUTO
 10
38501.770613569352
 20
37255.512797104231
 30
0.0
 11
38501.770613569352
 21
37480.51273390984
 31
0.0
  0
LINE
  5
658
  8
FUTO
 10
38513.770613569359
 20
37220.512797104231
 30
0.0
 11
38513.770613569359
 21
37480.512797104231
 31
0.0
  0
LINE
  5
659
  8
FUTO
 10
38341.770613569352
 20
37434.512797104231
 30
0.0
 11
38356.770613569352
 21
37458.012797104231
 31
0.0
  0
LINE
  5
65A
  8
FUTO
 10
38368.770613569352
 20
37480.512797104231
 30
0.0
 11
38368.770613569352
 21
37265.512797104231
 31
0.0
  0
LINE
  5
65B
  8
CT
 10
38435.270613569352
 20
37514.674376770439
 30
0.0
 11
38435.270613569352
 21
37172.804753926343
 31
0.0
  0
LINE
  5
65C
  8
FUTO
 10
38356.770613569352
 20
37480.512797104231
 30
0.0
 11
38356.770613569352
 21
37220.512797104231
 31
0.0
  0
LINE
  5
662
  8
FUTO
 10
38667.070613569347
 20
37341.512797104231
 30
0.0
 11
38642.070613569347
 21
37325.493641798479
 31
0.0
  0
LINE
  5
664
  8
FUTO
 10
38525.270613569359
 20
37200.512797104231
 30
0.0
 11
38345.270613569352
 21
37200.512797104231
 31
0.0
  0
LINE
  5
665
  8
FUTO
 10
38510.270613569359
 20
37210.512797104231
 30
0.0
 11
38360.270613569359
 21
37210.512797104231
 31
0.0
  0
LINE
  5
666
  8
FUTO
 10
38360.270613569359
 20
37265.512797104231
 30
0.0
 11
38510.270613569359
 21
37265.512797104231
 31
0.0
  0
LINE
  5
667
  8
FUTO
 10
38341.770613569352
 20
37266.512797104231
 30
0.0
 11
38341.770613569352
 21
37434.512797104231
 31
0.0
  0
LINE
  5
668
  8
FUTO
 10
38356.770613569352
 20
37220.512797104231
 30
0.0
 11
38360.270613569359
 21
37220.512797104231
 31
0.0
  0
LINE
  5
669
  8
CT
 10
38385.270613569359
 20
37175.55770475298
 30
0.0
 11
38385.270613569359
 21
37296.330229874751
 31
0.0
  0
LINE
  5
66A
  8
FUTO
 10
38360.270613569359
 20
37200.512797104231
 30
0.0
 11
38360.270613569359
 21
37265.512797104231
 31
0.0
  0
LINE
  5
66B
  8
FUTO
 10
38356.770613569352
 20
37243.012797104231
 30
0.0
 11
38341.770613569352
 21
37266.512797104231
 31
0.0
  0
LINE
  5
66C
  8
FUTO
 10
38528.770613569352
 20
37403.012797104231
 30
0.0
 11
38667.070613569347
 21
37403.012797104231
 31
0.0
  0
LINE
  5
66E
  8
FUTO
 10
38528.770613569352
 20
37298.012797104231
 30
0.0
 11
38642.070613569362
 21
37298.012797104231
 31
0.0
  0
LINE
  5
67F
  8
CT
 10
38546.660951805679
 20
37350.512797104231
 30
0.0
 11
38656.003573681592
 21
37350.512797104231
 31
0.0
  0
LINE
  5
69D
  8
FUTO
 10
38528.770613569352
 20
37434.512797104231
 30
0.0
 11
38528.770613569352
 21
37266.512797104231
 31
0.0
  0
LINE
  5
69E
  8
FUTO
 10
38510.270613569359
 20
37220.512797104231
 30
0.0
 11
38513.770613569359
 21
37220.512797104231
 31
0.0
  0
LINE
  5
69F
  8
FUTO
 10
38510.270613569359
 20
37265.512797104231
 30
0.0
 11
38510.270613569359
 21
37200.512797104231
 31
0.0
  0
LINE
  5
6A0
  8
FUTO
 10
38528.770613569352
 20
37266.512797104231
 30
0.0
 11
38513.770613569359
 21
37243.012797104231
 31
0.0
  0
LINE
  5
6A1
  8
CT
 10
38485.270613569359
 20
37175.55770475298
 30
0.0
 11
38485.270613569359
 21
37296.330229874751
 31
0.0
  0
LINE
  5
6AC
  8
FUTO
 10
38496.770613569359
 20
37498.512797104231
 30
0.0
 11
38373.770613569352
 21
37498.512797104231
 31
0.0
  0
LINE
  5
6AD
  8
FUTO
 10
38373.770613569352
 20
37498.512797104231
 30
0.0
 11
38373.770613569352
 21
37480.512797104231
 31
0.0
  0
LINE
  5
6AE
  8
FUTO
 10
38373.770613569352
 20
37480.512797104231
 30
0.0
 11
38356.770613569352
 21
37480.512797104231
 31
0.0
  0
LINE
  5
6B7
  8
FUTO
 10
38513.770613569359
 20
37480.512797104231
 30
0.0
 11
38496.770613569359
 21
37480.512797104231
 31
0.0
  0
LINE
  5
6B8
  8
FUTO
 10
38496.770613569359
 20
37480.512797104231
 30
0.0
 11
38496.770613569359
 21
37498.512797104231
 31
0.0
  0
LINE
  5
6BC
  8
FUTO
 10
38732.070613569362
 20
38295.712797104228
 30
0.0
 11
38732.070613569362
 21
39250.512797104231
 31
0.0
  0
LINE
  5
6BE
  8
FUTO
 10
38667.070613569347
 20
39210.867500772343
 30
0.0
 11
38672.070613569362
 21
39210.867500772343
 31
0.0
  0
LINE
  5
6BF
  8
FUTO
 10
38732.070613569362
 20
39250.512797104231
 30
0.0
 11
38732.070613569362
 21
39271.512797104231
 31
0.0
  0
LINE
  5
6C0
  8
FUTO
 10
38735.270613569359
 20
39250.512797104231
 30
0.0
 11
38735.270613569359
 21
39271.512797104231
 31
0.0
  0
DIMENSION
  5
6CD
  8
SP
  2
*D21
 10
40190.270613569352
 20
39802.88860380894
 30
0.0
 11
39724.132988613463
 21
39802.88860380894
 31
0.0
 70
   128
 13
39395.270613569352
 23
39834.830943173321
 33
0.0
 14
40190.270613569352
 24
38315.512797104231
 34
0.0
1001
ACAD
1000
DSTYLE
1002
{
1070
    40
1040
40.0
1002
}
  0
LINE
  5
6DB
  8
FUTO
 10
40118.470613569363
 20
39210.867500772343
 30
0.0
 11
40118.470613569363
 21
39331.512797104231
 31
0.0
  0
LINE
  5
6E1
  8
FUTO
 10
40055.270613569359
 20
37419.212797104228
 30
0.0
 11
40055.270613569359
 21
39250.512797104231
 31
0.0
  0
LINE
  5
6E2
  8
FUTO
 10
40058.470613569349
 20
37419.212797104228
 30
0.0
 11
40058.470613569363
 21
39250.512797104231
 31
0.0
  0
LINE
  5
6E3
  8
FUTO
 10
40123.470613569989
 20
39210.867500772343
 30
0.0
 11
40123.470613569349
 21
37341.512797104231
 31
0.0
  0
LINE
  5
701
  8
FUTO
 10
40123.470613569392
 20
37341.512797104209
 30
0.0
 11
40148.470613569392
 21
37325.493641798457
 31
0.0
  0
INSERT
  5
702
  8
FUTO
  2
まっすぐの矢印
 10
40385.743766139858
 20
37836.059099953338
 30
0.0
 41
2.0
 42
2.0
 43
2.0
 50
90.0
  0
LINE
  5
704
  8
FUTO
 10
40123.470613569349
 20
38256.512797104231
 30
0.0
 11
40190.270613569352
 21
38256.512797104231
 31
0.0
  0
LINE
  5
705
  8
KL
 10
40058.470613569349
 20
38250.512797104231
 30
0.0
 11
40190.270613569352
 21
38250.512797104231
 31
0.0
  0
LINE
  5
706
  8
HOSO
 10
40029.532643761362
 20
38290.512797104231
 30
0.0
 11
40089.362992591428
 21
38290.512797104231
 31
0.0
  0
LINE
  5
707
  8
KL
 10
40064.470613569363
 20
38315.512797104231
 30
0.0
 11
40058.470613569349
 21
38315.512797104231
 31
0.0
  0
LINE
  5
708
  8
KL
 10
40058.470613569349
 20
38256.512797104231
 30
0.0
 11
40123.470613569349
 21
38256.512797104231
 31
0.0
  0
LINE
  5
709
  8
FUTO
 10
40184.270613569359
 20
38315.512797104231
 30
0.0
 11
40190.270613569352
 21
38315.512797104231
 31
0.0
  0
LINE
  5
70A
  8
HOSO
 10
40157.602837009668
 20
38290.512797104231
 30
0.0
 11
40217.433185839749
 21
38290.512797104231
 31
0.0
  0
LINE
  5
70B
  8
FUTO
 10
40118.470613569363
 20
39210.867500772343
 30
0.0
 11
40123.470613569989
 21
39210.867500772343
 31
0.0
  0
LINE
  5
70C
  8
FUTO
 10
40055.270613569359
 20
39250.512797104231
 30
0.0
 11
40055.270613569359
 21
39271.512797104231
 31
0.0
  0
LINE
  5
70D
  8
FUTO
 10
40058.470613569363
 20
39250.512797104231
 30
0.0
 11
40058.470613569363
 21
39271.512797104231
 31
0.0
  0
LINE
  5
88D
  8
CT
 10
36034.730327947458
 20
42718.576721893849
 30
0.0
 11
32702.460724900251
 21
42718.576721893842
 31
0.0
  0
LINE
  5
88E
  8
FUTO
 10
33189.695168609171
 20
41989.576721893849
 30
0.0
 11
33189.695168609171
 21
43447.576721893849
 31
0.0
  0
LINE
  5
89C
  8
FUTO
 10
33254.695168609171
 20
41989.576721893849
 30
0.0
 11
33189.695168609171
 21
41989.576721893849
 31
0.0
  0
LINE
  5
89D
  8
FUTO
 10
33254.695168609171
 20
41989.576721893849
 30
0.0
 11
33254.695168609171
 21
43447.576721893849
 31
0.0
  0
LINE
  5
89E
  8
FUTO
 10
33254.695168609171
 20
43447.576721893849
 30
0.0
 11
33189.695168609171
 21
43447.576721893849
 31
0.0
  0
LINE
  5
89F
  8
FUTO
 10
35908.695168609171
 20
43382.576721893849
 30
0.0
 11
35908.695168609171
 21
42054.576721893849
 31
0.0
  0
LINE
  5
8A0
  8
FUTO
 10
35958.695168609171
 20
43432.576721893849
 30
0.0
 11
33254.695168609171
 21
43432.576721893849
 31
0.0
  0
LINE
  5
8A1
  8
FUTO
 10
35958.695168609171
 20
43432.576721893849
 30
0.0
 11
35958.695168609171
 21
42004.576721893864
 31
0.0
  0
LINE
  5
8A2
  8
FUTO
 10
35958.695168609171
 20
42004.576721893864
 30
0.0
 11
33254.695168609171
 21
42004.576721893849
 31
0.0
  0
LINE
  5
8A3
  8
FUTO
 10
35908.695168609171
 20
42054.576721893849
 30
0.0
 11
35054.695168609171
 21
42054.576721893849
 31
0.0
  0
LINE
  5
8A4
  8
FUTO
 10
35414.695168609171
 20
43432.576721893849
 30
0.0
 11
35414.695168609171
 21
43457.576721893849
 31
0.0
  0
LINE
  5
8A5
  8
FUTO
 10
33294.695168609171
 20
43432.576721893849
 30
0.0
 11
33294.695168609171
 21
43457.576721893849
 31
0.0
  0
LINE
  5
132F
  8
FUTO
 10
33974.695168609171
 20
40268.576721893849
 30
0.0
 11
36134.695168609171
 21
40268.576721893849
 31
0.0
  0
LINE
  5
1330
  8
FUTO
 10
33974.695168609171
 20
40618.576721893849
 30
0.0
 11
36134.695168609171
 21
40618.576721893849
 31
0.0
  0
LINE
  5
1336
  8
SL
 10
34074.695168609171
 20
40418.576721893864
 30
0.0
 11
36054.695168609171
 21
40418.576721893864
 31
0.0
  0
LINE
  5
1337
  8
SL
 10
34074.695168609171
 20
40588.576721893849
 30
0.0
 11
36054.695168609171
 21
40588.576721893849
 31
0.0
  0
LINE
  5
1338
  8
CT
 10
34354.695168609171
 20
40216.650600209068
 30
0.0
 11
34354.695168609171
 21
43712.572025066082
 31
0.0
  0
LINE
  5
1342
  8
FUTO
 10
34250.695168609171
 20
40691.076721893849
 30
0.0
 11
34250.695168609171
 21
40702.576721893849
 31
0.0
  0
LINE
  5
1343
  8
FUTO
 10
34458.695168609171
 20
40824.076721893849
 30
0.0
 11
34458.695168609171
 21
40691.076721893849
 31
0.0
  0
ARC
  5
1344
  8
FUTO
 10
34452.695168609171
 20
40691.076721893849
 30
0.0
 40
6.0
 50
270.0
 51
0.000000000000007
  0
LINE
  5
1345
  8
SL
 10
34634.695168609171
 20
40418.576721893864
 30
0.0
 11
34634.695168609171
 21
40588.576721893849
 31
0.0
  0
LINE
  5
1346
  8
FUTO
 10
34402.195168609171
 20
40588.576721893849
 30
0.0
 11
34402.195168609171
 21
40680.076721893849
 31
0.0
  0
LINE
  5
1347
  8
FUTO
 10
34307.195168609171
 20
40588.576721893849
 30
0.0
 11
34307.195168609171
 21
40680.076721893849
 31
0.0
  0
LINE
  5
1348
  8
FUTO
 10
34444.695168609171
 20
40680.076721893849
 30
0.0
 11
34264.695168609171
 21
40680.076721893849
 31
0.0
  0
LINE
  5
1349
  8
FUTO
 10
34452.695168609171
 20
40685.076721893864
 30
0.0
 11
34256.695168609171
 21
40685.076721893864
 31
0.0
  0
LINE
  5
134A
  8
FUTO
 10
34264.695168609171
 20
40680.076721893849
 30
0.0
 11
34264.695168609171
 21
40685.076721893864
 31
0.0
  0
ARC
  5
134B
  8
FUTO
 10
34256.695168609171
 20
40691.076721893849
 30
0.0
 40
6.0
 50
180.0
 51
270.0
  0
LINE
  5
134C
  8
FUTO
 10
34444.695168609171
 20
40685.076721893864
 30
0.0
 11
34444.695168609171
 21
40680.076721893849
 31
0.0
  0
LINE
  5
1353
  8
FUTO
 10
34407.195168609171
 20
40835.076721893849
 30
0.0
 11
34407.195168609171
 21
41665.076721893864
 31
0.0
  0
LINE
  5
1354
  8
FUTO
 10
34302.195168609171
 20
40835.076721893849
 30
0.0
 11
34302.195168609171
 21
41665.076721893864
 31
0.0
  0
LINE
  5
1357
  8
CT
 10
34478.463927773868
 20
40757.576721893864
 30
0.0
 11
34224.871444707052
 21
40757.576721893864
 31
0.0
  0
LINE
  5
1358
  8
FUTO
 10
34458.695168609171
 20
40702.576721893849
 30
0.0
 11
34250.695168609171
 21
40702.576721893849
 31
0.0
  0
LINE
  5
1359
  8
FUTO
 10
34458.695168609171
 20
40812.576721893849
 30
0.0
 11
34250.695168609171
 21
40812.576721893849
 31
0.0
  0
ARC
  5
135A
  8
FUTO
 10
34452.695168609171
 20
40824.076721893849
 30
0.0
 40
6.0
 50
0.000000000000007
 51
90.0
  0
LINE
  5
135B
  8
CT
 10
34535.761083028803
 20
40757.576721893864
 30
0.0
 11
34145.760915083381
 21
40757.576721893864
 31
0.0
  0
LINE
  5
135F
  8
FUTO
 10
34452.695168609171
 20
40830.076721893864
 30
0.0
 11
34256.695168609171
 21
40830.076721893864
 31
0.0
  0
LINE
  5
1360
  8
FUTO
 10
34444.695168609171
 20
40835.076721893849
 30
0.0
 11
34264.695168609171
 21
40835.076721893849
 31
0.0
  0
LINE
  5
1362
  8
FUTO
 10
34250.695168609171
 20
40824.076721893849
 30
0.0
 11
34250.695168609171
 21
40812.576721893849
 31
0.0
  0
ARC
  5
1363
  8
FUTO
 10
34256.695168609171
 20
40824.076721893849
 30
0.0
 40
6.0
 50
90.0
 51
180.0
  0
LINE
  5
1364
  8
FUTO
 10
34264.695168609171
 20
40835.076721893849
 30
0.0
 11
34264.695168609171
 21
40830.076721893864
 31
0.0
  0
LINE
  5
1365
  8
FUTO
 10
34444.695168609171
 20
40830.076721893864
 30
0.0
 11
34444.695168609171
 21
40835.076721893849
 31
0.0
  0
LINE
  5
136A
  8
FUTO
 10
34484.695168609171
 20
41680.076721893864
 30
0.0
 11
34224.695168609171
 21
41680.076721893864
 31
0.0
  0
LINE
  5
136B
  8
CT
 10
34518.856748275379
 20
41758.576721893849
 30
0.0
 11
34176.987125431282
 21
41758.576721893849
 31
0.0
  0
LINE
  5
136C
  8
FUTO
 10
34484.695168609171
 20
41692.076721893864
 30
0.0
 11
34224.695168609171
 21
41692.076721893864
 31
0.0
  0
LINE
  5
136D
  8
FUTO
 10
34438.695168609171
 20
41665.076721893864
 30
0.0
 11
34462.195168609171
 21
41680.076721893864
 31
0.0
  0
LINE
  5
136E
  8
FUTO
 10
34224.695168609171
 20
41837.076721893849
 30
0.0
 11
34484.695168609171
 21
41837.076721893849
 31
0.0
  0
LINE
  5
136F
  8
FUTO
 10
34224.695168609171
 20
41825.076721893864
 30
0.0
 11
34484.695105414779
 21
41825.076721893864
 31
0.0
  0
LINE
  5
1370
  8
FUTO
 10
34484.695168609171
 20
41825.076721893864
 30
0.0
 11
34269.695168609171
 21
41825.076721893864
 31
0.0
  0
LINE
  5
1371
  8
FUTO
 10
34462.195168609171
 20
41837.076721893849
 30
0.0
 11
34438.695168609171
 21
41852.076721893864
 31
0.0
  0
LINE
  5
1372
  8
CT
 10
34563.465996689411
 20
41758.576721893849
 30
0.0
 11
34113.793692921819
 21
41758.576721893849
 31
0.0
  0
LINE
  5
137E
  8
FUTO
 10
34247.195168609171
 20
41680.076721893864
 30
0.0
 11
34270.695168609171
 21
41665.076721893864
 31
0.0
  0
LINE
  5
1381
  8
FUTO
 10
34224.695168609171
 20
41680.076721893864
 30
0.0
 11
34224.695168609171
 21
41683.576721893864
 31
0.0
  0
LINE
  5
1382
  8
FUTO
 10
34270.695168609171
 20
41665.076721893864
 30
0.0
 11
34438.695168609171
 21
41665.076721893864
 31
0.0
  0
LINE
  5
1384
  8
FUTO
 10
34270.695168609171
 20
41852.076721893864
 30
0.0
 11
34247.195168609171
 21
41837.076721893849
 31
0.0
  0
LINE
  5
1386
  8
FUTO
 10
34224.695168609171
 20
41833.576721893849
 30
0.0
 11
34224.695168609171
 21
41837.076721893849
 31
0.0
  0
LINE
  5
1387
  8
FUTO
 10
34438.695168609171
 20
41852.076721893864
 30
0.0
 11
34270.695168609171
 21
41852.076721893864
 31
0.0
  0
LINE
  5
13A3
  8
CT
 10
34354.695168609171
 20
41869.967060130177
 30
0.0
 11
34354.695168609171
 21
41979.309682006082
 31
0.0
  0
LINE
  5
13B2
  8
FUTO
 10
34302.195168609171
 20
41852.076721893864
 30
0.0
 11
34302.195168609171
 21
42004.576721893864
 31
0.0
  0
LINE
  5
13B4
  8
FUTO
 10
34407.195168609171
 20
41852.076721893864
 30
0.0
 11
34407.195168609171
 21
42004.576721893864
 31
0.0
  0
LINE
  5
13BE
  8
FUTO
 10
34502.695168609171
 20
41820.076721893849
 30
0.0
 11
34502.695168609171
 21
41697.076721893849
 31
0.0
  0
LINE
  5
13BF
  8
FUTO
 10
34484.695168609171
 20
41697.076721893849
 30
0.0
 11
34484.695168609171
 21
41680.076721893864
 31
0.0
  0
LINE
  5
13C0
  8
FUTO
 10
34502.695168609171
 20
41697.076721893849
 30
0.0
 11
34484.695168609171
 21
41697.076721893849
 31
0.0
  0
LINE
  5
13C1
  8
FUTO
 10
34484.695168609171
 20
41820.076721893849
 30
0.0
 11
34502.695168609171
 21
41820.076721893849
 31
0.0
  0
LINE
  5
13C2
  8
FUTO
 10
34484.695168609171
 20
41837.076721893849
 30
0.0
 11
34484.695168609171
 21
41820.076721893849
 31
0.0
  0
LINE
  5
13E1
  8
FUTO
 10
33974.695168609171
 20
40268.576721893849
 30
0.0
 11
33974.695168609171
 21
40618.576721893849
 31
0.0
  0
LINE
  5
13E2
  8
SL
 10
34074.695168609171
 20
40418.576721893864
 30
0.0
 11
34074.695168609171
 21
40588.576721893849
 31
0.0
  0
DIMENSION
  5
1417
  8
SP
  2
*D5
 10
39395.270613569352
 20
39802.88860380894
 30
0.0
 11
38170.270613569352
 21
39914.317175237513
 31
0.0
 70
     0
  1
(<>)
 13
36945.270613569352
 23
37730.512797104231
 33
0.0
 14
39395.270613569352
 24
39331.512797104231
 34
0.0
1001
ACAD
1000
DSTYLE
1002
{
1070
    40
1040
40.0
1002
}
  0
LINE
  5
1453
  8
FUTO
 10
34250.695168609171
 20
40824.076721893849
 30
0.0
 11
34250.695168609171
 21
40691.076721893849
 31
0.0
  0
LINE
  5
1454
  8
FUTO
 10
34206.695168609171
 20
41820.076721893849
 30
0.0
 11
34206.695168609171
 21
41697.076721893849
 31
0.0
  0
LINE
  5
1455
  8
FUTO
 10
34206.695168609171
 20
41697.076721893849
 30
0.0
 11
34224.695168609171
 21
41697.076721893849
 31
0.0
  0
LINE
  5
1456
  8
FUTO
 10
34224.695168609171
 20
41697.076721893849
 30
0.0
 11
34224.695168609171
 21
41680.076721893864
 31
0.0
  0
LINE
  5
1457
  8
FUTO
 10
34224.695168609171
 20
41837.076721893849
 30
0.0
 11
34224.695168609171
 21
41820.076721893849
 31
0.0
  0
LINE
  5
1458
  8
FUTO
 10
34224.695168609171
 20
41820.076721893849
 30
0.0
 11
34206.695168609171
 21
41820.076721893849
 31
0.0
  0
LINE
  5
1698
  8
FUTO
 10
37333.770613569359
 20
36240.512797104231
 30
0.0
 11
37333.770613569352
 21
36170.512797106101
 31
0.0
  0
LINE
  5
1699
  8
FUTO
 10
38033.770613569359
 20
36240.512797104231
 30
0.0
 11
38033.770613569359
 21
36170.51279710613
 31
0.0
  0
LINE
  5
169A
  8
FUTO
 10
37828.770613569359
 20
36240.512797104231
 30
0.0
 11
37333.770613569359
 21
36240.512797104231
 31
0.0
  0
LINE
  5
169B
  8
FUTO
 10
37333.770613569352
 20
36240.512797104231
 30
0.0
 11
38033.770613569359
 21
36240.512797104231
 31
0.0
  0
LINE
  5
16AB
  8
FUTO
 10
37270.270613569359
 20
36620.512797104231
 30
0.0
 11
37270.270613569359
 21
36420.512797104231
 31
0.0
  0
LINE
  5
16AC
  8
FUTO
 10
38504.270613569359
 20
36780.512797104231
 30
0.0
 11
38504.270613569359
 21
36302.363859022138
 31
0.0
  0
LINE
  5
16AD
  8
FUTO
 10
37290.270613569352
 20
36830.512797104231
 30
0.0
 11
37290.270613569352
 21
36254.286073632051
 31
0.0
  0
LINE
  5
16AE
  8
FUTO
 10
37369.270613569359
 20
36830.512797104231
 30
0.0
 11
37369.270613569359
 21
36254.286073632051
 31
0.0
  0
LINE
  5
16AF
  8
FUTO
 10
38254.270613569352
 20
36830.512797104231
 30
0.0
 11
38254.270613569352
 21
36252.363859022138
 31
0.0
  0
LINE
  5
16B0
  8
CT
 10
37683.770613569359
 20
36867.152165090869
 30
0.0
 11
37683.770613569359
 21
36148.564270087139
 31
0.0
  0
LINE
  5
16B1
  8
FUTO
 10
37828.770613569359
 20
36240.512797104231
 30
0.0
 11
37948.770613569359
 21
36240.512797104231
 31
0.0
  0
LINE
  5
16B2
  8
FUTO
 10
37418.770613569359
 20
36270.512797104231
 30
0.0
 11
37948.770613569359
 21
36270.512797104231
 31
0.0
  0
LINE
  5
16B3
  8
FUTO
 10
38254.270613569352
 20
36252.363859022138
 30
0.0
 11
38454.270613569352
 21
36252.363859022138
 31
0.0
  0
ARC
  5
16B4
  8
FUTO
 10
38454.270613569352
 20
36302.363859022138
 30
0.0
 40
50.0
 50
270.0
 51
0.0
  0
LINE
  5
16B5
  8
FUTO
 10
37948.770613569359
 20
36252.363859022138
 30
0.0
 11
38233.945395571187
 21
36252.363859022138
 31
0.0
  0
LINE
  5
16B6
  8
FUTO
 10
38254.270613569352
 20
36263.897146681593
 30
0.0
 11
38233.945395571202
 21
36252.363859022138
 31
0.0
  0
LINE
  5
16B7
  8
CT
 10
37912.270613569359
 20
36294.503548863169
 30
0.0
 11
37912.270613569359
 21
36224.030506780698
 31
0.0
  0
LINE
  5
16B8
  8
FUTO
 10
37948.770613569359
 20
36270.512797104231
 30
0.0
 11
37948.770613569359
 21
36240.512797104231
 31
0.0
  0
LINE
  5
16B9
  8
FUTO
 10
37828.770613569359
 20
36252.363859022138
 30
0.0
 11
37538.770613569359
 21
36252.363859022138
 31
0.0
  0
LINE
  5
16BA
  8
FUTO
 10
37828.770613569359
 20
36252.363859022138
 30
0.0
 11
37828.770613569359
 21
36240.512797104231
 31
0.0
  0
LINE
  5
16BB
  8
FUTO
 10
37418.770613569359
 20
36270.512797104231
 30
0.0
 11
37418.770613569359
 21
36240.512797104231
 31
0.0
  0
LINE
  5
16BC
  8
CT
 10
37455.270613569359
 20
36294.503548863169
 30
0.0
 11
37455.270613569359
 21
36224.030506780698
 31
0.0
  0
LINE
  5
16BD
  8
FUTO
 10
37418.770613569359
 20
36254.286073632051
 30
0.0
 11
37290.270613569352
 21
36254.286073632051
 31
0.0
  0
LINE
  5
16BE
  8
FUTO
 10
37538.770613569359
 20
36252.363859022138
 30
0.0
 11
37538.770613569359
 21
36240.512797104231
 31
0.0
  0
LINE
  5
16BF
  8
FUTO
 10
37418.770613569359
 20
36240.512797104231
 30
0.0
 11
37538.770613569359
 21
36240.512797104231
 31
0.0
  0
LINE
  5
16C0
  8
FUTO
 10
37290.270613569352
 20
36420.512797104231
 30
0.0
 11
37270.270613569359
 21
36420.512797104231
 31
0.0
  0
LINE
  5
16C1
  8
FUTO
 10
38232.875787403791
 20
36830.512797104231
 30
0.0
 11
37290.270613569352
 21
36830.512797104231
 31
0.0
  0
LINE
  5
16C2
  8
CT
 10
38540.913379033787
 20
36520.512797104231
 30
0.0
 11
37069.12178272997
 21
36520.512797104231
 31
0.0
  0
LINE
  5
16C3
  8
FUTO
 10
38454.270613569352
 20
36830.512797104231
 30
0.0
 11
38254.270613569352
 21
36830.512797104231
 31
0.0
  0
ARC
  5
16C4
  8
FUTO
 10
38454.270613569352
 20
36780.512797104231
 30
0.0
 40
50.0
 50
0.0
 51
90.0
  0
LINE
  5
16C5
  8
FUTO
 10
38254.270613569352
 20
36805.961666675488
 30
0.0
 11
38232.875787403791
 21
36830.512797104231
 31
0.0
  0
LINE
  5
16C6
  8
FUTO
 10
37270.270613569359
 20
36563.012797104231
 30
0.0
 11
37095.270613569352
 21
36563.012797104231
 31
0.0
  0
LINE
  5
16C7
  8
FUTO
 10
37270.270613569359
 20
36478.012797104231
 30
0.0
 11
37095.270613569352
 21
36478.012797104231
 31
0.0
  0
LINE
  5
16C8
  8
CT
 10
37479.270613569359
 20
37153.882511068718
 30
0.0
 11
37479.270613569359
 21
36755.022979512942
 31
0.0
  0
LINE
  5
16C9
  8
FUTO
 10
37290.270613569352
 20
36620.512797104231
 30
0.0
 11
37270.270613569359
 21
36620.512797104231
 31
0.0
  0
LINE
  5
16CA
  8
FUTO
 10
37579.270613569352
 20
37110.512797104231
 30
0.0
 11
37379.270613569352
 21
37110.512797104231
 31
0.0
  0
LINE
  5
16CB
  8
FUTO
 10
37579.270613569352
 20
36845.512797104231
 30
0.0
 11
37379.270613569352
 21
36845.512797104231
 31
0.0
  0
LINE
  5
16CC
  8
CT
 10
37643.136540755739
 20
36970.512797104231
 30
0.0
 11
37341.000351371222
 21
36970.512797104231
 31
0.0
  0
LINE
  5
16CD
  8
FUTO
 10
37599.270613569359
 20
37090.512797104231
 30
0.0
 11
37599.270613569359
 21
36865.512797104231
 31
0.0
  0
ARC
  5
16CE
  8
FUTO
 10
37579.270613569352
 20
36865.512797104231
 30
0.0
 40
20.0
 50
270.0
 51
0.0
  0
ARC
  5
16CF
  8
FUTO
 10
37579.270613569352
 20
37090.512797104231
 30
0.0
 40
20.0
 50
0.0
 51
90.0
  0
LINE
  5
16D0
  8
FUTO
 10
37359.270613569359
 20
37090.512797104231
 30
0.0
 11
37359.270613569359
 21
36865.512797104231
 31
0.0
  0
ARC
  5
16D1
  8
FUTO
 10
37379.270613569352
 20
36865.512797104231
 30
0.0
 40
20.0
 50
180.0
 51
270.0
  0
ARC
  5
16D2
  8
FUTO
 10
37379.270613569352
 20
37090.512797104231
 30
0.0
 40
20.0
 50
90.0
 51
180.0
  0
LINE
  5
16D3
  8
FUTO
 10
37265.270613569352
 20
36563.012797104231
 30
0.0
 11
37265.270613569352
 21
36478.012797104231
 31
0.0
  0
LINE
  5
16D4
  8
FUTO
 10
37095.270613569352
 20
36563.012797104231
 30
0.0
 11
37095.270613569352
 21
36478.012797104231
 31
0.0
  0
LINE
  5
17EE
  8
FUTO
 10
35544.695168609207
 20
41556.181895728303
 30
0.0
 11
35544.695168609178
 21
40613.576721893864
 31
0.0
  0
LINE
  5
17EF
  8
CT
 10
35854.695168609229
 20
41864.219487358292
 30
0.0
 11
35854.695168609171
 21
40392.42789105446
 31
0.0
  0
LINE
  5
17F0
  8
FUTO
 10
36164.695168609207
 20
41556.181895728267
 30
0.0
 11
36164.695168609171
 21
40613.576721893849
 31
0.0
  0
LINE
  5
17F1
  8
FUTO
 10
35644.695168609178
 20
40682.576721893871
 30
0.0
 11
36034.695168609178
 21
40682.576721893849
 31
0.0
  0
LINE
  5
17F2
  8
CT
 10
36063.0080279865
 20
40802.576721893849
 30
0.0
 11
35600.025388971982
 21
40802.576721893871
 31
0.0
  0
LINE
  5
17F3
  8
CT
 10
36201.33453659583
 20
41007.076721893842
 30
0.0
 11
35482.746641592101
 21
41007.076721893871
 31
0.0
  0
LINE
  5
17F4
  8
FUTO
 10
36164.695168609171
 20
40613.576721893849
 30
0.0
 11
35544.695168609178
 21
40613.576721893864
 31
0.0
  0
LINE
  5
17F5
  8
FUTO
 10
35954.695168609178
 20
40593.576721893864
 30
0.0
 11
35754.695168609178
 21
40593.576721893864
 31
0.0
  0
LINE
  5
17F6
  8
FUTO
 10
35644.695168609192
 20
40922.576721893864
 30
0.0
 11
36034.695168609192
 21
40922.576721893849
 31
0.0
  0
LINE
  5
17F7
  8
FUTO
 10
36224.039557452088
 20
40657.076721893842
 30
0.0
 11
36224.03955745211
 21
41357.076721893849
 31
0.0
  0
LINE
  5
17F8
  8
FUTO
 10
36054.695168609192
 20
40902.576721893864
 30
0.0
 11
36054.695168609178
 21
40802.576721893849
 31
0.0
  0
LINE
  5
17F9
  8
CT
 10
35854.695168609091
 20
40247.125765723773
 30
0.0
 11
35854.69516860968
 21
41505.532161839939
 31
0.0
  0
LINE
  5
17FA
  8
FUTO
 10
36164.695168609178
 20
40657.076721893842
 30
0.0
 11
36224.039557452088
 21
40657.076721893842
 31
0.0
  0
LINE
  5
17FE
  8
FUTO
 10
35812.195168609171
 20
40593.576721893864
 30
0.0
 11
35812.195168609171
 21
40418.576721893864
 31
0.0
  0
LINE
  5
17FF
  8
FUTO
 10
35897.195168609178
 20
40593.576721893864
 30
0.0
 11
35897.195168609171
 21
40418.576721893864
 31
0.0
  0
LINE
  5
1802
  8
FUTO
 10
35897.195168609171
 20
40418.576721893864
 30
0.0
 11
35812.195168609171
 21
40418.576721893864
 31
0.0
  0
ARC
  5
1804
  8
FUTO
 10
36034.695168609178
 20
40702.576721893849
 30
0.0
 40
20.0
 50
270.0
 51
0.000000000000007
  0
LINE
  5
1805
  8
FUTO
 10
36054.695168609178
 20
40702.576721893842
 30
0.0
 11
36054.695168609178
 21
40802.576721893849
 31
0.0
  0
LINE
  5
1806
  8
FUTO
 10
36164.695168609178
 20
40692.576721893849
 30
0.0
 11
36052.015676684867
 21
40692.576721893849
 31
0.0
  0
LINE
  5
1807
  8
FUTO
 10
35897.195168609178
 20
40588.576721893849
 30
0.0
 11
35812.195168609171
 21
40588.576721893864
 31
0.0
  0
LINE
  5
1808
  8
FUTO
 10
35954.695168609178
 20
40613.576721893864
 30
0.0
 11
35954.695168609178
 21
40593.576721893864
 31
0.0
  0
LINE
  5
1809
  8
FUTO
 10
36164.6951686092
 20
41357.076721893849
 30
0.0
 11
36224.03955745211
 21
41357.076721893849
 31
0.0
  0
ARC
  5
180A
  8
FUTO
 10
36034.695168609192
 20
40902.576721893864
 30
0.0
 40
20.0
 50
0.000000000000007
 51
90.0
  0
LINE
  5
180B
  8
FUTO
 10
35485.350779766268
 20
40657.076721893871
 30
0.0
 11
35485.35077976629
 21
41357.076721893864
 31
0.0
  0
LINE
  5
180C
  8
FUTO
 10
35624.695168609192
 20
40902.576721893871
 30
0.0
 11
35624.695168609178
 21
40802.576721893871
 31
0.0
  0
LINE
  5
180F
  8
FUTO
 10
35627.374660533489
 20
40692.576721893864
 30
0.0
 11
35544.695168609178
 21
40692.576721893871
 31
0.0
  0
LINE
  5
1810
  8
CT
 10
35580.123613654978
 20
40778.576721893871
 30
0.0
 11
35509.650571572507
 21
40778.576721893871
 31
0.0
  0
ARC
  5
1811
  8
FUTO
 10
35644.695168609178
 20
40702.576721893871
 30
0.0
 40
20.0
 50
180.0
 51
270.0
  0
LINE
  5
1812
  8
FUTO
 10
35624.695168609178
 20
40702.576721893871
 30
0.0
 11
35624.695168609178
 21
40802.576721893871
 31
0.0
  0
LINE
  5
1813
  8
FUTO
 10
35754.695168609178
 20
40613.576721893864
 30
0.0
 11
35754.695168609178
 21
40593.576721893864
 31
0.0
  0
LINE
  5
1814
  8
FUTO
 10
35544.695168609178
 20
40657.076721893871
 30
0.0
 11
35485.350779766268
 21
40657.076721893871
 31
0.0
  0
ARC
  5
1815
  8
FUTO
 10
35644.695168609192
 20
40902.576721893871
 30
0.0
 40
20.0
 50
90.0
 51
180.0
  0
LINE
  5
1816
  8
CT
 10
35580.123613654992
 20
41235.576721893871
 30
0.0
 11
35509.650571572522
 21
41235.576721893871
 31
0.0
  0
LINE
  5
1817
  8
FUTO
 10
35544.6951686092
 20
41357.076721893864
 30
0.0
 11
35485.35077976629
 21
41357.076721893864
 31
0.0
  0
LINE
  5
181A
  8
FUTO
 10
36164.695168609207
 20
41577.576721893849
 30
0.0
 11
35544.695168609207
 21
41577.576721893864
 31
0.0
  0
LINE
  5
181B
  8
FUTO
 10
36114.695168609222
 20
41827.576721893849
 30
0.0
 11
35594.695168609222
 21
41827.576721893871
 31
0.0
  0
LINE
  5
181F
  8
FUTO
 10
36140.144038180457
 20
41577.576721893849
 30
0.0
 11
36164.695168609207
 21
41556.181895728267
 31
0.0
  0
ARC
  5
1820
  8
FUTO
 10
36114.695168609222
 20
41777.576721893842
 30
0.0
 40
50.0
 50
0.000000000000007
 51
90.0
  0
LINE
  5
1821
  8
FUTO
 10
36164.695168609222
 20
41777.576721893842
 30
0.0
 11
36164.695168609207
 21
41577.576721893849
 31
0.0
  0
ARC
  5
1824
  8
FUTO
 10
35594.695168609222
 20
41777.576721893871
 30
0.0
 40
50.0
 50
90.0
 51
180.0
  0
LINE
  5
1825
  8
FUTO
 10
35569.246299037957
 20
41577.576721893864
 30
0.0
 11
35544.695168609207
 21
41556.181895728303
 31
0.0
  0
LINE
  5
1826
  8
FUTO
 10
35544.695168609222
 20
41777.576721893871
 30
0.0
 11
35544.695168609207
 21
41577.576721893864
 31
0.0
  0
LINE
  5
1827
  8
FUTO
 10
36294.695168609171
 20
40682.576721893849
 30
0.0
 11
36294.695168609171
 21
40607.576721893849
 31
0.0
  0
LINE
  5
1828
  8
FUTO
 10
36118.575083054013
 20
41979.576721893849
 30
0.0
 11
36118.575083054013
 21
41827.425957233027
 31
0.0
  0
LINE
  5
1829
  8
FUTO
 10
35590.81525416451
 20
41979.57672189398
 30
0.0
 11
35590.815254164438
 21
41827.42595723315
 31
0.0
  0
LINE
  5
182A
  8
FUTO
 10
35665.81525416451
 20
41979.576721893944
 30
0.0
 11
35665.81525416443
 21
41827.576721893944
 31
0.0
  0
LINE
  5
182B
  8
SL
 10
36054.695168609171
 20
40418.576721893864
 30
0.0
 11
36054.695168609171
 21
40588.576721893849
 31
0.0
  0
LINE
  5
182D
  8
FUTO
 10
36134.695168609171
 20
40268.576721893849
 30
0.0
 11
36134.695168609171
 21
40618.576721893849
 31
0.0
  0
LINE
  5
182F
  8
FUTO
 10
34012.646742785131
 20
40682.576721893849
 30
0.0
 11
34012.646742785131
 21
42004.576721893864
 31
0.0
  0
LINE
  5
1830
  8
FUTO
 10
34696.74359443321
 20
40682.576721893849
 30
0.0
 11
34696.74359443321
 21
42004.576721893864
 31
0.0
  0
LINE
  5
1832
  8
FUTO
 10
35319.695168609171
 20
43513.576721893864
 30
0.0
 11
33389.695168609171
 21
43513.576721893864
 31
0.0
  0
LINE
  5
1833
  8
FUTO
 10
35319.695168609171
 20
43507.576721893849
 30
0.0
 11
33389.695168609171
 21
43507.576721893849
 31
0.0
  0
LINE
  5
1834
  8
KL
 10
35319.695168609171
 20
43387.776721893853
 30
0.0
 11
33389.695168609171
 21
43387.776721893853
 31
0.0
  0
LINE
  5
1839
  8
KL
 10
33454.695168609171
 20
43381.776721893853
 30
0.0
 11
33454.695168609171
 21
43513.576721893864
 31
0.0
  0
LINE
  5
183A
  8
KL
 10
33448.695168609171
 20
43381.776721893853
 30
0.0
 11
33448.695168609171
 21
43471.776721893853
 31
0.0
  0
LINE
  5
183B
  8
KL
 10
33389.695168609171
 20
43381.776721893853
 30
0.0
 11
33389.695168609171
 21
43387.776721893853
 31
0.0
  0
LINE
  5
183C
  8
HOSO
 10
33414.695168609171
 20
43339.242712282932
 30
0.0
 11
33414.695168609171
 21
43413.350327431202
 31
0.0
  0
LINE
  5
183D
  8
HOSO
 10
33414.695168609171
 20
43480.094175707833
 30
0.0
 11
33414.695168609171
 21
43554.201790856088
 31
0.0
  0
LINE
  5
183E
  8
FUTO
 10
33389.695168609171
 20
43507.576721893849
 30
0.0
 11
33389.695168609171
 21
43513.576721893864
 31
0.0
  0
LINE
  5
183F
  8
FUTO
 10
33448.695168609171
 20
43471.776721893853
 30
0.0
 11
33448.695168609171
 21
43513.576721893864
 31
0.0
  0
INSERT
  5
185B
  8
FUTO
  2
まっすぐの矢印
 10
34840.241471458277
 20
43709.049874464363
 30
0.0
 41
-2.0
 42
2.0
 43
2.0
 50
180.0
  0
LINE
  5
185D
  8
KL
 10
35254.695168609171
 20
43381.776721893853
 30
0.0
 11
35254.695168609171
 21
43513.576721893864
 31
0.0
  0
LINE
  5
185E
  8
FUTO
 10
35260.695168609171
 20
43446.776721893853
 30
0.0
 11
35260.695168609171
 21
43513.576721893864
 31
0.0
  0
LINE
  5
185F
  8
KL
 10
35260.695168609171
 20
43381.776721893853
 30
0.0
 11
35260.695168609171
 21
43446.776721893853
 31
0.0
  0
LINE
  5
1860
  8
KL
 10
35319.695168609171
 20
43387.776721893853
 30
0.0
 11
35319.695168609171
 21
43381.776721893853
 31
0.0
  0
LINE
  5
1861
  8
HOSO
 10
35294.695168609171
 20
43352.83875208586
 30
0.0
 11
35294.695168609171
 21
43412.669100915933
 31
0.0
  0
LINE
  5
1862
  8
HOSO
 10
35294.695168609171
 20
43480.908945334173
 30
0.0
 11
35294.695168609171
 21
43540.739294164247
 31
0.0
  0
LINE
  5
1863
  8
FUTO
 10
35319.695168609171
 20
43507.576721893849
 30
0.0
 11
35319.695168609171
 21
43513.576721893864
 31
0.0
  0
LINE
  5
188E
  8
FUTO
 10
33960.5429593714
 20
37078.197331866919
 30
0.0
 11
33654.695168609171
 21
36186.303891642638
 31
0.0
  0
LINE
  5
188F
  8
FUTO
 10
33875.861270270252
 20
37318.701027644907
 30
0.0
 11
33166.927878202128
 21
37255.817541435783
 31
0.0
  0
LINE
  5
1890
  8
FUTO
 10
33877.451653774071
 20
37300.771424182749
 30
0.0
 11
33164.51821749907
 21
37237.533127877861
 31
0.0
  0
LINE
  5
1891
  8
KL
 10
35165.577857872187
 20
37361.13899710423
 30
0.0
 11
34554.695168609171
 21
37361.13899710423
 31
0.0
  0
LINE
  5
1892
  8
KL
 10
35190.667368913309
 20
37343.13899710423
 30
0.0
 11
34554.695168609171
 21
37343.13899710423
 31
0.0
  0
LINE
  5
1893
  8
FUTO
 10
35404.695168609171
 20
36403.766158295111
 30
0.0
 11
35404.695168609171
 21
36172.13899710423
 31
0.0
  0
LINE
  5
1894
  8
FUTO
 10
35395.695168609171
 20
36407.449548275777
 30
0.0
 11
35395.695168609171
 21
36172.13899710423
 31
0.0
  0
LINE
  5
1895
  8
KL
 10
35413.695168609171
 20
37183.131877477732
 30
0.0
 11
35413.695168609171
 21
36399.987520186973
 31
0.0
  0
LINE
  5
1896
  8
KL
 10
35404.695168609171
 20
37189.58875899027
 30
0.0
 11
35404.695168609171
 21
36403.766158295111
 31
0.0
  0
LINE
  5
1897
  8
KL
 10
35395.695168609171
 20
37196.045640502809
 30
0.0
 11
35395.695168609171
 21
36407.449548275777
 31
0.0
  0
DIMENSION
  5
18AD
  8
SP
  2
*D6
 10
32645.286079403581
 20
39342.13899710423
 30
0.0
 11
32565.28607940357
 21
38347.13899710423
 31
0.0
 70
     0
 13
32809.341169565072
 23
37352.13899710423
 33
0.0
 14
33189.695168609171
 24
39342.13899710423
 34
0.0
 50
90.0
1001
ACAD
1000
DSTYLE
1002
{
1070
    40
1040
40.0
1002
}
  0
DIMENSION
  5
1909
  8
SP
  2
*D9
 10
33189.695168609171
 20
43971.4506533768
 30
0.0
 11
33772.195168609171
 21
44051.4506533768
 31
0.0
 70
     0
 13
34354.695168609171
 23
43712.572025066082
 33
0.0
 14
33189.695168609171
 24
43447.576721893849
 34
0.0
 50
180.0
1001
ACAD
1000
DSTYLE
1002
{
1070
    40
1040
40.0
1002
}
  0
DIMENSION
  5
1916
  8
SP
  2
*D10
 10
36294.695168609171
 20
43971.4506533768
 30
0.0
 11
35324.695168609171
 21
44051.4506533768
 31
0.0
 70
     0
 13
34354.695168609171
 23
43971.4506533768
 33
0.0
 14
36294.695168609171
 24
42054.576721893849
 34
0.0
 50
180.0
1001
ACAD
1000
DSTYLE
1002
{
1070
    40
1040
40.0
1002
}
  0
DIMENSION
  5
1923
  8
SP
  2
*D11
 10
32769.708903119048
 20
42718.576721893842
 30
0.0
 11
32689.708903119052
 21
43116.076721893849
 31
0.0
 70
     0
 13
33389.695168609171
 23
43513.576721893864
 33
0.0
 14
32702.460724900251
 24
42718.576721893842
 34
0.0
 50
90.0
1001
ACAD
1000
DSTYLE
1002
{
1070
    40
1040
40.0
1002
}
  0
DIMENSION
  5
1930
  8
SP
  2
*D12
 10
32769.708903119048
 20
40268.576721893849
 30
0.0
 11
32689.708903119052
 21
41493.576721893864
 31
0.0
 70
     0
 13
32769.708903119048
 23
42718.576721893842
 33
0.0
 14
33974.695168609171
 24
40268.576721893849
 34
0.0
 50
90.0
1001
ACAD
1000
DSTYLE
1002
{
1070
    40
1040
40.0
1002
}
  0
LINE
  5
19B8
  8
KL
 10
37344.270613569359
 20
36830.512797104231
 30
0.0
 11
37344.270613569359
 21
36172.138980498239
 31
0.0
  0
TEXT
  5
21AD
  8
SP
 10
56696.799278069971
 20
43070.629697272598
 30
0.0
 40
100.0
  1
 
  0
LINE
  5
21AE
  8
4
 10
41078.106128590101
 20
33496.609482933978
 30
0.0
 11
41078.106128590087
 21
32296.609482933982
 31
0.0
  0
LINE
  5
21AF
  8
4
 10
36878.106128590101
 20
33496.609482933978
 30
0.0
 11
36878.106128590101
 21
32296.609482933982
 31
0.0
  0
LINE
  5
21B0
  8
4
 10
33878.106128590087
 20
33496.609482933978
 30
0.0
 11
33878.106128590087
 21
32296.609482933982
 31
0.0
  0
LINE
  5
21B3
  8
4
 10
33878.106128590087
 20
32296.609482933982
 30
0.0
 11
41078.106128590101
 21
32296.609482933982
 31
0.0
  0
LINE
  5
21B4
  8
4
 10
33878.106128590087
 20
32896.609482933978
 30
0.0
 11
41078.106128590101
 21
32896.609482933978
 31
0.0
  0
TEXT
  5
21B5
  8
4
 10
34109.118613671511
 20
33085.867638133648
 30
0.0
 40
300.0
  1
機器名称
  0
TEXT
  5
21B6
  8
4
 10
34095.65476473888
 20
32426.48042332604
 30
0.0
 40
300.0
  1
機器型番
  0
TEXT
  5
21B7
  8
4
 10
36906.864498796349
 20
33029.733297075662
 30
0.0
 40
270.0
  1
ミツヤリミットロードファン
  0
TEXT
  5
21B8
  8
4
 10
37098.033102102992
 20
32399.566988613638
 30
0.0
 40
300.0
  1
LL#11-1
  0
TEXT
  5
21BA
  8
4
 10
31875.111688566769
 20
45699.895340129769
 30
0.0
 40
432.0
  1
遠心式片吸込片持リミットロードファン
  0
LINE
  5
21BB
  8
4
 10
31478.106128590091
 20
45313.062008522807
 30
0.0
 11
41078.106128590101
 21
45313.062008522807
 31
0.0
  0
LINE
  5
21BC
  8
4
 10
31478.106128590091
 20
46513.0620085228
 30
0.0
 11
41078.106128590101
 21
46513.0620085228
 31
0.0
  0
LINE
  5
21BD
  8
4
 10
33878.106128590087
 20
33496.609482933978
 30
0.0
 11
41078.106128590101
 21
33496.609482933978
 31
0.0
  0
LINE
  5
21BE
  8
4
 10
31478.106128590091
 20
46513.0620085228
 30
0.0
 11
31478.106128590091
 21
45313.062008522807
 31
0.0
  0
TEXT
  5
21BF
  8
4
 10
32013.14722549653
 20
44790.526348212043
 30
0.0
 40
323.99999999999989
  1
左回転左横向
  0
TEXT
  5
21C0
  8
4
 10
38791.923484085841
 20
46732.975971905827
 30
0.0
 40
336.00000000000011
  1
No.
  0
TEXT
  5
21C1
  8
4
 10
38756.252587311938
 20
43938.012361448367
 30
0.0
 40
323.99999999999989
  1
縮尺：1/60
  0
LINE
  5
21C2
  8
4
 10
41078.106128590101
 20
46513.0620085228
 30
0.0
 11
41078.106128590101
 21
45313.062008522807
 31
0.0
  0
LINE
  5
21C3
  8
4
 10
42578.106128590101
 20
48196.609482933978
 30
0.0
 11
42578.106128590101
 21
48196.609482933978
 31
0.0
  0
LINE
  5
21C4
  8
4
 10
38621.810662749289
 20
46584.190981686377
 30
0.0
 11
38621.810662749289
 21
47216.523052232493
 31
0.0
  0
LINE
  5
21C5
  8
4
 10
38621.810662749289
 20
47216.523052232493
 30
0.0
 11
41078.106128590101
 21
47216.523052232493
 31
0.0
  0
LINE
  5
21C6
  8
4
 10
41078.106128590101
 20
47216.523052232493
 30
0.0
 11
41078.106128590101
 21
46584.190981686377
 31
0.0
  0
LINE
  5
21C7
  8
4
 10
41078.106128590101
 20
46584.190981686377
 30
0.0
 11
38621.810662749289
 21
46584.190981686377
 31
0.0
  0
LINE
  5
21C8
  8
4
 10
29978.106128590101
 20
30496.609482933971
 30
0.0
 11
29978.106128590101
 21
48196.609482933978
 31
0.0
  0
LINE
  5
21C9
  8
4
 10
29978.106128590101
 20
48196.609482933978
 30
0.0
 11
42578.106128590101
 21
48196.609482933978
 31
0.0
  0
LINE
  5
21CA
  8
4
 10
42578.106128590101
 20
48196.609482933978
 30
0.0
 11
42578.106128590101
 21
30496.609482933971
 31
0.0
  0
LINE
  5
21CB
  8
4
 10
42578.106128590101
 20
30496.609482933971
 30
0.0
 11
29978.106128590101
 21
30496.609482933971
 31
0.0
  0
TEXT
  5
21CC
  8
4
 10
35089.883012683247
 20
44790.596272860421
 30
0.0
 40
323.99999999999989
  1
床置防振ベット
  0
ENDSEC
  0
EOF
