  0
SECTION
  2
HEADER
  9
$ACADVER
  1
AC1009
  9
$INSBASE
 10
0.0
 20
0.0
 30
0.0
  9
$EXTMIN
 10
19100.23318473504
 20
10984.08770590281
 30
0.0
  9
$EXTMAX
 10
31700.23318473504
 20
28684.08770590281
 30
0.0
  9
$LIMMIN
 10
0.0
 20
0.0
  9
$LIMMAX
 10
297.0
 20
210.0
  9
$ORTHOMODE
 70
     0
  9
$REGENMODE
 70
     1
  9
$FILLMODE
 70
     1
  9
$QTEXTMODE
 70
     0
  9
$MIRRTEXT
 70
     0
  9
$DRAGMODE
 70
     2
  9
$LTSCALE
 40
200.0
  9
$OSMODE
 70
    37
  9
$ATTMODE
 70
     1
  9
$TEXTSIZE
 40
150.0
  9
$TRACEWID
 40
0.05
  9
$TEXTSTYLE
  7
STANDARD
  9
$CLAYER
  8
FUTO
  9
$CELTYPE
  6
BYLAYER
  9
$CECOLOR
 62
   256
  9
$DIMSCALE
 40
40.0
  9
$DIMASZ
 40
2.0
  9
$DIMEXO
 40
1.0
  9
$DIMDLI
 40
10.0
  9
$DIMRND
 40
0.0
  9
$DIMDLE
 40
0.0
  9
$DIMEXE
 40
1.0
  9
$DIMTP
 40
0.0
  9
$DIMTM
 40
0.0
  9
$DIMTXT
 40
3.0
  9
$DIMCEN
 40
0.0
  9
$DIMTSZ
 40
0.0
  9
$DIMTOL
 70
     0
  9
$DIMLIM
 70
     0
  9
$DIMTIH
 70
     0
  9
$DIMTOH
 70
     0
  9
$DIMSE1
 70
     0
  9
$DIMSE2
 70
     0
  9
$DIMTAD
 70
     1
  9
$DIMZIN
 70
     8
  9
$DIMBLK
  1

  9
$DIMASO
 70
     1
  9
$DIMSHO
 70
     1
  9
$DIMPOST
  1

  9
$DIMAPOST
  1

  9
$DIMALT
 70
     0
  9
$DIMALTD
 70
     2
  9
$DIMALTF
 40
0.03937
  9
$DIMLFAC
 40
1.0
  9
$DIMTOFL
 70
     1
  9
$DIMTVP
 40
0.0
  9
$DIMTIX
 70
     0
  9
$DIMSOXD
 70
     0
  9
$DIMSAH
 70
     1
  9
$DIMBLK1
  1
OPEN
  9
$DIMBLK2
  1
OPEN
  9
$DIMSTYLE
  2
MATSU
  9
$DIMCLRD
 70
   256
  9
$DIMCLRE
 70
   256
  9
$DIMCLRT
 70
   256
  9
$DIMTFAC
 40
1.0
  9
$DIMGAP
 40
0.5
  9
$LUNITS
 70
     2
  9
$LUPREC
 70
     3
  9
$SKETCHINC
 40
0.1
  9
$FILLETRAD
 40
7.0
  9
$AUNITS
 70
     0
  9
$AUPREC
 70
     2
  9
$MENU
  1
acad
  9
$ELEVATION
 40
0.0
  9
$PELEVATION
 40
0.0
  9
$THICKNESS
 40
0.0
  9
$LIMCHECK
 70
     0
  9
$BLIPMODE
 70
     0
  9
$CHAMFERA
 40
0.0
  9
$CHAMFERB
 40
0.0
  9
$SKPOLY
 70
     0
  9
$TDCREATE
 40
2451593.4082031241
  9
$TDUPDATE
 40
2454953.6507725688
  9
$TDINDWG
 40
0.5594711690000001
  9
$TDUSRTIMER
 40
0.5594711690000001
  9
$USRTIMER
 70
     1
  9
$ANGBASE
 50
0.0
  9
$ANGDIR
 70
     0
  9
$PDMODE
 70
     0
  9
$PDSIZE
 40
1.0
  9
$PLINEWID
 40
0.0
  9
$COORDS
 70
     1
  9
$SPLFRAME
 70
     0
  9
$SPLINETYPE
 70
     6
  9
$SPLINESEGS
 70
     8
  9
$ATTDIA
 70
     0
  9
$ATTREQ
 70
     1
  9
$HANDLING
 70
 10241
  9
$HANDSEED
  5
245C
  9
$SURFTAB1
 70
     6
  9
$SURFTAB2
 70
     6
  9
$SURFTYPE
 70
     6
  9
$SURFU
 70
     6
  9
$SURFV
 70
     6
  9
$UCSNAME
  2

  9
$UCSORG
 10
0.0
 20
0.0
 30
0.0
  9
$UCSXDIR
 10
1.0
 20
0.0
 30
0.0
  9
$UCSYDIR
 10
0.0
 20
1.0
 30
0.0
  9
$PUCSNAME
  2

  9
$PUCSORG
 10
0.0
 20
0.0
 30
0.0
  9
$PUCSXDIR
 10
1.0
 20
0.0
 30
0.0
  9
$PUCSYDIR
 10
0.0
 20
1.0
 30
0.0
  9
$USERI1
 70
     0
  9
$USERI2
 70
     0
  9
$USERI3
 70
     0
  9
$USERI4
 70
     0
  9
$USERI5
 70
     0
  9
$USERR1
 40
0.0
  9
$USERR2
 40
0.0
  9
$USERR3
 40
0.0
  9
$USERR4
 40
0.0
  9
$USERR5
 40
0.0
  9
$WORLDVIEW
 70
     1
  9
$SHADEDGE
 70
     3
  9
$SHADEDIF
 70
    70
  9
$TILEMODE
 70
     1
  9
$MAXACTVP
 70
    16
  9
$PLIMCHECK
 70
     0
  9
$PEXTMIN
 10
1.0000000000000000E+020
 20
1.0000000000000000E+020
 30
1.0000000000000000E+020
  9
$PEXTMAX
 10
-1.0000000000000000E+020
 20
-1.0000000000000000E+020
 30
-1.0000000000000000E+020
  9
$PLIMMIN
 10
0.0
 20
0.0
  9
$PLIMMAX
 10
12.0
 20
9.0
  9
$UNITMODE
 70
     0
  9
$VISRETAIN
 70
     0
  9
$PLINEGEN
 70
     0
  9
$PSLTSCALE
 70
     0
  0
ENDSEC
  0
SECTION
  2
TABLES
  0
TABLE
  2
VPORT
 70
     2
  0
VPORT
  2
*ACTIVE
 70
     0
 10
0.0
 20
0.0
 11
1.0
 21
1.0
 12
31591.34270347338
 22
13047.471522926049
 13
0.0
 23
0.0
 14
5.0
 24
5.0
 15
0.0
 25
0.0
 16
0.0
 26
0.0
 36
1.0
 17
0.0
 27
0.0
 37
0.0
 40
5835.5255295049374
 41
3.1666666666666661
 42
50.0
 43
0.0
 44
0.0
 50
0.0
 51
0.0
 71
     0
 72
   100
 73
     1
 74
     0
 75
     0
 76
     0
 77
     0
 78
     0
  0
ENDTAB
  0
TABLE
  2
LTYPE
 70
     4
  0
LTYPE
  2
CONTINUOUS
 70
     0
  3
Solid line
 72
    65
 73
     0
 40
0.0
  0
LTYPE
  2
CENTER
 70
     0
  3
____ _ ____ _ ____ _ ____ _ ____ _ ____ _ ____ 
 72
    65
 73
     4
 40
2.0
 49
1.25
 49
-0.25
 49
0.25
 49
-0.25
  0
LTYPE
  2
HIDDEN
 70
     0
  3
__ __ __ __ __ __ __ __ __ __ __ __ __ __ __ __
 72
    65
 73
     2
 40
0.375
 49
0.25
 49
-0.125
  0
LTYPE
  2
PHANTOM
 70
     0
  3
______  __  __  ______  __  __  ______  __  __ 
 72
    65
 73
     6
 40
2.5
 49
1.25
 49
-0.25
 49
0.25
 49
-0.25
 49
0.25
 49
-0.25
  0
ENDTAB
  0
TABLE
  2
LAYER
 70
    10
  0
LAYER
  2
0
 70
     0
 62
     7
  6
CONTINUOUS
  0
LAYER
  2
CT
 70
     0
 62
     3
  6
CENTER
  0
LAYER
  2
FUTO
 70
     0
 62
     4
  6
CONTINUOUS
  0
LAYER
  2
HOSO
 70
     0
 62
     7
  6
CONTINUOUS
  0
LAYER
  2
KL
 70
     0
 62
     7
  6
HIDDEN
  0
LAYER
  2
SL
 70
     0
 62
     1
  6
PHANTOM
  0
LAYER
  2
SP
 70
     0
 62
     2
  6
CONTINUOUS
  0
LAYER
  2
1
 70
     0
 62
     7
  6
CONTINUOUS
  0
LAYER
  2
DEFPOINTS
 70
     0
 62
     7
  6
CONTINUOUS
  0
LAYER
  2
4
 70
     0
 62
     7
  6
CONTINUOUS
  0
ENDTAB
  0
TABLE
  2
STYLE
 70
     1
  0
STYLE
  2
STANDARD
 70
     0
 40
0.0
 41
1.0
 50
15.0
 71
     0
 42
150.0
  3
C:\Program Files\AutoCAD LT\simplex.shx
  4
bigfont.shx
  0
ENDTAB
  0
TABLE
  2
VIEW
 70
     0
  0
ENDTAB
  0
TABLE
  2
UCS
 70
     0
  0
ENDTAB
  0
TABLE
  2
APPID
 70
     2
  0
APPID
  2
ACAD
 70
     0
  0
APPID
  2
CONTENTBLOCKICON
 70
     0
  0
ENDTAB
  0
TABLE
  2
DIMSTYLE
 70
     2
  0
DIMSTYLE
  2
MATSU
 70
     0
  3

  4

  5

  6
OPEN
  7
OPEN
 40
1.0
 41
2.0
 42
1.0
 43
10.0
 44
1.0
 45
0.0
 46
0.0
 47
0.0
 48
0.0
140
3.0
141
0.0
142
0.0
143
0.03937
144
1.0
145
0.0
146
1.0
147
0.5
 71
     0
 72
     0
 73
     0
 74
     0
 75
     0
 76
     0
 77
     1
 78
     8
170
     0
171
     2
172
     1
173
     1
174
     0
175
     0
176
   256
177
   256
178
   256
  0
DIMSTYLE
  2
STANDARD
 70
     0
  3

  4

  5

  6

  7

 40
1.0
 41
0.18
 42
0.0625
 43
0.38
 44
0.18
 45
0.0
 46
0.0
 47
0.0
 48
0.0
140
0.18
141
0.09
142
0.0
143
25.399999999999999
144
1.0
145
0.0
146
1.0
147
0.09
 71
     0
 72
     0
 73
     1
 74
     1
 75
     0
 76
     0
 77
     0
 78
     0
170
     0
171
     2
172
     0
173
     0
174
     0
175
     0
176
     0
177
     0
178
     0
  0
ENDTAB
  0
ENDSEC
  0
SECTION
  2
BLOCKS
  0
BLOCK
  8
0
  2
$MODEL_SPACE
 70
     0
 10
0.0
 20
0.0
 30
0.0
  3
$MODEL_SPACE
  1

  0
ENDBLK
  5
7
  8
0
  0
BLOCK
 67
     1
  8
0
  2
$PAPER_SPACE
 70
     0
 10
0.0
 20
0.0
 30
0.0
  3
$PAPER_SPACE
  1

  0
ENDBLK
  5
A
 67
     1
  8
0
  0
BLOCK
  8
0
  2
_OPEN
 70
     0
 10
0.0
 20
0.0
 30
0.0
  3
_OPEN
  1

  0
LINE
  5
27
  8
0
  6
BYBLOCK
 62
     0
 10
-1.0
 20
0.1666666666666666
 30
0.0
 11
0.0
 21
0.0
 31
0.0
  0
LINE
  5
28
  8
0
  6
BYBLOCK
 62
     0
 10
0.0
 20
0.0
 30
0.0
 11
-1.0
 21
-0.1666666666666666
 31
0.0
  0
LINE
  5
29
  8
0
  6
BYBLOCK
 62
     0
 10
0.0
 20
0.0
 30
0.0
 11
-1.0
 21
0.0
 31
0.0
  0
ENDBLK
  5
2B
  8
0
  0
BLOCK
  8
0
  2
_DOT
 70
     0
 10
0.0
 20
0.0
 30
0.0
  3
_DOT
  1

  0
POLYLINE
  5
DB
  8
0
  6
BYBLOCK
 62
     0
 66
     1
 10
0.0
 20
0.0
 30
0.0
 70
     1
 40
0.25
 41
0.25
  0
VERTEX
  5
2436
  8
0
  6
BYBLOCK
 62
     0
 10
-0.125
 20
0.0
 30
0.0
 42
1.0
  0
VERTEX
  5
2437
  8
0
  6
BYBLOCK
 62
     0
 10
0.125
 20
0.0
 30
0.0
 42
1.0
  0
SEQEND
  5
2438
  8
0
  6
BYBLOCK
 62
     0
  0
LINE
  5
DF
  8
0
  6
BYBLOCK
 62
     0
 10
-0.25
 20
0.0
 30
0.0
 11
-1.0
 21
0.0
 31
0.0
  0
ENDBLK
  5
E1
  8
0
  0
BLOCK
  8
0
  2
まっすぐの矢印
 70
     0
 10
0.0
 20
0.0
 30
0.0
  3
まっすぐの矢印
  1

  0
LINE
  5
8C
  8
SP
 10
13.01863531255526
 20
-41.453946163708451
 30
0.0
 11
13.01863531255526
 21
-93.495696758840026
 31
0.0
  0
LINE
  5
8D
  8
SP
 10
13.01863531255526
 20
-93.495696758840026
 30
0.0
 11
-13.01863531255526
 21
-93.495696758840026
 31
0.0
  0
LINE
  5
8E
  8
SP
 10
-13.01863531255526
 20
-93.495696758840026
 30
0.0
 11
-13.01863531255526
 21
-41.453946163708451
 31
0.0
  0
LINE
  5
8F
  8
SP
 10
-13.01863531255526
 20
-41.453946163708451
 30
0.0
 11
-32.06015471115802
 21
-41.453946163708451
 31
0.0
  0
LINE
  5
90
  8
SP
 10
-32.06015471115802
 20
-41.453946163708451
 30
0.0
 11
0.0
 21
0.0
 31
0.0
  0
LINE
  5
91
  8
SP
 10
0.0
 20
0.0
 30
0.0
 11
32.06015471115802
 21
-41.453946163708451
 31
0.0
  0
LINE
  5
92
  8
SP
 10
32.06015471115802
 20
-41.453946163708451
 30
0.0
 11
13.01863531255526
 21
-41.453946163708451
 31
0.0
  0
ENDBLK
  5
94
  8
0
  0
BLOCK
  8
0
  2
左回転矢印
 70
     0
 10
0.0
 20
0.0
 30
0.0
  3
左回転矢印
  1

  0
LINE
  5
2C7
  8
SP
 10
43.930449171819873
 20
24.859487323637271
 30
0.0
 11
38.511878498580238
 21
44.478978865188871
 31
0.0
  0
LINE
  5
2C8
  8
SP
 10
38.511878498580238
 20
44.478978865188871
 30
0.0
 11
0.0
 21
0.0
 31
0.0
  0
LINE
  5
2C9
  8
SP
 10
0.0
 20
0.0
 30
0.0
 11
52.57968174421967
 21
-6.4575435924972453
 31
0.0
  0
LINE
  5
2CA
  8
SP
 10
52.57968174421967
 20
-6.4575435924972453
 30
0.0
 11
48.189912989015284
 21
9.436875093862227
 31
0.0
  0
ARC
  5
2CB
  8
SP
 10
93.893649146691985
 20
-156.0466295121104
 30
0.0
 40
171.67883327727239
 50
67.881388989212894
 51
105.4392492786835
  0
LINE
  5
2CC
  8
SP
 10
158.53505643637521
 20
2.997736182040398
 30
0.0
 11
164.55945966006539
 21
17.820238190756751
 31
0.0
  0
ARC
  5
2CD
  8
SP
 10
93.893649146692198
 20
-156.04662951211091
 30
0.0
 40
187.67883327727299
 50
67.881388989212994
 51
105.4392492786836
  0
ENDBLK
  5
2CF
  8
0
  0
BLOCK
  8
0
  2
*D4
 70
     1
 10
0.0
 20
0.0
 30
0.0
  3
*D4
  1

  0
LINE
  5
2429
  8
SP
 10
22557.639228272761
 20
16125.717351791051
 30
0.0
 11
21908.230139067171
 21
16125.717351791051
 31
0.0
  0
LINE
  5
242A
  8
SP
 10
21948.230139067171
 20
16225.717351791051
 30
0.0
 11
21948.230139067171
 21
16305.717351791051
 31
0.0
  0
LINE
  5
242B
  8
SP
 10
21948.230139067171
 20
16045.717351791051
 30
0.0
 11
21948.230139067171
 21
15965.717351791051
 31
0.0
  0
LINE
  5
242C
  8
SP
 10
21948.230139067171
 20
16135.717351791051
 30
0.0
 11
21724.648594057679
 21
16314.257458912951
 31
0.0
  0
LINE
  5
242D
  8
SP
 10
21724.648594057679
 20
16314.257458912951
 30
0.0
 11
21724.648594057679
 21
16702.11828375305
 31
0.0
  0
TEXT
  8
0
  40
120
  5
2458
  72
0
  71
0
 10
21373.2
 20
16295.8
 30
0.000000
  1
(20)
  0
LINE
  5
242F
  8
SP
 10
21948.230139067171
 20
16145.717351791051
 30
0.0
 11
21948.230139067171
 21
16125.717351791051
 31
0.0
  0
LINE
  5
2430
  8
SP
 10
21948.230139067171
 20
16145.717351791051
 30
0.0
 11
21948.230139067171
 21
16125.717351791051
 31
0.0
  0
INSERT
  5
2431
  8
SP
  2
_OPEN
 10
21948.230139067171
 20
16145.717351791051
 30
0.0
 41
80.0
 42
80.0
 43
80.0
 50
270.0
  0
INSERT
  5
2432
  8
SP
  2
_DOT
 10
21948.230139067171
 20
16125.717351791051
 30
0.0
 41
80.0
 42
80.0
 43
80.0
 50
90.0
  0
POINT
  5
2433
  8
DEFPOINTS
 62
     0
 10
22632.526015940271
 20
16145.717351791051
 30
0.0
  0
POINT
  5
2434
  8
DEFPOINTS
 62
     0
 10
22597.639228272761
 20
16125.717351791051
 30
0.0
  0
POINT
  5
2435
  8
DEFPOINTS
 62
     0
 10
21948.230139067171
 20
16125.717351791051
 30
0.0
  0
ENDBLK
  5
88C
  8
0
  0
BLOCK
  8
0
  2
*D5
 70
     1
 10
0.0
 20
0.0
 30
0.0
  3
*D5
  1

  0
LINE
  5
23DC
  8
SP
 10
26248.214673232949
 20
18714.09115179105
 30
0.0
 11
26248.214673232949
 21
20107.421450485908
 31
0.0
  0
LINE
  5
23DD
  8
SP
 10
28698.214673232949
 20
19636.045643781199
 30
0.0
 11
28698.214673232949
 21
20107.421450485908
 31
0.0
  0
LINE
  5
23DE
  8
SP
 10
26328.214673232949
 20
20067.421450485908
 30
0.0
 11
28618.214673232949
 21
20067.421450485908
 31
0.0
  0
INSERT
  5
23DF
  8
SP
  2
_OPEN
 10
26248.214673232949
 20
20067.421450485908
 30
0.0
 41
80.0
 42
80.0
 43
80.0
 50
180.0
  0
INSERT
  5
23E0
  8
SP
  2
_OPEN
 10
28698.214673232949
 20
20067.421450485908
 30
0.0
 41
80.0
 42
80.0
 43
80.0
  0
TEXT
  5
23E1
  8
FUTO
 10
27176.221984327971
 20
20138.850021914481
 30
0.0
 40
120.0
  1
(2450)
 51
15.0
  0
POINT
  5
23E2
  8
DEFPOINTS
 62
     0
 10
26248.214673232949
 20
18674.09115179105
 30
0.0
  0
POINT
  5
23E3
  8
DEFPOINTS
 62
     0
 10
28698.214673232949
 20
19596.045643781199
 30
0.0
  0
POINT
  5
23E4
  8
DEFPOINTS
 62
     0
 10
28698.214673232949
 20
20067.421450485908
 30
0.0
  0
ENDBLK
  5
1423
  8
0
  0
BLOCK
  8
0
  2
*D6
 70
     1
 10
0.0
 20
0.0
 30
0.0
  3
*D6
  1

  0
LINE
  5
2439
  8
SP
 10
22557.639228272761
 20
15975.717351791051
 30
0.0
 11
21908.230139067171
 21
15975.717351791051
 31
0.0
  0
LINE
  5
243A
  8
SP
 10
21948.230139067171
 20
16205.717351791051
 30
0.0
 11
21948.230139067171
 21
16285.717351791051
 31
0.0
  0
LINE
  5
243B
  8
SP
 10
21948.230139067171
 20
15895.717351791051
 30
0.0
 11
21948.230139067171
 21
15495.717351791051
 31
0.0
  0
LINE
  5
243C
  8
SP
 10
21948.230139067171
 20
16125.717351791051
 30
0.0
 11
21948.230139067171
 21
15975.717351791051
 31
0.0
  0
INSERT
  5
243D
  8
SP
  2
_DOT
 10
21948.230139067171
 20
16125.717351791051
 30
0.0
 41
80.0
 42
80.0
 43
80.0
 50
270.0
  0
INSERT
  5
243E
  8
SP
  2
_OPEN
 10
21948.230139067171
 20
15975.717351791051
 30
0.0
 41
80.0
 42
80.0
 43
80.0
 50
90.0
  0
TEXT
  8
0
  40
120
  5
2459
  72
0
  71
0
 10
21628.2
 20
15443.3
 30
0.000000
  1
150
  0
POINT
  5
2440
  8
DEFPOINTS
 62
     0
 10
22597.639228272761
 20
16125.717351791051
 30
0.0
  0
POINT
  5
2441
  8
DEFPOINTS
 62
     0
 10
22597.639228272761
 20
15975.717351791051
 30
0.0
  0
POINT
  5
2442
  8
DEFPOINTS
 62
     0
 10
21948.230139067171
 20
15975.717351791051
 30
0.0
  0
ENDBLK
  5
18FA
  8
0
  0
BLOCK
  8
0
  2
*D7
 70
     1
 10
0.0
 20
0.0
 30
0.0
  3
*D7
  1

  0
LINE
  5
23F6
  8
SP
 10
23657.639228272761
 20
24198.801383173952
 30
0.0
 11
23657.639228272761
 21
24457.68001148467
 31
0.0
  0
LINE
  5
23F7
  8
SP
 10
22492.639228272761
 20
23933.806080001719
 30
0.0
 11
22492.639228272761
 21
24457.68001148467
 31
0.0
  0
LINE
  5
23F8
  8
SP
 10
23577.639228272761
 20
24417.68001148467
 30
0.0
 11
22572.639228272761
 21
24417.68001148467
 31
0.0
  0
INSERT
  5
23F9
  8
SP
  2
_OPEN
 10
23657.639228272761
 20
24417.68001148467
 30
0.0
 41
80.0
 42
80.0
 43
80.0
  0
INSERT
  5
23FA
  8
SP
  2
_OPEN
 10
22492.639228272761
 20
24417.68001148467
 30
0.0
 41
80.0
 42
80.0
 43
80.0
 50
180.0
  0
TEXT
  5
23FB
  8
FUTO
 10
22863.190458808811
 20
24437.68001148467
 30
0.0
 40
120.0
  1
1165
 51
15.0
  0
POINT
  5
23FC
  8
DEFPOINTS
 62
     0
 10
23657.639228272761
 20
24158.801383173952
 30
0.0
  0
POINT
  5
23FD
  8
DEFPOINTS
 62
     0
 10
22492.639228272761
 20
23893.806080001719
 30
0.0
  0
POINT
  5
23FE
  8
DEFPOINTS
 62
     0
 10
22492.639228272761
 20
24417.68001148467
 30
0.0
  0
ENDBLK
  5
1915
  8
0
  0
BLOCK
  8
0
  2
*D8
 70
     1
 10
0.0
 20
0.0
 30
0.0
  3
*D8
  1

  0
LINE
  5
23EE
  8
SP
 10
25597.639228272761
 20
22540.806080001719
 30
0.0
 11
25597.639228272761
 21
24457.68001148467
 31
0.0
  0
LINE
  5
23EF
  8
SP
 10
23737.639228272761
 20
24417.68001148467
 30
0.0
 11
25517.639228272761
 21
24417.68001148467
 31
0.0
  0
INSERT
  5
23F0
  8
SP
  2
_OPEN
 10
23657.639228272761
 20
24417.68001148467
 30
0.0
 41
80.0
 42
80.0
 43
80.0
 50
180.0
  0
INSERT
  5
23F1
  8
SP
  2
_OPEN
 10
25597.639228272761
 20
24417.68001148467
 30
0.0
 41
80.0
 42
80.0
 43
80.0
  0
TEXT
  5
23F2
  8
FUTO
 10
24404.467021008018
 20
24437.68001148467
 30
0.0
 40
120.0
  1
1940
 51
15.0
  0
POINT
  5
23F3
  8
DEFPOINTS
 62
     0
 10
23657.639228272761
 20
24417.68001148467
 30
0.0
  0
POINT
  5
23F4
  8
DEFPOINTS
 62
     0
 10
25597.639228272761
 20
22500.806080001719
 30
0.0
  0
POINT
  5
23F5
  8
DEFPOINTS
 62
     0
 10
25597.639228272761
 20
24417.68001148467
 30
0.0
  0
ENDBLK
  5
1921
  8
0
  0
BLOCK
  8
0
  2
*D9
 70
     1
 10
0.0
 20
0.0
 30
0.0
  3
*D9
  1

  0
LINE
  5
2388
  8
SP
 10
22652.639228272761
 20
23959.80608000173
 30
0.0
 11
22032.652962782638
 21
23959.80608000173
 31
0.0
  0
LINE
  5
2389
  8
SP
 10
22045.404784563842
 20
23164.806080001719
 30
0.0
 11
22112.652962782638
 21
23164.806080001719
 31
0.0
  0
LINE
  5
238A
  8
SP
 10
22072.652962782638
 20
23879.80608000173
 30
0.0
 11
22072.652962782638
 21
23244.806080001719
 31
0.0
  0
INSERT
  5
238B
  8
SP
  2
_OPEN
 10
22072.652962782638
 20
23959.80608000173
 30
0.0
 41
80.0
 42
80.0
 43
80.0
 50
90.0
  0
INSERT
  5
238C
  8
SP
  2
_OPEN
 10
22072.652962782638
 20
23164.806080001719
 30
0.0
 41
80.0
 42
80.0
 43
80.0
 50
270.0
  0
TEXT
  5
238D
  8
FUTO
 10
22052.652962782638
 20
23386.22912845586
 30
0.0
 40
120.0
  1
795
 50
90.0
 51
15.0
  0
POINT
  5
238E
  8
DEFPOINTS
 62
     0
 10
22692.639228272761
 20
23959.80608000173
 30
0.0
  0
POINT
  5
238F
  8
DEFPOINTS
 62
     0
 10
22005.404784563842
 20
23164.806080001719
 30
0.0
  0
POINT
  5
2390
  8
DEFPOINTS
 62
     0
 10
22072.652962782638
 20
23164.806080001719
 30
0.0
  0
ENDBLK
  5
192F
  8
0
  0
BLOCK
  8
0
  2
*D10
 70
     1
 10
0.0
 20
0.0
 30
0.0
  3
*D10
  1

  0
LINE
  5
2380
  8
SP
 10
23237.639228272761
 20
20714.806080001719
 30
0.0
 11
22032.652962782638
 21
20714.806080001719
 31
0.0
  0
LINE
  5
2381
  8
SP
 10
22072.652962782638
 20
23084.806080001719
 30
0.0
 11
22072.652962782638
 21
20794.806080001719
 31
0.0
  0
INSERT
  5
2382
  8
SP
  2
_OPEN
 10
22072.652962782638
 20
23164.806080001719
 30
0.0
 41
80.0
 42
80.0
 43
80.0
 50
90.0
  0
INSERT
  5
2383
  8
SP
  2
_OPEN
 10
22072.652962782638
 20
20714.806080001719
 30
0.0
 41
80.0
 42
80.0
 43
80.0
 50
270.0
  0
TEXT
  5
2384
  8
FUTO
 10
22052.652962782638
 20
21718.219976369361
 30
0.0
 40
120.0
  1
2450
 50
90.0
 51
15.0
  0
POINT
  5
2385
  8
DEFPOINTS
 62
     0
 10
22072.652962782638
 20
23164.806080001719
 30
0.0
  0
POINT
  5
2386
  8
DEFPOINTS
 62
     0
 10
23277.639228272761
 20
20714.806080001719
 30
0.0
  0
POINT
  5
2387
  8
DEFPOINTS
 62
     0
 10
22072.652962782638
 20
20714.806080001719
 30
0.0
  0
ENDBLK
  5
193B
  8
0
  0
BLOCK
  8
0
  2
*D11
 70
     1
 10
0.0
 20
0.0
 30
0.0
  3
*D11
  1

  0
LINE
  5
23BA
  8
SP
 10
22597.639228272761
 20
15935.717351791051
 30
0.0
 11
22597.639228272761
 21
15181.79542245212
 31
0.0
  0
LINE
  5
23BB
  8
SP
 10
25597.639228272761
 20
15935.717351791051
 30
0.0
 11
25597.639228272761
 21
15181.79542245212
 31
0.0
  0
LINE
  5
23BC
  8
SP
 10
22677.639228272761
 20
15221.79542245212
 30
0.0
 11
25517.639228272761
 21
15221.79542245212
 31
0.0
  0
INSERT
  5
23BD
  8
SP
  2
_OPEN
 10
22597.639228272761
 20
15221.79542245212
 30
0.0
 41
80.0
 42
80.0
 43
80.0
 50
180.0
  0
INSERT
  5
23BE
  8
SP
  2
_OPEN
 10
25597.639228272761
 20
15221.79542245212
 30
0.0
 41
80.0
 42
80.0
 43
80.0
  0
TEXT
  5
23BF
  8
FUTO
 10
23872.990848155459
 20
15241.79542245212
 30
0.0
 40
120.0
  1
3000
 51
15.0
  0
POINT
  5
23C0
  8
DEFPOINTS
 62
     0
 10
22597.639228272761
 20
15975.717351791051
 30
0.0
  0
POINT
  5
23C1
  8
DEFPOINTS
 62
     0
 10
25597.639228272761
 20
15975.717351791051
 30
0.0
  0
POINT
  5
23C2
  8
DEFPOINTS
 62
     0
 10
25597.639228272761
 20
15221.79542245212
 30
0.0
  0
ENDBLK
  5
1983
  8
0
  0
BLOCK
  8
0
  2
*D12
 70
     1
 10
0.0
 20
0.0
 30
0.0
  3
*D12
  1

  0
LINE
  5
2443
  8
SP
 10
25597.639228272761
 20
15935.717351791051
 30
0.0
 11
25597.639228272761
 21
15500.50997307274
 31
0.0
  0
LINE
  5
2444
  8
SP
 10
23737.639228272761
 20
15540.50997307274
 30
0.0
 11
25517.639228272761
 21
15540.50997307274
 31
0.0
  0
INSERT
  5
2445
  8
SP
  2
_OPEN
 10
23657.639228272761
 20
15540.50997307274
 30
0.0
 41
80.0
 42
80.0
 43
80.0
 50
180.0
  0
INSERT
  5
2446
  8
SP
  2
_OPEN
 10
25597.639228272761
 20
15540.50997307274
 30
0.0
 41
80.0
 42
80.0
 43
80.0
  0
TEXT
  8
0
  40
120
  5
245A
  72
0
  71
0
 10
24387.6
 20
15408.1
 30
0.000000
  1
1940
  0
POINT
  5
2448
  8
DEFPOINTS
 62
     0
 10
23657.639228272761
 20
15895.063176780841
 30
0.0
  0
POINT
  5
2449
  8
DEFPOINTS
 62
     0
 10
25597.639228272761
 20
15975.717351791051
 30
0.0
  0
POINT
  5
244A
  8
DEFPOINTS
 62
     0
 10
25597.639228272761
 20
15540.50997307274
 30
0.0
  0
ENDBLK
  5
198E
  8
0
  0
BLOCK
  8
0
  2
*D13
 70
     1
 10
0.0
 20
0.0
 30
0.0
  3
*D13
  1

  0
LINE
  5
23CB
  8
SP
 10
22597.639228272761
 20
15935.717351791051
 30
0.0
 11
22597.639228272761
 21
15500.50997307274
 31
0.0
  0
LINE
  5
23CC
  8
SP
 10
23657.639228272761
 20
15855.063176780841
 30
0.0
 11
23657.639228272761
 21
15500.50997307274
 31
0.0
  0
LINE
  5
23CD
  8
SP
 10
22677.639228272761
 20
15540.50997307274
 30
0.0
 11
23577.639228272761
 21
15540.50997307274
 31
0.0
  0
INSERT
  5
23CE
  8
SP
  2
_OPEN
 10
22597.639228272761
 20
15540.50997307274
 30
0.0
 41
80.0
 42
80.0
 43
80.0
 50
180.0
  0
INSERT
  5
23CF
  8
SP
  2
_OPEN
 10
23657.639228272761
 20
15540.50997307274
 30
0.0
 41
80.0
 42
80.0
 43
80.0
  0
TEXT
  5
23D0
  8
FUTO
 10
22904.467021008018
 20
15560.50997307274
 30
0.0
 40
120.0
  1
1060
 51
15.0
  0
POINT
  5
23D1
  8
DEFPOINTS
 62
     0
 10
22597.639228272761
 20
15975.717351791051
 30
0.0
  0
POINT
  5
23D2
  8
DEFPOINTS
 62
     0
 10
23657.639228272761
 20
15895.063176780841
 30
0.0
  0
POINT
  5
23D3
  8
DEFPOINTS
 62
     0
 10
23657.639228272761
 20
15540.50997307274
 30
0.0
  0
ENDBLK
  5
199A
  8
0
  0
BLOCK
  8
0
  2
*D14
 70
     1
 10
0.0
 20
0.0
 30
0.0
  3
*D14
  1

  0
LINE
  5
23E5
  8
SP
 10
22492.639228272761
 20
18299.52383223407
 30
0.0
 11
22492.639228272761
 21
20123.909168296581
 31
0.0
  0
LINE
  5
23E6
  8
SP
 10
23657.639228272761
 20
19652.376690698351
 30
0.0
 11
23657.639228272761
 21
20123.909168296581
 31
0.0
  0
LINE
  5
23E7
  8
SP
 10
22572.639228272761
 20
20083.909168296581
 30
0.0
 11
23577.639228272761
 21
20083.909168296581
 31
0.0
  0
INSERT
  5
23E8
  8
SP
  2
_OPEN
 10
22492.639228272761
 20
20083.909168296581
 30
0.0
 41
80.0
 42
80.0
 43
80.0
 50
180.0
  0
INSERT
  5
23E9
  8
SP
  2
_OPEN
 10
23657.639228272761
 20
20083.909168296581
 30
0.0
 41
80.0
 42
80.0
 43
80.0
  0
TEXT
  5
23EA
  8
FUTO
 10
22863.190458808811
 20
20103.909168296581
 30
0.0
 40
120.0
  1
1165
 51
15.0
  0
POINT
  5
23EB
  8
DEFPOINTS
 62
     0
 10
22492.639228272761
 20
18259.523832234059
 30
0.0
  0
POINT
  5
23EC
  8
DEFPOINTS
 62
     0
 10
23657.639228272761
 20
19612.376690698351
 30
0.0
  0
POINT
  5
23ED
  8
DEFPOINTS
 62
     0
 10
23657.639228272761
 20
20083.909168296581
 30
0.0
  0
ENDBLK
  5
19AE
  8
0
  0
BLOCK
  8
0
  2
*D15
 70
     1
 10
0.0
 20
0.0
 30
0.0
  3
*D15
  1

  0
LINE
  5
23A8
  8
SP
 10
26587.214673232949
 20
15935.71733518506
 30
0.0
 11
26587.214673232949
 21
15196.19917745583
 31
0.0
  0
LINE
  5
23A9
  8
SP
 10
29437.214673232949
 20
15935.71733518506
 30
0.0
 11
29437.214673232949
 21
15196.19917745583
 31
0.0
  0
LINE
  5
23AA
  8
SP
 10
26667.214673232949
 20
15236.19917745583
 30
0.0
 11
29357.214673232949
 21
15236.19917745583
 31
0.0
  0
INSERT
  5
23AB
  8
SP
  2
_OPEN
 10
26587.214673232949
 20
15236.19917745583
 30
0.0
 41
80.0
 42
80.0
 43
80.0
 50
180.0
  0
INSERT
  5
23AC
  8
SP
  2
_OPEN
 10
29437.214673232949
 20
15236.19917745583
 30
0.0
 41
80.0
 42
80.0
 43
80.0
  0
TEXT
  5
23AD
  8
FUTO
 10
27790.62856960058
 20
15256.19917745583
 30
0.0
 40
120.0
  1
2850
 51
15.0
  0
POINT
  5
23AE
  8
DEFPOINTS
 62
     0
 10
26587.214673232949
 20
15975.71733518506
 30
0.0
  0
POINT
  5
23AF
  8
DEFPOINTS
 62
     0
 10
29437.214673232949
 20
15975.71733518506
 30
0.0
  0
POINT
  5
23B0
  8
DEFPOINTS
 62
     0
 10
29437.214673232949
 20
15236.19917745583
 30
0.0
  0
ENDBLK
  5
1A36
  8
0
  0
BLOCK
  8
0
  2
*D16
 70
     1
 10
0.0
 20
0.0
 30
0.0
  3
*D16
  1

  0
LINE
  5
23B1
  8
SP
 10
26587.214673232949
 20
15935.71733518506
 30
0.0
 11
26587.214673232949
 21
15496.23672242075
 31
0.0
  0
LINE
  5
23B2
  8
SP
 10
28698.214673232949
 20
15914.790283191131
 30
0.0
 11
28698.214673232949
 21
15496.23672242075
 31
0.0
  0
LINE
  5
23B3
  8
SP
 10
26667.214673232949
 20
15536.23672242075
 30
0.0
 11
28618.214673232949
 21
15536.23672242075
 31
0.0
  0
INSERT
  5
23B4
  8
SP
  2
_OPEN
 10
26587.214673232949
 20
15536.23672242075
 30
0.0
 41
80.0
 42
80.0
 43
80.0
 50
180.0
  0
INSERT
  5
23B5
  8
SP
  2
_OPEN
 10
28698.214673232949
 20
15536.23672242075
 30
0.0
 41
80.0
 42
80.0
 43
80.0
  0
TEXT
  5
23B6
  8
FUTO
 10
27463.78057882993
 20
15556.23672242075
 30
0.0
 40
120.0
  1
2111
 51
15.0
  0
POINT
  5
23B7
  8
DEFPOINTS
 62
     0
 10
26587.214673232949
 20
15975.71733518506
 30
0.0
  0
POINT
  5
23B8
  8
DEFPOINTS
 62
     0
 10
28698.214673232949
 20
15954.790283191131
 30
0.0
  0
POINT
  5
23B9
  8
DEFPOINTS
 62
     0
 10
28698.214673232949
 20
15536.23672242075
 30
0.0
  0
ENDBLK
  5
1A42
  8
0
  0
BLOCK
  8
0
  2
*D17
 70
     1
 10
0.0
 20
0.0
 30
0.0
  3
*D17
  1

  0
LINE
  5
244B
  8
SP
 10
29437.214673232949
 20
15935.71733518506
 30
0.0
 11
29437.214673232949
 21
15496.23672242075
 31
0.0
  0
LINE
  5
244C
  8
SP
 10
28778.214673232949
 20
15536.23672242075
 30
0.0
 11
29357.214673232949
 21
15536.23672242075
 31
0.0
  0
INSERT
  5
244D
  8
SP
  2
_OPEN
 10
28698.214673232949
 20
15536.23672242075
 30
0.0
 41
80.0
 42
80.0
 43
80.0
 50
180.0
  0
INSERT
  5
244E
  8
SP
  2
_OPEN
 10
29437.214673232949
 20
15536.23672242075
 30
0.0
 41
80.0
 42
80.0
 43
80.0
  0
TEXT
  8
0
  40
120
  5
245B
  72
0
  71
0
 10
28827.7
 20
15403.8
 30
0.000000
  1
739
  0
POINT
  5
2450
  8
DEFPOINTS
 62
     0
 10
28698.214673232949
 20
15954.790283191131
 30
0.0
  0
POINT
  5
2451
  8
DEFPOINTS
 62
     0
 10
29437.214673232949
 20
15975.71733518506
 30
0.0
  0
POINT
  5
2452
  8
DEFPOINTS
 62
     0
 10
29437.214673232949
 20
15536.23672242075
 30
0.0
  0
ENDBLK
  5
1A4D
  8
0
  0
BLOCK
  8
0
  2
*D18
 70
     1
 10
0.0
 20
0.0
 30
0.0
  3
*D18
  1

  0
LINE
  5
240B
  8
SP
 10
28698.214673232949
 20
20059.363789850289
 30
0.0
 11
28698.214673232949
 21
20027.421450485908
 31
0.0
  0
LINE
  5
240C
  8
SP
 10
29493.214673232949
 20
19299.09115179105
 30
0.0
 11
29493.214673232949
 21
20107.421450485908
 31
0.0
  0
LINE
  5
240D
  8
SP
 10
28778.214673232949
 20
20067.421450485908
 30
0.0
 11
29413.214673232949
 21
20067.421450485908
 31
0.0
  0
INSERT
  5
240E
  8
SP
  2
_OPEN
 10
28698.214673232949
 20
20067.421450485908
 30
0.0
 41
80.0
 42
80.0
 43
80.0
 50
180.0
  0
INSERT
  5
240F
  8
SP
  2
_OPEN
 10
29493.214673232949
 20
20067.421450485908
 30
0.0
 41
80.0
 42
80.0
 43
80.0
  0
TEXT
  5
2410
  8
FUTO
 10
28851.000096731179
 20
20087.421450485908
 30
0.0
 40
120.0
  1
795
 51
15.0
  0
POINT
  5
2411
  8
DEFPOINTS
 62
     0
 10
28698.214673232949
 20
20099.363789850289
 30
0.0
  0
POINT
  5
2412
  8
DEFPOINTS
 62
     0
 10
29493.214673232949
 20
19259.09115179105
 30
0.0
  0
POINT
  5
2413
  8
DEFPOINTS
 62
     0
 10
29493.214673232949
 20
20067.421450485908
 30
0.0
  0
ENDBLK
  5
1A85
  8
0
  0
BLOCK
  8
0
  2
*D19
 70
     1
 10
0.0
 20
0.0
 30
0.0
  3
*D19
  1

  0
LINE
  5
2377
  8
SP
 10
22557.639228272761
 20
16145.717351791051
 30
0.0
 11
21908.230139067171
 21
16145.717351791051
 31
0.0
  0
LINE
  5
2378
  8
SP
 10
22072.285229228659
 20
18295.717351791049
 30
0.0
 11
21908.230139067171
 21
18295.717351791049
 31
0.0
  0
LINE
  5
2379
  8
SP
 10
21948.230139067171
 20
16225.717351791051
 30
0.0
 11
21948.230139067171
 21
18215.717351791049
 31
0.0
  0
INSERT
  5
237A
  8
SP
  2
_OPEN
 10
21948.230139067171
 20
16145.717351791051
 30
0.0
 41
80.0
 42
80.0
 43
80.0
 50
270.0
  0
INSERT
  5
237B
  8
SP
  2
_OPEN
 10
21948.230139067171
 20
18295.717351791049
 30
0.0
 41
80.0
 42
80.0
 43
80.0
 50
90.0
  0
TEXT
  5
237C
  8
FUTO
 10
21928.23013906716
 20
17010.559819587252
 30
0.0
 40
120.0
  1
2150
 50
90.0
 51
15.0
  0
POINT
  5
237D
  8
DEFPOINTS
 62
     0
 10
22597.639228272761
 20
16145.717351791051
 30
0.0
  0
POINT
  5
237E
  8
DEFPOINTS
 62
     0
 10
22112.285229228659
 20
18295.717351791049
 30
0.0
  0
POINT
  5
237F
  8
DEFPOINTS
 62
     0
 10
21948.230139067171
 20
18295.717351791049
 30
0.0
  0
ENDBLK
  5
1A9B
  8
0
  0
BLOCK
  8
0
  2
*D20
 70
     1
 10
0.0
 20
0.0
 30
0.0
  3
*D20
  1

  0
LINE
  5
236E
  8
SP
 10
23509.827524509539
 20
19587.717351791049
 30
0.0
 11
21908.230139067171
 21
19587.717351791049
 31
0.0
  0
LINE
  5
236F
  8
SP
 10
22072.285229228659
 20
18295.717351791049
 30
0.0
 11
21908.230139067171
 21
18295.717351791049
 31
0.0
  0
LINE
  5
2370
  8
SP
 10
21948.230139067171
 20
19507.717351791049
 30
0.0
 11
21948.230139067171
 21
18375.717351791049
 31
0.0
  0
INSERT
  5
2371
  8
SP
  2
_OPEN
 10
21948.230139067171
 20
19587.717351791049
 30
0.0
 41
80.0
 42
80.0
 43
80.0
 50
90.0
  0
INSERT
  5
2372
  8
SP
  2
_OPEN
 10
21948.230139067171
 20
18295.717351791049
 30
0.0
 41
80.0
 42
80.0
 43
80.0
 50
270.0
  0
TEXT
  5
2373
  8
FUTO
 10
21928.23013906716
 20
18718.54514452631
 30
0.0
 40
120.0
  1
1292
 50
90.0
 51
15.0
  0
POINT
  5
2374
  8
DEFPOINTS
 62
     0
 10
23549.827524509539
 20
19587.717351791049
 30
0.0
  0
POINT
  5
2375
  8
DEFPOINTS
 62
     0
 10
22112.285229228659
 20
18295.717351791049
 30
0.0
  0
POINT
  5
2376
  8
DEFPOINTS
 62
     0
 10
21948.230139067171
 20
18295.717351791049
 30
0.0
  0
ENDBLK
  5
1AB2
  8
0
  0
BLOCK
  8
0
  2
*D21
 70
     1
 10
0.0
 20
0.0
 30
0.0
  3
*D21
  1

  0
LINE
  5
2400
  8
SP
 10
29533.214673232949
 20
19194.09115179105
 30
0.0
 11
30113.222815444678
 21
19194.09115179105
 31
0.0
  0
LINE
  5
2401
  8
SP
 10
29533.214673232949
 20
17394.09115179105
 30
0.0
 11
30113.222815444678
 21
17394.09115179105
 31
0.0
  0
LINE
  5
2402
  8
SP
 10
30073.222815444678
 20
19114.09115179105
 30
0.0
 11
30073.222815444678
 21
17474.09115179105
 31
0.0
  0
INSERT
  5
2403
  8
SP
  2
_OPEN
 10
30073.222815444678
 20
19194.09115179105
 30
0.0
 41
80.0
 42
80.0
 43
80.0
 50
90.0
  0
INSERT
  5
2404
  8
SP
  2
_OPEN
 10
30073.222815444678
 20
17394.09115179105
 30
0.0
 41
80.0
 42
80.0
 43
80.0
 50
270.0
  0
INSERT
  5
2405
  8
FUTO
  2
*U22
 10
0.0
 20
0.0
 30
0.0
  0
POINT
  5
2406
  8
DEFPOINTS
 62
     0
 10
29493.214673232949
 20
19194.09115179105
 30
0.0
  0
POINT
  5
2407
  8
DEFPOINTS
 62
     0
 10
29493.214673232949
 20
17394.09115179105
 30
0.0
  0
POINT
  5
2408
  8
DEFPOINTS
 62
     0
 10
30073.222815444678
 20
17394.09115179105
 30
0.0
  0
ENDBLK
  5
240A
  8
0
  0
BLOCK
  8
0
  2
*U22
 70
     1
 10
0.0
 20
0.0
 30
0.0
  3
*U22
  1

  0
TEXT
  5
2454
  8
FUTO
 10
30053.222815444671
 20
17997.083734954242
 30
0.0
 40
120.0
  1
\U+2205
 50
90.0
 51
15.0
  0
TEXT
  5
2455
  8
FUTO
 10
30053.222815444671
 20
18105.655163525669
 30
0.0
 40
120.0
  1
1800
 50
90.0
 51
15.0
  0
ENDBLK
  5
2457
  8
0
  0
ENDSEC
  0
SECTION
  2
ENTITIES
  0
INSERT
  5
89
  8
FUTO
  2
まっすぐの矢印
 10
22206.977617607608
 20
16729.275055130711
 30
0.0
 41
-2.0
 42
2.0
 43
2.0
 50
90.0
  0
LINE
  5
AF
  8
CT
 10
23657.639228272761
 20
18295.717351791049
 30
0.0
 11
22486.103732791631
 21
18399.660354640338
 31
0.0
  0
LINE
  5
B2
  8
CT
 10
22112.285229228659
 20
18295.717351791049
 30
0.0
 11
25572.26733478286
 21
18295.717351791049
 31
0.0
  0
DIMENSION
  5
CF
  8
SP
  2
*D4
 10
21948.230139067171
 20
16125.717351791051
 30
0.0
 11
21724.648594057679
 21
16334.257458912951
 31
0.0
 70
   128
  1
(<>)
 13
22632.526015940271
 23
16145.717351791051
 33
0.0
 14
22597.639228272761
 24
16125.717351791051
 34
0.0
 50
90.0
1001
ACAD
1000
DSTYLE
1002
{
1070
   287
1070
     4
1070
    40
1040
40.0
1070
    75
1070
     1
1070
   279
1070
     1
1070
   289
1070
     3
1070
     7
1000
DOT
1002
}
  0
DIMENSION
  5
E7
  8
SP
  2
*D6
 10
21948.230139067171
 20
15975.717351791051
 30
0.0
 11
21868.23013906716
 21
15655.717351791051
 31
0.0
 70
     0
 13
22597.639228272761
 23
16125.717351791051
 33
0.0
 14
22597.639228272761
 24
15975.717351791051
 34
0.0
 50
90.0
1001
ACAD
1000
DSTYLE
1002
{
1070
   287
1070
     1
1070
    40
1040
40.0
1070
    75
1070
     1
1070
   289
1070
     1
1070
     6
1000
DOT
1002
}
  0
LINE
  5
104
  8
CT
 10
23657.639228272761
 20
19612.376690698351
 30
0.0
 11
23657.639228272761
 21
15874.165082003439
 31
0.0
  0
ARC
  5
10E
  8
FUTO
 10
25157.639228272761
 20
16645.717351791049
 30
0.0
 40
280.0
 50
227.41944536016459
 51
37.127932652023048
  0
ARC
  5
111
  8
FUTO
 10
25157.639228272761
 20
16645.717351791049
 30
0.0
 40
310.0
 50
300.10230806831191
 51
239.897691931688
  0
LINE
  5
112
  8
CT
 10
25157.639228272761
 20
17310.48323771737
 30
0.0
 11
25157.639228272761
 21
16323.426035529899
 31
0.0
  0
LINE
  5
115
  8
FUTO
 10
22616.639228272761
 20
18304.717351791049
 30
0.0
 11
22616.639228272761
 21
18749.218809513899
 31
0.0
  0
LINE
  5
116
  8
FUTO
 10
22607.639228272761
 20
18304.717351791049
 30
0.0
 11
22607.639228272761
 21
18717.411824749681
 31
0.0
  0
LINE
  5
117
  8
FUTO
 10
24707.639228272761
 20
18304.717351791049
 30
0.0
 11
24707.639228272761
 21
18133.167113677089
 31
0.0
  0
LINE
  5
118
  8
FUTO
 10
24698.639228272761
 20
18304.717351791049
 30
0.0
 11
24698.639228272761
 21
18139.623995189631
 31
0.0
  0
LINE
  5
119
  8
CT
 10
25157.639228272761
 20
16359.21608879105
 30
0.0
 11
25157.639228272761
 21
16943.487767791052
 31
0.0
  0
ARC
  5
122
  8
FUTO
 10
23768.139228272761
 20
18406.217351791049
 30
0.0
 40
1201.5
 50
95.276856286926375
 51
187.7248117103407
  0
ARC
  5
123
  8
KL
 10
23768.139228272761
 20
18406.217351791049
 30
0.0
 40
1181.4999999999991
 50
89.005821056327946
 51
180.0
  0
ARC
  5
124
  8
KL
 10
23788.639228272761
 20
18164.717351791049
 30
0.0
 40
1423.0
 50
5.2633654058965771
 51
90.000000000000028
  0
DIMENSION
  5
13A
  8
SP
  2
*D12
 10
25597.639228272761
 20
15540.50997307274
 30
0.0
 11
24627.639228272761
 21
15620.50997307274
 31
0.0
 70
     0
 13
23657.639228272761
 23
15895.063176780841
 33
0.0
 14
25597.639228272761
 24
15975.717351791051
 34
0.0
 50
180.0
1001
ACAD
1000
DSTYLE
1002
{
1070
   287
1070
     4
1070
    40
1040
40.0
1070
    75
1070
     1
1070
   279
1070
     1
1070
   289
1070
     3
1002
}
  0
LINE
  5
146
  8
FUTO
 10
22597.639228272761
 20
16125.717351791051
 30
0.0
 11
25597.639228272761
 21
16125.717351791051
 31
0.0
1001
ACAD
1000
ASC_BOUNDS
1002
{
1070
    19
1005
0
1002
}
  0
LINE
  5
147
  8
FUTO
 10
22597.639228272761
 20
16113.717351791051
 30
0.0
 11
25597.639228272761
 21
16113.717351791051
 31
0.0
  0
LINE
  5
148
  8
FUTO
 10
22597.639228272761
 20
15987.717351791051
 30
0.0
 11
25597.639228272761
 21
15987.717351791051
 31
0.0
  0
LINE
  5
149
  8
FUTO
 10
22597.639228272761
 20
15975.717351791051
 30
0.0
 11
25597.639228272761
 21
15975.717351791051
 31
0.0
  0
DIMENSION
  5
14A
  8
SP
  2
*D11
 10
25597.639228272761
 20
15221.79542245212
 30
0.0
 11
24097.639228272761
 21
15301.79542245212
 31
0.0
 70
     0
 13
22597.639228272761
 23
15975.717351791051
 33
0.0
 14
25597.639228272761
 24
15975.717351791051
 34
0.0
 50
180.0
1001
ACAD
1000
DSTYLE
1002
{
1070
    40
1040
40.0
1002
}
  0
LINE
  5
157
  8
FUTO
 10
22597.639228272761
 20
16283.717351791051
 30
0.0
 11
25597.639228272761
 21
16283.717351791051
 31
0.0
  0
LINE
  5
158
  8
FUTO
 10
22597.639228272761
 20
16157.717351791051
 30
0.0
 11
25597.639228272761
 21
16157.717351791051
 31
0.0
  0
LINE
  5
159
  8
FUTO
 10
22597.639228272761
 20
16295.717351791051
 30
0.0
 11
25597.639228272761
 21
16295.717351791051
 31
0.0
  0
LINE
  5
15A
  8
FUTO
 10
22597.639228272761
 20
16145.717351791051
 30
0.0
 11
25597.639228272761
 21
16145.717351791051
 31
0.0
1001
ACAD
1000
ASC_BOUNDS
1002
{
1070
    19
1005
0
1002
}
  0
LINE
  5
15B
  8
FUTO
 10
24877.639228272761
 20
16395.717351791049
 30
0.0
 11
24974.336200474521
 21
16395.717351791049
 31
0.0
  0
LINE
  5
15C
  8
FUTO
 10
24877.639228272761
 20
16365.717351791051
 30
0.0
 11
24987.639228272761
 21
16365.717351791051
 31
0.0
  0
LINE
  5
15D
  8
FUTO
 10
25057.639228272761
 20
16365.717351791051
 30
0.0
 11
24842.639228272761
 21
16365.717351791051
 31
0.0
  0
LINE
  5
15E
  8
FUTO
 10
24832.639228272761
 20
16295.717351791051
 30
0.0
 11
25057.639228272761
 21
16295.717351791051
 31
0.0
  0
LINE
  5
15F
  8
CT
 10
24820.180264082999
 20
16645.717351791049
 30
0.0
 11
25500.916450465778
 21
16645.717351791049
 31
0.0
  0
LINE
  5
163
  8
CT
 10
25385.5955177797
 20
16160.245334998261
 30
0.0
 11
25385.5955177797
 21
16106.03856009411
 31
0.0
  0
LINE
  5
166
  8
FUTO
 10
25597.639228272761
 20
16125.717351791051
 30
0.0
 11
25597.639228272761
 21
15975.717351791051
 31
0.0
  0
LINE
  5
175
  8
FUTO
 10
25472.639228272761
 20
16365.717351791051
 30
0.0
 11
25257.639228272761
 21
16365.717351791051
 31
0.0
  0
LINE
  5
176
  8
FUTO
 10
25257.639228272761
 20
16295.717351791051
 30
0.0
 11
25482.639228272761
 21
16295.717351791051
 31
0.0
  0
CIRCLE
  5
177
  8
SL
 10
25157.639228272761
 20
16645.717351791049
 30
0.0
 40
200.0
  0
LINE
  5
178
  8
FUTO
 10
25437.639228272761
 20
16512.676004834499
 30
0.0
 11
25437.639228272761
 21
16365.717351791051
 31
0.0
  0
LINE
  5
179
  8
FUTO
 10
25597.639228272761
 20
16295.717351791051
 30
0.0
 11
25597.639228272761
 21
16145.717351791051
 31
0.0
  0
LINE
  5
17B
  8
CT
 10
25386.139228272761
 20
16410.886800280699
 30
0.0
 11
25386.139228272761
 21
16323.426035529899
 31
0.0
  0
LINE
  5
17C
  8
FUTO
 10
25340.94225607099
 20
16395.717351791049
 30
0.0
 11
25437.639228272761
 21
16395.717351791049
 31
0.0
  0
LINE
  5
17D
  8
FUTO
 10
25327.639228272761
 20
16386.487723854731
 30
0.0
 11
25327.639228272761
 21
16365.717351791051
 31
0.0
  0
LINE
  5
17E
  8
FUTO
 10
25327.639228272761
 20
16365.717351791051
 30
0.0
 11
25437.639228272761
 21
16365.717351791051
 31
0.0
  0
LINE
  5
17F
  8
FUTO
 10
25482.639228272761
 20
16295.717351791051
 30
0.0
 11
25472.639228272761
 21
16365.717351791051
 31
0.0
  0
LINE
  5
180
  8
CT
 10
25157.639228272761
 20
16154.29896660259
 30
0.0
 11
25157.639228272761
 21
16819.815365987652
 31
0.0
  0
LINE
  5
181
  8
FUTO
 10
25002.160095997151
 20
16377.52667442358
 30
0.0
 11
25313.118360548371
 21
16377.52667442358
 31
0.0
  0
LINE
  5
182
  8
FUTO
 10
25257.639228272761
 20
16355.717351791051
 30
0.0
 11
25057.639228272761
 21
16355.717351791051
 31
0.0
  0
LINE
  5
183
  8
FUTO
 10
25257.639228272761
 20
16305.717351791051
 30
0.0
 11
25057.639228272761
 21
16305.717351791051
 31
0.0
  0
LINE
  5
184
  8
FUTO
 10
25257.639228272761
 20
16355.717351791051
 30
0.0
 11
25257.639228272761
 21
16365.717351791051
 31
0.0
  0
LINE
  5
185
  8
FUTO
 10
25257.639228272761
 20
16295.717351791051
 30
0.0
 11
25257.639228272761
 21
16305.717351791051
 31
0.0
  0
LINE
  5
186
  8
CT
 10
24929.139228272761
 20
16410.886800280699
 30
0.0
 11
24929.139228272761
 21
16319.26123720844
 31
0.0
  0
LINE
  5
187
  8
FUTO
 10
24987.639228272761
 20
16386.487723854731
 30
0.0
 11
24987.639228272761
 21
16365.717351791051
 31
0.0
  0
LINE
  5
188
  8
FUTO
 10
25057.639228272761
 20
16355.717351791051
 30
0.0
 11
25057.639228272761
 21
16365.717351791051
 31
0.0
  0
LINE
  5
189
  8
FUTO
 10
24914.639228272761
 20
16365.717351791051
 30
0.0
 11
25014.639228272761
 21
16365.717351791051
 31
0.0
  0
LINE
  5
18A
  8
FUTO
 10
25057.639228272761
 20
16295.717351791051
 30
0.0
 11
25057.639228272761
 21
16305.717351791051
 31
0.0
  0
LINE
  5
18B
  8
CT
 10
24607.735622382519
 20
16160.245334998261
 30
0.0
 11
24607.735622382519
 21
16106.03856009411
 31
0.0
  0
LINE
  5
1A1
  8
FUTO
 10
24357.639228272761
 20
16125.717351791051
 30
0.0
 11
24357.639228272761
 21
15975.717351791051
 31
0.0
  0
LINE
  5
1A2
  8
FUTO
 10
24366.639228272761
 20
16125.717351791051
 30
0.0
 11
24366.639228272761
 21
15975.717351791051
 31
0.0
  0
LINE
  5
1A3
  8
FUTO
 10
24348.639228272761
 20
16125.717351791051
 30
0.0
 11
24348.639228272761
 21
15975.717351791051
 31
0.0
  0
ARC
  5
1A4
  8
FUTO
 10
23788.639228272761
 20
18164.717351791049
 30
0.0
 40
1443.0
 50
49.068359736206048
 51
95.208659318954403
  0
LINE
  5
1A7
  8
FUTO
 10
24877.63922827275
 20
16512.67600483452
 30
0.0
 11
24877.639228272761
 21
16365.717351791051
 31
0.0
  0
LINE
  5
1A8
  8
KL
 10
24700.749430160711
 20
16957.068152752541
 30
0.0
 11
24742.746026027638
 21
16907.41952021989
 31
0.0
  0
LINE
  5
1A9
  8
KL
 10
24714.492264728258
 20
16968.692889224789
 30
0.0
 11
24756.488860595178
 21
16919.04425669213
 31
0.0
  0
LINE
  5
1AA
  8
KL
 10
24707.639228272761
 20
16962.85879106104
 30
0.0
 11
24749.61744331141
 21
16913.231888456012
 31
0.0
  0
LINE
  5
1AB
  8
FUTO
 10
24842.639228272761
 20
16365.717351791051
 30
0.0
 11
24832.639228272761
 21
16295.717351791051
 31
0.0
  0
LINE
  5
1AC
  8
KL
 10
24742.74602602762
 20
16907.419520219879
 30
0.0
 11
24756.488860595178
 21
16919.044256692141
 31
0.0
  0
LINE
  5
1AE
  8
KL
 10
24282.639228272761
 20
16295.717351791051
 30
0.0
 11
24282.639228272761
 21
16145.717351791051
 31
0.0
  0
LINE
  5
1AF
  8
FUTO
 10
24348.639228272761
 20
16295.717351791051
 30
0.0
 11
24348.639228272761
 21
16145.717351791051
 31
0.0
  0
LINE
  5
1B0
  8
FUTO
 10
24366.639228272761
 20
16295.717351791051
 30
0.0
 11
24366.639228272761
 21
16145.717351791051
 31
0.0
  0
LINE
  5
1B1
  8
FUTO
 10
24357.639228272761
 20
16295.717351791051
 30
0.0
 11
24357.639228272761
 21
16145.717351791051
 31
0.0
  0
LINE
  5
1B2
  8
KL
 10
24357.639228272761
 20
16309.88224632946
 30
0.0
 11
24357.639228272761
 21
16145.717351791051
 31
0.0
  0
DIMENSION
  5
1B3
  8
SP
  2
*D13
 10
23657.639228272761
 20
15540.50997307274
 30
0.0
 11
23127.639228272761
 21
15620.50997307274
 31
0.0
 70
     0
 13
22597.639228272761
 23
15975.717351791051
 33
0.0
 14
23657.639228272761
 24
15895.063176780841
 34
0.0
 50
180.0
1001
ACAD
1000
DSTYLE
1002
{
1070
    40
1040
40.0
1002
}
  0
LINE
  5
1C2
  8
CT
 10
23817.157467163091
 20
16160.245334998261
 30
0.0
 11
23817.157467163091
 21
16106.03856009411
 31
0.0
  0
LINE
  5
1D4
  8
CT
 10
22779.52364504935
 20
16160.245334998261
 30
0.0
 11
22779.52364504935
 21
16106.03856009411
 31
0.0
  0
LINE
  5
1E2
  8
FUTO
 10
22957.639228272761
 20
16125.717351791051
 30
0.0
 11
22957.639228272761
 21
15975.717351791051
 31
0.0
  0
LINE
  5
1E8
  8
FUTO
 10
22597.639228272761
 20
16125.717351791051
 30
0.0
 11
22597.639228272761
 21
15975.717351791051
 31
0.0
  0
LINE
  5
1EC
  8
KL
 10
23032.639228272761
 20
16295.717351791051
 30
0.0
 11
23032.639228272761
 21
16145.717351791051
 31
0.0
  0
LINE
  5
1ED
  8
FUTO
 10
22957.639228272761
 20
16295.717351791051
 30
0.0
 11
22957.639228272761
 21
16145.717351791051
 31
0.0
  0
LINE
  5
1EE
  8
KL
 10
22957.639228272761
 20
16309.88224632946
 30
0.0
 11
22957.639228272761
 21
16145.717351791051
 31
0.0
  0
LINE
  5
1EF
  8
FUTO
 10
22597.639228272761
 20
16295.717351791051
 30
0.0
 11
22597.639228272761
 21
16145.717351791051
 31
0.0
  0
LINE
  5
1F0
  8
FUTO
 10
25346.5191427176
 20
22425.80608000173
 30
0.0
 11
25346.5191427176
 21
22273.806080001719
 31
0.0
  0
LINE
  5
1F1
  8
FUTO
 10
25597.639228272761
 20
22500.806080001719
 30
0.0
 11
25597.639228272761
 21
22425.80608000173
 31
0.0
  0
LINE
  5
1F2
  8
CT
 10
25157.639228272761
 20
22351.177968559849
 30
0.0
 11
25157.639228272761
 21
20807.71125695507
 31
0.0
  0
LINE
  5
1F3
  8
FUTO
 10
24357.639228272761
 20
22425.806080001719
 30
0.0
 11
24357.639228272761
 21
21053.806080001719
 31
0.0
  0
LINE
  5
1F4
  8
FUTO
 10
24282.639228272761
 20
22425.806080001719
 30
0.0
 11
24282.639228272761
 21
21128.806080001719
 31
0.0
  0
LINE
  5
1F5
  8
FUTO
 10
23032.639228272761
 20
22425.806080001719
 30
0.0
 11
23032.639228272761
 21
21128.806080001719
 31
0.0
  0
LINE
  5
1F6
  8
FUTO
 10
22957.639228272761
 20
22425.806080001719
 30
0.0
 11
22957.639228272761
 21
21053.806080001719
 31
0.0
  0
DIMENSION
  5
253
  8
SP
  2
*D14
 10
23657.639228272761
 20
20083.909168296581
 30
0.0
 11
23075.139228272761
 21
20163.909168296581
 31
0.0
 70
     0
 13
22492.639228272761
 23
18259.523832234059
 33
0.0
 14
23657.639228272761
 24
19612.376690698351
 34
0.0
 50
180.0
1001
ACAD
1000
DSTYLE
1002
{
1070
    40
1040
40.0
1002
}
  0
ARC
  5
263
  8
FUTO
 10
23657.639228272761
 20
18295.717351791049
 30
0.0
 40
480.0
 50
37.127932652022849
 51
227.41944536016459
  0
LINE
  5
265
  8
FUTO
 10
23957.639228272761
 20
18173.717351791049
 30
0.0
 11
23999.68765409679
 21
18173.717351791049
 31
0.0
  0
LINE
  5
267
  8
FUTO
 10
25255.639228272761
 20
18286.717351791049
 30
0.0
 11
24493.6114285769
 21
18286.717351791049
 31
0.0
  0
LINE
  5
268
  8
FUTO
 10
25255.639228272761
 20
18304.717351791049
 30
0.0
 11
24468.521917535782
 21
18304.717351791049
 31
0.0
  0
ARC
  5
269
  8
FUTO
 10
23526.639228272761
 20
18164.717351791049
 30
0.0
 40
1705.0
 50
296.7418488230777
 51
307.4592633947517
  0
ARC
  5
26A
  8
KL
 10
23526.639228272761
 20
18164.717351791049
 30
0.0
 40
1685.0
 50
275.38794086100319
 51
355.16337676580599
  0
LINE
  5
26D
  8
FUTO
 10
24698.639228272761
 20
19284.605292613702
 30
0.0
 11
24698.639228272761
 21
18295.717351791049
 31
0.0
  0
LINE
  5
26E
  8
FUTO
 10
24707.639228272761
 20
19277.231621362451
 30
0.0
 11
24707.639228272761
 21
18295.717351791049
 31
0.0
  0
LINE
  5
26F
  8
KL
 10
25205.639228272761
 20
18295.254702767688
 30
0.0
 11
25205.639228272761
 21
18022.646946709621
 31
0.0
  0
LINE
  5
272
  8
CT
 10
25259.345642897031
 20
17095.717351791049
 30
0.0
 11
25413.642580416708
 21
17095.717351791049
 31
0.0
  0
LINE
  5
273
  8
FUTO
 10
24947.639228272761
 20
17235.717351791049
 30
0.0
 11
25337.639228272761
 21
17235.717351791049
 31
0.0
  0
LINE
  5
274
  8
FUTO
 10
24947.639228272761
 20
16970.717351791049
 30
0.0
 11
25337.639228272761
 21
16970.717351791049
 31
0.0
  0
ARC
  5
275
  8
FUTO
 10
25337.639228272761
 20
17215.717351791049
 30
0.0
 40
20.0
 50
0.000000000000007
 51
90.0
  0
ARC
  5
276
  8
FUTO
 10
25337.639228272761
 20
16990.717351791049
 30
0.0
 40
20.0
 50
270.0
 51
0.000000000000007
  0
LINE
  5
277
  8
FUTO
 10
25357.639228272761
 20
17215.717351791049
 30
0.0
 11
25357.639228272761
 21
16990.717351791049
 31
0.0
  0
ARC
  5
279
  8
FUTO
 10
24947.639228272761
 20
17215.717351791049
 30
0.0
 40
20.0
 50
90.0
 51
180.0
  0
LINE
  5
27A
  8
KL
 10
25120.306552334161
 20
17552.433560668869
 30
0.0
 11
25156.619790300829
 21
17535.500419712611
 31
0.0
  0
LINE
  5
27B
  8
CT
 10
25057.27370567646
 20
17510.106695048111
 30
0.0
 11
25164.219988912519
 21
17460.236824163931
 31
0.0
  0
LINE
  5
27C
  8
KL
 10
25169.90905078861
 20
17540.337314965571
 30
0.0
 11
25106.51631152751
 21
17404.391146910071
 31
0.0
  0
LINE
  5
27D
  8
KL
 10
25156.619790300829
 20
17535.500419712611
 30
0.0
 11
25101.67941627455
 21
17417.680407397849
 31
0.0
  0
LINE
  5
27E
  8
KL
 10
25124.532734951568
 20
17561.49663853924
 30
0.0
 11
25169.90905078861
 21
17540.337314965571
 31
0.0
  0
LINE
  5
27F
  8
KL
 10
25061.139995690472
 20
17425.550470483751
 30
0.0
 11
25106.51631152751
 21
17404.391146910071
 31
0.0
  0
LINE
  5
280
  8
KL
 10
25065.366178307871
 20
17434.613548354111
 30
0.0
 11
25101.67941627455
 21
17417.680407397849
 31
0.0
  0
ARC
  5
281
  8
FUTO
 10
24947.639228272761
 20
16990.717351791049
 30
0.0
 40
20.0
 50
180.0
 51
270.0
  0
LINE
  5
282
  8
FUTO
 10
24927.639228272761
 20
17215.717351791049
 30
0.0
 11
24927.639228272761
 21
16990.717351791049
 31
0.0
  0
LINE
  5
283
  8
FUTO
 10
25255.639228272761
 20
18304.717351791049
 30
0.0
 11
25255.639228272761
 21
18286.717351791049
 31
0.0
  0
ARC
  5
284
  8
FUTO
 10
23788.639228272761
 20
18164.717351791049
 30
0.0
 40
1443.0
 50
5.567600038522011
 51
50.441358354594847
  0
LINE
  5
285
  8
FUTO
 10
22557.639228272761
 20
18293.717351791049
 30
0.0
 11
22557.639228272761
 21
16305.717351791051
 31
0.0
  0
LINE
  5
286
  8
FUTO
 10
22492.639228272761
 20
18081.15757975871
 30
0.0
 11
22492.639228272761
 21
17053.755411013921
 31
0.0
  0
LINE
  5
287
  8
FUTO
 10
22492.639228272761
 20
18081.15757975871
 30
0.0
 11
22492.639228272761
 21
16305.717351791051
 31
0.0
  0
LINE
  5
288
  8
FUTO
 10
22498.639228272761
 20
18082.21554164297
 30
0.0
 11
22498.639228272761
 21
17047.755411013921
 31
0.0
  0
LINE
  5
289
  8
FUTO
 10
22616.639228272761
 20
16295.717351791051
 30
0.0
 11
22616.639228272761
 21
18286.717351791049
 31
0.0
  0
LINE
  5
28A
  8
FUTO
 10
22607.639228272761
 20
16295.717351791051
 30
0.0
 11
22607.639228272761
 21
18286.717351791049
 31
0.0
  0
LINE
  5
291
  8
KL
 10
23459.418414035459
 20
18322.33518046097
 30
0.0
 11
23180.395713437661
 21
18347.084924712541
 31
0.0
  0
LINE
  5
292
  8
KL
 10
23457.82803053164
 20
18304.405576998801
 30
0.0
 11
23178.80532993385
 21
18329.15532125036
 31
0.0
  0
CIRCLE
  5
295
  8
SL
 10
23657.639228272761
 20
18295.717351791049
 30
0.0
 40
355.0
  0
ARC
  5
296
  8
FUTO
 10
23605.639228272761
 20
18385.783993784629
 30
0.0
 40
15.000000000000099
 50
25.864502996822029
 51
214.135497003171
  0
ARC
  5
297
  8
FUTO
 10
23657.639228272761
 20
18295.717351791049
 30
0.0
 40
103.9999999999995
 50
68.270994006339393
 51
111.7290059936601
  0
LINE
  5
298
  8
CT
 10
23657.639228272761
 20
18419.486110955761
 30
0.0
 11
23657.639228272761
 21
18165.89362788893
 31
0.0
  0
ARC
  5
299
  8
FUTO
 10
23709.639228272761
 20
18385.783993784629
 30
0.0
 40
15.000000000000201
 50
325.8645029968294
 51
154.13549700317759
  0
ARC
  5
29E
  8
FUTO
 10
23605.639228272761
 20
18205.650709797472
 30
0.0
 40
14.99999999999998
 50
145.86450299682841
 51
334.13549700317782
  0
CIRCLE
  5
29F
  8
FUTO
 10
23657.639228272761
 20
18295.717351791049
 30
0.0
 40
41.5
  0
LINE
  5
2A0
  8
FUTO
 10
23742.639228272761
 20
18188.717351791049
 30
0.0
 11
23572.639228272761
 21
18188.717351791049
 31
0.0
  0
LINE
  5
2A2
  8
KL
 10
23315.590802448722
 20
18173.717351791049
 30
0.0
 11
23657.639228272761
 21
18173.717351791049
 31
0.0
  0
LINE
  5
2A4
  8
FUTO
 10
23781.639228272761
 20
18219.717351791049
 30
0.0
 11
23849.639228272761
 21
18219.717351791049
 31
0.0
  0
LINE
  5
2A5
  8
FUTO
 10
23862.639228272761
 20
18183.717351791049
 30
0.0
 11
23742.639228272761
 21
18183.717351791049
 31
0.0
  0
LINE
  5
2A6
  8
KL
 10
23999.687654096801
 20
18173.717351791049
 30
0.0
 11
23657.639228272761
 21
18173.717351791049
 31
0.0
  0
LINE
  5
2A7
  8
FUTO
 10
23862.639228272761
 20
18183.717351791049
 30
0.0
 11
23862.639228272761
 21
18173.717351791049
 31
0.0
  0
ARC
  5
2A8
  8
FUTO
 10
23849.639228272761
 20
18216.717351791049
 30
0.0
 40
3.0
 50
0.000000000000007
 51
90.0
  0
LINE
  5
2A9
  8
FUTO
 10
23852.639228272761
 20
18216.717351791049
 30
0.0
 11
23852.639228272761
 21
18183.717351791049
 31
0.0
  0
LINE
  5
2AA
  8
KL
 10
23857.639228272761
 20
18304.717351791049
 30
0.0
 11
23857.639228272761
 21
18286.717351791049
 31
0.0
  0
ARC
  5
2AD
  8
FUTO
 10
23657.639228272761
 20
18295.717351791049
 30
0.0
 40
104.0000000000007
 50
248.27099400633949
 51
291.72900599365971
  0
ARC
  5
2AE
  8
FUTO
 10
23761.639228272761
 20
18295.717351791049
 30
0.0
 40
15.0
 50
265.86450299682951
 51
94.135497003170499
  0
ARC
  5
2AF
  8
FUTO
 10
23781.639228272761
 20
18239.717351791049
 30
0.0
 40
20.0
 50
180.0
 51
270.0
  0
LINE
  5
2B0
  8
FUTO
 10
23742.639228272761
 20
18183.717351791049
 30
0.0
 11
23742.639228272761
 21
18188.717351791049
 31
0.0
  0
LINE
  5
2B1
  8
CT
 10
23817.639228272761
 20
18173.717351791049
 30
0.0
 11
23817.639228272761
 21
18229.717351791049
 31
0.0
  0
LINE
  5
2B2
  8
FUTO
 10
23761.639228272761
 20
18280.717351791049
 30
0.0
 11
23761.639228272761
 21
18239.717351791049
 31
0.0
  0
ARC
  5
2B3
  8
FUTO
 10
23709.639228272761
 20
18205.650709797472
 30
0.0
 40
14.999999999999719
 50
205.86450299682281
 51
34.135497003170862
  0
ARC
  5
2B4
  8
FUTO
 10
23657.639228272761
 20
18295.717351791049
 30
0.0
 40
104.0000000000002
 50
308.27099400633909
 51
351.72900599365983
  0
ARC
  5
2B5
  8
FUTO
 10
23657.639228272761
 20
18295.717351791049
 30
0.0
 40
103.9999999999998
 50
8.2709940063395706
 51
51.729005993660287
  0
LINE
  5
2B6
  8
KL
 10
23457.82803053164
 20
18304.405576998801
 30
0.0
 11
23459.418414035459
 21
18322.33518046097
 31
0.0
  0
LINE
  5
2B7
  8
FUTO
 10
23452.639228272761
 20
18173.717351791049
 30
0.0
 11
23452.639228272761
 21
18183.717351791049
 31
0.0
  0
ARC
  5
2B8
  8
FUTO
 10
23465.639228272761
 20
18216.717351791049
 30
0.0
 40
3.0
 50
90.0
 51
180.0
  0
LINE
  5
2B9
  8
FUTO
 10
23462.639228272761
 20
18183.717351791049
 30
0.0
 11
23462.639228272761
 21
18216.717351791049
 31
0.0
  0
LINE
  5
2BA
  8
CT
 10
23497.639228272761
 20
18173.717351791049
 30
0.0
 11
23497.639228272761
 21
18229.717351791049
 31
0.0
  0
LINE
  5
2BB
  8
FUTO
 10
23465.639228272761
 20
18219.717351791049
 30
0.0
 11
23533.639228272761
 21
18219.717351791049
 31
0.0
  0
LINE
  5
2BC
  8
FUTO
 10
23553.639228272761
 20
18239.717351791049
 30
0.0
 11
23553.639228272761
 21
18280.717351791049
 31
0.0
  0
ARC
  5
2BD
  8
FUTO
 10
23533.639228272761
 20
18239.717351791049
 30
0.0
 40
20.0
 50
270.0
 51
0.000000000000007
  0
LINE
  5
2BE
  8
FUTO
 10
23572.639228272761
 20
18188.717351791049
 30
0.0
 11
23572.639228272761
 21
18183.717351791049
 31
0.0
  0
LINE
  5
2BF
  8
FUTO
 10
23572.639228272761
 20
18183.717351791049
 30
0.0
 11
23452.639228272761
 21
18183.717351791049
 31
0.0
  0
ARC
  5
2C0
  8
FUTO
 10
23553.639228272761
 20
18295.717351791049
 30
0.0
 40
15.0
 50
85.864502996829515
 51
270.0
  0
ARC
  5
2C1
  8
FUTO
 10
23657.639228272761
 20
18295.717351791049
 30
0.0
 40
103.9999999999998
 50
188.27099400633949
 51
231.72900599366031
  0
ARC
  5
2C2
  8
FUTO
 10
23657.639228272761
 20
18295.717351791049
 30
0.0
 40
103.9999999999994
 50
128.27099400633961
 51
171.72900599366019
  0
INSERT
  5
2C5
  8
FUTO
  2
左回転矢印
 10
23845.073834825009
 20
18994.15642513999
 30
0.0
 41
-2.0
 42
2.0
 43
2.0
  0
LINE
  5
2D0
  8
FUTO
 10
23630.584725755649
 20
18396.136741818831
 30
0.0
 11
23630.584725755649
 21
18399.717351791049
 31
0.0
  0
LINE
  5
2D1
  8
FUTO
 10
23684.693730789859
 20
18396.136741818831
 30
0.0
 11
23684.693730789859
 21
18399.717351791049
 31
0.0
  0
LINE
  5
2D2
  8
FUTO
 10
23684.693730789859
 20
18399.717351791049
 30
0.0
 11
23630.584725755649
 21
18399.717351791049
 31
0.0
  0
LINE
  5
2D3
  8
FUTO
 10
22498.639228272761
 20
18293.717351791049
 30
0.0
 11
22498.639228272761
 21
18046.368960850919
 31
0.0
  0
LINE
  5
2D4
  8
FUTO
 10
22492.639228272761
 20
18293.717351791049
 30
0.0
 11
22492.639228272761
 21
18045.030377691961
 31
0.0
  0
LINE
  5
2D5
  8
FUTO
 10
22492.639228272761
 20
18293.717351791049
 30
0.0
 11
22492.639228272761
 21
18099.435258772661
 31
0.0
  0
ARC
  5
2D6
  8
KL
 10
23547.139228272761
 20
18406.217351791049
 30
0.0
 40
960.5
 50
180.0
 51
215.70063660443361
  0
LINE
  5
2D8
  8
FUTO
 10
22577.542739112811
 20
18244.717351791049
 30
0.0
 11
22492.639228272761
 21
18244.717351791049
 31
0.0
  0
LINE
  5
2D9
  8
FUTO
 10
22557.639228272761
 20
18293.717351791049
 30
0.0
 11
22492.639228272761
 21
18293.717351791049
 31
0.0
  0
LINE
  5
2DA
  8
FUTO
 10
22557.639228272761
 20
18293.717351791049
 30
0.0
 11
22492.639228272761
 21
18293.717351791049
 31
0.0
  0
LINE
  5
2DB
  8
KL
 10
22603.94359639144
 20
18224.717351791049
 30
0.0
 11
22492.639228272761
 21
18224.717351791049
 31
0.0
  0
LINE
  5
2DC
  8
FUTO
 10
22518.916920564301
 20
18387.714437766441
 30
0.0
 11
22516.507259861231
 21
18405.998851324359
 31
0.0
  0
LINE
  5
2DD
  8
FUTO
 10
22492.639228272761
 20
16354.62859463345
 30
0.0
 11
22974.969449800461
 21
16400.11980246571
 31
0.0
  0
LINE
  5
2DE
  8
KL
 10
22492.639228272761
 20
16374.717351791051
 30
0.0
 11
23684.85866184935
 21
16487.162103568589
 31
0.0
  0
LINE
  5
2E3
  8
FUTO
 10
22498.639228272761
 20
17047.755411013921
 30
0.0
 11
22498.639228272761
 21
16305.717351791051
 31
0.0
  0
LINE
  5
2E4
  8
FUTO
 10
22557.639228272761
 20
16305.717351791051
 30
0.0
 11
22492.639228272761
 21
16305.717351791051
 31
0.0
  0
LINE
  5
2FF
  8
FUTO
 10
25597.639228272761
 20
21128.806080001719
 30
0.0
 11
22957.639228272761
 21
21128.806080001719
 31
0.0
  0
LINE
  5
300
  8
FUTO
 10
25597.639228272761
 20
21053.80608000173
 30
0.0
 11
22957.639228272761
 21
21053.806080001719
 31
0.0
  0
LINE
  5
3C8
  8
FUTO
 10
25211.639228272761
 20
23828.806080001719
 30
0.0
 11
22492.639228272761
 21
23828.806080001719
 31
0.0
  0
LINE
  5
3C9
  8
FUTO
 10
24717.639228272761
 20
22500.806080001719
 30
0.0
 11
22492.639228272761
 21
22500.806080001719
 31
0.0
  0
LINE
  5
3CA
  8
FUTO
 10
24717.639228272761
 20
22425.806080001719
 30
0.0
 11
22597.639228272761
 21
22425.806080001719
 31
0.0
  0
LINE
  5
3CB
  8
FUTO
 10
24717.639228272761
 20
23903.80608000173
 30
0.0
 11
22597.639228272761
 21
23903.806080001719
 31
0.0
  0
LINE
  5
3DA
  8
FUTO
 10
25597.639228272761
 20
22425.80608000173
 30
0.0
 11
24357.639228272761
 21
22425.806080001719
 31
0.0
  0
LINE
  5
3DB
  8
FUTO
 10
25597.639228272761
 20
22500.806080001719
 30
0.0
 11
25261.639228272761
 21
22500.80608000173
 31
0.0
  0
LINE
  5
406
  8
FUTO
 10
22597.639228272761
 20
22425.806080001719
 30
0.0
 11
22597.639228272761
 21
22450.806080001719
 31
0.0
  0
LINE
  5
438
  8
SL
 10
26568.214673232949
 20
18574.09115179105
 30
0.0
 11
26568.214673232938
 21
16504.09115179105
 31
0.0
  0
LINE
  5
439
  8
SL
 10
26398.214673232949
 20
18574.09115179105
 30
0.0
 11
26398.214673232949
 21
16504.09115179105
 31
0.0
  0
LINE
  5
43A
  8
CT
 10
28698.214673232949
 20
19798.41424011295
 30
0.0
 11
28698.214673232949
 21
15896.63858553038
 31
0.0
  0
LINE
  5
43C
  8
FUTO
 10
29361.414673232939
 20
16295.71733518506
 30
0.0
 11
29361.41467323295
 21
18362.791151791051
 31
0.0
  0
LINE
  5
43D
  8
FUTO
 10
29358.214673232949
 20
16295.71733518506
 30
0.0
 11
29358.214673232949
 21
18362.791151791051
 31
0.0
  0
LINE
  5
43E
  8
FUTO
 10
28038.214673232938
 20
16295.71733518506
 30
0.0
 11
28038.214673232938
 21
18362.791151791051
 31
0.0
  0
LINE
  5
43F
  8
FUTO
 10
28035.014673232949
 20
16295.71733518506
 30
0.0
 11
28035.014673232949
 21
18362.791151791051
 31
0.0
  0
LINE
  5
441
  8
FUTO
 10
26598.214673232949
 20
18674.09115179105
 30
0.0
 11
26598.214673232949
 21
16394.09115179105
 31
0.0
  0
LINE
  5
442
  8
FUTO
 10
26248.214673232949
 20
18674.09115179105
 30
0.0
 11
26248.214673232949
 21
16394.09115179105
 31
0.0
  0
LINE
  5
445
  8
FUTO
 10
27648.214673232938
 20
18144.09115179105
 30
0.0
 11
27648.214673232938
 21
18134.09115179105
 31
0.0
  0
LINE
  5
446
  8
FUTO
 10
27828.214673232938
 20
18144.09115179105
 30
0.0
 11
27828.214673232938
 21
16295.71733518506
 31
0.0
  0
LINE
  5
449
  8
FUTO
 10
26827.214673232949
 20
18172.09115179105
 30
0.0
 11
26827.214673232949
 21
18134.09115179105
 31
0.0
  0
LINE
  5
44A
  8
FUTO
 10
26647.214673232938
 20
18172.09115179105
 30
0.0
 11
26647.214673232938
 21
16954.09115179105
 31
0.0
  0
DIMENSION
  5
44B
  8
SP
  2
*D21
 10
30073.222815444678
 20
17394.09115179105
 30
0.0
 11
29993.222815444671
 21
18294.09115179105
 31
0.0
 70
     0
  1
%%C<>
 13
29493.214673232949
 23
19194.09115179105
 33
0.0
 14
29493.214673232949
 24
17394.09115179105
 34
0.0
 50
90.0
1001
ACAD
1000
DSTYLE
1002
{
1070
    40
1040
40.0
1002
}
  0
LINE
  5
461
  8
KL
 10
29367.414673232939
 20
19259.09115179105
 30
0.0
 11
29367.41467323295
 21
17329.09115179105
 31
0.0
  0
LINE
  5
462
  8
FUTO
 10
29487.214673232949
 20
19259.09115179105
 30
0.0
 11
29487.214673232949
 21
17329.09115179105
 31
0.0
  0
LINE
  5
463
  8
FUTO
 10
29493.214673232949
 20
19259.09115179105
 30
0.0
 11
29493.214673232949
 21
17329.09115179105
 31
0.0
  0
LINE
  5
464
  8
FUTO
 10
27945.014673232941
 20
18269.071996485301
 30
0.0
 11
27945.014673232949
 21
16295.71733518506
 31
0.0
  0
LINE
  5
465
  8
FUTO
 10
29451.414673232939
 20
18269.071996485301
 30
0.0
 11
29451.414673232939
 21
16295.71733518506
 31
0.0
  0
LINE
  5
46B
  8
FUTO
 10
27959.214673232949
 20
16113.71733518506
 30
0.0
 11
29362.210673232948
 21
16113.71733518506
 31
0.0
  0
LINE
  5
46C
  8
FUTO
 10
27959.214673232949
 20
15987.71733518506
 30
0.0
 11
29362.210673232948
 21
15987.71733518506
 31
0.0
  0
LINE
  5
46D
  8
FUTO
 10
27959.214673232949
 20
16157.71733518506
 30
0.0
 11
29362.210673232948
 21
16157.71733518506
 31
0.0
  0
LINE
  5
46E
  8
FUTO
 10
27959.214673232949
 20
16283.717335185071
 30
0.0
 11
29362.210673232948
 21
16283.717335185071
 31
0.0
  0
LINE
  5
470
  8
FUTO
 10
26587.21867323295
 20
16125.717335185071
 30
0.0
 11
29437.210673232948
 21
16125.71733518506
 31
0.0
1001
ACAD
1000
ASC_BOUNDS
1002
{
1070
    19
1002
}
  0
LINE
  5
471
  8
FUTO
 10
26587.214673232949
 20
16145.71733518506
 30
0.0
 11
29437.214673232949
 21
16145.717335185071
 31
0.0
1001
ACAD
1000
ASC_BOUNDS
1002
{
1070
    19
1005
0
1005
0
1005
0
1002
}
  0
DIMENSION
  5
472
  8
SP
  2
*D16
 10
28698.214673232949
 20
15536.23672242075
 30
0.0
 11
27642.714673232949
 21
15616.23672242075
 31
0.0
 70
     0
 13
26587.214673232949
 23
15975.71733518506
 33
0.0
 14
28698.214673232949
 24
15954.790283191131
 34
0.0
1001
ACAD
1000
DSTYLE
1002
{
1070
    40
1040
40.0
1002
}
  0
DIMENSION
  5
47F
  8
SP
  2
*D15
 10
29437.214673232949
 20
15236.19917745583
 30
0.0
 11
28012.214673232949
 21
15316.19917745583
 31
0.0
 70
     0
 13
26587.214673232949
 23
15975.71733518506
 33
0.0
 14
29437.214673232949
 24
15975.71733518506
 34
0.0
1001
ACAD
1000
DSTYLE
1002
{
1070
    40
1040
40.0
1002
}
  0
LINE
  5
48C
  8
FUTO
 10
26587.214673232949
 20
15975.71733518506
 30
0.0
 11
29437.210673232948
 21
15975.71733518506
 31
0.0
  0
LINE
  5
48D
  8
FUTO
 10
26587.214673232949
 20
16295.71733518506
 30
0.0
 11
29451.414673232939
 21
16295.71733518506
 31
0.0
  0
LINE
  5
48E
  8
CT
 10
26189.905401684031
 20
16644.09115179105
 30
0.0
 11
26770.407934540151
 21
16644.09115179105
 31
0.0
  0
LINE
  5
491
  8
FUTO
 10
26662.21867323295
 20
15987.71733518506
 30
0.0
 11
27941.324777838461
 21
15987.71733518506
 31
0.0
  0
LINE
  5
492
  8
FUTO
 10
26662.21867323295
 20
16113.71733518506
 30
0.0
 11
27941.324777838461
 21
16113.71733518506
 31
0.0
  0
LINE
  5
493
  8
FUTO
 10
26662.21867323295
 20
16283.717335185071
 30
0.0
 11
27941.324777838461
 21
16283.717335185071
 31
0.0
  0
LINE
  5
494
  8
FUTO
 10
26662.21867323295
 20
16157.71733518506
 30
0.0
 11
27941.324777838461
 21
16157.71733518506
 31
0.0
  0
LINE
  5
495
  8
CT
 10
26622.21867323295
 20
16158.61913499826
 30
0.0
 11
26622.21867323295
 21
16104.412360094109
 31
0.0
  0
LINE
  5
4AA
  8
FUTO
 10
26662.21867323295
 20
16125.717335185071
 30
0.0
 11
26662.21867323295
 21
15975.71733518506
 31
0.0
  0
LINE
  5
4AB
  8
FUTO
 10
26662.21867323295
 20
15975.71733518506
 30
0.0
 11
26587.21867323295
 21
15975.71733518506
 31
0.0
  0
LINE
  5
4AC
  8
FUTO
 10
26652.067296203932
 20
15988.39436781453
 30
0.0
 11
26590.870050261961
 21
15983.040302555601
 31
0.0
  0
LINE
  5
4AD
  8
FUTO
 10
26662.21867323295
 20
16125.717335185071
 30
0.0
 11
26587.21867323295
 21
16125.717335185071
 31
0.0
1001
ACAD
1000
ASC_BOUNDS
1002
{
1070
    19
1002
}
  0
LINE
  5
4AE
  8
FUTO
 10
26652.067296203932
 20
16113.040302555601
 30
0.0
 11
26590.870050261961
 21
16118.39436781453
 31
0.0
  0
LINE
  5
4AF
  8
FUTO
 10
26655.71867323295
 20
16109.055523763231
 30
0.0
 11
26655.71867323295
 21
15992.3791466069
 31
0.0
  0
ARC
  5
4B0
  8
FUTO
 10
26651.718673232939
 20
15992.3791466069
 30
0.0
 40
4.0
 50
274.99999999999972
 51
0.0
  0
LINE
  5
4B1
  8
FUTO
 10
26662.21867323295
 20
16125.717335185071
 30
0.0
 11
26662.21867323295
 21
15975.71733518506
 31
0.0
  0
ARC
  5
4B2
  8
FUTO
 10
26651.718673232939
 20
16109.055523763231
 30
0.0
 40
4.0
 50
0.0
 51
85.000000000000256
  0
ARC
  5
4B3
  8
FUTO
 10
26591.21867323295
 20
15979.055523763231
 30
0.0
 40
4.0
 50
95.000000000000185
 51
180.0
  0
LINE
  5
4B4
  8
FUTO
 10
26587.21867323295
 20
15975.71733518506
 30
0.0
 11
26587.21867323295
 21
15979.055523763231
 31
0.0
  0
LINE
  5
4B5
  8
FUTO
 10
26587.21867323295
 20
16125.717335185071
 30
0.0
 11
26587.21867323295
 21
16122.3791466069
 31
0.0
  0
ARC
  5
4B6
  8
FUTO
 10
26591.21867323295
 20
16122.3791466069
 30
0.0
 40
4.0
 50
180.0
 51
264.99999999999977
  0
ARC
  5
4B7
  8
FUTO
 10
26592.214673232949
 20
15978.139335185069
 30
0.0
 40
5.0
 50
95.001000000000005
 51
180.00099999999989
  0
LINE
  5
4B8
  8
FUTO
 10
26591.781673232948
 20
15983.120335185071
 30
0.0
 11
26646.585673232941
 21
15987.91733518507
 31
0.0
  0
LINE
  5
4B9
  8
FUTO
 10
26587.214673232949
 20
15975.71733518506
 30
0.0
 11
26587.214673232949
 21
15978.139335185069
 31
0.0
  0
LINE
  5
4BA
  8
FUTO
 10
26587.214673232949
 20
15975.71733518506
 30
0.0
 11
26662.214673232938
 21
15975.71733518506
 31
0.0
  0
LINE
  5
4BB
  8
SL
 10
26568.214673232949
 20
16754.09115179105
 30
0.0
 11
26568.214673232949
 21
16504.09115179105
 31
0.0
  0
LINE
  5
4BC
  8
SL
 10
26398.214673232949
 20
16754.09115179105
 30
0.0
 11
26398.214673232949
 21
16504.09115179105
 31
0.0
  0
LINE
  5
4BD
  8
SL
 10
26398.214673232949
 20
16504.09115179105
 30
0.0
 11
26568.214673232949
 21
16504.09115179105
 31
0.0
  0
LINE
  5
4BE
  8
FUTO
 10
26248.214673232949
 20
16394.09115179105
 30
0.0
 11
26598.214673232949
 21
16394.09115179105
 31
0.0
  0
LINE
  5
4C1
  8
FUTO
 10
26587.214673232949
 20
16145.717335185071
 30
0.0
 11
26662.214673232938
 21
16145.717335185071
 31
0.0
  0
LINE
  5
4C2
  8
FUTO
 10
26587.214673232949
 20
16145.717335185071
 30
0.0
 11
26587.214673232949
 21
16148.139335185069
 31
0.0
  0
LINE
  5
4C3
  8
FUTO
 10
26591.781673232948
 20
16153.12033518506
 30
0.0
 11
26646.585673232941
 21
16157.91733518507
 31
0.0
  0
ARC
  5
4C4
  8
FUTO
 10
26591.21867323295
 20
16292.3791466069
 30
0.0
 40
4.0
 50
180.0
 51
264.99999999999977
  0
LINE
  5
4C5
  8
FUTO
 10
26587.21867323295
 20
16295.71733518506
 30
0.0
 11
26587.21867323295
 21
16292.3791466069
 31
0.0
  0
LINE
  5
4C6
  8
FUTO
 10
26587.21867323295
 20
16145.717335185071
 30
0.0
 11
26587.21867323295
 21
16149.055523763231
 31
0.0
  0
ARC
  5
4C7
  8
FUTO
 10
26591.21867323295
 20
16149.055523763231
 30
0.0
 40
4.0
 50
95.000000000000185
 51
180.0
  0
ARC
  5
4C8
  8
FUTO
 10
26651.718673232939
 20
16279.055523763231
 30
0.0
 40
4.0
 50
0.0
 51
85.000000000000256
  0
LINE
  5
4C9
  8
FUTO
 10
26662.21867323295
 20
16295.71733518506
 30
0.0
 11
26662.21867323295
 21
16145.717335185071
 31
0.0
  0
ARC
  5
4CA
  8
FUTO
 10
26651.718673232939
 20
16162.3791466069
 30
0.0
 40
4.0
 50
274.99999999999972
 51
0.0
  0
LINE
  5
4CB
  8
FUTO
 10
26655.71867323295
 20
16279.055523763231
 30
0.0
 11
26655.71867323295
 21
16162.3791466069
 31
0.0
  0
LINE
  5
4CC
  8
FUTO
 10
26652.067296203932
 20
16283.040302555601
 30
0.0
 11
26590.870050261961
 21
16288.39436781453
 31
0.0
  0
LINE
  5
4CD
  8
FUTO
 10
26662.21867323295
 20
16295.71733518506
 30
0.0
 11
26587.21867323295
 21
16295.71733518506
 31
0.0
  0
LINE
  5
4CE
  8
FUTO
 10
26652.067296203932
 20
16158.39436781453
 30
0.0
 11
26590.870050261961
 21
16153.040302555601
 31
0.0
  0
LINE
  5
4CF
  8
FUTO
 10
26662.21867323295
 20
16145.717335185071
 30
0.0
 11
26587.21867323295
 21
16145.717335185071
 31
0.0
  0
LINE
  5
4D0
  8
FUTO
 10
26662.21867323295
 20
16295.71733518506
 30
0.0
 11
26662.21867323295
 21
16145.717335185071
 31
0.0
  0
LINE
  5
4D1
  8
SL
 10
26398.214673232949
 20
16784.09115179105
 30
0.0
 11
26568.214673232949
 21
16784.09115179105
 31
0.0
  0
LINE
  5
4D5
  8
CT
 10
27919.214673232949
 20
16158.61913499826
 30
0.0
 11
27919.214673232949
 21
16104.412360094109
 31
0.0
  0
LINE
  5
4DC
  8
1
 10
27885.015673232949
 20
15975.71733518506
 30
0.0
 11
27960.015673232941
 21
15975.71733518506
 31
0.0
  0
LINE
  5
4E9
  8
FUTO
 10
27959.214673232949
 20
15975.71733518506
 30
0.0
 11
27884.214673232949
 21
15975.71733518506
 31
0.0
  0
LINE
  5
4EA
  8
FUTO
 10
27949.063296203931
 20
15988.39436781453
 30
0.0
 11
27887.86605026196
 21
15983.040302555601
 31
0.0
  0
LINE
  5
4EB
  8
FUTO
 10
27884.210673232941
 20
15975.71733518506
 30
0.0
 11
27959.210673232941
 21
15975.71733518506
 31
0.0
  0
LINE
  5
4EC
  8
FUTO
 10
27959.214673232949
 20
16125.717335185071
 30
0.0
 11
27884.214673232949
 21
16125.717335185071
 31
0.0
  0
LINE
  5
4ED
  8
FUTO
 10
27949.063296203931
 20
16113.040302555601
 30
0.0
 11
27887.86605026196
 21
16118.39436781453
 31
0.0
  0
ARC
  5
4EE
  8
FUTO
 10
27888.214673232949
 20
15979.055523763231
 30
0.0
 40
4.0
 50
95.000000000000185
 51
180.0
  0
LINE
  5
4EF
  8
FUTO
 10
27884.214673232949
 20
15975.71733518506
 30
0.0
 11
27884.214673232949
 21
15979.055523763231
 31
0.0
  0
LINE
  5
4F0
  8
FUTO
 10
27884.210673232941
 20
15975.71733518506
 30
0.0
 11
27884.210673232941
 21
15978.139335185069
 31
0.0
  0
LINE
  5
4F1
  8
FUTO
 10
27884.214673232949
 20
16125.717335185071
 30
0.0
 11
27884.214673232949
 21
16122.3791466069
 31
0.0
  0
ARC
  5
4F2
  8
FUTO
 10
27888.214673232949
 20
16122.3791466069
 30
0.0
 40
4.0
 50
180.0
 51
264.99999999999972
  0
LINE
  5
4F3
  8
FUTO
 10
27888.77767323294
 20
15983.120335185071
 30
0.0
 11
27943.581673232951
 21
15987.91733518507
 31
0.0
  0
LINE
  5
4F4
  8
FUTO
 10
27959.214673232949
 20
16125.717335185071
 30
0.0
 11
27959.214673232949
 21
15975.71733518506
 31
0.0
  0
LINE
  5
4F5
  8
FUTO
 10
27952.714673232949
 20
16109.055523763231
 30
0.0
 11
27952.714673232949
 21
15992.3791466069
 31
0.0
  0
LINE
  5
4F6
  8
FUTO
 10
27959.214673232949
 20
16125.717335185071
 30
0.0
 11
27959.214673232949
 21
15975.71733518506
 31
0.0
  0
ARC
  5
4F7
  8
FUTO
 10
27948.714673232949
 20
15992.3791466069
 30
0.0
 40
4.0
 50
275.0
 51
0.0
  0
ARC
  5
4F8
  8
FUTO
 10
27948.714673232949
 20
16109.055523763231
 30
0.0
 40
4.0
 50
0.0
 51
84.999999999999957
  0
LINE
  5
4FF
  8
1
 10
27885.015673232949
 20
16145.717335185071
 30
0.0
 11
27960.015673232941
 21
16145.717335185071
 31
0.0
  0
LINE
  5
501
  8
FUTO
 10
27959.214673232949
 20
16295.71733518506
 30
0.0
 11
27884.214673232949
 21
16295.71733518506
 31
0.0
  0
LINE
  5
502
  8
FUTO
 10
27949.063296203931
 20
16283.040302555601
 30
0.0
 11
27887.86605026196
 21
16288.39436781453
 31
0.0
  0
ARC
  5
503
  8
FUTO
 10
27948.714673232949
 20
16279.055523763231
 30
0.0
 40
4.0
 50
0.0
 51
84.999999999999957
  0
LINE
  5
504
  8
FUTO
 10
27884.214673232949
 20
16295.71733518506
 30
0.0
 11
27884.214673232949
 21
16292.3791466069
 31
0.0
  0
ARC
  5
505
  8
FUTO
 10
27888.214673232949
 20
16292.3791466069
 30
0.0
 40
4.0
 50
180.0
 51
264.99999999999972
  0
LINE
  5
506
  8
FUTO
 10
27959.214673232949
 20
16145.717335185071
 30
0.0
 11
27884.214673232949
 21
16145.717335185071
 31
0.0
  0
LINE
  5
507
  8
FUTO
 10
27949.063296203931
 20
16158.39436781453
 30
0.0
 11
27887.86605026196
 21
16153.040302555601
 31
0.0
  0
ARC
  5
508
  8
FUTO
 10
27948.714673232949
 20
16162.3791466069
 30
0.0
 40
4.0
 50
275.0
 51
0.0
  0
ARC
  5
509
  8
FUTO
 10
27888.214673232949
 20
16149.055523763231
 30
0.0
 40
4.0
 50
95.000000000000185
 51
180.0
  0
LINE
  5
50A
  8
FUTO
 10
27884.214673232949
 20
16145.717335185071
 30
0.0
 11
27884.214673232949
 21
16149.055523763231
 31
0.0
  0
LINE
  5
50B
  8
FUTO
 10
27884.210673232941
 20
16145.717335185071
 30
0.0
 11
27884.210673232941
 21
16148.139335185069
 31
0.0
  0
LINE
  5
50C
  8
FUTO
 10
27888.77767323294
 20
16153.12033518506
 30
0.0
 11
27943.581673232951
 21
16157.91733518507
 31
0.0
  0
LINE
  5
50D
  8
FUTO
 10
27884.210673232941
 20
16145.717335185071
 30
0.0
 11
27959.210673232941
 21
16145.717335185071
 31
0.0
  0
LINE
  5
50E
  8
FUTO
 10
27959.214673232949
 20
16295.71733518506
 30
0.0
 11
27959.214673232949
 21
16145.717335185071
 31
0.0
  0
LINE
  5
50F
  8
FUTO
 10
27952.714673232949
 20
16279.055523763231
 30
0.0
 11
27952.714673232949
 21
16162.3791466069
 31
0.0
  0
LINE
  5
510
  8
FUTO
 10
27959.214673232949
 20
16295.71733518506
 30
0.0
 11
27959.214673232949
 21
16145.717335185071
 31
0.0
  0
DIMENSION
  5
517
  8
SP
  2
*D17
 10
29437.214673232949
 20
15536.23672242075
 30
0.0
 11
29067.714673232949
 21
15616.23672242075
 31
0.0
 70
     0
 13
28698.214673232949
 23
15954.790283191131
 33
0.0
 14
29437.214673232949
 24
15975.71733518506
 34
0.0
1001
ACAD
1000
DSTYLE
1002
{
1070
   287
1070
     4
1070
    40
1040
40.0
1070
    75
1070
     1
1070
   279
1070
     1
1070
   289
1070
     3
1002
}
  0
LINE
  5
529
  8
CT
 10
29402.214673232938
 20
16158.61913499826
 30
0.0
 11
29402.214673232938
 21
16104.412360094109
 31
0.0
  0
LINE
  5
53A
  8
FUTO
 10
29437.214673232949
 20
15975.71733518506
 30
0.0
 11
29362.214673232938
 21
15975.71733518506
 31
0.0
  0
LINE
  5
53B
  8
FUTO
 10
29432.64767323295
 20
15983.120335185071
 30
0.0
 11
29377.84367323295
 21
15987.91733518507
 31
0.0
  0
LINE
  5
53C
  8
1
 10
29436.409673232949
 20
15975.71733518506
 30
0.0
 11
29361.409673232949
 21
15975.71733518506
 31
0.0
  0
LINE
  5
53D
  8
FUTO
 10
29372.362050261949
 20
15988.39436781453
 30
0.0
 11
29433.55929620393
 21
15983.040302555601
 31
0.0
  0
LINE
  5
53E
  8
FUTO
 10
29362.210673232948
 20
15975.71733518506
 30
0.0
 11
29437.210673232948
 21
15975.71733518506
 31
0.0
  0
LINE
  5
53F
  8
FUTO
 10
29372.362050261949
 20
16113.040302555601
 30
0.0
 11
29433.55929620393
 21
16118.39436781453
 31
0.0
  0
LINE
  5
540
  8
FUTO
 10
29362.210673232948
 20
16125.717335185071
 30
0.0
 11
29437.210673232948
 21
16125.717335185071
 31
0.0
1001
ACAD
1000
ASC_BOUNDS
1002
{
1070
    19
1005
0
1002
}
  0
LINE
  5
541
  8
FUTO
 10
29362.210673232948
 20
16125.717335185071
 30
0.0
 11
29362.210673232948
 21
15975.71733518506
 31
0.0
  0
LINE
  5
542
  8
FUTO
 10
29368.710673232948
 20
16109.055523763231
 30
0.0
 11
29368.710673232948
 21
15992.3791466069
 31
0.0
  0
LINE
  5
543
  8
FUTO
 10
29362.210673232948
 20
16125.717335185071
 30
0.0
 11
29362.210673232948
 21
15975.71733518506
 31
0.0
  0
ARC
  5
544
  8
FUTO
 10
29372.710673232941
 20
15992.3791466069
 30
0.0
 40
4.0
 50
180.0
 51
264.99999999999989
  0
ARC
  5
545
  8
FUTO
 10
29372.710673232941
 20
16109.055523763231
 30
0.0
 40
4.0
 50
95.000000000000057
 51
180.0
  0
LINE
  5
546
  8
FUTO
 10
29437.214673232949
 20
15975.71733518506
 30
0.0
 11
29437.214673232949
 21
15978.139335185069
 31
0.0
  0
LINE
  5
547
  8
FUTO
 10
29437.210673232948
 20
15975.71733518506
 30
0.0
 11
29437.210673232948
 21
15979.055523763231
 31
0.0
  0
ARC
  5
548
  8
FUTO
 10
29433.210673232941
 20
15979.055523763231
 30
0.0
 40
4.0
 50
0.0
 51
84.999999999999801
  0
ARC
  5
549
  8
FUTO
 10
29433.210673232941
 20
16122.3791466069
 30
0.0
 40
4.0
 50
275.00000000000011
 51
0.0
  0
LINE
  5
54A
  8
FUTO
 10
29437.210673232948
 20
16125.717335185071
 30
0.0
 11
29437.210673232948
 21
16122.3791466069
 31
0.0
  0
LINE
  5
554
  8
FUTO
 10
29437.214673232949
 20
16145.717335185071
 30
0.0
 11
29362.214673232938
 21
16145.717335185071
 31
0.0
  0
LINE
  5
555
  8
FUTO
 10
29432.64767323295
 20
16153.12033518506
 30
0.0
 11
29377.84367323295
 21
16157.91733518507
 31
0.0
  0
LINE
  5
556
  8
FUTO
 10
29437.214673232949
 20
16145.717335185071
 30
0.0
 11
29437.214673232949
 21
16148.139335185069
 31
0.0
  0
LINE
  5
557
  8
1
 10
29436.409673232949
 20
16145.717335185071
 30
0.0
 11
29361.409673232949
 21
16145.717335185071
 31
0.0
  0
ARC
  5
558
  8
FUTO
 10
29433.210673232941
 20
16292.3791466069
 30
0.0
 40
4.0
 50
275.00000000000011
 51
0.0
  0
LINE
  5
559
  8
FUTO
 10
29437.210673232948
 20
16295.71733518506
 30
0.0
 11
29437.210673232948
 21
16292.3791466069
 31
0.0
  0
LINE
  5
55A
  8
FUTO
 10
29437.210673232948
 20
16145.717335185071
 30
0.0
 11
29437.210673232948
 21
16149.055523763231
 31
0.0
  0
ARC
  5
55B
  8
FUTO
 10
29433.210673232941
 20
16149.055523763231
 30
0.0
 40
4.0
 50
0.0
 51
84.999999999999801
  0
ARC
  5
55C
  8
FUTO
 10
29372.710673232941
 20
16279.055523763231
 30
0.0
 40
4.0
 50
95.000000000000057
 51
180.0
  0
LINE
  5
55D
  8
FUTO
 10
29362.210673232948
 20
16295.71733518506
 30
0.0
 11
29362.210673232948
 21
16145.717335185071
 31
0.0
  0
ARC
  5
55E
  8
FUTO
 10
29372.710673232941
 20
16162.3791466069
 30
0.0
 40
4.0
 50
180.0
 51
264.99999999999989
  0
LINE
  5
55F
  8
FUTO
 10
29368.710673232948
 20
16279.055523763231
 30
0.0
 11
29368.710673232948
 21
16162.3791466069
 31
0.0
  0
LINE
  5
560
  8
FUTO
 10
29372.362050261949
 20
16283.040302555601
 30
0.0
 11
29433.55929620393
 21
16288.39436781453
 31
0.0
  0
LINE
  5
561
  8
FUTO
 10
29362.210673232948
 20
16295.71733518506
 30
0.0
 11
29437.210673232948
 21
16295.71733518506
 31
0.0
  0
LINE
  5
562
  8
FUTO
 10
29372.362050261949
 20
16158.39436781453
 30
0.0
 11
29433.55929620393
 21
16153.040302555601
 31
0.0
  0
LINE
  5
563
  8
FUTO
 10
29362.210673232948
 20
16145.717335185071
 30
0.0
 11
29437.210673232948
 21
16145.717335185071
 31
0.0
  0
LINE
  5
564
  8
FUTO
 10
29362.210673232948
 20
16295.71733518506
 30
0.0
 11
29362.210673232948
 21
16145.717335185071
 31
0.0
  0
LINE
  5
56B
  8
KL
 10
29361.41467323295
 20
17388.09115179105
 30
0.0
 11
29451.414673232939
 21
17388.09115179105
 31
0.0
  0
LINE
  5
56C
  8
KL
 10
29361.41467323295
 20
17394.09115179105
 30
0.0
 11
29493.214673232949
 21
17394.09115179105
 31
0.0
  0
LINE
  5
56D
  8
HOSO
 10
29318.880663622029
 20
17354.09115179105
 30
0.0
 11
29392.988278770292
 21
17354.09115179105
 31
0.0
  0
LINE
  5
56E
  8
KL
 10
29361.414673232939
 20
17329.09115179105
 30
0.0
 11
29367.41467323295
 21
17329.09115179105
 31
0.0
  0
LINE
  5
56F
  8
FUTO
 10
29451.414673232939
 20
17388.09115179105
 30
0.0
 11
29493.214673232949
 21
17388.09115179105
 31
0.0
  0
LINE
  5
570
  8
FUTO
 10
29487.214673232949
 20
17329.09115179105
 30
0.0
 11
29493.214673232949
 21
17329.09115179105
 31
0.0
  0
LINE
  5
571
  8
HOSO
 10
29459.732127046929
 20
17354.09115179105
 30
0.0
 11
29533.839742195181
 21
17354.09115179105
 31
0.0
  0
LINE
  5
600
  8
FUTO
 10
27970.014673232949
 20
18285.09115179105
 30
0.0
 11
29426.414673232939
 21
18285.09115179105
 31
0.0
  0
LINE
  5
601
  8
FUTO
 10
27970.014673232949
 20
18303.09115179105
 30
0.0
 11
29426.414673232939
 21
18303.09115179105
 31
0.0
  0
LINE
  5
61E
  8
CT
 10
26196.288551548161
 20
18294.09115179105
 30
0.0
 11
29692.209976405171
 21
18294.09115179105
 31
0.0
  0
LINE
  5
623
  8
FUTO
 10
26803.714673232949
 20
18398.09115179105
 30
0.0
 11
26670.714673232949
 21
18398.09115179105
 31
0.0
  0
LINE
  5
624
  8
FUTO
 10
26670.714673232949
 20
18190.09115179105
 30
0.0
 11
26682.214673232949
 21
18190.09115179105
 31
0.0
  0
ARC
  5
625
  8
FUTO
 10
26688.214673232949
 20
18212.09115179105
 30
0.0
 40
6.0
 50
90.0
 51
180.0
  0
LINE
  5
626
  8
FUTO
 10
26647.214673232938
 20
18172.09115179105
 30
0.0
 11
26827.214673232949
 21
18172.09115179105
 31
0.0
  0
ARC
  5
628
  8
FUTO
 10
26670.714673232949
 20
18392.09115179105
 30
0.0
 40
6.0
 50
90.0
 51
180.0
  0
LINE
  5
62A
  8
FUTO
 10
26664.714673232949
 20
18384.09115179105
 30
0.0
 11
26659.714673232949
 21
18384.09115179105
 31
0.0
  0
ARC
  5
62B
  8
FUTO
 10
26670.714673232949
 20
18196.09115179105
 30
0.0
 40
6.0
 50
180.0
 51
270.0
  0
LINE
  5
62C
  8
FUTO
 10
26659.714673232949
 20
18204.09115179105
 30
0.0
 11
26664.714673232949
 21
18204.09115179105
 31
0.0
  0
LINE
  5
62D
  8
FUTO
 10
26664.714673232949
 20
18392.09115179105
 30
0.0
 11
26664.714673232949
 21
18196.09115179105
 31
0.0
  0
LINE
  5
62E
  8
FUTO
 10
26659.714673232949
 20
18384.09115179105
 30
0.0
 11
26659.714673232949
 21
18204.09115179105
 31
0.0
  0
LINE
  5
62F
  8
FUTO
 10
26568.214673232949
 20
18246.59115179105
 30
0.0
 11
26659.714673232949
 21
18246.59115179105
 31
0.0
  0
LINE
  5
630
  8
FUTO
 10
26568.214673232949
 20
18341.59115179105
 30
0.0
 11
26659.714673232949
 21
18341.59115179105
 31
0.0
  0
LINE
  5
631
  8
SL
 10
26398.214673232949
 20
18574.09115179105
 30
0.0
 11
26568.214673232949
 21
18574.09115179105
 31
0.0
  0
LINE
  5
632
  8
FUTO
 10
26248.214673232949
 20
18674.09115179105
 30
0.0
 11
26598.214673232949
 21
18674.09115179105
 31
0.0
  0
LINE
  5
636
  8
FUTO
 10
28035.014673232949
 20
18362.791151791051
 30
0.0
 11
28035.014673232949
 21
19580.912536447471
 31
0.0
  0
LINE
  5
637
  8
FUTO
 10
28038.214673232938
 20
18362.791151791051
 30
0.0
 11
28038.214673232938
 21
19580.912536447471
 31
0.0
  0
LINE
  5
638
  8
FUTO
 10
27970.014673232941
 20
19580.912536447471
 30
0.0
 11
27970.014673232941
 21
18285.09115179105
 31
0.0
  0
LINE
  5
63B
  8
SL
 10
27617.726294559019
 20
18510.165821601309
 30
0.0
 11
26852.34833776133
 21
18510.165821601309
 31
0.0
  0
LINE
  5
63D
  8
FUTO
 10
27648.214673232938
 20
18134.09115179105
 30
0.0
 11
26827.214673232949
 21
18134.09115179105
 31
0.0
  0
LINE
  5
63E
  8
FUTO
 10
26814.714673232938
 20
18241.59115179105
 30
0.0
 11
27644.714673232949
 21
18241.59115179105
 31
0.0
  0
LINE
  5
63F
  8
FUTO
 10
26814.714673232938
 20
18346.59115179105
 30
0.0
 11
27644.714673232949
 21
18346.59115179105
 31
0.0
  0
LINE
  5
640
  8
SL
 10
26852.34833776133
 20
18510.165821601309
 30
0.0
 11
26852.34833776133
 21
18134.09115179105
 31
0.0
  0
LINE
  5
641
  8
CT
 10
26737.214673232949
 20
18475.157066210679
 30
0.0
 11
26737.214673232949
 21
18085.156898265261
 31
0.0
  0
ARC
  5
642
  8
FUTO
 10
26803.714673232949
 20
18392.09115179105
 30
0.0
 40
6.0
 50
0.0
 51
90.0
  0
LINE
  5
643
  8
FUTO
 10
26792.214673232949
 20
18398.09115179105
 30
0.0
 11
26792.214673232949
 21
18172.09115179105
 31
0.0
  0
LINE
  5
644
  8
FUTO
 10
26682.214673232949
 20
18398.09115179105
 30
0.0
 11
26682.214673232949
 21
18172.09115179105
 31
0.0
  0
LINE
  5
645
  8
CT
 10
26737.214673232949
 20
18417.859910955762
 30
0.0
 11
26737.214673232949
 21
18164.267427888932
 31
0.0
  0
LINE
  5
646
  8
FUTO
 10
26809.714673232949
 20
18384.09115179105
 30
0.0
 11
26814.714673232938
 21
18384.09115179105
 31
0.0
  0
LINE
  5
647
  8
FUTO
 10
26814.714673232938
 20
18204.09115179105
 30
0.0
 11
26809.714673232949
 21
18204.09115179105
 31
0.0
  0
ARC
  5
648
  8
FUTO
 10
26803.714673232949
 20
18196.09115179105
 30
0.0
 40
6.0
 50
270.0
 51
0.0
  0
LINE
  5
649
  8
FUTO
 10
26803.714673232949
 20
18190.09115179105
 30
0.0
 11
26792.214673232949
 21
18190.09115179105
 31
0.0
  0
ARC
  5
64A
  8
FUTO
 10
26786.214673232938
 20
18212.09115179105
 30
0.0
 40
6.0
 50
0.0
 51
90.0
  0
LINE
  5
64B
  8
FUTO
 10
26814.714673232938
 20
18384.09115179105
 30
0.0
 11
26814.714673232938
 21
18204.09115179105
 31
0.0
  0
LINE
  5
64C
  8
FUTO
 10
26809.714673232949
 20
18392.09115179105
 30
0.0
 11
26809.714673232949
 21
18196.09115179105
 31
0.0
  0
LINE
  5
64D
  8
FUTO
 10
26682.214673232949
 20
18182.09115179105
 30
0.0
 11
26792.214673232949
 21
18182.09115179105
 31
0.0
  0
LINE
  5
64E
  8
FUTO
 10
26786.214673232938
 20
18218.09115179105
 30
0.0
 11
26688.214673232949
 21
18218.09115179105
 31
0.0
  0
LINE
  5
653
  8
SL
 10
27617.726294559019
 20
18510.165821601309
 30
0.0
 11
27617.726294559019
 21
18134.09115179105
 31
0.0
  0
LINE
  5
654
  8
CT
 10
27738.214673232949
 20
18502.86197987129
 30
0.0
 11
27738.214673232949
 21
18053.189676103699
 31
0.0
  0
LINE
  5
655
  8
FUTO
 10
27816.714673232938
 20
18401.59115179105
 30
0.0
 11
27831.714673232949
 21
18378.09115179105
 31
0.0
  0
LINE
  5
656
  8
FUTO
 10
27804.714673232949
 20
18424.09115179105
 30
0.0
 11
27804.714673232949
 21
18209.09115179105
 31
0.0
  0
LINE
  5
657
  8
FUTO
 10
27804.714673232949
 20
18199.09115179105
 30
0.0
 11
27804.714673232949
 21
18424.09108859667
 31
0.0
  0
LINE
  5
658
  8
FUTO
 10
27816.714673232938
 20
18164.09115179105
 30
0.0
 11
27816.714673232938
 21
18424.09115179105
 31
0.0
  0
LINE
  5
659
  8
FUTO
 10
27644.714673232949
 20
18378.09115179105
 30
0.0
 11
27659.714673232949
 21
18401.59115179105
 31
0.0
  0
LINE
  5
65A
  8
FUTO
 10
27671.714673232938
 20
18424.09115179105
 30
0.0
 11
27671.714673232938
 21
18209.09115179105
 31
0.0
  0
LINE
  5
65B
  8
CT
 10
27738.214673232949
 20
18458.252731457262
 30
0.0
 11
27738.214673232949
 21
18116.383108613169
 31
0.0
  0
LINE
  5
65C
  8
FUTO
 10
27659.714673232949
 20
18424.09115179105
 30
0.0
 11
27659.714673232949
 21
18164.09115179105
 31
0.0
  0
LINE
  5
662
  8
FUTO
 10
27970.014673232941
 20
18285.09115179105
 30
0.0
 11
27945.014673232941
 21
18269.071996485301
 31
0.0
  0
LINE
  5
664
  8
FUTO
 10
27828.214673232938
 20
18144.09115179105
 30
0.0
 11
27648.214673232949
 21
18144.09115179105
 31
0.0
  0
LINE
  5
665
  8
FUTO
 10
27813.214673232938
 20
18154.09115179105
 30
0.0
 11
27663.214673232949
 21
18154.09115179105
 31
0.0
  0
LINE
  5
666
  8
FUTO
 10
27663.214673232949
 20
18209.09115179105
 30
0.0
 11
27813.214673232938
 21
18209.09115179105
 31
0.0
  0
LINE
  5
667
  8
FUTO
 10
27644.714673232949
 20
18210.09115179105
 30
0.0
 11
27644.714673232949
 21
18378.09115179105
 31
0.0
  0
LINE
  5
668
  8
FUTO
 10
27659.714673232949
 20
18164.09115179105
 30
0.0
 11
27663.214673232949
 21
18164.09115179105
 31
0.0
  0
LINE
  5
669
  8
CT
 10
27688.214673232949
 20
18119.136059439799
 30
0.0
 11
27688.214673232949
 21
18239.90858456157
 31
0.0
  0
LINE
  5
66A
  8
FUTO
 10
27663.214673232949
 20
18144.09115179105
 30
0.0
 11
27663.214673232949
 21
18209.09115179105
 31
0.0
  0
LINE
  5
66B
  8
FUTO
 10
27659.714673232949
 20
18186.59115179105
 30
0.0
 11
27644.714673232949
 21
18210.09115179105
 31
0.0
  0
LINE
  5
66C
  8
FUTO
 10
27831.714673232949
 20
18346.59115179105
 30
0.0
 11
27970.014673232941
 21
18346.59115179105
 31
0.0
  0
LINE
  5
66E
  8
FUTO
 10
27831.714673232949
 20
18241.59115179105
 30
0.0
 11
27945.014673232949
 21
18241.59115179105
 31
0.0
  0
LINE
  5
67F
  8
CT
 10
27849.60501146927
 20
18294.09115179105
 30
0.0
 11
27958.947633345178
 21
18294.09115179105
 31
0.0
  0
LINE
  5
69D
  8
FUTO
 10
27831.714673232949
 20
18378.09115179105
 30
0.0
 11
27831.714673232949
 21
18210.09115179105
 31
0.0
  0
LINE
  5
69E
  8
FUTO
 10
27813.214673232938
 20
18164.09115179105
 30
0.0
 11
27816.714673232938
 21
18164.09115179105
 31
0.0
  0
LINE
  5
69F
  8
FUTO
 10
27813.214673232938
 20
18209.09115179105
 30
0.0
 11
27813.214673232938
 21
18144.09115179105
 31
0.0
  0
LINE
  5
6A0
  8
FUTO
 10
27831.714673232949
 20
18210.09115179105
 30
0.0
 11
27816.714673232938
 21
18186.59115179105
 31
0.0
  0
LINE
  5
6A1
  8
CT
 10
27788.214673232938
 20
18119.136059439799
 30
0.0
 11
27788.214673232938
 21
18239.90858456157
 31
0.0
  0
LINE
  5
6AC
  8
FUTO
 10
27799.714673232938
 20
18442.09115179105
 30
0.0
 11
27676.714673232949
 21
18442.09115179105
 31
0.0
  0
LINE
  5
6AD
  8
FUTO
 10
27676.714673232949
 20
18442.09115179105
 30
0.0
 11
27676.714673232949
 21
18424.09115179105
 31
0.0
  0
LINE
  5
6AE
  8
FUTO
 10
27676.714673232949
 20
18424.09115179105
 30
0.0
 11
27659.714673232949
 21
18424.09115179105
 31
0.0
  0
LINE
  5
6B7
  8
FUTO
 10
27816.714673232938
 20
18424.09115179105
 30
0.0
 11
27799.714673232938
 21
18424.09115179105
 31
0.0
  0
LINE
  5
6B8
  8
FUTO
 10
27799.714673232938
 20
18424.09115179105
 30
0.0
 11
27799.714673232938
 21
18442.09115179105
 31
0.0
  0
LINE
  5
6BC
  8
FUTO
 10
28035.014673232949
 20
19239.291151791051
 30
0.0
 11
28035.014673232949
 21
19580.912536447471
 31
0.0
  0
DIMENSION
  5
6CD
  8
SP
  2
*D18
 10
29493.214673232949
 20
20067.421450485908
 30
0.0
 11
29027.077048277049
 21
20067.421450485908
 31
0.0
 70
   128
 13
28698.214673232949
 23
20099.363789850289
 33
0.0
 14
29493.214673232949
 24
19259.09115179105
 34
0.0
1001
ACAD
1000
DSTYLE
1002
{
1070
    40
1040
40.0
1002
}
  0
LINE
  5
6E1
  8
FUTO
 10
29358.214673232949
 20
18362.791151791051
 30
0.0
 11
29358.214673232949
 21
19580.912536447471
 31
0.0
  0
LINE
  5
6E2
  8
FUTO
 10
29361.414673232939
 20
18362.791151791051
 30
0.0
 11
29361.41467323295
 21
19580.912536447471
 31
0.0
  0
LINE
  5
6E3
  8
FUTO
 10
29426.41467323339
 20
19580.912536447471
 30
0.0
 11
29426.414673232939
 21
18285.09115179105
 31
0.0
  0
LINE
  5
701
  8
FUTO
 10
29426.414673232979
 20
18285.091151791021
 30
0.0
 11
29451.414673232979
 21
18269.07199648528
 31
0.0
  0
INSERT
  5
702
  8
FUTO
  2
まっすぐの矢印
 10
29688.687825803449
 20
18779.63745464016
 30
0.0
 41
2.0
 42
2.0
 43
2.0
 50
90.0
  0
LINE
  5
704
  8
FUTO
 10
29426.414673232939
 20
19200.09115179105
 30
0.0
 11
29493.214673232949
 21
19200.09115179105
 31
0.0
  0
LINE
  5
705
  8
KL
 10
29361.414673232939
 20
19194.09115179105
 30
0.0
 11
29493.214673232949
 21
19194.09115179105
 31
0.0
  0
LINE
  5
706
  8
HOSO
 10
29332.476703424949
 20
19234.09115179105
 30
0.0
 11
29392.307052255019
 21
19234.09115179105
 31
0.0
  0
LINE
  5
707
  8
KL
 10
29367.414673232939
 20
19259.09115179105
 30
0.0
 11
29361.414673232939
 21
19259.09115179105
 31
0.0
  0
LINE
  5
708
  8
KL
 10
29361.414673232939
 20
19200.09115179105
 30
0.0
 11
29426.414673232939
 21
19200.09115179105
 31
0.0
  0
LINE
  5
709
  8
FUTO
 10
29487.214673232949
 20
19259.09115179105
 30
0.0
 11
29493.214673232949
 21
19259.09115179105
 31
0.0
  0
LINE
  5
70A
  8
HOSO
 10
29460.546896673259
 20
19234.09115179105
 30
0.0
 11
29520.37724550334
 21
19234.09115179105
 31
0.0
  0
LINE
  5
88D
  8
CT
 10
25337.674387611041
 20
23164.80608000173
 30
0.0
 11
22005.404784563842
 21
23164.806080001719
 31
0.0
  0
LINE
  5
88E
  8
FUTO
 10
22492.639228272761
 20
22435.806080001719
 30
0.0
 11
22492.639228272761
 21
23893.806080001719
 31
0.0
  0
LINE
  5
89C
  8
FUTO
 10
22557.639228272761
 20
22435.806080001719
 30
0.0
 11
22492.639228272761
 21
22435.806080001719
 31
0.0
  0
LINE
  5
89D
  8
FUTO
 10
22557.639228272761
 20
22435.806080001719
 30
0.0
 11
22557.639228272761
 21
23893.806080001719
 31
0.0
  0
LINE
  5
89E
  8
FUTO
 10
22557.639228272761
 20
23893.806080001719
 30
0.0
 11
22492.639228272761
 21
23893.806080001719
 31
0.0
  0
LINE
  5
89F
  8
FUTO
 10
25211.639228272761
 20
23828.806080001719
 30
0.0
 11
25211.639228272761
 21
22500.80608000173
 31
0.0
  0
LINE
  5
8A0
  8
FUTO
 10
25261.639228272761
 20
23878.806080001719
 30
0.0
 11
22557.639228272761
 21
23878.806080001719
 31
0.0
  0
LINE
  5
8A1
  8
FUTO
 10
25261.639228272761
 20
23878.80608000173
 30
0.0
 11
25261.639228272761
 21
22450.80608000173
 31
0.0
  0
LINE
  5
8A2
  8
FUTO
 10
25261.639228272761
 20
22450.80608000173
 30
0.0
 11
22557.639228272761
 21
22450.806080001719
 31
0.0
  0
LINE
  5
8A3
  8
FUTO
 10
25211.639228272761
 20
22500.80608000173
 30
0.0
 11
24357.639228272761
 21
22500.806080001719
 31
0.0
  0
LINE
  5
8A4
  8
FUTO
 10
24717.639228272761
 20
23878.806080001719
 30
0.0
 11
24717.639228272761
 21
23903.80608000173
 31
0.0
  0
LINE
  5
8A5
  8
FUTO
 10
22597.639228272761
 20
23878.806080001719
 30
0.0
 11
22597.639228272761
 21
23903.806080001719
 31
0.0
  0
LINE
  5
132F
  8
FUTO
 10
23277.639228272761
 20
20714.806080001719
 30
0.0
 11
25437.639228272761
 21
20714.80608000173
 31
0.0
  0
LINE
  5
1330
  8
FUTO
 10
23277.639228272761
 20
21064.80608000173
 30
0.0
 11
25437.639228272761
 21
21064.806080001719
 31
0.0
  0
LINE
  5
1336
  8
SL
 10
23377.639228272761
 20
20864.806080001719
 30
0.0
 11
25357.639228272761
 21
20864.80608000173
 31
0.0
  0
LINE
  5
1337
  8
SL
 10
23377.639228272761
 20
21034.80608000173
 30
0.0
 11
25357.639228272761
 21
21034.806080001719
 31
0.0
  0
LINE
  5
1338
  8
CT
 10
23657.639228272761
 20
20662.879958316938
 30
0.0
 11
23657.639228272761
 21
24158.801383173952
 31
0.0
  0
LINE
  5
1342
  8
FUTO
 10
23553.639228272761
 20
21137.30608000173
 30
0.0
 11
23553.639228272761
 21
21148.80608000173
 31
0.0
  0
LINE
  5
1343
  8
FUTO
 10
23761.639228272761
 20
21270.30608000173
 30
0.0
 11
23761.639228272761
 21
21137.30608000173
 31
0.0
  0
ARC
  5
1344
  8
FUTO
 10
23755.639228272761
 20
21137.30608000173
 30
0.0
 40
6.0
 50
270.0
 51
0.000000000000007
  0
LINE
  5
1345
  8
SL
 10
23937.639228272761
 20
20864.80608000173
 30
0.0
 11
23937.639228272761
 21
21034.80608000173
 31
0.0
  0
LINE
  5
1346
  8
FUTO
 10
23705.139228272761
 20
21034.80608000173
 30
0.0
 11
23705.139228272761
 21
21126.30608000173
 31
0.0
  0
LINE
  5
1347
  8
FUTO
 10
23610.139228272761
 20
21034.80608000173
 30
0.0
 11
23610.139228272761
 21
21126.30608000173
 31
0.0
  0
LINE
  5
1348
  8
FUTO
 10
23747.639228272761
 20
21126.30608000173
 30
0.0
 11
23567.639228272761
 21
21126.30608000173
 31
0.0
  0
LINE
  5
1349
  8
FUTO
 10
23755.639228272761
 20
21131.30608000173
 30
0.0
 11
23559.639228272761
 21
21131.30608000173
 31
0.0
  0
LINE
  5
134A
  8
FUTO
 10
23567.639228272761
 20
21126.30608000173
 30
0.0
 11
23567.639228272761
 21
21131.30608000173
 31
0.0
  0
ARC
  5
134B
  8
FUTO
 10
23559.639228272761
 20
21137.30608000173
 30
0.0
 40
6.0
 50
180.0
 51
270.0
  0
LINE
  5
134C
  8
FUTO
 10
23747.639228272761
 20
21131.30608000173
 30
0.0
 11
23747.639228272761
 21
21126.30608000173
 31
0.0
  0
LINE
  5
1353
  8
FUTO
 10
23710.139228272761
 20
21281.306080001719
 30
0.0
 11
23710.139228272761
 21
22111.30608000173
 31
0.0
  0
LINE
  5
1354
  8
FUTO
 10
23605.139228272761
 20
21281.306080001719
 30
0.0
 11
23605.139228272761
 21
22111.30608000173
 31
0.0
  0
LINE
  5
1357
  8
CT
 10
23781.407987437458
 20
21203.80608000173
 30
0.0
 11
23527.815504370639
 21
21203.80608000173
 31
0.0
  0
LINE
  5
1358
  8
FUTO
 10
23761.639228272761
 20
21148.80608000173
 30
0.0
 11
23553.639228272761
 21
21148.80608000173
 31
0.0
  0
LINE
  5
1359
  8
FUTO
 10
23761.639228272761
 20
21258.80608000173
 30
0.0
 11
23553.639228272761
 21
21258.80608000173
 31
0.0
  0
ARC
  5
135A
  8
FUTO
 10
23755.639228272761
 20
21270.30608000173
 30
0.0
 40
6.0
 50
0.000000000000007
 51
90.0
  0
LINE
  5
135B
  8
CT
 10
23838.70514269239
 20
21203.80608000173
 30
0.0
 11
23448.704974746968
 21
21203.80608000173
 31
0.0
  0
LINE
  5
135F
  8
FUTO
 10
23755.639228272761
 20
21276.30608000173
 30
0.0
 11
23559.639228272761
 21
21276.30608000173
 31
0.0
  0
LINE
  5
1360
  8
FUTO
 10
23747.639228272761
 20
21281.306080001719
 30
0.0
 11
23567.639228272761
 21
21281.306080001719
 31
0.0
  0
LINE
  5
1362
  8
FUTO
 10
23553.639228272761
 20
21270.30608000173
 30
0.0
 11
23553.639228272761
 21
21258.80608000173
 31
0.0
  0
ARC
  5
1363
  8
FUTO
 10
23559.639228272761
 20
21270.30608000173
 30
0.0
 40
6.0
 50
90.0
 51
180.0
  0
LINE
  5
1364
  8
FUTO
 10
23567.639228272761
 20
21281.306080001719
 30
0.0
 11
23567.639228272761
 21
21276.30608000173
 31
0.0
  0
LINE
  5
1365
  8
FUTO
 10
23747.639228272761
 20
21276.30608000173
 30
0.0
 11
23747.639228272761
 21
21281.306080001719
 31
0.0
  0
LINE
  5
136A
  8
FUTO
 10
23787.639228272761
 20
22126.30608000173
 30
0.0
 11
23527.639228272761
 21
22126.306080001719
 31
0.0
  0
LINE
  5
136B
  8
CT
 10
23821.800807938958
 20
22204.80608000173
 30
0.0
 11
23479.931185094869
 21
22204.80608000173
 31
0.0
  0
LINE
  5
136C
  8
FUTO
 10
23787.639228272761
 20
22138.30608000173
 30
0.0
 11
23527.639228272761
 21
22138.30608000173
 31
0.0
  0
LINE
  5
136D
  8
FUTO
 10
23741.639228272761
 20
22111.30608000173
 30
0.0
 11
23765.139228272761
 21
22126.30608000173
 31
0.0
  0
LINE
  5
136E
  8
FUTO
 10
23527.639228272761
 20
22283.30608000173
 30
0.0
 11
23787.639228272761
 21
22283.30608000173
 31
0.0
  0
LINE
  5
136F
  8
FUTO
 10
23527.639228272761
 20
22271.30608000173
 30
0.0
 11
23787.63916507837
 21
22271.30608000173
 31
0.0
  0
LINE
  5
1370
  8
FUTO
 10
23787.639228272761
 20
22271.30608000173
 30
0.0
 11
23572.639228272761
 21
22271.30608000173
 31
0.0
  0
LINE
  5
1371
  8
FUTO
 10
23765.139228272761
 20
22283.30608000173
 30
0.0
 11
23741.639228272761
 21
22298.30608000173
 31
0.0
  0
LINE
  5
1372
  8
CT
 10
23866.410056353001
 20
22204.806080001719
 30
0.0
 11
23416.73775258541
 21
22204.806080001719
 31
0.0
  0
LINE
  5
137E
  8
FUTO
 10
23550.139228272761
 20
22126.30608000173
 30
0.0
 11
23573.639228272761
 21
22111.30608000173
 31
0.0
  0
LINE
  5
1381
  8
FUTO
 10
23527.639228272761
 20
22126.30608000173
 30
0.0
 11
23527.639228272761
 21
22129.80608000173
 31
0.0
  0
LINE
  5
1382
  8
FUTO
 10
23573.639228272761
 20
22111.30608000173
 30
0.0
 11
23741.639228272761
 21
22111.30608000173
 31
0.0
  0
LINE
  5
1384
  8
FUTO
 10
23573.639228272761
 20
22298.30608000173
 30
0.0
 11
23550.139228272761
 21
22283.30608000173
 31
0.0
  0
LINE
  5
1386
  8
FUTO
 10
23527.639228272761
 20
22279.806080001719
 30
0.0
 11
23527.639228272761
 21
22283.30608000173
 31
0.0
  0
LINE
  5
1387
  8
FUTO
 10
23741.639228272761
 20
22298.30608000173
 30
0.0
 11
23573.639228272761
 21
22298.30608000173
 31
0.0
  0
LINE
  5
13A3
  8
CT
 10
23657.639228272761
 20
22316.196418238051
 30
0.0
 11
23657.639228272761
 21
22425.539040113959
 31
0.0
  0
LINE
  5
13B2
  8
FUTO
 10
23605.139228272761
 20
22298.30608000173
 30
0.0
 11
23605.139228272761
 21
22450.806080001719
 31
0.0
  0
LINE
  5
13B4
  8
FUTO
 10
23710.139228272761
 20
22298.30608000173
 30
0.0
 11
23710.139228272761
 21
22450.806080001719
 31
0.0
  0
LINE
  5
13BE
  8
FUTO
 10
23805.639228272761
 20
22266.306080001719
 30
0.0
 11
23805.639228272761
 21
22143.30608000173
 31
0.0
  0
LINE
  5
13BF
  8
FUTO
 10
23787.639228272761
 20
22143.30608000173
 30
0.0
 11
23787.639228272761
 21
22126.30608000173
 31
0.0
  0
LINE
  5
13C0
  8
FUTO
 10
23805.639228272761
 20
22143.30608000173
 30
0.0
 11
23787.639228272761
 21
22143.30608000173
 31
0.0
  0
LINE
  5
13C1
  8
FUTO
 10
23787.639228272761
 20
22266.306080001719
 30
0.0
 11
23805.639228272761
 21
22266.306080001719
 31
0.0
  0
LINE
  5
13C2
  8
FUTO
 10
23787.639228272761
 20
22283.30608000173
 30
0.0
 11
23787.639228272761
 21
22266.306080001719
 31
0.0
  0
LINE
  5
13E1
  8
FUTO
 10
23277.639228272761
 20
20714.806080001719
 30
0.0
 11
23277.639228272761
 21
21064.80608000173
 31
0.0
  0
LINE
  5
13E2
  8
SL
 10
23377.639228272761
 20
20864.80608000173
 30
0.0
 11
23377.639228272761
 21
21034.80608000173
 31
0.0
  0
DIMENSION
  5
1417
  8
SP
  2
*D5
 10
28698.214673232949
 20
20067.421450485908
 30
0.0
 11
27473.214673232949
 21
20178.850021914481
 31
0.0
 70
     0
  1
(<>)
 13
26248.214673232949
 23
18674.09115179105
 33
0.0
 14
28698.214673232949
 24
19596.045643781199
 34
0.0
1001
ACAD
1000
DSTYLE
1002
{
1070
    40
1040
40.0
1002
}
  0
LINE
  5
1453
  8
FUTO
 10
23553.639228272761
 20
21270.30608000173
 30
0.0
 11
23553.639228272761
 21
21137.30608000173
 31
0.0
  0
LINE
  5
1454
  8
FUTO
 10
23509.639228272761
 20
22266.306080001719
 30
0.0
 11
23509.639228272761
 21
22143.30608000173
 31
0.0
  0
LINE
  5
1455
  8
FUTO
 10
23509.639228272761
 20
22143.30608000173
 30
0.0
 11
23527.639228272761
 21
22143.30608000173
 31
0.0
  0
LINE
  5
1456
  8
FUTO
 10
23527.639228272761
 20
22143.30608000173
 30
0.0
 11
23527.639228272761
 21
22126.30608000173
 31
0.0
  0
LINE
  5
1457
  8
FUTO
 10
23527.639228272761
 20
22283.30608000173
 30
0.0
 11
23527.639228272761
 21
22266.306080001719
 31
0.0
  0
LINE
  5
1458
  8
FUTO
 10
23527.639228272761
 20
22266.306080001719
 30
0.0
 11
23509.639228272761
 21
22266.306080001719
 31
0.0
  0
LINE
  5
1698
  8
FUTO
 10
26636.714673232949
 20
16364.09115179105
 30
0.0
 11
26636.714673232949
 21
16294.091151792911
 31
0.0
  0
LINE
  5
1699
  8
FUTO
 10
27336.714673232949
 20
16364.09115179105
 30
0.0
 11
27336.714673232938
 21
16294.09115179294
 31
0.0
  0
LINE
  5
169A
  8
FUTO
 10
27131.714673232949
 20
16364.09115179105
 30
0.0
 11
26636.714673232949
 21
16364.09115179105
 31
0.0
  0
LINE
  5
169B
  8
FUTO
 10
26636.714673232949
 20
16364.09115179105
 30
0.0
 11
27336.714673232949
 21
16364.09115179105
 31
0.0
  0
LINE
  5
16AB
  8
FUTO
 10
26573.214673232949
 20
16744.09115179105
 30
0.0
 11
26573.214673232949
 21
16544.09115179105
 31
0.0
  0
LINE
  5
16AC
  8
FUTO
 10
27807.214673232938
 20
16904.09115179105
 30
0.0
 11
27807.214673232938
 21
16425.942213708971
 31
0.0
  0
LINE
  5
16AD
  8
FUTO
 10
26593.214673232938
 20
16954.09115179105
 30
0.0
 11
26593.214673232938
 21
16377.86442831887
 31
0.0
  0
LINE
  5
16AE
  8
FUTO
 10
26672.214673232949
 20
16954.09115179105
 30
0.0
 11
26672.214673232949
 21
16377.86442831887
 31
0.0
  0
LINE
  5
16AF
  8
FUTO
 10
27557.214673232949
 20
16954.09115179105
 30
0.0
 11
27557.214673232949
 21
16375.94221370896
 31
0.0
  0
LINE
  5
16B0
  8
CT
 10
26986.714673232949
 20
16990.730519777691
 30
0.0
 11
26986.714673232949
 21
16272.142624773969
 31
0.0
  0
LINE
  5
16B1
  8
FUTO
 10
27131.714673232949
 20
16364.09115179105
 30
0.0
 11
27251.714673232949
 21
16364.09115179105
 31
0.0
  0
LINE
  5
16B2
  8
FUTO
 10
26721.714673232949
 20
16394.09115179105
 30
0.0
 11
27251.714673232949
 21
16394.09115179105
 31
0.0
  0
LINE
  5
16B3
  8
FUTO
 10
27557.214673232949
 20
16375.94221370896
 30
0.0
 11
27757.214673232949
 21
16375.94221370896
 31
0.0
  0
ARC
  5
16B4
  8
FUTO
 10
27757.214673232949
 20
16425.942213708971
 30
0.0
 40
50.0
 50
270.0
 51
0.0
  0
LINE
  5
16B5
  8
FUTO
 10
27251.714673232949
 20
16375.94221370896
 30
0.0
 11
27536.889455234781
 21
16375.94221370896
 31
0.0
  0
LINE
  5
16B6
  8
FUTO
 10
27557.214673232949
 20
16387.475501368412
 30
0.0
 11
27536.889455234788
 21
16375.94221370896
 31
0.0
  0
LINE
  5
16B7
  8
CT
 10
27215.214673232949
 20
16418.081903549992
 30
0.0
 11
27215.214673232949
 21
16347.608861467519
 31
0.0
  0
LINE
  5
16B8
  8
FUTO
 10
27251.714673232949
 20
16394.09115179105
 30
0.0
 11
27251.714673232949
 21
16364.09115179105
 31
0.0
  0
LINE
  5
16B9
  8
FUTO
 10
27131.714673232949
 20
16375.94221370896
 30
0.0
 11
26841.714673232949
 21
16375.94221370896
 31
0.0
  0
LINE
  5
16BA
  8
FUTO
 10
27131.714673232949
 20
16375.94221370896
 30
0.0
 11
27131.714673232949
 21
16364.09115179105
 31
0.0
  0
LINE
  5
16BB
  8
FUTO
 10
26721.714673232949
 20
16394.09115179105
 30
0.0
 11
26721.714673232949
 21
16364.09115179105
 31
0.0
  0
LINE
  5
16BC
  8
CT
 10
26758.214673232949
 20
16418.081903549992
 30
0.0
 11
26758.214673232949
 21
16347.608861467519
 31
0.0
  0
LINE
  5
16BD
  8
FUTO
 10
26721.714673232949
 20
16377.86442831887
 30
0.0
 11
26593.214673232938
 21
16377.86442831887
 31
0.0
  0
LINE
  5
16BE
  8
FUTO
 10
26841.714673232949
 20
16375.94221370896
 30
0.0
 11
26841.714673232949
 21
16364.09115179105
 31
0.0
  0
LINE
  5
16BF
  8
FUTO
 10
26721.714673232949
 20
16364.09115179105
 30
0.0
 11
26841.714673232949
 21
16364.09115179105
 31
0.0
  0
LINE
  5
16C0
  8
FUTO
 10
26593.214673232938
 20
16544.09115179105
 30
0.0
 11
26573.214673232949
 21
16544.09115179105
 31
0.0
  0
LINE
  5
16C1
  8
FUTO
 10
27535.819847067381
 20
16954.09115179105
 30
0.0
 11
26593.214673232938
 21
16954.09115179105
 31
0.0
  0
LINE
  5
16C2
  8
CT
 10
27843.857438697381
 20
16644.09115179105
 30
0.0
 11
26372.065842393549
 21
16644.09115179105
 31
0.0
  0
LINE
  5
16C3
  8
FUTO
 10
27757.214673232949
 20
16954.09115179105
 30
0.0
 11
27557.214673232949
 21
16954.09115179105
 31
0.0
  0
ARC
  5
16C4
  8
FUTO
 10
27757.214673232949
 20
16904.09115179105
 30
0.0
 40
50.0
 50
0.0
 51
90.0
  0
LINE
  5
16C5
  8
FUTO
 10
27557.214673232949
 20
16929.5400213623
 30
0.0
 11
27535.819847067381
 21
16954.09115179105
 31
0.0
  0
LINE
  5
16C6
  8
FUTO
 10
26573.214673232949
 20
16686.59115179105
 30
0.0
 11
26398.214673232949
 21
16686.59115179105
 31
0.0
  0
LINE
  5
16C7
  8
FUTO
 10
26573.214673232949
 20
16601.59115179105
 30
0.0
 11
26398.214673232949
 21
16601.59115179105
 31
0.0
  0
LINE
  5
16C8
  8
CT
 10
26782.214673232938
 20
17277.460865755551
 30
0.0
 11
26782.214673232938
 21
16878.60133419976
 31
0.0
  0
LINE
  5
16C9
  8
FUTO
 10
26593.214673232938
 20
16744.09115179105
 30
0.0
 11
26573.214673232949
 21
16744.09115179105
 31
0.0
  0
LINE
  5
16CA
  8
FUTO
 10
26882.214673232949
 20
17234.09115179105
 30
0.0
 11
26682.214673232949
 21
17234.09115179105
 31
0.0
  0
LINE
  5
16CB
  8
FUTO
 10
26882.214673232949
 20
16969.09115179105
 30
0.0
 11
26682.214673232949
 21
16969.09115179105
 31
0.0
  0
LINE
  5
16CC
  8
CT
 10
26946.080600419318
 20
17094.09115179105
 30
0.0
 11
26643.944411034809
 21
17094.09115179105
 31
0.0
  0
LINE
  5
16CD
  8
FUTO
 10
26902.214673232938
 20
17214.09115179105
 30
0.0
 11
26902.214673232938
 21
16989.09115179105
 31
0.0
  0
ARC
  5
16CE
  8
FUTO
 10
26882.214673232949
 20
16989.09115179105
 30
0.0
 40
20.0
 50
270.0
 51
0.0
  0
ARC
  5
16CF
  8
FUTO
 10
26882.214673232949
 20
17214.09115179105
 30
0.0
 40
20.0
 50
0.0
 51
90.0
  0
LINE
  5
16D0
  8
FUTO
 10
26662.214673232938
 20
17214.09115179105
 30
0.0
 11
26662.214673232938
 21
16989.09115179105
 31
0.0
  0
ARC
  5
16D1
  8
FUTO
 10
26682.214673232949
 20
16989.09115179105
 30
0.0
 40
20.0
 50
180.0
 51
270.0
  0
ARC
  5
16D2
  8
FUTO
 10
26682.214673232949
 20
17214.09115179105
 30
0.0
 40
20.0
 50
90.0
 51
180.0
  0
LINE
  5
16D3
  8
FUTO
 10
26568.214673232949
 20
16686.59115179105
 30
0.0
 11
26568.214673232949
 21
16601.59115179105
 31
0.0
  0
LINE
  5
16D4
  8
FUTO
 10
26398.214673232949
 20
16686.59115179105
 30
0.0
 11
26398.214673232949
 21
16601.59115179105
 31
0.0
  0
LINE
  5
17EE
  8
FUTO
 10
24847.639228272801
 20
22002.41125383617
 30
0.0
 11
24847.639228272761
 21
21059.806080001741
 31
0.0
  0
LINE
  5
17EF
  8
CT
 10
25157.639228272808
 20
22310.448845466159
 30
0.0
 11
25157.639228272761
 21
20838.657249162341
 31
0.0
  0
LINE
  5
17F0
  8
FUTO
 10
25467.639228272801
 20
22002.411253836151
 30
0.0
 11
25467.639228272768
 21
21059.806080001719
 31
0.0
  0
LINE
  5
17F1
  8
FUTO
 10
24947.639228272768
 20
21128.806080001741
 30
0.0
 11
25337.639228272768
 21
21128.806080001719
 31
0.0
  0
LINE
  5
17F2
  8
CT
 10
25365.952087650079
 20
21248.806080001719
 30
0.0
 11
24902.969448635569
 21
21248.806080001741
 31
0.0
  0
LINE
  5
17F3
  8
CT
 10
25504.27859625941
 20
21453.306080001708
 30
0.0
 11
24785.690701255699
 21
21453.306080001748
 31
0.0
  0
LINE
  5
17F4
  8
FUTO
 10
25467.639228272768
 20
21059.806080001719
 30
0.0
 11
24847.639228272761
 21
21059.806080001741
 31
0.0
  0
LINE
  5
17F5
  8
FUTO
 10
25257.639228272761
 20
21039.80608000173
 30
0.0
 11
25057.639228272761
 21
21039.806080001741
 31
0.0
  0
LINE
  5
17F6
  8
FUTO
 10
24947.639228272779
 20
21368.806080001741
 30
0.0
 11
25337.639228272779
 21
21368.806080001719
 31
0.0
  0
LINE
  5
17F7
  8
FUTO
 10
25526.983617115678
 20
21103.306080001708
 30
0.0
 11
25526.9836171157
 21
21803.306080001719
 31
0.0
  0
LINE
  5
17F8
  8
FUTO
 10
25357.639228272779
 20
21348.806080001719
 30
0.0
 11
25357.639228272768
 21
21248.806080001719
 31
0.0
  0
LINE
  5
17F9
  8
CT
 10
25157.639228272681
 20
20693.35512383164
 30
0.0
 11
25157.63922827327
 21
21951.76151994782
 31
0.0
  0
LINE
  5
17FA
  8
FUTO
 10
25467.639228272768
 20
21103.306080001708
 30
0.0
 11
25526.983617115678
 21
21103.306080001708
 31
0.0
  0
LINE
  5
17FE
  8
FUTO
 10
25115.139228272768
 20
21039.80608000173
 30
0.0
 11
25115.139228272761
 21
20864.80608000173
 31
0.0
  0
LINE
  5
17FF
  8
FUTO
 10
25200.139228272761
 20
21039.80608000173
 30
0.0
 11
25200.139228272761
 21
20864.80608000173
 31
0.0
  0
LINE
  5
1802
  8
FUTO
 10
25200.139228272761
 20
20864.80608000173
 30
0.0
 11
25115.139228272761
 21
20864.80608000173
 31
0.0
  0
ARC
  5
1804
  8
FUTO
 10
25337.639228272768
 20
21148.806080001719
 30
0.0
 40
20.0
 50
270.0
 51
0.000000000000007
  0
LINE
  5
1805
  8
FUTO
 10
25357.639228272768
 20
21148.806080001719
 30
0.0
 11
25357.639228272768
 21
21248.806080001719
 31
0.0
  0
LINE
  5
1806
  8
FUTO
 10
25467.639228272768
 20
21138.806080001708
 30
0.0
 11
25354.959736348461
 21
21138.806080001719
 31
0.0
  0
LINE
  5
1807
  8
FUTO
 10
25200.139228272761
 20
21034.80608000173
 30
0.0
 11
25115.139228272768
 21
21034.80608000173
 31
0.0
  0
LINE
  5
1808
  8
FUTO
 10
25257.639228272761
 20
21059.80608000173
 30
0.0
 11
25257.639228272761
 21
21039.80608000173
 31
0.0
  0
LINE
  5
1809
  8
FUTO
 10
25467.63922827279
 20
21803.306080001719
 30
0.0
 11
25526.9836171157
 21
21803.306080001719
 31
0.0
  0
ARC
  5
180A
  8
FUTO
 10
25337.639228272779
 20
21348.806080001719
 30
0.0
 40
20.0
 50
0.000000000000007
 51
90.0
  0
LINE
  5
180B
  8
FUTO
 10
24788.294839429858
 20
21103.306080001741
 30
0.0
 11
24788.29483942988
 21
21803.306080001741
 31
0.0
  0
LINE
  5
180C
  8
FUTO
 10
24927.639228272779
 20
21348.806080001741
 30
0.0
 11
24927.639228272761
 21
21248.806080001741
 31
0.0
  0
LINE
  5
180F
  8
FUTO
 10
24930.31872019708
 20
21138.806080001741
 30
0.0
 11
24847.639228272768
 21
21138.806080001741
 31
0.0
  0
LINE
  5
1810
  8
CT
 10
24883.067673318561
 20
21224.806080001741
 30
0.0
 11
24812.59463123609
 21
21224.806080001748
 31
0.0
  0
ARC
  5
1811
  8
FUTO
 10
24947.639228272768
 20
21148.806080001741
 30
0.0
 40
20.0
 50
180.0
 51
270.0
  0
LINE
  5
1812
  8
FUTO
 10
24927.639228272768
 20
21148.806080001741
 30
0.0
 11
24927.639228272761
 21
21248.806080001741
 31
0.0
  0
LINE
  5
1813
  8
FUTO
 10
25057.639228272761
 20
21059.806080001741
 30
0.0
 11
25057.639228272761
 21
21039.806080001741
 31
0.0
  0
LINE
  5
1814
  8
FUTO
 10
24847.639228272768
 20
21103.306080001741
 30
0.0
 11
24788.294839429858
 21
21103.306080001741
 31
0.0
  0
ARC
  5
1815
  8
FUTO
 10
24947.639228272779
 20
21348.806080001741
 30
0.0
 40
20.0
 50
90.0
 51
180.0
  0
LINE
  5
1816
  8
CT
 10
24883.06767331859
 20
21681.806080001741
 30
0.0
 11
24812.594631236119
 21
21681.806080001748
 31
0.0
  0
LINE
  5
1817
  8
FUTO
 10
24847.63922827279
 20
21803.306080001741
 30
0.0
 11
24788.29483942988
 21
21803.306080001741
 31
0.0
  0
LINE
  5
181A
  8
FUTO
 10
25467.639228272801
 20
22023.806080001719
 30
0.0
 11
24847.639228272801
 21
22023.806080001741
 31
0.0
  0
LINE
  5
181B
  8
FUTO
 10
25417.639228272819
 20
22273.806080001719
 30
0.0
 11
24897.639228272819
 21
22273.806080001741
 31
0.0
  0
LINE
  5
181F
  8
FUTO
 10
25443.088097844051
 20
22023.806080001719
 30
0.0
 11
25467.639228272801
 21
22002.411253836151
 31
0.0
  0
ARC
  5
1820
  8
FUTO
 10
25417.639228272808
 20
22223.806080001719
 30
0.0
 40
50.0
 50
0.000000000000007
 51
90.0
  0
LINE
  5
1821
  8
FUTO
 10
25467.639228272808
 20
22223.806080001719
 30
0.0
 11
25467.639228272801
 21
22023.806080001719
 31
0.0
  0
ARC
  5
1824
  8
FUTO
 10
24897.639228272808
 20
22223.806080001741
 30
0.0
 40
50.0
 50
90.0
 51
180.0
  0
LINE
  5
1825
  8
FUTO
 10
24872.190358701551
 20
22023.806080001741
 30
0.0
 11
24847.639228272801
 21
22002.41125383617
 31
0.0
  0
LINE
  5
1826
  8
FUTO
 10
24847.639228272808
 20
22223.806080001741
 30
0.0
 11
24847.639228272801
 21
22023.806080001741
 31
0.0
  0
LINE
  5
1827
  8
FUTO
 10
25597.639228272761
 20
21128.806080001719
 30
0.0
 11
25597.639228272761
 21
21053.806080001719
 31
0.0
  0
LINE
  5
1828
  8
FUTO
 10
25421.5191427176
 20
22425.80608000173
 30
0.0
 11
25421.5191427176
 21
22273.6553153409
 31
0.0
  0
LINE
  5
1829
  8
FUTO
 10
24893.759313828101
 20
22425.80608000185
 30
0.0
 11
24893.759313828032
 21
22273.65531534102
 31
0.0
  0
LINE
  5
182A
  8
FUTO
 10
24968.759313828101
 20
22425.80608000181
 30
0.0
 11
24968.759313828032
 21
22273.80608000181
 31
0.0
  0
LINE
  5
182B
  8
SL
 10
25357.639228272761
 20
20864.80608000173
 30
0.0
 11
25357.639228272761
 21
21034.80608000173
 31
0.0
  0
LINE
  5
182D
  8
FUTO
 10
25437.639228272761
 20
20714.80608000173
 30
0.0
 11
25437.639228272761
 21
21064.806080001719
 31
0.0
  0
LINE
  5
182F
  8
FUTO
 10
23315.590802448722
 20
21128.806080001719
 30
0.0
 11
23315.590802448722
 21
22450.806080001719
 31
0.0
  0
LINE
  5
1830
  8
FUTO
 10
23999.687654096801
 20
21128.806080001719
 30
0.0
 11
23999.687654096801
 21
22450.806080001719
 31
0.0
  0
LINE
  5
1832
  8
FUTO
 10
24622.639228272761
 20
23959.806080001719
 30
0.0
 11
22692.639228272761
 21
23959.80608000173
 31
0.0
  0
LINE
  5
1833
  8
FUTO
 10
24622.639228272761
 20
23953.80608000173
 30
0.0
 11
22692.639228272761
 21
23953.80608000173
 31
0.0
  0
LINE
  5
1834
  8
KL
 10
24622.639228272761
 20
23834.00608000172
 30
0.0
 11
22692.639228272761
 21
23834.006080001731
 31
0.0
  0
LINE
  5
1839
  8
KL
 10
22757.639228272761
 20
23828.006080001731
 30
0.0
 11
22757.639228272761
 21
23959.80608000173
 31
0.0
  0
LINE
  5
183A
  8
KL
 10
22751.639228272761
 20
23828.006080001731
 30
0.0
 11
22751.639228272761
 21
23918.006080001731
 31
0.0
  0
LINE
  5
183B
  8
KL
 10
22692.639228272761
 20
23828.006080001731
 30
0.0
 11
22692.639228272761
 21
23834.006080001731
 31
0.0
  0
LINE
  5
183C
  8
HOSO
 10
22717.639228272761
 20
23785.47207039081
 30
0.0
 11
22717.639228272761
 21
23859.579685539069
 31
0.0
  0
LINE
  5
183D
  8
HOSO
 10
22717.639228272761
 20
23926.323533815699
 30
0.0
 11
22717.639228272761
 21
24000.431148963959
 31
0.0
  0
LINE
  5
183E
  8
FUTO
 10
22692.639228272761
 20
23953.80608000173
 30
0.0
 11
22692.639228272761
 21
23959.80608000173
 31
0.0
  0
LINE
  5
183F
  8
FUTO
 10
22751.639228272761
 20
23918.006080001731
 30
0.0
 11
22751.639228272761
 21
23959.80608000173
 31
0.0
  0
INSERT
  5
185B
  8
FUTO
  2
まっすぐの矢印
 10
24143.185531121871
 20
24155.279232572229
 30
0.0
 41
-2.0
 42
2.0
 43
2.0
 50
180.0
  0
LINE
  5
185D
  8
KL
 10
24557.639228272761
 20
23828.006080001731
 30
0.0
 11
24557.639228272761
 21
23959.80608000173
 31
0.0
  0
LINE
  5
185E
  8
FUTO
 10
24563.639228272761
 20
23893.006080001731
 30
0.0
 11
24563.639228272761
 21
23959.80608000173
 31
0.0
  0
LINE
  5
185F
  8
KL
 10
24563.639228272761
 20
23828.006080001731
 30
0.0
 11
24563.639228272761
 21
23893.006080001731
 31
0.0
  0
LINE
  5
1860
  8
KL
 10
24622.639228272761
 20
23834.00608000172
 30
0.0
 11
24622.639228272761
 21
23828.006080001731
 31
0.0
  0
LINE
  5
1861
  8
HOSO
 10
24597.639228272761
 20
23799.06811019373
 30
0.0
 11
24597.639228272761
 21
23858.8984590238
 31
0.0
  0
LINE
  5
1862
  8
HOSO
 10
24597.639228272761
 20
23927.13830344204
 30
0.0
 11
24597.639228272761
 21
23986.96865227212
 31
0.0
  0
LINE
  5
1863
  8
FUTO
 10
24622.639228272761
 20
23953.80608000173
 30
0.0
 11
24622.639228272761
 21
23959.80608000173
 31
0.0
  0
LINE
  5
188F
  8
FUTO
 10
23178.80532993385
 20
18329.15532125036
 30
0.0
 11
22518.916920564301
 21
18387.714437766441
 31
0.0
  0
LINE
  5
1890
  8
FUTO
 10
23180.395713437661
 20
18347.084924712541
 30
0.0
 11
22516.507259861231
 21
18405.998851324359
 31
0.0
  0
LINE
  5
1891
  8
KL
 10
24468.521917535782
 20
18304.717351791049
 30
0.0
 11
23857.639228272761
 21
18304.717351791049
 31
0.0
  0
LINE
  5
1892
  8
KL
 10
24493.6114285769
 20
18286.717351791049
 30
0.0
 11
23857.639228272761
 21
18286.717351791049
 31
0.0
  0
LINE
  5
1893
  8
KL
 10
24707.639228272761
 20
17347.34451298193
 30
0.0
 11
24707.639228272761
 21
16678.965836840751
 31
0.0
  0
LINE
  5
1894
  8
KL
 10
24698.639228272761
 20
17351.0279029626
 30
0.0
 11
24698.639228272761
 21
16687.236125611518
 31
0.0
  0
LINE
  5
1895
  8
FUTO
 10
24716.63922827275
 20
18286.717351791049
 30
0.0
 11
24716.63922827275
 21
17692.11924600985
 31
0.0
  0
LINE
  5
1896
  8
FUTO
 10
24707.639228272761
 20
18133.167113677089
 30
0.0
 11
24707.639228272761
 21
17715.895410549761
 31
0.0
  0
LINE
  5
1897
  8
FUTO
 10
24698.639228272761
 20
18139.623995189631
 30
0.0
 11
24698.639228272761
 21
17715.895410549761
 31
0.0
  0
DIMENSION
  5
1909
  8
SP
  2
*D7
 10
22492.639228272761
 20
24417.68001148467
 30
0.0
 11
23075.139228272761
 21
24497.68001148467
 31
0.0
 70
     0
 13
23657.639228272761
 23
24158.801383173952
 33
0.0
 14
22492.639228272761
 24
23893.806080001719
 34
0.0
 50
180.0
1001
ACAD
1000
DSTYLE
1002
{
1070
    40
1040
40.0
1002
}
  0
DIMENSION
  5
1916
  8
SP
  2
*D8
 10
25597.639228272761
 20
24417.68001148467
 30
0.0
 11
24627.639228272761
 21
24497.68001148467
 31
0.0
 70
     0
 13
23657.639228272761
 23
24417.68001148467
 33
0.0
 14
25597.639228272761
 24
22500.806080001719
 34
0.0
 50
180.0
1001
ACAD
1000
DSTYLE
1002
{
1070
    40
1040
40.0
1002
}
  0
DIMENSION
  5
1923
  8
SP
  2
*D9
 10
22072.652962782638
 20
23164.806080001719
 30
0.0
 11
21992.652962782638
 21
23562.30608000173
 31
0.0
 70
     0
 13
22692.639228272761
 23
23959.80608000173
 33
0.0
 14
22005.404784563842
 24
23164.806080001719
 34
0.0
 50
90.0
1001
ACAD
1000
DSTYLE
1002
{
1070
    40
1040
40.0
1002
}
  0
DIMENSION
  5
1930
  8
SP
  2
*D10
 10
22072.652962782638
 20
20714.806080001719
 30
0.0
 11
21992.652962782638
 21
21939.80608000173
 31
0.0
 70
     0
 13
22072.652962782638
 23
23164.806080001719
 33
0.0
 14
23277.639228272761
 24
20714.806080001719
 34
0.0
 50
90.0
1001
ACAD
1000
DSTYLE
1002
{
1070
    40
1040
40.0
1002
}
  0
LINE
  5
19B8
  8
KL
 10
26647.214673232938
 20
16954.09115179105
 30
0.0
 11
26647.214673232938
 21
16295.71733518506
 31
0.0
  0
LINE
  5
1A4E
  8
FUTO
 10
22957.639228272761
 20
16309.88224632946
 30
0.0
 11
23281.703427948851
 21
17997.267567011721
 31
0.0
  0
LINE
  5
1A4F
  8
SL
 10
25314.620735458971
 20
16769.639934081551
 30
0.0
 11
23936.28140352829
 21
18515.679935356678
 31
0.0
  0
LINE
  5
1A50
  8
SL
 10
25019.36058684823
 20
16501.221617162701
 30
0.0
 11
23412.19463974423
 21
18039.237422825721
 31
0.0
  0
LINE
  5
1A51
  8
FUTO
 10
25380.880361089348
 20
16814.72444223037
 30
0.0
 11
24040.338313101201
 21
18585.443792544182
 31
0.0
  0
LINE
  5
1A52
  8
FUTO
 10
24968.183917477279
 20
16439.545857128502
 30
0.0
 11
23332.858695480521
 21
17942.280503798102
 31
0.0
  0
LINE
  5
1A53
  8
KL
 10
24716.63922827275
 20
17692.11924600985
 30
0.0
 11
24716.639228272761
 21
16966.154735789209
 31
0.0
  0
LINE
  5
1A54
  8
KL
 10
24707.639228272761
 20
17715.895410549761
 30
0.0
 11
24707.639228272761
 21
17347.34451298193
 31
0.0
  0
LINE
  5
1A55
  8
KL
 10
24698.639228272761
 20
17715.895410549761
 30
0.0
 11
24698.639228272761
 21
17351.0279029626
 31
0.0
  0
LINE
  5
1A56
  8
FUTO
 10
24357.639228272761
 20
16309.88224632946
 30
0.0
 11
24196.561421393399
 21
17148.605953198628
 31
0.0
  0
LINE
  5
1A57
  8
KL
 10
23281.703427948851
 20
17997.267567011721
 30
0.0
 11
23315.590802448722
 21
18173.717351791049
 31
0.0
  0
LINE
  5
1A58
  8
KL
 10
24196.561421393399
 20
17148.605953198628
 30
0.0
 11
23999.687654096801
 21
18173.717351791049
 31
0.0
  0
LINE
  5
1A59
  8
FUTO
 10
24707.639228272761
 20
16678.965836840751
 30
0.0
 11
24707.639228272761
 21
16295.717351791051
 31
0.0
  0
LINE
  5
1A5A
  8
FUTO
 10
24698.639228272761
 20
16687.236125611518
 30
0.0
 11
24698.639228272761
 21
16295.717351791051
 31
0.0
  0
ARC
  5
1A5B
  8
FUTO
 10
23526.639228272761
 20
18164.717351791049
 30
0.0
 40
1705.0
 50
330.03011408362448
 51
4.103263208912229
  0
LINE
  5
1A65
  8
FUTO
 10
28035.014673232949
 20
16373.09115179105
 30
0.0
 11
29361.41467323295
 21
16373.09115179105
 31
0.0
  0
LINE
  5
1A66
  8
FUTO
 10
27975.014673232949
 20
16313.09115179105
 30
0.0
 11
29421.41467323295
 21
16313.09115179105
 31
0.0
  0
LINE
  5
1A67
  8
FUTO
 10
28038.214673232938
 20
16394.09115179105
 30
0.0
 11
28038.214673232938
 21
16373.09115179105
 31
0.0
  0
LINE
  5
1A68
  8
FUTO
 10
28035.014673232949
 20
16394.09115179105
 30
0.0
 11
28035.014673232949
 21
16373.09115179105
 31
0.0
  0
LINE
  5
1A6A
  8
KL
 10
27975.014673232949
 20
16433.736448122942
 30
0.0
 11
27975.014673232949
 21
16313.09115179105
 31
0.0
  0
LINE
  5
1A6B
  8
FUTO
 10
29361.41467323295
 20
16394.09115179105
 30
0.0
 11
29361.41467323295
 21
16373.09115179105
 31
0.0
  0
LINE
  5
1A6C
  8
FUTO
 10
29358.214673232938
 20
16394.09115179105
 30
0.0
 11
29358.214673232938
 21
16373.09115179105
 31
0.0
  0
LINE
  5
1A6E
  8
KL
 10
29421.41467323295
 20
16433.736448122931
 30
0.0
 11
29421.41467323295
 21
16313.09115179105
 31
0.0
  0
LINE
  5
1A6F
  8
FUTO
 10
27970.014673232949
 20
19580.912536447471
 30
0.0
 11
29426.41467323339
 21
19580.912536447471
 31
0.0
  0
DIMENSION
  5
1A8F
  8
SP
  2
*D19
 10
21948.230139067171
 20
18295.717351791049
 30
0.0
 11
21868.23013906716
 21
17220.717351791049
 31
0.0
 70
     0
 13
22597.639228272761
 23
16145.717351791051
 33
0.0
 14
22112.285229228659
 24
18295.717351791049
 34
0.0
 50
90.0
1001
ACAD
1000
DSTYLE
1002
{
1070
    40
1040
40.0
1002
}
  0
LINE
  5
1AA5
  8
CT
 10
23549.827524509539
 20
19587.717351791049
 30
0.0
 11
23657.639228272761
 21
19587.717351791049
 31
0.0
  0
DIMENSION
  5
1AA6
  8
SP
  2
*D20
 10
21948.230139067171
 20
18295.717351791049
 30
0.0
 11
21868.23013906716
 21
18941.717351791049
 31
0.0
 70
     0
 13
23549.827524509539
 23
19587.717351791049
 33
0.0
 14
22112.285229228659
 24
18295.717351791049
 34
0.0
 50
90.0
1001
ACAD
1000
DSTYLE
1002
{
1070
    40
1040
40.0
1002
}
  0
TEXT
  5
21D2
  8
SP
 10
45818.926334214921
 20
23558.10792024144
 30
0.0
 40
100.0
  1
 
  0
LINE
  5
21D3
  8
4
 10
30200.23318473504
 20
13984.08770590281
 30
0.0
 11
30200.23318473504
 21
12784.08770590281
 31
0.0
  0
LINE
  5
21D4
  8
4
 10
26000.23318473504
 20
13984.08770590281
 30
0.0
 11
26000.233184735029
 21
12784.08770590281
 31
0.0
  0
LINE
  5
21D5
  8
4
 10
23000.233184735029
 20
13984.08770590281
 30
0.0
 11
23000.233184735029
 21
12784.08770590281
 31
0.0
  0
LINE
  5
21D8
  8
4
 10
23000.233184735029
 20
12784.08770590281
 30
0.0
 11
30200.23318473504
 21
12784.08770590281
 31
0.0
  0
LINE
  5
21D9
  8
4
 10
23000.233184735029
 20
13384.08770590281
 30
0.0
 11
30200.23318473504
 21
13384.08770590281
 31
0.0
  0
TEXT
  5
21DA
  8
4
 10
23231.24566981645
 20
13573.345861102491
 30
0.0
 40
300.0
  1
機器名称
  0
TEXT
  5
21DB
  8
4
 10
23217.781820883822
 20
12913.95864629487
 30
0.0
 40
300.0
  1
機器型番
  0
TEXT
  5
21DC
  8
4
 10
26028.991554941291
 20
13517.21152004449
 30
0.0
 40
270.0
  1
ミツヤリミットロードファン
  0
TEXT
  5
21DD
  8
4
 10
26220.160158247931
 20
12887.04521158247
 30
0.0
 40
300.0
  1
LL#11-1
  0
TEXT
  5
21DF
  8
4
 10
20997.238744711711
 20
26187.373563098601
 30
0.0
 40
432.0
  1
遠心式片吸込片持リミットロードファン
  0
LINE
  5
21E0
  8
4
 10
20600.23318473504
 20
25800.540231491639
 30
0.0
 11
30200.23318473504
 21
25800.540231491639
 31
0.0
  0
LINE
  5
21E1
  8
4
 10
20600.23318473504
 20
27000.540231491639
 30
0.0
 11
30200.23318473504
 21
27000.540231491639
 31
0.0
  0
LINE
  5
21E2
  8
4
 10
23000.233184735029
 20
13984.08770590281
 30
0.0
 11
30200.23318473504
 21
13984.08770590281
 31
0.0
  0
LINE
  5
21E3
  8
4
 10
20600.23318473504
 20
27000.540231491639
 30
0.0
 11
20600.23318473504
 21
25800.540231491639
 31
0.0
  0
TEXT
  5
21E4
  8
4
 10
21135.274281641479
 20
25278.004571180871
 30
0.0
 40
323.99999999999989
  1
右回転左横向
  0
TEXT
  5
21E5
  8
4
 10
27914.050540230779
 20
27220.45419487467
 30
0.0
 40
336.00000000000011
  1
No.
  0
TEXT
  5
21E6
  8
4
 10
27878.379643456869
 20
24425.49058441721
 30
0.0
 40
323.99999999999989
  1
縮尺：1/60
  0
LINE
  5
21E7
  8
4
 10
30200.23318473504
 20
27000.540231491639
 30
0.0
 11
30200.23318473504
 21
25800.540231491639
 31
0.0
  0
LINE
  5
21E8
  8
4
 10
31700.23318473504
 20
28684.08770590281
 30
0.0
 11
31700.23318473504
 21
28684.08770590281
 31
0.0
  0
LINE
  5
21E9
  8
4
 10
27743.93771889422
 20
27071.669204655209
 30
0.0
 11
27743.93771889422
 21
27704.001275201332
 31
0.0
  0
LINE
  5
21EA
  8
4
 10
27743.93771889422
 20
27704.001275201332
 30
0.0
 11
30200.23318473504
 21
27704.001275201332
 31
0.0
  0
LINE
  5
21EB
  8
4
 10
30200.23318473504
 20
27704.001275201332
 30
0.0
 11
30200.23318473504
 21
27071.669204655209
 31
0.0
  0
LINE
  5
21EC
  8
4
 10
30200.23318473504
 20
27071.669204655209
 30
0.0
 11
27743.93771889422
 21
27071.669204655209
 31
0.0
  0
LINE
  5
21ED
  8
4
 10
19100.23318473504
 20
10984.08770590281
 30
0.0
 11
19100.23318473504
 21
28684.08770590281
 31
0.0
  0
LINE
  5
21EE
  8
4
 10
19100.23318473504
 20
28684.08770590281
 30
0.0
 11
31700.23318473504
 21
28684.08770590281
 31
0.0
  0
LINE
  5
21EF
  8
4
 10
31700.23318473504
 20
28684.08770590281
 30
0.0
 11
31700.23318473504
 21
10984.08770590281
 31
0.0
  0
LINE
  5
21F0
  8
4
 10
31700.23318473504
 20
10984.08770590281
 30
0.0
 11
19100.23318473504
 21
10984.08770590281
 31
0.0
  0
TEXT
  5
21F1
  8
4
 10
24212.010068828189
 20
25278.074495829249
 30
0.0
 40
323.99999999999989
  1
床置防振ベット
  0
ENDSEC
  0
EOF
