  0
SECTION
  2
HEADER
  9
$ACADVER
  1
AC1009
  9
$INSBASE
 10
0.0
 20
0.0
 30
0.0
  9
$EXTMIN
 10
15352.65852038073
 20
12163.09242535078
 30
0.0
  9
$EXTMAX
 10
27952.65852038073
 20
29863.092425350769
 30
0.0
  9
$LIMMIN
 10
0.0
 20
0.0
  9
$LIMMAX
 10
297.0
 20
210.0
  9
$ORTHOMODE
 70
     0
  9
$REGENMODE
 70
     1
  9
$FILLMODE
 70
     1
  9
$QTEXTMODE
 70
     0
  9
$MIRRTEXT
 70
     0
  9
$DRAGMODE
 70
     2
  9
$LTSCALE
 40
200.0
  9
$OSMODE
 70
    37
  9
$ATTMODE
 70
     1
  9
$TEXTSIZE
 40
150.0
  9
$TRACEWID
 40
0.05
  9
$TEXTSTYLE
  7
STANDARD
  9
$CLAYER
  8
SP
  9
$CELTYPE
  6
BYLAYER
  9
$CECOLOR
 62
   256
  9
$DIMSCALE
 40
40.0
  9
$DIMASZ
 40
2.0
  9
$DIMEXO
 40
1.0
  9
$DIMDLI
 40
10.0
  9
$DIMRND
 40
0.0
  9
$DIMDLE
 40
0.0
  9
$DIMEXE
 40
1.0
  9
$DIMTP
 40
0.0
  9
$DIMTM
 40
0.0
  9
$DIMTXT
 40
3.0
  9
$DIMCEN
 40
0.0
  9
$DIMTSZ
 40
0.0
  9
$DIMTOL
 70
     0
  9
$DIMLIM
 70
     0
  9
$DIMTIH
 70
     0
  9
$DIMTOH
 70
     0
  9
$DIMSE1
 70
     0
  9
$DIMSE2
 70
     0
  9
$DIMTAD
 70
     1
  9
$DIMZIN
 70
     8
  9
$DIMBLK
  1

  9
$DIMASO
 70
     1
  9
$DIMSHO
 70
     1
  9
$DIMPOST
  1

  9
$DIMAPOST
  1

  9
$DIMALT
 70
     0
  9
$DIMALTD
 70
     2
  9
$DIMALTF
 40
0.03937
  9
$DIMLFAC
 40
1.0
  9
$DIMTOFL
 70
     1
  9
$DIMTVP
 40
0.0
  9
$DIMTIX
 70
     0
  9
$DIMSOXD
 70
     0
  9
$DIMSAH
 70
     1
  9
$DIMBLK1
  1
OPEN
  9
$DIMBLK2
  1
OPEN
  9
$DIMSTYLE
  2
MATSU
  9
$DIMCLRD
 70
   256
  9
$DIMCLRE
 70
   256
  9
$DIMCLRT
 70
   256
  9
$DIMTFAC
 40
1.0
  9
$DIMGAP
 40
0.5
  9
$LUNITS
 70
     2
  9
$LUPREC
 70
     3
  9
$SKETCHINC
 40
0.1
  9
$FILLETRAD
 40
7.0
  9
$AUNITS
 70
     0
  9
$AUPREC
 70
     2
  9
$MENU
  1
acad
  9
$ELEVATION
 40
0.0
  9
$PELEVATION
 40
0.0
  9
$THICKNESS
 40
0.0
  9
$LIMCHECK
 70
     0
  9
$BLIPMODE
 70
     0
  9
$CHAMFERA
 40
0.0
  9
$CHAMFERB
 40
0.0
  9
$SKPOLY
 70
     0
  9
$TDCREATE
 40
2451593.4082031241
  9
$TDUPDATE
 40
2454953.650666412
  9
$TDINDWG
 40
0.5368013542
  9
$TDUSRTIMER
 40
0.5368013542
  9
$USRTIMER
 70
     1
  9
$ANGBASE
 50
0.0
  9
$ANGDIR
 70
     0
  9
$PDMODE
 70
     0
  9
$PDSIZE
 40
1.0
  9
$PLINEWID
 40
0.0
  9
$COORDS
 70
     1
  9
$SPLFRAME
 70
     0
  9
$SPLINETYPE
 70
     6
  9
$SPLINESEGS
 70
     8
  9
$ATTDIA
 70
     0
  9
$ATTREQ
 70
     1
  9
$HANDLING
 70
 10241
  9
$HANDSEED
  5
22E3
  9
$SURFTAB1
 70
     6
  9
$SURFTAB2
 70
     6
  9
$SURFTYPE
 70
     6
  9
$SURFU
 70
     6
  9
$SURFV
 70
     6
  9
$UCSNAME
  2

  9
$UCSORG
 10
0.0
 20
0.0
 30
0.0
  9
$UCSXDIR
 10
1.0
 20
0.0
 30
0.0
  9
$UCSYDIR
 10
0.0
 20
1.0
 30
0.0
  9
$PUCSNAME
  2

  9
$PUCSORG
 10
0.0
 20
0.0
 30
0.0
  9
$PUCSXDIR
 10
1.0
 20
0.0
 30
0.0
  9
$PUCSYDIR
 10
0.0
 20
1.0
 30
0.0
  9
$USERI1
 70
     0
  9
$USERI2
 70
     0
  9
$USERI3
 70
     0
  9
$USERI4
 70
     0
  9
$USERI5
 70
     0
  9
$USERR1
 40
0.0
  9
$USERR2
 40
0.0
  9
$USERR3
 40
0.0
  9
$USERR4
 40
0.0
  9
$USERR5
 40
0.0
  9
$WORLDVIEW
 70
     1
  9
$SHADEDGE
 70
     3
  9
$SHADEDIF
 70
    70
  9
$TILEMODE
 70
     1
  9
$MAXACTVP
 70
    16
  9
$PLIMCHECK
 70
     0
  9
$PEXTMIN
 10
1.0000000000000000E+020
 20
1.0000000000000000E+020
 30
1.0000000000000000E+020
  9
$PEXTMAX
 10
-1.0000000000000000E+020
 20
-1.0000000000000000E+020
 30
-1.0000000000000000E+020
  9
$PLIMMIN
 10
0.0
 20
0.0
  9
$PLIMMAX
 10
12.0
 20
9.0
  9
$UNITMODE
 70
     0
  9
$VISRETAIN
 70
     0
  9
$PLINEGEN
 70
     0
  9
$PSLTSCALE
 70
     0
  0
ENDSEC
  0
SECTION
  2
TABLES
  0
TABLE
  2
VPORT
 70
     2
  0
VPORT
  2
*ACTIVE
 70
     0
 10
0.0
 20
0.0
 11
1.0
 21
1.0
 12
27094.65756929827
 22
14186.02271799379
 13
0.0
 23
0.0
 14
5.0
 24
5.0
 15
0.0
 25
0.0
 16
0.0
 26
0.0
 36
1.0
 17
0.0
 27
0.0
 37
0.0
 40
5311.2266095827918
 41
3.1666666666666661
 42
50.0
 43
0.0
 44
0.0
 50
0.0
 51
0.0
 71
     0
 72
   100
 73
     1
 74
     0
 75
     0
 76
     0
 77
     0
 78
     0
  0
ENDTAB
  0
TABLE
  2
LTYPE
 70
     4
  0
LTYPE
  2
CONTINUOUS
 70
     0
  3
Solid line
 72
    65
 73
     0
 40
0.0
  0
LTYPE
  2
CENTER
 70
     0
  3
____ _ ____ _ ____ _ ____ _ ____ _ ____ _ ____ 
 72
    65
 73
     4
 40
2.0
 49
1.25
 49
-0.25
 49
0.25
 49
-0.25
  0
LTYPE
  2
HIDDEN
 70
     0
  3
__ __ __ __ __ __ __ __ __ __ __ __ __ __ __ __
 72
    65
 73
     2
 40
0.375
 49
0.25
 49
-0.125
  0
LTYPE
  2
PHANTOM
 70
     0
  3
______  __  __  ______  __  __  ______  __  __ 
 72
    65
 73
     6
 40
2.5
 49
1.25
 49
-0.25
 49
0.25
 49
-0.25
 49
0.25
 49
-0.25
  0
ENDTAB
  0
TABLE
  2
LAYER
 70
    10
  0
LAYER
  2
0
 70
     0
 62
     7
  6
CONTINUOUS
  0
LAYER
  2
CT
 70
     0
 62
     3
  6
CENTER
  0
LAYER
  2
FUTO
 70
     0
 62
     4
  6
CONTINUOUS
  0
LAYER
  2
HOSO
 70
     0
 62
     7
  6
CONTINUOUS
  0
LAYER
  2
KL
 70
     0
 62
     7
  6
HIDDEN
  0
LAYER
  2
SL
 70
     0
 62
     1
  6
PHANTOM
  0
LAYER
  2
SP
 70
     0
 62
     2
  6
CONTINUOUS
  0
LAYER
  2
1
 70
     0
 62
     7
  6
CONTINUOUS
  0
LAYER
  2
DEFPOINTS
 70
     0
 62
     7
  6
CONTINUOUS
  0
LAYER
  2
4
 70
     0
 62
     7
  6
CONTINUOUS
  0
ENDTAB
  0
TABLE
  2
STYLE
 70
     1
  0
STYLE
  2
STANDARD
 70
     0
 40
0.0
 41
1.0
 50
15.0
 71
     0
 42
150.0
  3
C:\Program Files\AutoCAD LT\simplex.shx
  4
bigfont.shx
  0
ENDTAB
  0
TABLE
  2
VIEW
 70
     0
  0
ENDTAB
  0
TABLE
  2
UCS
 70
     0
  0
ENDTAB
  0
TABLE
  2
APPID
 70
     2
  0
APPID
  2
ACAD
 70
     0
  0
APPID
  2
CONTENTBLOCKICON
 70
     0
  0
ENDTAB
  0
TABLE
  2
DIMSTYLE
 70
     2
  0
DIMSTYLE
  2
MATSU
 70
     0
  3

  4

  5

  6
OPEN
  7
OPEN
 40
1.0
 41
2.0
 42
1.0
 43
10.0
 44
1.0
 45
0.0
 46
0.0
 47
0.0
 48
0.0
140
3.0
141
0.0
142
0.0
143
0.03937
144
1.0
145
0.0
146
1.0
147
0.5
 71
     0
 72
     0
 73
     0
 74
     0
 75
     0
 76
     0
 77
     1
 78
     8
170
     0
171
     2
172
     1
173
     1
174
     0
175
     0
176
   256
177
   256
178
   256
  0
DIMSTYLE
  2
STANDARD
 70
     0
  3

  4

  5

  6

  7

 40
1.0
 41
0.18
 42
0.0625
 43
0.38
 44
0.18
 45
0.0
 46
0.0
 47
0.0
 48
0.0
140
0.18
141
0.09
142
0.0
143
25.399999999999999
144
1.0
145
0.0
146
1.0
147
0.09
 71
     0
 72
     0
 73
     1
 74
     1
 75
     0
 76
     0
 77
     0
 78
     0
170
     0
171
     2
172
     0
173
     0
174
     0
175
     0
176
     0
177
     0
178
     0
  0
ENDTAB
  0
ENDSEC
  0
SECTION
  2
BLOCKS
  0
BLOCK
  8
0
  2
$MODEL_SPACE
 70
     0
 10
0.0
 20
0.0
 30
0.0
  3
$MODEL_SPACE
  1

  0
ENDBLK
  5
7
  8
0
  0
BLOCK
 67
     1
  8
0
  2
$PAPER_SPACE
 70
     0
 10
0.0
 20
0.0
 30
0.0
  3
$PAPER_SPACE
  1

  0
ENDBLK
  5
A
 67
     1
  8
0
  0
BLOCK
  8
0
  2
_OPEN
 70
     0
 10
0.0
 20
0.0
 30
0.0
  3
_OPEN
  1

  0
LINE
  5
27
  8
0
  6
BYBLOCK
 62
     0
 10
-1.0
 20
0.1666666666666666
 30
0.0
 11
0.0
 21
0.0
 31
0.0
  0
LINE
  5
28
  8
0
  6
BYBLOCK
 62
     0
 10
0.0
 20
0.0
 30
0.0
 11
-1.0
 21
-0.1666666666666666
 31
0.0
  0
LINE
  5
29
  8
0
  6
BYBLOCK
 62
     0
 10
0.0
 20
0.0
 30
0.0
 11
-1.0
 21
0.0
 31
0.0
  0
ENDBLK
  5
2B
  8
0
  0
BLOCK
  8
0
  2
_DOT
 70
     0
 10
0.0
 20
0.0
 30
0.0
  3
_DOT
  1

  0
POLYLINE
  5
DB
  8
0
  6
BYBLOCK
 62
     0
 66
     1
 10
0.0
 20
0.0
 30
0.0
 70
     1
 40
0.25
 41
0.25
  0
VERTEX
  5
22BD
  8
0
  6
BYBLOCK
 62
     0
 10
-0.125
 20
0.0
 30
0.0
 42
1.0
  0
VERTEX
  5
22BE
  8
0
  6
BYBLOCK
 62
     0
 10
0.125
 20
0.0
 30
0.0
 42
1.0
  0
SEQEND
  5
22BF
  8
0
  6
BYBLOCK
 62
     0
  0
LINE
  5
DF
  8
0
  6
BYBLOCK
 62
     0
 10
-0.25
 20
0.0
 30
0.0
 11
-1.0
 21
0.0
 31
0.0
  0
ENDBLK
  5
E1
  8
0
  0
BLOCK
  8
0
  2
まっすぐの矢印
 70
     0
 10
0.0
 20
0.0
 30
0.0
  3
まっすぐの矢印
  1

  0
LINE
  5
8C
  8
SP
 10
13.01863531255526
 20
-41.453946163708451
 30
0.0
 11
13.01863531255526
 21
-93.495696758840026
 31
0.0
  0
LINE
  5
8D
  8
SP
 10
13.01863531255526
 20
-93.495696758840026
 30
0.0
 11
-13.01863531255526
 21
-93.495696758840026
 31
0.0
  0
LINE
  5
8E
  8
SP
 10
-13.01863531255526
 20
-93.495696758840026
 30
0.0
 11
-13.01863531255526
 21
-41.453946163708451
 31
0.0
  0
LINE
  5
8F
  8
SP
 10
-13.01863531255526
 20
-41.453946163708451
 30
0.0
 11
-32.06015471115802
 21
-41.453946163708451
 31
0.0
  0
LINE
  5
90
  8
SP
 10
-32.06015471115802
 20
-41.453946163708451
 30
0.0
 11
0.0
 21
0.0
 31
0.0
  0
LINE
  5
91
  8
SP
 10
0.0
 20
0.0
 30
0.0
 11
32.06015471115802
 21
-41.453946163708451
 31
0.0
  0
LINE
  5
92
  8
SP
 10
32.06015471115802
 20
-41.453946163708451
 30
0.0
 11
13.01863531255526
 21
-41.453946163708451
 31
0.0
  0
ENDBLK
  5
94
  8
0
  0
BLOCK
  8
0
  2
左回転矢印
 70
     0
 10
0.0
 20
0.0
 30
0.0
  3
左回転矢印
  1

  0
LINE
  5
2C7
  8
SP
 10
43.930449171819873
 20
24.859487323637271
 30
0.0
 11
38.511878498580238
 21
44.478978865188871
 31
0.0
  0
LINE
  5
2C8
  8
SP
 10
38.511878498580238
 20
44.478978865188871
 30
0.0
 11
0.0
 21
0.0
 31
0.0
  0
LINE
  5
2C9
  8
SP
 10
0.0
 20
0.0
 30
0.0
 11
52.57968174421967
 21
-6.4575435924972453
 31
0.0
  0
LINE
  5
2CA
  8
SP
 10
52.57968174421967
 20
-6.4575435924972453
 30
0.0
 11
48.189912989015284
 21
9.436875093862227
 31
0.0
  0
ARC
  5
2CB
  8
SP
 10
93.893649146691985
 20
-156.0466295121104
 30
0.0
 40
171.67883327727239
 50
67.881388989212894
 51
105.4392492786835
  0
LINE
  5
2CC
  8
SP
 10
158.53505643637521
 20
2.997736182040398
 30
0.0
 11
164.55945966006539
 21
17.820238190756751
 31
0.0
  0
ARC
  5
2CD
  8
SP
 10
93.893649146692198
 20
-156.04662951211091
 30
0.0
 40
187.67883327727299
 50
67.881388989212994
 51
105.4392492786836
  0
ENDBLK
  5
2CF
  8
0
  0
BLOCK
  8
0
  2
*D4
 70
     1
 10
0.0
 20
0.0
 30
0.0
  3
*D4
  1

  0
LINE
  5
22B0
  8
SP
 10
21213.68292105991
 20
17234.457044372652
 30
0.0
 11
21863.0920102655
 21
17234.457044372652
 31
0.0
  0
LINE
  5
22B1
  8
SP
 10
21823.0920102655
 20
17334.457044372652
 30
0.0
 11
21823.0920102655
 21
17414.457044372652
 31
0.0
  0
LINE
  5
22B2
  8
SP
 10
21823.0920102655
 20
17154.457044372652
 30
0.0
 11
21823.0920102655
 21
17074.457044372652
 31
0.0
  0
LINE
  5
22B3
  8
SP
 10
21823.0920102655
 20
17244.457044372652
 30
0.0
 11
22256.616708868969
 21
17366.37793243098
 31
0.0
  0
LINE
  5
22B4
  8
SP
 10
22256.616708868969
 20
17366.37793243098
 30
0.0
 11
22256.616708868969
 21
17754.23875727108
 31
0.0
  0
TEXT
  8
0
  40
120
  5
22DF
  72
0
  71
0
 10
21905.2
 20
17347.9
 30
0.000000
  1
(20)
  0
LINE
  5
22B6
  8
SP
 10
21823.0920102655
 20
17254.457044372652
 30
0.0
 11
21823.0920102655
 21
17234.457044372652
 31
0.0
  0
LINE
  5
22B7
  8
SP
 10
21823.0920102655
 20
17254.457044372652
 30
0.0
 11
21823.0920102655
 21
17234.457044372652
 31
0.0
  0
INSERT
  5
22B8
  8
SP
  2
_OPEN
 10
21823.0920102655
 20
17254.457044372652
 30
0.0
 41
80.0
 42
80.0
 43
80.0
 50
270.0
  0
INSERT
  5
22B9
  8
SP
  2
_DOT
 10
21823.0920102655
 20
17234.457044372652
 30
0.0
 41
80.0
 42
80.0
 43
80.0
 50
90.0
  0
POINT
  5
22BA
  8
DEFPOINTS
 62
     0
 10
21138.796133392399
 20
17254.457044372652
 30
0.0
  0
POINT
  5
22BB
  8
DEFPOINTS
 62
     0
 10
21173.68292105991
 20
17234.457044372652
 30
0.0
  0
POINT
  5
22BC
  8
DEFPOINTS
 62
     0
 10
21823.0920102655
 20
17234.457044372652
 30
0.0
  0
ENDBLK
  5
88C
  8
0
  0
BLOCK
  8
0
  2
*D5
 70
     1
 10
0.0
 20
0.0
 30
0.0
  3
*D5
  1

  0
LINE
  5
2245
  8
SP
 10
22704.258366020091
 20
19002.830844372649
 30
0.0
 11
22704.258366020091
 21
21075.206651077358
 31
0.0
  0
LINE
  5
2246
  8
SP
 10
25154.258366020091
 20
20603.830844372649
 30
0.0
 11
25154.258366020091
 21
21075.206651077358
 31
0.0
  0
LINE
  5
2247
  8
SP
 10
22784.258366020091
 20
21035.206651077358
 30
0.0
 11
25074.258366020091
 21
21035.206651077358
 31
0.0
  0
INSERT
  5
2248
  8
SP
  2
_OPEN
 10
22704.258366020091
 20
21035.206651077358
 30
0.0
 41
80.0
 42
80.0
 43
80.0
 50
180.0
  0
INSERT
  5
2249
  8
SP
  2
_OPEN
 10
25154.258366020091
 20
21035.206651077358
 30
0.0
 41
80.0
 42
80.0
 43
80.0
  0
TEXT
  5
224A
  8
SP
 10
23632.26567711512
 20
21106.635222505942
 30
0.0
 40
120.0
  1
(2450)
 51
15.0
  0
POINT
  5
224B
  8
DEFPOINTS
 62
     0
 10
22704.258366020091
 20
18962.830844372649
 30
0.0
  0
POINT
  5
224C
  8
DEFPOINTS
 62
     0
 10
25154.258366020091
 20
20563.830844372649
 30
0.0
  0
POINT
  5
224D
  8
DEFPOINTS
 62
     0
 10
25154.258366020091
 20
21035.206651077358
 30
0.0
  0
ENDBLK
  5
1423
  8
0
  0
BLOCK
  8
0
  2
*D6
 70
     1
 10
0.0
 20
0.0
 30
0.0
  3
*D6
  1

  0
LINE
  5
225F
  8
SP
 10
21699.036920104008
 20
18584.457044372652
 30
0.0
 11
21863.0920102655
 21
18584.457044372652
 31
0.0
  0
LINE
  5
2260
  8
SP
 10
21318.68292105991
 20
20574.457044372652
 30
0.0
 11
21863.0920102655
 21
20574.457044372652
 31
0.0
  0
LINE
  5
2261
  8
SP
 10
21823.0920102655
 20
18664.457044372652
 30
0.0
 11
21823.0920102655
 21
20494.457044372652
 31
0.0
  0
INSERT
  5
2262
  8
SP
  2
_OPEN
 10
21823.0920102655
 20
18584.457044372652
 30
0.0
 41
80.0
 42
80.0
 43
80.0
 50
270.0
  0
INSERT
  5
2263
  8
SP
  2
_OPEN
 10
21823.0920102655
 20
20574.457044372652
 30
0.0
 41
80.0
 42
80.0
 43
80.0
 50
90.0
  0
TEXT
  5
2264
  8
SP
 10
21803.092010265489
 20
19356.284837107909
 30
0.0
 40
120.0
  1
1990
 50
90.0
 51
15.0
  0
POINT
  5
2265
  8
DEFPOINTS
 62
     0
 10
21659.036920104008
 20
18584.457044372652
 30
0.0
  0
POINT
  5
2266
  8
DEFPOINTS
 62
     0
 10
21278.68292105991
 20
20574.457044372652
 30
0.0
  0
POINT
  5
2267
  8
DEFPOINTS
 62
     0
 10
21823.0920102655
 20
20574.457044372652
 30
0.0
  0
ENDBLK
  5
18B9
  8
0
  0
BLOCK
  8
0
  2
*D7
 70
     1
 10
0.0
 20
0.0
 30
0.0
  3
*D7
  1

  0
LINE
  5
2268
  8
SP
 10
21676.436609700551
 20
18584.457044372652
 30
0.0
 11
21863.0920102655
 21
18584.457044372652
 31
0.0
  0
LINE
  5
2269
  8
SP
 10
21178.796133392399
 20
17254.457044372652
 30
0.0
 11
21863.0920102655
 21
17254.457044372652
 31
0.0
  0
LINE
  5
226A
  8
SP
 10
21823.0920102655
 20
18504.457044372652
 30
0.0
 11
21823.0920102655
 21
17334.457044372652
 31
0.0
  0
INSERT
  5
226B
  8
SP
  2
_OPEN
 10
21823.0920102655
 20
18584.457044372652
 30
0.0
 41
80.0
 42
80.0
 43
80.0
 50
90.0
  0
INSERT
  5
226C
  8
SP
  2
_OPEN
 10
21823.0920102655
 20
17254.457044372652
 30
0.0
 41
80.0
 42
80.0
 43
80.0
 50
270.0
  0
TEXT
  5
226D
  8
SP
 10
21803.092010265489
 20
17696.28483710792
 30
0.0
 40
120.0
  1
1330
 50
90.0
 51
15.0
  0
POINT
  5
226E
  8
DEFPOINTS
 62
     0
 10
21636.436609700551
 20
18584.457044372652
 30
0.0
  0
POINT
  5
226F
  8
DEFPOINTS
 62
     0
 10
21138.796133392399
 20
17254.457044372652
 30
0.0
  0
POINT
  5
2270
  8
DEFPOINTS
 62
     0
 10
21823.0920102655
 20
17254.457044372652
 30
0.0
  0
ENDBLK
  5
18ED
  8
0
  0
BLOCK
  8
0
  2
*D8
 70
     1
 10
0.0
 20
0.0
 30
0.0
  3
*D8
  1

  0
LINE
  5
22C0
  8
SP
 10
21213.68292105991
 20
17084.457044372652
 30
0.0
 11
21863.0920102655
 21
17084.457044372652
 31
0.0
  0
LINE
  5
22C1
  8
SP
 10
21823.0920102655
 20
17314.457044372652
 30
0.0
 11
21823.0920102655
 21
17394.457044372652
 31
0.0
  0
LINE
  5
22C2
  8
SP
 10
21823.0920102655
 20
17004.457044372652
 30
0.0
 11
21823.0920102655
 21
16604.457044372652
 31
0.0
  0
LINE
  5
22C3
  8
SP
 10
21823.0920102655
 20
17234.457044372652
 30
0.0
 11
21823.0920102655
 21
17084.457044372652
 31
0.0
  0
INSERT
  5
22C4
  8
SP
  2
_DOT
 10
21823.0920102655
 20
17234.457044372652
 30
0.0
 41
80.0
 42
80.0
 43
80.0
 50
270.0
  0
INSERT
  5
22C5
  8
SP
  2
_OPEN
 10
21823.0920102655
 20
17084.457044372652
 30
0.0
 41
80.0
 42
80.0
 43
80.0
 50
90.0
  0
TEXT
  8
0
  40
120
  5
22E0
  72
0
  71
0
 10
21503.1
 20
16552.1
 30
0.000000
  1
150
  0
POINT
  5
22C7
  8
DEFPOINTS
 62
     0
 10
21173.68292105991
 20
17234.457044372652
 30
0.0
  0
POINT
  5
22C8
  8
DEFPOINTS
 62
     0
 10
21173.68292105991
 20
17084.457044372652
 30
0.0
  0
POINT
  5
22C9
  8
DEFPOINTS
 62
     0
 10
21823.0920102655
 20
17084.457044372652
 30
0.0
  0
ENDBLK
  5
18FA
  8
0
  0
BLOCK
  8
0
  2
*D9
 70
     1
 10
0.0
 20
0.0
 30
0.0
  3
*D9
  1

  0
LINE
  5
2271
  8
SP
 10
20113.68292105991
 20
25284.875195253178
 30
0.0
 11
20113.68292105991
 21
25543.753823563889
 31
0.0
  0
LINE
  5
2272
  8
SP
 10
21278.68292105991
 20
25019.87989208095
 30
0.0
 11
21278.68292105991
 21
25543.753823563889
 31
0.0
  0
LINE
  5
2273
  8
SP
 10
20193.68292105991
 20
25503.753823563889
 30
0.0
 11
21198.68292105991
 21
25503.753823563889
 31
0.0
  0
INSERT
  5
2274
  8
SP
  2
_OPEN
 10
20113.68292105991
 20
25503.753823563889
 30
0.0
 41
80.0
 42
80.0
 43
80.0
 50
180.0
  0
INSERT
  5
2275
  8
SP
  2
_OPEN
 10
21278.68292105991
 20
25503.753823563889
 30
0.0
 41
80.0
 42
80.0
 43
80.0
  0
TEXT
  5
2276
  8
SP
 10
20484.23415159596
 20
25523.7538235639
 30
0.0
 40
120.0
  1
1165
 51
15.0
  0
POINT
  5
2277
  8
DEFPOINTS
 62
     0
 10
20113.68292105991
 20
25244.875195253178
 30
0.0
  0
POINT
  5
2278
  8
DEFPOINTS
 62
     0
 10
21278.68292105991
 20
24979.87989208095
 30
0.0
  0
POINT
  5
2279
  8
DEFPOINTS
 62
     0
 10
21278.68292105991
 20
25503.753823563889
 30
0.0
  0
ENDBLK
  5
1915
  8
0
  0
BLOCK
  8
0
  2
*D10
 70
     1
 10
0.0
 20
0.0
 30
0.0
  3
*D10
  1

  0
LINE
  5
21F2
  8
SP
 10
18173.68292105991
 20
23626.87989208095
 30
0.0
 11
18173.68292105991
 21
25543.753823563889
 31
0.0
  0
LINE
  5
21F3
  8
SP
 10
20033.68292105991
 20
25503.753823563889
 30
0.0
 11
18253.68292105991
 21
25503.753823563889
 31
0.0
  0
INSERT
  5
21F4
  8
SP
  2
_OPEN
 10
20113.68292105991
 20
25503.753823563889
 30
0.0
 41
80.0
 42
80.0
 43
80.0
  0
INSERT
  5
21F5
  8
SP
  2
_OPEN
 10
18173.68292105991
 20
25503.753823563889
 30
0.0
 41
80.0
 42
80.0
 43
80.0
 50
180.0
  0
TEXT
  5
21F6
  8
SP
 10
18920.510713795171
 20
25523.7538235639
 30
0.0
 40
120.0
  1
1940
 51
15.0
  0
POINT
  5
21F7
  8
DEFPOINTS
 62
     0
 10
20113.68292105991
 20
25503.753823563889
 30
0.0
  0
POINT
  5
21F8
  8
DEFPOINTS
 62
     0
 10
18173.68292105991
 20
23586.87989208095
 30
0.0
  0
POINT
  5
21F9
  8
DEFPOINTS
 62
     0
 10
18173.68292105991
 20
25503.753823563889
 30
0.0
  0
ENDBLK
  5
1921
  8
0
  0
BLOCK
  8
0
  2
*D11
 70
     1
 10
0.0
 20
0.0
 30
0.0
  3
*D11
  1

  0
LINE
  5
227A
  8
SP
 10
21118.68292105991
 20
25045.87989208095
 30
0.0
 11
21738.669186550029
 21
25045.87989208095
 31
0.0
  0
LINE
  5
227B
  8
SP
 10
21725.917364768829
 20
24250.879892080939
 30
0.0
 11
21658.669186550029
 21
24250.879892080939
 31
0.0
  0
LINE
  5
227C
  8
SP
 10
21698.669186550029
 20
24965.87989208095
 30
0.0
 11
21698.669186550029
 21
24330.879892080939
 31
0.0
  0
INSERT
  5
227D
  8
SP
  2
_OPEN
 10
21698.669186550029
 20
25045.87989208095
 30
0.0
 41
80.0
 42
80.0
 43
80.0
 50
90.0
  0
INSERT
  5
227E
  8
SP
  2
_OPEN
 10
21698.669186550029
 20
24250.879892080939
 30
0.0
 41
80.0
 42
80.0
 43
80.0
 50
270.0
  0
TEXT
  5
227F
  8
SP
 10
21678.669186550022
 20
24472.302940535079
 30
0.0
 40
120.0
  1
795
 50
90.0
 51
15.0
  0
POINT
  5
2280
  8
DEFPOINTS
 62
     0
 10
21078.68292105991
 20
25045.87989208095
 30
0.0
  0
POINT
  5
2281
  8
DEFPOINTS
 62
     0
 10
21765.917364768829
 20
24250.879892080939
 30
0.0
  0
POINT
  5
2282
  8
DEFPOINTS
 62
     0
 10
21698.669186550029
 20
24250.879892080939
 30
0.0
  0
ENDBLK
  5
192F
  8
0
  0
BLOCK
  8
0
  2
*D12
 70
     1
 10
0.0
 20
0.0
 30
0.0
  3
*D12
  1

  0
LINE
  5
224E
  8
SP
 10
20533.68292105991
 20
21800.87989208095
 30
0.0
 11
21738.669186550029
 21
21800.87989208095
 31
0.0
  0
LINE
  5
224F
  8
SP
 10
21698.669186550029
 20
24170.879892080939
 30
0.0
 11
21698.669186550029
 21
21880.87989208095
 31
0.0
  0
INSERT
  5
2250
  8
SP
  2
_OPEN
 10
21698.669186550029
 20
24250.879892080939
 30
0.0
 41
80.0
 42
80.0
 43
80.0
 50
90.0
  0
INSERT
  5
2251
  8
SP
  2
_OPEN
 10
21698.669186550029
 20
21800.87989208095
 30
0.0
 41
80.0
 42
80.0
 43
80.0
 50
270.0
  0
TEXT
  5
2252
  8
SP
 10
21678.669186550022
 20
22804.29378844858
 30
0.0
 40
120.0
  1
2450
 50
90.0
 51
15.0
  0
POINT
  5
2253
  8
DEFPOINTS
 62
     0
 10
21698.669186550029
 20
24250.879892080939
 30
0.0
  0
POINT
  5
2254
  8
DEFPOINTS
 62
     0
 10
20493.68292105991
 20
21800.87989208095
 30
0.0
  0
POINT
  5
2255
  8
DEFPOINTS
 62
     0
 10
21698.669186550029
 20
21800.87989208095
 30
0.0
  0
ENDBLK
  5
193B
  8
0
  0
BLOCK
  8
0
  2
*D13
 70
     1
 10
0.0
 20
0.0
 30
0.0
  3
*D13
  1

  0
LINE
  5
21FA
  8
SP
 10
21173.68292105991
 20
17044.457044372652
 30
0.0
 11
21173.68292105991
 21
16290.535115033719
 31
0.0
  0
LINE
  5
21FB
  8
SP
 10
18173.68292105991
 20
17044.457044372652
 30
0.0
 11
18173.68292105991
 21
16290.535115033719
 31
0.0
  0
LINE
  5
21FC
  8
SP
 10
21093.68292105991
 20
16330.535115033719
 30
0.0
 11
18253.68292105991
 21
16330.535115033719
 31
0.0
  0
INSERT
  5
21FD
  8
SP
  2
_OPEN
 10
21173.68292105991
 20
16330.535115033719
 30
0.0
 41
80.0
 42
80.0
 43
80.0
  0
INSERT
  5
21FE
  8
SP
  2
_OPEN
 10
18173.68292105991
 20
16330.535115033719
 30
0.0
 41
80.0
 42
80.0
 43
80.0
 50
180.0
  0
TEXT
  5
21FF
  8
SP
 10
19449.034540942612
 20
16350.535115033719
 30
0.0
 40
120.0
  1
3000
 51
15.0
  0
POINT
  5
2200
  8
DEFPOINTS
 62
     0
 10
21173.68292105991
 20
17084.457044372652
 30
0.0
  0
POINT
  5
2201
  8
DEFPOINTS
 62
     0
 10
18173.68292105991
 20
17084.457044372652
 30
0.0
  0
POINT
  5
2202
  8
DEFPOINTS
 62
     0
 10
18173.68292105991
 20
16330.535115033719
 30
0.0
  0
ENDBLK
  5
1957
  8
0
  0
BLOCK
  8
0
  2
*D14
 70
     1
 10
0.0
 20
0.0
 30
0.0
  3
*D14
  1

  0
LINE
  5
22CA
  8
SP
 10
18173.68292105991
 20
17044.457044372652
 30
0.0
 11
18173.68292105991
 21
16609.249665654352
 31
0.0
  0
LINE
  5
22CB
  8
SP
 10
20033.68292105991
 20
16649.249665654352
 30
0.0
 11
18253.68292105991
 21
16649.249665654352
 31
0.0
  0
INSERT
  5
22CC
  8
SP
  2
_OPEN
 10
20113.68292105991
 20
16649.249665654352
 30
0.0
 41
80.0
 42
80.0
 43
80.0
  0
INSERT
  5
22CD
  8
SP
  2
_OPEN
 10
18173.68292105991
 20
16649.249665654352
 30
0.0
 41
80.0
 42
80.0
 43
80.0
 50
180.0
  0
TEXT
  8
0
  40
120
  5
22E1
  72
0
  71
0
 10
18903.7
 20
16516.8
 30
0.000000
  1
1940
  0
POINT
  5
22CF
  8
DEFPOINTS
 62
     0
 10
20113.68292105991
 20
17003.80286936244
 30
0.0
  0
POINT
  5
22D0
  8
DEFPOINTS
 62
     0
 10
18173.68292105991
 20
17084.457044372652
 30
0.0
  0
POINT
  5
22D1
  8
DEFPOINTS
 62
     0
 10
18173.68292105991
 20
16649.249665654352
 30
0.0
  0
ENDBLK
  5
1962
  8
0
  0
BLOCK
  8
0
  2
*D15
 70
     1
 10
0.0
 20
0.0
 30
0.0
  3
*D15
  1

  0
LINE
  5
2234
  8
SP
 10
21173.68292105991
 20
17044.457044372652
 30
0.0
 11
21173.68292105991
 21
16609.249665654352
 31
0.0
  0
LINE
  5
2235
  8
SP
 10
20113.68292105991
 20
16963.80286936244
 30
0.0
 11
20113.68292105991
 21
16609.249665654352
 31
0.0
  0
LINE
  5
2236
  8
SP
 10
21093.68292105991
 20
16649.249665654352
 30
0.0
 11
20193.68292105991
 21
16649.249665654352
 31
0.0
  0
INSERT
  5
2237
  8
SP
  2
_OPEN
 10
21173.68292105991
 20
16649.249665654352
 30
0.0
 41
80.0
 42
80.0
 43
80.0
  0
INSERT
  5
2238
  8
SP
  2
_OPEN
 10
20113.68292105991
 20
16649.249665654352
 30
0.0
 41
80.0
 42
80.0
 43
80.0
 50
180.0
  0
TEXT
  5
2239
  8
SP
 10
20420.510713795171
 20
16669.249665654352
 30
0.0
 40
120.0
  1
1060
 51
15.0
  0
POINT
  5
223A
  8
DEFPOINTS
 62
     0
 10
21173.68292105991
 20
17084.457044372652
 30
0.0
  0
POINT
  5
223B
  8
DEFPOINTS
 62
     0
 10
20113.68292105991
 20
17003.80286936244
 30
0.0
  0
POINT
  5
223C
  8
DEFPOINTS
 62
     0
 10
20113.68292105991
 20
16649.249665654352
 30
0.0
  0
ENDBLK
  5
1985
  8
0
  0
BLOCK
  8
0
  2
*D16
 70
     1
 10
0.0
 20
0.0
 30
0.0
  3
*D16
  1

  0
LINE
  5
2222
  8
SP
 10
23043.258366020102
 20
17044.457027766672
 30
0.0
 11
23043.258366020102
 21
16304.938870037429
 31
0.0
  0
LINE
  5
2223
  8
SP
 10
25893.258366020102
 20
17044.457027766672
 30
0.0
 11
25893.258366020102
 21
16304.938870037429
 31
0.0
  0
LINE
  5
2224
  8
SP
 10
23123.258366020102
 20
16344.938870037429
 30
0.0
 11
25813.258366020102
 21
16344.938870037429
 31
0.0
  0
INSERT
  5
2225
  8
SP
  2
_OPEN
 10
23043.258366020102
 20
16344.938870037429
 30
0.0
 41
80.0
 42
80.0
 43
80.0
 50
180.0
  0
INSERT
  5
2226
  8
SP
  2
_OPEN
 10
25893.258366020102
 20
16344.938870037429
 30
0.0
 41
80.0
 42
80.0
 43
80.0
  0
TEXT
  5
2227
  8
SP
 10
24246.672262387729
 20
16364.938870037429
 30
0.0
 40
120.0
  1
2850
 51
15.0
  0
POINT
  5
2228
  8
DEFPOINTS
 62
     0
 10
23043.258366020102
 20
17084.457027766672
 30
0.0
  0
POINT
  5
2229
  8
DEFPOINTS
 62
     0
 10
25893.258366020102
 20
17084.457027766672
 30
0.0
  0
POINT
  5
222A
  8
DEFPOINTS
 62
     0
 10
25893.258366020102
 20
16344.938870037429
 30
0.0
  0
ENDBLK
  5
1991
  8
0
  0
BLOCK
  8
0
  2
*D17
 70
     1
 10
0.0
 20
0.0
 30
0.0
  3
*D17
  1

  0
LINE
  5
222B
  8
SP
 10
23043.258366020102
 20
17044.457027766672
 30
0.0
 11
23043.258366020102
 21
16604.976415002351
 31
0.0
  0
LINE
  5
222C
  8
SP
 10
25154.258366020102
 20
17023.52997577273
 30
0.0
 11
25154.258366020102
 21
16604.976415002351
 31
0.0
  0
LINE
  5
222D
  8
SP
 10
23123.258366020102
 20
16644.976415002351
 30
0.0
 11
25074.258366020102
 21
16644.976415002351
 31
0.0
  0
INSERT
  5
222E
  8
SP
  2
_OPEN
 10
23043.258366020102
 20
16644.976415002351
 30
0.0
 41
80.0
 42
80.0
 43
80.0
 50
180.0
  0
INSERT
  5
222F
  8
SP
  2
_OPEN
 10
25154.258366020102
 20
16644.976415002351
 30
0.0
 41
80.0
 42
80.0
 43
80.0
  0
TEXT
  5
2230
  8
SP
 10
23919.82427161709
 20
16664.976415002351
 30
0.0
 40
120.0
  1
2111
 51
15.0
  0
POINT
  5
2231
  8
DEFPOINTS
 62
     0
 10
23043.258366020102
 20
17084.457027766672
 30
0.0
  0
POINT
  5
2232
  8
DEFPOINTS
 62
     0
 10
25154.258366020102
 20
17063.52997577273
 30
0.0
  0
POINT
  5
2233
  8
DEFPOINTS
 62
     0
 10
25154.258366020102
 20
16644.976415002351
 30
0.0
  0
ENDBLK
  5
199D
  8
0
  0
BLOCK
  8
0
  2
*D18
 70
     1
 10
0.0
 20
0.0
 30
0.0
  3
*D18
  1

  0
LINE
  5
22D2
  8
SP
 10
25893.258366020102
 20
17044.457027766672
 30
0.0
 11
25893.258366020102
 21
16604.976415002351
 31
0.0
  0
LINE
  5
22D3
  8
SP
 10
25234.258366020102
 20
16644.976415002351
 30
0.0
 11
25813.258366020102
 21
16644.976415002351
 31
0.0
  0
INSERT
  5
22D4
  8
SP
  2
_OPEN
 10
25154.258366020102
 20
16644.976415002351
 30
0.0
 41
80.0
 42
80.0
 43
80.0
 50
180.0
  0
INSERT
  5
22D5
  8
SP
  2
_OPEN
 10
25893.258366020102
 20
16644.976415002351
 30
0.0
 41
80.0
 42
80.0
 43
80.0
  0
TEXT
  8
0
  40
120
  5
22E2
  72
0
  71
0
 10
25283.8
 20
16512.6
 30
0.000000
  1
739
  0
POINT
  5
22D7
  8
DEFPOINTS
 62
     0
 10
25154.258366020102
 20
17063.52997577273
 30
0.0
  0
POINT
  5
22D8
  8
DEFPOINTS
 62
     0
 10
25893.258366020102
 20
17084.457027766672
 30
0.0
  0
POINT
  5
22D9
  8
DEFPOINTS
 62
     0
 10
25893.258366020102
 20
16644.976415002351
 30
0.0
  0
ENDBLK
  5
19A8
  8
0
  0
BLOCK
  8
0
  2
*D19
 70
     1
 10
0.0
 20
0.0
 30
0.0
  3
*D19
  1

  0
LINE
  5
2256
  8
SP
 10
21278.68292105991
 20
20614.457044372652
 30
0.0
 11
21278.68292105991
 21
21086.255060535252
 31
0.0
  0
LINE
  5
2257
  8
SP
 10
20113.68292105991
 20
20614.722582937022
 30
0.0
 11
20113.68292105991
 21
21086.255060535252
 31
0.0
  0
LINE
  5
2258
  8
SP
 10
21198.68292105991
 20
21046.255060535252
 30
0.0
 11
20193.68292105991
 21
21046.255060535252
 31
0.0
  0
INSERT
  5
2259
  8
SP
  2
_OPEN
 10
21278.68292105991
 20
21046.255060535252
 30
0.0
 41
80.0
 42
80.0
 43
80.0
  0
INSERT
  5
225A
  8
SP
  2
_OPEN
 10
20113.68292105991
 20
21046.255060535252
 30
0.0
 41
80.0
 42
80.0
 43
80.0
 50
180.0
  0
TEXT
  5
225B
  8
SP
 10
20484.23415159596
 20
21066.255060535252
 30
0.0
 40
120.0
  1
1165
 51
15.0
  0
POINT
  5
225C
  8
DEFPOINTS
 62
     0
 10
21278.68292105991
 20
20574.457044372652
 30
0.0
  0
POINT
  5
225D
  8
DEFPOINTS
 62
     0
 10
20113.68292105991
 20
20574.722582937022
 30
0.0
  0
POINT
  5
225E
  8
DEFPOINTS
 62
     0
 10
20113.68292105991
 20
21046.255060535252
 30
0.0
  0
ENDBLK
  5
1A17
  8
0
  0
BLOCK
  8
0
  2
*D20
 70
     1
 10
0.0
 20
0.0
 30
0.0
  3
*D20
  1

  0
LINE
  5
2284
  8
SP
 10
25989.258366020102
 20
19482.830844372649
 30
0.0
 11
26569.266508231831
 21
19482.830844372649
 31
0.0
  0
LINE
  5
2285
  8
SP
 10
25989.258366020102
 20
17682.830844372649
 30
0.0
 11
26569.266508231831
 21
17682.830844372649
 31
0.0
  0
LINE
  5
2286
  8
SP
 10
26529.266508231831
 20
19402.830844372649
 30
0.0
 11
26529.266508231831
 21
17762.830844372649
 31
0.0
  0
INSERT
  5
2287
  8
SP
  2
_OPEN
 10
26529.266508231831
 20
19482.830844372649
 30
0.0
 41
80.0
 42
80.0
 43
80.0
 50
90.0
  0
INSERT
  5
2288
  8
SP
  2
_OPEN
 10
26529.266508231831
 20
17682.830844372649
 30
0.0
 41
80.0
 42
80.0
 43
80.0
 50
270.0
  0
INSERT
  5
2289
  8
SP
  2
*U22
 10
0.0
 20
0.0
 30
0.0
  0
POINT
  5
228A
  8
DEFPOINTS
 62
     0
 10
25949.258366020102
 20
19482.830844372649
 30
0.0
  0
POINT
  5
228B
  8
DEFPOINTS
 62
     0
 10
25949.258366020102
 20
17682.830844372649
 30
0.0
  0
POINT
  5
228C
  8
DEFPOINTS
 62
     0
 10
26529.266508231831
 20
17682.830844372649
 30
0.0
  0
ENDBLK
  5
228E
  8
0
  0
BLOCK
  8
0
  2
*D21
 70
     1
 10
0.0
 20
0.0
 30
0.0
  3
*D21
  1

  0
LINE
  5
2290
  8
SP
 10
25154.258366020102
 20
21027.148990441739
 30
0.0
 11
25154.258366020102
 21
20995.206651077358
 31
0.0
  0
LINE
  5
2291
  8
SP
 10
25949.258366020091
 20
19587.830844372649
 30
0.0
 11
25949.258366020091
 21
21075.206651077358
 31
0.0
  0
LINE
  5
2292
  8
SP
 10
25234.258366020102
 20
21035.206651077358
 30
0.0
 11
25869.258366020091
 21
21035.206651077358
 31
0.0
  0
INSERT
  5
2293
  8
SP
  2
_OPEN
 10
25154.258366020102
 20
21035.206651077358
 30
0.0
 41
80.0
 42
80.0
 43
80.0
 50
180.0
  0
INSERT
  5
2294
  8
SP
  2
_OPEN
 10
25949.258366020091
 20
21035.206651077358
 30
0.0
 41
80.0
 42
80.0
 43
80.0
  0
TEXT
  5
2295
  8
SP
 10
25307.043789518331
 20
21055.206651077358
 30
0.0
 40
120.0
  1
795
 51
15.0
  0
POINT
  5
2296
  8
DEFPOINTS
 62
     0
 10
25154.258366020102
 20
21067.148990441739
 30
0.0
  0
POINT
  5
2297
  8
DEFPOINTS
 62
     0
 10
25949.258366020091
 20
19547.830844372649
 30
0.0
  0
POINT
  5
2298
  8
DEFPOINTS
 62
     0
 10
25949.258366020091
 20
21035.206651077358
 30
0.0
  0
ENDBLK
  5
229A
  8
0
  0
BLOCK
  8
0
  2
*U22
 70
     1
 10
0.0
 20
0.0
 30
0.0
  3
*U22
  1

  0
TEXT
  5
22DB
  8
SP
 10
26509.266508231831
 20
18285.823427535852
 30
0.0
 40
120.0
  1
\U+2205
 50
90.0
 51
15.0
  0
TEXT
  5
22DC
  8
SP
 10
26509.266508231831
 20
18394.394856107279
 30
0.0
 40
120.0
  1
1800
 50
90.0
 51
15.0
  0
ENDBLK
  5
22DE
  8
0
  0
ENDSEC
  0
SECTION
  2
ENTITIES
  0
INSERT
  5
89
  8
FUTO
  2
まっすぐの矢印
 10
21564.344531725052
 20
20150.899341032989
 30
0.0
 41
-2.0
 42
2.0
 43
2.0
 50
270.0
  0
LINE
  5
AF
  8
CT
 10
20113.68292105991
 20
18584.457044372652
 30
0.0
 11
21334.263399239611
 21
18476.189671830289
 31
0.0
  0
LINE
  5
B2
  8
CT
 10
21659.036920104008
 20
18584.457044372652
 30
0.0
 11
18199.054814549811
 21
18584.457044372652
 31
0.0
  0
DIMENSION
  5
CF
  8
SP
  2
*D4
 10
21823.0920102655
 20
17234.457044372652
 30
0.0
 11
22256.616708868962
 21
17386.37793243098
 31
0.0
 70
   128
  1
(<>)
 13
21138.796133392399
 23
17254.457044372652
 33
0.0
 14
21173.68292105991
 24
17234.457044372652
 34
0.0
 50
90.0
1001
ACAD
1000
DSTYLE
1002
{
1070
   287
1070
     4
1070
    40
1040
40.0
1070
    75
1070
     1
1070
   279
1070
     1
1070
   289
1070
     3
1070
     7
1000
DOT
1002
}
  0
DIMENSION
  5
E7
  8
SP
  2
*D8
 10
21823.0920102655
 20
17084.457044372652
 30
0.0
 11
21743.0920102655
 21
16764.457044372659
 31
0.0
 70
     0
 13
21173.68292105991
 23
17234.457044372652
 33
0.0
 14
21173.68292105991
 24
17084.457044372652
 34
0.0
 50
90.0
1001
ACAD
1000
DSTYLE
1002
{
1070
   287
1070
     1
1070
    40
1040
40.0
1070
    75
1070
     1
1070
   289
1070
     1
1070
     6
1000
DOT
1002
}
  0
DIMENSION
  5
F5
  8
SP
  2
*D7
 10
21823.0920102655
 20
17254.457044372652
 30
0.0
 11
21743.0920102655
 21
17919.457044372652
 31
0.0
 70
     0
 13
21636.436609700551
 23
18584.457044372652
 33
0.0
 14
21138.796133392399
 24
17254.457044372652
 34
0.0
 50
90.0
1001
ACAD
1000
DSTYLE
1002
{
1070
    40
1040
40.0
1002
}
  0
LINE
  5
104
  8
CT
 10
20113.68292105991
 20
20574.722582937022
 30
0.0
 11
20113.68292105991
 21
17003.80286936244
 31
0.0
  0
LINE
  5
10B
  8
FUTO
 10
18719.738885378771
 20
17495.319759459038
 30
0.0
 11
20295.493145606531
 21
18140.221698806461
 31
0.0
  0
ARC
  5
10E
  8
FUTO
 10
18613.68292105991
 20
17754.457044372652
 30
0.0
 40
280.0
 50
125.65684022602289
 51
292.25759497155337
  0
LINE
  5
10F
  8
SL
 10
20256.769991922461
 20
18259.570771729479
 30
0.0
 11
18694.29535534867
 21
17571.422524573682
 31
0.0
  0
LINE
  5
110
  8
SL
 10
18501.425993933692
 20
17919.981611468229
 30
0.0
 11
19914.426875410871
 21
18878.263150967308
 31
0.0
  0
ARC
  5
111
  8
FUTO
 10
18613.68292105991
 20
17754.457044372652
 30
0.0
 40
310.0
 50
300.10230806831191
 51
239.897691931688
  0
LINE
  5
112
  8
CT
 10
18613.68292105991
 20
18419.222930298969
 30
0.0
 11
18613.68292105991
 21
17432.165728111511
 31
0.0
  0
LINE
  5
113
  8
FUTO
 10
19054.68292105991
 20
18575.457044372652
 30
0.0
 11
19054.68292105991
 21
18415.44992474615
 31
0.0
  0
LINE
  5
114
  8
FUTO
 10
19557.569637686211
 20
17838.215025964539
 30
0.0
 11
19413.68292105991
 21
17418.62193891107
 31
0.0
  0
LINE
  5
115
  8
FUTO
 10
21154.68292105991
 20
18575.457044372652
 30
0.0
 11
21154.68292105991
 21
17404.457044372652
 31
0.0
  0
LINE
  5
116
  8
FUTO
 10
21163.68292105991
 20
18575.457044372652
 30
0.0
 11
21163.68292105991
 21
17404.457044372652
 31
0.0
  0
LINE
  5
117
  8
FUTO
 10
19063.68292105991
 20
18593.457044372652
 30
0.0
 11
19063.68292105991
 21
18421.906806258688
 31
0.0
  0
LINE
  5
118
  8
FUTO
 10
19072.68292105991
 20
18593.457044372652
 30
0.0
 11
19072.68292105991
 21
18428.363687771231
 31
0.0
  0
LINE
  5
119
  8
CT
 10
18613.68292105991
 20
17467.95578137265
 30
0.0
 11
18613.68292105991
 21
18052.227460372651
 31
0.0
  0
LINE
  5
11D
  8
KL
 10
20455.731346883949
 20
18462.457044372652
 30
0.0
 11
20507.835130297681
 21
18310.51537913534
 31
0.0
  0
ARC
  5
122
  8
FUTO
 10
20003.18292105991
 20
18473.957044372652
 30
0.0
 40
1201.5
 50
309.60989471180039
 51
7.7248117103407843
  0
ARC
  5
123
  8
KL
 10
20003.18292105991
 20
18473.957044372652
 30
0.0
 40
1181.4999999999991
 50
269.00582105632787
 51
0.0
  0
ARC
  5
124
  8
KL
 10
19982.68292105991
 20
18715.457044372652
 30
0.0
 40
1423.0
 50
185.26336540589651
 51
270.0
  0
DIMENSION
  5
13A
  8
SP
  2
*D14
 10
18173.68292105991
 20
16649.249665654352
 30
0.0
 11
19143.68292105991
 21
16729.249665654352
 31
0.0
 70
     0
 13
20113.68292105991
 23
17003.80286936244
 33
0.0
 14
18173.68292105991
 24
17084.457044372652
 34
0.0
1001
ACAD
1000
DSTYLE
1002
{
1070
   287
1070
     4
1070
    40
1040
40.0
1070
    75
1070
     1
1070
   279
1070
     1
1070
   289
1070
     3
1002
}
  0
LINE
  5
146
  8
FUTO
 10
21173.68292105991
 20
17234.457044372652
 30
0.0
 11
18173.68292105991
 21
17234.457044372652
 31
0.0
1001
ACAD
1000
ASC_BOUNDS
1002
{
1070
    19
1005
0
1002
}
  0
LINE
  5
147
  8
FUTO
 10
21173.68292105991
 20
17222.457044372652
 30
0.0
 11
18173.68292105991
 21
17222.457044372652
 31
0.0
  0
LINE
  5
148
  8
FUTO
 10
21173.68292105991
 20
17096.457044372652
 30
0.0
 11
18173.68292105991
 21
17096.457044372652
 31
0.0
  0
LINE
  5
149
  8
FUTO
 10
21173.68292105991
 20
17084.457044372652
 30
0.0
 11
18173.68292105991
 21
17084.457044372652
 31
0.0
  0
DIMENSION
  5
14A
  8
SP
  2
*D13
 10
18173.68292105991
 20
16330.535115033719
 30
0.0
 11
19673.68292105991
 21
16410.535115033719
 31
0.0
 70
     0
 13
21173.68292105991
 23
17084.457044372652
 33
0.0
 14
18173.68292105991
 24
17084.457044372652
 34
0.0
1001
ACAD
1000
DSTYLE
1002
{
1070
    40
1040
40.0
1002
}
  0
LINE
  5
157
  8
FUTO
 10
21173.68292105991
 20
17392.457044372652
 30
0.0
 11
18173.68292105991
 21
17392.457044372652
 31
0.0
  0
LINE
  5
158
  8
FUTO
 10
21173.68292105991
 20
17266.457044372652
 30
0.0
 11
18173.68292105991
 21
17266.457044372652
 31
0.0
  0
LINE
  5
159
  8
FUTO
 10
21173.68292105991
 20
17404.457044372652
 30
0.0
 11
18173.68292105991
 21
17404.457044372652
 31
0.0
  0
LINE
  5
15A
  8
FUTO
 10
21173.68292105991
 20
17254.457044372652
 30
0.0
 11
18173.68292105991
 21
17254.457044372652
 31
0.0
1001
ACAD
1000
ASC_BOUNDS
1002
{
1070
    19
1005
0
1002
}
  0
LINE
  5
15B
  8
FUTO
 10
18893.68292105991
 20
17504.457044372652
 30
0.0
 11
18796.985948858139
 21
17504.457044372652
 31
0.0
  0
LINE
  5
15C
  8
FUTO
 10
18893.68292105991
 20
17474.457044372652
 30
0.0
 11
18783.68292105991
 21
17474.457044372652
 31
0.0
  0
LINE
  5
15D
  8
FUTO
 10
18713.68292105991
 20
17474.457044372652
 30
0.0
 11
18928.68292105991
 21
17474.457044372652
 31
0.0
  0
LINE
  5
15E
  8
FUTO
 10
18938.68292105991
 20
17404.457044372652
 30
0.0
 11
18713.68292105991
 21
17404.457044372652
 31
0.0
  0
LINE
  5
15F
  8
CT
 10
18951.141885249672
 20
17754.457044372652
 30
0.0
 11
18270.405698866882
 21
17754.457044372652
 31
0.0
  0
LINE
  5
163
  8
CT
 10
18385.726631552971
 20
17268.98502757986
 30
0.0
 11
18385.726631552971
 21
17214.778252675711
 31
0.0
  0
LINE
  5
166
  8
FUTO
 10
18173.68292105991
 20
17234.457044372652
 30
0.0
 11
18173.68292105991
 21
17084.457044372652
 31
0.0
  0
LINE
  5
175
  8
FUTO
 10
18298.68292105991
 20
17474.457044372652
 30
0.0
 11
18513.68292105991
 21
17474.457044372652
 31
0.0
  0
LINE
  5
176
  8
FUTO
 10
18513.68292105991
 20
17404.457044372652
 30
0.0
 11
18288.68292105991
 21
17404.457044372652
 31
0.0
  0
CIRCLE
  5
177
  8
SL
 10
18613.68292105991
 20
17754.457044372652
 30
0.0
 40
200.0
  0
LINE
  5
178
  8
FUTO
 10
18333.68292105991
 20
17621.415697416101
 30
0.0
 11
18333.68292105991
 21
17474.457044372652
 31
0.0
  0
LINE
  5
179
  8
FUTO
 10
18173.68292105991
 20
17404.457044372652
 30
0.0
 11
18173.68292105991
 21
17254.457044372652
 31
0.0
  0
LINE
  5
17B
  8
CT
 10
18385.18292105991
 20
17519.626492862291
 30
0.0
 11
18385.18292105991
 21
17432.165728111511
 31
0.0
  0
LINE
  5
17C
  8
FUTO
 10
18430.379893261681
 20
17504.457044372652
 30
0.0
 11
18333.68292105991
 21
17504.457044372652
 31
0.0
  0
LINE
  5
17D
  8
FUTO
 10
18443.68292105991
 20
17495.227416436341
 30
0.0
 11
18443.68292105991
 21
17474.457044372652
 31
0.0
  0
LINE
  5
17E
  8
FUTO
 10
18443.68292105991
 20
17474.457044372652
 30
0.0
 11
18333.68292105991
 21
17474.457044372652
 31
0.0
  0
LINE
  5
17F
  8
FUTO
 10
18288.68292105991
 20
17404.457044372652
 30
0.0
 11
18298.68292105991
 21
17474.457044372652
 31
0.0
  0
LINE
  5
180
  8
CT
 10
18613.68292105991
 20
17263.038659184189
 30
0.0
 11
18613.68292105991
 21
17928.555058569251
 31
0.0
  0
LINE
  5
181
  8
FUTO
 10
18769.16205333552
 20
17486.266367005181
 30
0.0
 11
18458.2037887843
 21
17486.266367005181
 31
0.0
  0
LINE
  5
182
  8
FUTO
 10
18513.68292105991
 20
17464.457044372652
 30
0.0
 11
18713.68292105991
 21
17464.457044372652
 31
0.0
  0
LINE
  5
183
  8
FUTO
 10
18513.68292105991
 20
17414.457044372652
 30
0.0
 11
18713.68292105991
 21
17414.457044372652
 31
0.0
  0
LINE
  5
184
  8
FUTO
 10
18513.68292105991
 20
17464.457044372652
 30
0.0
 11
18513.68292105991
 21
17474.457044372652
 31
0.0
  0
LINE
  5
185
  8
FUTO
 10
18513.68292105991
 20
17404.457044372652
 30
0.0
 11
18513.68292105991
 21
17414.457044372652
 31
0.0
  0
LINE
  5
186
  8
CT
 10
18842.18292105991
 20
17519.626492862291
 30
0.0
 11
18842.18292105991
 21
17428.00092979004
 31
0.0
  0
LINE
  5
187
  8
FUTO
 10
18783.68292105991
 20
17495.227416436341
 30
0.0
 11
18783.68292105991
 21
17474.457044372652
 31
0.0
  0
LINE
  5
188
  8
FUTO
 10
18713.68292105991
 20
17464.457044372652
 30
0.0
 11
18713.68292105991
 21
17474.457044372652
 31
0.0
  0
LINE
  5
189
  8
FUTO
 10
18856.68292105991
 20
17474.457044372652
 30
0.0
 11
18756.68292105991
 21
17474.457044372652
 31
0.0
  0
LINE
  5
18A
  8
FUTO
 10
18713.68292105991
 20
17404.457044372652
 30
0.0
 11
18713.68292105991
 21
17414.457044372652
 31
0.0
  0
LINE
  5
18B
  8
CT
 10
19163.586526950148
 20
17268.98502757986
 30
0.0
 11
19163.586526950148
 21
17214.778252675711
 31
0.0
  0
LINE
  5
1A1
  8
FUTO
 10
19413.68292105991
 20
17234.457044372652
 30
0.0
 11
19413.68292105991
 21
17084.457044372652
 31
0.0
  0
LINE
  5
1A2
  8
FUTO
 10
19404.68292105991
 20
17234.457044372652
 30
0.0
 11
19404.68292105991
 21
17084.457044372652
 31
0.0
  0
LINE
  5
1A3
  8
FUTO
 10
19422.68292105991
 20
17234.457044372652
 30
0.0
 11
19422.68292105991
 21
17084.457044372652
 31
0.0
  0
ARC
  5
1A4
  8
FUTO
 10
19982.68292105991
 20
18715.457044372652
 30
0.0
 40
1443.0
 50
229.06835973620599
 51
245.3021570415371
  0
LINE
  5
1A7
  8
FUTO
 10
18893.682921059921
 20
17621.41569741612
 30
0.0
 11
18893.68292105991
 21
17474.457044372652
 31
0.0
  0
LINE
  5
1A8
  8
FUTO
 10
19070.57271917196
 20
17623.21898441872
 30
0.0
 11
19028.576123305029
 21
17573.570351886068
 31
0.0
  0
LINE
  5
1A9
  8
FUTO
 10
19056.829884604409
 20
17634.84372089096
 30
0.0
 11
19014.833288737482
 21
17585.195088358319
 31
0.0
  0
LINE
  5
1AA
  8
FUTO
 10
19063.68292105991
 20
17629.009622727219
 30
0.0
 11
19021.704706021261
 21
17579.38272012219
 31
0.0
  0
LINE
  5
1AB
  8
FUTO
 10
18928.68292105991
 20
17474.457044372652
 30
0.0
 11
18938.68292105991
 21
17404.457044372652
 31
0.0
  0
LINE
  5
1AC
  8
FUTO
 10
19028.57612330504
 20
17573.570351886061
 30
0.0
 11
19014.833288737482
 21
17585.195088358319
 31
0.0
  0
LINE
  5
1AE
  8
KL
 10
19488.68292105991
 20
17404.457044372652
 30
0.0
 11
19488.68292105991
 21
17254.457044372652
 31
0.0
  0
LINE
  5
1AF
  8
FUTO
 10
19422.68292105991
 20
17404.457044372652
 30
0.0
 11
19422.68292105991
 21
17254.457044372652
 31
0.0
  0
LINE
  5
1B0
  8
FUTO
 10
19404.68292105991
 20
17404.457044372652
 30
0.0
 11
19404.68292105991
 21
17254.457044372652
 31
0.0
  0
LINE
  5
1B1
  8
FUTO
 10
19413.68292105991
 20
17404.457044372652
 30
0.0
 11
19413.68292105991
 21
17254.457044372652
 31
0.0
  0
LINE
  5
1B2
  8
KL
 10
19413.68292105991
 20
17418.62193891107
 30
0.0
 11
19413.68292105991
 21
17254.457044372652
 31
0.0
  0
DIMENSION
  5
1B3
  8
SP
  2
*D15
 10
20113.68292105991
 20
16649.249665654352
 30
0.0
 11
20643.68292105991
 21
16729.249665654352
 31
0.0
 70
     0
 13
21173.68292105991
 23
17084.457044372652
 33
0.0
 14
20113.68292105991
 24
17003.80286936244
 34
0.0
1001
ACAD
1000
DSTYLE
1002
{
1070
    40
1040
40.0
1002
}
  0
LINE
  5
1C2
  8
CT
 10
19954.164682169569
 20
17268.98502757986
 30
0.0
 11
19954.164682169569
 21
17214.778252675711
 31
0.0
  0
LINE
  5
1D4
  8
CT
 10
20991.798504283321
 20
17268.98502757986
 30
0.0
 11
20991.798504283321
 21
17214.778252675711
 31
0.0
  0
LINE
  5
1E2
  8
FUTO
 10
20813.68292105991
 20
17234.457044372652
 30
0.0
 11
20813.68292105991
 21
17084.457044372652
 31
0.0
  0
LINE
  5
1E8
  8
FUTO
 10
21173.68292105991
 20
17234.457044372652
 30
0.0
 11
21173.68292105991
 21
17084.457044372652
 31
0.0
  0
LINE
  5
1EC
  8
KL
 10
20738.68292105991
 20
17404.457044372652
 30
0.0
 11
20738.68292105991
 21
17254.457044372652
 31
0.0
  0
LINE
  5
1ED
  8
FUTO
 10
20813.68292105991
 20
17404.457044372652
 30
0.0
 11
20813.68292105991
 21
17254.457044372652
 31
0.0
  0
LINE
  5
1EE
  8
KL
 10
20813.68292105991
 20
17418.62193891107
 30
0.0
 11
20813.68292105991
 21
17254.457044372652
 31
0.0
  0
LINE
  5
1EF
  8
FUTO
 10
21173.68292105991
 20
17404.457044372652
 30
0.0
 11
21173.68292105991
 21
17254.457044372652
 31
0.0
  0
LINE
  5
1F0
  8
FUTO
 10
18424.803006615071
 20
23511.87989208095
 30
0.0
 11
18424.803006615071
 21
23359.87989208095
 31
0.0
  0
LINE
  5
1F1
  8
FUTO
 10
18173.68292105991
 20
23586.87989208095
 30
0.0
 11
18173.68292105991
 21
23511.87989208095
 31
0.0
  0
LINE
  5
1F2
  8
CT
 10
18613.68292105991
 20
23437.251780639072
 30
0.0
 11
18613.68292105991
 21
21893.785069034289
 31
0.0
  0
LINE
  5
1F3
  8
FUTO
 10
19413.68292105991
 20
23511.879892080939
 30
0.0
 11
19413.68292105991
 21
22139.879892080939
 31
0.0
  0
LINE
  5
1F4
  8
FUTO
 10
19488.682921059899
 20
23511.879892080939
 30
0.0
 11
19488.68292105991
 21
22214.87989208095
 31
0.0
  0
LINE
  5
1F5
  8
FUTO
 10
20738.68292105991
 20
23511.879892080939
 30
0.0
 11
20738.682921059899
 21
22214.87989208095
 31
0.0
  0
LINE
  5
1F6
  8
FUTO
 10
20813.68292105991
 20
23511.879892080939
 30
0.0
 11
20813.68292105991
 21
22139.879892080939
 31
0.0
  0
DIMENSION
  5
253
  8
SP
  2
*D19
 10
20113.68292105991
 20
21046.255060535252
 30
0.0
 11
20696.18292105991
 21
21126.255060535252
 31
0.0
 70
     0
 13
21278.68292105991
 23
20574.457044372652
 33
0.0
 14
20113.68292105991
 24
20574.722582937022
 34
0.0
1001
ACAD
1000
DSTYLE
1002
{
1070
    40
1040
40.0
1002
}
  0
LINE
  5
262
  8
KL
 10
19771.63449523587
 20
18462.457044372652
 30
0.0
 11
19557.569637686222
 21
17838.21502596455
 31
0.0
  0
ARC
  5
263
  8
FUTO
 10
20113.68292105991
 20
18584.457044372652
 30
0.0
 40
480.0
 50
292.25759497155337
 51
125.65684022602289
  0
LINE
  5
264
  8
FUTO
 10
18450.462711615321
 20
17981.963446983362
 30
0.0
 11
19833.876847726329
 21
18974.468020276719
 31
0.0
  0
LINE
  5
265
  8
FUTO
 10
19813.68292105991
 20
18462.457044372652
 30
0.0
 11
19771.63449523587
 21
18462.457044372652
 31
0.0
  0
LINE
  5
267
  8
FUTO
 10
18515.68292105991
 20
18575.457044372652
 30
0.0
 11
19277.710720755771
 21
18575.457044372652
 31
0.0
  0
LINE
  5
268
  8
FUTO
 10
18515.68292105991
 20
18593.457044372652
 30
0.0
 11
19302.800231796879
 21
18593.457044372652
 31
0.0
  0
ARC
  5
269
  8
FUTO
 10
20244.68292105991
 20
18715.457044372652
 30
0.0
 40
1705.0
 50
94.406540507256949
 51
184.10326320891221
  0
ARC
  5
26A
  8
KL
 10
20244.68292105991
 20
18715.457044372652
 30
0.0
 40
1685.0
 50
95.387940861003216
 51
175.16337676580599
  0
LINE
  5
26D
  8
FUTO
 10
19072.68292105991
 20
19953.77889268189
 30
0.0
 11
19072.68292105991
 21
18584.457044372652
 31
0.0
  0
LINE
  5
26E
  8
FUTO
 10
19063.68292105991
 20
19945.198480610361
 30
0.0
 11
19063.68292105991
 21
18584.457044372652
 31
0.0
  0
LINE
  5
26F
  8
KL
 10
18565.68292105991
 20
18584.919693396001
 30
0.0
 11
18565.68292105991
 21
18857.527449454072
 31
0.0
  0
LINE
  5
272
  8
CT
 10
18511.97650643564
 20
18204.457044372652
 30
0.0
 11
18357.679568915952
 21
18204.457044372652
 31
0.0
  0
LINE
  5
273
  8
FUTO
 10
18823.68292105991
 20
18344.457044372652
 30
0.0
 11
18433.68292105991
 21
18344.457044372652
 31
0.0
  0
LINE
  5
274
  8
FUTO
 10
18823.68292105991
 20
18079.457044372652
 30
0.0
 11
18433.68292105991
 21
18079.457044372652
 31
0.0
  0
ARC
  5
275
  8
FUTO
 10
18433.68292105991
 20
18324.457044372652
 30
0.0
 40
20.0
 50
90.0
 51
180.0
  0
ARC
  5
276
  8
FUTO
 10
18433.68292105991
 20
18099.457044372652
 30
0.0
 40
20.0
 50
180.0
 51
270.0
  0
LINE
  5
277
  8
FUTO
 10
18413.68292105991
 20
18324.457044372652
 30
0.0
 11
18413.68292105991
 21
18099.457044372652
 31
0.0
  0
ARC
  5
279
  8
FUTO
 10
18823.68292105991
 20
18324.457044372652
 30
0.0
 40
20.0
 50
0.0
 51
90.0
  0
LINE
  5
27A
  8
KL
 10
18667.329278257679
 20
18173.81713228445
 30
0.0
 11
18631.016040291011
 21
18156.883991328199
 31
0.0
  0
LINE
  5
27B
  8
CT
 10
18730.362124915391
 20
18131.490266663692
 30
0.0
 11
18623.415841679329
 21
18081.620395779511
 31
0.0
  0
LINE
  5
27C
  8
KL
 10
18617.726779803241
 20
18161.720886581152
 30
0.0
 11
18681.119519064341
 21
18025.774718525659
 31
0.0
  0
LINE
  5
27D
  8
KL
 10
18631.016040291011
 20
18156.883991328199
 30
0.0
 11
18685.95641431729
 21
18039.06397901343
 31
0.0
  0
LINE
  5
27E
  8
KL
 10
18663.103095640268
 20
18182.880210154821
 30
0.0
 11
18617.726779803241
 21
18161.720886581152
 31
0.0
  0
LINE
  5
27F
  8
KL
 10
18726.495834901369
 20
18046.934042099329
 30
0.0
 11
18681.119519064341
 21
18025.774718525659
 31
0.0
  0
LINE
  5
280
  8
KL
 10
18722.269652283969
 20
18055.997119969699
 30
0.0
 11
18685.95641431729
 21
18039.06397901343
 31
0.0
  0
ARC
  5
281
  8
FUTO
 10
18823.68292105991
 20
18099.457044372652
 30
0.0
 40
20.0
 50
270.0
 51
0.0
  0
LINE
  5
282
  8
FUTO
 10
18843.68292105991
 20
18324.457044372652
 30
0.0
 11
18843.68292105991
 21
18099.457044372652
 31
0.0
  0
LINE
  5
283
  8
FUTO
 10
18515.68292105991
 20
18593.457044372652
 30
0.0
 11
18515.68292105991
 21
18575.457044372652
 31
0.0
  0
ARC
  5
284
  8
FUTO
 10
19982.68292105991
 20
18715.457044372652
 30
0.0
 40
1443.0
 50
185.5676000385219
 51
194.8982488347483
  0
LINE
  5
285
  8
FUTO
 10
21213.68292105991
 20
18586.457044372652
 30
0.0
 11
21213.68292105991
 21
20574.457044372652
 31
0.0
  0
LINE
  5
286
  8
FUTO
 10
21278.68292105991
 20
18799.01681640499
 30
0.0
 11
21278.68292105991
 21
19826.418985149779
 31
0.0
  0
LINE
  5
287
  8
FUTO
 10
21278.68292105991
 20
18799.01681640499
 30
0.0
 11
21278.68292105991
 21
20574.457044372652
 31
0.0
  0
LINE
  5
288
  8
FUTO
 10
21272.68292105991
 20
18797.95885452073
 30
0.0
 11
21272.68292105991
 21
19832.418985149769
 31
0.0
  0
LINE
  5
289
  8
FUTO
 10
21154.68292105991
 20
20513.850681632252
 30
0.0
 11
21154.68292105991
 21
18593.457044372652
 31
0.0
  0
LINE
  5
28A
  8
FUTO
 10
21163.682921059899
 20
20514.699520979681
 30
0.0
 11
21163.68292105991
 21
18593.457044372652
 31
0.0
  0
LINE
  5
291
  8
KL
 10
20311.903735297208
 20
18557.839215702719
 30
0.0
 11
20590.926435894999
 21
18533.08947145116
 31
0.0
  0
LINE
  5
292
  8
KL
 10
20313.49411880102
 20
18575.768819164899
 30
0.0
 11
20592.516819398821
 21
18551.019074913329
 31
0.0
  0
LINE
  5
294
  8
FUTO
 10
20413.68292105991
 20
18462.457044372652
 30
0.0
 11
20455.731346883949
 21
18462.457044372652
 31
0.0
  0
CIRCLE
  5
295
  8
SL
 10
20113.68292105991
 20
18584.457044372652
 30
0.0
 40
355.0
  0
ARC
  5
296
  8
FUTO
 10
20165.68292105991
 20
18674.523686366229
 30
0.0
 40
15.000000000000099
 50
325.86450299682889
 51
154.1354970031779
  0
ARC
  5
297
  8
FUTO
 10
20113.68292105991
 20
18584.457044372652
 30
0.0
 40
103.9999999999995
 50
68.270994006339876
 51
111.72900599366061
  0
LINE
  5
298
  8
CT
 10
20113.68292105991
 20
18708.22580353736
 30
0.0
 11
20113.68292105991
 21
18454.63332047053
 31
0.0
  0
ARC
  5
299
  8
FUTO
 10
20061.68292105991
 20
18674.523686366229
 30
0.0
 40
15.000000000000201
 50
25.864502996822321
 51
214.13549700317051
  0
ARC
  5
29E
  8
FUTO
 10
20165.68292105991
 20
18494.390402379071
 30
0.0
 40
14.99999999999998
 50
205.8645029968221
 51
34.135497003171587
  0
CIRCLE
  5
29F
  8
FUTO
 10
20113.68292105991
 20
18584.457044372652
 30
0.0
 40
41.5
  0
LINE
  5
2A0
  8
FUTO
 10
20028.68292105991
 20
18477.457044372652
 30
0.0
 11
20198.68292105991
 21
18477.457044372652
 31
0.0
  0
LINE
  5
2A2
  8
KL
 10
20455.731346883949
 20
18462.457044372652
 30
0.0
 11
20113.68292105991
 21
18462.457044372652
 31
0.0
  0
LINE
  5
2A4
  8
FUTO
 10
19989.68292105991
 20
18508.457044372652
 30
0.0
 11
19921.68292105991
 21
18508.457044372652
 31
0.0
  0
LINE
  5
2A5
  8
FUTO
 10
19908.68292105991
 20
18472.457044372652
 30
0.0
 11
20028.68292105991
 21
18472.457044372652
 31
0.0
  0
LINE
  5
2A6
  8
KL
 10
19771.63449523587
 20
18462.457044372652
 30
0.0
 11
20113.68292105991
 21
18462.457044372652
 31
0.0
  0
LINE
  5
2A7
  8
FUTO
 10
19908.68292105991
 20
18472.457044372652
 30
0.0
 11
19908.68292105991
 21
18462.457044372652
 31
0.0
  0
ARC
  5
2A8
  8
FUTO
 10
19921.68292105991
 20
18505.457044372652
 30
0.0
 40
3.0
 50
90.0
 51
180.0
  0
LINE
  5
2A9
  8
FUTO
 10
19918.68292105991
 20
18505.457044372652
 30
0.0
 11
19918.68292105991
 21
18472.457044372652
 31
0.0
  0
LINE
  5
2AA
  8
KL
 10
19913.68292105991
 20
18593.457044372652
 30
0.0
 11
19913.68292105991
 21
18575.457044372652
 31
0.0
  0
ARC
  5
2AD
  8
FUTO
 10
20113.68292105991
 20
18584.457044372652
 30
0.0
 40
104.0000000000007
 50
248.2709940063402
 51
291.72900599366039
  0
ARC
  5
2AE
  8
FUTO
 10
20009.68292105991
 20
18584.457044372652
 30
0.0
 40
15.0
 50
85.864502996829486
 51
274.13549700317049
  0
ARC
  5
2AF
  8
FUTO
 10
19989.68292105991
 20
18528.457044372652
 30
0.0
 40
20.0
 50
270.0
 51
0.0
  0
LINE
  5
2B0
  8
FUTO
 10
20028.68292105991
 20
18472.457044372652
 30
0.0
 11
20028.68292105991
 21
18477.457044372652
 31
0.0
  0
LINE
  5
2B1
  8
CT
 10
19953.68292105991
 20
18462.457044372652
 30
0.0
 11
19953.68292105991
 21
18518.457044372652
 31
0.0
  0
LINE
  5
2B2
  8
FUTO
 10
20009.68292105991
 20
18569.457044372652
 30
0.0
 11
20009.68292105991
 21
18528.457044372652
 31
0.0
  0
ARC
  5
2B3
  8
FUTO
 10
20061.68292105991
 20
18494.390402379071
 30
0.0
 40
14.999999999999719
 50
145.86450299682909
 51
334.13549700317708
  0
ARC
  5
2B4
  8
FUTO
 10
20113.68292105991
 20
18584.457044372652
 30
0.0
 40
104.0000000000002
 50
188.27099400634
 51
231.72900599366079
  0
ARC
  5
2B5
  8
FUTO
 10
20113.68292105991
 20
18584.457044372652
 30
0.0
 40
103.9999999999998
 50
128.27099400633969
 51
171.72900599366039
  0
LINE
  5
2B6
  8
KL
 10
20313.49411880102
 20
18575.768819164899
 30
0.0
 11
20311.903735297208
 21
18557.839215702719
 31
0.0
  0
LINE
  5
2B7
  8
FUTO
 10
20318.68292105991
 20
18462.457044372652
 30
0.0
 11
20318.68292105991
 21
18472.457044372652
 31
0.0
  0
ARC
  5
2B8
  8
FUTO
 10
20305.68292105991
 20
18505.457044372652
 30
0.0
 40
3.0
 50
0.0
 51
90.0
  0
LINE
  5
2B9
  8
FUTO
 10
20308.68292105991
 20
18472.457044372652
 30
0.0
 11
20308.68292105991
 21
18505.457044372652
 31
0.0
  0
LINE
  5
2BA
  8
CT
 10
20273.68292105991
 20
18462.457044372652
 30
0.0
 11
20273.68292105991
 21
18518.457044372652
 31
0.0
  0
LINE
  5
2BB
  8
FUTO
 10
20305.68292105991
 20
18508.457044372652
 30
0.0
 11
20237.68292105991
 21
18508.457044372652
 31
0.0
  0
LINE
  5
2BC
  8
FUTO
 10
20217.68292105991
 20
18528.457044372652
 30
0.0
 11
20217.68292105991
 21
18569.457044372652
 31
0.0
  0
ARC
  5
2BD
  8
FUTO
 10
20237.68292105991
 20
18528.457044372652
 30
0.0
 40
20.0
 50
180.0
 51
270.0
  0
LINE
  5
2BE
  8
FUTO
 10
20198.68292105991
 20
18477.457044372652
 30
0.0
 11
20198.68292105991
 21
18472.457044372652
 31
0.0
  0
LINE
  5
2BF
  8
FUTO
 10
20198.68292105991
 20
18472.457044372652
 30
0.0
 11
20318.68292105991
 21
18472.457044372652
 31
0.0
  0
ARC
  5
2C0
  8
FUTO
 10
20217.68292105991
 20
18584.457044372652
 30
0.0
 40
15.0
 50
270.0
 51
94.135497003170499
  0
ARC
  5
2C1
  8
FUTO
 10
20113.68292105991
 20
18584.457044372652
 30
0.0
 40
103.9999999999998
 50
308.27099400633961
 51
351.72900599366039
  0
ARC
  5
2C2
  8
FUTO
 10
20113.68292105991
 20
18584.457044372652
 30
0.0
 40
103.9999999999994
 50
8.2709940063397092
 51
51.729005993660358
  0
INSERT
  5
2C5
  8
FUTO
  2
左回転矢印
 10
20301.117527612161
 20
19282.89611772159
 30
0.0
 41
-2.0
 42
2.0
 43
2.0
  0
LINE
  5
2D0
  8
FUTO
 10
20140.737423577011
 20
18684.876434400441
 30
0.0
 11
20140.737423577011
 21
18688.457044372652
 31
0.0
  0
LINE
  5
2D1
  8
FUTO
 10
20086.628418542809
 20
18684.876434400441
 30
0.0
 11
20086.628418542809
 21
18688.457044372652
 31
0.0
  0
LINE
  5
2D2
  8
FUTO
 10
20086.628418542809
 20
18688.457044372652
 30
0.0
 11
20140.737423577011
 21
18688.457044372652
 31
0.0
  0
LINE
  5
2D3
  8
FUTO
 10
21272.68292105991
 20
18586.457044372652
 30
0.0
 11
21272.68292105991
 21
18833.805435312781
 31
0.0
  0
LINE
  5
2D4
  8
FUTO
 10
21278.68292105991
 20
18586.457044372652
 30
0.0
 11
21278.68292105991
 21
18835.144018471739
 31
0.0
  0
LINE
  5
2D5
  8
FUTO
 10
21278.68292105991
 20
18586.457044372652
 30
0.0
 11
21278.68292105991
 21
18780.73913739104
 31
0.0
  0
ARC
  5
2D6
  8
KL
 10
20224.18292105991
 20
18473.957044372652
 30
0.0
 40
960.5
 50
0.0
 51
35.700636604433633
  0
LINE
  5
2D8
  8
FUTO
 10
21193.77941021986
 20
18635.457044372652
 30
0.0
 11
21278.68292105991
 21
18635.457044372652
 31
0.0
  0
LINE
  5
2D9
  8
FUTO
 10
21213.68292105991
 20
18586.457044372652
 30
0.0
 11
21278.68292105991
 21
18586.457044372652
 31
0.0
  0
LINE
  5
2DA
  8
FUTO
 10
21213.68292105991
 20
18586.457044372652
 30
0.0
 11
21278.68292105991
 21
18586.457044372652
 31
0.0
  0
LINE
  5
2DB
  8
KL
 10
21167.378552941231
 20
18655.457044372652
 30
0.0
 11
21278.68292105991
 21
18655.457044372652
 31
0.0
  0
LINE
  5
2DC
  8
FUTO
 10
21301.450211466941
 20
18488.135588704201
 30
0.0
 11
21303.859872170011
 21
18469.851175146268
 31
0.0
  0
LINE
  5
2DD
  8
FUTO
 10
21278.68292105991
 20
20525.54580153025
 30
0.0
 11
20084.585512010599
 21
20412.923927588839
 31
0.0
  0
LINE
  5
2DE
  8
KL
 10
21278.68292105991
 20
20505.457044372652
 30
0.0
 11
20086.463487483321
 21
20393.0122925951
 31
0.0
  0
LINE
  5
2E3
  8
FUTO
 10
21272.68292105991
 20
19832.418985149769
 30
0.0
 11
21272.68292105991
 21
20574.457044372652
 31
0.0
  0
LINE
  5
2E4
  8
FUTO
 10
21213.68292105991
 20
20574.457044372652
 30
0.0
 11
21278.68292105991
 21
20574.457044372652
 31
0.0
  0
LINE
  5
2FF
  8
FUTO
 10
18173.68292105991
 20
22214.87989208095
 30
0.0
 11
20813.68292105991
 21
22214.87989208095
 31
0.0
  0
LINE
  5
300
  8
FUTO
 10
18173.68292105991
 20
22139.87989208095
 30
0.0
 11
20813.68292105991
 21
22139.879892080939
 31
0.0
  0
LINE
  5
3C8
  8
FUTO
 10
18559.68292105991
 20
24914.87989208095
 30
0.0
 11
21278.68292105991
 21
24914.87989208095
 31
0.0
  0
LINE
  5
3C9
  8
FUTO
 10
19053.68292105991
 20
23586.87989208095
 30
0.0
 11
21278.68292105991
 21
23586.87989208095
 31
0.0
  0
LINE
  5
3CA
  8
FUTO
 10
19053.68292105991
 20
23511.87989208095
 30
0.0
 11
21173.68292105991
 21
23511.879892080939
 31
0.0
  0
LINE
  5
3CB
  8
FUTO
 10
19053.68292105991
 20
24989.87989208095
 30
0.0
 11
21173.68292105991
 21
24989.87989208095
 31
0.0
  0
LINE
  5
3DA
  8
FUTO
 10
18173.68292105991
 20
23511.87989208095
 30
0.0
 11
19413.68292105991
 21
23511.87989208095
 31
0.0
  0
LINE
  5
3DB
  8
FUTO
 10
18173.68292105991
 20
23586.87989208095
 30
0.0
 11
18509.68292105991
 21
23586.87989208095
 31
0.0
  0
LINE
  5
406
  8
FUTO
 10
21173.682921059899
 20
23511.879892080939
 30
0.0
 11
21173.682921059899
 21
23536.879892080939
 31
0.0
  0
LINE
  5
438
  8
SL
 10
23024.258366020102
 20
18862.830844372649
 30
0.0
 11
23024.258366020091
 21
17862.830844372649
 31
0.0
  0
LINE
  5
439
  8
SL
 10
22854.258366020091
 20
18862.830844372649
 30
0.0
 11
22854.258366020102
 21
17862.830844372649
 31
0.0
  0
LINE
  5
43A
  8
CT
 10
25154.258366020091
 20
20766.1994407044
 30
0.0
 11
25154.258366020102
 21
17063.52997577273
 31
0.0
  0
LINE
  5
43C
  8
FUTO
 10
25817.458366020099
 20
17404.457027766672
 30
0.0
 11
25817.458366020099
 21
18651.53084437265
 31
0.0
  0
LINE
  5
43D
  8
FUTO
 10
25814.258366020102
 20
17404.457027766672
 30
0.0
 11
25814.258366020091
 21
18651.53084437265
 31
0.0
  0
LINE
  5
43E
  8
FUTO
 10
24494.258366020102
 20
17404.457027766672
 30
0.0
 11
24494.258366020102
 21
18651.53084437265
 31
0.0
  0
LINE
  5
43F
  8
FUTO
 10
24491.058366020101
 20
17404.457027766672
 30
0.0
 11
24491.058366020101
 21
18651.53084437265
 31
0.0
  0
LINE
  5
441
  8
FUTO
 10
23054.258366020102
 20
18962.830844372649
 30
0.0
 11
23054.258366020102
 21
17502.830844372649
 31
0.0
  0
LINE
  5
442
  8
FUTO
 10
22704.258366020091
 20
18962.830844372649
 30
0.0
 11
22704.258366020102
 21
17502.830844372649
 31
0.0
  0
LINE
  5
445
  8
FUTO
 10
24104.258366020091
 20
18432.830844372649
 30
0.0
 11
24104.258366020091
 21
18422.830844372649
 31
0.0
  0
LINE
  5
446
  8
FUTO
 10
24284.258366020102
 20
18432.830844372649
 30
0.0
 11
24284.258366020091
 21
17404.457027766672
 31
0.0
  0
LINE
  5
449
  8
FUTO
 10
23283.258366020102
 20
18460.830844372649
 30
0.0
 11
23283.258366020102
 21
18422.83084437266
 31
0.0
  0
LINE
  5
44A
  8
FUTO
 10
23103.258366020102
 20
18460.830844372649
 30
0.0
 11
23103.258366020102
 21
17404.457027766672
 31
0.0
  0
DIMENSION
  5
44B
  8
SP
  2
*D20
 10
26529.266508231831
 20
17682.830844372649
 30
0.0
 11
26449.26650823182
 21
18582.83084437266
 31
0.0
 70
     0
  1
%%C<>
 13
25949.258366020102
 23
19482.830844372649
 33
0.0
 14
25949.258366020102
 24
17682.830844372649
 34
0.0
 50
90.0
1001
ACAD
1000
DSTYLE
1002
{
1070
    40
1040
40.0
1002
}
  0
LINE
  5
461
  8
KL
 10
25823.458366020099
 20
19547.830844372649
 30
0.0
 11
25823.458366020099
 21
17617.830844372649
 31
0.0
  0
LINE
  5
462
  8
FUTO
 10
25943.258366020102
 20
19547.830844372649
 30
0.0
 11
25943.258366020102
 21
17617.830844372649
 31
0.0
  0
LINE
  5
463
  8
FUTO
 10
25949.258366020091
 20
19547.830844372649
 30
0.0
 11
25949.258366020102
 21
17617.830844372649
 31
0.0
  0
LINE
  5
464
  8
FUTO
 10
24401.058366020101
 20
18461.045267364359
 30
0.0
 11
24401.058366020101
 21
17404.457027766672
 31
0.0
  0
LINE
  5
465
  8
FUTO
 10
25907.458366020091
 20
18461.045267364359
 30
0.0
 11
25907.458366020091
 21
17404.457027766672
 31
0.0
  0
LINE
  5
46B
  8
FUTO
 10
24415.258366020102
 20
17222.457027766672
 30
0.0
 11
25818.254366020101
 21
17222.457027766672
 31
0.0
  0
LINE
  5
46C
  8
FUTO
 10
24415.258366020102
 20
17096.457027766672
 30
0.0
 11
25818.254366020101
 21
17096.457027766672
 31
0.0
  0
LINE
  5
46D
  8
FUTO
 10
24415.258366020102
 20
17266.457027766672
 30
0.0
 11
25818.254366020101
 21
17266.457027766672
 31
0.0
  0
LINE
  5
46E
  8
FUTO
 10
24415.258366020102
 20
17392.457027766672
 30
0.0
 11
25818.254366020101
 21
17392.457027766672
 31
0.0
  0
LINE
  5
46F
  8
KL
 10
24494.258366020102
 20
17290.830844372649
 30
0.0
 11
25814.258366020102
 21
17290.830844372649
 31
0.0
  0
LINE
  5
470
  8
FUTO
 10
23043.262366020099
 20
17234.457027766672
 30
0.0
 11
25893.25436602009
 21
17234.457027766672
 31
0.0
1001
ACAD
1000
ASC_BOUNDS
1002
{
1070
    19
1002
}
  0
LINE
  5
471
  8
FUTO
 10
23043.258366020091
 20
17254.457027766661
 30
0.0
 11
25893.258366020102
 21
17254.457027766672
 31
0.0
1001
ACAD
1000
ASC_BOUNDS
1002
{
1070
    19
1005
0
1005
0
1005
0
1002
}
  0
DIMENSION
  5
472
  8
SP
  2
*D17
 10
25154.258366020102
 20
16644.976415002351
 30
0.0
 11
24098.758366020102
 21
16724.976415002351
 31
0.0
 70
     0
 13
23043.258366020102
 23
17084.457027766672
 33
0.0
 14
25154.258366020102
 24
17063.52997577273
 34
0.0
1001
ACAD
1000
DSTYLE
1002
{
1070
    40
1040
40.0
1002
}
  0
DIMENSION
  5
47F
  8
SP
  2
*D16
 10
25893.258366020102
 20
16344.938870037429
 30
0.0
 11
24468.258366020102
 21
16424.938870037429
 31
0.0
 70
     0
 13
23043.258366020102
 23
17084.457027766672
 33
0.0
 14
25893.258366020102
 24
17084.457027766672
 34
0.0
1001
ACAD
1000
DSTYLE
1002
{
1070
    40
1040
40.0
1002
}
  0
LINE
  5
48C
  8
FUTO
 10
23043.258366020102
 20
17084.457027766672
 30
0.0
 11
25893.254366020101
 21
17084.457027766672
 31
0.0
  0
LINE
  5
48D
  8
FUTO
 10
23043.258366020102
 20
17404.457027766672
 30
0.0
 11
25907.458366020091
 21
17404.457027766672
 31
0.0
  0
LINE
  5
48E
  8
CT
 10
22645.949094471191
 20
17752.830844372649
 30
0.0
 11
23226.4516273273
 21
17752.830844372649
 31
0.0
  0
LINE
  5
491
  8
FUTO
 10
23118.262366020099
 20
17096.457027766672
 30
0.0
 11
24397.368470625599
 21
17096.457027766661
 31
0.0
  0
LINE
  5
492
  8
FUTO
 10
23118.262366020099
 20
17222.457027766672
 30
0.0
 11
24397.368470625621
 21
17222.457027766672
 31
0.0
  0
LINE
  5
493
  8
FUTO
 10
23118.262366020099
 20
17392.457027766672
 30
0.0
 11
24397.368470625621
 21
17392.457027766672
 31
0.0
  0
LINE
  5
494
  8
FUTO
 10
23118.262366020099
 20
17266.457027766672
 30
0.0
 11
24397.368470625621
 21
17266.457027766672
 31
0.0
  0
LINE
  5
495
  8
CT
 10
23078.262366020099
 20
17267.358827579861
 30
0.0
 11
23078.262366020099
 21
17213.152052675709
 31
0.0
  0
LINE
  5
4AA
  8
FUTO
 10
23118.262366020099
 20
17234.457027766672
 30
0.0
 11
23118.262366020099
 21
17084.457027766672
 31
0.0
  0
LINE
  5
4AB
  8
FUTO
 10
23118.262366020099
 20
17084.457027766672
 30
0.0
 11
23043.262366020099
 21
17084.457027766672
 31
0.0
  0
LINE
  5
4AC
  8
FUTO
 10
23108.110988991091
 20
17097.134060396129
 30
0.0
 11
23046.91374304911
 21
17091.7799951372
 31
0.0
  0
LINE
  5
4AD
  8
FUTO
 10
23118.262366020099
 20
17234.457027766672
 30
0.0
 11
23043.262366020099
 21
17234.457027766672
 31
0.0
1001
ACAD
1000
ASC_BOUNDS
1002
{
1070
    19
1002
}
  0
LINE
  5
4AE
  8
FUTO
 10
23108.110988991091
 20
17221.7799951372
 30
0.0
 11
23046.91374304911
 21
17227.134060396129
 31
0.0
  0
LINE
  5
4AF
  8
FUTO
 10
23111.762366020099
 20
17217.795216344832
 30
0.0
 11
23111.762366020099
 21
17101.118839188501
 31
0.0
  0
ARC
  5
4B0
  8
FUTO
 10
23107.762366020099
 20
17101.118839188501
 30
0.0
 40
4.0
 50
274.99999999999972
 51
0.0
  0
LINE
  5
4B1
  8
FUTO
 10
23118.262366020099
 20
17234.457027766672
 30
0.0
 11
23118.262366020099
 21
17084.457027766672
 31
0.0
  0
ARC
  5
4B2
  8
FUTO
 10
23107.762366020099
 20
17217.795216344832
 30
0.0
 40
4.0
 50
0.0
 51
85.000000000000256
  0
ARC
  5
4B3
  8
FUTO
 10
23047.262366020099
 20
17087.795216344832
 30
0.0
 40
4.0
 50
95.000000000000185
 51
180.0
  0
LINE
  5
4B4
  8
FUTO
 10
23043.262366020099
 20
17084.457027766672
 30
0.0
 11
23043.262366020099
 21
17087.795216344832
 31
0.0
  0
LINE
  5
4B5
  8
FUTO
 10
23043.262366020099
 20
17234.457027766672
 30
0.0
 11
23043.262366020099
 21
17231.118839188501
 31
0.0
  0
ARC
  5
4B6
  8
FUTO
 10
23047.262366020099
 20
17231.118839188501
 30
0.0
 40
4.0
 50
180.0
 51
264.99999999999977
  0
ARC
  5
4B7
  8
FUTO
 10
23048.258366020102
 20
17086.87902776667
 30
0.0
 40
5.0
 50
95.001000000000005
 51
180.00099999999989
  0
LINE
  5
4B8
  8
FUTO
 10
23047.825366020101
 20
17091.860027766659
 30
0.0
 11
23102.62936602009
 21
17096.657027766661
 31
0.0
  0
LINE
  5
4B9
  8
FUTO
 10
23043.258366020102
 20
17084.457027766672
 30
0.0
 11
23043.258366020102
 21
17086.87902776667
 31
0.0
  0
LINE
  5
4BA
  8
FUTO
 10
23043.258366020102
 20
17084.457027766672
 30
0.0
 11
23118.258366020102
 21
17084.457027766672
 31
0.0
  0
LINE
  5
4BB
  8
SL
 10
23024.258366020091
 20
17862.830844372649
 30
0.0
 11
23024.258366020102
 21
17612.830844372649
 31
0.0
  0
LINE
  5
4BC
  8
SL
 10
22854.258366020102
 20
17862.830844372649
 30
0.0
 11
22854.258366020102
 21
17612.830844372649
 31
0.0
  0
LINE
  5
4BD
  8
SL
 10
22854.258366020102
 20
17612.830844372649
 30
0.0
 11
23024.258366020091
 21
17612.830844372649
 31
0.0
  0
LINE
  5
4BE
  8
FUTO
 10
22704.258366020102
 20
17502.830844372649
 30
0.0
 11
23054.258366020102
 21
17502.830844372649
 31
0.0
  0
LINE
  5
4C1
  8
FUTO
 10
23043.258366020102
 20
17254.457027766672
 30
0.0
 11
23118.258366020102
 21
17254.457027766672
 31
0.0
  0
LINE
  5
4C2
  8
FUTO
 10
23043.258366020102
 20
17254.457027766672
 30
0.0
 11
23043.258366020102
 21
17256.87902776667
 31
0.0
  0
LINE
  5
4C3
  8
FUTO
 10
23047.825366020101
 20
17261.86002776667
 30
0.0
 11
23102.62936602009
 21
17266.657027766661
 31
0.0
  0
ARC
  5
4C4
  8
FUTO
 10
23047.262366020099
 20
17401.118839188501
 30
0.0
 40
4.0
 50
180.0
 51
264.99999999999977
  0
LINE
  5
4C5
  8
FUTO
 10
23043.262366020099
 20
17404.457027766672
 30
0.0
 11
23043.262366020099
 21
17401.118839188501
 31
0.0
  0
LINE
  5
4C6
  8
FUTO
 10
23043.262366020099
 20
17254.457027766672
 30
0.0
 11
23043.262366020099
 21
17257.795216344832
 31
0.0
  0
ARC
  5
4C7
  8
FUTO
 10
23047.262366020099
 20
17257.795216344832
 30
0.0
 40
4.0
 50
95.000000000000185
 51
180.0
  0
ARC
  5
4C8
  8
FUTO
 10
23107.762366020099
 20
17387.795216344832
 30
0.0
 40
4.0
 50
0.0
 51
85.000000000000256
  0
LINE
  5
4C9
  8
FUTO
 10
23118.262366020099
 20
17404.457027766672
 30
0.0
 11
23118.262366020099
 21
17254.457027766672
 31
0.0
  0
ARC
  5
4CA
  8
FUTO
 10
23107.762366020099
 20
17271.118839188501
 30
0.0
 40
4.0
 50
274.99999999999972
 51
0.0
  0
LINE
  5
4CB
  8
FUTO
 10
23111.762366020099
 20
17387.795216344832
 30
0.0
 11
23111.762366020099
 21
17271.118839188501
 31
0.0
  0
LINE
  5
4CC
  8
FUTO
 10
23108.110988991091
 20
17391.7799951372
 30
0.0
 11
23046.91374304911
 21
17397.134060396129
 31
0.0
  0
LINE
  5
4CD
  8
FUTO
 10
23118.262366020099
 20
17404.457027766672
 30
0.0
 11
23043.262366020099
 21
17404.457027766672
 31
0.0
  0
LINE
  5
4CE
  8
FUTO
 10
23108.110988991091
 20
17267.134060396129
 30
0.0
 11
23046.91374304911
 21
17261.7799951372
 31
0.0
  0
LINE
  5
4CF
  8
FUTO
 10
23118.262366020099
 20
17254.457027766672
 30
0.0
 11
23043.262366020099
 21
17254.457027766672
 31
0.0
  0
LINE
  5
4D0
  8
FUTO
 10
23118.262366020099
 20
17404.457027766672
 30
0.0
 11
23118.262366020099
 21
17254.457027766672
 31
0.0
  0
LINE
  5
4D1
  8
SL
 10
22854.258366020102
 20
17892.830844372649
 30
0.0
 11
23024.258366020091
 21
17892.830844372649
 31
0.0
  0
LINE
  5
4D5
  8
CT
 10
24375.258366020102
 20
17267.358827579861
 30
0.0
 11
24375.258366020102
 21
17213.152052675709
 31
0.0
  0
LINE
  5
4DC
  8
1
 10
24341.059366020101
 20
17084.457027766672
 30
0.0
 11
24416.059366020101
 21
17084.457027766672
 31
0.0
  0
LINE
  5
4E9
  8
FUTO
 10
24415.258366020102
 20
17084.457027766672
 30
0.0
 11
24340.258366020102
 21
17084.457027766672
 31
0.0
  0
LINE
  5
4EA
  8
FUTO
 10
24405.10698899109
 20
17097.134060396129
 30
0.0
 11
24343.909743049109
 21
17091.7799951372
 31
0.0
  0
LINE
  5
4EB
  8
FUTO
 10
24340.254366020101
 20
17084.457027766672
 30
0.0
 11
24415.254366020101
 21
17084.457027766672
 31
0.0
  0
LINE
  5
4EC
  8
FUTO
 10
24415.258366020102
 20
17234.457027766672
 30
0.0
 11
24340.258366020102
 21
17234.457027766672
 31
0.0
  0
LINE
  5
4ED
  8
FUTO
 10
24405.10698899109
 20
17221.7799951372
 30
0.0
 11
24343.909743049109
 21
17227.134060396129
 31
0.0
  0
ARC
  5
4EE
  8
FUTO
 10
24344.258366020102
 20
17087.795216344832
 30
0.0
 40
4.0
 50
95.000000000000185
 51
180.0
  0
LINE
  5
4EF
  8
FUTO
 10
24340.258366020102
 20
17084.457027766672
 30
0.0
 11
24340.258366020102
 21
17087.795216344832
 31
0.0
  0
LINE
  5
4F0
  8
FUTO
 10
24340.254366020101
 20
17084.457027766672
 30
0.0
 11
24340.254366020101
 21
17086.87902776667
 31
0.0
  0
LINE
  5
4F1
  8
FUTO
 10
24340.258366020102
 20
17234.457027766672
 30
0.0
 11
24340.258366020102
 21
17231.118839188501
 31
0.0
  0
ARC
  5
4F2
  8
FUTO
 10
24344.258366020102
 20
17231.118839188501
 30
0.0
 40
4.0
 50
180.0
 51
264.99999999999972
  0
LINE
  5
4F3
  8
FUTO
 10
24344.8213660201
 20
17091.860027766659
 30
0.0
 11
24399.625366020089
 21
17096.657027766661
 31
0.0
  0
LINE
  5
4F4
  8
FUTO
 10
24415.258366020102
 20
17234.457027766672
 30
0.0
 11
24415.258366020102
 21
17084.457027766672
 31
0.0
  0
LINE
  5
4F5
  8
FUTO
 10
24408.758366020102
 20
17217.795216344832
 30
0.0
 11
24408.758366020102
 21
17101.118839188501
 31
0.0
  0
LINE
  5
4F6
  8
FUTO
 10
24415.258366020102
 20
17234.457027766672
 30
0.0
 11
24415.258366020102
 21
17084.457027766672
 31
0.0
  0
ARC
  5
4F7
  8
FUTO
 10
24404.758366020102
 20
17101.118839188501
 30
0.0
 40
4.0
 50
275.0
 51
0.0
  0
ARC
  5
4F8
  8
FUTO
 10
24404.758366020102
 20
17217.795216344832
 30
0.0
 40
4.0
 50
0.0
 51
84.999999999999957
  0
LINE
  5
4FF
  8
1
 10
24341.059366020101
 20
17254.457027766672
 30
0.0
 11
24416.059366020101
 21
17254.457027766672
 31
0.0
  0
LINE
  5
501
  8
FUTO
 10
24415.258366020102
 20
17404.457027766672
 30
0.0
 11
24340.258366020102
 21
17404.457027766672
 31
0.0
  0
LINE
  5
502
  8
FUTO
 10
24405.10698899109
 20
17391.7799951372
 30
0.0
 11
24343.909743049109
 21
17397.134060396129
 31
0.0
  0
ARC
  5
503
  8
FUTO
 10
24404.758366020102
 20
17387.795216344832
 30
0.0
 40
4.0
 50
0.0
 51
84.999999999999957
  0
LINE
  5
504
  8
FUTO
 10
24340.258366020102
 20
17404.457027766672
 30
0.0
 11
24340.258366020102
 21
17401.118839188501
 31
0.0
  0
ARC
  5
505
  8
FUTO
 10
24344.258366020102
 20
17401.118839188501
 30
0.0
 40
4.0
 50
180.0
 51
264.99999999999972
  0
LINE
  5
506
  8
FUTO
 10
24415.258366020102
 20
17254.457027766672
 30
0.0
 11
24340.258366020102
 21
17254.457027766672
 31
0.0
  0
LINE
  5
507
  8
FUTO
 10
24405.10698899109
 20
17267.134060396129
 30
0.0
 11
24343.909743049109
 21
17261.7799951372
 31
0.0
  0
ARC
  5
508
  8
FUTO
 10
24404.758366020102
 20
17271.118839188501
 30
0.0
 40
4.0
 50
275.0
 51
0.0
  0
ARC
  5
509
  8
FUTO
 10
24344.258366020102
 20
17257.795216344832
 30
0.0
 40
4.0
 50
95.000000000000185
 51
180.0
  0
LINE
  5
50A
  8
FUTO
 10
24340.258366020102
 20
17254.457027766672
 30
0.0
 11
24340.258366020102
 21
17257.795216344832
 31
0.0
  0
LINE
  5
50B
  8
FUTO
 10
24340.254366020101
 20
17254.457027766672
 30
0.0
 11
24340.254366020101
 21
17256.87902776667
 31
0.0
  0
LINE
  5
50C
  8
FUTO
 10
24344.8213660201
 20
17261.86002776667
 30
0.0
 11
24399.625366020089
 21
17266.657027766661
 31
0.0
  0
LINE
  5
50D
  8
FUTO
 10
24340.254366020101
 20
17254.457027766672
 30
0.0
 11
24415.254366020101
 21
17254.457027766672
 31
0.0
  0
LINE
  5
50E
  8
FUTO
 10
24415.258366020102
 20
17404.457027766672
 30
0.0
 11
24415.258366020102
 21
17254.457027766672
 31
0.0
  0
LINE
  5
50F
  8
FUTO
 10
24408.758366020102
 20
17387.795216344832
 30
0.0
 11
24408.758366020102
 21
17271.118839188501
 31
0.0
  0
LINE
  5
510
  8
FUTO
 10
24415.258366020102
 20
17404.457027766672
 30
0.0
 11
24415.258366020102
 21
17254.457027766672
 31
0.0
  0
LINE
  5
511
  8
FUTO
 10
24491.058366020101
 20
17275.830844372649
 30
0.0
 11
24494.258366020102
 21
17275.830844372649
 31
0.0
  0
LINE
  5
512
  8
KL
 10
24491.058366020101
 20
17275.830844372649
 30
0.0
 11
24491.058366020101
 21
17404.457027766672
 31
0.0
  0
LINE
  5
513
  8
KL
 10
24494.258366020102
 20
17275.830844372649
 30
0.0
 11
24494.258366020102
 21
17404.457027766672
 31
0.0
  0
DIMENSION
  5
517
  8
SP
  2
*D18
 10
25893.258366020102
 20
16644.976415002351
 30
0.0
 11
25523.758366020102
 21
16724.976415002351
 31
0.0
 70
     0
 13
25154.258366020102
 23
17063.52997577273
 33
0.0
 14
25893.258366020102
 24
17084.457027766672
 34
0.0
1001
ACAD
1000
DSTYLE
1002
{
1070
   287
1070
     4
1070
    40
1040
40.0
1070
    75
1070
     1
1070
   279
1070
     1
1070
   289
1070
     3
1002
}
  0
LINE
  5
529
  8
CT
 10
25858.258366020102
 20
17267.358827579861
 30
0.0
 11
25858.258366020102
 21
17213.152052675709
 31
0.0
  0
LINE
  5
53A
  8
FUTO
 10
25893.258366020102
 20
17084.457027766672
 30
0.0
 11
25818.258366020102
 21
17084.457027766672
 31
0.0
  0
LINE
  5
53B
  8
FUTO
 10
25888.691366020099
 20
17091.860027766659
 30
0.0
 11
25833.887366020099
 21
17096.657027766661
 31
0.0
  0
LINE
  5
53C
  8
1
 10
25892.453366020101
 20
17084.457027766672
 30
0.0
 11
25817.453366020101
 21
17084.457027766672
 31
0.0
  0
LINE
  5
53D
  8
FUTO
 10
25828.405743049101
 20
17097.134060396129
 30
0.0
 11
25889.60298899109
 21
17091.7799951372
 31
0.0
  0
LINE
  5
53E
  8
FUTO
 10
25818.254366020101
 20
17084.457027766672
 30
0.0
 11
25893.254366020101
 21
17084.457027766672
 31
0.0
  0
LINE
  5
53F
  8
FUTO
 10
25828.405743049101
 20
17221.7799951372
 30
0.0
 11
25889.60298899109
 21
17227.134060396129
 31
0.0
  0
LINE
  5
540
  8
FUTO
 10
25818.254366020101
 20
17234.457027766672
 30
0.0
 11
25893.254366020101
 21
17234.457027766672
 31
0.0
1001
ACAD
1000
ASC_BOUNDS
1002
{
1070
    19
1005
0
1002
}
  0
LINE
  5
541
  8
FUTO
 10
25818.254366020101
 20
17234.457027766672
 30
0.0
 11
25818.254366020101
 21
17084.457027766672
 31
0.0
  0
LINE
  5
542
  8
FUTO
 10
25824.754366020101
 20
17217.795216344832
 30
0.0
 11
25824.754366020101
 21
17101.118839188501
 31
0.0
  0
LINE
  5
543
  8
FUTO
 10
25818.254366020101
 20
17234.457027766672
 30
0.0
 11
25818.254366020101
 21
17084.457027766672
 31
0.0
  0
ARC
  5
544
  8
FUTO
 10
25828.754366020101
 20
17101.118839188501
 30
0.0
 40
4.0
 50
180.0
 51
264.99999999999989
  0
ARC
  5
545
  8
FUTO
 10
25828.754366020101
 20
17217.795216344832
 30
0.0
 40
4.0
 50
95.000000000000057
 51
180.0
  0
LINE
  5
546
  8
FUTO
 10
25893.258366020102
 20
17084.457027766672
 30
0.0
 11
25893.258366020102
 21
17086.87902776667
 31
0.0
  0
LINE
  5
547
  8
FUTO
 10
25893.254366020101
 20
17084.457027766672
 30
0.0
 11
25893.254366020101
 21
17087.795216344832
 31
0.0
  0
ARC
  5
548
  8
FUTO
 10
25889.254366020101
 20
17087.795216344832
 30
0.0
 40
4.0
 50
0.0
 51
84.999999999999801
  0
ARC
  5
549
  8
FUTO
 10
25889.254366020101
 20
17231.118839188501
 30
0.0
 40
4.0
 50
275.00000000000011
 51
0.0
  0
LINE
  5
54A
  8
FUTO
 10
25893.254366020101
 20
17234.457027766672
 30
0.0
 11
25893.254366020101
 21
17231.118839188501
 31
0.0
  0
LINE
  5
54E
  8
FUTO
 10
25814.258366020102
 20
17290.830844372649
 30
0.0
 11
25964.258366020102
 21
17290.830844372649
 31
0.0
  0
LINE
  5
54F
  8
FUTO
 10
25964.258366020102
 20
17324.830844372649
 30
0.0
 11
25814.258366020102
 21
17324.830844372649
 31
0.0
  0
LINE
  5
550
  8
CT
 10
25779.34568053703
 20
17307.830844372649
 30
0.0
 11
26015.843859014229
 21
17307.830844372649
 31
0.0
  0
LINE
  5
553
  8
KL
 10
25814.258366020102
 20
17275.830844372649
 30
0.0
 11
25817.458366020099
 21
17275.830844372649
 31
0.0
  0
LINE
  5
554
  8
FUTO
 10
25893.258366020102
 20
17254.457027766672
 30
0.0
 11
25818.258366020102
 21
17254.457027766672
 31
0.0
  0
LINE
  5
555
  8
FUTO
 10
25888.691366020099
 20
17261.86002776667
 30
0.0
 11
25833.887366020099
 21
17266.657027766661
 31
0.0
  0
LINE
  5
556
  8
FUTO
 10
25893.258366020102
 20
17254.457027766672
 30
0.0
 11
25893.258366020102
 21
17256.87902776667
 31
0.0
  0
LINE
  5
557
  8
1
 10
25892.453366020101
 20
17254.457027766672
 30
0.0
 11
25817.453366020101
 21
17254.457027766672
 31
0.0
  0
ARC
  5
558
  8
FUTO
 10
25889.254366020101
 20
17401.118839188501
 30
0.0
 40
4.0
 50
275.00000000000011
 51
0.0
  0
LINE
  5
559
  8
FUTO
 10
25893.254366020101
 20
17404.457027766672
 30
0.0
 11
25893.254366020101
 21
17401.118839188501
 31
0.0
  0
LINE
  5
55A
  8
FUTO
 10
25893.254366020101
 20
17254.457027766672
 30
0.0
 11
25893.254366020101
 21
17257.795216344832
 31
0.0
  0
ARC
  5
55B
  8
FUTO
 10
25889.254366020101
 20
17257.795216344832
 30
0.0
 40
4.0
 50
0.0
 51
84.999999999999801
  0
ARC
  5
55C
  8
FUTO
 10
25828.754366020101
 20
17387.795216344832
 30
0.0
 40
4.0
 50
95.000000000000057
 51
180.0
  0
LINE
  5
55D
  8
FUTO
 10
25818.254366020101
 20
17404.457027766672
 30
0.0
 11
25818.254366020101
 21
17254.457027766672
 31
0.0
  0
ARC
  5
55E
  8
FUTO
 10
25828.754366020101
 20
17271.118839188501
 30
0.0
 40
4.0
 50
180.0
 51
264.99999999999989
  0
LINE
  5
55F
  8
FUTO
 10
25824.754366020101
 20
17387.795216344832
 30
0.0
 11
25824.754366020101
 21
17271.118839188501
 31
0.0
  0
LINE
  5
560
  8
FUTO
 10
25828.405743049101
 20
17391.7799951372
 30
0.0
 11
25889.60298899109
 21
17397.134060396129
 31
0.0
  0
LINE
  5
561
  8
FUTO
 10
25818.254366020101
 20
17404.457027766672
 30
0.0
 11
25893.254366020101
 21
17404.457027766672
 31
0.0
  0
LINE
  5
562
  8
FUTO
 10
25828.405743049101
 20
17267.134060396129
 30
0.0
 11
25889.60298899109
 21
17261.7799951372
 31
0.0
  0
LINE
  5
563
  8
FUTO
 10
25818.254366020101
 20
17254.457027766672
 30
0.0
 11
25893.254366020101
 21
17254.457027766672
 31
0.0
  0
LINE
  5
564
  8
FUTO
 10
25818.254366020101
 20
17404.457027766672
 30
0.0
 11
25818.254366020101
 21
17254.457027766672
 31
0.0
  0
LINE
  5
565
  8
KL
 10
25817.458366020099
 20
17275.830844372649
 30
0.0
 11
25817.458366020099
 21
17404.457027766672
 31
0.0
  0
LINE
  5
566
  8
KL
 10
25814.258366020102
 20
17275.830844372649
 30
0.0
 11
25814.258366020102
 21
17404.457027766672
 31
0.0
  0
LINE
  5
567
  8
FUTO
 10
26005.36253116564
 20
17287.002627698821
 30
0.0
 11
26005.36253116564
 21
17328.659061046488
 31
0.0
  0
LINE
  5
568
  8
FUTO
 10
25964.258366020102
 20
17287.002627698821
 30
0.0
 11
25964.258366020102
 21
17328.659061046488
 31
0.0
  0
LINE
  5
569
  8
FUTO
 10
25964.258366020102
 20
17287.002627698821
 30
0.0
 11
26005.36253116564
 21
17287.002627698821
 31
0.0
  0
LINE
  5
56A
  8
FUTO
 10
25964.258366020102
 20
17328.659061046488
 30
0.0
 11
26005.36253116564
 21
17328.659061046488
 31
0.0
  0
LINE
  5
56B
  8
KL
 10
25817.458366020099
 20
17676.830844372649
 30
0.0
 11
25907.458366020099
 21
17676.830844372649
 31
0.0
  0
LINE
  5
56C
  8
KL
 10
25817.458366020099
 20
17682.830844372649
 30
0.0
 11
25949.258366020102
 21
17682.830844372649
 31
0.0
  0
LINE
  5
56D
  8
HOSO
 10
25774.924356409181
 20
17642.830844372649
 30
0.0
 11
25849.031971557441
 21
17642.830844372649
 31
0.0
  0
LINE
  5
56E
  8
KL
 10
25817.458366020099
 20
17617.830844372649
 30
0.0
 11
25823.458366020099
 21
17617.830844372649
 31
0.0
  0
LINE
  5
56F
  8
FUTO
 10
25907.458366020099
 20
17676.830844372649
 30
0.0
 11
25949.258366020102
 21
17676.830844372649
 31
0.0
  0
LINE
  5
570
  8
FUTO
 10
25943.258366020102
 20
17617.830844372649
 30
0.0
 11
25949.258366020102
 21
17617.830844372649
 31
0.0
  0
LINE
  5
571
  8
HOSO
 10
25915.775819834071
 20
17642.830844372649
 30
0.0
 11
25989.883434982341
 21
17642.830844372649
 31
0.0
  0
LINE
  5
5F6
  8
FUTO
 10
24640.255366020101
 20
19432.830844372649
 30
0.0
 11
25122.259366020098
 21
19432.830844372649
 31
0.0
  0
LINE
  5
5F7
  8
FUTO
 10
24431.058366020101
 20
20563.830844372649
 30
0.0
 11
25877.458366020099
 21
20563.830844372649
 31
0.0
  0
LINE
  5
5F8
  8
FUTO
 10
24491.058366020101
 20
20503.830844372649
 30
0.0
 11
25817.458366020099
 21
20503.830844372649
 31
0.0
  0
LINE
  5
5FD
  8
FUTO
 10
24494.258366020102
 20
19032.830844372649
 30
0.0
 11
25814.258366020091
 21
19032.830844372649
 31
0.0
  0
LINE
  5
5FE
  8
FUTO
 10
24431.058366020101
 20
18593.830844372649
 30
0.0
 11
25877.458366020091
 21
18593.830844372649
 31
0.0
  0
LINE
  5
5FF
  8
FUTO
 10
24494.258366020102
 20
18653.830844372649
 30
0.0
 11
25814.258366020102
 21
18653.830844372649
 31
0.0
  0
LINE
  5
600
  8
FUTO
 10
24426.058366020101
 20
18477.064422670101
 30
0.0
 11
25882.458366020099
 21
18477.064422670101
 31
0.0
  0
LINE
  5
601
  8
FUTO
 10
24426.058366020101
 20
18495.064422670101
 30
0.0
 11
25882.458366020099
 21
18495.064422670101
 31
0.0
  0
LINE
  5
602
  8
CT
 10
24426.058366020101
 20
18486.064422670101
 30
0.0
 11
25882.458366020099
 21
18486.064422670101
 31
0.0
  0
LINE
  5
61E
  8
CT
 10
22652.332244335321
 20
18582.830844372649
 30
0.0
 11
26148.25366919232
 21
18582.830844372649
 31
0.0
  0
LINE
  5
623
  8
FUTO
 10
23259.758366020102
 20
18686.830844372649
 30
0.0
 11
23126.758366020102
 21
18686.830844372649
 31
0.0
  0
LINE
  5
624
  8
FUTO
 10
23126.758366020102
 20
18478.830844372649
 30
0.0
 11
23138.258366020102
 21
18478.830844372649
 31
0.0
  0
ARC
  5
625
  8
FUTO
 10
23144.258366020102
 20
18500.830844372649
 30
0.0
 40
6.0
 50
90.0
 51
180.0
  0
LINE
  5
626
  8
FUTO
 10
23103.258366020102
 20
18460.830844372649
 30
0.0
 11
23283.258366020091
 21
18460.830844372649
 31
0.0
  0
ARC
  5
628
  8
FUTO
 10
23126.758366020102
 20
18680.830844372649
 30
0.0
 40
6.0
 50
90.0
 51
180.0
  0
LINE
  5
629
  8
SL
 10
22854.258366020102
 20
18302.830844372649
 30
0.0
 11
23024.258366020102
 21
18302.830844372649
 31
0.0
  0
LINE
  5
62A
  8
FUTO
 10
23120.758366020102
 20
18672.830844372649
 30
0.0
 11
23115.758366020102
 21
18672.830844372649
 31
0.0
  0
ARC
  5
62B
  8
FUTO
 10
23126.758366020102
 20
18484.830844372649
 30
0.0
 40
6.0
 50
180.0
 51
270.0
  0
LINE
  5
62C
  8
FUTO
 10
23115.758366020102
 20
18492.830844372649
 30
0.0
 11
23120.758366020102
 21
18492.830844372649
 31
0.0
  0
LINE
  5
62D
  8
FUTO
 10
23120.758366020102
 20
18680.830844372649
 30
0.0
 11
23120.758366020102
 21
18484.830844372649
 31
0.0
  0
LINE
  5
62E
  8
FUTO
 10
23115.758366020102
 20
18672.830844372649
 30
0.0
 11
23115.758366020102
 21
18492.830844372649
 31
0.0
  0
LINE
  5
62F
  8
FUTO
 10
23024.258366020102
 20
18535.330844372649
 30
0.0
 11
23115.758366020102
 21
18535.330844372649
 31
0.0
  0
LINE
  5
630
  8
FUTO
 10
23024.258366020102
 20
18630.330844372649
 30
0.0
 11
23115.758366020102
 21
18630.330844372649
 31
0.0
  0
LINE
  5
631
  8
SL
 10
22854.258366020102
 20
18862.830844372649
 30
0.0
 11
23024.258366020102
 21
18862.830844372649
 31
0.0
  0
LINE
  5
632
  8
FUTO
 10
22704.258366020091
 20
18962.830844372649
 30
0.0
 11
23054.258366020102
 21
18962.830844372649
 31
0.0
  0
LINE
  5
633
  8
FUTO
 10
24431.058366020101
 20
18593.830844372649
 30
0.0
 11
24431.058366020101
 21
20563.830844372649
 31
0.0
  0
LINE
  5
634
  8
FUTO
 10
24640.255366020101
 20
19032.830844372649
 30
0.0
 11
24640.255366020101
 21
19446.830844372649
 31
0.0
  0
LINE
  5
635
  8
FUTO
 10
24628.255366020101
 20
19032.830844372649
 30
0.0
 11
24628.255366020101
 21
19446.830844372649
 31
0.0
  0
LINE
  5
636
  8
FUTO
 10
24491.058366020101
 20
18651.53084437265
 30
0.0
 11
24491.058366020101
 21
20482.830844372649
 31
0.0
  0
LINE
  5
637
  8
FUTO
 10
24494.258366020102
 20
18651.53084437265
 30
0.0
 11
24494.258366020102
 21
20482.830844372649
 31
0.0
  0
LINE
  5
638
  8
FUTO
 10
24426.058366020101
 20
20443.185548040761
 30
0.0
 11
24426.058366020101
 21
18477.064422670101
 31
0.0
  0
LINE
  5
63B
  8
SL
 10
24073.769987346172
 20
18798.905514182901
 30
0.0
 11
23308.39203054849
 21
18798.905514182901
 31
0.0
  0
LINE
  5
63D
  8
FUTO
 10
24104.258366020091
 20
18422.830844372649
 30
0.0
 11
23283.258366020102
 21
18422.83084437266
 31
0.0
  0
LINE
  5
63E
  8
FUTO
 10
23270.758366020102
 20
18530.330844372649
 30
0.0
 11
24100.758366020102
 21
18530.330844372649
 31
0.0
  0
LINE
  5
63F
  8
FUTO
 10
23270.758366020102
 20
18635.330844372649
 30
0.0
 11
24100.758366020102
 21
18635.330844372649
 31
0.0
  0
LINE
  5
640
  8
SL
 10
23308.39203054849
 20
18798.905514182901
 30
0.0
 11
23308.39203054849
 21
18422.83084437266
 31
0.0
  0
LINE
  5
641
  8
CT
 10
23193.258366020102
 20
18763.896758792282
 30
0.0
 11
23193.258366020102
 21
18373.89659084686
 31
0.0
  0
ARC
  5
642
  8
FUTO
 10
23259.758366020102
 20
18680.830844372649
 30
0.0
 40
6.0
 50
0.0
 51
90.0
  0
LINE
  5
643
  8
FUTO
 10
23248.258366020102
 20
18686.830844372649
 30
0.0
 11
23248.258366020102
 21
18460.830844372649
 31
0.0
  0
LINE
  5
644
  8
FUTO
 10
23138.258366020102
 20
18686.830844372649
 30
0.0
 11
23138.258366020102
 21
18460.830844372649
 31
0.0
  0
LINE
  5
645
  8
CT
 10
23193.258366020102
 20
18706.599603537361
 30
0.0
 11
23193.258366020102
 21
18453.007120470531
 31
0.0
  0
LINE
  5
646
  8
FUTO
 10
23265.758366020102
 20
18672.830844372649
 30
0.0
 11
23270.758366020102
 21
18672.830844372649
 31
0.0
  0
LINE
  5
647
  8
FUTO
 10
23270.758366020102
 20
18492.830844372649
 30
0.0
 11
23265.758366020102
 21
18492.830844372649
 31
0.0
  0
ARC
  5
648
  8
FUTO
 10
23259.758366020102
 20
18484.830844372649
 30
0.0
 40
6.0
 50
270.0
 51
0.0
  0
LINE
  5
649
  8
FUTO
 10
23259.758366020102
 20
18478.830844372649
 30
0.0
 11
23248.258366020102
 21
18478.830844372649
 31
0.0
  0
ARC
  5
64A
  8
FUTO
 10
23242.258366020102
 20
18500.830844372649
 30
0.0
 40
6.0
 50
0.0
 51
90.0
  0
LINE
  5
64B
  8
FUTO
 10
23270.758366020102
 20
18672.830844372649
 30
0.0
 11
23270.758366020102
 21
18492.830844372649
 31
0.0
  0
LINE
  5
64C
  8
FUTO
 10
23265.758366020102
 20
18680.830844372649
 30
0.0
 11
23265.758366020102
 21
18484.830844372649
 31
0.0
  0
LINE
  5
64D
  8
FUTO
 10
23138.258366020102
 20
18470.830844372649
 30
0.0
 11
23248.258366020102
 21
18470.830844372649
 31
0.0
  0
LINE
  5
64E
  8
FUTO
 10
23242.258366020102
 20
18506.830844372649
 30
0.0
 11
23144.258366020102
 21
18506.830844372649
 31
0.0
  0
LINE
  5
653
  8
SL
 10
24073.769987346172
 20
18798.905514182901
 30
0.0
 11
24073.769987346172
 21
18422.830844372649
 31
0.0
  0
LINE
  5
654
  8
CT
 10
24194.258366020091
 20
18791.601672452889
 30
0.0
 11
24194.258366020091
 21
18341.929368685302
 31
0.0
  0
LINE
  5
655
  8
FUTO
 10
24272.758366020102
 20
18690.330844372649
 30
0.0
 11
24287.758366020102
 21
18666.830844372649
 31
0.0
  0
LINE
  5
656
  8
FUTO
 10
24260.758366020102
 20
18712.830844372649
 30
0.0
 11
24260.758366020102
 21
18497.830844372649
 31
0.0
  0
LINE
  5
657
  8
FUTO
 10
24260.758366020102
 20
18487.830844372649
 30
0.0
 11
24260.758366020102
 21
18712.830781178269
 31
0.0
  0
LINE
  5
658
  8
FUTO
 10
24272.758366020102
 20
18452.830844372649
 30
0.0
 11
24272.758366020102
 21
18712.830844372649
 31
0.0
  0
LINE
  5
659
  8
FUTO
 10
24100.758366020102
 20
18666.830844372649
 30
0.0
 11
24115.758366020102
 21
18690.330844372649
 31
0.0
  0
LINE
  5
65A
  8
FUTO
 10
24127.758366020102
 20
18712.830844372649
 30
0.0
 11
24127.758366020102
 21
18497.830844372649
 31
0.0
  0
LINE
  5
65B
  8
CT
 10
24194.258366020102
 20
18746.992424038861
 30
0.0
 11
24194.258366020102
 21
18405.122801194761
 31
0.0
  0
LINE
  5
65C
  8
FUTO
 10
24115.758366020102
 20
18712.830844372649
 30
0.0
 11
24115.758366020091
 21
18452.830844372649
 31
0.0
  0
LINE
  5
662
  8
FUTO
 10
24426.058366020101
 20
18477.064422670101
 30
0.0
 11
24401.058366020101
 21
18461.045267364359
 31
0.0
  0
LINE
  5
663
  8
KL
 10
24401.058366020101
 20
18530.330844372649
 30
0.0
 11
24628.255366020101
 21
18530.330844372649
 31
0.0
  0
LINE
  5
664
  8
FUTO
 10
24284.258366020102
 20
18432.830844372649
 30
0.0
 11
24104.258366020091
 21
18432.830844372649
 31
0.0
  0
LINE
  5
665
  8
FUTO
 10
24269.258366020102
 20
18442.830844372649
 30
0.0
 11
24119.258366020102
 21
18442.830844372649
 31
0.0
  0
LINE
  5
666
  8
FUTO
 10
24119.258366020102
 20
18497.830844372649
 30
0.0
 11
24269.258366020102
 21
18497.830844372649
 31
0.0
  0
LINE
  5
667
  8
FUTO
 10
24100.758366020102
 20
18498.830844372649
 30
0.0
 11
24100.758366020102
 21
18666.830844372649
 31
0.0
  0
LINE
  5
668
  8
FUTO
 10
24115.758366020102
 20
18452.830844372649
 30
0.0
 11
24119.258366020102
 21
18452.830844372649
 31
0.0
  0
LINE
  5
669
  8
CT
 10
24144.258366020102
 20
18407.875752021399
 30
0.0
 11
24144.258366020102
 21
18528.648277143169
 31
0.0
  0
LINE
  5
66A
  8
FUTO
 10
24119.258366020102
 20
18432.830844372649
 30
0.0
 11
24119.258366020102
 21
18497.830844372649
 31
0.0
  0
LINE
  5
66B
  8
FUTO
 10
24115.758366020102
 20
18475.330844372649
 30
0.0
 11
24100.758366020102
 21
18498.830844372649
 31
0.0
  0
LINE
  5
66C
  8
FUTO
 10
24287.758366020102
 20
18635.330844372649
 30
0.0
 11
24426.058366020101
 21
18635.330844372649
 31
0.0
  0
LINE
  5
66E
  8
FUTO
 10
24287.758366020102
 20
18530.330844372649
 30
0.0
 11
24426.058366020101
 21
18530.330844372649
 31
0.0
  0
LINE
  5
67F
  8
CT
 10
24305.648704256429
 20
18582.830844372649
 30
0.0
 11
24414.991326132342
 21
18582.830844372649
 31
0.0
  0
LINE
  5
69D
  8
FUTO
 10
24287.758366020102
 20
18666.830844372649
 30
0.0
 11
24287.758366020102
 21
18498.830844372649
 31
0.0
  0
LINE
  5
69E
  8
FUTO
 10
24269.258366020102
 20
18452.830844372649
 30
0.0
 11
24272.758366020102
 21
18452.830844372649
 31
0.0
  0
LINE
  5
69F
  8
FUTO
 10
24269.258366020102
 20
18497.830844372649
 30
0.0
 11
24269.258366020102
 21
18432.830844372649
 31
0.0
  0
LINE
  5
6A0
  8
FUTO
 10
24287.758366020102
 20
18498.830844372649
 30
0.0
 11
24272.758366020102
 21
18475.330844372649
 31
0.0
  0
LINE
  5
6A1
  8
CT
 10
24244.258366020102
 20
18407.875752021399
 30
0.0
 11
24244.258366020102
 21
18528.648277143169
 31
0.0
  0
LINE
  5
6A8
  8
KL
 10
24426.058366020101
 20
18635.330844372649
 30
0.0
 11
24628.255366020101
 21
18635.330844372649
 31
0.0
  0
LINE
  5
6AC
  8
FUTO
 10
24255.758366020102
 20
18730.830844372649
 30
0.0
 11
24132.758366020102
 21
18730.830844372649
 31
0.0
  0
LINE
  5
6AD
  8
FUTO
 10
24132.758366020102
 20
18730.830844372649
 30
0.0
 11
24132.758366020102
 21
18712.830844372649
 31
0.0
  0
LINE
  5
6AE
  8
FUTO
 10
24132.758366020102
 20
18712.830844372649
 30
0.0
 11
24115.758366020102
 21
18712.830844372649
 31
0.0
  0
LINE
  5
6B7
  8
FUTO
 10
24272.758366020102
 20
18712.830844372649
 30
0.0
 11
24255.758366020102
 21
18712.830844372649
 31
0.0
  0
LINE
  5
6B8
  8
FUTO
 10
24255.758366020102
 20
18712.830844372649
 30
0.0
 11
24255.758366020102
 21
18730.830844372649
 31
0.0
  0
LINE
  5
6BC
  8
FUTO
 10
24491.058366020101
 20
19528.03084437265
 30
0.0
 11
24491.058366020101
 21
20482.830844372649
 31
0.0
  0
LINE
  5
6BD
  8
FUTO
 10
24640.255366020101
 20
19446.830844372649
 30
0.0
 11
24628.255366020101
 21
19446.830844372649
 31
0.0
  0
LINE
  5
6BE
  8
FUTO
 10
24426.058366020101
 20
20443.185548040761
 30
0.0
 11
24431.058366020101
 21
20443.185548040761
 31
0.0
  0
LINE
  5
6BF
  8
FUTO
 10
24491.058366020101
 20
20482.830844372649
 30
0.0
 11
24491.058366020101
 21
20503.830844372649
 31
0.0
  0
LINE
  5
6C0
  8
FUTO
 10
24494.258366020102
 20
20482.830844372649
 30
0.0
 11
24494.258366020102
 21
20503.830844372649
 31
0.0
  0
DIMENSION
  5
6CD
  8
SP
  2
*D21
 10
25949.258366020091
 20
21035.206651077358
 30
0.0
 11
25483.120741064198
 21
21035.206651077358
 31
0.0
 70
   128
 13
25154.258366020102
 23
21067.148990441739
 33
0.0
 14
25949.258366020091
 24
19547.830844372649
 34
0.0
1001
ACAD
1000
DSTYLE
1002
{
1070
    40
1040
40.0
1002
}
  0
LINE
  5
6DA
  8
FUTO
 10
25122.259366020098
 20
19446.830844372649
 30
0.0
 11
25122.259366020098
 21
19032.830844372649
 31
0.0
  0
LINE
  5
6DB
  8
FUTO
 10
25877.458366020091
 20
18593.830844372649
 30
0.0
 11
25877.458366020099
 21
20563.830844372649
 31
0.0
  0
LINE
  5
6DC
  8
FUTO
 10
25817.458366020099
 20
19482.830844372649
 30
0.0
 11
25519.575366020101
 21
19173.116844372649
 31
0.0
  0
LINE
  5
6DD
  8
FUTO
 10
25819.763366020092
 20
19480.612844372648
 30
0.0
 11
25521.884366020098
 21
19170.897844372659
 31
0.0
  0
LINE
  5
6DE
  8
FUTO
 10
25125.458366020099
 20
19032.830844372649
 30
0.0
 11
25125.458366020099
 21
19446.830844372649
 31
0.0
  0
LINE
  5
6DF
  8
FUTO
 10
25125.458366020099
 20
19446.830844372649
 30
0.0
 11
25284.466366020089
 21
19199.221844372649
 31
0.0
  0
LINE
  5
6E0
  8
FUTO
 10
25125.458366020099
 20
19435.72584437265
 30
0.0
 11
25279.419366020091
 21
19195.97984437265
 31
0.0
  0
LINE
  5
6E1
  8
FUTO
 10
25814.258366020102
 20
18651.53084437265
 30
0.0
 11
25814.258366020091
 21
20482.830844372649
 31
0.0
  0
LINE
  5
6E2
  8
FUTO
 10
25817.458366020099
 20
18651.53084437265
 30
0.0
 11
25817.458366020099
 21
20482.830844372649
 31
0.0
  0
LINE
  5
6E3
  8
FUTO
 10
25882.458366020732
 20
20443.185548040761
 30
0.0
 11
25882.458366020059
 21
18477.064422670101
 31
0.0
  0
LINE
  5
6FA
  8
FUTO
 10
25349.259366020098
 20
19032.830844372649
 30
0.0
 11
25349.259366020098
 21
19163.830844372649
 31
0.0
  0
ARC
  5
6FB
  8
FUTO
 10
25404.259366020098
 20
19284.03084437265
 30
0.0
 40
163.1999999999999
 50
250.30520048423409
 51
316.11599999999987
  0
ARC
  5
6FC
  8
FUTO
 10
25404.259366020098
 20
19284.03084437265
 30
0.0
 40
160.0
 50
249.89400000000001
 51
316.11599999999987
  0
ARC
  5
6FD
  8
1
 10
25404.259366020098
 20
19284.03084437265
 30
0.0
 40
160.0
 50
239.1699999999999
 51
249.89400000000001
  0
ARC
  5
6FE
  8
FUTO
 10
25349.259366020098
 20
19240.830844372649
 30
0.0
 40
77.0
 50
212.70799999999991
 51
270.0
  0
ARC
  5
6FF
  8
FUTO
 10
25349.259366020098
 20
19240.830844372649
 30
0.0
 40
83.0
 50
212.70799999999991
 51
270.0
  0
ARC
  5
700
  8
KL
 10
25404.259366020098
 20
19284.03084437265
 30
0.0
 40
163.1999999999999
 50
239.1699999999999
 51
250.30520048423409
  0
LINE
  5
701
  8
FUTO
 10
25882.458366020099
 20
18477.064422670101
 30
0.0
 11
25907.458366020099
 21
18461.045267364359
 31
0.0
  0
INSERT
  5
702
  8
FUTO
  2
まっすぐの矢印
 10
26144.731518590612
 20
19068.37714722176
 30
0.0
 41
2.0
 42
2.0
 43
2.0
 50
90.0
  0
LINE
  5
703
  8
FUTO
 10
25122.259366020098
 20
19446.830844372649
 30
0.0
 11
25125.458366020099
 21
19446.830844372649
 31
0.0
  0
LINE
  5
704
  8
FUTO
 10
25882.458366020099
 20
19488.830844372649
 30
0.0
 11
25949.258366020102
 21
19488.830844372649
 31
0.0
  0
LINE
  5
705
  8
KL
 10
25817.458366020099
 20
19482.830844372649
 30
0.0
 11
25949.258366020102
 21
19482.830844372649
 31
0.0
  0
LINE
  5
706
  8
HOSO
 10
25788.520396212101
 20
19522.830844372649
 30
0.0
 11
25848.350745042171
 21
19522.830844372649
 31
0.0
  0
LINE
  5
707
  8
KL
 10
25823.458366020099
 20
19547.830844372649
 30
0.0
 11
25817.458366020099
 21
19547.830844372649
 31
0.0
  0
LINE
  5
708
  8
KL
 10
25817.458366020099
 20
19488.830844372649
 30
0.0
 11
25882.458366020099
 21
19488.830844372649
 31
0.0
  0
LINE
  5
709
  8
FUTO
 10
25943.258366020102
 20
19547.830844372649
 30
0.0
 11
25949.258366020102
 21
19547.830844372649
 31
0.0
  0
LINE
  5
70A
  8
HOSO
 10
25916.590589460411
 20
19522.830844372649
 30
0.0
 11
25976.420938290488
 21
19522.830844372649
 31
0.0
  0
LINE
  5
70B
  8
FUTO
 10
25877.458366020099
 20
20443.185548040761
 30
0.0
 11
25882.458366020732
 21
20443.185548040761
 31
0.0
  0
LINE
  5
70C
  8
FUTO
 10
25814.258366020091
 20
20482.830844372649
 30
0.0
 11
25814.258366020091
 21
20503.830844372649
 31
0.0
  0
LINE
  5
70D
  8
FUTO
 10
25817.458366020099
 20
20482.830844372649
 30
0.0
 11
25817.458366020099
 21
20503.830844372649
 31
0.0
  0
LINE
  5
88D
  8
CT
 10
18433.647761721619
 20
24250.87989208095
 30
0.0
 11
21765.917364768829
 21
24250.879892080939
 31
0.0
  0
LINE
  5
88E
  8
FUTO
 10
21278.68292105991
 20
23521.87989208095
 30
0.0
 11
21278.68292105991
 21
24979.87989208095
 31
0.0
  0
LINE
  5
89C
  8
FUTO
 10
21213.682921059899
 20
23521.87989208095
 30
0.0
 11
21278.68292105991
 21
23521.87989208095
 31
0.0
  0
LINE
  5
89D
  8
FUTO
 10
21213.682921059899
 20
23521.87989208095
 30
0.0
 11
21213.68292105991
 21
24979.87989208095
 31
0.0
  0
LINE
  5
89E
  8
FUTO
 10
21213.68292105991
 20
24979.87989208095
 30
0.0
 11
21278.68292105991
 21
24979.87989208095
 31
0.0
  0
LINE
  5
89F
  8
FUTO
 10
18559.68292105991
 20
24914.87989208095
 30
0.0
 11
18559.68292105991
 21
23586.87989208095
 31
0.0
  0
LINE
  5
8A0
  8
FUTO
 10
18509.68292105991
 20
24964.87989208095
 30
0.0
 11
21213.68292105991
 21
24964.87989208095
 31
0.0
  0
LINE
  5
8A1
  8
FUTO
 10
18509.68292105991
 20
24964.87989208096
 30
0.0
 11
18509.68292105991
 21
23536.87989208095
 31
0.0
  0
LINE
  5
8A2
  8
FUTO
 10
18509.68292105991
 20
23536.87989208095
 30
0.0
 11
21213.682921059899
 21
23536.879892080939
 31
0.0
  0
LINE
  5
8A3
  8
FUTO
 10
18559.68292105991
 20
23586.87989208095
 30
0.0
 11
19413.68292105991
 21
23586.87989208095
 31
0.0
  0
LINE
  5
8A4
  8
FUTO
 10
19053.68292105991
 20
24964.87989208095
 30
0.0
 11
19053.68292105991
 21
24989.87989208095
 31
0.0
  0
LINE
  5
8A5
  8
FUTO
 10
21173.682921059899
 20
24964.87989208095
 30
0.0
 11
21173.68292105991
 21
24989.87989208095
 31
0.0
  0
LINE
  5
132F
  8
FUTO
 10
20493.68292105991
 20
21800.87989208095
 30
0.0
 11
18333.68292105991
 21
21800.87989208095
 31
0.0
  0
LINE
  5
1330
  8
FUTO
 10
20493.68292105991
 20
22150.87989208095
 30
0.0
 11
18333.68292105991
 21
22150.87989208095
 31
0.0
  0
LINE
  5
1336
  8
SL
 10
20393.68292105991
 20
21950.87989208095
 30
0.0
 11
18413.68292105991
 21
21950.87989208095
 31
0.0
  0
LINE
  5
1337
  8
SL
 10
20393.68292105991
 20
22120.87989208095
 30
0.0
 11
18413.68292105991
 21
22120.87989208095
 31
0.0
  0
LINE
  5
1338
  8
CT
 10
20113.68292105991
 20
21748.953770396169
 30
0.0
 11
20113.68292105991
 21
25244.875195253178
 31
0.0
  0
LINE
  5
1342
  8
FUTO
 10
20217.68292105991
 20
22223.37989208095
 30
0.0
 11
20217.68292105991
 21
22234.87989208095
 31
0.0
  0
LINE
  5
1343
  8
FUTO
 10
20009.68292105991
 20
22356.37989208095
 30
0.0
 11
20009.68292105991
 21
22223.37989208095
 31
0.0
  0
ARC
  5
1344
  8
FUTO
 10
20015.68292105991
 20
22223.37989208095
 30
0.0
 40
6.0
 50
180.0
 51
270.0
  0
LINE
  5
1345
  8
SL
 10
19833.68292105991
 20
21950.87989208095
 30
0.0
 11
19833.68292105991
 21
22120.87989208095
 31
0.0
  0
LINE
  5
1346
  8
FUTO
 10
20066.18292105991
 20
22120.87989208095
 30
0.0
 11
20066.18292105991
 21
22212.37989208095
 31
0.0
  0
LINE
  5
1347
  8
FUTO
 10
20161.18292105991
 20
22120.87989208095
 30
0.0
 11
20161.18292105991
 21
22212.37989208095
 31
0.0
  0
LINE
  5
1348
  8
FUTO
 10
20023.68292105991
 20
22212.37989208095
 30
0.0
 11
20203.68292105991
 21
22212.37989208095
 31
0.0
  0
LINE
  5
1349
  8
FUTO
 10
20015.68292105991
 20
22217.37989208095
 30
0.0
 11
20211.68292105991
 21
22217.37989208095
 31
0.0
  0
LINE
  5
134A
  8
FUTO
 10
20203.68292105991
 20
22212.37989208095
 30
0.0
 11
20203.68292105991
 21
22217.37989208095
 31
0.0
  0
ARC
  5
134B
  8
FUTO
 10
20211.68292105991
 20
22223.37989208095
 30
0.0
 40
6.0
 50
270.0
 51
0.0
  0
LINE
  5
134C
  8
FUTO
 10
20023.68292105991
 20
22217.37989208095
 30
0.0
 11
20023.68292105991
 21
22212.37989208095
 31
0.0
  0
LINE
  5
1353
  8
FUTO
 10
20061.18292105991
 20
22367.37989208095
 30
0.0
 11
20061.18292105991
 21
23197.37989208095
 31
0.0
  0
LINE
  5
1354
  8
FUTO
 10
20166.18292105991
 20
22367.37989208095
 30
0.0
 11
20166.18292105991
 21
23197.37989208095
 31
0.0
  0
LINE
  5
1357
  8
CT
 10
19989.914161895202
 20
22289.87989208095
 30
0.0
 11
20243.506644962032
 21
22289.87989208095
 31
0.0
  0
LINE
  5
1358
  8
FUTO
 10
20009.68292105991
 20
22234.87989208095
 30
0.0
 11
20217.68292105991
 21
22234.87989208095
 31
0.0
  0
LINE
  5
1359
  8
FUTO
 10
20009.68292105991
 20
22344.87989208095
 30
0.0
 11
20217.68292105991
 21
22344.87989208095
 31
0.0
  0
ARC
  5
135A
  8
FUTO
 10
20015.68292105991
 20
22356.37989208095
 30
0.0
 40
6.0
 50
90.0
 51
180.0
  0
LINE
  5
135B
  8
CT
 10
19932.617006640281
 20
22289.87989208095
 30
0.0
 11
20322.617174585699
 21
22289.87989208095
 31
0.0
  0
LINE
  5
135F
  8
FUTO
 10
20015.68292105991
 20
22362.37989208095
 30
0.0
 11
20211.68292105991
 21
22362.37989208095
 31
0.0
  0
LINE
  5
1360
  8
FUTO
 10
20023.68292105991
 20
22367.37989208095
 30
0.0
 11
20203.68292105991
 21
22367.37989208095
 31
0.0
  0
LINE
  5
1362
  8
FUTO
 10
20217.68292105991
 20
22356.37989208095
 30
0.0
 11
20217.68292105991
 21
22344.87989208095
 31
0.0
  0
ARC
  5
1363
  8
FUTO
 10
20211.68292105991
 20
22356.37989208095
 30
0.0
 40
6.0
 50
0.0
 51
90.0
  0
LINE
  5
1364
  8
FUTO
 10
20203.68292105991
 20
22367.37989208095
 30
0.0
 11
20203.68292105991
 21
22362.37989208095
 31
0.0
  0
LINE
  5
1365
  8
FUTO
 10
20023.68292105991
 20
22362.37989208095
 30
0.0
 11
20023.68292105991
 21
22367.37989208095
 31
0.0
  0
LINE
  5
136A
  8
FUTO
 10
19983.68292105991
 20
23212.37989208095
 30
0.0
 11
20243.68292105991
 21
23212.37989208095
 31
0.0
  0
LINE
  5
136B
  8
CT
 10
19949.521341393702
 20
23290.87989208095
 30
0.0
 11
20291.390964237798
 21
23290.87989208095
 31
0.0
  0
LINE
  5
136C
  8
FUTO
 10
19983.68292105991
 20
23224.37989208095
 30
0.0
 11
20243.68292105991
 21
23224.37989208095
 31
0.0
  0
LINE
  5
136D
  8
FUTO
 10
20029.68292105991
 20
23197.37989208095
 30
0.0
 11
20006.18292105991
 21
23212.37989208095
 31
0.0
  0
LINE
  5
136E
  8
FUTO
 10
20243.68292105991
 20
23369.37989208095
 30
0.0
 11
19983.68292105991
 21
23369.37989208095
 31
0.0
  0
LINE
  5
136F
  8
FUTO
 10
20243.68292105991
 20
23357.37989208095
 30
0.0
 11
19983.68298425429
 21
23357.37989208095
 31
0.0
  0
LINE
  5
1370
  8
FUTO
 10
19983.68292105991
 20
23357.37989208095
 30
0.0
 11
20198.68292105991
 21
23357.37989208095
 31
0.0
  0
LINE
  5
1371
  8
FUTO
 10
20006.18292105991
 20
23369.37989208095
 30
0.0
 11
20029.68292105991
 21
23384.37989208095
 31
0.0
  0
LINE
  5
1372
  8
CT
 10
19904.91209297967
 20
23290.87989208095
 30
0.0
 11
20354.584396747261
 21
23290.87989208095
 31
0.0
  0
LINE
  5
137E
  8
FUTO
 10
20221.18292105991
 20
23212.37989208095
 30
0.0
 11
20197.68292105991
 21
23197.37989208095
 31
0.0
  0
LINE
  5
1381
  8
FUTO
 10
20243.68292105991
 20
23212.37989208095
 30
0.0
 11
20243.68292105991
 21
23215.87989208095
 31
0.0
  0
LINE
  5
1382
  8
FUTO
 10
20197.68292105991
 20
23197.37989208095
 30
0.0
 11
20029.68292105991
 21
23197.37989208095
 31
0.0
  0
LINE
  5
1384
  8
FUTO
 10
20197.68292105991
 20
23384.37989208095
 30
0.0
 11
20221.18292105991
 21
23369.37989208095
 31
0.0
  0
LINE
  5
1386
  8
FUTO
 10
20243.68292105991
 20
23365.87989208095
 30
0.0
 11
20243.68292105991
 21
23369.37989208095
 31
0.0
  0
LINE
  5
1387
  8
FUTO
 10
20029.68292105991
 20
23384.37989208095
 30
0.0
 11
20197.68292105991
 21
23384.37989208095
 31
0.0
  0
LINE
  5
13A3
  8
CT
 10
20113.68292105991
 20
23402.270230317281
 30
0.0
 11
20113.68292105991
 21
23511.61285219319
 31
0.0
  0
LINE
  5
13B2
  8
FUTO
 10
20166.18292105991
 20
23384.37989208095
 30
0.0
 11
20166.18292105991
 21
23536.879892080939
 31
0.0
  0
LINE
  5
13B4
  8
FUTO
 10
20061.18292105991
 20
23384.37989208095
 30
0.0
 11
20061.18292105991
 21
23536.87989208095
 31
0.0
  0
LINE
  5
13BE
  8
FUTO
 10
19965.68292105991
 20
23352.37989208095
 30
0.0
 11
19965.68292105991
 21
23229.37989208095
 31
0.0
  0
LINE
  5
13BF
  8
FUTO
 10
19983.68292105991
 20
23229.37989208095
 30
0.0
 11
19983.68292105991
 21
23212.37989208095
 31
0.0
  0
LINE
  5
13C0
  8
FUTO
 10
19965.68292105991
 20
23229.37989208095
 30
0.0
 11
19983.68292105991
 21
23229.37989208095
 31
0.0
  0
LINE
  5
13C1
  8
FUTO
 10
19983.68292105991
 20
23352.37989208095
 30
0.0
 11
19965.68292105991
 21
23352.37989208095
 31
0.0
  0
LINE
  5
13C2
  8
FUTO
 10
19983.68292105991
 20
23369.37989208095
 30
0.0
 11
19983.68292105991
 21
23352.37989208095
 31
0.0
  0
LINE
  5
13E1
  8
FUTO
 10
20493.68292105991
 20
21800.87989208095
 30
0.0
 11
20493.68292105991
 21
22150.87989208095
 31
0.0
  0
LINE
  5
13E2
  8
SL
 10
20393.68292105991
 20
21950.87989208095
 30
0.0
 11
20393.68292105991
 21
22120.87989208095
 31
0.0
  0
DIMENSION
  5
1417
  8
SP
  2
*D5
 10
25154.258366020091
 20
21035.206651077358
 30
0.0
 11
23929.258366020091
 21
21146.635222505942
 31
0.0
 70
     0
  1
(<>)
 13
22704.258366020091
 23
18962.830844372649
 33
0.0
 14
25154.258366020091
 24
20563.830844372649
 34
0.0
1001
ACAD
1000
DSTYLE
1002
{
1070
    40
1040
40.0
1002
}
  0
LINE
  5
1453
  8
FUTO
 10
20217.68292105991
 20
22356.37989208095
 30
0.0
 11
20217.68292105991
 21
22223.37989208095
 31
0.0
  0
LINE
  5
1454
  8
FUTO
 10
20261.68292105991
 20
23352.37989208095
 30
0.0
 11
20261.68292105991
 21
23229.37989208095
 31
0.0
  0
LINE
  5
1455
  8
FUTO
 10
20261.68292105991
 20
23229.37989208095
 30
0.0
 11
20243.68292105991
 21
23229.37989208095
 31
0.0
  0
LINE
  5
1456
  8
FUTO
 10
20243.68292105991
 20
23229.37989208095
 30
0.0
 11
20243.68292105991
 21
23212.37989208095
 31
0.0
  0
LINE
  5
1457
  8
FUTO
 10
20243.68292105991
 20
23369.37989208095
 30
0.0
 11
20243.68292105991
 21
23352.37989208095
 31
0.0
  0
LINE
  5
1458
  8
FUTO
 10
20243.68292105991
 20
23352.37989208095
 30
0.0
 11
20261.68292105991
 21
23352.37989208095
 31
0.0
  0
LINE
  5
1698
  8
KL
 10
23092.758366020109
 20
17472.830844372649
 30
0.0
 11
23092.758366020102
 21
17402.830844374512
 31
0.0
  0
LINE
  5
1699
  8
KL
 10
23792.758366020109
 20
17472.830844372649
 30
0.0
 11
23792.758366020102
 21
17402.830844374541
 31
0.0
  0
LINE
  5
169A
  8
KL
 10
23587.758366020102
 20
17472.830844372649
 30
0.0
 11
23092.758366020109
 21
17472.830844372649
 31
0.0
  0
LINE
  5
169B
  8
KL
 10
23092.758366020102
 20
17472.830844372649
 30
0.0
 11
23792.758366020109
 21
17472.830844372649
 31
0.0
  0
LINE
  5
16AB
  8
FUTO
 10
23029.258366020102
 20
17852.830844372649
 30
0.0
 11
23029.258366020102
 21
17652.830844372649
 31
0.0
  0
LINE
  5
16AC
  8
KL
 10
24263.258366020102
 20
18012.830844372649
 30
0.0
 11
24263.258366020102
 21
17534.681906290571
 31
0.0
  0
LINE
  5
16AD
  8
FUTO
 10
23049.258366020102
 20
18062.830844372649
 30
0.0
 11
23049.258366020102
 21
17486.604120900469
 31
0.0
  0
LINE
  5
16AE
  8
KL
 10
23128.258366020102
 20
18062.830844372649
 30
0.0
 11
23128.258366020102
 21
17486.604120900469
 31
0.0
  0
LINE
  5
16AF
  8
KL
 10
24013.258366020102
 20
18062.830844372649
 30
0.0
 11
24013.258366020102
 21
17484.681906290571
 31
0.0
  0
LINE
  5
16B0
  8
CT
 10
23442.758366020102
 20
18099.470212359291
 30
0.0
 11
23442.758366020102
 21
17380.882317355568
 31
0.0
  0
LINE
  5
16B1
  8
KL
 10
23587.758366020102
 20
17472.830844372649
 30
0.0
 11
23707.758366020102
 21
17472.830844372649
 31
0.0
  0
LINE
  5
16B2
  8
KL
 10
23177.758366020102
 20
17502.830844372649
 30
0.0
 11
23707.758366020102
 21
17502.830844372649
 31
0.0
  0
LINE
  5
16B3
  8
KL
 10
24013.258366020102
 20
17484.681906290571
 30
0.0
 11
24213.258366020102
 21
17484.681906290571
 31
0.0
  0
ARC
  5
16B4
  8
KL
 10
24213.258366020102
 20
17534.681906290571
 30
0.0
 40
50.0
 50
270.0
 51
0.0
  0
LINE
  5
16B5
  8
KL
 10
23707.758366020102
 20
17484.681906290571
 30
0.0
 11
23992.93314802193
 21
17484.681906290571
 31
0.0
  0
LINE
  5
16B6
  8
KL
 10
24013.258366020102
 20
17496.215193950011
 30
0.0
 11
23992.933148021941
 21
17484.681906290571
 31
0.0
  0
LINE
  5
16B7
  8
CT
 10
23671.258366020102
 20
17526.821596131591
 30
0.0
 11
23671.258366020102
 21
17456.34855404912
 31
0.0
  0
LINE
  5
16B8
  8
KL
 10
23707.758366020102
 20
17502.830844372649
 30
0.0
 11
23707.758366020102
 21
17472.830844372649
 31
0.0
  0
LINE
  5
16B9
  8
KL
 10
23587.758366020102
 20
17484.681906290571
 30
0.0
 11
23297.758366020102
 21
17484.681906290571
 31
0.0
  0
LINE
  5
16BA
  8
KL
 10
23587.758366020102
 20
17484.681906290571
 30
0.0
 11
23587.758366020102
 21
17472.830844372649
 31
0.0
  0
LINE
  5
16BB
  8
KL
 10
23177.758366020102
 20
17502.830844372649
 30
0.0
 11
23177.758366020102
 21
17472.830844372649
 31
0.0
  0
LINE
  5
16BC
  8
CT
 10
23214.258366020102
 20
17526.821596131591
 30
0.0
 11
23214.258366020102
 21
17456.34855404912
 31
0.0
  0
LINE
  5
16BD
  8
KL
 10
23177.758366020102
 20
17486.604120900469
 30
0.0
 11
23049.258366020102
 21
17486.604120900469
 31
0.0
  0
LINE
  5
16BE
  8
KL
 10
23297.758366020102
 20
17484.681906290571
 30
0.0
 11
23297.758366020102
 21
17472.830844372649
 31
0.0
  0
LINE
  5
16BF
  8
KL
 10
23177.758366020102
 20
17472.830844372649
 30
0.0
 11
23297.758366020102
 21
17472.830844372649
 31
0.0
  0
LINE
  5
16C0
  8
FUTO
 10
23049.258366020102
 20
17652.830844372649
 30
0.0
 11
23029.258366020102
 21
17652.830844372649
 31
0.0
  0
LINE
  5
16C1
  8
KL
 10
23991.86353985453
 20
18062.830844372649
 30
0.0
 11
23049.258366020102
 21
18062.830844372649
 31
0.0
  0
LINE
  5
16C2
  8
CT
 10
24299.90113148453
 20
17752.830844372649
 30
0.0
 11
22828.109535180709
 21
17752.830844372649
 31
0.0
  0
LINE
  5
16C3
  8
KL
 10
24213.258366020102
 20
18062.830844372649
 30
0.0
 11
24013.258366020102
 21
18062.830844372649
 31
0.0
  0
ARC
  5
16C4
  8
KL
 10
24213.258366020102
 20
18012.830844372649
 30
0.0
 40
50.0
 50
0.0
 51
90.0
  0
LINE
  5
16C5
  8
KL
 10
24013.258366020102
 20
18038.279713943899
 30
0.0
 11
23991.86353985453
 21
18062.830844372649
 31
0.0
  0
LINE
  5
16C6
  8
FUTO
 10
23029.258366020102
 20
17795.330844372649
 30
0.0
 11
22854.258366020102
 21
17795.330844372649
 31
0.0
  0
LINE
  5
16C7
  8
FUTO
 10
23029.258366020102
 20
17710.330844372649
 30
0.0
 11
22854.258366020102
 21
17710.330844372649
 31
0.0
  0
LINE
  5
16C8
  8
CT
 10
23238.258366020102
 20
18386.20055833715
 30
0.0
 11
23238.258366020102
 21
17987.34102678136
 31
0.0
  0
LINE
  5
16C9
  8
FUTO
 10
23049.258366020102
 20
17852.830844372649
 30
0.0
 11
23029.258366020102
 21
17852.830844372649
 31
0.0
  0
LINE
  5
16CA
  8
KL
 10
23338.258366020102
 20
18342.830844372649
 30
0.0
 11
23138.258366020102
 21
18342.830844372649
 31
0.0
  0
LINE
  5
16CB
  8
KL
 10
23338.258366020102
 20
18077.830844372649
 30
0.0
 11
23138.258366020102
 21
18077.830844372649
 31
0.0
  0
LINE
  5
16CC
  8
CT
 10
23402.124293206482
 20
18202.830844372649
 30
0.0
 11
23099.988103821961
 21
18202.830844372649
 31
0.0
  0
LINE
  5
16CD
  8
KL
 10
23358.258366020102
 20
18322.830844372649
 30
0.0
 11
23358.258366020102
 21
18097.830844372649
 31
0.0
  0
ARC
  5
16CE
  8
KL
 10
23338.258366020102
 20
18097.830844372649
 30
0.0
 40
20.0
 50
270.0
 51
0.0
  0
ARC
  5
16CF
  8
KL
 10
23338.258366020102
 20
18322.830844372649
 30
0.0
 40
20.0
 50
0.0
 51
90.0
  0
LINE
  5
16D0
  8
KL
 10
23118.258366020102
 20
18322.830844372649
 30
0.0
 11
23118.258366020102
 21
18097.830844372649
 31
0.0
  0
ARC
  5
16D1
  8
KL
 10
23138.258366020102
 20
18097.830844372649
 30
0.0
 40
20.0
 50
180.0
 51
270.0
  0
ARC
  5
16D2
  8
KL
 10
23138.258366020102
 20
18322.830844372649
 30
0.0
 40
20.0
 50
90.0
 51
180.0
  0
LINE
  5
16D3
  8
FUTO
 10
23024.258366020102
 20
17795.330844372649
 30
0.0
 11
23024.258366020102
 21
17710.330844372649
 31
0.0
  0
LINE
  5
16D4
  8
FUTO
 10
22854.258366020102
 20
17795.330844372649
 30
0.0
 11
22854.258366020102
 21
17710.330844372649
 31
0.0
  0
LINE
  5
17EE
  8
FUTO
 10
18923.682921059859
 20
23088.4850659154
 30
0.0
 11
18923.682921059899
 21
22145.879892080971
 31
0.0
  0
LINE
  5
17EF
  8
CT
 10
18613.682921059852
 20
23396.522657545389
 30
0.0
 11
18613.68292105991
 21
21924.73106124156
 31
0.0
  0
LINE
  5
17F0
  8
FUTO
 10
18303.68292105987
 20
23088.485065915371
 30
0.0
 11
18303.682921059899
 21
22145.879892080939
 31
0.0
  0
LINE
  5
17F1
  8
FUTO
 10
18823.682921059892
 20
22214.87989208096
 30
0.0
 11
18433.682921059892
 21
22214.87989208095
 31
0.0
  0
LINE
  5
17F2
  8
CT
 10
18405.370061682581
 20
22334.87989208095
 30
0.0
 11
18868.352700697102
 21
22334.87989208096
 31
0.0
  0
LINE
  5
17F3
  8
CT
 10
18267.04355307325
 20
22539.379892080939
 30
0.0
 11
18985.631448076969
 21
22539.379892080971
 31
0.0
  0
LINE
  5
17F4
  8
FUTO
 10
18303.682921059899
 20
22145.879892080939
 30
0.0
 11
18923.682921059899
 21
22145.879892080971
 31
0.0
  0
LINE
  5
17F5
  8
FUTO
 10
18513.682921059899
 20
22125.87989208095
 30
0.0
 11
18713.682921059899
 21
22125.87989208096
 31
0.0
  0
LINE
  5
17F6
  8
FUTO
 10
18823.682921059892
 20
22454.879892080971
 30
0.0
 11
18433.682921059892
 21
22454.87989208095
 31
0.0
  0
LINE
  5
17F7
  8
FUTO
 10
18244.338532216982
 20
22189.379892080939
 30
0.0
 11
18244.33853221696
 21
22889.379892080939
 31
0.0
  0
LINE
  5
17F8
  8
FUTO
 10
18413.682921059892
 20
22434.87989208095
 30
0.0
 11
18413.682921059899
 21
22334.87989208095
 31
0.0
  0
LINE
  5
17F9
  8
CT
 10
18613.68292105999
 20
21779.42893591087
 30
0.0
 11
18613.682921059401
 21
23037.83533202704
 31
0.0
  0
LINE
  5
17FA
  8
FUTO
 10
18303.682921059899
 20
22189.379892080939
 30
0.0
 11
18244.338532216982
 21
22189.379892080939
 31
0.0
  0
LINE
  5
17FE
  8
FUTO
 10
18656.182921059899
 20
22125.87989208095
 30
0.0
 11
18656.18292105991
 21
21950.87989208096
 31
0.0
  0
LINE
  5
17FF
  8
FUTO
 10
18571.182921059899
 20
22125.87989208095
 30
0.0
 11
18571.18292105991
 21
21950.87989208095
 31
0.0
  0
LINE
  5
1802
  8
FUTO
 10
18571.18292105991
 20
21950.87989208095
 30
0.0
 11
18656.18292105991
 21
21950.87989208096
 31
0.0
  0
ARC
  5
1804
  8
FUTO
 10
18433.682921059892
 20
22234.87989208095
 30
0.0
 40
20.0
 50
180.0
 51
270.0
  0
LINE
  5
1805
  8
FUTO
 10
18413.682921059899
 20
22234.879892080939
 30
0.0
 11
18413.682921059899
 21
22334.87989208095
 31
0.0
  0
LINE
  5
1806
  8
FUTO
 10
18303.682921059899
 20
22224.879892080939
 30
0.0
 11
18416.362412984199
 21
22224.87989208095
 31
0.0
  0
LINE
  5
1807
  8
FUTO
 10
18571.182921059899
 20
22120.87989208095
 30
0.0
 11
18656.182921059899
 21
22120.87989208096
 31
0.0
  0
LINE
  5
1808
  8
FUTO
 10
18513.682921059899
 20
22145.87989208095
 30
0.0
 11
18513.682921059899
 21
22125.87989208095
 31
0.0
  0
LINE
  5
1809
  8
FUTO
 10
18303.68292105987
 20
22889.379892080939
 30
0.0
 11
18244.33853221696
 21
22889.379892080939
 31
0.0
  0
ARC
  5
180A
  8
FUTO
 10
18433.682921059892
 20
22434.87989208095
 30
0.0
 40
20.0
 50
90.0
 51
180.0
  0
LINE
  5
180B
  8
FUTO
 10
18983.027309902802
 20
22189.379892080971
 30
0.0
 11
18983.02730990278
 21
22889.379892080971
 31
0.0
  0
LINE
  5
180C
  8
FUTO
 10
18843.682921059892
 20
22434.87989208096
 30
0.0
 11
18843.682921059899
 21
22334.87989208096
 31
0.0
  0
LINE
  5
180F
  8
FUTO
 10
18841.003429135581
 20
22224.87989208096
 30
0.0
 11
18923.682921059892
 21
22224.879892080971
 31
0.0
  0
LINE
  5
1810
  8
CT
 10
18888.254476014099
 20
22310.879892080971
 30
0.0
 11
18958.72751809657
 21
22310.879892080971
 31
0.0
  0
ARC
  5
1811
  8
FUTO
 10
18823.682921059892
 20
22234.87989208096
 30
0.0
 40
20.0
 50
270.0
 51
0.0
  0
LINE
  5
1812
  8
FUTO
 10
18843.682921059892
 20
22234.87989208096
 30
0.0
 11
18843.682921059899
 21
22334.87989208096
 31
0.0
  0
LINE
  5
1813
  8
FUTO
 10
18713.682921059899
 20
22145.87989208096
 30
0.0
 11
18713.682921059899
 21
22125.87989208096
 31
0.0
  0
LINE
  5
1814
  8
FUTO
 10
18923.682921059892
 20
22189.379892080971
 30
0.0
 11
18983.027309902802
 21
22189.379892080971
 31
0.0
  0
ARC
  5
1815
  8
FUTO
 10
18823.682921059892
 20
22434.87989208096
 30
0.0
 40
20.0
 50
0.0
 51
90.0
  0
LINE
  5
1816
  8
CT
 10
18888.254476014081
 20
22767.879892080971
 30
0.0
 11
18958.727518096552
 21
22767.879892080971
 31
0.0
  0
LINE
  5
1817
  8
FUTO
 10
18923.68292105987
 20
22889.379892080971
 30
0.0
 11
18983.02730990278
 21
22889.379892080971
 31
0.0
  0
LINE
  5
181A
  8
FUTO
 10
18303.68292105987
 20
23109.879892080939
 30
0.0
 11
18923.682921059859
 21
23109.879892080971
 31
0.0
  0
LINE
  5
181B
  8
FUTO
 10
18353.682921059852
 20
23359.87989208095
 30
0.0
 11
18873.682921059852
 21
23359.879892080971
 31
0.0
  0
LINE
  5
181F
  8
FUTO
 10
18328.23405148862
 20
23109.879892080939
 30
0.0
 11
18303.68292105987
 21
23088.485065915371
 31
0.0
  0
ARC
  5
1820
  8
FUTO
 10
18353.682921059859
 20
23309.879892080939
 30
0.0
 40
50.0
 50
90.0
 51
180.0
  0
LINE
  5
1821
  8
FUTO
 10
18303.682921059859
 20
23309.879892080939
 30
0.0
 11
18303.68292105987
 21
23109.879892080939
 31
0.0
  0
ARC
  5
1824
  8
FUTO
 10
18873.682921059859
 20
23309.87989208096
 30
0.0
 40
50.0
 50
0.0
 51
90.0
  0
LINE
  5
1825
  8
FUTO
 10
18899.13179063112
 20
23109.879892080971
 30
0.0
 11
18923.682921059859
 21
23088.4850659154
 31
0.0
  0
LINE
  5
1826
  8
FUTO
 10
18923.682921059859
 20
23309.879892080971
 30
0.0
 11
18923.682921059859
 21
23109.879892080971
 31
0.0
  0
LINE
  5
1827
  8
FUTO
 10
18173.68292105991
 20
22214.87989208095
 30
0.0
 11
18173.68292105991
 21
22139.87989208095
 31
0.0
  0
LINE
  5
1828
  8
FUTO
 10
18349.803006615071
 20
23511.87989208095
 30
0.0
 11
18349.803006615071
 21
23359.729127420131
 31
0.0
  0
LINE
  5
1829
  8
FUTO
 10
18877.56283550457
 20
23511.87989208107
 30
0.0
 11
18877.562835504639
 21
23359.729127420251
 31
0.0
  0
LINE
  5
182A
  8
FUTO
 10
18802.56283550457
 20
23511.87989208104
 30
0.0
 11
18802.562835504639
 21
23359.87989208103
 31
0.0
  0
LINE
  5
182B
  8
SL
 10
18413.68292105991
 20
21950.87989208095
 30
0.0
 11
18413.68292105991
 21
22120.87989208095
 31
0.0
  0
LINE
  5
182D
  8
FUTO
 10
18333.68292105991
 20
21800.87989208095
 30
0.0
 11
18333.68292105991
 21
22150.87989208095
 31
0.0
  0
LINE
  5
182F
  8
FUTO
 10
20455.731346883949
 20
22214.87989208095
 30
0.0
 11
20455.731346883949
 21
23536.87989208095
 31
0.0
  0
LINE
  5
1830
  8
FUTO
 10
19771.63449523587
 20
22214.87989208095
 30
0.0
 11
19771.63449523587
 21
23536.87989208095
 31
0.0
  0
LINE
  5
1832
  8
FUTO
 10
19148.68292105991
 20
25045.879892080939
 30
0.0
 11
21078.68292105991
 21
25045.87989208095
 31
0.0
  0
LINE
  5
1833
  8
FUTO
 10
19148.68292105991
 20
25039.87989208095
 30
0.0
 11
21078.68292105991
 21
25039.87989208095
 31
0.0
  0
LINE
  5
1834
  8
KL
 10
19148.68292105991
 20
24920.07989208095
 30
0.0
 11
21078.68292105991
 21
24920.07989208095
 31
0.0
  0
LINE
  5
1839
  8
KL
 10
21013.68292105991
 20
24914.07989208095
 30
0.0
 11
21013.68292105991
 21
25045.87989208095
 31
0.0
  0
LINE
  5
183A
  8
KL
 10
21019.68292105991
 20
24914.07989208095
 30
0.0
 11
21019.68292105991
 21
25004.07989208095
 31
0.0
  0
LINE
  5
183B
  8
KL
 10
21078.68292105991
 20
24914.07989208095
 30
0.0
 11
21078.68292105991
 21
24920.07989208095
 31
0.0
  0
LINE
  5
183C
  8
HOSO
 10
21053.68292105991
 20
24871.54588247004
 30
0.0
 11
21053.68292105991
 21
24945.653497618299
 31
0.0
  0
LINE
  5
183D
  8
HOSO
 10
21053.68292105991
 20
25012.397345894929
 30
0.0
 11
21053.68292105991
 21
25086.504961043189
 31
0.0
  0
LINE
  5
183E
  8
FUTO
 10
21078.68292105991
 20
25039.87989208095
 30
0.0
 11
21078.68292105991
 21
25045.87989208095
 31
0.0
  0
LINE
  5
183F
  8
FUTO
 10
21019.68292105991
 20
25004.07989208095
 30
0.0
 11
21019.68292105991
 21
25045.87989208095
 31
0.0
  0
INSERT
  5
185B
  8
FUTO
  2
まっすぐの矢印
 10
19628.136618210799
 20
25241.35304465146
 30
0.0
 41
2.0
 42
2.0
 43
2.0
 50
180.0
  0
LINE
  5
185D
  8
KL
 10
19213.68292105991
 20
24914.07989208095
 30
0.0
 11
19213.68292105991
 21
25045.87989208095
 31
0.0
  0
LINE
  5
185E
  8
FUTO
 10
19207.68292105991
 20
24979.07989208095
 30
0.0
 11
19207.68292105991
 21
25045.87989208095
 31
0.0
  0
LINE
  5
185F
  8
KL
 10
19207.68292105991
 20
24914.07989208095
 30
0.0
 11
19207.68292105991
 21
24979.07989208095
 31
0.0
  0
LINE
  5
1860
  8
KL
 10
19148.68292105991
 20
24920.07989208095
 30
0.0
 11
19148.68292105991
 21
24914.07989208095
 31
0.0
  0
LINE
  5
1861
  8
HOSO
 10
19173.68292105991
 20
24885.14192227296
 30
0.0
 11
19173.68292105991
 21
24944.97227110303
 31
0.0
  0
LINE
  5
1862
  8
HOSO
 10
19173.68292105991
 20
25013.21211552127
 30
0.0
 11
19173.68292105991
 21
25073.04246435134
 31
0.0
  0
LINE
  5
1863
  8
FUTO
 10
19148.68292105991
 20
25039.87989208095
 30
0.0
 11
19148.68292105991
 21
25045.87989208095
 31
0.0
  0
LINE
  5
188E
  8
FUTO
 10
20507.835130297681
 20
18310.51537913534
 30
0.0
 11
20813.68292105991
 21
17418.62193891107
 31
0.0
  0
LINE
  5
188F
  8
FUTO
 10
20592.516819398821
 20
18551.019074913329
 30
0.0
 11
21301.450211466941
 21
18488.135588704201
 31
0.0
  0
LINE
  5
1890
  8
FUTO
 10
20590.926435894999
 20
18533.08947145116
 30
0.0
 11
21303.859872170011
 21
18469.851175146268
 31
0.0
  0
LINE
  5
1891
  8
KL
 10
19302.800231796879
 20
18593.457044372652
 30
0.0
 11
19913.68292105991
 21
18593.457044372652
 31
0.0
  0
LINE
  5
1892
  8
KL
 10
19277.710720755771
 20
18575.457044372652
 30
0.0
 11
19913.68292105991
 21
18575.457044372652
 31
0.0
  0
LINE
  5
1893
  8
FUTO
 10
19063.68292105991
 20
17636.084205563529
 30
0.0
 11
19063.68292105991
 21
17404.457044372652
 31
0.0
  0
LINE
  5
1894
  8
FUTO
 10
19072.68292105991
 20
17639.76759554421
 30
0.0
 11
19072.68292105991
 21
17404.457044372652
 31
0.0
  0
LINE
  5
1895
  8
KL
 10
19054.68292105991
 20
18415.44992474615
 30
0.0
 11
19054.68292105991
 21
17632.305567455391
 31
0.0
  0
LINE
  5
1896
  8
KL
 10
19063.68292105991
 20
18421.906806258688
 30
0.0
 11
19063.68292105991
 21
17636.084205563529
 31
0.0
  0
LINE
  5
1897
  8
KL
 10
19072.68292105991
 20
18428.363687771231
 30
0.0
 11
19072.68292105991
 21
17639.76759554421
 31
0.0
  0
DIMENSION
  5
18AD
  8
SP
  2
*D6
 10
21823.0920102655
 20
20574.457044372652
 30
0.0
 11
21743.0920102655
 21
19579.457044372652
 31
0.0
 70
     0
 13
21659.036920104008
 23
18584.457044372652
 33
0.0
 14
21278.68292105991
 24
20574.457044372652
 34
0.0
 50
90.0
1001
ACAD
1000
DSTYLE
1002
{
1070
    40
1040
40.0
1002
}
  0
DIMENSION
  5
1909
  8
SP
  2
*D9
 10
21278.68292105991
 20
25503.753823563889
 30
0.0
 11
20696.182921059921
 21
25583.753823563889
 31
0.0
 70
     0
 13
20113.68292105991
 23
25244.875195253178
 33
0.0
 14
21278.68292105991
 24
24979.87989208095
 34
0.0
1001
ACAD
1000
DSTYLE
1002
{
1070
    40
1040
40.0
1002
}
  0
DIMENSION
  5
1916
  8
SP
  2
*D10
 10
18173.68292105991
 20
25503.753823563889
 30
0.0
 11
19143.68292105991
 21
25583.753823563889
 31
0.0
 70
     0
 13
20113.68292105991
 23
25503.753823563889
 33
0.0
 14
18173.68292105991
 24
23586.87989208095
 34
0.0
1001
ACAD
1000
DSTYLE
1002
{
1070
    40
1040
40.0
1002
}
  0
DIMENSION
  5
1923
  8
SP
  2
*D11
 10
21698.669186550029
 20
24250.879892080939
 30
0.0
 11
21618.669186550022
 21
24648.37989208095
 31
0.0
 70
     0
 13
21078.68292105991
 23
25045.87989208095
 33
0.0
 14
21765.917364768829
 24
24250.879892080939
 34
0.0
 50
90.0
1001
ACAD
1000
DSTYLE
1002
{
1070
    40
1040
40.0
1002
}
  0
DIMENSION
  5
1930
  8
SP
  2
*D12
 10
21698.669186550029
 20
21800.87989208095
 30
0.0
 11
21618.669186550022
 21
23025.87989208095
 31
0.0
 70
     0
 13
21698.669186550029
 23
24250.879892080939
 33
0.0
 14
20493.68292105991
 24
21800.87989208095
 34
0.0
 50
90.0
1001
ACAD
1000
DSTYLE
1002
{
1070
    40
1040
40.0
1002
}
  0
TEXT
  5
2052
  8
SP
 10
42071.351669860611
 20
24737.1126396894
 30
0.0
 40
100.0
  1
 
  0
LINE
  5
2053
  8
4
 10
26452.65852038073
 20
15163.092425350769
 30
0.0
 11
26452.65852038073
 21
13963.092425350769
 31
0.0
  0
LINE
  5
2054
  8
4
 10
22252.65852038073
 20
15163.092425350769
 30
0.0
 11
22252.658520380719
 21
13963.092425350769
 31
0.0
  0
LINE
  5
2055
  8
4
 10
19252.65852038073
 20
15163.092425350769
 30
0.0
 11
19252.65852038073
 21
13963.092425350769
 31
0.0
  0
LINE
  5
2058
  8
4
 10
19252.65852038073
 20
13963.092425350769
 30
0.0
 11
26452.65852038073
 21
13963.092425350769
 31
0.0
  0
LINE
  5
2059
  8
4
 10
19252.65852038073
 20
14563.092425350769
 30
0.0
 11
26452.65852038073
 21
14563.092425350769
 31
0.0
  0
TEXT
  5
205A
  8
4
 10
19483.67100546214
 20
14752.35058055045
 30
0.0
 40
300.0
  1
機器名称
  0
TEXT
  5
205B
  8
4
 10
19470.207156529508
 20
14092.96336574284
 30
0.0
 40
300.0
  1
機器型番
  0
TEXT
  5
205C
  8
4
 10
22281.416890586981
 20
14696.21623949246
 30
0.0
 40
270.0
  1
ミツヤリミットロードファン
  0
TEXT
  5
205D
  8
4
 10
22472.58549389361
 20
14066.049931030429
 30
0.0
 40
300.0
  1
LL#11-1
  0
TEXT
  5
205F
  8
4
 10
17249.664080357401
 20
27366.378282546561
 30
0.0
 40
432.0
  1
遠心式片吸込片持リミットロードファン
  0
LINE
  5
2060
  8
4
 10
16852.65852038073
 20
26979.544950939598
 30
0.0
 11
26452.65852038073
 21
26979.544950939598
 31
0.0
  0
LINE
  5
2061
  8
4
 10
16852.65852038073
 20
28179.544950939598
 30
0.0
 11
26452.65852038073
 21
28179.544950939598
 31
0.0
  0
LINE
  5
2062
  8
4
 10
19252.65852038073
 20
15163.092425350769
 30
0.0
 11
26452.65852038073
 21
15163.092425350769
 31
0.0
  0
LINE
  5
2063
  8
4
 10
16852.65852038073
 20
28179.544950939598
 30
0.0
 11
16852.65852038073
 21
26979.544950939598
 31
0.0
  0
TEXT
  5
2064
  8
4
 10
17387.69961728717
 20
26457.009290628841
 30
0.0
 40
323.99999999999989
  1
右回転右横向
  0
TEXT
  5
2065
  8
4
 10
24166.475875876469
 20
28399.458914322629
 30
0.0
 40
336.00000000000011
  1
No.
  0
TEXT
  5
2066
  8
4
 10
24130.804979102559
 20
25604.495303865169
 30
0.0
 40
323.99999999999989
  1
縮尺：1/60
  0
LINE
  5
2067
  8
4
 10
26452.65852038073
 20
28179.544950939598
 30
0.0
 11
26452.65852038073
 21
26979.544950939598
 31
0.0
  0
LINE
  5
2068
  8
4
 10
27952.65852038073
 20
29863.092425350769
 30
0.0
 11
27952.65852038073
 21
29863.092425350769
 31
0.0
  0
LINE
  5
2069
  8
4
 10
23996.36305453991
 20
28250.673924103179
 30
0.0
 11
23996.36305453991
 21
28883.005994649291
 31
0.0
  0
LINE
  5
206A
  8
4
 10
23996.36305453991
 20
28883.005994649291
 30
0.0
 11
26452.65852038073
 21
28883.005994649291
 31
0.0
  0
LINE
  5
206B
  8
4
 10
26452.65852038073
 20
28883.005994649291
 30
0.0
 11
26452.65852038073
 21
28250.673924103179
 31
0.0
  0
LINE
  5
206C
  8
4
 10
26452.65852038073
 20
28250.673924103179
 30
0.0
 11
23996.36305453991
 21
28250.673924103179
 31
0.0
  0
LINE
  5
206D
  8
4
 10
15352.65852038073
 20
12163.09242535078
 30
0.0
 11
15352.65852038073
 21
29863.092425350769
 31
0.0
  0
LINE
  5
206E
  8
4
 10
15352.65852038073
 20
29863.092425350769
 30
0.0
 11
27952.65852038073
 21
29863.092425350769
 31
0.0
  0
LINE
  5
206F
  8
4
 10
27952.65852038073
 20
29863.092425350769
 30
0.0
 11
27952.65852038073
 21
12163.09242535078
 31
0.0
  0
LINE
  5
2070
  8
4
 10
27952.65852038073
 20
12163.09242535078
 30
0.0
 11
15352.65852038073
 21
12163.09242535078
 31
0.0
  0
TEXT
  5
2071
  8
4
 10
20464.435404473879
 20
26457.079215277208
 30
0.0
 40
323.99999999999989
  1
床置防振ベット
  0
ENDSEC
  0
EOF
