  0
SECTION
  2
HEADER
  9
$ACADVER
  1
AC1009
  9
$INSBASE
 10
0.0
 20
0.0
 30
0.0
  9
$EXTMIN
 10
14050.842774567751
 20
12918.916494349351
 30
0.0
  9
$EXTMAX
 10
26650.842774567751
 20
30618.916494349349
 30
0.0
  9
$LIMMIN
 10
0.0
 20
0.0
  9
$LIMMAX
 10
297.0
 20
210.0
  9
$ORTHOMODE
 70
     0
  9
$REGENMODE
 70
     1
  9
$FILLMODE
 70
     1
  9
$QTEXTMODE
 70
     0
  9
$MIRRTEXT
 70
     0
  9
$DRAGMODE
 70
     2
  9
$LTSCALE
 40
200.0
  9
$OSMODE
 70
    37
  9
$ATTMODE
 70
     1
  9
$TEXTSIZE
 40
150.0
  9
$TRACEWID
 40
0.05
  9
$TEXTSTYLE
  7
STANDARD
  9
$CLAYER
  8
FUTO
  9
$CELTYPE
  6
BYLAYER
  9
$CECOLOR
 62
   256
  9
$DIMSCALE
 40
40.0
  9
$DIMASZ
 40
2.0
  9
$DIMEXO
 40
1.0
  9
$DIMDLI
 40
10.0
  9
$DIMRND
 40
0.0
  9
$DIMDLE
 40
0.0
  9
$DIMEXE
 40
1.0
  9
$DIMTP
 40
0.0
  9
$DIMTM
 40
0.0
  9
$DIMTXT
 40
3.0
  9
$DIMCEN
 40
0.0
  9
$DIMTSZ
 40
0.0
  9
$DIMTOL
 70
     0
  9
$DIMLIM
 70
     0
  9
$DIMTIH
 70
     0
  9
$DIMTOH
 70
     0
  9
$DIMSE1
 70
     0
  9
$DIMSE2
 70
     0
  9
$DIMTAD
 70
     1
  9
$DIMZIN
 70
     8
  9
$DIMBLK
  1

  9
$DIMASO
 70
     1
  9
$DIMSHO
 70
     1
  9
$DIMPOST
  1

  9
$DIMAPOST
  1

  9
$DIMALT
 70
     0
  9
$DIMALTD
 70
     2
  9
$DIMALTF
 40
0.03937
  9
$DIMLFAC
 40
1.0
  9
$DIMTOFL
 70
     1
  9
$DIMTVP
 40
0.0
  9
$DIMTIX
 70
     0
  9
$DIMSOXD
 70
     0
  9
$DIMSAH
 70
     1
  9
$DIMBLK1
  1
OPEN
  9
$DIMBLK2
  1
OPEN
  9
$DIMSTYLE
  2
MATSU
  9
$DIMCLRD
 70
   256
  9
$DIMCLRE
 70
   256
  9
$DIMCLRT
 70
   256
  9
$DIMTFAC
 40
1.0
  9
$DIMGAP
 40
0.5
  9
$LUNITS
 70
     2
  9
$LUPREC
 70
     3
  9
$SKETCHINC
 40
0.1
  9
$FILLETRAD
 40
7.0
  9
$AUNITS
 70
     0
  9
$AUPREC
 70
     2
  9
$MENU
  1
acad
  9
$ELEVATION
 40
0.0
  9
$PELEVATION
 40
0.0
  9
$THICKNESS
 40
0.0
  9
$LIMCHECK
 70
     0
  9
$BLIPMODE
 70
     0
  9
$CHAMFERA
 40
0.0
  9
$CHAMFERB
 40
0.0
  9
$SKPOLY
 70
     0
  9
$TDCREATE
 40
2451593.4082031241
  9
$TDUPDATE
 40
2454953.6506150458
  9
$TDINDWG
 40
0.5583025347
  9
$TDUSRTIMER
 40
0.5583025347
  9
$USRTIMER
 70
     1
  9
$ANGBASE
 50
0.0
  9
$ANGDIR
 70
     0
  9
$PDMODE
 70
     0
  9
$PDSIZE
 40
1.0
  9
$PLINEWID
 40
0.0
  9
$COORDS
 70
     1
  9
$SPLFRAME
 70
     0
  9
$SPLINETYPE
 70
     6
  9
$SPLINESEGS
 70
     8
  9
$ATTDIA
 70
     0
  9
$ATTREQ
 70
     1
  9
$HANDLING
 70
 10241
  9
$HANDSEED
  5
2607
  9
$SURFTAB1
 70
     6
  9
$SURFTAB2
 70
     6
  9
$SURFTYPE
 70
     6
  9
$SURFU
 70
     6
  9
$SURFV
 70
     6
  9
$UCSNAME
  2

  9
$UCSORG
 10
0.0
 20
0.0
 30
0.0
  9
$UCSXDIR
 10
1.0
 20
0.0
 30
0.0
  9
$UCSYDIR
 10
0.0
 20
1.0
 30
0.0
  9
$PUCSNAME
  2

  9
$PUCSORG
 10
0.0
 20
0.0
 30
0.0
  9
$PUCSXDIR
 10
1.0
 20
0.0
 30
0.0
  9
$PUCSYDIR
 10
0.0
 20
1.0
 30
0.0
  9
$USERI1
 70
     0
  9
$USERI2
 70
     0
  9
$USERI3
 70
     0
  9
$USERI4
 70
     0
  9
$USERI5
 70
     0
  9
$USERR1
 40
0.0
  9
$USERR2
 40
0.0
  9
$USERR3
 40
0.0
  9
$USERR4
 40
0.0
  9
$USERR5
 40
0.0
  9
$WORLDVIEW
 70
     1
  9
$SHADEDGE
 70
     3
  9
$SHADEDIF
 70
    70
  9
$TILEMODE
 70
     1
  9
$MAXACTVP
 70
    16
  9
$PLIMCHECK
 70
     0
  9
$PEXTMIN
 10
1.0000000000000000E+020
 20
1.0000000000000000E+020
 30
1.0000000000000000E+020
  9
$PEXTMAX
 10
-1.0000000000000000E+020
 20
-1.0000000000000000E+020
 30
-1.0000000000000000E+020
  9
$PLIMMIN
 10
0.0
 20
0.0
  9
$PLIMMAX
 10
12.0
 20
9.0
  9
$UNITMODE
 70
     0
  9
$VISRETAIN
 70
     0
  9
$PLINEGEN
 70
     0
  9
$PSLTSCALE
 70
     0
  0
ENDSEC
  0
SECTION
  2
TABLES
  0
TABLE
  2
VPORT
 70
     2
  0
VPORT
  2
*ACTIVE
 70
     0
 10
0.0
 20
0.0
 11
1.0
 21
1.0
 12
26154.936405628028
 22
14942.220707312839
 13
0.0
 23
0.0
 14
5.0
 24
5.0
 15
0.0
 25
0.0
 16
0.0
 26
0.0
 36
1.0
 17
0.0
 27
0.0
 37
0.0
 40
5590.9226842698799
 41
3.1666666666666661
 42
50.0
 43
0.0
 44
0.0
 50
0.0
 51
0.0
 71
     0
 72
   100
 73
     1
 74
     0
 75
     0
 76
     0
 77
     0
 78
     0
  0
ENDTAB
  0
TABLE
  2
LTYPE
 70
     4
  0
LTYPE
  2
CONTINUOUS
 70
     0
  3
Solid line
 72
    65
 73
     0
 40
0.0
  0
LTYPE
  2
CENTER
 70
     0
  3
____ _ ____ _ ____ _ ____ _ ____ _ ____ _ ____ 
 72
    65
 73
     4
 40
2.0
 49
1.25
 49
-0.25
 49
0.25
 49
-0.25
  0
LTYPE
  2
HIDDEN
 70
     0
  3
__ __ __ __ __ __ __ __ __ __ __ __ __ __ __ __
 72
    65
 73
     2
 40
0.375
 49
0.25
 49
-0.125
  0
LTYPE
  2
PHANTOM
 70
     0
  3
______  __  __  ______  __  __  ______  __  __ 
 72
    65
 73
     6
 40
2.5
 49
1.25
 49
-0.25
 49
0.25
 49
-0.25
 49
0.25
 49
-0.25
  0
ENDTAB
  0
TABLE
  2
LAYER
 70
    10
  0
LAYER
  2
0
 70
     0
 62
     7
  6
CONTINUOUS
  0
LAYER
  2
CT
 70
     0
 62
     3
  6
CENTER
  0
LAYER
  2
FUTO
 70
     0
 62
     4
  6
CONTINUOUS
  0
LAYER
  2
HOSO
 70
     0
 62
     7
  6
CONTINUOUS
  0
LAYER
  2
KL
 70
     0
 62
     7
  6
HIDDEN
  0
LAYER
  2
SL
 70
     0
 62
     1
  6
PHANTOM
  0
LAYER
  2
SP
 70
     0
 62
     2
  6
CONTINUOUS
  0
LAYER
  2
1
 70
     0
 62
     7
  6
CONTINUOUS
  0
LAYER
  2
DEFPOINTS
 70
     0
 62
     7
  6
CONTINUOUS
  0
LAYER
  2
4
 70
     0
 62
     7
  6
CONTINUOUS
  0
ENDTAB
  0
TABLE
  2
STYLE
 70
     1
  0
STYLE
  2
STANDARD
 70
     0
 40
0.0
 41
1.0
 50
15.0
 71
     0
 42
150.0
  3
C:\Program Files\AutoCAD LT\simplex.shx
  4
bigfont.shx
  0
ENDTAB
  0
TABLE
  2
VIEW
 70
     0
  0
ENDTAB
  0
TABLE
  2
UCS
 70
     0
  0
ENDTAB
  0
TABLE
  2
APPID
 70
     2
  0
APPID
  2
ACAD
 70
     0
  0
APPID
  2
CONTENTBLOCKICON
 70
     0
  0
ENDTAB
  0
TABLE
  2
DIMSTYLE
 70
     2
  0
DIMSTYLE
  2
MATSU
 70
     0
  3

  4

  5

  6
OPEN
  7
OPEN
 40
1.0
 41
2.0
 42
1.0
 43
10.0
 44
1.0
 45
0.0
 46
0.0
 47
0.0
 48
0.0
140
3.0
141
0.0
142
0.0
143
0.03937
144
1.0
145
0.0
146
1.0
147
0.5
 71
     0
 72
     0
 73
     0
 74
     0
 75
     0
 76
     0
 77
     1
 78
     8
170
     0
171
     2
172
     1
173
     1
174
     0
175
     0
176
   256
177
   256
178
   256
  0
DIMSTYLE
  2
STANDARD
 70
     0
  3

  4

  5

  6

  7

 40
1.0
 41
0.18
 42
0.0625
 43
0.38
 44
0.18
 45
0.0
 46
0.0
 47
0.0
 48
0.0
140
0.18
141
0.09
142
0.0
143
25.399999999999999
144
1.0
145
0.0
146
1.0
147
0.09
 71
     0
 72
     0
 73
     1
 74
     1
 75
     0
 76
     0
 77
     0
 78
     0
170
     0
171
     2
172
     0
173
     0
174
     0
175
     0
176
     0
177
     0
178
     0
  0
ENDTAB
  0
ENDSEC
  0
SECTION
  2
BLOCKS
  0
BLOCK
  8
0
  2
$MODEL_SPACE
 70
     0
 10
0.0
 20
0.0
 30
0.0
  3
$MODEL_SPACE
  1

  0
ENDBLK
  5
7
  8
0
  0
BLOCK
 67
     1
  8
0
  2
$PAPER_SPACE
 70
     0
 10
0.0
 20
0.0
 30
0.0
  3
$PAPER_SPACE
  1

  0
ENDBLK
  5
A
 67
     1
  8
0
  0
BLOCK
  8
0
  2
_OPEN
 70
     0
 10
0.0
 20
0.0
 30
0.0
  3
_OPEN
  1

  0
LINE
  5
27
  8
0
  6
BYBLOCK
 62
     0
 10
-1.0
 20
0.1666666666666666
 30
0.0
 11
0.0
 21
0.0
 31
0.0
  0
LINE
  5
28
  8
0
  6
BYBLOCK
 62
     0
 10
0.0
 20
0.0
 30
0.0
 11
-1.0
 21
-0.1666666666666666
 31
0.0
  0
LINE
  5
29
  8
0
  6
BYBLOCK
 62
     0
 10
0.0
 20
0.0
 30
0.0
 11
-1.0
 21
0.0
 31
0.0
  0
ENDBLK
  5
2B
  8
0
  0
BLOCK
  8
0
  2
_DOT
 70
     0
 10
0.0
 20
0.0
 30
0.0
  3
_DOT
  1

  0
POLYLINE
  5
DB
  8
0
  6
BYBLOCK
 62
     0
 66
     1
 10
0.0
 20
0.0
 30
0.0
 70
     1
 40
0.25
 41
0.25
  0
VERTEX
  5
25E1
  8
0
  6
BYBLOCK
 62
     0
 10
-0.125
 20
0.0
 30
0.0
 42
1.0
  0
VERTEX
  5
25E2
  8
0
  6
BYBLOCK
 62
     0
 10
0.125
 20
0.0
 30
0.0
 42
1.0
  0
SEQEND
  5
25E3
  8
0
  6
BYBLOCK
 62
     0
  0
LINE
  5
DF
  8
0
  6
BYBLOCK
 62
     0
 10
-0.25
 20
0.0
 30
0.0
 11
-1.0
 21
0.0
 31
0.0
  0
ENDBLK
  5
E1
  8
0
  0
BLOCK
  8
0
  2
まっすぐの矢印
 70
     0
 10
0.0
 20
0.0
 30
0.0
  3
まっすぐの矢印
  1

  0
LINE
  5
8C
  8
SP
 10
13.01863531255526
 20
-41.453946163708451
 30
0.0
 11
13.01863531255526
 21
-93.495696758840026
 31
0.0
  0
LINE
  5
8D
  8
SP
 10
13.01863531255526
 20
-93.495696758840026
 30
0.0
 11
-13.01863531255526
 21
-93.495696758840026
 31
0.0
  0
LINE
  5
8E
  8
SP
 10
-13.01863531255526
 20
-93.495696758840026
 30
0.0
 11
-13.01863531255526
 21
-41.453946163708451
 31
0.0
  0
LINE
  5
8F
  8
SP
 10
-13.01863531255526
 20
-41.453946163708451
 30
0.0
 11
-32.06015471115802
 21
-41.453946163708451
 31
0.0
  0
LINE
  5
90
  8
SP
 10
-32.06015471115802
 20
-41.453946163708451
 30
0.0
 11
0.0
 21
0.0
 31
0.0
  0
LINE
  5
91
  8
SP
 10
0.0
 20
0.0
 30
0.0
 11
32.06015471115802
 21
-41.453946163708451
 31
0.0
  0
LINE
  5
92
  8
SP
 10
32.06015471115802
 20
-41.453946163708451
 30
0.0
 11
13.01863531255526
 21
-41.453946163708451
 31
0.0
  0
ENDBLK
  5
94
  8
0
  0
BLOCK
  8
0
  2
左回転矢印
 70
     0
 10
0.0
 20
0.0
 30
0.0
  3
左回転矢印
  1

  0
LINE
  5
2C7
  8
SP
 10
43.930449171819873
 20
24.859487323637271
 30
0.0
 11
38.511878498580238
 21
44.478978865188871
 31
0.0
  0
LINE
  5
2C8
  8
SP
 10
38.511878498580238
 20
44.478978865188871
 30
0.0
 11
0.0
 21
0.0
 31
0.0
  0
LINE
  5
2C9
  8
SP
 10
0.0
 20
0.0
 30
0.0
 11
52.57968174421967
 21
-6.4575435924972453
 31
0.0
  0
LINE
  5
2CA
  8
SP
 10
52.57968174421967
 20
-6.4575435924972453
 30
0.0
 11
48.189912989015284
 21
9.436875093862227
 31
0.0
  0
ARC
  5
2CB
  8
SP
 10
93.893649146691985
 20
-156.0466295121104
 30
0.0
 40
171.67883327727239
 50
67.881388989212894
 51
105.4392492786835
  0
LINE
  5
2CC
  8
SP
 10
158.53505643637521
 20
2.997736182040398
 30
0.0
 11
164.55945966006539
 21
17.820238190756751
 31
0.0
  0
ARC
  5
2CD
  8
SP
 10
93.893649146692198
 20
-156.04662951211091
 30
0.0
 40
187.67883327727299
 50
67.881388989212994
 51
105.4392492786836
  0
ENDBLK
  5
2CF
  8
0
  0
BLOCK
  8
0
  2
*D4
 70
     1
 10
0.0
 20
0.0
 30
0.0
  3
*D4
  1

  0
LINE
  5
25D4
  8
SP
 10
20112.50704655658
 20
17930.605294610199
 30
0.0
 11
20761.916135762171
 21
17930.605294610199
 31
0.0
  0
LINE
  5
25D5
  8
SP
 10
20721.916135762171
 20
18030.605294610199
 30
0.0
 11
20721.916135762171
 21
18110.605294610199
 31
0.0
  0
LINE
  5
25D6
  8
SP
 10
20721.916135762171
 20
17850.605294610199
 30
0.0
 11
20721.916135762171
 21
17770.605294610192
 31
0.0
  0
LINE
  5
25D7
  8
SP
 10
20721.916135762171
 20
17940.605294610192
 30
0.0
 11
21159.792342704219
 21
18113.725955384049
 31
0.0
  0
LINE
  5
25D8
  8
SP
 10
21159.792342704219
 20
18113.725955384049
 30
0.0
 11
21159.792342704219
 21
18501.586780224148
 31
0.0
  0
TEXT
  8
0
  40
120
  5
2603
  72
0
  71
0
 10
20808.4
 20
18095.3
 30
0.000000
  1
(20)
  0
LINE
  5
25DA
  8
SP
 10
20721.916135762171
 20
17950.605294610199
 30
0.0
 11
20721.916135762171
 21
17930.605294610199
 31
0.0
  0
LINE
  5
25DB
  8
SP
 10
20721.916135762171
 20
17950.605294610199
 30
0.0
 11
20721.916135762171
 21
17930.605294610199
 31
0.0
  0
INSERT
  5
25DC
  8
SP
  2
_OPEN
 10
20721.916135762171
 20
17950.605294610199
 30
0.0
 41
80.0
 42
80.0
 43
80.0
 50
270.0
  0
INSERT
  5
25DD
  8
SP
  2
_DOT
 10
20721.916135762171
 20
17930.605294610199
 30
0.0
 41
80.0
 42
80.0
 43
80.0
 50
90.0
  0
POINT
  5
25DE
  8
DEFPOINTS
 62
     0
 10
20037.620258889059
 20
17950.605294610199
 30
0.0
  0
POINT
  5
25DF
  8
DEFPOINTS
 62
     0
 10
20072.50704655658
 20
17930.605294610199
 30
0.0
  0
POINT
  5
25E0
  8
DEFPOINTS
 62
     0
 10
20721.916135762171
 20
17930.605294610199
 30
0.0
  0
ENDBLK
  5
88C
  8
0
  0
BLOCK
  8
0
  2
*D5
 70
     1
 10
0.0
 20
0.0
 30
0.0
  3
*D5
  1

  0
LINE
  5
2573
  8
SP
 10
21603.082491516769
 20
20518.9790946102
 30
0.0
 11
21603.082491516769
 21
21912.309393305051
 31
0.0
  0
LINE
  5
2574
  8
SP
 10
24053.082491516761
 20
21440.933586600338
 30
0.0
 11
24053.082491516761
 21
21912.309393305051
 31
0.0
  0
LINE
  5
2575
  8
SP
 10
21683.082491516761
 20
21872.309393305051
 30
0.0
 11
23973.082491516761
 21
21872.309393305051
 31
0.0
  0
INSERT
  5
2576
  8
SP
  2
_OPEN
 10
21603.082491516769
 20
21872.309393305051
 30
0.0
 41
80.0
 42
80.0
 43
80.0
 50
180.0
  0
INSERT
  5
2577
  8
SP
  2
_OPEN
 10
24053.082491516761
 20
21872.309393305051
 30
0.0
 41
80.0
 42
80.0
 43
80.0
  0
TEXT
  5
2578
  8
FUTO
 10
22531.08980261179
 20
21943.73796473362
 30
0.0
 40
120.0
  1
(2450)
 51
15.0
  0
POINT
  5
2579
  8
DEFPOINTS
 62
     0
 10
21603.082491516769
 20
20478.9790946102
 30
0.0
  0
POINT
  5
257A
  8
DEFPOINTS
 62
     0
 10
24053.082491516761
 20
21400.933586600338
 30
0.0
  0
POINT
  5
257B
  8
DEFPOINTS
 62
     0
 10
24053.082491516761
 20
21872.309393305051
 30
0.0
  0
ENDBLK
  5
1423
  8
0
  0
BLOCK
  8
0
  2
*D6
 70
     1
 10
0.0
 20
0.0
 30
0.0
  3
*D6
  1

  0
LINE
  5
25E4
  8
SP
 10
20112.50704655658
 20
17780.605294610192
 30
0.0
 11
20761.916135762171
 21
17780.605294610192
 31
0.0
  0
LINE
  5
25E5
  8
SP
 10
20721.916135762171
 20
18010.605294610199
 30
0.0
 11
20721.916135762171
 21
18090.605294610192
 31
0.0
  0
LINE
  5
25E6
  8
SP
 10
20721.916135762171
 20
17700.605294610192
 30
0.0
 11
20721.916135762171
 21
17300.605294610199
 31
0.0
  0
LINE
  5
25E7
  8
SP
 10
20721.916135762171
 20
17930.605294610199
 30
0.0
 11
20721.916135762171
 21
17780.605294610192
 31
0.0
  0
INSERT
  5
25E8
  8
SP
  2
_DOT
 10
20721.916135762171
 20
17930.605294610199
 30
0.0
 41
80.0
 42
80.0
 43
80.0
 50
270.0
  0
INSERT
  5
25E9
  8
SP
  2
_OPEN
 10
20721.916135762171
 20
17780.605294610192
 30
0.0
 41
80.0
 42
80.0
 43
80.0
 50
90.0
  0
TEXT
  8
0
  40
120
  5
2604
  72
0
  71
0
 10
20401.9
 20
17248.2
 30
0.000000
  1
150
  0
POINT
  5
25EB
  8
DEFPOINTS
 62
     0
 10
20072.50704655658
 20
17930.605294610199
 30
0.0
  0
POINT
  5
25EC
  8
DEFPOINTS
 62
     0
 10
20072.50704655658
 20
17780.605294610192
 30
0.0
  0
POINT
  5
25ED
  8
DEFPOINTS
 62
     0
 10
20721.916135762171
 20
17780.605294610192
 30
0.0
  0
ENDBLK
  5
18FA
  8
0
  0
BLOCK
  8
0
  2
*D7
 70
     1
 10
0.0
 20
0.0
 30
0.0
  3
*D7
  1

  0
LINE
  5
2596
  8
SP
 10
19012.50704655658
 20
26003.689325993098
 30
0.0
 11
19012.50704655658
 21
26262.56795430382
 31
0.0
  0
LINE
  5
2597
  8
SP
 10
20177.50704655658
 20
25738.694022820859
 30
0.0
 11
20177.50704655658
 21
26262.56795430382
 31
0.0
  0
LINE
  5
2598
  8
SP
 10
19092.50704655658
 20
26222.56795430382
 30
0.0
 11
20097.50704655658
 21
26222.56795430382
 31
0.0
  0
INSERT
  5
2599
  8
SP
  2
_OPEN
 10
19012.50704655658
 20
26222.56795430382
 30
0.0
 41
80.0
 42
80.0
 43
80.0
 50
180.0
  0
INSERT
  5
259A
  8
SP
  2
_OPEN
 10
20177.50704655658
 20
26222.56795430382
 30
0.0
 41
80.0
 42
80.0
 43
80.0
  0
TEXT
  5
259B
  8
FUTO
 10
19383.058277092619
 20
26242.56795430382
 30
0.0
 40
120.0
  1
1165
 51
15.0
  0
POINT
  5
259C
  8
DEFPOINTS
 62
     0
 10
19012.50704655658
 20
25963.689325993098
 30
0.0
  0
POINT
  5
259D
  8
DEFPOINTS
 62
     0
 10
20177.50704655658
 20
25698.694022820859
 30
0.0
  0
POINT
  5
259E
  8
DEFPOINTS
 62
     0
 10
20177.50704655658
 20
26222.56795430382
 30
0.0
  0
ENDBLK
  5
1915
  8
0
  0
BLOCK
  8
0
  2
*D8
 70
     1
 10
0.0
 20
0.0
 30
0.0
  3
*D8
  1

  0
LINE
  5
2517
  8
SP
 10
17072.50704655658
 20
24345.69402282087
 30
0.0
 11
17072.50704655658
 21
26262.56795430382
 31
0.0
  0
LINE
  5
2518
  8
SP
 10
18932.50704655658
 20
26222.56795430382
 30
0.0
 11
17152.50704655658
 21
26222.56795430382
 31
0.0
  0
INSERT
  5
2519
  8
SP
  2
_OPEN
 10
19012.50704655658
 20
26222.56795430382
 30
0.0
 41
80.0
 42
80.0
 43
80.0
  0
INSERT
  5
251A
  8
SP
  2
_OPEN
 10
17072.50704655658
 20
26222.56795430382
 30
0.0
 41
80.0
 42
80.0
 43
80.0
 50
180.0
  0
TEXT
  5
251B
  8
FUTO
 10
17819.334839291841
 20
26242.56795430382
 30
0.0
 40
120.0
  1
1940
 51
15.0
  0
POINT
  5
251C
  8
DEFPOINTS
 62
     0
 10
19012.50704655658
 20
26222.56795430382
 30
0.0
  0
POINT
  5
251D
  8
DEFPOINTS
 62
     0
 10
17072.50704655658
 20
24305.69402282087
 30
0.0
  0
POINT
  5
251E
  8
DEFPOINTS
 62
     0
 10
17072.50704655658
 20
26222.56795430382
 30
0.0
  0
ENDBLK
  5
1921
  8
0
  0
BLOCK
  8
0
  2
*D9
 70
     1
 10
0.0
 20
0.0
 30
0.0
  3
*D9
  1

  0
LINE
  5
259F
  8
SP
 10
20017.50704655658
 20
25764.69402282087
 30
0.0
 11
20637.493312046689
 21
25764.69402282087
 31
0.0
  0
LINE
  5
25A0
  8
SP
 10
20624.7414902655
 20
24969.69402282087
 30
0.0
 11
20557.493312046689
 21
24969.69402282087
 31
0.0
  0
LINE
  5
25A1
  8
SP
 10
20597.493312046689
 20
25684.69402282087
 30
0.0
 11
20597.493312046689
 21
25049.69402282087
 31
0.0
  0
INSERT
  5
25A2
  8
SP
  2
_OPEN
 10
20597.493312046689
 20
25764.69402282087
 30
0.0
 41
80.0
 42
80.0
 43
80.0
 50
90.0
  0
INSERT
  5
25A3
  8
SP
  2
_OPEN
 10
20597.493312046689
 20
24969.69402282087
 30
0.0
 41
80.0
 42
80.0
 43
80.0
 50
270.0
  0
TEXT
  5
25A4
  8
FUTO
 10
20577.493312046681
 20
25191.11707127501
 30
0.0
 40
120.0
  1
795
 50
90.0
 51
15.0
  0
POINT
  5
25A5
  8
DEFPOINTS
 62
     0
 10
19977.50704655658
 20
25764.69402282087
 30
0.0
  0
POINT
  5
25A6
  8
DEFPOINTS
 62
     0
 10
20664.7414902655
 20
24969.69402282087
 30
0.0
  0
POINT
  5
25A7
  8
DEFPOINTS
 62
     0
 10
20597.493312046689
 20
24969.69402282087
 30
0.0
  0
ENDBLK
  5
192F
  8
0
  0
BLOCK
  8
0
  2
*D10
 70
     1
 10
0.0
 20
0.0
 30
0.0
  3
*D10
  1

  0
LINE
  5
257C
  8
SP
 10
19432.50704655658
 20
22519.69402282087
 30
0.0
 11
20637.493312046689
 21
22519.69402282087
 31
0.0
  0
LINE
  5
257D
  8
SP
 10
20597.493312046689
 20
24889.69402282087
 30
0.0
 11
20597.493312046689
 21
22599.69402282087
 31
0.0
  0
INSERT
  5
257E
  8
SP
  2
_OPEN
 10
20597.493312046689
 20
24969.69402282087
 30
0.0
 41
80.0
 42
80.0
 43
80.0
 50
90.0
  0
INSERT
  5
257F
  8
SP
  2
_OPEN
 10
20597.493312046689
 20
22519.69402282087
 30
0.0
 41
80.0
 42
80.0
 43
80.0
 50
270.0
  0
TEXT
  5
2580
  8
FUTO
 10
20577.493312046689
 20
23523.107919188511
 30
0.0
 40
120.0
  1
2450
 50
90.0
 51
15.0
  0
POINT
  5
2581
  8
DEFPOINTS
 62
     0
 10
20597.493312046689
 20
24969.69402282087
 30
0.0
  0
POINT
  5
2582
  8
DEFPOINTS
 62
     0
 10
19392.50704655658
 20
22519.69402282087
 30
0.0
  0
POINT
  5
2583
  8
DEFPOINTS
 62
     0
 10
20597.493312046689
 20
22519.69402282087
 30
0.0
  0
ENDBLK
  5
193B
  8
0
  0
BLOCK
  8
0
  2
*D11
 70
     1
 10
0.0
 20
0.0
 30
0.0
  3
*D11
  1

  0
LINE
  5
251F
  8
SP
 10
20072.50704655658
 20
17740.605294610192
 30
0.0
 11
20072.50704655658
 21
16986.68336527127
 31
0.0
  0
LINE
  5
2520
  8
SP
 10
17072.50704655658
 20
17740.605294610192
 30
0.0
 11
17072.50704655658
 21
16986.68336527127
 31
0.0
  0
LINE
  5
2521
  8
SP
 10
19992.50704655658
 20
17026.68336527127
 30
0.0
 11
17152.50704655658
 21
17026.68336527127
 31
0.0
  0
INSERT
  5
2522
  8
SP
  2
_OPEN
 10
20072.50704655658
 20
17026.68336527127
 30
0.0
 41
80.0
 42
80.0
 43
80.0
  0
INSERT
  5
2523
  8
SP
  2
_OPEN
 10
17072.50704655658
 20
17026.68336527127
 30
0.0
 41
80.0
 42
80.0
 43
80.0
 50
180.0
  0
TEXT
  5
2524
  8
FUTO
 10
18347.858666439279
 20
17046.68336527127
 30
0.0
 40
120.0
  1
3000
 51
15.0
  0
POINT
  5
2525
  8
DEFPOINTS
 62
     0
 10
20072.50704655658
 20
17780.605294610192
 30
0.0
  0
POINT
  5
2526
  8
DEFPOINTS
 62
     0
 10
17072.50704655658
 20
17780.605294610192
 30
0.0
  0
POINT
  5
2527
  8
DEFPOINTS
 62
     0
 10
17072.50704655658
 20
17026.68336527127
 30
0.0
  0
ENDBLK
  5
1983
  8
0
  0
BLOCK
  8
0
  2
*D12
 70
     1
 10
0.0
 20
0.0
 30
0.0
  3
*D12
  1

  0
LINE
  5
25EE
  8
SP
 10
17072.50704655658
 20
17740.605294610192
 30
0.0
 11
17072.50704655658
 21
17305.397915891888
 31
0.0
  0
LINE
  5
25EF
  8
SP
 10
18932.50704655658
 20
17345.397915891888
 30
0.0
 11
17152.50704655658
 21
17345.397915891888
 31
0.0
  0
INSERT
  5
25F0
  8
SP
  2
_OPEN
 10
19012.50704655658
 20
17345.397915891888
 30
0.0
 41
80.0
 42
80.0
 43
80.0
  0
INSERT
  5
25F1
  8
SP
  2
_OPEN
 10
17072.50704655658
 20
17345.397915891888
 30
0.0
 41
80.0
 42
80.0
 43
80.0
 50
180.0
  0
TEXT
  8
0
  40
120
  5
2605
  72
0
  71
0
 10
17802.5
 20
17213.0
 30
0.000000
  1
1940
  0
POINT
  5
25F3
  8
DEFPOINTS
 62
     0
 10
19012.50704655658
 20
17699.95111959998
 30
0.0
  0
POINT
  5
25F4
  8
DEFPOINTS
 62
     0
 10
17072.50704655658
 20
17780.605294610192
 30
0.0
  0
POINT
  5
25F5
  8
DEFPOINTS
 62
     0
 10
17072.50704655658
 20
17345.397915891888
 30
0.0
  0
ENDBLK
  5
198E
  8
0
  0
BLOCK
  8
0
  2
*D13
 70
     1
 10
0.0
 20
0.0
 30
0.0
  3
*D13
  1

  0
LINE
  5
2558
  8
SP
 10
20072.50704655658
 20
17740.605294610192
 30
0.0
 11
20072.50704655658
 21
17305.397915891888
 31
0.0
  0
LINE
  5
2559
  8
SP
 10
19012.50704655658
 20
17659.95111959998
 30
0.0
 11
19012.50704655658
 21
17305.397915891888
 31
0.0
  0
LINE
  5
255A
  8
SP
 10
19992.50704655658
 20
17345.397915891888
 30
0.0
 11
19092.50704655658
 21
17345.397915891888
 31
0.0
  0
INSERT
  5
255B
  8
SP
  2
_OPEN
 10
20072.50704655658
 20
17345.397915891888
 30
0.0
 41
80.0
 42
80.0
 43
80.0
  0
INSERT
  5
255C
  8
SP
  2
_OPEN
 10
19012.50704655658
 20
17345.397915891888
 30
0.0
 41
80.0
 42
80.0
 43
80.0
 50
180.0
  0
TEXT
  5
255D
  8
FUTO
 10
19319.334839291841
 20
17365.397915891888
 30
0.0
 40
120.0
  1
1060
 51
15.0
  0
POINT
  5
255E
  8
DEFPOINTS
 62
     0
 10
20072.50704655658
 20
17780.605294610192
 30
0.0
  0
POINT
  5
255F
  8
DEFPOINTS
 62
     0
 10
19012.50704655658
 20
17699.95111959998
 30
0.0
  0
POINT
  5
2560
  8
DEFPOINTS
 62
     0
 10
19012.50704655658
 20
17345.397915891888
 30
0.0
  0
ENDBLK
  5
199A
  8
0
  0
BLOCK
  8
0
  2
*D14
 70
     1
 10
0.0
 20
0.0
 30
0.0
  3
*D14
  1

  0
LINE
  5
258D
  8
SP
 10
20177.50704655658
 20
20104.41177505321
 30
0.0
 11
20177.50704655658
 21
21928.797111115731
 31
0.0
  0
LINE
  5
258E
  8
SP
 10
19012.50704655658
 20
21457.264633517501
 30
0.0
 11
19012.50704655658
 21
21928.797111115731
 31
0.0
  0
LINE
  5
258F
  8
SP
 10
20097.50704655658
 20
21888.797111115731
 30
0.0
 11
19092.50704655658
 21
21888.797111115731
 31
0.0
  0
INSERT
  5
2590
  8
SP
  2
_OPEN
 10
20177.50704655658
 20
21888.797111115731
 30
0.0
 41
80.0
 42
80.0
 43
80.0
  0
INSERT
  5
2591
  8
SP
  2
_OPEN
 10
19012.50704655658
 20
21888.797111115731
 30
0.0
 41
80.0
 42
80.0
 43
80.0
 50
180.0
  0
TEXT
  5
2592
  8
FUTO
 10
19383.058277092619
 20
21908.797111115731
 30
0.0
 40
120.0
  1
1165
 51
15.0
  0
POINT
  5
2593
  8
DEFPOINTS
 62
     0
 10
20177.50704655658
 20
20064.41177505321
 30
0.0
  0
POINT
  5
2594
  8
DEFPOINTS
 62
     0
 10
19012.50704655658
 20
21417.264633517501
 30
0.0
  0
POINT
  5
2595
  8
DEFPOINTS
 62
     0
 10
19012.50704655658
 20
21888.797111115731
 30
0.0
  0
ENDBLK
  5
19AE
  8
0
  0
BLOCK
  8
0
  2
*D15
 70
     1
 10
0.0
 20
0.0
 30
0.0
  3
*D15
  1

  0
LINE
  5
2546
  8
SP
 10
21942.082491516761
 20
17740.605278004208
 30
0.0
 11
21942.082491516761
 21
17001.087120274969
 31
0.0
  0
LINE
  5
2547
  8
SP
 10
24792.082491516761
 20
17740.605278004208
 30
0.0
 11
24792.082491516761
 21
17001.087120274969
 31
0.0
  0
LINE
  5
2548
  8
SP
 10
22022.082491516761
 20
17041.087120274969
 30
0.0
 11
24712.082491516761
 21
17041.087120274969
 31
0.0
  0
INSERT
  5
2549
  8
SP
  2
_OPEN
 10
21942.082491516761
 20
17041.087120274969
 30
0.0
 41
80.0
 42
80.0
 43
80.0
 50
180.0
  0
INSERT
  5
254A
  8
SP
  2
_OPEN
 10
24792.082491516761
 20
17041.087120274969
 30
0.0
 41
80.0
 42
80.0
 43
80.0
  0
TEXT
  5
254B
  8
FUTO
 10
23145.496387884388
 20
17061.087120274969
 30
0.0
 40
120.0
  1
2850
 51
15.0
  0
POINT
  5
254C
  8
DEFPOINTS
 62
     0
 10
21942.082491516761
 20
17780.605278004208
 30
0.0
  0
POINT
  5
254D
  8
DEFPOINTS
 62
     0
 10
24792.082491516761
 20
17780.605278004208
 30
0.0
  0
POINT
  5
254E
  8
DEFPOINTS
 62
     0
 10
24792.082491516761
 20
17041.087120274969
 30
0.0
  0
ENDBLK
  5
1A36
  8
0
  0
BLOCK
  8
0
  2
*D16
 70
     1
 10
0.0
 20
0.0
 30
0.0
  3
*D16
  1

  0
LINE
  5
254F
  8
SP
 10
21942.082491516761
 20
17740.605278004208
 30
0.0
 11
21942.082491516761
 21
17301.124665239899
 31
0.0
  0
LINE
  5
2550
  8
SP
 10
24053.082491516761
 20
17719.67822601027
 30
0.0
 11
24053.082491516761
 21
17301.124665239899
 31
0.0
  0
LINE
  5
2551
  8
SP
 10
22022.082491516761
 20
17341.124665239891
 30
0.0
 11
23973.082491516761
 21
17341.124665239891
 31
0.0
  0
INSERT
  5
2552
  8
SP
  2
_OPEN
 10
21942.082491516761
 20
17341.124665239891
 30
0.0
 41
80.0
 42
80.0
 43
80.0
 50
180.0
  0
INSERT
  5
2553
  8
SP
  2
_OPEN
 10
24053.082491516761
 20
17341.124665239891
 30
0.0
 41
80.0
 42
80.0
 43
80.0
  0
TEXT
  5
2554
  8
FUTO
 10
22818.64839711375
 20
17361.124665239891
 30
0.0
 40
120.0
  1
2111
 51
15.0
  0
POINT
  5
2555
  8
DEFPOINTS
 62
     0
 10
21942.082491516761
 20
17780.605278004208
 30
0.0
  0
POINT
  5
2556
  8
DEFPOINTS
 62
     0
 10
24053.082491516761
 20
17759.67822601027
 30
0.0
  0
POINT
  5
2557
  8
DEFPOINTS
 62
     0
 10
24053.082491516761
 20
17341.124665239891
 30
0.0
  0
ENDBLK
  5
1A42
  8
0
  0
BLOCK
  8
0
  2
*D17
 70
     1
 10
0.0
 20
0.0
 30
0.0
  3
*D17
  1

  0
LINE
  5
25F6
  8
SP
 10
24792.082491516761
 20
17740.605278004208
 30
0.0
 11
24792.082491516761
 21
17301.124665239899
 31
0.0
  0
LINE
  5
25F7
  8
SP
 10
24133.082491516761
 20
17341.124665239891
 30
0.0
 11
24712.082491516761
 21
17341.124665239891
 31
0.0
  0
INSERT
  5
25F8
  8
SP
  2
_OPEN
 10
24053.082491516761
 20
17341.124665239891
 30
0.0
 41
80.0
 42
80.0
 43
80.0
 50
180.0
  0
INSERT
  5
25F9
  8
SP
  2
_OPEN
 10
24792.082491516761
 20
17341.124665239891
 30
0.0
 41
80.0
 42
80.0
 43
80.0
  0
TEXT
  8
0
  40
120
  5
2606
  72
0
  71
0
 10
24182.6
 20
17208.7
 30
0.000000
  1
739
  0
POINT
  5
25FB
  8
DEFPOINTS
 62
     0
 10
24053.082491516761
 20
17759.67822601027
 30
0.0
  0
POINT
  5
25FC
  8
DEFPOINTS
 62
     0
 10
24792.082491516761
 20
17780.605278004208
 30
0.0
  0
POINT
  5
25FD
  8
DEFPOINTS
 62
     0
 10
24792.082491516761
 20
17341.124665239891
 30
0.0
  0
ENDBLK
  5
1A4D
  8
0
  0
BLOCK
  8
0
  2
*D18
 70
     1
 10
0.0
 20
0.0
 30
0.0
  3
*D18
  1

  0
LINE
  5
25B4
  8
SP
 10
24053.082491516761
 20
21864.25173266944
 30
0.0
 11
24053.082491516761
 21
21832.309393305051
 31
0.0
  0
LINE
  5
25B5
  8
SP
 10
24848.082491516769
 20
21103.9790946102
 30
0.0
 11
24848.082491516769
 21
21912.309393305051
 31
0.0
  0
LINE
  5
25B6
  8
SP
 10
24133.082491516761
 20
21872.309393305051
 30
0.0
 11
24768.082491516769
 21
21872.309393305051
 31
0.0
  0
INSERT
  5
25B7
  8
SP
  2
_OPEN
 10
24053.082491516761
 20
21872.309393305051
 30
0.0
 41
80.0
 42
80.0
 43
80.0
 50
180.0
  0
INSERT
  5
25B8
  8
SP
  2
_OPEN
 10
24848.082491516769
 20
21872.309393305051
 30
0.0
 41
80.0
 42
80.0
 43
80.0
  0
TEXT
  5
25B9
  8
FUTO
 10
24205.867915014998
 20
21892.309393305051
 30
0.0
 40
120.0
  1
795
 51
15.0
  0
POINT
  5
25BA
  8
DEFPOINTS
 62
     0
 10
24053.082491516761
 20
21904.25173266944
 30
0.0
  0
POINT
  5
25BB
  8
DEFPOINTS
 62
     0
 10
24848.082491516769
 20
21063.9790946102
 30
0.0
  0
POINT
  5
25BC
  8
DEFPOINTS
 62
     0
 10
24848.082491516769
 20
21872.309393305051
 30
0.0
  0
ENDBLK
  5
1A85
  8
0
  0
BLOCK
  8
0
  2
*D19
 70
     1
 10
0.0
 20
0.0
 30
0.0
  3
*D19
  1

  0
LINE
  5
2530
  8
SP
 10
20112.50704655658
 20
17950.605294610199
 30
0.0
 11
20761.916135762171
 21
17950.605294610199
 31
0.0
  0
LINE
  5
2531
  8
SP
 10
20597.861045600679
 20
20100.605294610199
 30
0.0
 11
20761.916135762171
 21
20100.605294610199
 31
0.0
  0
LINE
  5
2532
  8
SP
 10
20721.916135762171
 20
18030.605294610199
 30
0.0
 11
20721.916135762171
 21
20020.605294610199
 31
0.0
  0
INSERT
  5
2533
  8
SP
  2
_OPEN
 10
20721.916135762171
 20
17950.605294610199
 30
0.0
 41
80.0
 42
80.0
 43
80.0
 50
270.0
  0
INSERT
  5
2534
  8
SP
  2
_OPEN
 10
20721.916135762171
 20
20100.605294610199
 30
0.0
 41
80.0
 42
80.0
 43
80.0
 50
90.0
  0
TEXT
  5
2535
  8
FUTO
 10
20701.91613576216
 20
18815.447762406398
 30
0.0
 40
120.0
  1
2150
 50
90.0
 51
15.0
  0
POINT
  5
2536
  8
DEFPOINTS
 62
     0
 10
20072.50704655658
 20
17950.605294610199
 30
0.0
  0
POINT
  5
2537
  8
DEFPOINTS
 62
     0
 10
20557.861045600679
 20
20100.605294610199
 30
0.0
  0
POINT
  5
2538
  8
DEFPOINTS
 62
     0
 10
20721.916135762171
 20
20100.605294610199
 30
0.0
  0
ENDBLK
  5
1A9B
  8
0
  0
BLOCK
  8
0
  2
*D20
 70
     1
 10
0.0
 20
0.0
 30
0.0
  3
*D20
  1

  0
LINE
  5
2584
  8
SP
 10
19160.318750319791
 20
21392.605294610199
 30
0.0
 11
20761.916135762171
 21
21392.605294610199
 31
0.0
  0
LINE
  5
2585
  8
SP
 10
20597.861045600679
 20
20100.605294610199
 30
0.0
 11
20761.916135762171
 21
20100.605294610199
 31
0.0
  0
LINE
  5
2586
  8
SP
 10
20721.916135762171
 20
21312.605294610199
 30
0.0
 11
20721.916135762171
 21
20180.605294610199
 31
0.0
  0
INSERT
  5
2587
  8
SP
  2
_OPEN
 10
20721.916135762171
 20
21392.605294610199
 30
0.0
 41
80.0
 42
80.0
 43
80.0
 50
90.0
  0
INSERT
  5
2588
  8
SP
  2
_OPEN
 10
20721.916135762171
 20
20100.605294610199
 30
0.0
 41
80.0
 42
80.0
 43
80.0
 50
270.0
  0
TEXT
  5
2589
  8
FUTO
 10
20701.91613576216
 20
20523.43308734546
 30
0.0
 40
120.0
  1
1292
 50
90.0
 51
15.0
  0
POINT
  5
258A
  8
DEFPOINTS
 62
     0
 10
19120.318750319799
 20
21392.605294610199
 30
0.0
  0
POINT
  5
258B
  8
DEFPOINTS
 62
     0
 10
20557.861045600679
 20
20100.605294610199
 30
0.0
  0
POINT
  5
258C
  8
DEFPOINTS
 62
     0
 10
20721.916135762171
 20
20100.605294610199
 30
0.0
  0
ENDBLK
  5
1AB2
  8
0
  0
BLOCK
  8
0
  2
*D21
 70
     1
 10
0.0
 20
0.0
 30
0.0
  3
*D21
  1

  0
LINE
  5
25A9
  8
SP
 10
24888.082491516769
 20
20998.9790946102
 30
0.0
 11
25468.090633728491
 21
20998.9790946102
 31
0.0
  0
LINE
  5
25AA
  8
SP
 10
24888.082491516769
 20
19198.9790946102
 30
0.0
 11
25468.090633728491
 21
19198.9790946102
 31
0.0
  0
LINE
  5
25AB
  8
SP
 10
25428.090633728491
 20
20918.9790946102
 30
0.0
 11
25428.090633728491
 21
19278.9790946102
 31
0.0
  0
INSERT
  5
25AC
  8
SP
  2
_OPEN
 10
25428.090633728491
 20
20998.9790946102
 30
0.0
 41
80.0
 42
80.0
 43
80.0
 50
90.0
  0
INSERT
  5
25AD
  8
SP
  2
_OPEN
 10
25428.090633728491
 20
19198.9790946102
 30
0.0
 41
80.0
 42
80.0
 43
80.0
 50
270.0
  0
INSERT
  5
25AE
  8
FUTO
  2
*U22
 10
0.0
 20
0.0
 30
0.0
  0
POINT
  5
25AF
  8
DEFPOINTS
 62
     0
 10
24848.082491516769
 20
20998.9790946102
 30
0.0
  0
POINT
  5
25B0
  8
DEFPOINTS
 62
     0
 10
24848.082491516769
 20
19198.9790946102
 30
0.0
  0
POINT
  5
25B1
  8
DEFPOINTS
 62
     0
 10
25428.090633728491
 20
19198.9790946102
 30
0.0
  0
ENDBLK
  5
25B3
  8
0
  0
BLOCK
  8
0
  2
*U22
 70
     1
 10
0.0
 20
0.0
 30
0.0
  3
*U22
  1

  0
TEXT
  5
25FF
  8
FUTO
 10
25408.090633728491
 20
19801.971677773388
 30
0.0
 40
120.0
  1
\U+2205
 50
90.0
 51
15.0
  0
TEXT
  5
2600
  8
FUTO
 10
25408.090633728491
 20
19910.54310634482
 30
0.0
 40
120.0
  1
1800
 50
90.0
 51
15.0
  0
ENDBLK
  5
2602
  8
0
  0
ENDSEC
  0
SECTION
  2
ENTITIES
  0
INSERT
  5
89
  8
FUTO
  2
まっすぐの矢印
 10
20463.168657221719
 20
18534.16299794985
 30
0.0
 41
2.0
 42
2.0
 43
2.0
 50
270.0
  0
LINE
  5
AF
  8
CT
 10
19012.50704655658
 20
20100.605294610199
 30
0.0
 11
20184.0425420377
 21
20204.548297459489
 31
0.0
  0
LINE
  5
B2
  8
CT
 10
20557.861045600679
 20
20100.605294610199
 30
0.0
 11
17097.878940046481
 21
20100.605294610199
 31
0.0
  0
DIMENSION
  5
CF
  8
SP
  2
*D4
 10
20721.916135762171
 20
17930.605294610199
 30
0.0
 11
21159.792342704211
 21
18133.725955384059
 31
0.0
 70
   128
  1
(<>)
 13
20037.620258889059
 23
17950.605294610199
 33
0.0
 14
20072.50704655658
 24
17930.605294610199
 34
0.0
 50
90.0
1001
ACAD
1000
DSTYLE
1002
{
1070
   287
1070
     4
1070
    40
1040
40.0
1070
    75
1070
     1
1070
   279
1070
     1
1070
   289
1070
     3
1070
     7
1000
DOT
1002
}
  0
DIMENSION
  5
E7
  8
SP
  2
*D6
 10
20721.916135762171
 20
17780.605294610192
 30
0.0
 11
20641.91613576216
 21
17460.605294610199
 31
0.0
 70
     0
 13
20072.50704655658
 23
17930.605294610199
 33
0.0
 14
20072.50704655658
 24
17780.605294610192
 34
0.0
 50
90.0
1001
ACAD
1000
DSTYLE
1002
{
1070
   287
1070
     1
1070
    40
1040
40.0
1070
    75
1070
     1
1070
   289
1070
     1
1070
     6
1000
DOT
1002
}
  0
LINE
  5
104
  8
CT
 10
19012.50704655658
 20
21417.264633517501
 30
0.0
 11
19012.50704655658
 21
17679.05302482258
 31
0.0
  0
ARC
  5
10E
  8
FUTO
 10
17512.50704655658
 20
18450.605294610199
 30
0.0
 40
280.0
 50
142.87206734797689
 51
312.58055463983533
  0
ARC
  5
111
  8
FUTO
 10
17512.50704655658
 20
18450.605294610199
 30
0.0
 40
310.0
 50
300.10230806831191
 51
239.897691931688
  0
LINE
  5
112
  8
CT
 10
17512.50704655658
 20
19115.371180536509
 30
0.0
 11
17512.50704655658
 21
18128.313978349051
 31
0.0
  0
LINE
  5
115
  8
FUTO
 10
20053.50704655658
 20
20109.605294610199
 30
0.0
 11
20053.50704655658
 21
20554.106752333049
 31
0.0
  0
LINE
  5
116
  8
FUTO
 10
20062.50704655658
 20
20109.605294610199
 30
0.0
 11
20062.50704655658
 21
20522.299767568831
 31
0.0
  0
LINE
  5
117
  8
FUTO
 10
17962.50704655658
 20
20109.605294610199
 30
0.0
 11
17962.50704655658
 21
19938.055056496229
 31
0.0
  0
LINE
  5
118
  8
FUTO
 10
17971.50704655658
 20
20109.605294610199
 30
0.0
 11
17971.50704655658
 21
19944.511938008782
 31
0.0
  0
LINE
  5
119
  8
CT
 10
17512.50704655658
 20
18164.10403161019
 30
0.0
 11
17512.50704655658
 21
18748.375710610191
 31
0.0
  0
ARC
  5
122
  8
FUTO
 10
18902.00704655658
 20
20211.105294610199
 30
0.0
 40
1201.5
 50
352.27518828965918
 51
84.72314371307364
  0
ARC
  5
123
  8
KL
 10
18902.00704655658
 20
20211.105294610199
 30
0.0
 40
1181.4999999999991
 50
0.000000000000007
 51
90.994178943672054
  0
ARC
  5
124
  8
KL
 10
18881.50704655657
 20
19969.605294610199
 30
0.0
 40
1423.0
 50
89.999999999999986
 51
174.73663459410341
  0
DIMENSION
  5
13A
  8
SP
  2
*D12
 10
17072.50704655658
 20
17345.397915891888
 30
0.0
 11
18042.50704655658
 21
17425.397915891888
 31
0.0
 70
     0
 13
19012.50704655658
 23
17699.95111959998
 33
0.0
 14
17072.50704655658
 24
17780.605294610192
 34
0.0
1001
ACAD
1000
DSTYLE
1002
{
1070
   287
1070
     4
1070
    40
1040
40.0
1070
    75
1070
     1
1070
   279
1070
     1
1070
   289
1070
     3
1002
}
  0
LINE
  5
146
  8
FUTO
 10
20072.50704655658
 20
17930.605294610199
 30
0.0
 11
17072.50704655658
 21
17930.605294610199
 31
0.0
1001
ACAD
1000
ASC_BOUNDS
1002
{
1070
    19
1005
0
1002
}
  0
LINE
  5
147
  8
FUTO
 10
20072.50704655658
 20
17918.605294610192
 30
0.0
 11
17072.50704655658
 21
17918.605294610192
 31
0.0
  0
LINE
  5
148
  8
FUTO
 10
20072.50704655658
 20
17792.605294610192
 30
0.0
 11
17072.50704655658
 21
17792.605294610192
 31
0.0
  0
LINE
  5
149
  8
FUTO
 10
20072.50704655658
 20
17780.605294610192
 30
0.0
 11
17072.50704655658
 21
17780.605294610192
 31
0.0
  0
DIMENSION
  5
14A
  8
SP
  2
*D11
 10
17072.50704655658
 20
17026.68336527127
 30
0.0
 11
18572.50704655658
 21
17106.68336527127
 31
0.0
 70
     0
 13
20072.50704655658
 23
17780.605294610192
 33
0.0
 14
17072.50704655658
 24
17780.605294610192
 34
0.0
1001
ACAD
1000
DSTYLE
1002
{
1070
    40
1040
40.0
1002
}
  0
LINE
  5
157
  8
FUTO
 10
20072.50704655658
 20
18088.605294610199
 30
0.0
 11
17072.50704655658
 21
18088.605294610199
 31
0.0
  0
LINE
  5
158
  8
FUTO
 10
20072.50704655658
 20
17962.605294610192
 30
0.0
 11
17072.50704655658
 21
17962.605294610192
 31
0.0
  0
LINE
  5
159
  8
FUTO
 10
20072.50704655658
 20
18100.605294610192
 30
0.0
 11
17072.50704655658
 21
18100.605294610192
 31
0.0
  0
LINE
  5
15A
  8
FUTO
 10
20072.50704655658
 20
17950.605294610199
 30
0.0
 11
17072.50704655658
 21
17950.605294610199
 31
0.0
1001
ACAD
1000
ASC_BOUNDS
1002
{
1070
    19
1005
0
1002
}
  0
LINE
  5
15B
  8
FUTO
 10
17792.50704655658
 20
18200.605294610192
 30
0.0
 11
17695.810074354809
 21
18200.605294610192
 31
0.0
  0
LINE
  5
15C
  8
FUTO
 10
17792.50704655658
 20
18170.605294610199
 30
0.0
 11
17682.50704655658
 21
18170.605294610199
 31
0.0
  0
LINE
  5
15D
  8
FUTO
 10
17612.50704655657
 20
18170.605294610199
 30
0.0
 11
17827.50704655658
 21
18170.605294610199
 31
0.0
  0
LINE
  5
15E
  8
FUTO
 10
17837.50704655658
 20
18100.605294610192
 30
0.0
 11
17612.50704655657
 21
18100.605294610192
 31
0.0
  0
LINE
  5
15F
  8
CT
 10
17849.966010746331
 20
18450.605294610199
 30
0.0
 11
17169.229824363549
 21
18450.605294610199
 31
0.0
  0
LINE
  5
163
  8
CT
 10
17284.550757049641
 20
17965.133277817411
 30
0.0
 11
17284.550757049641
 21
17910.926502913258
 31
0.0
  0
LINE
  5
166
  8
FUTO
 10
17072.50704655658
 20
17930.605294610199
 30
0.0
 11
17072.50704655658
 21
17780.605294610192
 31
0.0
  0
LINE
  5
175
  8
FUTO
 10
17197.50704655658
 20
18170.605294610199
 30
0.0
 11
17412.50704655658
 21
18170.605294610199
 31
0.0
  0
LINE
  5
176
  8
FUTO
 10
17412.50704655658
 20
18100.605294610192
 30
0.0
 11
17187.50704655658
 21
18100.605294610192
 31
0.0
  0
CIRCLE
  5
177
  8
SL
 10
17512.50704655658
 20
18450.605294610199
 30
0.0
 40
200.0
  0
LINE
  5
178
  8
FUTO
 10
17232.50704655658
 20
18317.563947653649
 30
0.0
 11
17232.50704655658
 21
18170.605294610199
 31
0.0
  0
LINE
  5
179
  8
FUTO
 10
17072.50704655658
 20
18100.605294610192
 30
0.0
 11
17072.50704655658
 21
17950.605294610199
 31
0.0
  0
LINE
  5
17B
  8
CT
 10
17284.00704655658
 20
18215.774743099839
 30
0.0
 11
17284.00704655658
 21
18128.313978349051
 31
0.0
  0
LINE
  5
17C
  8
FUTO
 10
17329.204018758341
 20
18200.605294610192
 30
0.0
 11
17232.50704655658
 21
18200.605294610192
 31
0.0
  0
LINE
  5
17D
  8
FUTO
 10
17342.50704655658
 20
18191.375666673881
 30
0.0
 11
17342.50704655658
 21
18170.605294610199
 31
0.0
  0
LINE
  5
17E
  8
FUTO
 10
17342.50704655658
 20
18170.605294610199
 30
0.0
 11
17232.50704655658
 21
18170.605294610199
 31
0.0
  0
LINE
  5
17F
  8
FUTO
 10
17187.50704655658
 20
18100.605294610192
 30
0.0
 11
17197.50704655658
 21
18170.605294610199
 31
0.0
  0
LINE
  5
180
  8
CT
 10
17512.50704655658
 20
17959.18690942174
 30
0.0
 11
17512.50704655658
 21
18624.703308806791
 31
0.0
  0
LINE
  5
181
  8
FUTO
 10
17667.98617883218
 20
18182.414617242721
 30
0.0
 11
17357.02791428097
 21
18182.414617242721
 31
0.0
  0
LINE
  5
182
  8
FUTO
 10
17412.50704655658
 20
18160.605294610192
 30
0.0
 11
17612.50704655657
 21
18160.605294610192
 31
0.0
  0
LINE
  5
183
  8
FUTO
 10
17412.50704655658
 20
18110.605294610199
 30
0.0
 11
17612.50704655657
 21
18110.605294610199
 31
0.0
  0
LINE
  5
184
  8
FUTO
 10
17412.50704655658
 20
18160.605294610192
 30
0.0
 11
17412.50704655658
 21
18170.605294610199
 31
0.0
  0
LINE
  5
185
  8
FUTO
 10
17412.50704655658
 20
18100.605294610192
 30
0.0
 11
17412.50704655658
 21
18110.605294610199
 31
0.0
  0
LINE
  5
186
  8
CT
 10
17741.00704655658
 20
18215.774743099839
 30
0.0
 11
17741.00704655658
 21
18124.14918002758
 31
0.0
  0
LINE
  5
187
  8
FUTO
 10
17682.50704655658
 20
18191.375666673881
 30
0.0
 11
17682.50704655658
 21
18170.605294610199
 31
0.0
  0
LINE
  5
188
  8
FUTO
 10
17612.50704655657
 20
18160.605294610192
 30
0.0
 11
17612.50704655657
 21
18170.605294610199
 31
0.0
  0
LINE
  5
189
  8
FUTO
 10
17755.50704655658
 20
18170.605294610199
 30
0.0
 11
17655.50704655658
 21
18170.605294610199
 31
0.0
  0
LINE
  5
18A
  8
FUTO
 10
17612.50704655657
 20
18100.605294610192
 30
0.0
 11
17612.50704655657
 21
18110.605294610199
 31
0.0
  0
LINE
  5
18B
  8
CT
 10
18062.410652446819
 20
17965.133277817411
 30
0.0
 11
18062.410652446819
 21
17910.926502913258
 31
0.0
  0
LINE
  5
1A1
  8
FUTO
 10
18312.50704655658
 20
17930.605294610199
 30
0.0
 11
18312.50704655658
 21
17780.605294610192
 31
0.0
  0
LINE
  5
1A2
  8
FUTO
 10
18303.50704655658
 20
17930.605294610199
 30
0.0
 11
18303.50704655658
 21
17780.605294610192
 31
0.0
  0
LINE
  5
1A3
  8
FUTO
 10
18321.50704655658
 20
17930.605294610199
 30
0.0
 11
18321.50704655658
 21
17780.605294610192
 31
0.0
  0
ARC
  5
1A4
  8
FUTO
 10
18881.50704655657
 20
19969.605294610199
 30
0.0
 40
1443.0
 50
84.791340681045625
 51
130.93164026379389
  0
LINE
  5
1A7
  8
FUTO
 10
17792.50704655658
 20
18317.56394765366
 30
0.0
 11
17792.50704655658
 21
18170.605294610199
 31
0.0
  0
LINE
  5
1A8
  8
KL
 10
17969.396844668619
 20
18761.956095571681
 30
0.0
 11
17927.400248801689
 21
18712.30746303904
 31
0.0
  0
LINE
  5
1A9
  8
KL
 10
17955.65401010108
 20
18773.580832043928
 30
0.0
 11
17913.657414234149
 21
18723.93219951128
 31
0.0
  0
LINE
  5
1AA
  8
KL
 10
17962.50704655658
 20
18767.74673388018
 30
0.0
 11
17920.52883151792
 21
18718.119831275159
 31
0.0
  0
LINE
  5
1AB
  8
FUTO
 10
17827.50704655658
 20
18170.605294610199
 30
0.0
 11
17837.50704655658
 21
18100.605294610192
 31
0.0
  0
LINE
  5
1AC
  8
KL
 10
17927.40024880171
 20
18712.307463039029
 30
0.0
 11
17913.657414234149
 21
18723.93219951128
 31
0.0
  0
LINE
  5
1AE
  8
KL
 10
18387.50704655658
 20
18100.605294610192
 30
0.0
 11
18387.50704655658
 21
17950.605294610199
 31
0.0
  0
LINE
  5
1AF
  8
FUTO
 10
18321.50704655658
 20
18100.605294610192
 30
0.0
 11
18321.50704655658
 21
17950.605294610199
 31
0.0
  0
LINE
  5
1B0
  8
FUTO
 10
18303.50704655658
 20
18100.605294610192
 30
0.0
 11
18303.50704655658
 21
17950.605294610199
 31
0.0
  0
LINE
  5
1B1
  8
FUTO
 10
18312.50704655658
 20
18100.605294610192
 30
0.0
 11
18312.50704655658
 21
17950.605294610199
 31
0.0
  0
LINE
  5
1B2
  8
KL
 10
18312.50704655658
 20
18114.77018914861
 30
0.0
 11
18312.50704655658
 21
17950.605294610199
 31
0.0
  0
DIMENSION
  5
1B3
  8
SP
  2
*D13
 10
19012.50704655658
 20
17345.397915891888
 30
0.0
 11
19542.50704655658
 21
17425.397915891888
 31
0.0
 70
     0
 13
20072.50704655658
 23
17780.605294610192
 33
0.0
 14
19012.50704655658
 24
17699.95111959998
 34
0.0
1001
ACAD
1000
DSTYLE
1002
{
1070
    40
1040
40.0
1002
}
  0
LINE
  5
1C2
  8
CT
 10
18852.988807666239
 20
17965.133277817411
 30
0.0
 11
18852.988807666239
 21
17910.926502913258
 31
0.0
  0
LINE
  5
1D4
  8
CT
 10
19890.62262977998
 20
17965.133277817411
 30
0.0
 11
19890.62262977998
 21
17910.926502913258
 31
0.0
  0
LINE
  5
1E2
  8
FUTO
 10
19712.50704655658
 20
17930.605294610199
 30
0.0
 11
19712.50704655658
 21
17780.605294610192
 31
0.0
  0
LINE
  5
1E8
  8
FUTO
 10
20072.50704655658
 20
17930.605294610199
 30
0.0
 11
20072.50704655658
 21
17780.605294610192
 31
0.0
  0
LINE
  5
1EC
  8
KL
 10
19637.50704655658
 20
18100.605294610192
 30
0.0
 11
19637.50704655658
 21
17950.605294610199
 31
0.0
  0
LINE
  5
1ED
  8
FUTO
 10
19712.50704655658
 20
18100.605294610192
 30
0.0
 11
19712.50704655658
 21
17950.605294610199
 31
0.0
  0
LINE
  5
1EE
  8
KL
 10
19712.50704655658
 20
18114.77018914861
 30
0.0
 11
19712.50704655658
 21
17950.605294610199
 31
0.0
  0
LINE
  5
1EF
  8
FUTO
 10
20072.50704655658
 20
18100.605294610192
 30
0.0
 11
20072.50704655658
 21
17950.605294610199
 31
0.0
  0
LINE
  5
1F0
  8
FUTO
 10
17323.627132111731
 20
24230.69402282088
 30
0.0
 11
17323.627132111731
 21
24078.69402282087
 31
0.0
  0
LINE
  5
1F1
  8
FUTO
 10
17072.50704655658
 20
24305.69402282087
 30
0.0
 11
17072.50704655658
 21
24230.69402282088
 31
0.0
  0
LINE
  5
1F2
  8
CT
 10
17512.50704655658
 20
24156.065911378992
 30
0.0
 11
17512.50704655658
 21
22612.599199774209
 31
0.0
  0
LINE
  5
1F3
  8
FUTO
 10
18312.50704655658
 20
24230.69402282087
 30
0.0
 11
18312.50704655658
 21
22858.69402282087
 31
0.0
  0
LINE
  5
1F4
  8
FUTO
 10
18387.50704655658
 20
24230.69402282087
 30
0.0
 11
18387.50704655658
 21
22933.69402282087
 31
0.0
  0
LINE
  5
1F5
  8
FUTO
 10
19637.50704655658
 20
24230.69402282087
 30
0.0
 11
19637.50704655658
 21
22933.694022820859
 31
0.0
  0
LINE
  5
1F6
  8
FUTO
 10
19712.50704655658
 20
24230.69402282087
 30
0.0
 11
19712.50704655658
 21
22858.69402282087
 31
0.0
  0
DIMENSION
  5
253
  8
SP
  2
*D14
 10
19012.50704655658
 20
21888.797111115731
 30
0.0
 11
19595.00704655658
 21
21968.797111115731
 31
0.0
 70
     0
 13
20177.50704655658
 23
20064.41177505321
 33
0.0
 14
19012.50704655658
 24
21417.264633517501
 34
0.0
1001
ACAD
1000
DSTYLE
1002
{
1070
    40
1040
40.0
1002
}
  0
ARC
  5
263
  8
FUTO
 10
19012.50704655658
 20
20100.605294610199
 30
0.0
 40
480.0
 50
312.58055463983533
 51
142.87206734797709
  0
LINE
  5
265
  8
FUTO
 10
18712.50704655658
 20
19978.605294610199
 30
0.0
 11
18670.458620732541
 21
19978.605294610199
 31
0.0
  0
LINE
  5
267
  8
FUTO
 10
17414.50704655658
 20
20091.605294610192
 30
0.0
 11
18176.534846252442
 21
20091.605294610192
 31
0.0
  0
LINE
  5
268
  8
FUTO
 10
17414.50704655658
 20
20109.605294610199
 30
0.0
 11
18201.624357293549
 21
20109.605294610199
 31
0.0
  0
ARC
  5
269
  8
FUTO
 10
19143.50704655658
 20
19969.605294610199
 30
0.0
 40
1705.0
 50
232.5407366052483
 51
243.25815117692221
  0
ARC
  5
26A
  8
KL
 10
19143.50704655658
 20
19969.605294610199
 30
0.0
 40
1685.0
 50
184.83662323419401
 51
264.6120591389967
  0
LINE
  5
26D
  8
FUTO
 10
17971.50704655658
 20
21089.493235432848
 30
0.0
 11
17971.50704655658
 21
20100.605294610199
 31
0.0
  0
LINE
  5
26E
  8
FUTO
 10
17962.50704655658
 20
21082.119564181601
 30
0.0
 11
17962.50704655658
 21
20100.605294610199
 31
0.0
  0
LINE
  5
26F
  8
KL
 10
17464.50704655658
 20
20100.142645586839
 30
0.0
 11
17464.50704655658
 21
19827.534889528761
 31
0.0
  0
LINE
  5
272
  8
CT
 10
17410.80063193231
 20
18900.605294610192
 30
0.0
 11
17256.503694412619
 21
18900.605294610192
 31
0.0
  0
LINE
  5
273
  8
FUTO
 10
17722.50704655658
 20
19040.605294610199
 30
0.0
 11
17332.50704655658
 21
19040.605294610199
 31
0.0
  0
LINE
  5
274
  8
FUTO
 10
17722.50704655658
 20
18775.605294610192
 30
0.0
 11
17332.50704655658
 21
18775.605294610192
 31
0.0
  0
ARC
  5
275
  8
FUTO
 10
17332.50704655658
 20
19020.605294610192
 30
0.0
 40
20.0
 50
90.0
 51
180.0
  0
ARC
  5
276
  8
FUTO
 10
17332.50704655658
 20
18795.605294610199
 30
0.0
 40
20.0
 50
180.0
 51
270.0
  0
LINE
  5
277
  8
FUTO
 10
17312.50704655658
 20
19020.605294610192
 30
0.0
 11
17312.50704655658
 21
18795.605294610199
 31
0.0
  0
ARC
  5
279
  8
FUTO
 10
17722.50704655658
 20
19020.605294610192
 30
0.0
 40
20.0
 50
0.000000000000007
 51
90.0
  0
LINE
  5
27A
  8
KL
 10
17549.83972249517
 20
19357.321503488009
 30
0.0
 11
17513.526484528498
 21
19340.388362531761
 31
0.0
  0
LINE
  5
27B
  8
CT
 10
17612.872569152882
 20
19314.994637867261
 30
0.0
 11
17505.926285916819
 21
19265.12476698307
 31
0.0
  0
LINE
  5
27C
  8
KL
 10
17500.23722404072
 20
19345.22525778471
 30
0.0
 11
17563.629963301832
 21
19209.279089729222
 31
0.0
  0
LINE
  5
27D
  8
KL
 10
17513.526484528498
 20
19340.388362531761
 30
0.0
 11
17568.466858554792
 21
19222.568350216989
 31
0.0
  0
LINE
  5
27E
  8
KL
 10
17545.61353987777
 20
19366.38458135839
 30
0.0
 11
17500.237224040731
 21
19345.22525778471
 31
0.0
  0
LINE
  5
27F
  8
KL
 10
17609.00627913887
 20
19230.438413302891
 30
0.0
 11
17563.629963301832
 21
19209.279089729222
 31
0.0
  0
LINE
  5
280
  8
KL
 10
17604.780096521459
 20
19239.501491173261
 30
0.0
 11
17568.466858554792
 21
19222.568350216989
 31
0.0
  0
ARC
  5
281
  8
FUTO
 10
17722.50704655658
 20
18795.605294610199
 30
0.0
 40
20.0
 50
270.0
 51
0.000000000000007
  0
LINE
  5
282
  8
FUTO
 10
17742.50704655658
 20
19020.605294610192
 30
0.0
 11
17742.50704655658
 21
18795.605294610199
 31
0.0
  0
LINE
  5
283
  8
FUTO
 10
17414.50704655658
 20
20109.605294610199
 30
0.0
 11
17414.50704655658
 21
20091.605294610192
 31
0.0
  0
ARC
  5
284
  8
FUTO
 10
18881.50704655657
 20
19969.605294610199
 30
0.0
 40
1443.0
 50
129.55864164540509
 51
174.4323999614779
  0
LINE
  5
285
  8
FUTO
 10
20112.50704655658
 20
20098.605294610199
 30
0.0
 11
20112.50704655658
 21
18110.605294610199
 31
0.0
  0
LINE
  5
286
  8
FUTO
 10
20177.50704655658
 20
19886.045522577861
 30
0.0
 11
20177.50704655658
 21
18858.643353833071
 31
0.0
  0
LINE
  5
287
  8
FUTO
 10
20177.50704655658
 20
19886.045522577861
 30
0.0
 11
20177.50704655658
 21
18110.605294610199
 31
0.0
  0
LINE
  5
288
  8
FUTO
 10
20171.50704655658
 20
19887.10348446211
 30
0.0
 11
20171.50704655658
 21
18852.643353833071
 31
0.0
  0
LINE
  5
289
  8
FUTO
 10
20053.50704655657
 20
18100.605294610192
 30
0.0
 11
20053.50704655658
 21
20091.605294610192
 31
0.0
  0
LINE
  5
28A
  8
FUTO
 10
20062.50704655658
 20
18100.605294610192
 30
0.0
 11
20062.50704655658
 21
20091.605294610192
 31
0.0
  0
LINE
  5
291
  8
KL
 10
19210.727860793872
 20
20127.22312328012
 30
0.0
 11
19489.750561391669
 21
20151.97286753168
 31
0.0
  0
LINE
  5
292
  8
KL
 10
19212.31824429769
 20
20109.29351981794
 30
0.0
 11
19491.340944895492
 21
20134.0432640695
 31
0.0
  0
CIRCLE
  5
295
  8
SL
 10
19012.50704655658
 20
20100.605294610199
 30
0.0
 40
355.0
  0
ARC
  5
296
  8
FUTO
 10
19064.50704655658
 20
20190.67193660378
 30
0.0
 40
15.000000000000099
 50
325.86450299682889
 51
154.1354970031779
  0
ARC
  5
297
  8
FUTO
 10
19012.50704655658
 20
20100.605294610199
 30
0.0
 40
103.9999999999995
 50
68.270994006339905
 51
111.72900599366061
  0
LINE
  5
298
  8
CT
 10
19012.50704655658
 20
20224.3740537749
 30
0.0
 11
19012.50704655658
 21
19970.78157070807
 31
0.0
  0
ARC
  5
299
  8
FUTO
 10
18960.50704655658
 20
20190.67193660378
 30
0.0
 40
15.000000000000201
 50
25.864502996822338
 51
214.13549700317051
  0
ARC
  5
29E
  8
FUTO
 10
19064.50704655658
 20
20010.538652616618
 30
0.0
 40
14.99999999999998
 50
205.8645029968221
 51
34.135497003171601
  0
CIRCLE
  5
29F
  8
FUTO
 10
19012.50704655658
 20
20100.605294610199
 30
0.0
 40
41.5
  0
LINE
  5
2A0
  8
FUTO
 10
18927.50704655658
 20
19993.605294610192
 30
0.0
 11
19097.50704655658
 21
19993.605294610192
 31
0.0
  0
LINE
  5
2A2
  8
KL
 10
19354.55547238062
 20
19978.605294610199
 30
0.0
 11
19012.50704655658
 21
19978.605294610199
 31
0.0
  0
LINE
  5
2A4
  8
FUTO
 10
18888.50704655658
 20
20024.605294610199
 30
0.0
 11
18820.50704655658
 21
20024.605294610199
 31
0.0
  0
LINE
  5
2A5
  8
FUTO
 10
18807.50704655658
 20
19988.605294610192
 30
0.0
 11
18927.50704655658
 21
19988.605294610192
 31
0.0
  0
LINE
  5
2A6
  8
KL
 10
18670.45862073253
 20
19978.605294610199
 30
0.0
 11
19012.50704655658
 21
19978.605294610199
 31
0.0
  0
LINE
  5
2A7
  8
FUTO
 10
18807.50704655658
 20
19988.605294610192
 30
0.0
 11
18807.50704655658
 21
19978.605294610199
 31
0.0
  0
ARC
  5
2A8
  8
FUTO
 10
18820.50704655658
 20
20021.605294610192
 30
0.0
 40
3.0
 50
90.0
 51
180.0
  0
LINE
  5
2A9
  8
FUTO
 10
18817.50704655658
 20
20021.605294610192
 30
0.0
 11
18817.50704655658
 21
19988.605294610192
 31
0.0
  0
LINE
  5
2AA
  8
KL
 10
18812.50704655658
 20
20109.605294610199
 30
0.0
 11
18812.50704655658
 21
20091.605294610192
 31
0.0
  0
ARC
  5
2AD
  8
FUTO
 10
19012.50704655658
 20
20100.605294610199
 30
0.0
 40
104.0000000000007
 50
248.2709940063402
 51
291.72900599366039
  0
ARC
  5
2AE
  8
FUTO
 10
18908.50704655658
 20
20100.605294610199
 30
0.0
 40
15.0
 50
85.864502996829515
 51
274.13549700317049
  0
ARC
  5
2AF
  8
FUTO
 10
18888.50704655658
 20
20044.605294610192
 30
0.0
 40
20.0
 50
270.0
 51
0.000000000000007
  0
LINE
  5
2B0
  8
FUTO
 10
18927.50704655658
 20
19988.605294610192
 30
0.0
 11
18927.50704655658
 21
19993.605294610192
 31
0.0
  0
LINE
  5
2B1
  8
CT
 10
18852.50704655658
 20
19978.605294610199
 30
0.0
 11
18852.50704655658
 21
20034.605294610192
 31
0.0
  0
LINE
  5
2B2
  8
FUTO
 10
18908.50704655658
 20
20085.605294610199
 30
0.0
 11
18908.50704655658
 21
20044.605294610192
 31
0.0
  0
ARC
  5
2B3
  8
FUTO
 10
18960.50704655658
 20
20010.538652616618
 30
0.0
 40
14.999999999999719
 50
145.86450299682909
 51
334.13549700317708
  0
ARC
  5
2B4
  8
FUTO
 10
19012.50704655658
 20
20100.605294610199
 30
0.0
 40
104.0000000000002
 50
188.27099400634009
 51
231.72900599366079
  0
ARC
  5
2B5
  8
FUTO
 10
19012.50704655658
 20
20100.605294610199
 30
0.0
 40
103.9999999999998
 50
128.27099400633969
 51
171.72900599366039
  0
LINE
  5
2B6
  8
KL
 10
19212.31824429769
 20
20109.29351981794
 30
0.0
 11
19210.727860793872
 21
20127.22312328012
 31
0.0
  0
LINE
  5
2B7
  8
FUTO
 10
19217.50704655658
 20
19978.605294610199
 30
0.0
 11
19217.50704655658
 21
19988.605294610192
 31
0.0
  0
ARC
  5
2B8
  8
FUTO
 10
19204.50704655658
 20
20021.605294610192
 30
0.0
 40
3.0
 50
0.000000000000007
 51
90.0
  0
LINE
  5
2B9
  8
FUTO
 10
19207.50704655658
 20
19988.605294610192
 30
0.0
 11
19207.50704655658
 21
20021.605294610192
 31
0.0
  0
LINE
  5
2BA
  8
CT
 10
19172.50704655658
 20
19978.605294610199
 30
0.0
 11
19172.50704655658
 21
20034.605294610192
 31
0.0
  0
LINE
  5
2BB
  8
FUTO
 10
19204.50704655658
 20
20024.605294610199
 30
0.0
 11
19136.50704655658
 21
20024.605294610199
 31
0.0
  0
LINE
  5
2BC
  8
FUTO
 10
19116.50704655658
 20
20044.605294610192
 30
0.0
 11
19116.50704655658
 21
20085.605294610199
 31
0.0
  0
ARC
  5
2BD
  8
FUTO
 10
19136.50704655658
 20
20044.605294610192
 30
0.0
 40
20.0
 50
180.0
 51
270.0
  0
LINE
  5
2BE
  8
FUTO
 10
19097.50704655658
 20
19993.605294610192
 30
0.0
 11
19097.50704655658
 21
19988.605294610192
 31
0.0
  0
LINE
  5
2BF
  8
FUTO
 10
19097.50704655658
 20
19988.605294610192
 30
0.0
 11
19217.50704655658
 21
19988.605294610192
 31
0.0
  0
ARC
  5
2C0
  8
FUTO
 10
19116.50704655658
 20
20100.605294610199
 30
0.0
 40
15.0
 50
270.0
 51
94.135497003170499
  0
ARC
  5
2C1
  8
FUTO
 10
19012.50704655658
 20
20100.605294610199
 30
0.0
 40
103.9999999999998
 50
308.27099400633961
 51
351.72900599366039
  0
ARC
  5
2C2
  8
FUTO
 10
19012.50704655658
 20
20100.605294610199
 30
0.0
 40
103.9999999999994
 50
8.2709940063397234
 51
51.729005993660351
  0
INSERT
  5
2C5
  8
FUTO
  2
左回転矢印
 10
18825.072440004329
 20
20799.044367959141
 30
0.0
 41
2.0
 42
2.0
 43
2.0
  0
LINE
  5
2D0
  8
FUTO
 10
19039.561549073682
 20
20201.024684637981
 30
0.0
 11
19039.561549073682
 21
20204.605294610192
 31
0.0
  0
LINE
  5
2D1
  8
FUTO
 10
18985.452544039468
 20
20201.024684637981
 30
0.0
 11
18985.452544039468
 21
20204.605294610192
 31
0.0
  0
LINE
  5
2D2
  8
FUTO
 10
18985.452544039468
 20
20204.605294610192
 30
0.0
 11
19039.561549073682
 21
20204.605294610192
 31
0.0
  0
LINE
  5
2D3
  8
FUTO
 10
20171.50704655658
 20
20098.605294610199
 30
0.0
 11
20171.50704655658
 21
19851.256903670059
 31
0.0
  0
LINE
  5
2D4
  8
FUTO
 10
20177.50704655658
 20
20098.605294610199
 30
0.0
 11
20177.50704655658
 21
19849.918320511111
 31
0.0
  0
LINE
  5
2D5
  8
FUTO
 10
20177.50704655658
 20
20098.605294610199
 30
0.0
 11
20177.50704655658
 21
19904.323201591811
 31
0.0
  0
ARC
  5
2D6
  8
KL
 10
19123.00704655658
 20
20211.105294610199
 30
0.0
 40
960.5
 50
324.29936339556627
 51
0.000000000000007
  0
LINE
  5
2D8
  8
FUTO
 10
20092.603535716531
 20
20049.605294610192
 30
0.0
 11
20177.50704655658
 21
20049.605294610192
 31
0.0
  0
LINE
  5
2D9
  8
FUTO
 10
20112.50704655658
 20
20098.605294610199
 30
0.0
 11
20177.50704655658
 21
20098.605294610199
 31
0.0
  0
LINE
  5
2DA
  8
FUTO
 10
20112.50704655658
 20
20098.605294610199
 30
0.0
 11
20177.50704655658
 21
20098.605294610199
 31
0.0
  0
LINE
  5
2DB
  8
KL
 10
20066.20267843789
 20
20029.605294610199
 30
0.0
 11
20177.50704655658
 21
20029.605294610199
 31
0.0
  0
LINE
  5
2DC
  8
FUTO
 10
20151.22935426504
 20
20192.60238058558
 30
0.0
 11
20153.639014968099
 21
20210.886794143509
 31
0.0
  0
LINE
  5
2DD
  8
FUTO
 10
20177.50704655658
 20
18159.51653745259
 30
0.0
 11
19695.17682502887
 21
18205.007745284849
 31
0.0
  0
LINE
  5
2DE
  8
KL
 10
20177.50704655658
 20
18179.605294610192
 30
0.0
 11
18985.287612979992
 21
18292.05004638774
 31
0.0
  0
LINE
  5
2E3
  8
FUTO
 10
20171.50704655658
 20
18852.643353833071
 30
0.0
 11
20171.50704655658
 21
18110.605294610199
 31
0.0
  0
LINE
  5
2E4
  8
FUTO
 10
20112.50704655658
 20
18110.605294610199
 30
0.0
 11
20177.50704655658
 21
18110.605294610199
 31
0.0
  0
LINE
  5
2FF
  8
FUTO
 10
17072.50704655658
 20
22933.69402282087
 30
0.0
 11
19712.50704655658
 21
22933.694022820859
 31
0.0
  0
LINE
  5
300
  8
FUTO
 10
17072.50704655658
 20
22858.69402282088
 30
0.0
 11
19712.50704655658
 21
22858.69402282087
 31
0.0
  0
LINE
  5
3C8
  8
FUTO
 10
17458.50704655658
 20
25633.694022820859
 30
0.0
 11
20177.50704655658
 21
25633.694022820859
 31
0.0
  0
LINE
  5
3C9
  8
FUTO
 10
17952.50704655658
 20
24305.69402282087
 30
0.0
 11
20177.50704655658
 21
24305.694022820859
 31
0.0
  0
LINE
  5
3CA
  8
FUTO
 10
17952.50704655658
 20
24230.69402282087
 30
0.0
 11
20072.50704655658
 21
24230.69402282087
 31
0.0
  0
LINE
  5
3CB
  8
FUTO
 10
17952.50704655658
 20
25708.69402282087
 30
0.0
 11
20072.50704655658
 21
25708.69402282087
 31
0.0
  0
LINE
  5
3DA
  8
FUTO
 10
17072.50704655658
 20
24230.69402282088
 30
0.0
 11
18312.50704655658
 21
24230.69402282087
 31
0.0
  0
LINE
  5
3DB
  8
FUTO
 10
17072.50704655658
 20
24305.69402282087
 30
0.0
 11
17408.50704655658
 21
24305.69402282087
 31
0.0
  0
LINE
  5
406
  8
FUTO
 10
20072.50704655658
 20
24230.69402282087
 30
0.0
 11
20072.50704655657
 21
24255.69402282087
 31
0.0
  0
LINE
  5
438
  8
SL
 10
21923.082491516761
 20
20378.9790946102
 30
0.0
 11
21923.082491516761
 21
18308.979094610189
 31
0.0
  0
LINE
  5
439
  8
SL
 10
21753.082491516761
 20
20378.9790946102
 30
0.0
 11
21753.082491516769
 21
18308.979094610189
 31
0.0
  0
LINE
  5
43A
  8
CT
 10
24053.082491516761
 20
21603.302182932101
 30
0.0
 11
24053.082491516761
 21
17700.538364950658
 31
0.0
  0
LINE
  5
43C
  8
FUTO
 10
24716.282491516758
 20
18100.605278004208
 30
0.0
 11
24716.282491516769
 21
18117.979094610189
 31
0.0
  0
LINE
  5
43D
  8
FUTO
 10
24713.082491516769
 20
18100.605278004208
 30
0.0
 11
24713.08249151678
 21
18117.979094610189
 31
0.0
  0
LINE
  5
43E
  8
FUTO
 10
23393.082491516769
 20
18100.605278004208
 30
0.0
 11
23393.082491516769
 21
18117.979094610189
 31
0.0
  0
LINE
  5
43F
  8
FUTO
 10
23389.882491516772
 20
18100.605278004208
 30
0.0
 11
23389.882491516772
 21
18117.979094610189
 31
0.0
  0
LINE
  5
441
  8
FUTO
 10
21953.082491516761
 20
20478.9790946102
 30
0.0
 11
21953.082491516761
 21
18198.9790946102
 31
0.0
  0
LINE
  5
442
  8
FUTO
 10
21603.082491516769
 20
20478.9790946102
 30
0.0
 11
21603.082491516769
 21
18198.9790946102
 31
0.0
  0
LINE
  5
445
  8
FUTO
 10
23003.082491516761
 20
19948.9790946102
 30
0.0
 11
23003.082491516761
 21
19938.9790946102
 31
0.0
  0
LINE
  5
446
  8
FUTO
 10
23183.082491516769
 20
19948.9790946102
 30
0.0
 11
23183.082491516761
 21
18100.605278004208
 31
0.0
  0
LINE
  5
449
  8
FUTO
 10
22182.082491516761
 20
19976.9790946102
 30
0.0
 11
22182.082491516761
 21
19938.9790946102
 31
0.0
  0
LINE
  5
44A
  8
FUTO
 10
22002.082491516769
 20
19976.9790946102
 30
0.0
 11
22002.082491516769
 21
18758.9790946102
 31
0.0
  0
DIMENSION
  5
44B
  8
SP
  2
*D21
 10
25428.090633728491
 20
19198.9790946102
 30
0.0
 11
25348.090633728491
 21
20098.9790946102
 31
0.0
 70
     0
  1
%%C<>
 13
24848.082491516769
 23
20998.9790946102
 33
0.0
 14
24848.082491516769
 24
19198.9790946102
 34
0.0
 50
90.0
1001
ACAD
1000
DSTYLE
1002
{
1070
    40
1040
40.0
1002
}
  0
LINE
  5
461
  8
KL
 10
24722.282491516758
 20
21063.9790946102
 30
0.0
 11
24722.282491516758
 21
19133.9790946102
 31
0.0
  0
LINE
  5
462
  8
FUTO
 10
24842.082491516761
 20
21063.9790946102
 30
0.0
 11
24842.082491516761
 21
19133.9790946102
 31
0.0
  0
LINE
  5
463
  8
FUTO
 10
24848.082491516769
 20
21063.9790946102
 30
0.0
 11
24848.082491516769
 21
19133.9790946102
 31
0.0
  0
LINE
  5
464
  8
FUTO
 10
23299.882491516761
 20
20175.09852238189
 30
0.0
 11
23299.882491516772
 21
18100.605278004208
 31
0.0
  0
LINE
  5
465
  8
FUTO
 10
24806.282491516758
 20
20175.098522381941
 30
0.0
 11
24806.282491516758
 21
18100.605278004208
 31
0.0
  0
LINE
  5
46B
  8
FUTO
 10
23314.082491516761
 20
17918.605278004208
 30
0.0
 11
24717.078491516761
 21
17918.605278004208
 31
0.0
  0
LINE
  5
46C
  8
FUTO
 10
23314.082491516761
 20
17792.605278004208
 30
0.0
 11
24717.078491516761
 21
17792.605278004208
 31
0.0
  0
LINE
  5
46D
  8
FUTO
 10
23314.082491516761
 20
17962.605278004208
 30
0.0
 11
24717.078491516761
 21
17962.605278004208
 31
0.0
  0
LINE
  5
46E
  8
FUTO
 10
23314.082491516761
 20
18088.605278004208
 30
0.0
 11
24717.078491516761
 21
18088.605278004208
 31
0.0
  0
LINE
  5
470
  8
FUTO
 10
21942.086491516769
 20
17930.605278004208
 30
0.0
 11
24797.082491516769
 21
17930.605278004208
 31
0.0
1001
ACAD
1000
ASC_BOUNDS
1002
{
1070
    19
1002
}
  0
LINE
  5
471
  8
FUTO
 10
21942.082491516761
 20
17950.605278004208
 30
0.0
 11
24792.082491516761
 21
17950.605278004208
 31
0.0
1001
ACAD
1000
ASC_BOUNDS
1002
{
1070
    19
1005
0
1005
0
1005
0
1002
}
  0
DIMENSION
  5
472
  8
SP
  2
*D16
 10
24053.082491516761
 20
17341.124665239891
 30
0.0
 11
22997.582491516761
 21
17421.124665239891
 31
0.0
 70
     0
 13
21942.082491516761
 23
17780.605278004208
 33
0.0
 14
24053.082491516761
 24
17759.67822601027
 34
0.0
1001
ACAD
1000
DSTYLE
1002
{
1070
    40
1040
40.0
1002
}
  0
DIMENSION
  5
47F
  8
SP
  2
*D15
 10
24792.082491516761
 20
17041.087120274969
 30
0.0
 11
23367.082491516761
 21
17121.087120274969
 31
0.0
 70
     0
 13
21942.082491516761
 23
17780.605278004208
 33
0.0
 14
24792.082491516761
 24
17780.605278004208
 34
0.0
1001
ACAD
1000
DSTYLE
1002
{
1070
    40
1040
40.0
1002
}
  0
LINE
  5
48C
  8
FUTO
 10
21942.082491516761
 20
17780.605278004208
 30
0.0
 11
24792.078491516761
 21
17780.605278004208
 31
0.0
  0
LINE
  5
48D
  8
KL
 10
21942.082491516761
 20
18100.605278004208
 30
0.0
 11
24806.282491516758
 21
18100.605278004208
 31
0.0
  0
LINE
  5
48E
  8
CT
 10
21544.77321996785
 20
18448.9790946102
 30
0.0
 11
22125.275752823971
 21
18448.9790946102
 31
0.0
  0
LINE
  5
491
  8
FUTO
 10
22017.086491516759
 20
17792.605278004208
 30
0.0
 11
23296.19259612227
 21
17792.605278004208
 31
0.0
  0
LINE
  5
492
  8
FUTO
 10
22017.086491516759
 20
17918.605278004208
 30
0.0
 11
23296.192596122281
 21
17918.605278004208
 31
0.0
  0
LINE
  5
493
  8
FUTO
 10
22017.086491516759
 20
18088.605278004208
 30
0.0
 11
23296.192596122281
 21
18088.605278004208
 31
0.0
  0
LINE
  5
494
  8
FUTO
 10
22017.086491516759
 20
17962.605278004208
 30
0.0
 11
23296.192596122281
 21
17962.605278004208
 31
0.0
  0
LINE
  5
495
  8
CT
 10
21977.086491516759
 20
17963.507077817409
 30
0.0
 11
21977.086491516759
 21
17909.30030291326
 31
0.0
  0
LINE
  5
4AA
  8
FUTO
 10
22017.086491516759
 20
17930.605278004208
 30
0.0
 11
22017.086491516759
 21
17780.605278004208
 31
0.0
  0
LINE
  5
4AB
  8
FUTO
 10
22017.086491516759
 20
17780.605278004208
 30
0.0
 11
21942.086491516769
 21
17780.605278004208
 31
0.0
  0
LINE
  5
4AC
  8
FUTO
 10
22006.935114487758
 20
17793.28231063368
 30
0.0
 11
21945.737868545781
 21
17787.92824537474
 31
0.0
  0
LINE
  5
4AD
  8
FUTO
 10
22017.086491516759
 20
17930.605278004208
 30
0.0
 11
21942.086491516769
 21
17930.605278004208
 31
0.0
1001
ACAD
1000
ASC_BOUNDS
1002
{
1070
    19
1002
}
  0
LINE
  5
4AE
  8
FUTO
 10
22006.935114487758
 20
17917.92824537474
 30
0.0
 11
21945.737868545781
 21
17923.28231063368
 31
0.0
  0
LINE
  5
4AF
  8
FUTO
 10
22010.586491516769
 20
17913.943466582379
 30
0.0
 11
22010.586491516769
 21
17797.267089426041
 31
0.0
  0
ARC
  5
4B0
  8
FUTO
 10
22006.586491516769
 20
17797.267089426041
 30
0.0
 40
4.0
 50
274.99999999999972
 51
0.0
  0
LINE
  5
4B1
  8
FUTO
 10
22017.086491516759
 20
17930.605278004208
 30
0.0
 11
22017.086491516759
 21
17780.605278004208
 31
0.0
  0
ARC
  5
4B2
  8
FUTO
 10
22006.586491516769
 20
17913.943466582379
 30
0.0
 40
4.0
 50
0.0
 51
85.000000000000256
  0
ARC
  5
4B3
  8
FUTO
 10
21946.086491516759
 20
17783.943466582368
 30
0.0
 40
4.0
 50
95.000000000000185
 51
180.0
  0
LINE
  5
4B4
  8
FUTO
 10
21942.086491516769
 20
17780.605278004208
 30
0.0
 11
21942.086491516769
 21
17783.943466582368
 31
0.0
  0
LINE
  5
4B5
  8
FUTO
 10
21942.086491516769
 20
17930.605278004208
 30
0.0
 11
21942.086491516769
 21
17927.267089426041
 31
0.0
  0
ARC
  5
4B6
  8
FUTO
 10
21946.086491516759
 20
17927.267089426041
 30
0.0
 40
4.0
 50
180.0
 51
264.99999999999977
  0
ARC
  5
4B7
  8
FUTO
 10
21947.082491516761
 20
17783.027278004211
 30
0.0
 40
5.0
 50
95.001000000000005
 51
180.00099999999989
  0
LINE
  5
4B8
  8
FUTO
 10
21946.64949151676
 20
17788.00827800421
 30
0.0
 11
22001.453491516761
 21
17792.805278004209
 31
0.0
  0
LINE
  5
4B9
  8
FUTO
 10
21942.082491516761
 20
17780.605278004208
 30
0.0
 11
21942.082491516761
 21
17783.027278004211
 31
0.0
  0
LINE
  5
4BA
  8
FUTO
 10
21942.082491516761
 20
17780.605278004208
 30
0.0
 11
22017.082491516769
 21
17780.605278004208
 31
0.0
  0
LINE
  5
4BB
  8
SL
 10
21923.082491516761
 20
18558.9790946102
 30
0.0
 11
21923.082491516761
 21
18308.9790946102
 31
0.0
  0
LINE
  5
4BC
  8
SL
 10
21753.082491516761
 20
18558.9790946102
 30
0.0
 11
21753.082491516761
 21
18308.9790946102
 31
0.0
  0
LINE
  5
4BD
  8
SL
 10
21753.082491516761
 20
18308.9790946102
 30
0.0
 11
21923.082491516761
 21
18308.9790946102
 31
0.0
  0
LINE
  5
4BE
  8
FUTO
 10
21603.082491516769
 20
18198.9790946102
 30
0.0
 11
21953.082491516761
 21
18198.9790946102
 31
0.0
  0
LINE
  5
4C1
  8
FUTO
 10
21942.082491516761
 20
17950.605278004208
 30
0.0
 11
22017.082491516769
 21
17950.605278004208
 31
0.0
  0
LINE
  5
4C2
  8
FUTO
 10
21942.082491516761
 20
17950.605278004208
 30
0.0
 11
21942.082491516761
 21
17953.027278004211
 31
0.0
  0
LINE
  5
4C3
  8
FUTO
 10
21946.64949151676
 20
17958.00827800421
 30
0.0
 11
22001.453491516761
 21
17962.805278004209
 31
0.0
  0
ARC
  5
4C4
  8
FUTO
 10
21946.086491516759
 20
18097.267089426041
 30
0.0
 40
4.0
 50
180.0
 51
264.99999999999977
  0
LINE
  5
4C5
  8
FUTO
 10
21942.086491516769
 20
18100.605278004208
 30
0.0
 11
21942.086491516769
 21
18097.267089426041
 31
0.0
  0
LINE
  5
4C6
  8
FUTO
 10
21942.086491516769
 20
17950.605278004208
 30
0.0
 11
21942.086491516769
 21
17953.943466582379
 31
0.0
  0
ARC
  5
4C7
  8
FUTO
 10
21946.086491516759
 20
17953.943466582379
 30
0.0
 40
4.0
 50
95.000000000000185
 51
180.0
  0
ARC
  5
4C8
  8
FUTO
 10
22006.586491516769
 20
18083.943466582368
 30
0.0
 40
4.0
 50
0.0
 51
85.000000000000256
  0
LINE
  5
4C9
  8
FUTO
 10
22017.086491516759
 20
18100.605278004208
 30
0.0
 11
22017.086491516759
 21
17950.605278004208
 31
0.0
  0
ARC
  5
4CA
  8
FUTO
 10
22006.586491516769
 20
17967.267089426041
 30
0.0
 40
4.0
 50
274.99999999999972
 51
0.0
  0
LINE
  5
4CB
  8
FUTO
 10
22010.586491516769
 20
18083.943466582368
 30
0.0
 11
22010.586491516769
 21
17967.267089426041
 31
0.0
  0
LINE
  5
4CC
  8
FUTO
 10
22006.935114487758
 20
18087.92824537474
 30
0.0
 11
21945.737868545781
 21
18093.28231063368
 31
0.0
  0
LINE
  5
4CD
  8
FUTO
 10
22017.086491516759
 20
18100.605278004208
 30
0.0
 11
21942.086491516769
 21
18100.605278004208
 31
0.0
  0
LINE
  5
4CE
  8
FUTO
 10
22006.935114487758
 20
17963.28231063368
 30
0.0
 11
21945.737868545781
 21
17957.92824537474
 31
0.0
  0
LINE
  5
4CF
  8
FUTO
 10
22017.086491516759
 20
17950.605278004208
 30
0.0
 11
21942.086491516769
 21
17950.605278004208
 31
0.0
  0
LINE
  5
4D0
  8
FUTO
 10
22017.086491516759
 20
18100.605278004208
 30
0.0
 11
22017.086491516759
 21
17950.605278004208
 31
0.0
  0
LINE
  5
4D1
  8
SL
 10
21753.082491516761
 20
18588.9790946102
 30
0.0
 11
21923.082491516761
 21
18588.9790946102
 31
0.0
  0
LINE
  5
4D5
  8
CT
 10
23274.082491516761
 20
17963.507077817409
 30
0.0
 11
23274.082491516761
 21
17909.30030291326
 31
0.0
  0
LINE
  5
4DC
  8
1
 10
23239.883491516761
 20
17780.605278004208
 30
0.0
 11
23314.883491516772
 21
17780.605278004208
 31
0.0
  0
LINE
  5
4E9
  8
FUTO
 10
23314.082491516761
 20
17780.605278004208
 30
0.0
 11
23239.082491516761
 21
17780.605278004208
 31
0.0
  0
LINE
  5
4EA
  8
FUTO
 10
23303.93111448775
 20
17793.28231063368
 30
0.0
 11
23242.733868545769
 21
17787.92824537474
 31
0.0
  0
LINE
  5
4EB
  8
FUTO
 10
23239.078491516761
 20
17780.605278004208
 30
0.0
 11
23314.078491516761
 21
17780.605278004208
 31
0.0
  0
LINE
  5
4EC
  8
FUTO
 10
23314.082491516761
 20
17930.605278004208
 30
0.0
 11
23239.082491516761
 21
17930.605278004208
 31
0.0
  0
LINE
  5
4ED
  8
FUTO
 10
23303.93111448775
 20
17917.92824537474
 30
0.0
 11
23242.733868545769
 21
17923.28231063368
 31
0.0
  0
ARC
  5
4EE
  8
FUTO
 10
23243.082491516761
 20
17783.943466582368
 30
0.0
 40
4.0
 50
95.000000000000185
 51
180.0
  0
LINE
  5
4EF
  8
FUTO
 10
23239.082491516761
 20
17780.605278004208
 30
0.0
 11
23239.082491516761
 21
17783.943466582368
 31
0.0
  0
LINE
  5
4F0
  8
FUTO
 10
23239.078491516761
 20
17780.605278004208
 30
0.0
 11
23239.078491516761
 21
17783.027278004211
 31
0.0
  0
LINE
  5
4F1
  8
FUTO
 10
23239.082491516761
 20
17930.605278004208
 30
0.0
 11
23239.082491516761
 21
17927.267089426041
 31
0.0
  0
ARC
  5
4F2
  8
FUTO
 10
23243.082491516761
 20
17927.267089426041
 30
0.0
 40
4.0
 50
180.0
 51
264.99999999999972
  0
LINE
  5
4F3
  8
FUTO
 10
23243.64549151676
 20
17788.00827800421
 30
0.0
 11
23298.44949151676
 21
17792.805278004209
 31
0.0
  0
LINE
  5
4F4
  8
FUTO
 10
23314.082491516761
 20
17930.605278004208
 30
0.0
 11
23314.082491516761
 21
17780.605278004208
 31
0.0
  0
LINE
  5
4F5
  8
FUTO
 10
23307.582491516761
 20
17913.943466582379
 30
0.0
 11
23307.582491516761
 21
17797.267089426041
 31
0.0
  0
LINE
  5
4F6
  8
FUTO
 10
23314.082491516761
 20
17930.605278004208
 30
0.0
 11
23314.082491516761
 21
17780.605278004208
 31
0.0
  0
ARC
  5
4F7
  8
FUTO
 10
23303.582491516761
 20
17797.267089426041
 30
0.0
 40
4.0
 50
275.0
 51
0.0
  0
ARC
  5
4F8
  8
FUTO
 10
23303.582491516761
 20
17913.943466582379
 30
0.0
 40
4.0
 50
0.0
 51
84.999999999999957
  0
LINE
  5
4FF
  8
1
 10
23239.883491516761
 20
17950.605278004208
 30
0.0
 11
23314.883491516772
 21
17950.605278004208
 31
0.0
  0
LINE
  5
501
  8
FUTO
 10
23314.082491516761
 20
18100.605278004208
 30
0.0
 11
23239.082491516761
 21
18100.605278004208
 31
0.0
  0
LINE
  5
502
  8
FUTO
 10
23303.93111448775
 20
18087.92824537474
 30
0.0
 11
23242.733868545769
 21
18093.28231063368
 31
0.0
  0
ARC
  5
503
  8
FUTO
 10
23303.582491516761
 20
18083.943466582368
 30
0.0
 40
4.0
 50
0.0
 51
84.999999999999957
  0
LINE
  5
504
  8
FUTO
 10
23239.082491516761
 20
18100.605278004208
 30
0.0
 11
23239.082491516761
 21
18097.267089426041
 31
0.0
  0
ARC
  5
505
  8
FUTO
 10
23243.082491516761
 20
18097.267089426041
 30
0.0
 40
4.0
 50
180.0
 51
264.99999999999972
  0
LINE
  5
506
  8
FUTO
 10
23314.082491516761
 20
17950.605278004208
 30
0.0
 11
23239.082491516761
 21
17950.605278004208
 31
0.0
  0
LINE
  5
507
  8
FUTO
 10
23303.93111448775
 20
17963.28231063368
 30
0.0
 11
23242.733868545769
 21
17957.92824537474
 31
0.0
  0
ARC
  5
508
  8
FUTO
 10
23303.582491516761
 20
17967.267089426041
 30
0.0
 40
4.0
 50
275.0
 51
0.0
  0
ARC
  5
509
  8
FUTO
 10
23243.082491516761
 20
17953.943466582379
 30
0.0
 40
4.0
 50
95.000000000000185
 51
180.0
  0
LINE
  5
50A
  8
FUTO
 10
23239.082491516761
 20
17950.605278004208
 30
0.0
 11
23239.082491516761
 21
17953.943466582379
 31
0.0
  0
LINE
  5
50B
  8
FUTO
 10
23239.078491516761
 20
17950.605278004208
 30
0.0
 11
23239.078491516761
 21
17953.027278004211
 31
0.0
  0
LINE
  5
50C
  8
FUTO
 10
23243.64549151676
 20
17958.00827800421
 30
0.0
 11
23298.44949151676
 21
17962.805278004209
 31
0.0
  0
LINE
  5
50D
  8
FUTO
 10
23239.078491516761
 20
17950.605278004208
 30
0.0
 11
23314.078491516761
 21
17950.605278004208
 31
0.0
  0
LINE
  5
50E
  8
FUTO
 10
23314.082491516761
 20
18100.605278004208
 30
0.0
 11
23314.082491516761
 21
17950.605278004208
 31
0.0
  0
LINE
  5
50F
  8
FUTO
 10
23307.582491516761
 20
18083.943466582368
 30
0.0
 11
23307.582491516761
 21
17967.267089426041
 31
0.0
  0
LINE
  5
510
  8
FUTO
 10
23314.082491516761
 20
18100.605278004208
 30
0.0
 11
23314.082491516761
 21
17950.605278004208
 31
0.0
  0
DIMENSION
  5
517
  8
SP
  2
*D17
 10
24792.082491516761
 20
17341.124665239891
 30
0.0
 11
24422.582491516761
 21
17421.124665239891
 31
0.0
 70
     0
 13
24053.082491516761
 23
17759.67822601027
 33
0.0
 14
24792.082491516761
 24
17780.605278004208
 34
0.0
1001
ACAD
1000
DSTYLE
1002
{
1070
   287
1070
     4
1070
    40
1040
40.0
1070
    75
1070
     1
1070
   279
1070
     1
1070
   289
1070
     3
1002
}
  0
LINE
  5
529
  8
CT
 10
24757.082491516769
 20
17963.507077817409
 30
0.0
 11
24757.082491516769
 21
17909.30030291326
 31
0.0
  0
LINE
  5
53A
  8
FUTO
 10
24792.082491516761
 20
17780.605278004208
 30
0.0
 11
24717.082491516769
 21
17780.605278004208
 31
0.0
  0
LINE
  5
53B
  8
FUTO
 10
24787.515491516759
 20
17788.00827800421
 30
0.0
 11
24732.711491516769
 21
17792.805278004209
 31
0.0
  0
LINE
  5
53C
  8
1
 10
24791.277491516761
 20
17780.605278004208
 30
0.0
 11
24716.277491516761
 21
17780.605278004208
 31
0.0
  0
LINE
  5
53D
  8
FUTO
 10
24727.229868545779
 20
17793.28231063368
 30
0.0
 11
24788.427114487749
 21
17787.92824537474
 31
0.0
  0
LINE
  5
53E
  8
FUTO
 10
24717.078491516761
 20
17780.605278004208
 30
0.0
 11
24792.078491516761
 21
17780.605278004208
 31
0.0
  0
LINE
  5
53F
  8
FUTO
 10
24727.229868545779
 20
17917.92824537474
 30
0.0
 11
24788.427114487749
 21
17923.28231063368
 31
0.0
  0
LINE
  5
540
  8
FUTO
 10
24717.078491516761
 20
17930.605278004208
 30
0.0
 11
24792.078491516761
 21
17930.605278004208
 31
0.0
1001
ACAD
1000
ASC_BOUNDS
1002
{
1070
    19
1005
0
1002
}
  0
LINE
  5
541
  8
FUTO
 10
24717.078491516761
 20
17930.605278004208
 30
0.0
 11
24717.078491516761
 21
17780.605278004208
 31
0.0
  0
LINE
  5
542
  8
FUTO
 10
24723.578491516771
 20
17913.943466582379
 30
0.0
 11
24723.578491516771
 21
17797.267089426041
 31
0.0
  0
LINE
  5
543
  8
FUTO
 10
24717.078491516761
 20
17930.605278004208
 30
0.0
 11
24717.078491516761
 21
17780.605278004208
 31
0.0
  0
ARC
  5
544
  8
FUTO
 10
24727.578491516771
 20
17797.267089426041
 30
0.0
 40
4.0
 50
180.0
 51
264.99999999999989
  0
ARC
  5
545
  8
FUTO
 10
24727.578491516771
 20
17913.943466582379
 30
0.0
 40
4.0
 50
95.000000000000057
 51
180.0
  0
LINE
  5
546
  8
FUTO
 10
24792.082491516761
 20
17780.605278004208
 30
0.0
 11
24792.082491516761
 21
17783.027278004211
 31
0.0
  0
LINE
  5
547
  8
FUTO
 10
24792.078491516761
 20
17780.605278004208
 30
0.0
 11
24792.078491516761
 21
17783.943466582368
 31
0.0
  0
ARC
  5
548
  8
FUTO
 10
24788.078491516761
 20
17783.943466582368
 30
0.0
 40
4.0
 50
0.0
 51
84.999999999999801
  0
ARC
  5
549
  8
FUTO
 10
24788.078491516761
 20
17927.267089426041
 30
0.0
 40
4.0
 50
275.00000000000011
 51
0.0
  0
LINE
  5
54A
  8
FUTO
 10
24792.078491516761
 20
17930.605278004208
 30
0.0
 11
24792.078491516761
 21
17927.267089426041
 31
0.0
  0
LINE
  5
554
  8
FUTO
 10
24792.082491516761
 20
17950.605278004208
 30
0.0
 11
24717.082491516769
 21
17950.605278004208
 31
0.0
  0
LINE
  5
555
  8
FUTO
 10
24787.515491516759
 20
17958.00827800421
 30
0.0
 11
24732.711491516769
 21
17962.805278004209
 31
0.0
  0
LINE
  5
556
  8
FUTO
 10
24792.082491516761
 20
17950.605278004208
 30
0.0
 11
24792.082491516761
 21
17953.027278004211
 31
0.0
  0
LINE
  5
557
  8
1
 10
24791.277491516761
 20
17950.605278004208
 30
0.0
 11
24716.277491516761
 21
17950.605278004208
 31
0.0
  0
ARC
  5
558
  8
FUTO
 10
24788.078491516761
 20
18097.267089426041
 30
0.0
 40
4.0
 50
275.00000000000011
 51
0.0
  0
LINE
  5
559
  8
FUTO
 10
24792.078491516761
 20
18100.605278004208
 30
0.0
 11
24792.078491516761
 21
18097.267089426041
 31
0.0
  0
LINE
  5
55A
  8
FUTO
 10
24792.078491516761
 20
17950.605278004208
 30
0.0
 11
24792.078491516761
 21
17953.943466582379
 31
0.0
  0
ARC
  5
55B
  8
FUTO
 10
24788.078491516761
 20
17953.943466582379
 30
0.0
 40
4.0
 50
0.0
 51
84.999999999999801
  0
ARC
  5
55C
  8
FUTO
 10
24727.578491516771
 20
18083.943466582368
 30
0.0
 40
4.0
 50
95.000000000000057
 51
180.0
  0
LINE
  5
55D
  8
FUTO
 10
24717.078491516761
 20
18100.605278004208
 30
0.0
 11
24717.078491516761
 21
17950.605278004208
 31
0.0
  0
ARC
  5
55E
  8
FUTO
 10
24727.578491516771
 20
17967.267089426041
 30
0.0
 40
4.0
 50
180.0
 51
264.99999999999989
  0
LINE
  5
55F
  8
FUTO
 10
24723.578491516771
 20
18083.943466582368
 30
0.0
 11
24723.578491516771
 21
17967.267089426041
 31
0.0
  0
LINE
  5
560
  8
FUTO
 10
24727.229868545779
 20
18087.92824537474
 30
0.0
 11
24788.427114487749
 21
18093.28231063368
 31
0.0
  0
LINE
  5
561
  8
FUTO
 10
24717.078491516761
 20
18100.605278004208
 30
0.0
 11
24792.078491516761
 21
18100.605278004208
 31
0.0
  0
LINE
  5
562
  8
FUTO
 10
24727.229868545779
 20
17963.28231063368
 30
0.0
 11
24788.427114487749
 21
17957.92824537474
 31
0.0
  0
LINE
  5
563
  8
FUTO
 10
24717.078491516761
 20
17950.605278004208
 30
0.0
 11
24792.078491516761
 21
17950.605278004208
 31
0.0
  0
LINE
  5
564
  8
FUTO
 10
24717.078491516761
 20
18100.605278004208
 30
0.0
 11
24717.078491516761
 21
17950.605278004208
 31
0.0
  0
LINE
  5
56B
  8
KL
 10
24716.282491516769
 20
19192.9790946102
 30
0.0
 11
24806.282491516758
 21
19192.9790946102
 31
0.0
  0
LINE
  5
56C
  8
KL
 10
24716.282491516769
 20
19198.9790946102
 30
0.0
 11
24848.082491516769
 21
19198.9790946102
 31
0.0
  0
LINE
  5
56D
  8
HOSO
 10
24673.748481905852
 20
19158.979094610189
 30
0.0
 11
24747.856097054111
 21
19158.979094610189
 31
0.0
  0
LINE
  5
56E
  8
KL
 10
24716.282491516758
 20
19133.9790946102
 30
0.0
 11
24722.282491516758
 21
19133.9790946102
 31
0.0
  0
LINE
  5
56F
  8
FUTO
 10
24806.282491516758
 20
19192.9790946102
 30
0.0
 11
24848.082491516769
 21
19192.9790946102
 31
0.0
  0
LINE
  5
570
  8
FUTO
 10
24842.082491516761
 20
19133.9790946102
 30
0.0
 11
24848.082491516769
 21
19133.9790946102
 31
0.0
  0
LINE
  5
571
  8
HOSO
 10
24814.599945330741
 20
19158.979094610189
 30
0.0
 11
24888.707560479012
 21
19158.979094610189
 31
0.0
  0
LINE
  5
600
  8
FUTO
 10
23324.882491516801
 20
20191.117677687649
 30
0.0
 11
24781.282491516798
 21
20191.117677687649
 31
0.0
  0
LINE
  5
601
  8
FUTO
 10
23324.882491516801
 20
20209.11767768766
 30
0.0
 11
24781.282491516798
 21
20209.11767768766
 31
0.0
  0
LINE
  5
61E
  8
CT
 10
21551.156369831981
 20
20098.9790946102
 30
0.0
 11
25047.07779468899
 21
20098.9790946102
 31
0.0
  0
LINE
  5
623
  8
FUTO
 10
22158.582491516761
 20
20202.9790946102
 30
0.0
 11
22025.582491516761
 21
20202.9790946102
 31
0.0
  0
LINE
  5
624
  8
FUTO
 10
22025.582491516761
 20
19994.9790946102
 30
0.0
 11
22037.082491516761
 21
19994.9790946102
 31
0.0
  0
ARC
  5
625
  8
FUTO
 10
22043.082491516761
 20
20016.9790946102
 30
0.0
 40
6.0
 50
90.0
 51
180.0
  0
LINE
  5
626
  8
FUTO
 10
22002.082491516769
 20
19976.9790946102
 30
0.0
 11
22182.082491516761
 21
19976.9790946102
 31
0.0
  0
ARC
  5
628
  8
FUTO
 10
22025.582491516761
 20
20196.9790946102
 30
0.0
 40
6.0
 50
90.0
 51
180.0
  0
LINE
  5
62A
  8
FUTO
 10
22019.582491516761
 20
20188.9790946102
 30
0.0
 11
22014.582491516761
 21
20188.9790946102
 31
0.0
  0
ARC
  5
62B
  8
FUTO
 10
22025.582491516761
 20
20000.9790946102
 30
0.0
 40
6.0
 50
180.0
 51
270.0
  0
LINE
  5
62C
  8
FUTO
 10
22014.582491516761
 20
20008.979094610189
 30
0.0
 11
22019.582491516761
 21
20008.979094610189
 31
0.0
  0
LINE
  5
62D
  8
FUTO
 10
22019.582491516761
 20
20196.9790946102
 30
0.0
 11
22019.582491516761
 21
20000.9790946102
 31
0.0
  0
LINE
  5
62E
  8
FUTO
 10
22014.582491516761
 20
20188.9790946102
 30
0.0
 11
22014.582491516761
 21
20008.979094610189
 31
0.0
  0
LINE
  5
62F
  8
FUTO
 10
21923.082491516761
 20
20051.4790946102
 30
0.0
 11
22014.582491516761
 21
20051.4790946102
 31
0.0
  0
LINE
  5
630
  8
FUTO
 10
21923.082491516761
 20
20146.479094610189
 30
0.0
 11
22014.582491516761
 21
20146.479094610189
 31
0.0
  0
LINE
  5
631
  8
SL
 10
21753.082491516761
 20
20378.9790946102
 30
0.0
 11
21923.082491516761
 21
20378.9790946102
 31
0.0
  0
LINE
  5
632
  8
FUTO
 10
21603.082491516769
 20
20478.9790946102
 30
0.0
 11
21953.082491516761
 21
20478.9790946102
 31
0.0
  0
LINE
  5
636
  8
FUTO
 10
23389.882491516761
 20
20167.679094610201
 30
0.0
 11
23389.882491516761
 21
21385.800479266622
 31
0.0
  0
LINE
  5
637
  8
FUTO
 10
23393.082491516769
 20
20167.679094610201
 30
0.0
 11
23393.082491516769
 21
21385.800479266622
 31
0.0
  0
LINE
  5
638
  8
FUTO
 10
23324.882491516761
 20
21385.800479266611
 30
0.0
 11
23324.882491516761
 21
20191.117677687631
 31
0.0
  0
LINE
  5
63B
  8
SL
 10
22972.594112842839
 20
20315.053764420449
 30
0.0
 11
22207.21615604515
 21
20315.053764420449
 31
0.0
  0
LINE
  5
63D
  8
FUTO
 10
23003.082491516761
 20
19938.9790946102
 30
0.0
 11
22182.082491516761
 21
19938.9790946102
 31
0.0
  0
LINE
  5
63E
  8
FUTO
 10
22169.582491516769
 20
20046.4790946102
 30
0.0
 11
22999.582491516761
 21
20046.4790946102
 31
0.0
  0
LINE
  5
63F
  8
FUTO
 10
22169.582491516769
 20
20151.4790946102
 30
0.0
 11
22999.582491516761
 21
20151.4790946102
 31
0.0
  0
LINE
  5
640
  8
SL
 10
22207.21615604515
 20
20315.053764420449
 30
0.0
 11
22207.21615604515
 21
19938.9790946102
 31
0.0
  0
LINE
  5
641
  8
CT
 10
22092.082491516761
 20
20280.045009029822
 30
0.0
 11
22092.082491516761
 21
19890.044841084411
 31
0.0
  0
ARC
  5
642
  8
FUTO
 10
22158.582491516761
 20
20196.9790946102
 30
0.0
 40
6.0
 50
0.0
 51
90.0
  0
LINE
  5
643
  8
FUTO
 10
22147.082491516761
 20
20202.9790946102
 30
0.0
 11
22147.082491516761
 21
19976.9790946102
 31
0.0
  0
LINE
  5
644
  8
FUTO
 10
22037.082491516761
 20
20202.9790946102
 30
0.0
 11
22037.082491516761
 21
19976.9790946102
 31
0.0
  0
LINE
  5
645
  8
CT
 10
22092.082491516761
 20
20222.747853774901
 30
0.0
 11
22092.082491516761
 21
19969.155370708071
 31
0.0
  0
LINE
  5
646
  8
FUTO
 10
22164.582491516761
 20
20188.9790946102
 30
0.0
 11
22169.582491516769
 21
20188.9790946102
 31
0.0
  0
LINE
  5
647
  8
FUTO
 10
22169.582491516769
 20
20008.979094610189
 30
0.0
 11
22164.582491516761
 21
20008.979094610189
 31
0.0
  0
ARC
  5
648
  8
FUTO
 10
22158.582491516761
 20
20000.9790946102
 30
0.0
 40
6.0
 50
270.0
 51
0.0
  0
LINE
  5
649
  8
FUTO
 10
22158.582491516761
 20
19994.9790946102
 30
0.0
 11
22147.082491516761
 21
19994.9790946102
 31
0.0
  0
ARC
  5
64A
  8
FUTO
 10
22141.082491516769
 20
20016.9790946102
 30
0.0
 40
6.0
 50
0.0
 51
90.0
  0
LINE
  5
64B
  8
FUTO
 10
22169.582491516769
 20
20188.9790946102
 30
0.0
 11
22169.582491516769
 21
20008.979094610189
 31
0.0
  0
LINE
  5
64C
  8
FUTO
 10
22164.582491516761
 20
20196.9790946102
 30
0.0
 11
22164.582491516761
 21
20000.9790946102
 31
0.0
  0
LINE
  5
64D
  8
FUTO
 10
22037.082491516761
 20
19986.9790946102
 30
0.0
 11
22147.082491516761
 21
19986.9790946102
 31
0.0
  0
LINE
  5
64E
  8
FUTO
 10
22141.082491516769
 20
20022.9790946102
 30
0.0
 11
22043.082491516761
 21
20022.9790946102
 31
0.0
  0
LINE
  5
653
  8
SL
 10
22972.594112842839
 20
20315.053764420449
 30
0.0
 11
22972.594112842839
 21
19938.9790946102
 31
0.0
  0
LINE
  5
654
  8
CT
 10
23093.082491516761
 20
20307.749922690429
 30
0.0
 11
23093.082491516761
 21
19858.077618922842
 31
0.0
  0
LINE
  5
655
  8
FUTO
 10
23171.582491516769
 20
20206.4790946102
 30
0.0
 11
23186.582491516769
 21
20182.9790946102
 31
0.0
  0
LINE
  5
656
  8
FUTO
 10
23159.582491516761
 20
20228.9790946102
 30
0.0
 11
23159.582491516761
 21
20013.9790946102
 31
0.0
  0
LINE
  5
657
  8
FUTO
 10
23159.582491516761
 20
20003.9790946102
 30
0.0
 11
23159.582491516761
 21
20228.979031415809
 31
0.0
  0
LINE
  5
658
  8
FUTO
 10
23171.582491516769
 20
19968.9790946102
 30
0.0
 11
23171.582491516769
 21
20228.9790946102
 31
0.0
  0
LINE
  5
659
  8
FUTO
 10
22999.582491516761
 20
20182.9790946102
 30
0.0
 11
23014.582491516761
 21
20206.4790946102
 31
0.0
  0
LINE
  5
65A
  8
FUTO
 10
23026.582491516769
 20
20228.9790946102
 30
0.0
 11
23026.582491516769
 21
20013.9790946102
 31
0.0
  0
LINE
  5
65B
  8
CT
 10
23093.082491516761
 20
20263.140674276401
 30
0.0
 11
23093.082491516761
 21
19921.271051432312
 31
0.0
  0
LINE
  5
65C
  8
FUTO
 10
23014.582491516761
 20
20228.9790946102
 30
0.0
 11
23014.582491516761
 21
19968.9790946102
 31
0.0
  0
LINE
  5
662
  8
FUTO
 10
23324.882491516801
 20
20191.117677687649
 30
0.0
 11
23299.882491516801
 21
20175.098522381912
 31
0.0
  0
LINE
  5
664
  8
FUTO
 10
23183.082491516769
 20
19948.9790946102
 30
0.0
 11
23003.082491516761
 21
19948.9790946102
 31
0.0
  0
LINE
  5
665
  8
FUTO
 10
23168.082491516769
 20
19958.979094610189
 30
0.0
 11
23018.082491516761
 21
19958.979094610189
 31
0.0
  0
LINE
  5
666
  8
FUTO
 10
23018.082491516761
 20
20013.9790946102
 30
0.0
 11
23168.082491516769
 21
20013.9790946102
 31
0.0
  0
LINE
  5
667
  8
FUTO
 10
22999.582491516761
 20
20014.979094610189
 30
0.0
 11
22999.582491516761
 21
20182.9790946102
 31
0.0
  0
LINE
  5
668
  8
FUTO
 10
23014.582491516761
 20
19968.9790946102
 30
0.0
 11
23018.082491516761
 21
19968.9790946102
 31
0.0
  0
LINE
  5
669
  8
CT
 10
23043.082491516761
 20
19924.02400225895
 30
0.0
 11
23043.082491516761
 21
20044.796527380709
 31
0.0
  0
LINE
  5
66A
  8
FUTO
 10
23018.082491516761
 20
19948.9790946102
 30
0.0
 11
23018.082491516761
 21
20013.9790946102
 31
0.0
  0
LINE
  5
66B
  8
FUTO
 10
23014.582491516761
 20
19991.4790946102
 30
0.0
 11
22999.582491516761
 21
20014.979094610189
 31
0.0
  0
LINE
  5
66C
  8
FUTO
 10
23186.582491516769
 20
20151.4790946102
 30
0.0
 11
23299.882491516761
 21
20151.4790946102
 31
0.0
  0
LINE
  5
66E
  8
FUTO
 10
23186.582491516769
 20
20046.4790946102
 30
0.0
 11
23299.882491516761
 21
20046.4790946102
 31
0.0
  0
LINE
  5
67F
  8
CT
 10
23204.472829753089
 20
20098.9790946102
 30
0.0
 11
23313.815451629001
 21
20098.9790946102
 31
0.0
  0
LINE
  5
69D
  8
FUTO
 10
23186.582491516769
 20
20182.9790946102
 30
0.0
 11
23186.582491516769
 21
20014.979094610189
 31
0.0
  0
LINE
  5
69E
  8
FUTO
 10
23168.082491516769
 20
19968.9790946102
 30
0.0
 11
23171.582491516769
 21
19968.9790946102
 31
0.0
  0
LINE
  5
69F
  8
FUTO
 10
23168.082491516769
 20
20013.9790946102
 30
0.0
 11
23168.082491516769
 21
19948.9790946102
 31
0.0
  0
LINE
  5
6A0
  8
FUTO
 10
23186.582491516769
 20
20014.979094610189
 30
0.0
 11
23171.582491516769
 21
19991.4790946102
 31
0.0
  0
LINE
  5
6A1
  8
CT
 10
23143.082491516769
 20
19924.02400225895
 30
0.0
 11
23143.082491516769
 21
20044.796527380709
 31
0.0
  0
LINE
  5
6AC
  8
FUTO
 10
23154.582491516769
 20
20246.9790946102
 30
0.0
 11
23031.582491516761
 21
20246.9790946102
 31
0.0
  0
LINE
  5
6AD
  8
FUTO
 10
23031.582491516761
 20
20246.9790946102
 30
0.0
 11
23031.582491516761
 21
20228.9790946102
 31
0.0
  0
LINE
  5
6AE
  8
FUTO
 10
23031.582491516761
 20
20228.9790946102
 30
0.0
 11
23014.582491516761
 21
20228.9790946102
 31
0.0
  0
LINE
  5
6B7
  8
FUTO
 10
23171.582491516769
 20
20228.9790946102
 30
0.0
 11
23154.582491516769
 21
20228.9790946102
 31
0.0
  0
LINE
  5
6B8
  8
FUTO
 10
23154.582491516769
 20
20228.9790946102
 30
0.0
 11
23154.582491516769
 21
20246.9790946102
 31
0.0
  0
LINE
  5
6BC
  8
FUTO
 10
23389.882491516761
 20
21044.179094610201
 30
0.0
 11
23389.882491516772
 21
21385.800479266611
 31
0.0
  0
DIMENSION
  5
6CD
  8
SP
  2
*D18
 10
24848.082491516769
 20
21872.309393305051
 30
0.0
 11
24381.944866560869
 21
21872.309393305051
 31
0.0
 70
   128
 13
24053.082491516761
 23
21904.25173266944
 33
0.0
 14
24848.082491516769
 24
21063.9790946102
 34
0.0
1001
ACAD
1000
DSTYLE
1002
{
1070
    40
1040
40.0
1002
}
  0
LINE
  5
6E1
  8
FUTO
 10
24713.082491516769
 20
20167.679094610201
 30
0.0
 11
24713.082491516769
 21
21385.800479266622
 31
0.0
  0
LINE
  5
6E2
  8
FUTO
 10
24716.282491516758
 20
20167.679094610201
 30
0.0
 11
24716.282491516769
 21
21385.800479266622
 31
0.0
  0
LINE
  5
6E3
  8
FUTO
 10
24781.282491517199
 20
21385.800479266611
 30
0.0
 11
24781.282491516798
 21
20191.11767768766
 31
0.0
  0
LINE
  5
701
  8
FUTO
 10
24781.282491516831
 20
20191.117677687631
 30
0.0
 11
24806.282491516831
 21
20175.09852238189
 31
0.0
  0
INSERT
  5
702
  8
FUTO
  2
まっすぐの矢印
 10
25043.555644087272
 20
20584.525397459311
 30
0.0
 41
2.0
 42
2.0
 43
2.0
 50
90.0
  0
LINE
  5
704
  8
FUTO
 10
24781.282491516758
 20
21004.9790946102
 30
0.0
 11
24848.082491516769
 21
21004.9790946102
 31
0.0
  0
LINE
  5
705
  8
KL
 10
24716.282491516758
 20
20998.9790946102
 30
0.0
 11
24848.082491516769
 21
20998.9790946102
 31
0.0
  0
LINE
  5
706
  8
HOSO
 10
24687.344521708768
 20
21038.9790946102
 30
0.0
 11
24747.174870538842
 21
21038.9790946102
 31
0.0
  0
LINE
  5
707
  8
KL
 10
24722.282491516758
 20
21063.9790946102
 30
0.0
 11
24716.282491516758
 21
21063.9790946102
 31
0.0
  0
LINE
  5
708
  8
KL
 10
24716.282491516758
 20
21004.9790946102
 30
0.0
 11
24781.282491516758
 21
21004.9790946102
 31
0.0
  0
LINE
  5
709
  8
FUTO
 10
24842.082491516761
 20
21063.9790946102
 30
0.0
 11
24848.082491516769
 21
21063.9790946102
 31
0.0
  0
LINE
  5
70A
  8
HOSO
 10
24815.414714957082
 20
21038.9790946102
 30
0.0
 11
24875.245063787152
 21
21038.9790946102
 31
0.0
  0
LINE
  5
88D
  8
CT
 10
17332.471887218289
 20
24969.69402282087
 30
0.0
 11
20664.7414902655
 21
24969.69402282087
 31
0.0
  0
LINE
  5
88E
  8
FUTO
 10
20177.50704655658
 20
24240.69402282087
 30
0.0
 11
20177.50704655658
 21
25698.694022820859
 31
0.0
  0
LINE
  5
89C
  8
FUTO
 10
20112.50704655658
 20
24240.69402282087
 30
0.0
 11
20177.50704655658
 21
24240.69402282087
 31
0.0
  0
LINE
  5
89D
  8
FUTO
 10
20112.50704655658
 20
24240.69402282087
 30
0.0
 11
20112.50704655658
 21
25698.694022820859
 31
0.0
  0
LINE
  5
89E
  8
FUTO
 10
20112.50704655658
 20
25698.694022820859
 30
0.0
 11
20177.50704655658
 21
25698.694022820859
 31
0.0
  0
LINE
  5
89F
  8
FUTO
 10
17458.50704655658
 20
25633.694022820859
 30
0.0
 11
17458.50704655658
 21
24305.69402282087
 31
0.0
  0
LINE
  5
8A0
  8
FUTO
 10
17408.50704655658
 20
25683.694022820859
 30
0.0
 11
20112.50704655658
 21
25683.694022820859
 31
0.0
  0
LINE
  5
8A1
  8
FUTO
 10
17408.50704655658
 20
25683.69402282087
 30
0.0
 11
17408.50704655658
 21
24255.69402282087
 31
0.0
  0
LINE
  5
8A2
  8
FUTO
 10
17408.50704655658
 20
24255.69402282087
 30
0.0
 11
20112.50704655658
 21
24255.69402282087
 31
0.0
  0
LINE
  5
8A3
  8
FUTO
 10
17458.50704655658
 20
24305.69402282087
 30
0.0
 11
18312.50704655658
 21
24305.69402282087
 31
0.0
  0
LINE
  5
8A4
  8
FUTO
 10
17952.50704655658
 20
25683.694022820859
 30
0.0
 11
17952.50704655658
 21
25708.69402282087
 31
0.0
  0
LINE
  5
8A5
  8
FUTO
 10
20072.50704655658
 20
25683.694022820859
 30
0.0
 11
20072.50704655658
 21
25708.69402282087
 31
0.0
  0
LINE
  5
132F
  8
FUTO
 10
19392.50704655658
 20
22519.69402282087
 30
0.0
 11
17232.50704655658
 21
22519.69402282087
 31
0.0
  0
LINE
  5
1330
  8
FUTO
 10
19392.50704655658
 20
22869.69402282087
 30
0.0
 11
17232.50704655658
 21
22869.69402282087
 31
0.0
  0
LINE
  5
1336
  8
SL
 10
19292.50704655658
 20
22669.69402282087
 30
0.0
 11
17312.50704655658
 21
22669.69402282087
 31
0.0
  0
LINE
  5
1337
  8
SL
 10
19292.50704655658
 20
22839.69402282088
 30
0.0
 11
17312.50704655658
 21
22839.69402282087
 31
0.0
  0
LINE
  5
1338
  8
CT
 10
19012.50704655658
 20
22467.767901136089
 30
0.0
 11
19012.50704655658
 21
25963.689325993098
 31
0.0
  0
LINE
  5
1342
  8
FUTO
 10
19116.50704655658
 20
22942.19402282087
 30
0.0
 11
19116.50704655658
 21
22953.69402282087
 31
0.0
  0
LINE
  5
1343
  8
FUTO
 10
18908.50704655658
 20
23075.19402282087
 30
0.0
 11
18908.50704655658
 21
22942.19402282087
 31
0.0
  0
ARC
  5
1344
  8
FUTO
 10
18914.50704655658
 20
22942.19402282087
 30
0.0
 40
6.0
 50
180.0
 51
270.0
  0
LINE
  5
1345
  8
SL
 10
18732.50704655658
 20
22669.69402282087
 30
0.0
 11
18732.50704655658
 21
22839.69402282088
 31
0.0
  0
LINE
  5
1346
  8
FUTO
 10
18965.00704655658
 20
22839.69402282088
 30
0.0
 11
18965.00704655658
 21
22931.19402282087
 31
0.0
  0
LINE
  5
1347
  8
FUTO
 10
19060.00704655658
 20
22839.69402282088
 30
0.0
 11
19060.00704655658
 21
22931.19402282087
 31
0.0
  0
LINE
  5
1348
  8
FUTO
 10
18922.50704655658
 20
22931.19402282087
 30
0.0
 11
19102.50704655658
 21
22931.19402282087
 31
0.0
  0
LINE
  5
1349
  8
FUTO
 10
18914.50704655658
 20
22936.19402282087
 30
0.0
 11
19110.50704655658
 21
22936.19402282087
 31
0.0
  0
LINE
  5
134A
  8
FUTO
 10
19102.50704655658
 20
22931.19402282087
 30
0.0
 11
19102.50704655658
 21
22936.19402282087
 31
0.0
  0
ARC
  5
134B
  8
FUTO
 10
19110.50704655658
 20
22942.19402282087
 30
0.0
 40
6.0
 50
270.0
 51
0.000000000000007
  0
LINE
  5
134C
  8
FUTO
 10
18922.50704655658
 20
22936.19402282087
 30
0.0
 11
18922.50704655658
 21
22931.19402282087
 31
0.0
  0
LINE
  5
1353
  8
FUTO
 10
18960.00704655658
 20
23086.19402282087
 30
0.0
 11
18960.00704655658
 21
23916.19402282087
 31
0.0
  0
LINE
  5
1354
  8
FUTO
 10
19065.00704655658
 20
23086.19402282087
 30
0.0
 11
19065.00704655658
 21
23916.19402282087
 31
0.0
  0
LINE
  5
1357
  8
CT
 10
18888.738287391869
 20
23008.69402282087
 30
0.0
 11
19142.330770458699
 21
23008.69402282087
 31
0.0
  0
LINE
  5
1358
  8
FUTO
 10
18908.50704655658
 20
22953.69402282087
 30
0.0
 11
19116.50704655658
 21
22953.69402282087
 31
0.0
  0
LINE
  5
1359
  8
FUTO
 10
18908.50704655658
 20
23063.69402282087
 30
0.0
 11
19116.50704655658
 21
23063.69402282087
 31
0.0
  0
ARC
  5
135A
  8
FUTO
 10
18914.50704655658
 20
23075.19402282087
 30
0.0
 40
6.0
 50
90.0
 51
180.0
  0
LINE
  5
135B
  8
CT
 10
18831.441132136952
 20
23008.69402282087
 30
0.0
 11
19221.44130008237
 21
23008.69402282087
 31
0.0
  0
LINE
  5
135F
  8
FUTO
 10
18914.50704655658
 20
23081.19402282087
 30
0.0
 11
19110.50704655658
 21
23081.19402282087
 31
0.0
  0
LINE
  5
1360
  8
FUTO
 10
18922.50704655658
 20
23086.19402282087
 30
0.0
 11
19102.50704655658
 21
23086.19402282087
 31
0.0
  0
LINE
  5
1362
  8
FUTO
 10
19116.50704655658
 20
23075.19402282087
 30
0.0
 11
19116.50704655658
 21
23063.69402282087
 31
0.0
  0
ARC
  5
1363
  8
FUTO
 10
19110.50704655658
 20
23075.19402282087
 30
0.0
 40
6.0
 50
0.000000000000007
 51
90.0
  0
LINE
  5
1364
  8
FUTO
 10
19102.50704655658
 20
23086.19402282087
 30
0.0
 11
19102.50704655658
 21
23081.19402282087
 31
0.0
  0
LINE
  5
1365
  8
FUTO
 10
18922.50704655658
 20
23081.19402282087
 30
0.0
 11
18922.50704655658
 21
23086.19402282087
 31
0.0
  0
LINE
  5
136A
  8
FUTO
 10
18882.50704655657
 20
23931.19402282087
 30
0.0
 11
19142.50704655658
 21
23931.19402282087
 31
0.0
  0
LINE
  5
136B
  8
CT
 10
18848.345466890369
 20
24009.69402282087
 30
0.0
 11
19190.215089734469
 21
24009.69402282087
 31
0.0
  0
LINE
  5
136C
  8
FUTO
 10
18882.50704655657
 20
23943.19402282087
 30
0.0
 11
19142.50704655658
 21
23943.19402282087
 31
0.0
  0
LINE
  5
136D
  8
FUTO
 10
18928.50704655658
 20
23916.19402282087
 30
0.0
 11
18905.00704655658
 21
23931.19402282087
 31
0.0
  0
LINE
  5
136E
  8
FUTO
 10
19142.50704655658
 20
24088.19402282087
 30
0.0
 11
18882.50704655657
 21
24088.19402282087
 31
0.0
  0
LINE
  5
136F
  8
FUTO
 10
19142.50704655658
 20
24076.19402282087
 30
0.0
 11
18882.507109750961
 21
24076.19402282087
 31
0.0
  0
LINE
  5
1370
  8
FUTO
 10
18882.50704655657
 20
24076.19402282087
 30
0.0
 11
19097.50704655658
 21
24076.19402282087
 31
0.0
  0
LINE
  5
1371
  8
FUTO
 10
18905.00704655658
 20
24088.19402282087
 30
0.0
 11
18928.50704655658
 21
24103.19402282087
 31
0.0
  0
LINE
  5
1372
  8
CT
 10
18803.736218476341
 20
24009.69402282087
 30
0.0
 11
19253.408522243932
 21
24009.69402282087
 31
0.0
  0
LINE
  5
137E
  8
FUTO
 10
19120.00704655658
 20
23931.19402282087
 30
0.0
 11
19096.50704655658
 21
23916.19402282087
 31
0.0
  0
LINE
  5
1381
  8
FUTO
 10
19142.50704655658
 20
23931.19402282087
 30
0.0
 11
19142.50704655658
 21
23934.69402282087
 31
0.0
  0
LINE
  5
1382
  8
FUTO
 10
19096.50704655658
 20
23916.19402282087
 30
0.0
 11
18928.50704655658
 21
23916.19402282087
 31
0.0
  0
LINE
  5
1384
  8
FUTO
 10
19096.50704655658
 20
24103.19402282087
 30
0.0
 11
19120.00704655658
 21
24088.19402282087
 31
0.0
  0
LINE
  5
1386
  8
FUTO
 10
19142.50704655658
 20
24084.69402282087
 30
0.0
 11
19142.50704655658
 21
24088.19402282087
 31
0.0
  0
LINE
  5
1387
  8
FUTO
 10
18928.50704655658
 20
24103.19402282087
 30
0.0
 11
19096.50704655658
 21
24103.19402282087
 31
0.0
  0
LINE
  5
13A3
  8
CT
 10
19012.50704655658
 20
24121.084361057201
 30
0.0
 11
19012.50704655658
 21
24230.426982933099
 31
0.0
  0
LINE
  5
13B2
  8
FUTO
 10
19065.00704655658
 20
24103.19402282087
 30
0.0
 11
19065.00704655658
 21
24255.69402282087
 31
0.0
  0
LINE
  5
13B4
  8
FUTO
 10
18960.00704655658
 20
24103.19402282087
 30
0.0
 11
18960.00704655658
 21
24255.69402282087
 31
0.0
  0
LINE
  5
13BE
  8
FUTO
 10
18864.50704655658
 20
24071.19402282087
 30
0.0
 11
18864.50704655658
 21
23948.19402282087
 31
0.0
  0
LINE
  5
13BF
  8
FUTO
 10
18882.50704655657
 20
23948.19402282087
 30
0.0
 11
18882.50704655657
 21
23931.19402282087
 31
0.0
  0
LINE
  5
13C0
  8
FUTO
 10
18864.50704655658
 20
23948.19402282087
 30
0.0
 11
18882.50704655657
 21
23948.19402282087
 31
0.0
  0
LINE
  5
13C1
  8
FUTO
 10
18882.50704655657
 20
24071.19402282087
 30
0.0
 11
18864.50704655658
 21
24071.19402282087
 31
0.0
  0
LINE
  5
13C2
  8
FUTO
 10
18882.50704655657
 20
24088.19402282087
 30
0.0
 11
18882.50704655657
 21
24071.19402282087
 31
0.0
  0
LINE
  5
13E1
  8
FUTO
 10
19392.50704655658
 20
22519.69402282087
 30
0.0
 11
19392.50704655658
 21
22869.69402282087
 31
0.0
  0
LINE
  5
13E2
  8
SL
 10
19292.50704655658
 20
22669.69402282087
 30
0.0
 11
19292.50704655658
 21
22839.69402282088
 31
0.0
  0
DIMENSION
  5
1417
  8
SP
  2
*D5
 10
24053.082491516761
 20
21872.309393305051
 30
0.0
 11
22828.082491516761
 21
21983.73796473362
 31
0.0
 70
     0
  1
(<>)
 13
21603.082491516769
 23
20478.9790946102
 33
0.0
 14
24053.082491516761
 24
21400.933586600338
 34
0.0
1001
ACAD
1000
DSTYLE
1002
{
1070
    40
1040
40.0
1002
}
  0
LINE
  5
1453
  8
FUTO
 10
19116.50704655658
 20
23075.19402282087
 30
0.0
 11
19116.50704655658
 21
22942.19402282087
 31
0.0
  0
LINE
  5
1454
  8
FUTO
 10
19160.50704655658
 20
24071.19402282087
 30
0.0
 11
19160.50704655658
 21
23948.19402282087
 31
0.0
  0
LINE
  5
1455
  8
FUTO
 10
19160.50704655658
 20
23948.19402282087
 30
0.0
 11
19142.50704655658
 21
23948.19402282087
 31
0.0
  0
LINE
  5
1456
  8
FUTO
 10
19142.50704655658
 20
23948.19402282087
 30
0.0
 11
19142.50704655658
 21
23931.19402282087
 31
0.0
  0
LINE
  5
1457
  8
FUTO
 10
19142.50704655658
 20
24088.19402282087
 30
0.0
 11
19142.50704655658
 21
24071.19402282087
 31
0.0
  0
LINE
  5
1458
  8
FUTO
 10
19142.50704655658
 20
24071.19402282087
 30
0.0
 11
19160.50704655658
 21
24071.19402282087
 31
0.0
  0
LINE
  5
1698
  8
KL
 10
21991.582491516769
 20
18168.9790946102
 30
0.0
 11
21991.582491516761
 21
18098.979094612059
 31
0.0
  0
LINE
  5
1699
  8
KL
 10
22691.582491516769
 20
18168.9790946102
 30
0.0
 11
22691.582491516769
 21
18098.979094612088
 31
0.0
  0
LINE
  5
169A
  8
KL
 10
22486.582491516761
 20
18168.9790946102
 30
0.0
 11
21991.582491516769
 21
18168.9790946102
 31
0.0
  0
LINE
  5
169B
  8
KL
 10
21991.582491516761
 20
18168.9790946102
 30
0.0
 11
22691.582491516769
 21
18168.9790946102
 31
0.0
  0
LINE
  5
16AB
  8
FUTO
 10
21928.082491516761
 20
18548.979094610189
 30
0.0
 11
21928.082491516761
 21
18348.9790946102
 31
0.0
  0
LINE
  5
16AC
  8
KL
 10
23162.082491516769
 20
18708.979094610189
 30
0.0
 11
23162.082491516769
 21
18230.830156528111
 31
0.0
  0
LINE
  5
16AD
  8
FUTO
 10
21948.082491516769
 20
18758.9790946102
 30
0.0
 11
21948.082491516769
 21
18182.75237113802
 31
0.0
  0
LINE
  5
16AE
  8
KL
 10
22027.082491516761
 20
18758.9790946102
 30
0.0
 11
22027.082491516761
 21
18182.75237113802
 31
0.0
  0
LINE
  5
16AF
  8
KL
 10
22912.082491516761
 20
18758.9790946102
 30
0.0
 11
22912.082491516761
 21
18180.830156528111
 31
0.0
  0
LINE
  5
16B0
  8
CT
 10
22341.582491516761
 20
18795.618462596831
 30
0.0
 11
22341.582491516761
 21
18077.030567593109
 31
0.0
  0
LINE
  5
16B1
  8
KL
 10
22486.582491516761
 20
18168.9790946102
 30
0.0
 11
22606.582491516761
 21
18168.9790946102
 31
0.0
  0
LINE
  5
16B2
  8
KL
 10
22076.582491516761
 20
18198.9790946102
 30
0.0
 11
22606.582491516761
 21
18198.9790946102
 31
0.0
  0
LINE
  5
16B3
  8
KL
 10
22912.082491516761
 20
18180.830156528111
 30
0.0
 11
23112.082491516761
 21
18180.830156528111
 31
0.0
  0
ARC
  5
16B4
  8
KL
 10
23112.082491516761
 20
18230.830156528111
 30
0.0
 40
50.0
 50
270.0
 51
0.0
  0
LINE
  5
16B5
  8
KL
 10
22606.582491516761
 20
18180.830156528111
 30
0.0
 11
22891.7572735186
 21
18180.830156528111
 31
0.0
  0
LINE
  5
16B6
  8
KL
 10
22912.082491516761
 20
18192.363444187558
 30
0.0
 11
22891.757273518611
 21
18180.830156528111
 31
0.0
  0
LINE
  5
16B7
  8
CT
 10
22570.082491516761
 20
18222.969846369131
 30
0.0
 11
22570.082491516761
 21
18152.49680428666
 31
0.0
  0
LINE
  5
16B8
  8
KL
 10
22606.582491516761
 20
18198.9790946102
 30
0.0
 11
22606.582491516761
 21
18168.9790946102
 31
0.0
  0
LINE
  5
16B9
  8
KL
 10
22486.582491516761
 20
18180.830156528111
 30
0.0
 11
22196.582491516761
 21
18180.830156528111
 31
0.0
  0
LINE
  5
16BA
  8
KL
 10
22486.582491516761
 20
18180.830156528111
 30
0.0
 11
22486.582491516761
 21
18168.979094610189
 31
0.0
  0
LINE
  5
16BB
  8
KL
 10
22076.582491516761
 20
18198.9790946102
 30
0.0
 11
22076.582491516761
 21
18168.9790946102
 31
0.0
  0
LINE
  5
16BC
  8
CT
 10
22113.082491516761
 20
18222.969846369131
 30
0.0
 11
22113.082491516761
 21
18152.49680428666
 31
0.0
  0
LINE
  5
16BD
  8
KL
 10
22076.582491516761
 20
18182.75237113802
 30
0.0
 11
21948.082491516769
 21
18182.75237113802
 31
0.0
  0
LINE
  5
16BE
  8
KL
 10
22196.582491516761
 20
18180.830156528111
 30
0.0
 11
22196.582491516761
 21
18168.9790946102
 31
0.0
  0
LINE
  5
16BF
  8
KL
 10
22076.582491516761
 20
18168.9790946102
 30
0.0
 11
22196.582491516761
 21
18168.9790946102
 31
0.0
  0
LINE
  5
16C0
  8
FUTO
 10
21948.082491516769
 20
18348.9790946102
 30
0.0
 11
21928.082491516761
 21
18348.9790946102
 31
0.0
  0
LINE
  5
16C1
  8
KL
 10
22890.687665351201
 20
18758.9790946102
 30
0.0
 11
21948.082491516769
 21
18758.9790946102
 31
0.0
  0
LINE
  5
16C2
  8
CT
 10
23198.725256981201
 20
18448.9790946102
 30
0.0
 11
21726.93366067738
 21
18448.9790946102
 31
0.0
  0
LINE
  5
16C3
  8
KL
 10
23112.082491516761
 20
18758.9790946102
 30
0.0
 11
22912.082491516761
 21
18758.9790946102
 31
0.0
  0
ARC
  5
16C4
  8
KL
 10
23112.082491516761
 20
18708.979094610189
 30
0.0
 40
50.0
 50
0.0
 51
90.0
  0
LINE
  5
16C5
  8
KL
 10
22912.082491516761
 20
18734.427964181439
 30
0.0
 11
22890.687665351201
 21
18758.9790946102
 31
0.0
  0
LINE
  5
16C6
  8
FUTO
 10
21928.082491516761
 20
18491.4790946102
 30
0.0
 11
21753.082491516761
 21
18491.4790946102
 31
0.0
  0
LINE
  5
16C7
  8
FUTO
 10
21928.082491516761
 20
18406.4790946102
 30
0.0
 11
21753.082491516761
 21
18406.4790946102
 31
0.0
  0
LINE
  5
16C8
  8
CT
 10
22137.082491516769
 20
19082.34880857469
 30
0.0
 11
22137.082491516769
 21
18683.4892770189
 31
0.0
  0
LINE
  5
16C9
  8
FUTO
 10
21948.082491516769
 20
18548.979094610189
 30
0.0
 11
21928.082491516761
 21
18548.979094610189
 31
0.0
  0
LINE
  5
16CA
  8
KL
 10
22237.082491516761
 20
19038.9790946102
 30
0.0
 11
22037.082491516761
 21
19038.9790946102
 31
0.0
  0
LINE
  5
16CB
  8
KL
 10
22237.082491516761
 20
18773.9790946102
 30
0.0
 11
22037.082491516761
 21
18773.9790946102
 31
0.0
  0
LINE
  5
16CC
  8
CT
 10
22300.948418703148
 20
18898.9790946102
 30
0.0
 11
21998.812229318632
 21
18898.9790946102
 31
0.0
  0
LINE
  5
16CD
  8
KL
 10
22257.082491516769
 20
19018.9790946102
 30
0.0
 11
22257.082491516769
 21
18793.9790946102
 31
0.0
  0
ARC
  5
16CE
  8
KL
 10
22237.082491516761
 20
18793.9790946102
 30
0.0
 40
20.0
 50
270.0
 51
0.0
  0
ARC
  5
16CF
  8
KL
 10
22237.082491516761
 20
19018.9790946102
 30
0.0
 40
20.0
 50
0.0
 51
90.0
  0
LINE
  5
16D0
  8
KL
 10
22017.082491516769
 20
19018.9790946102
 30
0.0
 11
22017.082491516769
 21
18793.9790946102
 31
0.0
  0
ARC
  5
16D1
  8
KL
 10
22037.082491516761
 20
18793.9790946102
 30
0.0
 40
20.0
 50
180.0
 51
270.0
  0
ARC
  5
16D2
  8
KL
 10
22037.082491516761
 20
19018.9790946102
 30
0.0
 40
20.0
 50
90.0
 51
180.0
  0
LINE
  5
16D3
  8
FUTO
 10
21923.082491516761
 20
18491.4790946102
 30
0.0
 11
21923.082491516761
 21
18406.4790946102
 31
0.0
  0
LINE
  5
16D4
  8
FUTO
 10
21753.082491516761
 20
18491.4790946102
 30
0.0
 11
21753.082491516761
 21
18406.4790946102
 31
0.0
  0
LINE
  5
17EE
  8
FUTO
 10
17822.50704655653
 20
23807.29919665532
 30
0.0
 11
17822.50704655657
 21
22864.694022820891
 31
0.0
  0
LINE
  5
17EF
  8
CT
 10
17512.507046556519
 20
24115.336788285309
 30
0.0
 11
17512.50704655658
 21
22643.54519198148
 31
0.0
  0
LINE
  5
17F0
  8
FUTO
 10
17202.50704655653
 20
23807.299196655291
 30
0.0
 11
17202.50704655657
 21
22864.69402282087
 31
0.0
  0
LINE
  5
17F1
  8
FUTO
 10
17722.507046556559
 20
22933.69402282088
 30
0.0
 11
17332.507046556559
 21
22933.69402282087
 31
0.0
  0
LINE
  5
17F2
  8
CT
 10
17304.194187179251
 20
23053.694022820859
 30
0.0
 11
17767.176826193761
 21
23053.69402282088
 31
0.0
  0
LINE
  5
17F3
  8
CT
 10
17165.867678569921
 20
23258.194022820859
 30
0.0
 11
17884.455573573639
 21
23258.194022820891
 31
0.0
  0
LINE
  5
17F4
  8
FUTO
 10
17202.50704655657
 20
22864.69402282087
 30
0.0
 11
17822.50704655657
 21
22864.694022820891
 31
0.0
  0
LINE
  5
17F5
  8
FUTO
 10
17412.50704655657
 20
22844.69402282087
 30
0.0
 11
17612.50704655657
 21
22844.69402282088
 31
0.0
  0
LINE
  5
17F6
  8
FUTO
 10
17722.507046556551
 20
23173.69402282088
 30
0.0
 11
17332.507046556559
 21
23173.69402282087
 31
0.0
  0
LINE
  5
17F7
  8
FUTO
 10
17143.162657713649
 20
22908.194022820859
 30
0.0
 11
17143.16265771363
 21
23608.194022820859
 31
0.0
  0
LINE
  5
17F8
  8
FUTO
 10
17312.507046556551
 20
23153.69402282087
 30
0.0
 11
17312.507046556559
 21
23053.694022820859
 31
0.0
  0
LINE
  5
17F9
  8
CT
 10
17512.50704655666
 20
22498.24306665079
 30
0.0
 11
17512.507046556071
 21
23756.64946276696
 31
0.0
  0
LINE
  5
17FA
  8
FUTO
 10
17202.507046556559
 20
22908.194022820859
 30
0.0
 11
17143.162657713649
 21
22908.194022820859
 31
0.0
  0
LINE
  5
17FE
  8
FUTO
 10
17555.00704655657
 20
22844.69402282088
 30
0.0
 11
17555.00704655658
 21
22669.69402282088
 31
0.0
  0
LINE
  5
17FF
  8
FUTO
 10
17470.00704655657
 20
22844.69402282087
 30
0.0
 11
17470.00704655658
 21
22669.69402282087
 31
0.0
  0
LINE
  5
1802
  8
FUTO
 10
17470.00704655658
 20
22669.69402282087
 30
0.0
 11
17555.00704655658
 21
22669.69402282088
 31
0.0
  0
ARC
  5
1804
  8
FUTO
 10
17332.507046556559
 20
22953.69402282087
 30
0.0
 40
20.0
 50
180.0
 51
270.0
  0
LINE
  5
1805
  8
FUTO
 10
17312.507046556559
 20
22953.69402282087
 30
0.0
 11
17312.507046556559
 21
23053.694022820859
 31
0.0
  0
LINE
  5
1806
  8
FUTO
 10
17202.507046556559
 20
22943.694022820859
 30
0.0
 11
17315.18653848087
 21
22943.694022820859
 31
0.0
  0
LINE
  5
1807
  8
FUTO
 10
17470.00704655657
 20
22839.69402282088
 30
0.0
 11
17555.00704655657
 21
22839.69402282088
 31
0.0
  0
LINE
  5
1808
  8
FUTO
 10
17412.50704655657
 20
22864.69402282087
 30
0.0
 11
17412.50704655657
 21
22844.69402282087
 31
0.0
  0
LINE
  5
1809
  8
FUTO
 10
17202.50704655654
 20
23608.194022820859
 30
0.0
 11
17143.16265771363
 21
23608.194022820859
 31
0.0
  0
ARC
  5
180A
  8
FUTO
 10
17332.507046556559
 20
23153.69402282087
 30
0.0
 40
20.0
 50
90.0
 51
180.0
  0
LINE
  5
180B
  8
FUTO
 10
17881.851435399469
 20
22908.194022820891
 30
0.0
 11
17881.851435399451
 21
23608.194022820891
 31
0.0
  0
LINE
  5
180C
  8
FUTO
 10
17742.507046556551
 20
23153.69402282088
 30
0.0
 11
17742.50704655657
 21
23053.69402282088
 31
0.0
  0
LINE
  5
180F
  8
FUTO
 10
17739.827554632251
 20
22943.69402282088
 30
0.0
 11
17822.507046556559
 21
22943.694022820891
 31
0.0
  0
LINE
  5
1810
  8
CT
 10
17787.07860151077
 20
23029.694022820891
 30
0.0
 11
17857.55164359324
 21
23029.694022820891
 31
0.0
  0
ARC
  5
1811
  8
FUTO
 10
17722.507046556559
 20
22953.69402282088
 30
0.0
 40
20.0
 50
270.0
 51
0.000000000000007
  0
LINE
  5
1812
  8
FUTO
 10
17742.507046556559
 20
22953.69402282088
 30
0.0
 11
17742.50704655657
 21
23053.69402282088
 31
0.0
  0
LINE
  5
1813
  8
FUTO
 10
17612.50704655657
 20
22864.69402282088
 30
0.0
 11
17612.50704655657
 21
22844.69402282088
 31
0.0
  0
LINE
  5
1814
  8
FUTO
 10
17822.507046556559
 20
22908.194022820891
 30
0.0
 11
17881.851435399469
 21
22908.194022820891
 31
0.0
  0
ARC
  5
1815
  8
FUTO
 10
17722.507046556551
 20
23153.69402282088
 30
0.0
 40
20.0
 50
0.000000000000007
 51
90.0
  0
LINE
  5
1816
  8
CT
 10
17787.078601510751
 20
23486.694022820891
 30
0.0
 11
17857.551643593219
 21
23486.694022820891
 31
0.0
  0
LINE
  5
1817
  8
FUTO
 10
17822.50704655654
 20
23608.194022820891
 30
0.0
 11
17881.851435399451
 21
23608.194022820891
 31
0.0
  0
LINE
  5
181A
  8
FUTO
 10
17202.50704655653
 20
23828.694022820859
 30
0.0
 11
17822.50704655653
 21
23828.694022820891
 31
0.0
  0
LINE
  5
181B
  8
FUTO
 10
17252.507046556519
 20
24078.69402282087
 30
0.0
 11
17772.507046556519
 21
24078.69402282088
 31
0.0
  0
LINE
  5
181F
  8
FUTO
 10
17227.05817698528
 20
23828.69402282087
 30
0.0
 11
17202.50704655653
 21
23807.299196655291
 31
0.0
  0
ARC
  5
1820
  8
FUTO
 10
17252.50704655653
 20
24028.69402282087
 30
0.0
 40
50.0
 50
90.0
 51
180.0
  0
LINE
  5
1821
  8
FUTO
 10
17202.507046556519
 20
24028.694022820859
 30
0.0
 11
17202.50704655653
 21
23828.694022820859
 31
0.0
  0
ARC
  5
1824
  8
FUTO
 10
17772.507046556519
 20
24028.69402282088
 30
0.0
 40
50.0
 50
0.000000000000007
 51
90.0
  0
LINE
  5
1825
  8
FUTO
 10
17797.955916127779
 20
23828.694022820891
 30
0.0
 11
17822.50704655653
 21
23807.29919665532
 31
0.0
  0
LINE
  5
1826
  8
FUTO
 10
17822.50704655653
 20
24028.694022820891
 30
0.0
 11
17822.50704655653
 21
23828.694022820891
 31
0.0
  0
LINE
  5
1827
  8
FUTO
 10
17072.50704655658
 20
22933.69402282087
 30
0.0
 11
17072.50704655658
 21
22858.69402282087
 31
0.0
  0
LINE
  5
1828
  8
FUTO
 10
17248.627132111738
 20
24230.69402282088
 30
0.0
 11
17248.627132111738
 21
24078.543258160051
 31
0.0
  0
LINE
  5
1829
  8
FUTO
 10
17776.386961001241
 20
24230.69402282099
 30
0.0
 11
17776.386961001299
 21
24078.543258160171
 31
0.0
  0
LINE
  5
182A
  8
FUTO
 10
17701.386961001241
 20
24230.694022820961
 30
0.0
 11
17701.38696100131
 21
24078.69402282095
 31
0.0
  0
LINE
  5
182B
  8
SL
 10
17312.50704655658
 20
22669.69402282087
 30
0.0
 11
17312.50704655658
 21
22839.69402282088
 31
0.0
  0
LINE
  5
182D
  8
FUTO
 10
17232.50704655658
 20
22519.69402282087
 30
0.0
 11
17232.50704655658
 21
22869.69402282087
 31
0.0
  0
LINE
  5
182F
  8
FUTO
 10
19354.55547238062
 20
22933.694022820859
 30
0.0
 11
19354.55547238062
 21
24255.69402282087
 31
0.0
  0
LINE
  5
1830
  8
FUTO
 10
18670.45862073253
 20
22933.694022820859
 30
0.0
 11
18670.45862073253
 21
24255.69402282087
 31
0.0
  0
LINE
  5
1832
  8
FUTO
 10
18047.50704655658
 20
25764.69402282087
 30
0.0
 11
19977.50704655658
 21
25764.69402282087
 31
0.0
  0
LINE
  5
1833
  8
FUTO
 10
18047.50704655658
 20
25758.69402282087
 30
0.0
 11
19977.50704655658
 21
25758.69402282087
 31
0.0
  0
LINE
  5
1834
  8
KL
 10
18047.50704655658
 20
25638.89402282087
 30
0.0
 11
19977.50704655658
 21
25638.89402282087
 31
0.0
  0
LINE
  5
1839
  8
KL
 10
19912.50704655658
 20
25632.89402282087
 30
0.0
 11
19912.50704655658
 21
25764.69402282087
 31
0.0
  0
LINE
  5
183A
  8
KL
 10
19918.50704655658
 20
25632.89402282087
 30
0.0
 11
19918.50704655658
 21
25722.89402282087
 31
0.0
  0
LINE
  5
183B
  8
KL
 10
19977.50704655658
 20
25632.89402282087
 30
0.0
 11
19977.50704655658
 21
25638.89402282087
 31
0.0
  0
LINE
  5
183C
  8
HOSO
 10
19952.50704655658
 20
25590.36001320996
 30
0.0
 11
19952.50704655658
 21
25664.467628358219
 31
0.0
  0
LINE
  5
183D
  8
HOSO
 10
19952.50704655658
 20
25731.21147663485
 30
0.0
 11
19952.50704655658
 21
25805.319091783109
 31
0.0
  0
LINE
  5
183E
  8
FUTO
 10
19977.50704655658
 20
25758.69402282087
 30
0.0
 11
19977.50704655658
 21
25764.69402282087
 31
0.0
  0
LINE
  5
183F
  8
FUTO
 10
19918.50704655658
 20
25722.89402282087
 30
0.0
 11
19918.50704655658
 21
25764.69402282087
 31
0.0
  0
INSERT
  5
185B
  8
FUTO
  2
まっすぐの矢印
 10
18526.960743707459
 20
25960.16717539138
 30
0.0
 41
2.0
 42
2.0
 43
2.0
 50
180.0
  0
LINE
  5
185D
  8
KL
 10
18112.50704655657
 20
25632.89402282087
 30
0.0
 11
18112.50704655657
 21
25764.69402282087
 31
0.0
  0
LINE
  5
185E
  8
FUTO
 10
18106.50704655658
 20
25697.89402282087
 30
0.0
 11
18106.50704655658
 21
25764.69402282087
 31
0.0
  0
LINE
  5
185F
  8
KL
 10
18106.50704655658
 20
25632.89402282087
 30
0.0
 11
18106.50704655658
 21
25697.89402282087
 31
0.0
  0
LINE
  5
1860
  8
KL
 10
18047.50704655658
 20
25638.89402282087
 30
0.0
 11
18047.50704655658
 21
25632.89402282087
 31
0.0
  0
LINE
  5
1861
  8
HOSO
 10
18072.50704655658
 20
25603.956053012869
 30
0.0
 11
18072.50704655658
 21
25663.78640184295
 31
0.0
  0
LINE
  5
1862
  8
HOSO
 10
18072.50704655658
 20
25732.02624626119
 30
0.0
 11
18072.50704655658
 21
25791.85659509126
 31
0.0
  0
LINE
  5
1863
  8
FUTO
 10
18047.50704655658
 20
25758.69402282087
 30
0.0
 11
18047.50704655658
 21
25764.69402282087
 31
0.0
  0
LINE
  5
188F
  8
FUTO
 10
19491.340944895492
 20
20134.0432640695
 30
0.0
 11
20151.22935426504
 21
20192.60238058558
 31
0.0
  0
LINE
  5
1890
  8
FUTO
 10
19489.750561391669
 20
20151.97286753168
 30
0.0
 11
20153.639014968099
 21
20210.886794143509
 31
0.0
  0
LINE
  5
1891
  8
KL
 10
18201.624357293549
 20
20109.605294610199
 30
0.0
 11
18812.50704655658
 21
20109.605294610199
 31
0.0
  0
LINE
  5
1892
  8
KL
 10
18176.534846252442
 20
20091.605294610192
 30
0.0
 11
18812.50704655658
 21
20091.605294610192
 31
0.0
  0
LINE
  5
1893
  8
KL
 10
17962.50704655658
 20
19152.232455801081
 30
0.0
 11
17962.50704655658
 21
18483.853779659901
 31
0.0
  0
LINE
  5
1894
  8
KL
 10
17971.50704655658
 20
19155.91584578175
 30
0.0
 11
17971.50704655658
 21
18492.124068430661
 31
0.0
  0
LINE
  5
1895
  8
FUTO
 10
17953.50704655658
 20
20091.605294610192
 30
0.0
 11
17953.50704655658
 21
19497.007188828989
 31
0.0
  0
LINE
  5
1896
  8
FUTO
 10
17962.50704655658
 20
19938.055056496229
 30
0.0
 11
17962.50704655658
 21
19520.783353368912
 31
0.0
  0
LINE
  5
1897
  8
FUTO
 10
17971.50704655658
 20
19944.511938008782
 30
0.0
 11
17971.50704655658
 21
19520.783353368912
 31
0.0
  0
DIMENSION
  5
1909
  8
SP
  2
*D7
 10
20177.50704655658
 20
26222.56795430382
 30
0.0
 11
19595.00704655658
 21
26302.56795430382
 31
0.0
 70
     0
 13
19012.50704655658
 23
25963.689325993098
 33
0.0
 14
20177.50704655658
 24
25698.694022820859
 34
0.0
1001
ACAD
1000
DSTYLE
1002
{
1070
    40
1040
40.0
1002
}
  0
DIMENSION
  5
1916
  8
SP
  2
*D8
 10
17072.50704655658
 20
26222.56795430382
 30
0.0
 11
18042.50704655658
 21
26302.56795430382
 31
0.0
 70
     0
 13
19012.50704655658
 23
26222.56795430382
 33
0.0
 14
17072.50704655658
 24
24305.69402282087
 34
0.0
1001
ACAD
1000
DSTYLE
1002
{
1070
    40
1040
40.0
1002
}
  0
DIMENSION
  5
1923
  8
SP
  2
*D9
 10
20597.493312046689
 20
24969.69402282087
 30
0.0
 11
20517.493312046689
 21
25367.19402282087
 31
0.0
 70
     0
 13
19977.50704655658
 23
25764.69402282087
 33
0.0
 14
20664.7414902655
 24
24969.69402282087
 34
0.0
 50
90.0
1001
ACAD
1000
DSTYLE
1002
{
1070
    40
1040
40.0
1002
}
  0
DIMENSION
  5
1930
  8
SP
  2
*D10
 10
20597.493312046689
 20
22519.69402282087
 30
0.0
 11
20517.493312046689
 21
23744.69402282087
 31
0.0
 70
     0
 13
20597.493312046689
 23
24969.69402282087
 33
0.0
 14
19392.50704655658
 24
22519.69402282087
 34
0.0
 50
90.0
1001
ACAD
1000
DSTYLE
1002
{
1070
    40
1040
40.0
1002
}
  0
LINE
  5
19B8
  8
FUTO
 10
22002.082491516769
 20
18758.9790946102
 30
0.0
 11
22002.082491516769
 21
18100.605278004208
 31
0.0
  0
LINE
  5
1A4E
  8
FUTO
 10
19712.50704655658
 20
18114.77018914861
 30
0.0
 11
19388.44284688048
 21
19802.155509830871
 31
0.0
  0
LINE
  5
1A4F
  8
SL
 10
17355.52553937037
 20
18574.527876900691
 30
0.0
 11
18733.864871301052
 21
20320.567878175829
 31
0.0
  0
LINE
  5
1A50
  8
SL
 10
17650.785687981101
 20
18306.10955998184
 30
0.0
 11
19257.951635085112
 21
19844.125365644861
 31
0.0
  0
LINE
  5
1A51
  8
FUTO
 10
17289.26591373999
 20
18619.612385049521
 30
0.0
 11
18629.80796172814
 21
20390.331735363321
 31
0.0
  0
LINE
  5
1A52
  8
FUTO
 10
17701.962357352051
 20
18244.433799947648
 30
0.0
 11
19337.28757934882
 21
19747.168446617248
 31
0.0
  0
LINE
  5
1A53
  8
KL
 10
17953.50704655658
 20
19497.007188828989
 30
0.0
 11
17953.50704655658
 21
18771.042678608359
 31
0.0
  0
LINE
  5
1A54
  8
KL
 10
17962.50704655658
 20
19520.783353368912
 30
0.0
 11
17962.50704655658
 21
19152.232455801081
 31
0.0
  0
LINE
  5
1A55
  8
KL
 10
17971.50704655658
 20
19520.783353368912
 30
0.0
 11
17971.50704655658
 21
19155.91584578175
 31
0.0
  0
LINE
  5
1A56
  8
FUTO
 10
18312.50704655658
 20
18114.77018914861
 30
0.0
 11
18473.584853435939
 21
18953.493896017771
 31
0.0
  0
LINE
  5
1A57
  8
KL
 10
19388.44284688048
 20
19802.155509830871
 30
0.0
 11
19354.55547238062
 21
19978.605294610199
 31
0.0
  0
LINE
  5
1A58
  8
KL
 10
18473.584853435939
 20
18953.493896017771
 30
0.0
 11
18670.45862073253
 21
19978.605294610199
 31
0.0
  0
LINE
  5
1A59
  8
FUTO
 10
17962.50704655658
 20
18483.853779659901
 30
0.0
 11
17962.50704655658
 21
18100.605294610192
 31
0.0
  0
LINE
  5
1A5A
  8
FUTO
 10
17971.50704655658
 20
18492.124068430661
 30
0.0
 11
17971.50704655658
 21
18100.605294610192
 31
0.0
  0
ARC
  5
1A5B
  8
FUTO
 10
19143.50704655658
 20
19969.605294610199
 30
0.0
 40
1705.0
 50
175.8967367910877
 51
209.96988591637529
  0
LINE
  5
1A65
  8
FUTO
 10
23389.882491516772
 20
18177.9790946102
 30
0.0
 11
24716.282491516769
 21
18177.9790946102
 31
0.0
  0
LINE
  5
1A66
  8
FUTO
 10
23329.882491516772
 20
18117.9790946102
 30
0.0
 11
24776.282491516769
 21
18117.9790946102
 31
0.0
  0
LINE
  5
1A67
  8
FUTO
 10
23393.082491516769
 20
18198.9790946102
 30
0.0
 11
23393.082491516769
 21
18177.9790946102
 31
0.0
  0
LINE
  5
1A68
  8
FUTO
 10
23389.882491516772
 20
18198.9790946102
 30
0.0
 11
23389.882491516772
 21
18177.9790946102
 31
0.0
  0
LINE
  5
1A6A
  8
FUTO
 10
23329.882491516761
 20
20096.9790946102
 30
0.0
 11
23329.882491516772
 21
18117.9790946102
 31
0.0
  0
LINE
  5
1A6B
  8
FUTO
 10
24716.282491516769
 20
18198.9790946102
 30
0.0
 11
24716.282491516769
 21
18177.9790946102
 31
0.0
  0
LINE
  5
1A6C
  8
FUTO
 10
24713.082491516761
 20
18198.9790946102
 30
0.0
 11
24713.082491516761
 21
18177.9790946102
 31
0.0
  0
LINE
  5
1A6E
  8
FUTO
 10
24776.28249151674
 20
20096.9790946102
 30
0.0
 11
24776.282491516769
 21
18117.9790946102
 31
0.0
  0
LINE
  5
1A6F
  8
FUTO
 10
23324.882491516761
 20
21385.800479266611
 30
0.0
 11
24781.282491517199
 21
21385.800479266611
 31
0.0
  0
DIMENSION
  5
1A8F
  8
SP
  2
*D19
 10
20721.916135762171
 20
20100.605294610199
 30
0.0
 11
20641.91613576216
 21
19025.605294610199
 31
0.0
 70
     0
 13
20072.50704655658
 23
17950.605294610199
 33
0.0
 14
20557.861045600679
 24
20100.605294610199
 34
0.0
 50
90.0
1001
ACAD
1000
DSTYLE
1002
{
1070
    40
1040
40.0
1002
}
  0
LINE
  5
1AA5
  8
CT
 10
19120.318750319799
 20
21392.605294610199
 30
0.0
 11
19012.50704655658
 21
21392.605294610199
 31
0.0
  0
DIMENSION
  5
1AA6
  8
SP
  2
*D20
 10
20721.916135762171
 20
20100.605294610199
 30
0.0
 11
20641.91613576216
 21
20746.605294610199
 31
0.0
 70
     0
 13
19120.318750319799
 23
21392.605294610199
 33
0.0
 14
20557.861045600679
 24
20100.605294610199
 34
0.0
 50
90.0
1001
ACAD
1000
DSTYLE
1002
{
1070
    40
1040
40.0
1002
}
  0
LINE
  5
1AE4
  8
FUTO
 10
23324.882491516761
 20
20200.11767768766
 30
0.0
 11
24781.282491516798
 21
20200.11767768766
 31
0.0
  0
LINE
  5
1B60
  8
FUTO
 10
23389.882491516772
 20
18177.9790946102
 30
0.0
 11
23389.882491516761
 21
20167.679094610201
 31
0.0
  0
LINE
  5
1B61
  8
FUTO
 10
23393.082491516761
 20
18177.9790946102
 30
0.0
 11
23393.082491516769
 21
20167.679094610201
 31
0.0
  0
LINE
  5
1B62
  8
FUTO
 10
24713.082491516769
 20
18177.9790946102
 30
0.0
 11
24713.082491516769
 21
20167.679094610201
 31
0.0
  0
LINE
  5
1B63
  8
FUTO
 10
24716.282491516758
 20
18177.9790946102
 30
0.0
 11
24716.282491516769
 21
20167.679094610201
 31
0.0
  0
LINE
  5
1B64
  8
FUTO
 10
23393.082491516769
 20
20027.979094610189
 30
0.0
 11
24716.282491516769
 21
20027.979094610189
 31
0.0
  0
LINE
  5
1B65
  8
FUTO
 10
23329.882491516761
 20
20096.9790946102
 30
0.0
 11
24776.28249151674
 21
20096.9790946102
 31
0.0
  0
TEXT
  5
237B
  8
SP
 10
40769.535924047632
 20
25492.936708687979
 30
0.0
 40
100.0
  1
 
  0
LINE
  5
237C
  8
4
 10
25150.842774567751
 20
15918.916494349351
 30
0.0
 11
25150.842774567751
 21
14718.916494349351
 31
0.0
  0
LINE
  5
237D
  8
4
 10
20950.842774567751
 20
15918.916494349351
 30
0.0
 11
20950.84277456774
 21
14718.916494349351
 31
0.0
  0
LINE
  5
237E
  8
4
 10
17950.842774567751
 20
15918.916494349351
 30
0.0
 11
17950.842774567751
 21
14718.916494349351
 31
0.0
  0
LINE
  5
2381
  8
4
 10
17950.842774567751
 20
14718.916494349351
 30
0.0
 11
25150.842774567751
 21
14718.916494349351
 31
0.0
  0
LINE
  5
2382
  8
4
 10
17950.842774567751
 20
15318.916494349351
 30
0.0
 11
25150.842774567751
 21
15318.916494349351
 31
0.0
  0
TEXT
  5
2383
  8
4
 10
18181.855259649161
 20
15508.17464954903
 30
0.0
 40
300.0
  1
機器名称
  0
TEXT
  5
2384
  8
4
 10
18168.391410716529
 20
14848.78743474142
 30
0.0
 40
300.0
  1
機器型番
  0
TEXT
  5
2385
  8
4
 10
20979.601144773998
 20
15452.04030849103
 30
0.0
 40
270.0
  1
ミツヤリミットロードファン
  0
TEXT
  5
2386
  8
4
 10
21170.769748080638
 20
14821.874000029011
 30
0.0
 40
300.0
  1
LL#11-1
  0
TEXT
  5
2388
  8
4
 10
15947.84833454442
 20
28122.20235154514
 30
0.0
 40
432.0
  1
遠心式片吸込片持リミットロードファン
  0
LINE
  5
2389
  8
4
 10
15550.842774567751
 20
27735.369019938182
 30
0.0
 11
25150.842774567751
 21
27735.369019938182
 31
0.0
  0
LINE
  5
238A
  8
4
 10
15550.842774567751
 20
28935.369019938182
 30
0.0
 11
25150.842774567751
 21
28935.369019938182
 31
0.0
  0
LINE
  5
238B
  8
4
 10
17950.842774567751
 20
15918.916494349351
 30
0.0
 11
25150.842774567751
 21
15918.916494349351
 31
0.0
  0
LINE
  5
238C
  8
4
 10
15550.842774567751
 20
28935.369019938182
 30
0.0
 11
15550.842774567751
 21
27735.369019938182
 31
0.0
  0
TEXT
  5
238D
  8
4
 10
16085.883871474191
 20
27212.833359627421
 30
0.0
 40
323.99999999999989
  1
左回転右横向
  0
TEXT
  5
238E
  8
4
 10
22864.66013006349
 20
29155.282983321209
 30
0.0
 40
336.00000000000011
  1
No.
  0
TEXT
  5
238F
  8
4
 10
22828.98923328958
 20
26360.319372863749
 30
0.0
 40
323.99999999999989
  1
縮尺：1/60
  0
LINE
  5
2390
  8
4
 10
25150.842774567751
 20
28935.369019938182
 30
0.0
 11
25150.842774567751
 21
27735.369019938182
 31
0.0
  0
LINE
  5
2391
  8
4
 10
26650.842774567751
 20
30618.916494349349
 30
0.0
 11
26650.842774567751
 21
30618.916494349349
 31
0.0
  0
LINE
  5
2392
  8
4
 10
22694.547308726938
 20
29006.497993101759
 30
0.0
 11
22694.547308726938
 21
29638.830063647871
 31
0.0
  0
LINE
  5
2393
  8
4
 10
22694.547308726938
 20
29638.830063647871
 30
0.0
 11
25150.842774567751
 21
29638.830063647871
 31
0.0
  0
LINE
  5
2394
  8
4
 10
25150.842774567751
 20
29638.830063647871
 30
0.0
 11
25150.842774567751
 21
29006.497993101759
 31
0.0
  0
LINE
  5
2395
  8
4
 10
25150.842774567751
 20
29006.497993101759
 30
0.0
 11
22694.547308726938
 21
29006.497993101759
 31
0.0
  0
LINE
  5
2396
  8
4
 10
14050.842774567751
 20
12918.916494349351
 30
0.0
 11
14050.842774567751
 21
30618.916494349349
 31
0.0
  0
LINE
  5
2397
  8
4
 10
14050.842774567751
 20
30618.916494349349
 30
0.0
 11
26650.842774567751
 21
30618.916494349349
 31
0.0
  0
LINE
  5
2398
  8
4
 10
26650.842774567751
 20
30618.916494349349
 30
0.0
 11
26650.842774567751
 21
12918.916494349351
 31
0.0
  0
LINE
  5
2399
  8
4
 10
26650.842774567751
 20
12918.916494349351
 30
0.0
 11
14050.842774567751
 21
12918.916494349351
 31
0.0
  0
TEXT
  5
239A
  8
4
 10
19162.6196586609
 20
27212.903284275799
 30
0.0
 40
323.99999999999989
  1
床置防振ベット
  0
ENDSEC
  0
EOF
