  0
SECTION
  2
HEADER
  9
$ACADVER
  1
AC1009
  9
$INSBASE
 10
0.0
 20
0.0
 30
0.0
  9
$EXTMIN
 10
12819.817868058541
 20
12738.16489467549
 30
0.0
  9
$EXTMAX
 10
25419.817868058552
 20
30438.16489467549
 30
0.0
  9
$LIMMIN
 10
0.0
 20
0.0
  9
$LIMMAX
 10
297.0
 20
210.0
  9
$ORTHOMODE
 70
     0
  9
$REGENMODE
 70
     1
  9
$FILLMODE
 70
     1
  9
$QTEXTMODE
 70
     0
  9
$MIRRTEXT
 70
     0
  9
$DRAGMODE
 70
     2
  9
$LTSCALE
 40
200.0
  9
$OSMODE
 70
    37
  9
$ATTMODE
 70
     1
  9
$TEXTSIZE
 40
150.0
  9
$TRACEWID
 40
0.05
  9
$TEXTSTYLE
  7
STANDARD
  9
$CLAYER
  8
FUTO
  9
$CELTYPE
  6
BYLAYER
  9
$CECOLOR
 62
   256
  9
$DIMSCALE
 40
40.0
  9
$DIMASZ
 40
2.0
  9
$DIMEXO
 40
1.0
  9
$DIMDLI
 40
10.0
  9
$DIMRND
 40
0.0
  9
$DIMDLE
 40
0.0
  9
$DIMEXE
 40
1.0
  9
$DIMTP
 40
0.0
  9
$DIMTM
 40
0.0
  9
$DIMTXT
 40
3.0
  9
$DIMCEN
 40
0.0
  9
$DIMTSZ
 40
0.0
  9
$DIMTOL
 70
     0
  9
$DIMLIM
 70
     0
  9
$DIMTIH
 70
     0
  9
$DIMTOH
 70
     0
  9
$DIMSE1
 70
     0
  9
$DIMSE2
 70
     0
  9
$DIMTAD
 70
     1
  9
$DIMZIN
 70
     8
  9
$DIMBLK
  1

  9
$DIMASO
 70
     1
  9
$DIMSHO
 70
     1
  9
$DIMPOST
  1

  9
$DIMAPOST
  1

  9
$DIMALT
 70
     0
  9
$DIMALTD
 70
     2
  9
$DIMALTF
 40
0.03937
  9
$DIMLFAC
 40
1.0
  9
$DIMTOFL
 70
     1
  9
$DIMTVP
 40
0.0
  9
$DIMTIX
 70
     0
  9
$DIMSOXD
 70
     0
  9
$DIMSAH
 70
     1
  9
$DIMBLK1
  1
OPEN
  9
$DIMBLK2
  1
OPEN
  9
$DIMSTYLE
  2
MATSU
  9
$DIMCLRD
 70
   256
  9
$DIMCLRE
 70
   256
  9
$DIMCLRT
 70
   256
  9
$DIMTFAC
 40
1.0
  9
$DIMGAP
 40
0.5
  9
$LUNITS
 70
     2
  9
$LUPREC
 70
     3
  9
$SKETCHINC
 40
0.1
  9
$FILLETRAD
 40
7.0
  9
$AUNITS
 70
     0
  9
$AUPREC
 70
     2
  9
$MENU
  1
acad
  9
$ELEVATION
 40
0.0
  9
$PELEVATION
 40
0.0
  9
$THICKNESS
 40
0.0
  9
$LIMCHECK
 70
     0
  9
$BLIPMODE
 70
     0
  9
$CHAMFERA
 40
0.0
  9
$CHAMFERB
 40
0.0
  9
$SKPOLY
 70
     0
  9
$TDCREATE
 40
2451593.4082031241
  9
$TDUPDATE
 40
2454953.6505582631
  9
$TDINDWG
 40
0.5756681366000001
  9
$TDUSRTIMER
 40
0.5756681366000001
  9
$USRTIMER
 70
     1
  9
$ANGBASE
 50
0.0
  9
$ANGDIR
 70
     0
  9
$PDMODE
 70
     0
  9
$PDSIZE
 40
1.0
  9
$PLINEWID
 40
0.0
  9
$COORDS
 70
     1
  9
$SPLFRAME
 70
     0
  9
$SPLINETYPE
 70
     6
  9
$SPLINESEGS
 70
     8
  9
$ATTDIA
 70
     0
  9
$ATTREQ
 70
     1
  9
$HANDLING
 70
 10241
  9
$HANDSEED
  5
25D8
  9
$SURFTAB1
 70
     6
  9
$SURFTAB2
 70
     6
  9
$SURFTYPE
 70
     6
  9
$SURFU
 70
     6
  9
$SURFV
 70
     6
  9
$UCSNAME
  2

  9
$UCSORG
 10
0.0
 20
0.0
 30
0.0
  9
$UCSXDIR
 10
1.0
 20
0.0
 30
0.0
  9
$UCSYDIR
 10
0.0
 20
1.0
 30
0.0
  9
$PUCSNAME
  2

  9
$PUCSORG
 10
0.0
 20
0.0
 30
0.0
  9
$PUCSXDIR
 10
1.0
 20
0.0
 30
0.0
  9
$PUCSYDIR
 10
0.0
 20
1.0
 30
0.0
  9
$USERI1
 70
     0
  9
$USERI2
 70
     0
  9
$USERI3
 70
     0
  9
$USERI4
 70
     0
  9
$USERI5
 70
     0
  9
$USERR1
 40
0.0
  9
$USERR2
 40
0.0
  9
$USERR3
 40
0.0
  9
$USERR4
 40
0.0
  9
$USERR5
 40
0.0
  9
$WORLDVIEW
 70
     1
  9
$SHADEDGE
 70
     3
  9
$SHADEDIF
 70
    70
  9
$TILEMODE
 70
     1
  9
$MAXACTVP
 70
    16
  9
$PLIMCHECK
 70
     0
  9
$PEXTMIN
 10
1.0000000000000000E+020
 20
1.0000000000000000E+020
 30
1.0000000000000000E+020
  9
$PEXTMAX
 10
-1.0000000000000000E+020
 20
-1.0000000000000000E+020
 30
-1.0000000000000000E+020
  9
$PLIMMIN
 10
0.0
 20
0.0
  9
$PLIMMAX
 10
12.0
 20
9.0
  9
$UNITMODE
 70
     0
  9
$VISRETAIN
 70
     0
  9
$PLINEGEN
 70
     0
  9
$PSLTSCALE
 70
     0
  0
ENDSEC
  0
SECTION
  2
TABLES
  0
TABLE
  2
VPORT
 70
     2
  0
VPORT
  2
*ACTIVE
 70
     0
 10
0.0
 20
0.0
 11
1.0
 21
1.0
 12
24643.668650397271
 22
14734.888203823841
 13
0.0
 23
0.0
 14
5.0
 24
5.0
 15
0.0
 25
0.0
 16
0.0
 26
0.0
 36
1.0
 17
0.0
 27
0.0
 37
0.0
 40
5346.3174537984187
 41
3.1666666666666661
 42
50.0
 43
0.0
 44
0.0
 50
0.0
 51
0.0
 71
     0
 72
   100
 73
     1
 74
     0
 75
     0
 76
     0
 77
     0
 78
     0
  0
ENDTAB
  0
TABLE
  2
LTYPE
 70
     4
  0
LTYPE
  2
CONTINUOUS
 70
     0
  3
Solid line
 72
    65
 73
     0
 40
0.0
  0
LTYPE
  2
CENTER
 70
     0
  3
____ _ ____ _ ____ _ ____ _ ____ _ ____ _ ____ 
 72
    65
 73
     4
 40
2.0
 49
1.25
 49
-0.25
 49
0.25
 49
-0.25
  0
LTYPE
  2
HIDDEN
 70
     0
  3
__ __ __ __ __ __ __ __ __ __ __ __ __ __ __ __
 72
    65
 73
     2
 40
0.375
 49
0.25
 49
-0.125
  0
LTYPE
  2
PHANTOM
 70
     0
  3
______  __  __  ______  __  __  ______  __  __ 
 72
    65
 73
     6
 40
2.5
 49
1.25
 49
-0.25
 49
0.25
 49
-0.25
 49
0.25
 49
-0.25
  0
ENDTAB
  0
TABLE
  2
LAYER
 70
    10
  0
LAYER
  2
0
 70
     0
 62
     7
  6
CONTINUOUS
  0
LAYER
  2
CT
 70
     0
 62
     3
  6
CENTER
  0
LAYER
  2
FUTO
 70
     0
 62
     4
  6
CONTINUOUS
  0
LAYER
  2
HOSO
 70
     0
 62
     7
  6
CONTINUOUS
  0
LAYER
  2
KL
 70
     0
 62
     7
  6
HIDDEN
  0
LAYER
  2
SL
 70
     0
 62
     1
  6
PHANTOM
  0
LAYER
  2
SP
 70
     0
 62
     2
  6
CONTINUOUS
  0
LAYER
  2
1
 70
     0
 62
     7
  6
CONTINUOUS
  0
LAYER
  2
DEFPOINTS
 70
     0
 62
     7
  6
CONTINUOUS
  0
LAYER
  2
4
 70
     0
 62
     7
  6
CONTINUOUS
  0
ENDTAB
  0
TABLE
  2
STYLE
 70
     1
  0
STYLE
  2
STANDARD
 70
     0
 40
0.0
 41
1.0
 50
15.0
 71
     0
 42
150.0
  3
C:\Program Files\AutoCAD LT\simplex.shx
  4
bigfont.shx
  0
ENDTAB
  0
TABLE
  2
VIEW
 70
     0
  0
ENDTAB
  0
TABLE
  2
UCS
 70
     0
  0
ENDTAB
  0
TABLE
  2
APPID
 70
     2
  0
APPID
  2
ACAD
 70
     0
  0
APPID
  2
CONTENTBLOCKICON
 70
     0
  0
ENDTAB
  0
TABLE
  2
DIMSTYLE
 70
     2
  0
DIMSTYLE
  2
MATSU
 70
     0
  3

  4

  5

  6
OPEN
  7
OPEN
 40
1.0
 41
2.0
 42
1.0
 43
10.0
 44
1.0
 45
0.0
 46
0.0
 47
0.0
 48
0.0
140
3.0
141
0.0
142
0.0
143
0.03937
144
1.0
145
0.0
146
1.0
147
0.5
 71
     0
 72
     0
 73
     0
 74
     0
 75
     0
 76
     0
 77
     1
 78
     8
170
     0
171
     2
172
     1
173
     1
174
     0
175
     0
176
   256
177
   256
178
   256
  0
DIMSTYLE
  2
STANDARD
 70
     0
  3

  4

  5

  6

  7

 40
1.0
 41
0.18
 42
0.0625
 43
0.38
 44
0.18
 45
0.0
 46
0.0
 47
0.0
 48
0.0
140
0.18
141
0.09
142
0.0
143
25.399999999999999
144
1.0
145
0.0
146
1.0
147
0.09
 71
     0
 72
     0
 73
     1
 74
     1
 75
     0
 76
     0
 77
     0
 78
     0
170
     0
171
     2
172
     0
173
     0
174
     0
175
     0
176
     0
177
     0
178
     0
  0
ENDTAB
  0
ENDSEC
  0
SECTION
  2
BLOCKS
  0
BLOCK
  8
0
  2
$MODEL_SPACE
 70
     0
 10
0.0
 20
0.0
 30
0.0
  3
$MODEL_SPACE
  1

  0
ENDBLK
  5
7
  8
0
  0
BLOCK
 67
     1
  8
0
  2
$PAPER_SPACE
 70
     0
 10
0.0
 20
0.0
 30
0.0
  3
$PAPER_SPACE
  1

  0
ENDBLK
  5
A
 67
     1
  8
0
  0
BLOCK
  8
0
  2
_OPEN
 70
     0
 10
0.0
 20
0.0
 30
0.0
  3
_OPEN
  1

  0
LINE
  5
27
  8
0
  6
BYBLOCK
 62
     0
 10
-1.0
 20
0.1666666666666666
 30
0.0
 11
0.0
 21
0.0
 31
0.0
  0
LINE
  5
28
  8
0
  6
BYBLOCK
 62
     0
 10
0.0
 20
0.0
 30
0.0
 11
-1.0
 21
-0.1666666666666666
 31
0.0
  0
LINE
  5
29
  8
0
  6
BYBLOCK
 62
     0
 10
0.0
 20
0.0
 30
0.0
 11
-1.0
 21
0.0
 31
0.0
  0
ENDBLK
  5
2B
  8
0
  0
BLOCK
  8
0
  2
_DOT
 70
     0
 10
0.0
 20
0.0
 30
0.0
  3
_DOT
  1

  0
POLYLINE
  5
DB
  8
0
  6
BYBLOCK
 62
     0
 66
     1
 10
0.0
 20
0.0
 30
0.0
 70
     1
 40
0.25
 41
0.25
  0
VERTEX
  5
25B2
  8
0
  6
BYBLOCK
 62
     0
 10
-0.125
 20
0.0
 30
0.0
 42
1.0
  0
VERTEX
  5
25B3
  8
0
  6
BYBLOCK
 62
     0
 10
0.125
 20
0.0
 30
0.0
 42
1.0
  0
SEQEND
  5
25B4
  8
0
  6
BYBLOCK
 62
     0
  0
LINE
  5
DF
  8
0
  6
BYBLOCK
 62
     0
 10
-0.25
 20
0.0
 30
0.0
 11
-1.0
 21
0.0
 31
0.0
  0
ENDBLK
  5
E1
  8
0
  0
BLOCK
  8
0
  2
まっすぐの矢印
 70
     0
 10
0.0
 20
0.0
 30
0.0
  3
まっすぐの矢印
  1

  0
LINE
  5
8C
  8
SP
 10
13.01863531255526
 20
-41.453946163708451
 30
0.0
 11
13.01863531255526
 21
-93.495696758840026
 31
0.0
  0
LINE
  5
8D
  8
SP
 10
13.01863531255526
 20
-93.495696758840026
 30
0.0
 11
-13.01863531255526
 21
-93.495696758840026
 31
0.0
  0
LINE
  5
8E
  8
SP
 10
-13.01863531255526
 20
-93.495696758840026
 30
0.0
 11
-13.01863531255526
 21
-41.453946163708451
 31
0.0
  0
LINE
  5
8F
  8
SP
 10
-13.01863531255526
 20
-41.453946163708451
 30
0.0
 11
-32.06015471115802
 21
-41.453946163708451
 31
0.0
  0
LINE
  5
90
  8
SP
 10
-32.06015471115802
 20
-41.453946163708451
 30
0.0
 11
0.0
 21
0.0
 31
0.0
  0
LINE
  5
91
  8
SP
 10
0.0
 20
0.0
 30
0.0
 11
32.06015471115802
 21
-41.453946163708451
 31
0.0
  0
LINE
  5
92
  8
SP
 10
32.06015471115802
 20
-41.453946163708451
 30
0.0
 11
13.01863531255526
 21
-41.453946163708451
 31
0.0
  0
ENDBLK
  5
94
  8
0
  0
BLOCK
  8
0
  2
左回転矢印
 70
     0
 10
0.0
 20
0.0
 30
0.0
  3
左回転矢印
  1

  0
LINE
  5
2C7
  8
SP
 10
43.930449171819873
 20
24.859487323637271
 30
0.0
 11
38.511878498580238
 21
44.478978865188871
 31
0.0
  0
LINE
  5
2C8
  8
SP
 10
38.511878498580238
 20
44.478978865188871
 30
0.0
 11
0.0
 21
0.0
 31
0.0
  0
LINE
  5
2C9
  8
SP
 10
0.0
 20
0.0
 30
0.0
 11
52.57968174421967
 21
-6.4575435924972453
 31
0.0
  0
LINE
  5
2CA
  8
SP
 10
52.57968174421967
 20
-6.4575435924972453
 30
0.0
 11
48.189912989015284
 21
9.436875093862227
 31
0.0
  0
ARC
  5
2CB
  8
SP
 10
93.893649146691985
 20
-156.0466295121104
 30
0.0
 40
171.67883327727239
 50
67.881388989212894
 51
105.4392492786835
  0
LINE
  5
2CC
  8
SP
 10
158.53505643637521
 20
2.997736182040398
 30
0.0
 11
164.55945966006539
 21
17.820238190756751
 31
0.0
  0
ARC
  5
2CD
  8
SP
 10
93.893649146692198
 20
-156.04662951211091
 30
0.0
 40
187.67883327727299
 50
67.881388989212994
 51
105.4392492786836
  0
ENDBLK
  5
2CF
  8
0
  0
BLOCK
  8
0
  2
*D4
 70
     1
 10
0.0
 20
0.0
 30
0.0
  3
*D4
  1

  0
LINE
  5
25A5
  8
SP
 10
16130.16598508387
 20
18223.078158551521
 30
0.0
 11
15480.756895878279
 21
18223.078158551521
 31
0.0
  0
LINE
  5
25A6
  8
SP
 10
15520.756895878279
 20
18323.078158551521
 30
0.0
 11
15520.756895878279
 21
18403.078158551521
 31
0.0
  0
LINE
  5
25A7
  8
SP
 10
15520.756895878279
 20
18143.078158551521
 30
0.0
 11
15520.756895878279
 21
18063.078158551521
 31
0.0
  0
LINE
  5
25A8
  8
SP
 10
15520.756895878279
 20
18233.078158551529
 30
0.0
 11
15297.1753508688
 21
18406.017191885181
 31
0.0
  0
LINE
  5
25A9
  8
SP
 10
15297.1753508688
 20
18406.017191885181
 30
0.0
 11
15297.1753508688
 21
18793.878016725281
 31
0.0
  0
TEXT
  8
0
  40
120
  5
25D4
  72
0
  71
0
 10
14945.7
 20
18387.5
 30
0.000000
  1
(20)
  0
LINE
  5
25AB
  8
SP
 10
15520.756895878279
 20
18243.078158551521
 30
0.0
 11
15520.756895878279
 21
18223.078158551521
 31
0.0
  0
LINE
  5
25AC
  8
SP
 10
15520.756895878279
 20
18243.078158551521
 30
0.0
 11
15520.756895878279
 21
18223.078158551521
 31
0.0
  0
INSERT
  5
25AD
  8
SP
  2
_OPEN
 10
15520.756895878279
 20
18243.078158551521
 30
0.0
 41
80.0
 42
80.0
 43
80.0
 50
270.0
  0
INSERT
  5
25AE
  8
SP
  2
_DOT
 10
15520.756895878279
 20
18223.078158551521
 30
0.0
 41
80.0
 42
80.0
 43
80.0
 50
90.0
  0
POINT
  5
25AF
  8
DEFPOINTS
 62
     0
 10
16205.05277275138
 20
18243.078158551521
 30
0.0
  0
POINT
  5
25B0
  8
DEFPOINTS
 62
     0
 10
16170.16598508387
 20
18223.078158551521
 30
0.0
  0
POINT
  5
25B1
  8
DEFPOINTS
 62
     0
 10
15520.756895878279
 20
18223.078158551521
 30
0.0
  0
ENDBLK
  5
88C
  8
0
  0
BLOCK
  8
0
  2
*D5
 70
     1
 10
0.0
 20
0.0
 30
0.0
  3
*D5
  1

  0
LINE
  5
2562
  8
SP
 10
19965.12890201966
 20
20251.45195855153
 30
0.0
 11
19965.12890201966
 21
21384.630011860128
 31
0.0
  0
LINE
  5
2563
  8
SP
 10
22415.12890201966
 20
21104.673833037519
 30
0.0
 11
22415.12890201966
 21
21384.630011860128
 31
0.0
  0
LINE
  5
2564
  8
SP
 10
20045.12890201966
 20
21344.630011860128
 30
0.0
 11
22335.12890201966
 21
21344.630011860128
 31
0.0
  0
INSERT
  5
2565
  8
SP
  2
_OPEN
 10
19965.12890201966
 20
21344.630011860128
 30
0.0
 41
80.0
 42
80.0
 43
80.0
 50
180.0
  0
INSERT
  5
2566
  8
SP
  2
_OPEN
 10
22415.12890201966
 20
21344.630011860128
 30
0.0
 41
80.0
 42
80.0
 43
80.0
  0
TEXT
  5
2567
  8
FUTO
 10
20893.136213114689
 20
21416.058583288701
 30
0.0
 40
120.0
  1
(2450)
 51
15.0
  0
POINT
  5
2568
  8
DEFPOINTS
 62
     0
 10
19965.12890201966
 20
20211.45195855153
 30
0.0
  0
POINT
  5
2569
  8
DEFPOINTS
 62
     0
 10
22415.12890201966
 20
21064.673833037519
 30
0.0
  0
POINT
  5
256A
  8
DEFPOINTS
 62
     0
 10
22415.12890201966
 20
21344.630011860128
 30
0.0
  0
ENDBLK
  5
1423
  8
0
  0
BLOCK
  8
0
  2
*D6
 70
     1
 10
0.0
 20
0.0
 30
0.0
  3
*D6
  1

  0
LINE
  5
256B
  8
SP
 10
17230.16598508387
 20
21219.461410541211
 30
0.0
 11
17230.16598508387
 21
21383.516500702699
 31
0.0
  0
LINE
  5
256C
  8
SP
 10
19220.16598508387
 20
21038.078158551529
 30
0.0
 11
19220.16598508387
 21
21383.516500702699
 31
0.0
  0
LINE
  5
256D
  8
SP
 10
17310.16598508387
 20
21343.516500702699
 30
0.0
 11
19140.16598508387
 21
21343.516500702699
 31
0.0
  0
INSERT
  5
256E
  8
SP
  2
_OPEN
 10
17230.16598508387
 20
21343.516500702699
 30
0.0
 41
80.0
 42
80.0
 43
80.0
 50
180.0
  0
INSERT
  5
256F
  8
SP
  2
_OPEN
 10
19220.16598508387
 20
21343.516500702699
 30
0.0
 41
80.0
 42
80.0
 43
80.0
  0
TEXT
  5
2570
  8
FUTO
 10
18001.993777819131
 20
21363.516500702699
 30
0.0
 40
120.0
  1
1990
 51
15.0
  0
POINT
  5
2571
  8
DEFPOINTS
 62
     0
 10
17230.16598508387
 20
21179.461410541211
 30
0.0
  0
POINT
  5
2572
  8
DEFPOINTS
 62
     0
 10
19220.16598508387
 20
20998.078158551529
 30
0.0
  0
POINT
  5
2573
  8
DEFPOINTS
 62
     0
 10
19220.16598508387
 20
21343.516500702699
 30
0.0
  0
ENDBLK
  5
18B9
  8
0
  0
BLOCK
  8
0
  2
*D7
 70
     1
 10
0.0
 20
0.0
 30
0.0
  3
*D7
  1

  0
LINE
  5
25B5
  8
SP
 10
16130.16598508387
 20
18073.078158551521
 30
0.0
 11
15480.756895878279
 21
18073.078158551521
 31
0.0
  0
LINE
  5
25B6
  8
SP
 10
15520.756895878279
 20
18303.078158551521
 30
0.0
 11
15520.756895878279
 21
18383.078158551521
 31
0.0
  0
LINE
  5
25B7
  8
SP
 10
15520.756895878279
 20
17993.078158551521
 30
0.0
 11
15520.756895878279
 21
17593.078158551521
 31
0.0
  0
LINE
  5
25B8
  8
SP
 10
15520.756895878279
 20
18223.078158551521
 30
0.0
 11
15520.756895878279
 21
18073.078158551521
 31
0.0
  0
INSERT
  5
25B9
  8
SP
  2
_DOT
 10
15520.756895878279
 20
18223.078158551521
 30
0.0
 41
80.0
 42
80.0
 43
80.0
 50
270.0
  0
INSERT
  5
25BA
  8
SP
  2
_OPEN
 10
15520.756895878279
 20
18073.078158551521
 30
0.0
 41
80.0
 42
80.0
 43
80.0
 50
90.0
  0
TEXT
  8
0
  40
120
  5
25D5
  72
0
  71
0
 10
15200.8
 20
17540.7
 30
0.000000
  1
150
  0
POINT
  5
25BC
  8
DEFPOINTS
 62
     0
 10
16170.16598508387
 20
18223.078158551521
 30
0.0
  0
POINT
  5
25BD
  8
DEFPOINTS
 62
     0
 10
16170.16598508387
 20
18073.078158551521
 30
0.0
  0
POINT
  5
25BE
  8
DEFPOINTS
 62
     0
 10
15520.756895878279
 20
18073.078158551521
 30
0.0
  0
ENDBLK
  5
18FA
  8
0
  0
BLOCK
  8
0
  2
*D8
 70
     1
 10
0.0
 20
0.0
 30
0.0
  3
*D8
  1

  0
LINE
  5
2537
  8
SP
 10
16225.16598508387
 20
25221.315673174398
 30
0.0
 11
15482.85322812807
 21
25221.315673174398
 31
0.0
  0
LINE
  5
2538
  8
SP
 10
15537.93154137495
 20
24426.315673174391
 30
0.0
 11
15482.85322812807
 21
24426.315673174391
 31
0.0
  0
LINE
  5
2539
  8
SP
 10
15522.85322812807
 20
25141.315673174398
 30
0.0
 11
15522.85322812807
 21
24506.315673174391
 31
0.0
  0
INSERT
  5
253A
  8
SP
  2
_OPEN
 10
15522.85322812807
 20
25221.315673174398
 30
0.0
 41
80.0
 42
80.0
 43
80.0
 50
90.0
  0
INSERT
  5
253B
  8
SP
  2
_OPEN
 10
15522.85322812807
 20
24426.315673174391
 30
0.0
 41
80.0
 42
80.0
 43
80.0
 50
270.0
  0
TEXT
  5
253C
  8
FUTO
 10
15502.85322812807
 20
24637.688610382342
 30
0.0
 40
120.0
  1
795
 50
90.0
 51
15.0
  0
POINT
  5
253D
  8
DEFPOINTS
 62
     0
 10
16265.16598508387
 20
25221.315673174398
 30
0.0
  0
POINT
  5
253E
  8
DEFPOINTS
 62
     0
 10
15577.93154137495
 20
24426.315673174391
 30
0.0
  0
POINT
  5
253F
  8
DEFPOINTS
 62
     0
 10
15522.85322812807
 20
24426.315673174391
 30
0.0
  0
ENDBLK
  5
192F
  8
0
  0
BLOCK
  8
0
  2
*D9
 70
     1
 10
0.0
 20
0.0
 30
0.0
  3
*D9
  1

  0
LINE
  5
24FC
  8
SP
 10
15605.179719593751
 20
24426.315673174391
 30
0.0
 11
15482.85322812808
 21
24426.315673174391
 31
0.0
  0
LINE
  5
24FD
  8
SP
 10
16810.16598508387
 20
21976.315673174391
 30
0.0
 11
15482.85322812808
 21
21976.315673174391
 31
0.0
  0
LINE
  5
24FE
  8
SP
 10
15522.85322812808
 20
24346.315673174391
 30
0.0
 11
15522.85322812808
 21
22056.315673174391
 31
0.0
  0
INSERT
  5
24FF
  8
SP
  2
_OPEN
 10
15522.85322812808
 20
24426.315673174391
 30
0.0
 41
80.0
 42
80.0
 43
80.0
 50
90.0
  0
INSERT
  5
2500
  8
SP
  2
_OPEN
 10
15522.85322812808
 20
21976.315673174391
 30
0.0
 41
80.0
 42
80.0
 43
80.0
 50
270.0
  0
TEXT
  5
2501
  8
FUTO
 10
15502.85322812807
 20
22902.312763514379
 30
0.0
 40
120.0
  1
2450
 50
90.0
 51
15.0
  0
POINT
  5
2502
  8
DEFPOINTS
 62
     0
 10
15645.179719593751
 20
24426.315673174391
 30
0.0
  0
POINT
  5
2503
  8
DEFPOINTS
 62
     0
 10
16850.16598508387
 20
21976.315673174391
 30
0.0
  0
POINT
  5
2504
  8
DEFPOINTS
 62
     0
 10
15522.85322812808
 20
21976.315673174391
 30
0.0
  0
ENDBLK
  5
193B
  8
0
  0
BLOCK
  8
0
  2
*D10
 70
     1
 10
0.0
 20
0.0
 30
0.0
  3
*D10
  1

  0
LINE
  5
250E
  8
SP
 10
16170.16598508387
 20
18033.078158551521
 30
0.0
 11
16170.16598508387
 21
17279.156229212589
 31
0.0
  0
LINE
  5
250F
  8
SP
 10
19170.16598508387
 20
18033.078158551521
 30
0.0
 11
19170.16598508387
 21
17279.156229212589
 31
0.0
  0
LINE
  5
2510
  8
SP
 10
16250.16598508387
 20
17319.1562292126
 30
0.0
 11
19090.16598508387
 21
17319.1562292126
 31
0.0
  0
INSERT
  5
2511
  8
SP
  2
_OPEN
 10
16170.16598508387
 20
17319.1562292126
 30
0.0
 41
80.0
 42
80.0
 43
80.0
 50
180.0
  0
INSERT
  5
2512
  8
SP
  2
_OPEN
 10
19170.16598508387
 20
17319.1562292126
 30
0.0
 41
80.0
 42
80.0
 43
80.0
  0
TEXT
  5
2513
  8
FUTO
 10
17445.517604966579
 20
17339.1562292126
 30
0.0
 40
120.0
  1
3000
 51
15.0
  0
POINT
  5
2514
  8
DEFPOINTS
 62
     0
 10
16170.16598508387
 20
18073.078158551521
 30
0.0
  0
POINT
  5
2515
  8
DEFPOINTS
 62
     0
 10
19170.16598508387
 20
18073.078158551521
 30
0.0
  0
POINT
  5
2516
  8
DEFPOINTS
 62
     0
 10
19170.16598508387
 20
17319.1562292126
 30
0.0
  0
ENDBLK
  5
1983
  8
0
  0
BLOCK
  8
0
  2
*D11
 70
     1
 10
0.0
 20
0.0
 30
0.0
  3
*D11
  1

  0
LINE
  5
25BF
  8
SP
 10
19170.16598508387
 20
18033.078158551521
 30
0.0
 11
19170.16598508387
 21
17597.870779833222
 31
0.0
  0
LINE
  5
25C0
  8
SP
 10
17310.16598508387
 20
17637.870779833222
 30
0.0
 11
19090.16598508387
 21
17637.870779833222
 31
0.0
  0
INSERT
  5
25C1
  8
SP
  2
_OPEN
 10
17230.16598508387
 20
17637.870779833222
 30
0.0
 41
80.0
 42
80.0
 43
80.0
 50
180.0
  0
INSERT
  5
25C2
  8
SP
  2
_OPEN
 10
19170.16598508387
 20
17637.870779833222
 30
0.0
 41
80.0
 42
80.0
 43
80.0
  0
TEXT
  8
0
  40
120
  5
25D6
  72
0
  71
0
 10
17960.2
 20
17505.5
 30
0.000000
  1
1940
  0
POINT
  5
25C4
  8
DEFPOINTS
 62
     0
 10
17230.16598508387
 20
17992.42398354131
 30
0.0
  0
POINT
  5
25C5
  8
DEFPOINTS
 62
     0
 10
19170.16598508387
 20
18073.078158551521
 30
0.0
  0
POINT
  5
25C6
  8
DEFPOINTS
 62
     0
 10
19170.16598508387
 20
17637.870779833222
 30
0.0
  0
ENDBLK
  5
198E
  8
0
  0
BLOCK
  8
0
  2
*D12
 70
     1
 10
0.0
 20
0.0
 30
0.0
  3
*D12
  1

  0
LINE
  5
2505
  8
SP
 10
16170.16598508387
 20
18033.078158551521
 30
0.0
 11
16170.16598508387
 21
17597.870779833222
 31
0.0
  0
LINE
  5
2506
  8
SP
 10
17230.16598508387
 20
17952.42398354131
 30
0.0
 11
17230.16598508387
 21
17597.870779833222
 31
0.0
  0
LINE
  5
2507
  8
SP
 10
16250.16598508387
 20
17637.870779833222
 30
0.0
 11
17150.16598508387
 21
17637.870779833222
 31
0.0
  0
INSERT
  5
2508
  8
SP
  2
_OPEN
 10
16170.16598508387
 20
17637.870779833222
 30
0.0
 41
80.0
 42
80.0
 43
80.0
 50
180.0
  0
INSERT
  5
2509
  8
SP
  2
_OPEN
 10
17230.16598508387
 20
17637.870779833222
 30
0.0
 41
80.0
 42
80.0
 43
80.0
  0
TEXT
  5
250A
  8
FUTO
 10
16476.993777819131
 20
17657.870779833222
 30
0.0
 40
120.0
  1
1060
 51
15.0
  0
POINT
  5
250B
  8
DEFPOINTS
 62
     0
 10
16170.16598508387
 20
18073.078158551521
 30
0.0
  0
POINT
  5
250C
  8
DEFPOINTS
 62
     0
 10
17230.16598508387
 20
17992.42398354131
 30
0.0
  0
POINT
  5
250D
  8
DEFPOINTS
 62
     0
 10
17230.16598508387
 20
17637.870779833222
 30
0.0
  0
ENDBLK
  5
199A
  8
0
  0
BLOCK
  8
0
  2
*D13
 70
     1
 10
0.0
 20
0.0
 30
0.0
  3
*D13
  1

  0
LINE
  5
2548
  8
SP
 10
20304.12890201966
 20
18033.078141945542
 30
0.0
 11
20304.12890201966
 21
17293.55998421631
 31
0.0
  0
LINE
  5
2549
  8
SP
 10
23154.128902019671
 20
18033.078141945542
 30
0.0
 11
23154.128902019671
 21
17293.55998421631
 31
0.0
  0
LINE
  5
254A
  8
SP
 10
20384.12890201966
 20
17333.55998421631
 30
0.0
 11
23074.128902019671
 21
17333.55998421631
 31
0.0
  0
INSERT
  5
254B
  8
SP
  2
_OPEN
 10
20304.12890201966
 20
17333.55998421631
 30
0.0
 41
80.0
 42
80.0
 43
80.0
 50
180.0
  0
INSERT
  5
254C
  8
SP
  2
_OPEN
 10
23154.128902019671
 20
17333.55998421631
 30
0.0
 41
80.0
 42
80.0
 43
80.0
  0
TEXT
  5
254D
  8
FUTO
 10
21507.542798387301
 20
17353.55998421631
 30
0.0
 40
120.0
  1
2850
 51
15.0
  0
POINT
  5
254E
  8
DEFPOINTS
 62
     0
 10
20304.12890201966
 20
18073.078141945542
 30
0.0
  0
POINT
  5
254F
  8
DEFPOINTS
 62
     0
 10
23154.128902019671
 20
18073.078141945542
 30
0.0
  0
POINT
  5
2550
  8
DEFPOINTS
 62
     0
 10
23154.128902019671
 20
17333.55998421631
 30
0.0
  0
ENDBLK
  5
1A49
  8
0
  0
BLOCK
  8
0
  2
*D14
 70
     1
 10
0.0
 20
0.0
 30
0.0
  3
*D14
  1

  0
LINE
  5
2551
  8
SP
 10
20304.12890201966
 20
18033.078141945542
 30
0.0
 11
20304.12890201966
 21
17593.597529181228
 31
0.0
  0
LINE
  5
2552
  8
SP
 10
22415.12890201966
 20
18012.151089951611
 30
0.0
 11
22415.12890201966
 21
17593.597529181228
 31
0.0
  0
LINE
  5
2553
  8
SP
 10
20384.12890201966
 20
17633.597529181228
 30
0.0
 11
22335.12890201966
 21
17633.597529181228
 31
0.0
  0
INSERT
  5
2554
  8
SP
  2
_OPEN
 10
20304.12890201966
 20
17633.597529181228
 30
0.0
 41
80.0
 42
80.0
 43
80.0
 50
180.0
  0
INSERT
  5
2555
  8
SP
  2
_OPEN
 10
22415.12890201966
 20
17633.597529181228
 30
0.0
 41
80.0
 42
80.0
 43
80.0
  0
TEXT
  5
2556
  8
FUTO
 10
21180.694807616652
 20
17653.597529181228
 30
0.0
 40
120.0
  1
2111
 51
15.0
  0
POINT
  5
2557
  8
DEFPOINTS
 62
     0
 10
20304.12890201966
 20
18073.078141945542
 30
0.0
  0
POINT
  5
2558
  8
DEFPOINTS
 62
     0
 10
22415.12890201966
 20
18052.151089951611
 30
0.0
  0
POINT
  5
2559
  8
DEFPOINTS
 62
     0
 10
22415.12890201966
 20
17633.597529181228
 30
0.0
  0
ENDBLK
  5
1A55
  8
0
  0
BLOCK
  8
0
  2
*D15
 70
     1
 10
0.0
 20
0.0
 30
0.0
  3
*D15
  1

  0
LINE
  5
25C7
  8
SP
 10
23154.128902019671
 20
18033.078141945542
 30
0.0
 11
23154.128902019671
 21
17593.597529181228
 31
0.0
  0
LINE
  5
25C8
  8
SP
 10
22495.12890201966
 20
17633.597529181228
 30
0.0
 11
23074.128902019671
 21
17633.597529181228
 31
0.0
  0
INSERT
  5
25C9
  8
SP
  2
_OPEN
 10
22415.12890201966
 20
17633.597529181228
 30
0.0
 41
80.0
 42
80.0
 43
80.0
 50
180.0
  0
INSERT
  5
25CA
  8
SP
  2
_OPEN
 10
23154.128902019671
 20
17633.597529181228
 30
0.0
 41
80.0
 42
80.0
 43
80.0
  0
TEXT
  8
0
  40
120
  5
25D7
  72
0
  71
0
 10
22544.6
 20
17501.2
 30
0.000000
  1
739
  0
POINT
  5
25CC
  8
DEFPOINTS
 62
     0
 10
22415.12890201966
 20
18052.151089951611
 30
0.0
  0
POINT
  5
25CD
  8
DEFPOINTS
 62
     0
 10
23154.128902019671
 20
18073.078141945542
 30
0.0
  0
POINT
  5
25CE
  8
DEFPOINTS
 62
     0
 10
23154.128902019671
 20
17633.597529181228
 30
0.0
  0
ENDBLK
  5
1A60
  8
0
  0
BLOCK
  8
0
  2
*D16
 70
     1
 10
0.0
 20
0.0
 30
0.0
  3
*D16
  1

  0
LINE
  5
2586
  8
SP
 10
22415.12890201966
 20
21336.57235122452
 30
0.0
 11
22415.12890201966
 21
21304.630011860128
 31
0.0
  0
LINE
  5
2587
  8
SP
 10
23210.12890201966
 20
20836.45195855153
 30
0.0
 11
23210.12890201966
 21
21384.630011860128
 31
0.0
  0
LINE
  5
2588
  8
SP
 10
22495.12890201966
 20
21344.630011860128
 30
0.0
 11
23130.12890201966
 21
21344.630011860128
 31
0.0
  0
INSERT
  5
2589
  8
SP
  2
_OPEN
 10
22415.12890201966
 20
21344.630011860128
 30
0.0
 41
80.0
 42
80.0
 43
80.0
 50
180.0
  0
INSERT
  5
258A
  8
SP
  2
_OPEN
 10
23210.12890201966
 20
21344.630011860128
 30
0.0
 41
80.0
 42
80.0
 43
80.0
  0
TEXT
  5
258B
  8
FUTO
 10
22567.914325517901
 20
21364.630011860128
 30
0.0
 40
120.0
  1
795
 51
15.0
  0
POINT
  5
258C
  8
DEFPOINTS
 62
     0
 10
22415.12890201966
 20
21376.57235122452
 30
0.0
  0
POINT
  5
258D
  8
DEFPOINTS
 62
     0
 10
23210.12890201966
 20
20796.45195855153
 30
0.0
  0
POINT
  5
258E
  8
DEFPOINTS
 62
     0
 10
23210.12890201966
 20
21344.630011860128
 30
0.0
  0
ENDBLK
  5
1B13
  8
0
  0
BLOCK
  8
0
  2
*D17
 70
     1
 10
0.0
 20
0.0
 30
0.0
  3
*D17
  1

  0
LINE
  5
252E
  8
SP
 10
16130.16598508387
 20
18243.078158551521
 30
0.0
 11
15480.756895878279
 21
18243.078158551521
 31
0.0
  0
LINE
  5
252F
  8
SP
 10
15644.811986039769
 20
19833.078158551521
 30
0.0
 11
15480.756895878279
 21
19833.078158551521
 31
0.0
  0
LINE
  5
2530
  8
SP
 10
15520.756895878279
 20
18323.078158551521
 30
0.0
 11
15520.756895878279
 21
19753.078158551521
 31
0.0
  0
INSERT
  5
2531
  8
SP
  2
_OPEN
 10
15520.756895878279
 20
18243.078158551521
 30
0.0
 41
80.0
 42
80.0
 43
80.0
 50
270.0
  0
INSERT
  5
2532
  8
SP
  2
_OPEN
 10
15520.756895878279
 20
19833.078158551521
 30
0.0
 41
80.0
 42
80.0
 43
80.0
 50
90.0
  0
TEXT
  5
2533
  8
FUTO
 10
15500.756895878279
 20
18814.90595128679
 30
0.0
 40
120.0
  1
1590
 50
90.0
 51
15.0
  0
POINT
  5
2534
  8
DEFPOINTS
 62
     0
 10
16170.16598508387
 20
18243.078158551521
 30
0.0
  0
POINT
  5
2535
  8
DEFPOINTS
 62
     0
 10
15684.811986039769
 20
19833.078158551521
 30
0.0
  0
POINT
  5
2536
  8
DEFPOINTS
 62
     0
 10
15520.756895878279
 20
19833.078158551521
 30
0.0
  0
ENDBLK
  5
1B77
  8
0
  0
BLOCK
  8
0
  2
*D18
 70
     1
 10
0.0
 20
0.0
 30
0.0
  3
*D18
  1

  0
LINE
  5
24F3
  8
SP
 10
15644.811986039769
 20
19833.078158551521
 30
0.0
 11
15480.756895878279
 21
19833.078158551521
 31
0.0
  0
LINE
  5
24F4
  8
SP
 10
17192.16598508387
 20
20998.078158551529
 30
0.0
 11
15480.756895878279
 21
20998.078158551529
 31
0.0
  0
LINE
  5
24F5
  8
SP
 10
15520.756895878279
 20
19913.078158551521
 30
0.0
 11
15520.756895878279
 21
20918.078158551529
 31
0.0
  0
INSERT
  5
24F6
  8
SP
  2
_OPEN
 10
15520.756895878279
 20
19833.078158551521
 30
0.0
 41
80.0
 42
80.0
 43
80.0
 50
270.0
  0
INSERT
  5
24F7
  8
SP
  2
_OPEN
 10
15520.756895878279
 20
20998.078158551529
 30
0.0
 41
80.0
 42
80.0
 43
80.0
 50
90.0
  0
TEXT
  5
24F8
  8
FUTO
 10
15500.756895878279
 20
20203.629389087579
 30
0.0
 40
120.0
  1
1165
 50
90.0
 51
15.0
  0
POINT
  5
24F9
  8
DEFPOINTS
 62
     0
 10
15684.811986039769
 20
19833.078158551521
 30
0.0
  0
POINT
  5
24FA
  8
DEFPOINTS
 62
     0
 10
17232.16598508387
 20
20998.078158551529
 30
0.0
  0
POINT
  5
24FB
  8
DEFPOINTS
 62
     0
 10
15520.756895878279
 20
20998.078158551529
 30
0.0
  0
ENDBLK
  5
1B84
  8
0
  0
BLOCK
  8
0
  2
*D19
 70
     1
 10
0.0
 20
0.0
 30
0.0
  3
*D19
  1

  0
LINE
  5
24EA
  8
SP
 10
17230.16598508387
 20
25460.31097634662
 30
0.0
 11
17230.16598508387
 21
25733.303311103518
 31
0.0
  0
LINE
  5
24EB
  8
SP
 10
15888.16598508387
 20
25180.315673174391
 30
0.0
 11
15888.16598508387
 21
25733.303311103518
 31
0.0
  0
LINE
  5
24EC
  8
SP
 10
17150.16598508387
 20
25693.303311103518
 30
0.0
 11
15968.16598508387
 21
25693.303311103518
 31
0.0
  0
INSERT
  5
24ED
  8
SP
  2
_OPEN
 10
17230.16598508387
 20
25693.303311103518
 30
0.0
 41
80.0
 42
80.0
 43
80.0
  0
INSERT
  5
24EE
  8
SP
  2
_OPEN
 10
15888.16598508387
 20
25693.303311103518
 30
0.0
 41
80.0
 42
80.0
 43
80.0
 50
180.0
  0
TEXT
  5
24EF
  8
FUTO
 10
16335.993777819131
 20
25713.303311103518
 30
0.0
 40
120.0
  1
1342
 51
15.0
  0
POINT
  5
24F0
  8
DEFPOINTS
 62
     0
 10
17230.16598508387
 20
25420.31097634662
 30
0.0
  0
POINT
  5
24F1
  8
DEFPOINTS
 62
     0
 10
15888.16598508387
 20
25140.315673174391
 30
0.0
  0
POINT
  5
24F2
  8
DEFPOINTS
 62
     0
 10
15888.16598508387
 20
25693.303311103518
 30
0.0
  0
ENDBLK
  5
1BB5
  8
0
  0
BLOCK
  8
0
  2
*D20
 70
     1
 10
0.0
 20
0.0
 30
0.0
  3
*D20
  1

  0
LINE
  5
2574
  8
SP
 10
17230.16598508387
 20
25460.31097634662
 30
0.0
 11
17230.16598508387
 21
25733.303311103518
 31
0.0
  0
LINE
  5
2575
  8
SP
 10
19220.16598508387
 20
25195.315673174391
 30
0.0
 11
19220.16598508387
 21
25733.303311103518
 31
0.0
  0
LINE
  5
2576
  8
SP
 10
17310.16598508387
 20
25693.303311103518
 30
0.0
 11
19140.16598508387
 21
25693.303311103518
 31
0.0
  0
INSERT
  5
2577
  8
SP
  2
_OPEN
 10
17230.16598508387
 20
25693.303311103518
 30
0.0
 41
80.0
 42
80.0
 43
80.0
 50
180.0
  0
INSERT
  5
2578
  8
SP
  2
_OPEN
 10
19220.16598508387
 20
25693.303311103518
 30
0.0
 41
80.0
 42
80.0
 43
80.0
  0
TEXT
  5
2579
  8
FUTO
 10
18001.993777819131
 20
25713.303311103518
 30
0.0
 40
120.0
  1
1990
 51
15.0
  0
POINT
  5
257A
  8
DEFPOINTS
 62
     0
 10
17230.16598508387
 20
25420.31097634662
 30
0.0
  0
POINT
  5
257B
  8
DEFPOINTS
 62
     0
 10
19220.16598508387
 20
25155.315673174391
 30
0.0
  0
POINT
  5
257C
  8
DEFPOINTS
 62
     0
 10
19220.16598508387
 20
25693.303311103518
 30
0.0
  0
ENDBLK
  5
1BC2
  8
0
  0
BLOCK
  8
0
  2
*D21
 70
     1
 10
0.0
 20
0.0
 30
0.0
  3
*D21
  1

  0
LINE
  5
257D
  8
SP
 10
23250.12890201966
 20
20731.45195855153
 30
0.0
 11
23830.137044231389
 21
20731.45195855153
 31
0.0
  0
LINE
  5
257E
  8
SP
 10
23250.12890201966
 20
18931.45195855153
 30
0.0
 11
23830.137044231389
 21
18931.45195855153
 31
0.0
  0
LINE
  5
257F
  8
SP
 10
23790.137044231389
 20
20651.45195855153
 30
0.0
 11
23790.137044231389
 21
19011.45195855153
 31
0.0
  0
INSERT
  5
2580
  8
SP
  2
_OPEN
 10
23790.137044231389
 20
20731.45195855153
 30
0.0
 41
80.0
 42
80.0
 43
80.0
 50
90.0
  0
INSERT
  5
2581
  8
SP
  2
_OPEN
 10
23790.137044231389
 20
18931.45195855153
 30
0.0
 41
80.0
 42
80.0
 43
80.0
 50
270.0
  0
INSERT
  5
2582
  8
FUTO
  2
*U22
 10
0.0
 20
0.0
 30
0.0
  0
POINT
  5
2583
  8
DEFPOINTS
 62
     0
 10
23210.12890201966
 20
20731.45195855153
 30
0.0
  0
POINT
  5
2584
  8
DEFPOINTS
 62
     0
 10
23210.12890201966
 20
18931.45195855153
 30
0.0
  0
POINT
  5
2585
  8
DEFPOINTS
 62
     0
 10
23790.137044231389
 20
18931.45195855153
 30
0.0
  0
ENDBLK
  5
1C45
  8
0
  0
BLOCK
  8
0
  2
*U22
 70
     1
 10
0.0
 20
0.0
 30
0.0
  3
*U22
  1

  0
TEXT
  5
25D0
  8
FUTO
 10
23770.137044231389
 20
19534.444541714722
 30
0.0
 40
120.0
  1
\U+2205
 50
90.0
 51
15.0
  0
TEXT
  5
25D1
  8
FUTO
 10
23770.137044231389
 20
19643.015970286149
 30
0.0
 40
120.0
  1
1800
 50
90.0
 51
15.0
  0
ENDBLK
  5
25D3
  8
0
  0
ENDSEC
  0
SECTION
  2
ENTITIES
  0
INSERT
  5
89
  8
FUTO
  2
まっすぐの矢印
 10
18796.608281744211
 20
21283.739769216671
 30
0.0
 41
2.0
 42
2.0
 43
2.0
  0
LINE
  5
B2
  8
CT
 10
15684.811986039769
 20
19833.078158551521
 30
0.0
 11
19144.794091593969
 21
19833.078158551521
 31
0.0
  0
DIMENSION
  5
CF
  8
SP
  2
*D4
 10
15520.756895878279
 20
18223.078158551521
 30
0.0
 11
15297.175350868791
 21
18426.017191885181
 31
0.0
 70
   128
  1
(<>)
 13
16205.05277275138
 23
18243.078158551521
 33
0.0
 14
16170.16598508387
 24
18223.078158551521
 34
0.0
 50
90.0
1001
ACAD
1000
DSTYLE
1002
{
1070
   287
1070
     4
1070
    40
1040
40.0
1070
    75
1070
     1
1070
   279
1070
     1
1070
   289
1070
     3
1070
     7
1000
DOT
1002
}
  0
DIMENSION
  5
E7
  8
SP
  2
*D7
 10
15520.756895878279
 20
18073.078158551521
 30
0.0
 11
15440.756895878279
 21
17753.078158551529
 31
0.0
 70
     0
 13
16170.16598508387
 23
18223.078158551521
 33
0.0
 14
16170.16598508387
 24
18073.078158551521
 34
0.0
 50
90.0
1001
ACAD
1000
DSTYLE
1002
{
1070
   287
1070
     1
1070
    40
1040
40.0
1070
    75
1070
     1
1070
   289
1070
     1
1070
     6
1000
DOT
1002
}
  0
LINE
  5
104
  8
CT
 10
17230.16598508387
 20
21154.186572663079
 30
0.0
 11
17230.16598508387
 21
17960.170598767661
 31
0.0
  0
ARC
  5
10E
  8
FUTO
 10
18730.16598508387
 20
18743.078158551521
 30
0.0
 40
280.0
 50
240.18746141754721
 51
47.803228589811383
  0
ARC
  5
111
  8
FUTO
 10
18730.16598508387
 20
18743.078158551521
 30
0.0
 40
310.0
 50
300.10230806831191
 51
239.897691931688
  0
LINE
  5
112
  8
CT
 10
18730.16598508387
 20
19407.844044477839
 30
0.0
 11
18730.16598508387
 21
18420.786842290381
 31
0.0
  0
LINE
  5
113
  8
FUTO
 10
18289.16598508387
 20
19824.078158551521
 30
0.0
 11
18289.16598508387
 21
19520.85536778707
 31
0.0
  0
LINE
  5
115
  8
FUTO
 10
16189.16598508387
 20
19824.078158551521
 30
0.0
 11
16189.16598508387
 21
18393.078158551529
 31
0.0
  0
LINE
  5
116
  8
FUTO
 10
16180.16598508387
 20
19824.078158551521
 30
0.0
 11
16180.16598508387
 21
18393.078158551529
 31
0.0
  0
LINE
  5
117
  8
FUTO
 10
18280.16598508387
 20
19842.078158551529
 30
0.0
 11
18280.16598508387
 21
19529.015145387672
 31
0.0
  0
LINE
  5
118
  8
FUTO
 10
18271.16598508387
 20
19842.078158551529
 30
0.0
 11
18271.16598508387
 21
19537.17492298827
 31
0.0
  0
LINE
  5
119
  8
CT
 10
18730.16598508387
 20
18456.57689555153
 30
0.0
 11
18730.16598508387
 21
19040.848574551532
 31
0.0
  0
ARC
  5
122
  8
FUTO
 10
17119.66598508387
 20
19722.578158551529
 30
0.0
 40
1201.5
 50
82.275188289659212
 51
174.7231437130738
  0
ARC
  5
123
  8
KL
 10
17119.66598508387
 20
19722.578158551529
 30
0.0
 40
1181.4999999999991
 50
89.999999999999986
 51
180.99417894367201
  0
ARC
  5
124
  8
KL
 10
17361.16598508387
 20
19702.078158551529
 30
0.0
 40
1423.0
 50
180.0
 51
264.73663459410341
  0
DIMENSION
  5
13A
  8
SP
  2
*D11
 10
19170.16598508387
 20
17637.870779833222
 30
0.0
 11
18200.16598508387
 21
17717.870779833222
 31
0.0
 70
     0
 13
17230.16598508387
 23
17992.42398354131
 33
0.0
 14
19170.16598508387
 24
18073.078158551521
 34
0.0
 50
180.0
1001
ACAD
1000
DSTYLE
1002
{
1070
   287
1070
     4
1070
    40
1040
40.0
1070
    75
1070
     1
1070
   279
1070
     1
1070
   289
1070
     3
1002
}
  0
LINE
  5
146
  8
FUTO
 10
16170.16598508387
 20
18223.078158551521
 30
0.0
 11
19170.16598508387
 21
18223.078158551521
 31
0.0
1001
ACAD
1000
ASC_BOUNDS
1002
{
1070
    19
1005
0
1002
}
  0
LINE
  5
147
  8
FUTO
 10
16170.16598508387
 20
18211.078158551521
 30
0.0
 11
19170.16598508387
 21
18211.078158551521
 31
0.0
  0
LINE
  5
148
  8
FUTO
 10
16170.16598508387
 20
18085.078158551521
 30
0.0
 11
19170.16598508387
 21
18085.078158551521
 31
0.0
  0
LINE
  5
149
  8
FUTO
 10
16170.16598508387
 20
18073.078158551521
 30
0.0
 11
19170.16598508387
 21
18073.078158551521
 31
0.0
  0
DIMENSION
  5
14A
  8
SP
  2
*D10
 10
19170.16598508387
 20
17319.1562292126
 30
0.0
 11
17670.16598508387
 21
17399.1562292126
 31
0.0
 70
     0
 13
16170.16598508387
 23
18073.078158551521
 33
0.0
 14
19170.16598508387
 24
18073.078158551521
 34
0.0
 50
180.0
1001
ACAD
1000
DSTYLE
1002
{
1070
    40
1040
40.0
1002
}
  0
LINE
  5
157
  8
FUTO
 10
16170.16598508387
 20
18381.078158551521
 30
0.0
 11
19170.16598508387
 21
18381.078158551521
 31
0.0
  0
LINE
  5
158
  8
FUTO
 10
16170.16598508387
 20
18255.078158551529
 30
0.0
 11
19170.16598508387
 21
18255.078158551529
 31
0.0
  0
LINE
  5
159
  8
FUTO
 10
16170.16598508387
 20
18393.078158551529
 30
0.0
 11
19170.16598508387
 21
18393.078158551529
 31
0.0
  0
LINE
  5
15A
  8
FUTO
 10
16170.16598508387
 20
18243.078158551521
 30
0.0
 11
19170.16598508387
 21
18243.078158551521
 31
0.0
1001
ACAD
1000
ASC_BOUNDS
1002
{
1070
    19
1005
0
1002
}
  0
LINE
  5
15B
  8
FUTO
 10
18450.16598508387
 20
18493.078158551521
 30
0.0
 11
18546.862957285641
 21
18493.078158551521
 31
0.0
  0
LINE
  5
15C
  8
FUTO
 10
18450.16598508387
 20
18463.078158551521
 30
0.0
 11
18560.16598508387
 21
18463.078158551521
 31
0.0
  0
LINE
  5
15D
  8
FUTO
 10
18630.16598508387
 20
18463.078158551521
 30
0.0
 11
18415.16598508387
 21
18463.078158551521
 31
0.0
  0
LINE
  5
15E
  8
FUTO
 10
18405.16598508387
 20
18393.078158551529
 30
0.0
 11
18630.16598508387
 21
18393.078158551529
 31
0.0
  0
LINE
  5
15F
  8
CT
 10
18392.707020894111
 20
18743.078158551521
 30
0.0
 11
19073.443207276901
 21
18743.078158551521
 31
0.0
  0
LINE
  5
163
  8
CT
 10
18958.122274590809
 20
18257.606141758741
 30
0.0
 11
18958.122274590809
 21
18203.399366854592
 31
0.0
  0
LINE
  5
166
  8
FUTO
 10
19170.16598508387
 20
18223.078158551521
 30
0.0
 11
19170.16598508387
 21
18073.078158551521
 31
0.0
  0
LINE
  5
175
  8
FUTO
 10
19045.16598508387
 20
18463.078158551521
 30
0.0
 11
18830.16598508387
 21
18463.078158551521
 31
0.0
  0
LINE
  5
176
  8
FUTO
 10
18830.16598508387
 20
18393.078158551529
 30
0.0
 11
19055.16598508387
 21
18393.078158551529
 31
0.0
  0
CIRCLE
  5
177
  8
SL
 10
18730.16598508387
 20
18743.078158551521
 30
0.0
 40
200.0
  0
LINE
  5
178
  8
FUTO
 10
19010.16598508387
 20
18610.036811594979
 30
0.0
 11
19010.16598508387
 21
18463.078158551521
 31
0.0
  0
LINE
  5
179
  8
FUTO
 10
19170.16598508387
 20
18393.078158551529
 30
0.0
 11
19170.16598508387
 21
18243.078158551521
 31
0.0
  0
LINE
  5
17B
  8
CT
 10
18958.66598508387
 20
18508.247607041169
 30
0.0
 11
18958.66598508387
 21
18420.786842290381
 31
0.0
  0
LINE
  5
17C
  8
FUTO
 10
18913.469012882098
 20
18493.078158551521
 30
0.0
 11
19010.16598508387
 21
18493.078158551521
 31
0.0
  0
LINE
  5
17D
  8
FUTO
 10
18900.16598508387
 20
18483.848530615211
 30
0.0
 11
18900.16598508387
 21
18463.078158551521
 31
0.0
  0
LINE
  5
17E
  8
FUTO
 10
18900.16598508387
 20
18463.078158551521
 30
0.0
 11
19010.16598508387
 21
18463.078158551521
 31
0.0
  0
LINE
  5
17F
  8
FUTO
 10
19055.16598508387
 20
18393.078158551529
 30
0.0
 11
19045.16598508387
 21
18463.078158551521
 31
0.0
  0
LINE
  5
180
  8
CT
 10
18730.16598508387
 20
18251.65977336307
 30
0.0
 11
18730.16598508387
 21
18917.176172748132
 31
0.0
  0
LINE
  5
181
  8
FUTO
 10
18574.68685280826
 20
18474.887481184051
 30
0.0
 11
18885.64511735948
 21
18474.887481184051
 31
0.0
  0
LINE
  5
182
  8
FUTO
 10
18830.16598508387
 20
18453.078158551529
 30
0.0
 11
18630.16598508387
 21
18453.078158551529
 31
0.0
  0
LINE
  5
183
  8
FUTO
 10
18830.16598508387
 20
18403.078158551521
 30
0.0
 11
18630.16598508387
 21
18403.078158551521
 31
0.0
  0
LINE
  5
184
  8
FUTO
 10
18830.16598508387
 20
18453.078158551529
 30
0.0
 11
18830.16598508387
 21
18463.078158551521
 31
0.0
  0
LINE
  5
185
  8
FUTO
 10
18830.16598508387
 20
18393.078158551529
 30
0.0
 11
18830.16598508387
 21
18403.078158551521
 31
0.0
  0
LINE
  5
186
  8
CT
 10
18501.66598508387
 20
18508.247607041169
 30
0.0
 11
18501.66598508387
 21
18416.62204396892
 31
0.0
  0
LINE
  5
187
  8
FUTO
 10
18560.16598508387
 20
18483.848530615211
 30
0.0
 11
18560.16598508387
 21
18463.078158551521
 31
0.0
  0
LINE
  5
188
  8
FUTO
 10
18630.16598508387
 20
18453.078158551529
 30
0.0
 11
18630.16598508387
 21
18463.078158551521
 31
0.0
  0
LINE
  5
189
  8
FUTO
 10
18487.16598508387
 20
18463.078158551521
 30
0.0
 11
18587.16598508387
 21
18463.078158551521
 31
0.0
  0
LINE
  5
18A
  8
FUTO
 10
18630.16598508387
 20
18393.078158551529
 30
0.0
 11
18630.16598508387
 21
18403.078158551521
 31
0.0
  0
LINE
  5
18B
  8
CT
 10
18180.262379193631
 20
18257.606141758741
 30
0.0
 11
18180.262379193631
 21
18203.399366854592
 31
0.0
  0
LINE
  5
1A1
  8
FUTO
 10
17930.16598508387
 20
18223.078158551521
 30
0.0
 11
17930.16598508387
 21
18073.078158551521
 31
0.0
  0
LINE
  5
1A2
  8
FUTO
 10
17939.16598508387
 20
18223.078158551521
 30
0.0
 11
17939.16598508387
 21
18073.078158551521
 31
0.0
  0
LINE
  5
1A3
  8
FUTO
 10
17921.16598508387
 20
18223.078158551521
 30
0.0
 11
17921.16598508387
 21
18073.078158551521
 31
0.0
  0
ARC
  5
1A4
  8
FUTO
 10
17361.16598508387
 20
19702.078158551529
 30
0.0
 40
1443.0
 50
174.79134068104571
 51
236.2638327697731
  0
LINE
  5
1A7
  8
FUTO
 10
18450.165985083859
 20
18610.036811595
 30
0.0
 11
18450.16598508387
 21
18463.078158551521
 31
0.0
  0
LINE
  5
1A8
  8
FUTO
 10
18273.27618697182
 20
18545.961778779681
 30
0.0
 11
18315.272782838751
 21
18496.31314624703
 31
0.0
  0
LINE
  5
1A9
  8
FUTO
 10
18287.01902153936
 20
18557.586515251922
 30
0.0
 11
18329.015617406301
 21
18507.93788271927
 31
0.0
  0
LINE
  5
1AA
  8
FUTO
 10
18280.16598508387
 20
18551.752417088181
 30
0.0
 11
18322.144200122519
 21
18502.125514483148
 31
0.0
  0
LINE
  5
1AB
  8
FUTO
 10
18415.16598508387
 20
18463.078158551521
 30
0.0
 11
18405.16598508387
 21
18393.078158551529
 31
0.0
  0
LINE
  5
1AC
  8
FUTO
 10
18315.272782838729
 20
18496.313146247019
 30
0.0
 11
18329.01561740629
 21
18507.93788271927
 31
0.0
  0
LINE
  5
1AE
  8
KL
 10
17855.16598508387
 20
18393.078158551529
 30
0.0
 11
17855.16598508387
 21
18243.078158551521
 31
0.0
  0
LINE
  5
1AF
  8
FUTO
 10
17921.16598508387
 20
18393.078158551529
 30
0.0
 11
17921.16598508387
 21
18243.078158551521
 31
0.0
  0
LINE
  5
1B0
  8
FUTO
 10
17939.16598508387
 20
18393.078158551529
 30
0.0
 11
17939.16598508387
 21
18243.078158551521
 31
0.0
  0
LINE
  5
1B1
  8
FUTO
 10
17930.16598508387
 20
18393.078158551529
 30
0.0
 11
17930.16598508387
 21
18243.078158551521
 31
0.0
  0
LINE
  5
1B2
  8
KL
 10
17930.16598508387
 20
18407.24305308994
 30
0.0
 11
17930.16598508387
 21
18243.078158551521
 31
0.0
  0
DIMENSION
  5
1B3
  8
SP
  2
*D12
 10
17230.16598508387
 20
17637.870779833222
 30
0.0
 11
16700.16598508387
 21
17717.870779833222
 31
0.0
 70
     0
 13
16170.16598508387
 23
18073.078158551521
 33
0.0
 14
17230.16598508387
 24
17992.42398354131
 34
0.0
 50
180.0
1001
ACAD
1000
DSTYLE
1002
{
1070
    40
1040
40.0
1002
}
  0
LINE
  5
1C2
  8
CT
 10
17389.6842239742
 20
18257.606141758741
 30
0.0
 11
17389.6842239742
 21
18203.399366854592
 31
0.0
  0
LINE
  5
1D4
  8
CT
 10
16352.050401860461
 20
18257.606141758741
 30
0.0
 11
16352.050401860461
 21
18203.399366854592
 31
0.0
  0
LINE
  5
1E2
  8
FUTO
 10
16530.16598508387
 20
18223.078158551521
 30
0.0
 11
16530.16598508387
 21
18073.078158551521
 31
0.0
  0
LINE
  5
1E8
  8
FUTO
 10
16170.16598508387
 20
18223.078158551521
 30
0.0
 11
16170.16598508387
 21
18073.078158551521
 31
0.0
  0
LINE
  5
1EC
  8
KL
 10
16605.16598508387
 20
18393.078158551529
 30
0.0
 11
16605.16598508387
 21
18243.078158551521
 31
0.0
  0
LINE
  5
1ED
  8
FUTO
 10
16530.16598508387
 20
18393.078158551529
 30
0.0
 11
16530.16598508387
 21
18243.078158551521
 31
0.0
  0
LINE
  5
1EE
  8
KL
 10
16530.16598508387
 20
18407.24305308994
 30
0.0
 11
16530.16598508387
 21
18243.078158551521
 31
0.0
  0
LINE
  5
1EF
  8
FUTO
 10
16170.16598508387
 20
18393.078158551529
 30
0.0
 11
16170.16598508387
 21
18243.078158551521
 31
0.0
  0
LINE
  5
1F0
  8
FUTO
 10
18919.045899528712
 20
23687.315673174398
 30
0.0
 11
18919.045899528712
 21
23535.315673174391
 31
0.0
  0
LINE
  5
1F1
  8
FUTO
 10
19170.16598508387
 20
23697.315673174391
 30
0.0
 11
19170.16598508387
 21
23687.315673174398
 31
0.0
  0
LINE
  5
1F2
  8
CT
 10
18730.16598508387
 20
23612.687561732509
 30
0.0
 11
18730.16598508387
 21
22069.220850127738
 31
0.0
  0
LINE
  5
1F3
  8
FUTO
 10
17930.16598508387
 20
23687.315673174391
 30
0.0
 11
17930.16598508387
 21
22315.315673174391
 31
0.0
  0
LINE
  5
1F4
  8
FUTO
 10
17855.16598508387
 20
23687.315673174391
 30
0.0
 11
17855.16598508387
 21
22390.315673174391
 31
0.0
  0
LINE
  5
1F5
  8
FUTO
 10
16605.16598508387
 20
23687.315673174391
 30
0.0
 11
16605.16598508387
 21
22390.315673174391
 31
0.0
  0
LINE
  5
1F6
  8
FUTO
 10
16530.16598508387
 20
23687.315673174391
 30
0.0
 11
16530.16598508387
 21
22315.315673174391
 31
0.0
  0
ARC
  5
263
  8
FUTO
 10
17230.16598508387
 20
19833.078158551521
 30
0.0
 40
480.0
 50
47.803228589811539
 51
240.1874614175469
  0
LINE
  5
267
  8
FUTO
 10
19124.11331507541
 20
19824.078158551521
 30
0.0
 11
18066.138185388008
 21
19824.078158551529
 31
0.0
  0
LINE
  5
268
  8
FUTO
 10
19124.11331507541
 20
19842.078158551529
 30
0.0
 11
18041.048674346901
 21
19842.078158551529
 31
0.0
  0
ARC
  5
269
  8
FUTO
 10
17361.16598508387
 20
19964.078158551529
 30
0.0
 40
1705.0
 50
292.86725764747092
 51
307.45752721647972
  0
ARC
  5
26A
  8
KL
 10
17361.16598508387
 20
19964.078158551529
 30
0.0
 40
1685.0
 50
274.83662323419389
 51
354.6120591389967
  0
LINE
  5
26D
  8
FUTO
 10
18271.16598508387
 20
20933.078158551529
 30
0.0
 11
18271.16598508387
 21
19833.078158551521
 31
0.0
  0
LINE
  5
26E
  8
FUTO
 10
18280.16598508387
 20
20933.078158551529
 30
0.0
 11
18280.16598508387
 21
19833.078158551521
 31
0.0
  0
LINE
  5
26F
  8
KL
 10
17230.628634107219
 20
18285.078158551529
 30
0.0
 11
17503.236390165301
 21
18285.078158551529
 31
0.0
  0
LINE
  5
272
  8
CT
 10
18831.87239970814
 20
19193.078158551521
 30
0.0
 11
18986.169337227821
 21
19193.078158551521
 31
0.0
  0
LINE
  5
273
  8
FUTO
 10
18520.16598508387
 20
19333.078158551521
 30
0.0
 11
18910.16598508387
 21
19333.078158551521
 31
0.0
  0
LINE
  5
274
  8
FUTO
 10
18520.16598508387
 20
19068.078158551521
 30
0.0
 11
18910.16598508387
 21
19068.078158551521
 31
0.0
  0
ARC
  5
275
  8
FUTO
 10
18910.16598508387
 20
19313.078158551521
 30
0.0
 40
20.0
 50
0.000000000000007
 51
90.0
  0
ARC
  5
276
  8
FUTO
 10
18910.16598508387
 20
19088.078158551521
 30
0.0
 40
20.0
 50
270.0
 51
0.000000000000007
  0
LINE
  5
277
  8
FUTO
 10
18930.16598508387
 20
19313.078158551521
 30
0.0
 11
18930.16598508387
 21
19088.078158551521
 31
0.0
  0
ARC
  5
279
  8
FUTO
 10
18520.16598508387
 20
19313.078158551521
 30
0.0
 40
20.0
 50
90.0
 51
180.0
  0
LINE
  5
27A
  8
FUTO
 10
18950.857730742169
 20
19335.993330198369
 30
0.0
 11
18987.170968708841
 21
19319.060189242111
 31
0.0
  0
LINE
  5
27B
  8
CT
 10
18887.824884084461
 20
19293.666464577611
 30
0.0
 11
18994.771167320519
 21
19243.79659369342
 31
0.0
  0
LINE
  5
27C
  8
FUTO
 10
19000.460229196611
 20
19323.897084495071
 30
0.0
 11
18937.067489935511
 21
19187.950916439571
 31
0.0
  0
LINE
  5
27D
  8
FUTO
 10
18987.170968708841
 20
19319.060189242111
 30
0.0
 11
18932.230594682551
 21
19201.240176927338
 31
0.0
  0
LINE
  5
27E
  8
FUTO
 10
18955.08391335958
 20
19345.05640806874
 30
0.0
 11
19000.460229196611
 21
19323.897084495071
 31
0.0
  0
LINE
  5
27F
  8
KL
 10
18891.691174098469
 20
19209.11024001324
 30
0.0
 11
18937.067489935511
 21
19187.950916439571
 31
0.0
  0
LINE
  5
280
  8
KL
 10
18895.91735671588
 20
19218.173317883611
 30
0.0
 11
18932.230594682551
 21
19201.240176927338
 31
0.0
  0
ARC
  5
281
  8
FUTO
 10
18520.16598508387
 20
19088.078158551521
 30
0.0
 40
20.0
 50
180.0
 51
270.0
  0
LINE
  5
282
  8
FUTO
 10
18500.16598508387
 20
19313.078158551521
 30
0.0
 11
18500.16598508387
 21
19088.078158551521
 31
0.0
  0
LINE
  5
283
  8
FUTO
 10
19124.11331507541
 20
19842.078158551529
 30
0.0
 11
19124.11331507541
 21
19824.078158551521
 31
0.0
  0
LINE
  5
285
  8
FUTO
 10
17232.16598508387
 20
20933.078158551529
 30
0.0
 11
19220.16598508387
 21
20933.078158551529
 31
0.0
  0
LINE
  5
286
  8
FUTO
 10
17444.725757116201
 20
20998.078158551529
 30
0.0
 11
18472.12792586099
 21
20998.078158551529
 31
0.0
  0
LINE
  5
287
  8
FUTO
 10
17444.725757116201
 20
20998.078158551529
 30
0.0
 11
19220.16598508387
 21
20998.078158551529
 31
0.0
  0
LINE
  5
288
  8
FUTO
 10
17443.667795231951
 20
20992.078158551529
 30
0.0
 11
18478.12792586099
 21
20992.078158551529
 31
0.0
  0
CIRCLE
  5
295
  8
SL
 10
17230.16598508387
 20
19833.078158551521
 30
0.0
 40
355.0
  0
ARC
  5
296
  8
FUTO
 10
17178.16598508387
 20
19923.144800545109
 30
0.0
 40
15.000000000000099
 50
25.864502996822029
 51
214.135497003171
  0
ARC
  5
297
  8
FUTO
 10
17230.16598508387
 20
19833.078158551521
 30
0.0
 40
103.9999999999995
 50
68.270994006339393
 51
111.7290059936601
  0
LINE
  5
298
  8
CT
 10
17230.16598508387
 20
19956.84691771623
 30
0.0
 11
17230.16598508387
 21
19703.2544346494
 31
0.0
  0
ARC
  5
299
  8
FUTO
 10
17282.16598508387
 20
19923.144800545109
 30
0.0
 40
15.000000000000201
 50
325.8645029968294
 51
154.13549700317759
  0
ARC
  5
29E
  8
FUTO
 10
17178.16598508387
 20
19743.011516557941
 30
0.0
 40
14.99999999999998
 50
145.86450299682841
 51
334.13549700317782
  0
CIRCLE
  5
29F
  8
FUTO
 10
17230.16598508387
 20
19833.078158551521
 30
0.0
 40
41.5
  0
LINE
  5
2A0
  8
FUTO
 10
17315.16598508387
 20
19726.078158551529
 30
0.0
 11
17145.16598508387
 21
19726.078158551529
 31
0.0
  0
LINE
  5
2A2
  8
KL
 10
16888.11755925983
 20
19711.078158551521
 30
0.0
 11
17230.16598508387
 21
19711.078158551521
 31
0.0
  0
LINE
  5
2A4
  8
FUTO
 10
17354.16598508387
 20
19757.078158551521
 30
0.0
 11
17422.16598508387
 21
19757.078158551521
 31
0.0
  0
LINE
  5
2A5
  8
FUTO
 10
17435.16598508387
 20
19721.078158551529
 30
0.0
 11
17315.16598508387
 21
19721.078158551529
 31
0.0
  0
LINE
  5
2A6
  8
KL
 10
17572.214410907909
 20
19711.078158551521
 30
0.0
 11
17230.16598508387
 21
19711.078158551521
 31
0.0
  0
LINE
  5
2A7
  8
FUTO
 10
17435.16598508387
 20
19721.078158551529
 30
0.0
 11
17435.16598508387
 21
19711.078158551521
 31
0.0
  0
ARC
  5
2A8
  8
FUTO
 10
17422.16598508387
 20
19754.078158551521
 30
0.0
 40
3.0
 50
0.000000000000007
 51
90.0
  0
LINE
  5
2A9
  8
FUTO
 10
17425.16598508387
 20
19754.078158551521
 30
0.0
 11
17425.16598508387
 21
19721.078158551529
 31
0.0
  0
LINE
  5
2AA
  8
KL
 10
17430.16598508387
 20
19842.078158551529
 30
0.0
 11
17430.16598508387
 21
19824.078158551521
 31
0.0
  0
ARC
  5
2AD
  8
FUTO
 10
17230.16598508387
 20
19833.078158551529
 30
0.0
 40
104.0000000000007
 50
248.27099400633949
 51
291.72900599365971
  0
ARC
  5
2AE
  8
FUTO
 10
17334.16598508387
 20
19833.078158551521
 30
0.0
 40
15.0
 50
265.86450299682951
 51
94.135497003170499
  0
ARC
  5
2AF
  8
FUTO
 10
17354.16598508387
 20
19777.078158551521
 30
0.0
 40
20.0
 50
180.0
 51
270.0
  0
LINE
  5
2B0
  8
FUTO
 10
17315.16598508387
 20
19721.078158551529
 30
0.0
 11
17315.16598508387
 21
19726.078158551529
 31
0.0
  0
LINE
  5
2B1
  8
CT
 10
17390.16598508387
 20
19711.078158551521
 30
0.0
 11
17390.16598508387
 21
19767.078158551529
 31
0.0
  0
LINE
  5
2B2
  8
FUTO
 10
17334.16598508387
 20
19818.078158551521
 30
0.0
 11
17334.16598508387
 21
19777.078158551521
 31
0.0
  0
ARC
  5
2B3
  8
FUTO
 10
17282.16598508387
 20
19743.011516557941
 30
0.0
 40
14.999999999999719
 50
205.86450299682281
 51
34.135497003170862
  0
ARC
  5
2B4
  8
FUTO
 10
17230.16598508387
 20
19833.078158551529
 30
0.0
 40
104.0000000000002
 50
308.27099400633909
 51
351.72900599365983
  0
ARC
  5
2B5
  8
FUTO
 10
17230.16598508387
 20
19833.078158551521
 30
0.0
 40
103.9999999999998
 50
8.2709940063395706
 51
51.729005993660287
  0
LINE
  5
2B7
  8
FUTO
 10
17025.16598508387
 20
19711.078158551521
 30
0.0
 11
17025.16598508387
 21
19721.078158551529
 31
0.0
  0
ARC
  5
2B8
  8
FUTO
 10
17038.16598508387
 20
19754.078158551521
 30
0.0
 40
3.0
 50
90.0
 51
180.0
  0
LINE
  5
2B9
  8
FUTO
 10
17035.16598508387
 20
19721.078158551529
 30
0.0
 11
17035.16598508387
 21
19754.078158551521
 31
0.0
  0
LINE
  5
2BA
  8
CT
 10
17070.16598508387
 20
19711.078158551521
 30
0.0
 11
17070.16598508387
 21
19767.078158551529
 31
0.0
  0
LINE
  5
2BB
  8
FUTO
 10
17038.16598508387
 20
19757.078158551521
 30
0.0
 11
17106.16598508387
 21
19757.078158551521
 31
0.0
  0
LINE
  5
2BC
  8
FUTO
 10
17126.16598508387
 20
19777.078158551521
 30
0.0
 11
17126.16598508387
 21
19818.078158551521
 31
0.0
  0
ARC
  5
2BD
  8
FUTO
 10
17106.16598508387
 20
19777.078158551521
 30
0.0
 40
20.0
 50
270.0
 51
0.000000000000007
  0
LINE
  5
2BE
  8
FUTO
 10
17145.16598508387
 20
19726.078158551529
 30
0.0
 11
17145.16598508387
 21
19721.078158551529
 31
0.0
  0
LINE
  5
2BF
  8
FUTO
 10
17145.16598508387
 20
19721.078158551529
 30
0.0
 11
17025.16598508387
 21
19721.078158551529
 31
0.0
  0
ARC
  5
2C0
  8
FUTO
 10
17126.16598508387
 20
19833.078158551521
 30
0.0
 40
15.0
 50
85.864502996829515
 51
270.0
  0
ARC
  5
2C1
  8
FUTO
 10
17230.16598508387
 20
19833.078158551521
 30
0.0
 40
103.9999999999998
 50
188.27099400633949
 51
231.72900599366031
  0
ARC
  5
2C2
  8
FUTO
 10
17230.16598508387
 20
19833.078158551521
 30
0.0
 40
103.9999999999994
 50
128.27099400633961
 51
171.72900599366019
  0
INSERT
  5
2C5
  8
FUTO
  2
左回転矢印
 10
17042.731378531618
 20
20531.517231900471
 30
0.0
 41
2.0
 42
2.0
 43
2.0
  0
LINE
  5
2D0
  8
FUTO
 10
17203.111482566761
 20
19933.497548579311
 30
0.0
 11
17203.111482566761
 21
19937.078158551521
 31
0.0
  0
LINE
  5
2D1
  8
FUTO
 10
17257.220487600971
 20
19933.497548579311
 30
0.0
 11
17257.220487600971
 21
19937.078158551521
 31
0.0
  0
LINE
  5
2D2
  8
FUTO
 10
17257.220487600971
 20
19937.078158551521
 30
0.0
 11
17203.111482566761
 21
19937.078158551521
 31
0.0
  0
LINE
  5
2D3
  8
FUTO
 10
17232.16598508387
 20
20992.078158551529
 30
0.0
 11
17479.514376023999
 21
20992.078158551529
 31
0.0
  0
LINE
  5
2D4
  8
FUTO
 10
17232.16598508387
 20
20998.078158551529
 30
0.0
 11
17480.852959182961
 21
20998.078158551529
 31
0.0
  0
LINE
  5
2D5
  8
FUTO
 10
17232.16598508387
 20
20998.078158551529
 30
0.0
 11
17426.448078102261
 21
20998.078158551529
 31
0.0
  0
ARC
  5
2D6
  8
KL
 10
17119.66598508387
 20
19943.578158551529
 30
0.0
 40
960.5
 50
54.29936339556636
 51
89.999999999999986
  0
LINE
  5
2D8
  8
FUTO
 10
17281.16598508387
 20
20913.174647711479
 30
0.0
 11
17281.16598508387
 21
20998.078158551529
 31
0.0
  0
LINE
  5
2D9
  8
FUTO
 10
17232.16598508387
 20
20933.078158551529
 30
0.0
 11
17232.16598508387
 21
20998.078158551529
 31
0.0
  0
LINE
  5
2DA
  8
FUTO
 10
17232.16598508387
 20
20933.078158551529
 30
0.0
 11
17232.16598508387
 21
20998.078158551529
 31
0.0
  0
LINE
  5
2DB
  8
KL
 10
17301.16598508387
 20
20886.773790432839
 30
0.0
 11
17301.16598508387
 21
20998.078158551529
 31
0.0
  0
LINE
  5
2DD
  8
FUTO
 10
19171.254742241468
 20
20998.078158551529
 30
0.0
 11
19058.632868300061
 21
19803.980749502221
 31
0.0
  0
LINE
  5
2DE
  8
KL
 10
19151.16598508387
 20
20998.078158551529
 30
0.0
 11
19038.721233306322
 21
19805.85872497494
 31
0.0
  0
LINE
  5
2E3
  8
FUTO
 10
18478.12792586099
 20
20992.078158551529
 30
0.0
 11
19220.16598508387
 21
20992.078158551529
 31
0.0
  0
LINE
  5
2E4
  8
FUTO
 10
19220.16598508387
 20
20933.078158551529
 30
0.0
 11
19220.16598508387
 21
20998.078158551529
 31
0.0
  0
LINE
  5
2FF
  8
FUTO
 10
19170.16598508387
 20
22390.315673174391
 30
0.0
 11
16530.16598508387
 21
22390.315673174391
 31
0.0
  0
LINE
  5
300
  8
FUTO
 10
19170.16598508387
 20
22315.315673174398
 30
0.0
 11
16530.16598508387
 21
22315.315673174391
 31
0.0
  0
LINE
  5
3C8
  8
FUTO
 10
19155.16598508387
 20
25090.315673174391
 30
0.0
 11
15938.16598508387
 21
25090.315673174391
 31
0.0
  0
LINE
  5
3C9
  8
FUTO
 10
18290.16598508387
 20
23762.315673174391
 30
0.0
 11
15938.16598508387
 21
23762.315673174391
 31
0.0
  0
LINE
  5
3CA
  8
FUTO
 10
18290.16598508387
 20
23687.315673174391
 30
0.0
 11
16170.16598508387
 21
23687.315673174391
 31
0.0
  0
LINE
  5
3CB
  8
FUTO
 10
18290.16598508387
 20
25165.315673174391
 30
0.0
 11
16170.16598508387
 21
25165.315673174391
 31
0.0
  0
LINE
  5
3DA
  8
FUTO
 10
19170.16598508387
 20
23687.315673174398
 30
0.0
 11
17930.16598508387
 21
23687.315673174391
 31
0.0
  0
LINE
  5
3DB
  8
FUTO
 10
19155.16598508387
 20
23762.315673174391
 30
0.0
 11
18834.16598508387
 21
23762.315673174398
 31
0.0
  0
LINE
  5
406
  8
FUTO
 10
16170.16598508387
 20
23687.315673174391
 30
0.0
 11
16170.16598508387
 21
23712.315673174391
 31
0.0
  0
LINE
  5
438
  8
SL
 10
20285.12890201966
 20
20111.451958551519
 30
0.0
 11
20285.12890201966
 21
18881.45195855153
 31
0.0
  0
LINE
  5
439
  8
SL
 10
20115.12890201966
 20
20111.451958551519
 30
0.0
 11
20115.12890201966
 21
18881.45195855153
 31
0.0
  0
LINE
  5
43A
  8
CT
 10
22415.12890201966
 20
21075.62280148717
 30
0.0
 11
22415.12890201966
 21
18003.86394478337
 31
0.0
  0
LINE
  5
43C
  8
FUTO
 10
23078.328902019661
 20
18393.078141945542
 30
0.0
 11
23078.328902019661
 21
19900.151958551531
 31
0.0
  0
LINE
  5
43D
  8
FUTO
 10
23075.128902019671
 20
18393.078141945542
 30
0.0
 11
23075.12890201966
 21
19900.151958551531
 31
0.0
  0
LINE
  5
43E
  8
FUTO
 10
21755.12890201966
 20
18393.078141945542
 30
0.0
 11
21755.12890201966
 21
19900.151958551531
 31
0.0
  0
LINE
  5
43F
  8
FUTO
 10
21751.92890201967
 20
18393.078141945542
 30
0.0
 11
21751.928902019659
 21
19900.151958551531
 31
0.0
  0
LINE
  5
441
  8
FUTO
 10
20315.128902019671
 20
20211.45195855153
 30
0.0
 11
20315.128902019671
 21
18491.451958551519
 31
0.0
  0
LINE
  5
442
  8
FUTO
 10
19965.12890201966
 20
20211.45195855153
 30
0.0
 11
19965.12890201966
 21
18491.451958551519
 31
0.0
  0
LINE
  5
445
  8
FUTO
 10
21365.12890201966
 20
19681.45195855153
 30
0.0
 11
21365.12890201966
 21
19671.45195855153
 31
0.0
  0
LINE
  5
446
  8
FUTO
 10
21545.12890201966
 20
19681.45195855153
 30
0.0
 11
21545.12890201966
 21
18393.078141945542
 31
0.0
  0
LINE
  5
449
  8
FUTO
 10
20544.12890201966
 20
19709.45195855153
 30
0.0
 11
20544.12890201966
 21
19671.45195855153
 31
0.0
  0
LINE
  5
44A
  8
FUTO
 10
20364.12890201966
 20
19709.45195855153
 30
0.0
 11
20364.12890201966
 21
19051.45195855153
 31
0.0
  0
DIMENSION
  5
44B
  8
SP
  2
*D21
 10
23790.137044231389
 20
18931.45195855153
 30
0.0
 11
23710.137044231389
 21
19831.45195855153
 31
0.0
 70
     0
  1
%%C<>
 13
23210.12890201966
 23
20731.45195855153
 33
0.0
 14
23210.12890201966
 24
18931.45195855153
 34
0.0
 50
90.0
1001
ACAD
1000
DSTYLE
1002
{
1070
    40
1040
40.0
1002
}
  0
LINE
  5
461
  8
KL
 10
23084.328902019661
 20
20796.45195855153
 30
0.0
 11
23084.328902019672
 21
18866.45195855153
 31
0.0
  0
LINE
  5
462
  8
FUTO
 10
23204.12890201966
 20
20796.45195855153
 30
0.0
 11
23204.12890201966
 21
18866.45195855153
 31
0.0
  0
LINE
  5
463
  8
FUTO
 10
23210.12890201966
 20
20796.45195855153
 30
0.0
 11
23210.12890201966
 21
18866.45195855153
 31
0.0
  0
LINE
  5
464
  8
FUTO
 10
21661.928902019659
 20
19806.432803245782
 30
0.0
 11
21661.928902019659
 21
18393.078141945542
 31
0.0
  0
LINE
  5
465
  8
FUTO
 10
23168.328902019661
 20
19806.432803245782
 30
0.0
 11
23168.328902019672
 21
18393.078141945542
 31
0.0
  0
LINE
  5
46B
  8
FUTO
 10
21676.12890201966
 20
18211.078141945542
 30
0.0
 11
23079.124902019659
 21
18211.078141945542
 31
0.0
  0
LINE
  5
46C
  8
FUTO
 10
21676.12890201966
 20
18085.078141945542
 30
0.0
 11
23079.124902019659
 21
18085.078141945542
 31
0.0
  0
LINE
  5
46D
  8
FUTO
 10
21676.12890201966
 20
18255.078141945542
 30
0.0
 11
23079.124902019659
 21
18255.078141945542
 31
0.0
  0
LINE
  5
46E
  8
FUTO
 10
21676.12890201966
 20
18381.078141945542
 30
0.0
 11
23079.124902019659
 21
18381.078141945542
 31
0.0
  0
LINE
  5
46F
  8
KL
 10
21755.128902019671
 20
18279.45195855153
 30
0.0
 11
23075.128902019671
 21
18279.45195855153
 31
0.0
  0
LINE
  5
470
  8
FUTO
 10
20304.132902019661
 20
18223.078141945542
 30
0.0
 11
23154.12490201967
 21
18223.078141945542
 31
0.0
1001
ACAD
1000
ASC_BOUNDS
1002
{
1070
    19
1002
}
  0
LINE
  5
471
  8
FUTO
 10
20304.12890201966
 20
18243.078141945542
 30
0.0
 11
23154.128902019671
 21
18243.078141945542
 31
0.0
1001
ACAD
1000
ASC_BOUNDS
1002
{
1070
    19
1005
0
1005
0
1005
0
1002
}
  0
DIMENSION
  5
472
  8
SP
  2
*D14
 10
22415.12890201966
 20
17633.597529181228
 30
0.0
 11
21359.62890201966
 21
17713.597529181228
 31
0.0
 70
     0
 13
20304.12890201966
 23
18073.078141945542
 33
0.0
 14
22415.12890201966
 24
18052.151089951611
 34
0.0
1001
ACAD
1000
DSTYLE
1002
{
1070
    40
1040
40.0
1002
}
  0
DIMENSION
  5
47F
  8
SP
  2
*D13
 10
23154.128902019671
 20
17333.55998421631
 30
0.0
 11
21729.12890201966
 21
17413.55998421631
 31
0.0
 70
     0
 13
20304.12890201966
 23
18073.078141945542
 33
0.0
 14
23154.128902019671
 24
18073.078141945542
 34
0.0
1001
ACAD
1000
DSTYLE
1002
{
1070
    40
1040
40.0
1002
}
  0
LINE
  5
48C
  8
FUTO
 10
20304.128902019671
 20
18073.078141945542
 30
0.0
 11
23154.124902019659
 21
18073.078141945542
 31
0.0
  0
LINE
  5
48D
  8
FUTO
 10
20304.128902019671
 20
18393.078141945542
 30
0.0
 11
23168.328902019661
 21
18393.078141945542
 31
0.0
  0
LINE
  5
48E
  8
CT
 10
19906.819630470749
 20
19001.45195855153
 30
0.0
 11
20487.322163326869
 21
19001.45195855153
 31
0.0
  0
LINE
  5
491
  8
FUTO
 10
20379.132902019661
 20
18085.078141945542
 30
0.0
 11
21658.239006625168
 21
18085.078141945542
 31
0.0
  0
LINE
  5
492
  8
FUTO
 10
20379.132902019661
 20
18211.078141945542
 30
0.0
 11
21658.23900662519
 21
18211.078141945542
 31
0.0
  0
LINE
  5
493
  8
FUTO
 10
20379.132902019661
 20
18381.078141945542
 30
0.0
 11
21658.23900662519
 21
18381.078141945542
 31
0.0
  0
LINE
  5
494
  8
FUTO
 10
20379.132902019661
 20
18255.078141945542
 30
0.0
 11
21658.23900662519
 21
18255.078141945542
 31
0.0
  0
LINE
  5
495
  8
CT
 10
20339.132902019661
 20
18255.979941758738
 30
0.0
 11
20339.132902019661
 21
18201.773166854589
 31
0.0
  0
LINE
  5
4AA
  8
FUTO
 10
20379.132902019661
 20
18223.078141945542
 30
0.0
 11
20379.132902019661
 21
18073.078141945542
 31
0.0
  0
LINE
  5
4AB
  8
FUTO
 10
20379.132902019661
 20
18073.078141945542
 30
0.0
 11
20304.132902019661
 21
18073.078141945542
 31
0.0
  0
LINE
  5
4AC
  8
FUTO
 10
20368.981524990661
 20
18085.75517457501
 30
0.0
 11
20307.784279048668
 21
18080.401109316081
 31
0.0
  0
LINE
  5
4AD
  8
FUTO
 10
20379.132902019661
 20
18223.078141945542
 30
0.0
 11
20304.132902019661
 21
18223.078141945542
 31
0.0
1001
ACAD
1000
ASC_BOUNDS
1002
{
1070
    19
1002
}
  0
LINE
  5
4AE
  8
FUTO
 10
20368.981524990661
 20
18210.401109316081
 30
0.0
 11
20307.784279048668
 21
18215.75517457501
 31
0.0
  0
LINE
  5
4AF
  8
FUTO
 10
20372.632902019661
 20
18206.416330523709
 30
0.0
 11
20372.632902019661
 21
18089.739953367371
 31
0.0
  0
ARC
  5
4B0
  8
FUTO
 10
20368.632902019661
 20
18089.739953367371
 30
0.0
 40
4.0
 50
274.99999999999972
 51
0.0
  0
LINE
  5
4B1
  8
FUTO
 10
20379.132902019661
 20
18223.078141945542
 30
0.0
 11
20379.132902019661
 21
18073.078141945542
 31
0.0
  0
ARC
  5
4B2
  8
FUTO
 10
20368.632902019661
 20
18206.416330523709
 30
0.0
 40
4.0
 50
0.0
 51
85.000000000000256
  0
ARC
  5
4B3
  8
FUTO
 10
20308.132902019672
 20
18076.416330523709
 30
0.0
 40
4.0
 50
95.000000000000185
 51
180.0
  0
LINE
  5
4B4
  8
FUTO
 10
20304.132902019661
 20
18073.078141945542
 30
0.0
 11
20304.132902019661
 21
18076.416330523709
 31
0.0
  0
LINE
  5
4B5
  8
FUTO
 10
20304.132902019661
 20
18223.078141945542
 30
0.0
 11
20304.132902019661
 21
18219.739953367382
 31
0.0
  0
ARC
  5
4B6
  8
FUTO
 10
20308.132902019672
 20
18219.739953367382
 30
0.0
 40
4.0
 50
180.0
 51
264.99999999999977
  0
ARC
  5
4B7
  8
FUTO
 10
20309.12890201966
 20
18075.50014194554
 30
0.0
 40
5.0
 50
95.001000000000005
 51
180.00099999999989
  0
LINE
  5
4B8
  8
FUTO
 10
20308.695902019659
 20
18080.48114194554
 30
0.0
 11
20363.499902019659
 21
18085.278141945539
 31
0.0
  0
LINE
  5
4B9
  8
FUTO
 10
20304.12890201966
 20
18073.078141945542
 30
0.0
 11
20304.12890201966
 21
18075.50014194554
 31
0.0
  0
LINE
  5
4BA
  8
FUTO
 10
20304.12890201966
 20
18073.078141945542
 30
0.0
 11
20379.12890201966
 21
18073.078141945542
 31
0.0
  0
LINE
  5
4BB
  8
SL
 10
20285.12890201966
 20
18881.45195855153
 30
0.0
 11
20285.12890201966
 21
18601.45195855153
 31
0.0
  0
LINE
  5
4BC
  8
SL
 10
20115.12890201966
 20
18881.45195855153
 30
0.0
 11
20115.12890201966
 21
18601.45195855153
 31
0.0
  0
LINE
  5
4BD
  8
SL
 10
20115.12890201966
 20
18601.45195855153
 30
0.0
 11
20285.12890201966
 21
18601.45195855153
 31
0.0
  0
LINE
  5
4BE
  8
FUTO
 10
19965.12890201966
 20
18491.451958551519
 30
0.0
 11
20315.128902019671
 21
18491.451958551519
 31
0.0
  0
LINE
  5
4C1
  8
FUTO
 10
20304.12890201966
 20
18243.078141945542
 30
0.0
 11
20379.12890201966
 21
18243.078141945542
 31
0.0
  0
LINE
  5
4C2
  8
FUTO
 10
20304.12890201966
 20
18243.078141945542
 30
0.0
 11
20304.12890201966
 21
18245.50014194554
 31
0.0
  0
LINE
  5
4C3
  8
FUTO
 10
20308.695902019659
 20
18250.48114194554
 30
0.0
 11
20363.499902019659
 21
18255.278141945539
 31
0.0
  0
ARC
  5
4C4
  8
FUTO
 10
20308.132902019672
 20
18389.739953367371
 30
0.0
 40
4.0
 50
180.0
 51
264.99999999999977
  0
LINE
  5
4C5
  8
FUTO
 10
20304.132902019661
 20
18393.078141945542
 30
0.0
 11
20304.132902019661
 21
18389.739953367371
 31
0.0
  0
LINE
  5
4C6
  8
FUTO
 10
20304.132902019661
 20
18243.078141945542
 30
0.0
 11
20304.132902019661
 21
18246.416330523709
 31
0.0
  0
ARC
  5
4C7
  8
FUTO
 10
20308.132902019672
 20
18246.416330523709
 30
0.0
 40
4.0
 50
95.000000000000185
 51
180.0
  0
ARC
  5
4C8
  8
FUTO
 10
20368.632902019661
 20
18376.416330523709
 30
0.0
 40
4.0
 50
0.0
 51
85.000000000000256
  0
LINE
  5
4C9
  8
FUTO
 10
20379.132902019661
 20
18393.078141945542
 30
0.0
 11
20379.132902019661
 21
18243.078141945542
 31
0.0
  0
ARC
  5
4CA
  8
FUTO
 10
20368.632902019661
 20
18259.739953367371
 30
0.0
 40
4.0
 50
274.99999999999972
 51
0.0
  0
LINE
  5
4CB
  8
FUTO
 10
20372.632902019661
 20
18376.416330523709
 30
0.0
 11
20372.632902019661
 21
18259.739953367371
 31
0.0
  0
LINE
  5
4CC
  8
FUTO
 10
20368.981524990661
 20
18380.401109316081
 30
0.0
 11
20307.784279048668
 21
18385.75517457501
 31
0.0
  0
LINE
  5
4CD
  8
FUTO
 10
20379.132902019661
 20
18393.078141945542
 30
0.0
 11
20304.132902019661
 21
18393.078141945542
 31
0.0
  0
LINE
  5
4CE
  8
FUTO
 10
20368.981524990661
 20
18255.75517457501
 30
0.0
 11
20307.784279048668
 21
18250.401109316081
 31
0.0
  0
LINE
  5
4CF
  8
FUTO
 10
20379.132902019661
 20
18243.078141945542
 30
0.0
 11
20304.132902019661
 21
18243.078141945542
 31
0.0
  0
LINE
  5
4D0
  8
FUTO
 10
20379.132902019661
 20
18393.078141945542
 30
0.0
 11
20379.132902019661
 21
18243.078141945542
 31
0.0
  0
LINE
  5
4D1
  8
SL
 10
20115.12890201966
 20
18881.45195855153
 30
0.0
 11
20285.12890201966
 21
18881.45195855153
 31
0.0
  0
LINE
  5
4D5
  8
CT
 10
21636.12890201966
 20
18255.979941758738
 30
0.0
 11
21636.12890201966
 21
18201.773166854589
 31
0.0
  0
LINE
  5
4DC
  8
1
 10
21601.929902019659
 20
18073.078141945542
 30
0.0
 11
21676.929902019659
 21
18073.078141945542
 31
0.0
  0
LINE
  5
4E9
  8
FUTO
 10
21676.12890201966
 20
18073.078141945542
 30
0.0
 11
21601.12890201966
 21
18073.078141945542
 31
0.0
  0
LINE
  5
4EA
  8
FUTO
 10
21665.97752499066
 20
18085.75517457501
 30
0.0
 11
21604.780279048671
 21
18080.401109316081
 31
0.0
  0
LINE
  5
4EB
  8
FUTO
 10
21601.124902019659
 20
18073.078141945542
 30
0.0
 11
21676.124902019659
 21
18073.078141945542
 31
0.0
  0
LINE
  5
4EC
  8
FUTO
 10
21676.12890201966
 20
18223.078141945542
 30
0.0
 11
21601.12890201966
 21
18223.078141945542
 31
0.0
  0
LINE
  5
4ED
  8
FUTO
 10
21665.97752499066
 20
18210.401109316081
 30
0.0
 11
21604.780279048671
 21
18215.75517457501
 31
0.0
  0
ARC
  5
4EE
  8
FUTO
 10
21605.128902019671
 20
18076.416330523709
 30
0.0
 40
4.0
 50
95.000000000000185
 51
180.0
  0
LINE
  5
4EF
  8
FUTO
 10
21601.12890201966
 20
18073.078141945542
 30
0.0
 11
21601.12890201966
 21
18076.416330523709
 31
0.0
  0
LINE
  5
4F0
  8
FUTO
 10
21601.124902019659
 20
18073.078141945542
 30
0.0
 11
21601.124902019659
 21
18075.50014194554
 31
0.0
  0
LINE
  5
4F1
  8
FUTO
 10
21601.12890201966
 20
18223.078141945542
 30
0.0
 11
21601.12890201966
 21
18219.739953367382
 31
0.0
  0
ARC
  5
4F2
  8
FUTO
 10
21605.128902019671
 20
18219.739953367382
 30
0.0
 40
4.0
 50
180.0
 51
264.99999999999972
  0
LINE
  5
4F3
  8
FUTO
 10
21605.691902019658
 20
18080.48114194554
 30
0.0
 11
21660.495902019658
 21
18085.278141945539
 31
0.0
  0
LINE
  5
4F4
  8
FUTO
 10
21676.12890201966
 20
18223.078141945542
 30
0.0
 11
21676.12890201966
 21
18073.078141945542
 31
0.0
  0
LINE
  5
4F5
  8
FUTO
 10
21669.62890201966
 20
18206.416330523709
 30
0.0
 11
21669.62890201966
 21
18089.739953367371
 31
0.0
  0
LINE
  5
4F6
  8
FUTO
 10
21676.12890201966
 20
18223.078141945542
 30
0.0
 11
21676.12890201966
 21
18073.078141945542
 31
0.0
  0
ARC
  5
4F7
  8
FUTO
 10
21665.62890201966
 20
18089.739953367371
 30
0.0
 40
4.0
 50
275.0
 51
0.0
  0
ARC
  5
4F8
  8
FUTO
 10
21665.62890201966
 20
18206.416330523709
 30
0.0
 40
4.0
 50
0.0
 51
84.999999999999957
  0
LINE
  5
4FF
  8
1
 10
21601.929902019659
 20
18243.078141945542
 30
0.0
 11
21676.929902019659
 21
18243.078141945542
 31
0.0
  0
LINE
  5
501
  8
FUTO
 10
21676.12890201966
 20
18393.078141945542
 30
0.0
 11
21601.12890201966
 21
18393.078141945542
 31
0.0
  0
LINE
  5
502
  8
FUTO
 10
21665.97752499066
 20
18380.401109316081
 30
0.0
 11
21604.780279048671
 21
18385.75517457501
 31
0.0
  0
ARC
  5
503
  8
FUTO
 10
21665.62890201966
 20
18376.416330523709
 30
0.0
 40
4.0
 50
0.0
 51
84.999999999999957
  0
LINE
  5
504
  8
FUTO
 10
21601.12890201966
 20
18393.078141945542
 30
0.0
 11
21601.12890201966
 21
18389.739953367371
 31
0.0
  0
ARC
  5
505
  8
FUTO
 10
21605.128902019671
 20
18389.739953367371
 30
0.0
 40
4.0
 50
180.0
 51
264.99999999999972
  0
LINE
  5
506
  8
FUTO
 10
21676.12890201966
 20
18243.078141945542
 30
0.0
 11
21601.12890201966
 21
18243.078141945542
 31
0.0
  0
LINE
  5
507
  8
FUTO
 10
21665.97752499066
 20
18255.75517457501
 30
0.0
 11
21604.780279048671
 21
18250.401109316081
 31
0.0
  0
ARC
  5
508
  8
FUTO
 10
21665.62890201966
 20
18259.739953367371
 30
0.0
 40
4.0
 50
275.0
 51
0.0
  0
ARC
  5
509
  8
FUTO
 10
21605.128902019671
 20
18246.416330523709
 30
0.0
 40
4.0
 50
95.000000000000185
 51
180.0
  0
LINE
  5
50A
  8
FUTO
 10
21601.12890201966
 20
18243.078141945542
 30
0.0
 11
21601.12890201966
 21
18246.416330523709
 31
0.0
  0
LINE
  5
50B
  8
FUTO
 10
21601.124902019659
 20
18243.078141945542
 30
0.0
 11
21601.124902019659
 21
18245.50014194554
 31
0.0
  0
LINE
  5
50C
  8
FUTO
 10
21605.691902019658
 20
18250.48114194554
 30
0.0
 11
21660.495902019658
 21
18255.278141945539
 31
0.0
  0
LINE
  5
50D
  8
FUTO
 10
21601.124902019659
 20
18243.078141945542
 30
0.0
 11
21676.124902019659
 21
18243.078141945542
 31
0.0
  0
LINE
  5
50E
  8
FUTO
 10
21676.12890201966
 20
18393.078141945542
 30
0.0
 11
21676.12890201966
 21
18243.078141945542
 31
0.0
  0
LINE
  5
50F
  8
FUTO
 10
21669.62890201966
 20
18376.416330523709
 30
0.0
 11
21669.62890201966
 21
18259.739953367371
 31
0.0
  0
LINE
  5
510
  8
FUTO
 10
21676.12890201966
 20
18393.078141945542
 30
0.0
 11
21676.12890201966
 21
18243.078141945542
 31
0.0
  0
LINE
  5
511
  8
FUTO
 10
21751.92890201967
 20
18264.45195855153
 30
0.0
 11
21755.128902019671
 21
18264.45195855153
 31
0.0
  0
LINE
  5
512
  8
KL
 10
21751.92890201967
 20
18264.45195855153
 30
0.0
 11
21751.92890201967
 21
18393.078141945542
 31
0.0
  0
LINE
  5
513
  8
KL
 10
21755.128902019671
 20
18264.45195855153
 30
0.0
 11
21755.128902019671
 21
18393.078141945542
 31
0.0
  0
DIMENSION
  5
517
  8
SP
  2
*D15
 10
23154.128902019671
 20
17633.597529181228
 30
0.0
 11
22784.628902019671
 21
17713.597529181228
 31
0.0
 70
     0
 13
22415.12890201966
 23
18052.151089951611
 33
0.0
 14
23154.128902019671
 24
18073.078141945542
 34
0.0
1001
ACAD
1000
DSTYLE
1002
{
1070
   287
1070
     4
1070
    40
1040
40.0
1070
    75
1070
     1
1070
   279
1070
     1
1070
   289
1070
     3
1002
}
  0
LINE
  5
529
  8
CT
 10
23119.12890201966
 20
18255.979941758738
 30
0.0
 11
23119.12890201966
 21
18201.773166854589
 31
0.0
  0
LINE
  5
53A
  8
FUTO
 10
23154.128902019671
 20
18073.078141945542
 30
0.0
 11
23079.12890201966
 21
18073.078141945542
 31
0.0
  0
LINE
  5
53B
  8
FUTO
 10
23149.561902019668
 20
18080.48114194554
 30
0.0
 11
23094.757902019661
 21
18085.278141945539
 31
0.0
  0
LINE
  5
53C
  8
1
 10
23153.32390201966
 20
18073.078141945542
 30
0.0
 11
23078.32390201966
 21
18073.078141945542
 31
0.0
  0
LINE
  5
53D
  8
FUTO
 10
23089.27627904867
 20
18085.75517457501
 30
0.0
 11
23150.473524990652
 21
18080.401109316081
 31
0.0
  0
LINE
  5
53E
  8
FUTO
 10
23079.124902019659
 20
18073.078141945542
 30
0.0
 11
23154.124902019659
 21
18073.078141945542
 31
0.0
  0
LINE
  5
53F
  8
FUTO
 10
23089.27627904867
 20
18210.401109316081
 30
0.0
 11
23150.473524990652
 21
18215.75517457501
 31
0.0
  0
LINE
  5
540
  8
FUTO
 10
23079.124902019659
 20
18223.078141945542
 30
0.0
 11
23154.124902019659
 21
18223.078141945542
 31
0.0
1001
ACAD
1000
ASC_BOUNDS
1002
{
1070
    19
1005
0
1002
}
  0
LINE
  5
541
  8
FUTO
 10
23079.124902019659
 20
18223.078141945542
 30
0.0
 11
23079.124902019659
 21
18073.078141945542
 31
0.0
  0
LINE
  5
542
  8
FUTO
 10
23085.624902019659
 20
18206.416330523709
 30
0.0
 11
23085.624902019659
 21
18089.739953367371
 31
0.0
  0
LINE
  5
543
  8
FUTO
 10
23079.124902019659
 20
18223.078141945542
 30
0.0
 11
23079.124902019659
 21
18073.078141945542
 31
0.0
  0
ARC
  5
544
  8
FUTO
 10
23089.624902019659
 20
18089.739953367371
 30
0.0
 40
4.0
 50
180.0
 51
264.99999999999989
  0
ARC
  5
545
  8
FUTO
 10
23089.624902019659
 20
18206.416330523709
 30
0.0
 40
4.0
 50
95.000000000000057
 51
180.0
  0
LINE
  5
546
  8
FUTO
 10
23154.128902019671
 20
18073.078141945542
 30
0.0
 11
23154.128902019671
 21
18075.50014194554
 31
0.0
  0
LINE
  5
547
  8
FUTO
 10
23154.124902019659
 20
18073.078141945542
 30
0.0
 11
23154.124902019659
 21
18076.416330523709
 31
0.0
  0
ARC
  5
548
  8
FUTO
 10
23150.124902019659
 20
18076.416330523709
 30
0.0
 40
4.0
 50
0.0
 51
84.999999999999801
  0
ARC
  5
549
  8
FUTO
 10
23150.124902019659
 20
18219.739953367382
 30
0.0
 40
4.0
 50
275.00000000000011
 51
0.0
  0
LINE
  5
54A
  8
FUTO
 10
23154.124902019659
 20
18223.078141945542
 30
0.0
 11
23154.124902019659
 21
18219.739953367382
 31
0.0
  0
LINE
  5
54E
  8
FUTO
 10
23075.128902019671
 20
18279.45195855153
 30
0.0
 11
23225.128902019671
 21
18279.45195855153
 31
0.0
  0
LINE
  5
54F
  8
FUTO
 10
23225.128902019671
 20
18313.45195855153
 30
0.0
 11
23075.128902019671
 21
18313.45195855153
 31
0.0
  0
LINE
  5
550
  8
CT
 10
23040.216216536599
 20
18296.45195855153
 30
0.0
 11
23276.714395013791
 21
18296.45195855153
 31
0.0
  0
LINE
  5
553
  8
KL
 10
23075.128902019671
 20
18264.45195855153
 30
0.0
 11
23078.328902019661
 21
18264.45195855153
 31
0.0
  0
LINE
  5
554
  8
FUTO
 10
23154.128902019671
 20
18243.078141945542
 30
0.0
 11
23079.12890201966
 21
18243.078141945542
 31
0.0
  0
LINE
  5
555
  8
FUTO
 10
23149.561902019668
 20
18250.48114194554
 30
0.0
 11
23094.757902019661
 21
18255.278141945539
 31
0.0
  0
LINE
  5
556
  8
FUTO
 10
23154.128902019671
 20
18243.078141945542
 30
0.0
 11
23154.128902019671
 21
18245.50014194554
 31
0.0
  0
LINE
  5
557
  8
1
 10
23153.32390201966
 20
18243.078141945542
 30
0.0
 11
23078.32390201966
 21
18243.078141945542
 31
0.0
  0
ARC
  5
558
  8
FUTO
 10
23150.124902019659
 20
18389.739953367371
 30
0.0
 40
4.0
 50
275.00000000000011
 51
0.0
  0
LINE
  5
559
  8
FUTO
 10
23154.124902019659
 20
18393.078141945542
 30
0.0
 11
23154.124902019659
 21
18389.739953367371
 31
0.0
  0
LINE
  5
55A
  8
FUTO
 10
23154.124902019659
 20
18243.078141945542
 30
0.0
 11
23154.124902019659
 21
18246.416330523709
 31
0.0
  0
ARC
  5
55B
  8
FUTO
 10
23150.124902019659
 20
18246.416330523709
 30
0.0
 40
4.0
 50
0.0
 51
84.999999999999801
  0
ARC
  5
55C
  8
FUTO
 10
23089.624902019659
 20
18376.416330523709
 30
0.0
 40
4.0
 50
95.000000000000057
 51
180.0
  0
LINE
  5
55D
  8
FUTO
 10
23079.124902019659
 20
18393.078141945542
 30
0.0
 11
23079.124902019659
 21
18243.078141945542
 31
0.0
  0
ARC
  5
55E
  8
FUTO
 10
23089.624902019659
 20
18259.739953367371
 30
0.0
 40
4.0
 50
180.0
 51
264.99999999999989
  0
LINE
  5
55F
  8
FUTO
 10
23085.624902019659
 20
18376.416330523709
 30
0.0
 11
23085.624902019659
 21
18259.739953367371
 31
0.0
  0
LINE
  5
560
  8
FUTO
 10
23089.27627904867
 20
18380.401109316081
 30
0.0
 11
23150.473524990652
 21
18385.75517457501
 31
0.0
  0
LINE
  5
561
  8
FUTO
 10
23079.124902019659
 20
18393.078141945542
 30
0.0
 11
23154.124902019659
 21
18393.078141945542
 31
0.0
  0
LINE
  5
562
  8
FUTO
 10
23089.27627904867
 20
18255.75517457501
 30
0.0
 11
23150.473524990652
 21
18250.401109316081
 31
0.0
  0
LINE
  5
563
  8
FUTO
 10
23079.124902019659
 20
18243.078141945542
 30
0.0
 11
23154.124902019659
 21
18243.078141945542
 31
0.0
  0
LINE
  5
564
  8
FUTO
 10
23079.124902019659
 20
18393.078141945542
 30
0.0
 11
23079.124902019659
 21
18243.078141945542
 31
0.0
  0
LINE
  5
565
  8
KL
 10
23078.328902019661
 20
18264.45195855153
 30
0.0
 11
23078.328902019661
 21
18393.078141945542
 31
0.0
  0
LINE
  5
566
  8
KL
 10
23075.128902019671
 20
18264.45195855153
 30
0.0
 11
23075.128902019671
 21
18393.078141945542
 31
0.0
  0
LINE
  5
567
  8
FUTO
 10
23266.233067165209
 20
18275.623741877698
 30
0.0
 11
23266.233067165209
 21
18317.280175225362
 31
0.0
  0
LINE
  5
568
  8
FUTO
 10
23225.128902019671
 20
18275.623741877698
 30
0.0
 11
23225.128902019671
 21
18317.280175225362
 31
0.0
  0
LINE
  5
569
  8
FUTO
 10
23225.128902019671
 20
18275.623741877691
 30
0.0
 11
23266.233067165209
 21
18275.623741877691
 31
0.0
  0
LINE
  5
56A
  8
FUTO
 10
23225.128902019671
 20
18317.280175225362
 30
0.0
 11
23266.233067165209
 21
18317.280175225362
 31
0.0
  0
LINE
  5
56B
  8
KL
 10
23078.328902019661
 20
18925.45195855153
 30
0.0
 11
23168.328902019672
 21
18925.45195855153
 31
0.0
  0
LINE
  5
56C
  8
KL
 10
23078.328902019661
 20
18931.45195855153
 30
0.0
 11
23210.12890201966
 21
18931.45195855153
 31
0.0
  0
LINE
  5
56D
  8
HOSO
 10
23035.79489240874
 20
18891.45195855153
 30
0.0
 11
23109.90250755701
 21
18891.45195855153
 31
0.0
  0
LINE
  5
56E
  8
KL
 10
23078.328902019661
 20
18866.45195855153
 30
0.0
 11
23084.328902019672
 21
18866.45195855153
 31
0.0
  0
LINE
  5
56F
  8
FUTO
 10
23168.328902019672
 20
18925.45195855153
 30
0.0
 11
23210.12890201966
 21
18925.45195855153
 31
0.0
  0
LINE
  5
570
  8
FUTO
 10
23204.12890201966
 20
18866.45195855153
 30
0.0
 11
23210.12890201966
 21
18866.45195855153
 31
0.0
  0
LINE
  5
571
  8
HOSO
 10
23176.64635583364
 20
18891.45195855153
 30
0.0
 11
23250.753970981899
 21
18891.45195855153
 31
0.0
  0
LINE
  5
600
  8
FUTO
 10
21686.928902019659
 20
19822.45195855153
 30
0.0
 11
23143.328902019661
 21
19822.45195855153
 31
0.0
  0
LINE
  5
601
  8
FUTO
 10
21686.928902019659
 20
19840.451958551519
 30
0.0
 11
23143.328902019661
 21
19840.451958551519
 31
0.0
  0
LINE
  5
61E
  8
CT
 10
19913.202780334879
 20
19831.45195855153
 30
0.0
 11
23409.124205191889
 21
19831.45195855153
 31
0.0
  0
LINE
  5
623
  8
FUTO
 10
20520.62890201966
 20
19935.45195855153
 30
0.0
 11
20387.62890201966
 21
19935.45195855153
 31
0.0
  0
LINE
  5
624
  8
FUTO
 10
20387.62890201966
 20
19727.45195855153
 30
0.0
 11
20399.12890201966
 21
19727.45195855153
 31
0.0
  0
ARC
  5
625
  8
FUTO
 10
20405.12890201966
 20
19749.45195855153
 30
0.0
 40
6.0
 50
90.0
 51
180.0
  0
LINE
  5
626
  8
FUTO
 10
20364.12890201966
 20
19709.45195855153
 30
0.0
 11
20544.12890201966
 21
19709.45195855153
 31
0.0
  0
ARC
  5
628
  8
FUTO
 10
20387.62890201966
 20
19929.45195855153
 30
0.0
 40
6.0
 50
90.0
 51
180.0
  0
LINE
  5
629
  8
SL
 10
20115.12890201966
 20
19551.45195855153
 30
0.0
 11
20285.12890201966
 21
19551.45195855153
 31
0.0
  0
LINE
  5
62A
  8
FUTO
 10
20381.62890201966
 20
19921.45195855153
 30
0.0
 11
20376.62890201966
 21
19921.45195855153
 31
0.0
  0
ARC
  5
62B
  8
FUTO
 10
20387.62890201966
 20
19733.45195855153
 30
0.0
 40
6.0
 50
180.0
 51
270.0
  0
LINE
  5
62C
  8
FUTO
 10
20376.62890201966
 20
19741.451958551519
 30
0.0
 11
20381.62890201966
 21
19741.451958551519
 31
0.0
  0
LINE
  5
62D
  8
FUTO
 10
20381.62890201966
 20
19929.45195855153
 30
0.0
 11
20381.62890201966
 21
19733.45195855153
 31
0.0
  0
LINE
  5
62E
  8
FUTO
 10
20376.62890201966
 20
19921.45195855153
 30
0.0
 11
20376.62890201966
 21
19741.451958551519
 31
0.0
  0
LINE
  5
62F
  8
FUTO
 10
20285.12890201966
 20
19783.95195855153
 30
0.0
 11
20376.62890201966
 21
19783.95195855153
 31
0.0
  0
LINE
  5
630
  8
FUTO
 10
20285.12890201966
 20
19878.95195855153
 30
0.0
 11
20376.62890201966
 21
19878.95195855153
 31
0.0
  0
LINE
  5
631
  8
SL
 10
20115.12890201966
 20
20111.451958551519
 30
0.0
 11
20285.12890201966
 21
20111.451958551519
 31
0.0
  0
LINE
  5
632
  8
FUTO
 10
19965.12890201966
 20
20211.45195855153
 30
0.0
 11
20315.128902019671
 21
20211.45195855153
 31
0.0
  0
LINE
  5
636
  8
FUTO
 10
21751.928902019659
 20
19900.151958551531
 30
0.0
 11
21751.928902019659
 21
20996.45195855153
 31
0.0
  0
LINE
  5
637
  8
FUTO
 10
21755.12890201966
 20
19900.151958551531
 30
0.0
 11
21755.12890201966
 21
20996.45195855153
 31
0.0
  0
LINE
  5
638
  8
FUTO
 10
21686.928902019659
 20
20996.45195855153
 30
0.0
 11
21686.928902019659
 21
19822.45195855153
 31
0.0
  0
LINE
  5
63B
  8
SL
 10
21334.640523345741
 20
20047.526628361778
 30
0.0
 11
20569.262566548048
 21
20047.526628361778
 31
0.0
  0
LINE
  5
63D
  8
FUTO
 10
21365.12890201966
 20
19671.45195855153
 30
0.0
 11
20544.12890201966
 21
19671.45195855153
 31
0.0
  0
LINE
  5
63E
  8
FUTO
 10
20531.62890201966
 20
19778.95195855153
 30
0.0
 11
21361.62890201966
 21
19778.95195855153
 31
0.0
  0
LINE
  5
63F
  8
FUTO
 10
20531.62890201966
 20
19883.95195855153
 30
0.0
 11
21361.62890201966
 21
19883.95195855153
 31
0.0
  0
LINE
  5
640
  8
SL
 10
20569.262566548048
 20
20047.526628361778
 30
0.0
 11
20569.262566548048
 21
19671.45195855153
 31
0.0
  0
LINE
  5
641
  8
CT
 10
20454.128902019671
 20
20012.517872971152
 30
0.0
 11
20454.128902019671
 21
19622.517705025741
 31
0.0
  0
ARC
  5
642
  8
FUTO
 10
20520.62890201966
 20
19929.45195855153
 30
0.0
 40
6.0
 50
0.0
 51
90.0
  0
LINE
  5
643
  8
FUTO
 10
20509.12890201966
 20
19935.45195855153
 30
0.0
 11
20509.12890201966
 21
19709.45195855153
 31
0.0
  0
LINE
  5
644
  8
FUTO
 10
20399.12890201966
 20
19935.45195855153
 30
0.0
 11
20399.12890201966
 21
19709.45195855153
 31
0.0
  0
LINE
  5
645
  8
CT
 10
20454.128902019671
 20
19955.220717716242
 30
0.0
 11
20454.128902019671
 21
19701.628234649401
 31
0.0
  0
LINE
  5
646
  8
FUTO
 10
20526.628902019671
 20
19921.45195855153
 30
0.0
 11
20531.62890201966
 21
19921.45195855153
 31
0.0
  0
LINE
  5
647
  8
FUTO
 10
20531.62890201966
 20
19741.451958551519
 30
0.0
 11
20526.628902019671
 21
19741.451958551519
 31
0.0
  0
ARC
  5
648
  8
FUTO
 10
20520.62890201966
 20
19733.45195855153
 30
0.0
 40
6.0
 50
270.0
 51
0.0
  0
LINE
  5
649
  8
FUTO
 10
20520.62890201966
 20
19727.45195855153
 30
0.0
 11
20509.12890201966
 21
19727.45195855153
 31
0.0
  0
ARC
  5
64A
  8
FUTO
 10
20503.12890201966
 20
19749.45195855153
 30
0.0
 40
6.0
 50
0.0
 51
90.0
  0
LINE
  5
64B
  8
FUTO
 10
20531.62890201966
 20
19921.45195855153
 30
0.0
 11
20531.62890201966
 21
19741.451958551519
 31
0.0
  0
LINE
  5
64C
  8
FUTO
 10
20526.628902019671
 20
19929.45195855153
 30
0.0
 11
20526.628902019671
 21
19733.45195855153
 31
0.0
  0
LINE
  5
64D
  8
FUTO
 10
20399.12890201966
 20
19719.45195855153
 30
0.0
 11
20509.12890201966
 21
19719.45195855153
 31
0.0
  0
LINE
  5
64E
  8
FUTO
 10
20503.12890201966
 20
19755.45195855153
 30
0.0
 11
20405.12890201966
 21
19755.45195855153
 31
0.0
  0
LINE
  5
653
  8
SL
 10
21334.640523345741
 20
20047.526628361778
 30
0.0
 11
21334.640523345741
 21
19671.45195855153
 31
0.0
  0
LINE
  5
654
  8
CT
 10
21455.12890201966
 20
20040.222786631759
 30
0.0
 11
21455.12890201966
 21
19590.550482864171
 31
0.0
  0
LINE
  5
655
  8
FUTO
 10
21533.62890201966
 20
19938.95195855153
 30
0.0
 11
21548.62890201966
 21
19915.45195855153
 31
0.0
  0
LINE
  5
656
  8
FUTO
 10
21521.62890201966
 20
19961.451958551519
 30
0.0
 11
21521.62890201966
 21
19746.45195855153
 31
0.0
  0
LINE
  5
657
  8
FUTO
 10
21521.62890201966
 20
19736.45195855153
 30
0.0
 11
21521.62890201966
 21
19961.451895357139
 31
0.0
  0
LINE
  5
658
  8
FUTO
 10
21533.62890201966
 20
19701.45195855153
 30
0.0
 11
21533.62890201966
 21
19961.451958551519
 31
0.0
  0
LINE
  5
659
  8
FUTO
 10
21361.62890201966
 20
19915.45195855153
 30
0.0
 11
21376.62890201966
 21
19938.95195855153
 31
0.0
  0
LINE
  5
65A
  8
FUTO
 10
21388.62890201966
 20
19961.451958551519
 30
0.0
 11
21388.62890201966
 21
19746.45195855153
 31
0.0
  0
LINE
  5
65B
  8
CT
 10
21455.12890201966
 20
19995.613538217731
 30
0.0
 11
21455.12890201966
 21
19653.743915373641
 31
0.0
  0
LINE
  5
65C
  8
FUTO
 10
21376.62890201966
 20
19961.451958551519
 30
0.0
 11
21376.62890201966
 21
19701.45195855153
 31
0.0
  0
LINE
  5
662
  8
FUTO
 10
21686.928902019659
 20
19822.45195855153
 30
0.0
 11
21661.928902019659
 21
19806.432803245782
 31
0.0
  0
LINE
  5
664
  8
FUTO
 10
21545.12890201966
 20
19681.45195855153
 30
0.0
 11
21365.12890201966
 21
19681.45195855153
 31
0.0
  0
LINE
  5
665
  8
FUTO
 10
21530.12890201966
 20
19691.45195855153
 30
0.0
 11
21380.128902019671
 21
19691.45195855153
 31
0.0
  0
LINE
  5
666
  8
FUTO
 10
21380.128902019671
 20
19746.45195855153
 30
0.0
 11
21530.12890201966
 21
19746.45195855153
 31
0.0
  0
LINE
  5
667
  8
FUTO
 10
21361.62890201966
 20
19747.45195855153
 30
0.0
 11
21361.62890201966
 21
19915.45195855153
 31
0.0
  0
LINE
  5
668
  8
FUTO
 10
21376.62890201966
 20
19701.45195855153
 30
0.0
 11
21380.128902019671
 21
19701.45195855153
 31
0.0
  0
LINE
  5
669
  8
CT
 10
21405.128902019671
 20
19656.496866200279
 30
0.0
 11
21405.128902019671
 21
19777.26939132205
 31
0.0
  0
LINE
  5
66A
  8
FUTO
 10
21380.128902019671
 20
19681.45195855153
 30
0.0
 11
21380.128902019671
 21
19746.45195855153
 31
0.0
  0
LINE
  5
66B
  8
FUTO
 10
21376.62890201966
 20
19723.95195855153
 30
0.0
 11
21361.62890201966
 21
19747.45195855153
 31
0.0
  0
LINE
  5
66C
  8
FUTO
 10
21548.62890201966
 20
19883.95195855153
 30
0.0
 11
21686.928902019659
 21
19883.95195855153
 31
0.0
  0
LINE
  5
66E
  8
FUTO
 10
21548.62890201966
 20
19778.95195855153
 30
0.0
 11
21661.928902019659
 21
19778.95195855153
 31
0.0
  0
LINE
  5
67F
  8
CT
 10
21566.519240255991
 20
19831.45195855153
 30
0.0
 11
21675.8618621319
 21
19831.45195855153
 31
0.0
  0
LINE
  5
69D
  8
FUTO
 10
21548.62890201966
 20
19915.45195855153
 30
0.0
 11
21548.62890201966
 21
19747.45195855153
 31
0.0
  0
LINE
  5
69E
  8
FUTO
 10
21530.12890201966
 20
19701.45195855153
 30
0.0
 11
21533.62890201966
 21
19701.45195855153
 31
0.0
  0
LINE
  5
69F
  8
FUTO
 10
21530.12890201966
 20
19746.45195855153
 30
0.0
 11
21530.12890201966
 21
19681.45195855153
 31
0.0
  0
LINE
  5
6A0
  8
FUTO
 10
21548.62890201966
 20
19747.45195855153
 30
0.0
 11
21533.62890201966
 21
19723.95195855153
 31
0.0
  0
LINE
  5
6A1
  8
CT
 10
21505.12890201966
 20
19656.496866200279
 30
0.0
 11
21505.12890201966
 21
19777.26939132205
 31
0.0
  0
LINE
  5
6AC
  8
FUTO
 10
21516.62890201966
 20
19979.45195855153
 30
0.0
 11
21393.628902019671
 21
19979.45195855153
 31
0.0
  0
LINE
  5
6AD
  8
FUTO
 10
21393.628902019671
 20
19979.45195855153
 30
0.0
 11
21393.628902019671
 21
19961.451958551519
 31
0.0
  0
LINE
  5
6AE
  8
FUTO
 10
21393.628902019671
 20
19961.451958551519
 30
0.0
 11
21376.62890201966
 21
19961.451958551519
 31
0.0
  0
LINE
  5
6B7
  8
FUTO
 10
21533.62890201966
 20
19961.451958551519
 30
0.0
 11
21516.62890201966
 21
19961.451958551519
 31
0.0
  0
LINE
  5
6B8
  8
FUTO
 10
21516.62890201966
 20
19961.451958551519
 30
0.0
 11
21516.62890201966
 21
19979.45195855153
 31
0.0
  0
LINE
  5
6BC
  8
FUTO
 10
21751.928902019659
 20
20776.651958551531
 30
0.0
 11
21751.928902019659
 21
20996.45195855153
 31
0.0
  0
DIMENSION
  5
6CD
  8
SP
  2
*D16
 10
23210.12890201966
 20
21344.630011860128
 30
0.0
 11
22743.991277063771
 21
21344.630011860128
 31
0.0
 70
   128
 13
22415.12890201966
 23
21376.57235122452
 33
0.0
 14
23210.12890201966
 24
20796.45195855153
 34
0.0
1001
ACAD
1000
DSTYLE
1002
{
1070
    40
1040
40.0
1002
}
  0
LINE
  5
6E1
  8
FUTO
 10
23075.12890201966
 20
19900.151958551531
 30
0.0
 11
23075.12890201966
 21
20996.45195855153
 31
0.0
  0
LINE
  5
6E2
  8
FUTO
 10
23078.328902019661
 20
19900.151958551531
 30
0.0
 11
23078.328902019661
 21
20996.45195855153
 31
0.0
  0
LINE
  5
6E3
  8
FUTO
 10
23143.328902020061
 20
20996.45195855153
 30
0.0
 11
23143.328902019661
 21
19822.45195855153
 31
0.0
  0
LINE
  5
701
  8
FUTO
 10
23143.32890201969
 20
19822.451958551501
 30
0.0
 11
23168.32890201969
 21
19806.43280324576
 31
0.0
  0
INSERT
  5
702
  8
FUTO
  2
まっすぐの矢印
 10
23405.60205459017
 20
20316.99826140064
 30
0.0
 41
2.0
 42
2.0
 43
2.0
 50
90.0
  0
LINE
  5
704
  8
FUTO
 10
23143.328902019672
 20
20737.45195855153
 30
0.0
 11
23210.12890201966
 21
20737.45195855153
 31
0.0
  0
LINE
  5
705
  8
KL
 10
23078.328902019661
 20
20731.45195855153
 30
0.0
 11
23210.12890201966
 21
20731.45195855153
 31
0.0
  0
LINE
  5
706
  8
HOSO
 10
23049.390932211671
 20
20771.45195855153
 30
0.0
 11
23109.22128104174
 21
20771.45195855153
 31
0.0
  0
LINE
  5
707
  8
KL
 10
23084.328902019661
 20
20796.45195855153
 30
0.0
 11
23078.328902019661
 21
20796.45195855153
 31
0.0
  0
LINE
  5
708
  8
KL
 10
23078.328902019661
 20
20737.45195855153
 30
0.0
 11
23143.328902019672
 21
20737.45195855153
 31
0.0
  0
LINE
  5
709
  8
FUTO
 10
23204.12890201966
 20
20796.45195855153
 30
0.0
 11
23210.12890201966
 21
20796.45195855153
 31
0.0
  0
LINE
  5
70A
  8
HOSO
 10
23177.46112545998
 20
20771.45195855153
 30
0.0
 11
23237.291474290061
 21
20771.45195855153
 31
0.0
  0
LINE
  5
88D
  8
CT
 10
19365.49107655953
 20
24426.315673174398
 30
0.0
 11
15577.93154137495
 21
24426.315673174391
 31
0.0
  0
LINE
  5
88E
  8
FUTO
 10
19155.16598508387
 20
23762.315673174398
 30
0.0
 11
19155.16598508387
 21
25090.315673174391
 31
0.0
  0
LINE
  5
89C
  8
FUTO
 10
19220.16598508387
 20
23697.315673174391
 30
0.0
 11
17232.165985083859
 21
23697.315673174391
 31
0.0
  0
LINE
  5
89D
  8
FUTO
 10
19220.16598508387
 20
23697.315673174391
 30
0.0
 11
19220.16598508387
 21
25155.315673174391
 31
0.0
  0
LINE
  5
89E
  8
FUTO
 10
19220.16598508387
 20
25155.315673174391
 30
0.0
 11
17232.16598508387
 21
25155.315673174391
 31
0.0
  0
LINE
  5
89F
  8
FUTO
 10
15888.16598508387
 20
25140.31567317438
 30
0.0
 11
15888.16598508387
 21
23712.315673174391
 31
0.0
  0
LINE
  5
8A0
  8
FUTO
 10
17232.165985083859
 20
25140.315673174391
 30
0.0
 11
15888.16598508387
 21
25140.315673174391
 31
0.0
  0
LINE
  5
8A1
  8
FUTO
 10
15938.16598508387
 20
25090.315673174391
 30
0.0
 11
15938.16598508387
 21
23762.315673174391
 31
0.0
  0
LINE
  5
8A2
  8
FUTO
 10
17232.165985083859
 20
23712.315673174391
 30
0.0
 11
15888.16598508387
 21
23712.315673174391
 31
0.0
  0
LINE
  5
8A3
  8
FUTO
 10
19155.16598508387
 20
23762.315673174398
 30
0.0
 11
17930.16598508387
 21
23762.315673174391
 31
0.0
  0
LINE
  5
8A4
  8
FUTO
 10
18290.16598508387
 20
25140.315673174391
 30
0.0
 11
18290.16598508387
 21
25165.315673174398
 31
0.0
  0
LINE
  5
8A5
  8
FUTO
 10
16170.16598508387
 20
25140.315673174391
 30
0.0
 11
16170.16598508387
 21
25165.315673174391
 31
0.0
  0
LINE
  5
132F
  8
FUTO
 10
16850.16598508387
 20
21976.315673174391
 30
0.0
 11
19010.16598508387
 21
21976.315673174398
 31
0.0
  0
LINE
  5
1330
  8
FUTO
 10
16850.16598508387
 20
22326.315673174398
 30
0.0
 11
19010.16598508387
 21
22326.315673174391
 31
0.0
  0
LINE
  5
1336
  8
SL
 10
16950.16598508387
 20
22126.315673174391
 30
0.0
 11
18930.16598508387
 21
22126.315673174398
 31
0.0
  0
LINE
  5
1337
  8
SL
 10
16950.16598508387
 20
22296.315673174398
 30
0.0
 11
18930.16598508387
 21
22296.315673174391
 31
0.0
  0
LINE
  5
1338
  8
CT
 10
17230.16598508387
 20
21924.38955148961
 30
0.0
 11
17230.16598508387
 21
25420.31097634662
 31
0.0
  0
LINE
  5
1342
  8
FUTO
 10
17126.16598508387
 20
22398.815673174398
 30
0.0
 11
17126.16598508387
 21
22410.315673174398
 31
0.0
  0
LINE
  5
1343
  8
FUTO
 10
17334.16598508387
 20
22531.815673174391
 30
0.0
 11
17334.16598508387
 21
22398.815673174398
 31
0.0
  0
ARC
  5
1344
  8
FUTO
 10
17328.16598508387
 20
22398.815673174398
 30
0.0
 40
6.0
 50
270.0
 51
0.000000000000007
  0
LINE
  5
1345
  8
SL
 10
17510.16598508387
 20
22126.315673174398
 30
0.0
 11
17510.16598508387
 21
22296.315673174398
 31
0.0
  0
LINE
  5
1346
  8
FUTO
 10
17277.66598508387
 20
22296.315673174398
 30
0.0
 11
17277.66598508387
 21
22387.815673174398
 31
0.0
  0
LINE
  5
1347
  8
FUTO
 10
17182.66598508387
 20
22296.315673174398
 30
0.0
 11
17182.66598508387
 21
22387.815673174398
 31
0.0
  0
LINE
  5
1348
  8
FUTO
 10
17320.16598508387
 20
22387.815673174398
 30
0.0
 11
17140.16598508387
 21
22387.815673174398
 31
0.0
  0
LINE
  5
1349
  8
FUTO
 10
17328.16598508387
 20
22392.815673174391
 30
0.0
 11
17132.16598508387
 21
22392.815673174391
 31
0.0
  0
LINE
  5
134A
  8
FUTO
 10
17140.16598508387
 20
22387.815673174398
 30
0.0
 11
17140.16598508387
 21
22392.815673174391
 31
0.0
  0
ARC
  5
134B
  8
FUTO
 10
17132.16598508387
 20
22398.815673174398
 30
0.0
 40
6.0
 50
180.0
 51
270.0
  0
LINE
  5
134C
  8
FUTO
 10
17320.16598508387
 20
22392.815673174391
 30
0.0
 11
17320.16598508387
 21
22387.815673174398
 31
0.0
  0
LINE
  5
1353
  8
FUTO
 10
17282.66598508387
 20
22542.815673174391
 30
0.0
 11
17282.66598508387
 21
23372.815673174398
 31
0.0
  0
LINE
  5
1354
  8
FUTO
 10
17177.66598508387
 20
22542.815673174391
 30
0.0
 11
17177.66598508387
 21
23372.815673174398
 31
0.0
  0
LINE
  5
1357
  8
CT
 10
17353.934744248581
 20
22465.315673174391
 30
0.0
 11
17100.342261181751
 21
22465.315673174391
 31
0.0
  0
LINE
  5
1358
  8
FUTO
 10
17334.16598508387
 20
22410.315673174398
 30
0.0
 11
17126.16598508387
 21
22410.315673174398
 31
0.0
  0
LINE
  5
1359
  8
FUTO
 10
17334.16598508387
 20
22520.315673174391
 30
0.0
 11
17126.16598508387
 21
22520.315673174391
 31
0.0
  0
ARC
  5
135A
  8
FUTO
 10
17328.16598508387
 20
22531.815673174391
 30
0.0
 40
6.0
 50
0.000000000000007
 51
90.0
  0
LINE
  5
135B
  8
CT
 10
17411.231899503498
 20
22465.315673174391
 30
0.0
 11
17021.23173155808
 21
22465.315673174391
 31
0.0
  0
LINE
  5
135F
  8
FUTO
 10
17328.16598508387
 20
22537.815673174391
 30
0.0
 11
17132.16598508387
 21
22537.815673174391
 31
0.0
  0
LINE
  5
1360
  8
FUTO
 10
17320.16598508387
 20
22542.815673174391
 30
0.0
 11
17140.16598508387
 21
22542.815673174391
 31
0.0
  0
LINE
  5
1362
  8
FUTO
 10
17126.16598508387
 20
22531.815673174391
 30
0.0
 11
17126.16598508387
 21
22520.315673174391
 31
0.0
  0
ARC
  5
1363
  8
FUTO
 10
17132.16598508387
 20
22531.815673174391
 30
0.0
 40
6.0
 50
90.0
 51
180.0
  0
LINE
  5
1364
  8
FUTO
 10
17140.16598508387
 20
22542.815673174391
 30
0.0
 11
17140.16598508387
 21
22537.815673174391
 31
0.0
  0
LINE
  5
1365
  8
FUTO
 10
17320.16598508387
 20
22537.815673174391
 30
0.0
 11
17320.16598508387
 21
22542.815673174391
 31
0.0
  0
LINE
  5
136A
  8
FUTO
 10
17360.16598508387
 20
23387.815673174398
 30
0.0
 11
17100.16598508387
 21
23387.815673174391
 31
0.0
  0
LINE
  5
136B
  8
CT
 10
17394.327564750081
 20
23466.315673174398
 30
0.0
 11
17052.457941905981
 21
23466.315673174398
 31
0.0
  0
LINE
  5
136C
  8
FUTO
 10
17360.16598508387
 20
23399.815673174398
 30
0.0
 11
17100.16598508387
 21
23399.815673174398
 31
0.0
  0
LINE
  5
136D
  8
FUTO
 10
17314.16598508387
 20
23372.815673174398
 30
0.0
 11
17337.66598508387
 21
23387.815673174398
 31
0.0
  0
LINE
  5
136E
  8
FUTO
 10
17100.16598508387
 20
23544.815673174391
 30
0.0
 11
17360.16598508387
 21
23544.815673174391
 31
0.0
  0
LINE
  5
136F
  8
FUTO
 10
17100.16598508387
 20
23532.815673174398
 30
0.0
 11
17360.165921889478
 21
23532.815673174398
 31
0.0
  0
LINE
  5
1370
  8
FUTO
 10
17360.16598508387
 20
23532.815673174398
 30
0.0
 11
17145.16598508387
 21
23532.815673174398
 31
0.0
  0
LINE
  5
1371
  8
FUTO
 10
17337.66598508387
 20
23544.815673174391
 30
0.0
 11
17314.16598508387
 21
23559.815673174398
 31
0.0
  0
LINE
  5
1372
  8
CT
 10
17438.936813164109
 20
23466.315673174391
 30
0.0
 11
16989.264509396518
 21
23466.315673174391
 31
0.0
  0
LINE
  5
137E
  8
FUTO
 10
17122.66598508387
 20
23387.815673174398
 30
0.0
 11
17146.16598508387
 21
23372.815673174398
 31
0.0
  0
LINE
  5
1381
  8
FUTO
 10
17100.16598508387
 20
23387.815673174398
 30
0.0
 11
17100.16598508387
 21
23391.315673174391
 31
0.0
  0
LINE
  5
1382
  8
FUTO
 10
17146.16598508387
 20
23372.815673174398
 30
0.0
 11
17314.16598508387
 21
23372.815673174398
 31
0.0
  0
LINE
  5
1384
  8
FUTO
 10
17146.16598508387
 20
23559.815673174398
 30
0.0
 11
17122.66598508387
 21
23544.815673174391
 31
0.0
  0
LINE
  5
1386
  8
FUTO
 10
17100.16598508387
 20
23541.315673174391
 30
0.0
 11
17100.16598508387
 21
23544.815673174391
 31
0.0
  0
LINE
  5
1387
  8
FUTO
 10
17314.16598508387
 20
23559.815673174398
 30
0.0
 11
17146.16598508387
 21
23559.815673174398
 31
0.0
  0
LINE
  5
13A3
  8
CT
 10
17230.16598508387
 20
23577.706011410719
 30
0.0
 11
17230.16598508387
 21
23687.048633286631
 31
0.0
  0
LINE
  5
13B2
  8
FUTO
 10
17177.66598508387
 20
23559.815673174398
 30
0.0
 11
17177.66598508387
 21
23712.315673174391
 31
0.0
  0
LINE
  5
13B4
  8
FUTO
 10
17282.66598508387
 20
23559.815673174398
 30
0.0
 11
17282.66598508387
 21
23712.315673174391
 31
0.0
  0
LINE
  5
13BE
  8
FUTO
 10
17378.16598508387
 20
23527.815673174391
 30
0.0
 11
17378.16598508387
 21
23404.815673174398
 31
0.0
  0
LINE
  5
13BF
  8
FUTO
 10
17360.16598508387
 20
23404.815673174398
 30
0.0
 11
17360.16598508387
 21
23387.815673174398
 31
0.0
  0
LINE
  5
13C0
  8
FUTO
 10
17378.16598508387
 20
23404.815673174398
 30
0.0
 11
17360.16598508387
 21
23404.815673174398
 31
0.0
  0
LINE
  5
13C1
  8
FUTO
 10
17360.16598508387
 20
23527.815673174391
 30
0.0
 11
17378.16598508387
 21
23527.815673174391
 31
0.0
  0
LINE
  5
13C2
  8
FUTO
 10
17360.16598508387
 20
23544.815673174391
 30
0.0
 11
17360.16598508387
 21
23527.815673174391
 31
0.0
  0
LINE
  5
13E1
  8
FUTO
 10
16850.16598508387
 20
21976.315673174391
 30
0.0
 11
16850.16598508387
 21
22326.315673174398
 31
0.0
  0
LINE
  5
13E2
  8
SL
 10
16950.16598508387
 20
22126.315673174398
 30
0.0
 11
16950.16598508387
 21
22296.315673174398
 31
0.0
  0
DIMENSION
  5
1417
  8
SP
  2
*D5
 10
22415.12890201966
 20
21344.630011860128
 30
0.0
 11
21190.12890201966
 21
21456.058583288701
 31
0.0
 70
     0
  1
(<>)
 13
19965.12890201966
 23
20211.45195855153
 33
0.0
 14
22415.12890201966
 24
21064.673833037519
 34
0.0
1001
ACAD
1000
DSTYLE
1002
{
1070
    40
1040
40.0
1002
}
  0
LINE
  5
1453
  8
FUTO
 10
17126.16598508387
 20
22531.815673174391
 30
0.0
 11
17126.16598508387
 21
22398.815673174398
 31
0.0
  0
LINE
  5
1454
  8
FUTO
 10
17082.16598508387
 20
23527.815673174391
 30
0.0
 11
17082.16598508387
 21
23404.815673174398
 31
0.0
  0
LINE
  5
1455
  8
FUTO
 10
17082.16598508387
 20
23404.815673174398
 30
0.0
 11
17100.16598508387
 21
23404.815673174398
 31
0.0
  0
LINE
  5
1456
  8
FUTO
 10
17100.16598508387
 20
23404.815673174398
 30
0.0
 11
17100.16598508387
 21
23387.815673174398
 31
0.0
  0
LINE
  5
1457
  8
FUTO
 10
17100.16598508387
 20
23544.815673174391
 30
0.0
 11
17100.16598508387
 21
23527.815673174391
 31
0.0
  0
LINE
  5
1458
  8
FUTO
 10
17100.16598508387
 20
23527.815673174391
 30
0.0
 11
17082.16598508387
 21
23527.815673174391
 31
0.0
  0
LINE
  5
1698
  8
FUTO
 10
20353.628902019671
 20
18461.45195855153
 30
0.0
 11
20353.62890201966
 21
18391.451958553389
 31
0.0
  0
LINE
  5
1699
  8
FUTO
 10
21053.628902019671
 20
18461.45195855153
 30
0.0
 11
21053.62890201966
 21
18391.451958553422
 31
0.0
  0
LINE
  5
169A
  8
FUTO
 10
20848.628902019671
 20
18461.45195855153
 30
0.0
 11
20353.628902019671
 21
18461.45195855153
 31
0.0
  0
LINE
  5
169B
  8
FUTO
 10
20353.62890201966
 20
18461.45195855153
 30
0.0
 11
21053.628902019671
 21
18461.45195855153
 31
0.0
  0
LINE
  5
16AB
  8
FUTO
 10
20290.12890201966
 20
18841.45195855153
 30
0.0
 11
20290.12890201966
 21
18641.45195855153
 31
0.0
  0
LINE
  5
16AC
  8
FUTO
 10
21524.12890201966
 20
19001.45195855153
 30
0.0
 11
21524.12890201966
 21
18523.303020469441
 31
0.0
  0
LINE
  5
16AD
  8
FUTO
 10
20310.12890201966
 20
19051.45195855153
 30
0.0
 11
20310.12890201966
 21
18475.22523507935
 31
0.0
  0
LINE
  5
16AE
  8
FUTO
 10
20389.12890201966
 20
19051.45195855153
 30
0.0
 11
20389.12890201966
 21
18475.22523507935
 31
0.0
  0
LINE
  5
16AF
  8
FUTO
 10
21274.12890201966
 20
19051.45195855153
 30
0.0
 11
21274.12890201966
 21
18473.303020469441
 31
0.0
  0
LINE
  5
16B0
  8
CT
 10
20703.62890201966
 20
19088.091326538161
 30
0.0
 11
20703.62890201966
 21
18369.503431534438
 31
0.0
  0
LINE
  5
16B1
  8
FUTO
 10
20848.628902019671
 20
18461.45195855153
 30
0.0
 11
20968.628902019671
 21
18461.45195855153
 31
0.0
  0
LINE
  5
16B2
  8
FUTO
 10
20438.62890201966
 20
18491.451958551519
 30
0.0
 11
20968.628902019671
 21
18491.451958551519
 31
0.0
  0
LINE
  5
16B3
  8
FUTO
 10
21274.12890201966
 20
18473.303020469441
 30
0.0
 11
21474.12890201966
 21
18473.303020469441
 31
0.0
  0
ARC
  5
16B4
  8
FUTO
 10
21474.12890201966
 20
18523.303020469441
 30
0.0
 40
50.0
 50
270.0
 51
0.0
  0
LINE
  5
16B5
  8
FUTO
 10
20968.628902019671
 20
18473.303020469441
 30
0.0
 11
21253.803684021499
 21
18473.303020469441
 31
0.0
  0
LINE
  5
16B6
  8
FUTO
 10
21274.12890201966
 20
18484.836308128892
 30
0.0
 11
21253.80368402151
 21
18473.303020469441
 31
0.0
  0
LINE
  5
16B7
  8
CT
 10
20932.12890201966
 20
18515.442710310472
 30
0.0
 11
20932.12890201966
 21
18444.96966822799
 31
0.0
  0
LINE
  5
16B8
  8
FUTO
 10
20968.628902019671
 20
18491.451958551519
 30
0.0
 11
20968.628902019671
 21
18461.45195855153
 31
0.0
  0
LINE
  5
16B9
  8
FUTO
 10
20848.628902019671
 20
18473.303020469441
 30
0.0
 11
20558.62890201966
 21
18473.303020469441
 31
0.0
  0
LINE
  5
16BA
  8
FUTO
 10
20848.628902019671
 20
18473.303020469441
 30
0.0
 11
20848.628902019671
 21
18461.45195855153
 31
0.0
  0
LINE
  5
16BB
  8
FUTO
 10
20438.62890201966
 20
18491.451958551519
 30
0.0
 11
20438.62890201966
 21
18461.45195855153
 31
0.0
  0
LINE
  5
16BC
  8
CT
 10
20475.128902019671
 20
18515.442710310472
 30
0.0
 11
20475.128902019671
 21
18444.96966822799
 31
0.0
  0
LINE
  5
16BD
  8
FUTO
 10
20438.62890201966
 20
18475.22523507935
 30
0.0
 11
20310.12890201966
 21
18475.22523507935
 31
0.0
  0
LINE
  5
16BE
  8
FUTO
 10
20558.62890201966
 20
18473.303020469441
 30
0.0
 11
20558.62890201966
 21
18461.45195855153
 31
0.0
  0
LINE
  5
16BF
  8
FUTO
 10
20438.62890201966
 20
18461.45195855153
 30
0.0
 11
20558.62890201966
 21
18461.45195855153
 31
0.0
  0
LINE
  5
16C0
  8
FUTO
 10
20310.12890201966
 20
18641.45195855153
 30
0.0
 11
20290.12890201966
 21
18641.45195855153
 31
0.0
  0
LINE
  5
16C1
  8
FUTO
 10
21252.734075854089
 20
19051.45195855153
 30
0.0
 11
20310.12890201966
 21
19051.45195855153
 31
0.0
  0
LINE
  5
16C2
  8
CT
 10
21560.771667484099
 20
18741.45195855153
 30
0.0
 11
20088.980071180271
 21
18741.45195855153
 31
0.0
  0
LINE
  5
16C3
  8
FUTO
 10
21474.12890201966
 20
19051.45195855153
 30
0.0
 11
21274.12890201966
 21
19051.45195855153
 31
0.0
  0
ARC
  5
16C4
  8
FUTO
 10
21474.12890201966
 20
19001.45195855153
 30
0.0
 40
50.0
 50
0.0
 51
90.0
  0
LINE
  5
16C5
  8
FUTO
 10
21274.12890201966
 20
19026.90082812278
 30
0.0
 11
21252.734075854089
 21
19051.45195855153
 31
0.0
  0
LINE
  5
16C6
  8
FUTO
 10
20290.12890201966
 20
18783.951958551519
 30
0.0
 11
20115.12890201966
 21
18783.951958551519
 31
0.0
  0
LINE
  5
16C7
  8
FUTO
 10
20290.12890201966
 20
18698.95195855153
 30
0.0
 11
20115.12890201966
 21
18698.95195855153
 31
0.0
  0
LINE
  5
16C8
  8
CT
 10
20499.12890201966
 20
19374.82167251602
 30
0.0
 11
20499.12890201966
 21
18975.96214096023
 31
0.0
  0
LINE
  5
16C9
  8
FUTO
 10
20310.12890201966
 20
18841.45195855153
 30
0.0
 11
20290.12890201966
 21
18841.45195855153
 31
0.0
  0
LINE
  5
16CA
  8
FUTO
 10
20599.12890201966
 20
19331.45195855153
 30
0.0
 11
20399.12890201966
 21
19331.45195855153
 31
0.0
  0
LINE
  5
16CB
  8
FUTO
 10
20599.12890201966
 20
19066.45195855153
 30
0.0
 11
20399.12890201966
 21
19066.45195855153
 31
0.0
  0
LINE
  5
16CC
  8
CT
 10
20662.99482920604
 20
19191.45195855153
 30
0.0
 11
20360.85863982153
 21
19191.45195855153
 31
0.0
  0
LINE
  5
16CD
  8
FUTO
 10
20619.12890201966
 20
19311.45195855153
 30
0.0
 11
20619.12890201966
 21
19086.45195855153
 31
0.0
  0
ARC
  5
16CE
  8
FUTO
 10
20599.12890201966
 20
19086.45195855153
 30
0.0
 40
20.0
 50
270.0
 51
0.0
  0
ARC
  5
16CF
  8
FUTO
 10
20599.12890201966
 20
19311.45195855153
 30
0.0
 40
20.0
 50
0.0
 51
90.0
  0
LINE
  5
16D0
  8
FUTO
 10
20379.12890201966
 20
19311.45195855153
 30
0.0
 11
20379.12890201966
 21
19086.45195855153
 31
0.0
  0
ARC
  5
16D1
  8
FUTO
 10
20399.12890201966
 20
19086.45195855153
 30
0.0
 40
20.0
 50
180.0
 51
270.0
  0
ARC
  5
16D2
  8
FUTO
 10
20399.12890201966
 20
19311.45195855153
 30
0.0
 40
20.0
 50
90.0
 51
180.0
  0
LINE
  5
16D3
  8
FUTO
 10
20285.12890201966
 20
18783.951958551519
 30
0.0
 11
20285.12890201966
 21
18698.95195855153
 31
0.0
  0
LINE
  5
16D4
  8
FUTO
 10
20115.12890201966
 20
18783.951958551519
 30
0.0
 11
20115.12890201966
 21
18698.95195855153
 31
0.0
  0
LINE
  5
17EE
  8
FUTO
 10
18420.16598508391
 20
23263.920847008842
 30
0.0
 11
18420.165985083881
 21
22321.315673174409
 31
0.0
  0
LINE
  5
17EF
  8
CT
 10
18730.165985083931
 20
23571.958438638831
 30
0.0
 11
18730.16598508387
 21
22100.166842335009
 31
0.0
  0
LINE
  5
17F0
  8
FUTO
 10
19040.16598508391
 20
23263.92084700882
 30
0.0
 11
19040.165985083881
 21
22321.315673174391
 31
0.0
  0
LINE
  5
17F1
  8
FUTO
 10
18520.165985083881
 20
22390.315673174409
 30
0.0
 11
18910.165985083881
 21
22390.315673174391
 31
0.0
  0
LINE
  5
17F2
  8
CT
 10
18938.478844461199
 20
22510.315673174391
 30
0.0
 11
18475.496205446681
 21
22510.315673174409
 31
0.0
  0
LINE
  5
17F3
  8
CT
 10
19076.805353070529
 20
22714.81567317438
 30
0.0
 11
18358.217458066811
 21
22714.815673174409
 31
0.0
  0
LINE
  5
17F4
  8
FUTO
 10
19040.165985083881
 20
22321.315673174391
 30
0.0
 11
18420.165985083881
 21
22321.315673174409
 31
0.0
  0
LINE
  5
17F5
  8
FUTO
 10
18830.165985083881
 20
22301.315673174398
 30
0.0
 11
18630.165985083881
 21
22301.315673174409
 31
0.0
  0
LINE
  5
17F6
  8
FUTO
 10
18520.165985083891
 20
22630.315673174409
 30
0.0
 11
18910.165985083891
 21
22630.315673174391
 31
0.0
  0
LINE
  5
17F7
  8
FUTO
 10
19099.510373926791
 20
22364.81567317438
 30
0.0
 11
19099.51037392682
 21
23064.815673174391
 31
0.0
  0
LINE
  5
17F8
  8
FUTO
 10
18930.165985083891
 20
22610.315673174391
 30
0.0
 11
18930.165985083881
 21
22510.315673174391
 31
0.0
  0
LINE
  5
17F9
  8
CT
 10
18730.16598508379
 20
21954.864717004311
 30
0.0
 11
18730.165985084379
 21
23213.271113120489
 31
0.0
  0
LINE
  5
17FA
  8
FUTO
 10
19040.165985083881
 20
22364.81567317438
 30
0.0
 11
19099.510373926791
 21
22364.81567317438
 31
0.0
  0
LINE
  5
17FE
  8
FUTO
 10
18687.665985083881
 20
22301.315673174398
 30
0.0
 11
18687.66598508387
 21
22126.315673174398
 31
0.0
  0
LINE
  5
17FF
  8
FUTO
 10
18772.665985083881
 20
22301.315673174398
 30
0.0
 11
18772.66598508387
 21
22126.315673174398
 31
0.0
  0
LINE
  5
1802
  8
FUTO
 10
18772.66598508387
 20
22126.315673174398
 30
0.0
 11
18687.66598508387
 21
22126.315673174398
 31
0.0
  0
ARC
  5
1804
  8
FUTO
 10
18910.165985083881
 20
22410.315673174391
 30
0.0
 40
20.0
 50
270.0
 51
0.000000000000007
  0
LINE
  5
1805
  8
FUTO
 10
18930.165985083881
 20
22410.315673174391
 30
0.0
 11
18930.165985083881
 21
22510.315673174391
 31
0.0
  0
LINE
  5
1806
  8
FUTO
 10
19040.165985083881
 20
22400.31567317438
 30
0.0
 11
18927.486493159569
 21
22400.315673174391
 31
0.0
  0
LINE
  5
1807
  8
FUTO
 10
18772.665985083881
 20
22296.315673174398
 30
0.0
 11
18687.665985083881
 21
22296.315673174398
 31
0.0
  0
LINE
  5
1808
  8
FUTO
 10
18830.165985083881
 20
22321.315673174398
 30
0.0
 11
18830.165985083881
 21
22301.315673174391
 31
0.0
  0
LINE
  5
1809
  8
FUTO
 10
19040.165985083899
 20
23064.815673174391
 30
0.0
 11
19099.51037392682
 21
23064.815673174391
 31
0.0
  0
ARC
  5
180A
  8
FUTO
 10
18910.165985083891
 20
22610.315673174391
 30
0.0
 40
20.0
 50
0.000000000000007
 51
90.0
  0
LINE
  5
180B
  8
FUTO
 10
18360.82159624097
 20
22364.815673174409
 30
0.0
 11
18360.821596240989
 21
23064.815673174409
 31
0.0
  0
LINE
  5
180C
  8
FUTO
 10
18500.165985083891
 20
22610.315673174409
 30
0.0
 11
18500.165985083881
 21
22510.315673174409
 31
0.0
  0
LINE
  5
180F
  8
FUTO
 10
18502.845477008199
 20
22400.315673174409
 30
0.0
 11
18420.165985083881
 21
22400.315673174409
 31
0.0
  0
LINE
  5
1810
  8
CT
 10
18455.59443012968
 20
22486.315673174409
 30
0.0
 11
18385.12138804721
 21
22486.315673174409
 31
0.0
  0
ARC
  5
1811
  8
FUTO
 10
18520.165985083881
 20
22410.315673174409
 30
0.0
 40
20.0
 50
180.0
 51
270.0
  0
LINE
  5
1812
  8
FUTO
 10
18500.165985083881
 20
22410.315673174409
 30
0.0
 11
18500.165985083881
 21
22510.315673174409
 31
0.0
  0
LINE
  5
1813
  8
FUTO
 10
18630.165985083881
 20
22321.315673174398
 30
0.0
 11
18630.165985083881
 21
22301.315673174409
 31
0.0
  0
LINE
  5
1814
  8
FUTO
 10
18420.165985083881
 20
22364.815673174409
 30
0.0
 11
18360.82159624097
 21
22364.815673174409
 31
0.0
  0
ARC
  5
1815
  8
FUTO
 10
18520.165985083891
 20
22610.315673174409
 30
0.0
 40
20.0
 50
90.0
 51
180.0
  0
LINE
  5
1816
  8
CT
 10
18455.594430129699
 20
22943.315673174409
 30
0.0
 11
18385.121388047231
 21
22943.315673174409
 31
0.0
  0
LINE
  5
1817
  8
FUTO
 10
18420.165985083899
 20
23064.815673174409
 30
0.0
 11
18360.821596240989
 21
23064.815673174409
 31
0.0
  0
LINE
  5
181A
  8
FUTO
 10
19040.16598508391
 20
23285.31567317438
 30
0.0
 11
18420.16598508391
 21
23285.315673174409
 31
0.0
  0
LINE
  5
181B
  8
FUTO
 10
18990.165985083931
 20
23535.315673174391
 30
0.0
 11
18470.165985083931
 21
23535.315673174398
 31
0.0
  0
LINE
  5
181F
  8
FUTO
 10
19015.614854655159
 20
23285.315673174391
 30
0.0
 11
19040.16598508391
 21
23263.92084700882
 31
0.0
  0
ARC
  5
1820
  8
FUTO
 10
18990.165985083921
 20
23485.315673174391
 30
0.0
 40
50.0
 50
0.000000000000007
 51
90.0
  0
LINE
  5
1821
  8
FUTO
 10
19040.165985083921
 20
23485.31567317438
 30
0.0
 11
19040.16598508391
 21
23285.31567317438
 31
0.0
  0
ARC
  5
1824
  8
FUTO
 10
18470.165985083921
 20
23485.315673174398
 30
0.0
 40
50.0
 50
90.0
 51
180.0
  0
LINE
  5
1825
  8
FUTO
 10
18444.71711551266
 20
23285.315673174409
 30
0.0
 11
18420.16598508391
 21
23263.920847008842
 31
0.0
  0
LINE
  5
1826
  8
FUTO
 10
18420.165985083921
 20
23485.315673174409
 30
0.0
 11
18420.16598508391
 21
23285.315673174409
 31
0.0
  0
LINE
  5
1827
  8
FUTO
 10
19170.16598508387
 20
22390.315673174391
 30
0.0
 11
19170.16598508387
 21
22315.315673174391
 31
0.0
  0
LINE
  5
1828
  8
FUTO
 10
18994.045899528712
 20
23687.315673174398
 30
0.0
 11
18994.045899528712
 21
23535.164908513569
 31
0.0
  0
LINE
  5
1829
  8
FUTO
 10
18466.286070639209
 20
23687.315673174518
 30
0.0
 11
18466.28607063914
 21
23535.164908513689
 31
0.0
  0
LINE
  5
182A
  8
FUTO
 10
18541.286070639209
 20
23687.315673174478
 30
0.0
 11
18541.28607063914
 21
23535.315673174478
 31
0.0
  0
LINE
  5
182B
  8
SL
 10
18930.16598508387
 20
22126.315673174398
 30
0.0
 11
18930.16598508387
 21
22296.315673174398
 31
0.0
  0
LINE
  5
182D
  8
FUTO
 10
19010.16598508387
 20
21976.315673174398
 30
0.0
 11
19010.16598508387
 21
22326.315673174391
 31
0.0
  0
LINE
  5
182F
  8
FUTO
 10
16888.11755925983
 20
22390.315673174391
 30
0.0
 11
16888.11755925983
 21
23712.315673174391
 31
0.0
  0
LINE
  5
1830
  8
FUTO
 10
17572.214410907909
 20
22390.315673174391
 30
0.0
 11
17572.214410907909
 21
23712.315673174391
 31
0.0
  0
LINE
  5
1832
  8
FUTO
 10
18195.16598508387
 20
25221.315673174391
 30
0.0
 11
16265.16598508387
 21
25221.315673174398
 31
0.0
  0
LINE
  5
1833
  8
FUTO
 10
18195.16598508387
 20
25215.315673174398
 30
0.0
 11
16265.16598508387
 21
25215.315673174398
 31
0.0
  0
LINE
  5
1834
  8
KL
 10
18195.16598508387
 20
25095.515673174388
 30
0.0
 11
16265.16598508387
 21
25095.515673174399
 31
0.0
  0
LINE
  5
1839
  8
KL
 10
16330.16598508387
 20
25089.515673174388
 30
0.0
 11
16330.16598508387
 21
25221.315673174398
 31
0.0
  0
LINE
  5
183A
  8
KL
 10
16324.16598508387
 20
25089.515673174388
 30
0.0
 11
16324.16598508387
 21
25179.515673174399
 31
0.0
  0
LINE
  5
183B
  8
KL
 10
16265.16598508387
 20
25089.515673174388
 30
0.0
 11
16265.16598508387
 21
25095.515673174399
 31
0.0
  0
LINE
  5
183C
  8
HOSO
 10
16290.16598508387
 20
25046.981663563482
 30
0.0
 11
16290.16598508387
 21
25121.089278711741
 31
0.0
  0
LINE
  5
183D
  8
HOSO
 10
16290.16598508387
 20
25187.833126988371
 30
0.0
 11
16290.16598508387
 21
25261.94074213663
 31
0.0
  0
LINE
  5
183E
  8
FUTO
 10
16265.16598508387
 20
25215.315673174398
 30
0.0
 11
16265.16598508387
 21
25221.315673174398
 31
0.0
  0
LINE
  5
183F
  8
FUTO
 10
16324.16598508387
 20
25179.515673174399
 30
0.0
 11
16324.16598508387
 21
25221.315673174398
 31
0.0
  0
INSERT
  5
185B
  8
FUTO
  2
まっすぐの矢印
 10
17715.71228793298
 20
25416.788825744901
 30
0.0
 41
-2.0
 42
2.0
 43
2.0
 50
180.0
  0
LINE
  5
185D
  8
KL
 10
18130.16598508387
 20
25089.515673174388
 30
0.0
 11
18130.16598508387
 21
25221.315673174398
 31
0.0
  0
LINE
  5
185E
  8
FUTO
 10
18136.16598508387
 20
25154.515673174399
 30
0.0
 11
18136.16598508387
 21
25221.315673174398
 31
0.0
  0
LINE
  5
185F
  8
KL
 10
18136.16598508387
 20
25089.515673174388
 30
0.0
 11
18136.16598508387
 21
25154.515673174399
 31
0.0
  0
LINE
  5
1860
  8
KL
 10
18195.16598508387
 20
25095.515673174388
 30
0.0
 11
18195.16598508387
 21
25089.515673174388
 31
0.0
  0
LINE
  5
1861
  8
HOSO
 10
18170.16598508387
 20
25060.577703366402
 30
0.0
 11
18170.16598508387
 21
25120.408052196472
 31
0.0
  0
LINE
  5
1862
  8
HOSO
 10
18170.16598508387
 20
25188.647896614711
 30
0.0
 11
18170.16598508387
 21
25248.478245444789
 31
0.0
  0
LINE
  5
1863
  8
FUTO
 10
18195.16598508387
 20
25215.315673174398
 30
0.0
 11
18195.16598508387
 21
25221.315673174398
 31
0.0
  0
LINE
  5
1891
  8
KL
 10
18041.048674346901
 20
19842.078158551529
 30
0.0
 11
17430.16598508387
 21
19842.078158551529
 31
0.0
  0
LINE
  5
1892
  8
KL
 10
18066.138185388008
 20
19824.078158551529
 30
0.0
 11
17430.16598508387
 21
19824.078158551521
 31
0.0
  0
LINE
  5
1893
  8
FUTO
 10
18280.16598508387
 20
18884.70531974241
 30
0.0
 11
18280.16598508387
 21
18393.078158551529
 31
0.0
  0
LINE
  5
1894
  8
FUTO
 10
18271.16598508387
 20
18888.38870972308
 30
0.0
 11
18271.16598508387
 21
18393.078158551529
 31
0.0
  0
LINE
  5
1895
  8
KL
 10
18289.16598508387
 20
19520.85536778707
 30
0.0
 11
18289.16598508387
 21
18673.061130311449
 31
0.0
  0
LINE
  5
1896
  8
KL
 10
18280.16598508387
 20
19529.015145387672
 30
0.0
 11
18280.16598508387
 21
18884.70531974241
 31
0.0
  0
LINE
  5
1897
  8
KL
 10
18271.16598508387
 20
19537.17492298827
 30
0.0
 11
18271.16598508387
 21
18888.38870972308
 31
0.0
  0
DIMENSION
  5
18AD
  8
SP
  2
*D6
 10
19220.16598508387
 20
21343.516500702699
 30
0.0
 11
18225.16598508387
 21
21423.516500702699
 31
0.0
 70
     0
 13
17230.16598508387
 23
21179.461410541211
 33
0.0
 14
19220.16598508387
 24
20998.078158551529
 34
0.0
1001
ACAD
1000
DSTYLE
1002
{
1070
    40
1040
40.0
1002
}
  0
DIMENSION
  5
1923
  8
SP
  2
*D8
 10
15522.85322812807
 20
24426.315673174391
 30
0.0
 11
15522.85322812807
 21
24813.765561928209
 31
0.0
 70
   128
 13
16265.16598508387
 23
25221.315673174398
 33
0.0
 14
15577.93154137495
 24
24426.315673174391
 34
0.0
 50
90.0
1001
ACAD
1000
DSTYLE
1002
{
1070
    40
1040
40.0
1002
}
  0
DIMENSION
  5
1930
  8
SP
  2
*D9
 10
15522.85322812808
 20
21976.315673174391
 30
0.0
 11
15522.85322812807
 21
23123.898867146749
 31
0.0
 70
   128
 13
15645.179719593751
 23
24426.315673174391
 33
0.0
 14
16850.16598508387
 24
21976.315673174391
 34
0.0
 50
90.0
1001
ACAD
1000
DSTYLE
1002
{
1070
    40
1040
40.0
1002
}
  0
LINE
  5
19B8
  8
KL
 10
20364.12890201966
 20
19051.45195855153
 30
0.0
 11
20364.12890201966
 21
18393.078141945542
 31
0.0
  0
LINE
  5
1AEA
  8
FUTO
 10
15892.53387694987
 20
19842.078158551529
 30
0.0
 11
16750.25036750095
 21
19842.078158551529
 31
0.0
  0
LINE
  5
1AEB
  8
FUTO
 10
15892.53387694987
 20
19824.078158551521
 30
0.0
 11
16750.25036750095
 21
19824.078158551529
 31
0.0
  0
LINE
  5
1AEC
  8
KL
 10
16750.25036750095
 20
19842.078158551529
 30
0.0
 11
17030.16598508387
 21
19842.078158551529
 31
0.0
  0
LINE
  5
1AED
  8
KL
 10
16750.25036750095
 20
19824.078158551529
 30
0.0
 11
17030.16598508387
 21
19824.078158551521
 31
0.0
  0
LINE
  5
1AEE
  8
KL
 10
17030.16598508387
 20
19842.078158551529
 30
0.0
 11
17030.16598508387
 21
19824.078158551521
 31
0.0
  0
LINE
  5
1AF1
  8
FUTO
 10
15892.53387694987
 20
19824.078158551521
 30
0.0
 11
15892.53387694987
 21
19842.078158551529
 31
0.0
  0
LINE
  5
1AF2
  8
KL
 10
16888.11755925983
 20
19711.078158551521
 30
0.0
 11
16843.871842077129
 21
19548.162670943901
 31
0.0
  0
LINE
  5
1AF3
  8
KL
 10
17572.214410907909
 20
19711.078158551521
 30
0.0
 11
17773.949129316308
 21
18968.278355325721
 31
0.0
  0
LINE
  5
1AF4
  8
FUTO
 10
16189.16598508387
 20
19842.078158551529
 30
0.0
 11
16189.16598508387
 21
20482.691308023372
 31
0.0
  0
LINE
  5
1AF5
  8
FUTO
 10
16180.16598508387
 20
19842.078158551529
 30
0.0
 11
16180.16598508387
 21
20471.538771668129
 31
0.0
  0
LINE
  5
1AF6
  8
FUTO
 10
17552.571830334131
 20
20188.682532749131
 30
0.0
 11
18918.236061479849
 21
18950.51404350013
 31
0.0
  0
LINE
  5
1AF7
  8
SL
 10
18860.849590053371
 20
18894.47761493158
 30
0.0
 11
17462.129383904739
 21
20101.812193626109
 31
0.0
  0
LINE
  5
1AF8
  8
SL
 10
18626.532204145082
 20
18572.02249670916
 30
0.0
 11
17046.216023917521
 21
19529.45435878132
 31
0.0
  0
LINE
  5
1AF9
  8
FUTO
 10
16991.52733683195
 20
19416.60295453513
 30
0.0
 11
18590.96010693692
 21
18500.134289541958
 31
0.0
  0
LINE
  5
1AFA
  8
FUTO
 10
18289.16598508387
 20
18673.061130311449
 30
0.0
 11
18289.16598508387
 21
18555.048361816349
 31
0.0
  0
LINE
  5
1AFC
  8
FUTO
 10
21686.928902019659
 20
20996.45195855153
 30
0.0
 11
23143.328902020061
 21
20996.45195855153
 31
0.0
  0
LINE
  5
1AFD
  8
FUTO
 10
21686.928902019659
 20
20931.45195855153
 30
0.0
 11
23143.328902020039
 21
20931.45195855153
 31
0.0
  0
LINE
  5
1AFE
  8
FUTO
 10
21686.928902019659
 20
20990.45195855153
 30
0.0
 11
23143.328902020061
 21
20990.45195855153
 31
0.0
  0
LINE
  5
1B50
  8
FUTO
 10
17301.16598508387
 20
23762.315673174391
 30
0.0
 11
17301.16598508387
 21
25095.515673174399
 31
0.0
  0
LINE
  5
1B51
  8
FUTO
 10
17232.16598508387
 20
23697.315673174391
 30
0.0
 11
17232.16598508387
 21
25155.315673174391
 31
0.0
  0
LINE
  5
1B53
  8
FUTO
 10
19155.16598508387
 20
23762.315673174398
 30
0.0
 11
19155.16598508387
 21
25090.315673174391
 31
0.0
  0
LINE
  5
1B5E
  8
FUTO
 10
16843.871842077129
 20
19548.162670943901
 30
0.0
 11
16530.16598508387
 21
18393.078158551529
 31
0.0
  0
LINE
  5
1B5F
  8
FUTO
 10
17773.949129316308
 20
18968.278355325721
 30
0.0
 11
17930.16598508387
 21
18393.078158551529
 31
0.0
  0
ARC
  5
1B60
  8
FUTO
 10
17361.16598508387
 20
19964.078158551529
 30
0.0
 40
1705.0
 50
327.76533956188922
 51
355.59345949274302
  0
DIMENSION
  5
1B6B
  8
SP
  2
*D17
 10
15520.756895878279
 20
19833.078158551521
 30
0.0
 11
15440.756895878279
 21
19038.078158551529
 31
0.0
 70
     0
 13
16170.16598508387
 23
18243.078158551521
 33
0.0
 14
15684.811986039769
 24
19833.078158551521
 34
0.0
 50
90.0
1001
ACAD
1000
DSTYLE
1002
{
1070
    40
1040
40.0
1002
}
  0
DIMENSION
  5
1B78
  8
SP
  2
*D18
 10
15520.756895878279
 20
20998.078158551529
 30
0.0
 11
15440.756895878279
 21
20415.578158551529
 31
0.0
 70
     0
 13
15684.811986039769
 23
19833.078158551521
 33
0.0
 14
17232.16598508387
 24
20998.078158551529
 34
0.0
 50
90.0
1001
ACAD
1000
DSTYLE
1002
{
1070
    40
1040
40.0
1002
}
  0
DIMENSION
  5
1BA9
  8
SP
  2
*D19
 10
15888.16598508387
 20
25693.303311103518
 30
0.0
 11
16559.16598508387
 21
25773.303311103518
 31
0.0
 70
     0
 13
17230.16598508387
 23
25420.31097634662
 33
0.0
 14
15888.16598508387
 24
25140.315673174391
 34
0.0
1001
ACAD
1000
DSTYLE
1002
{
1070
    40
1040
40.0
1002
}
  0
DIMENSION
  5
1BB6
  8
SP
  2
*D20
 10
19220.16598508387
 20
25693.303311103518
 30
0.0
 11
18225.16598508387
 21
25773.303311103518
 31
0.0
 70
     0
 13
17230.16598508387
 23
25420.31097634662
 33
0.0
 14
19220.16598508387
 24
25155.315673174391
 34
0.0
1001
ACAD
1000
DSTYLE
1002
{
1070
    40
1040
40.0
1002
}
  0
LINE
  5
1BD5
  8
SL
 10
17301.16598508387
 20
25090.315673174391
 30
0.0
 11
19155.16598508387
 21
23762.315673174398
 31
0.0
  0
LINE
  5
1BD6
  8
SL
 10
19155.16598508387
 20
25090.315673174391
 30
0.0
 11
17301.16598508387
 21
23762.315673174391
 31
0.0
  0
TEXT
  5
234E
  8
SP
 10
39538.511017538432
 20
25312.185109014121
 30
0.0
 40
100.0
  1
 
  0
LINE
  5
234F
  8
4
 10
23919.817868058552
 20
15738.16489467549
 30
0.0
 11
23919.817868058552
 21
14538.16489467549
 31
0.0
  0
LINE
  5
2350
  8
4
 10
19719.817868058541
 20
15738.16489467549
 30
0.0
 11
19719.817868058541
 21
14538.16489467549
 31
0.0
  0
LINE
  5
2351
  8
4
 10
16719.817868058541
 20
15738.16489467549
 30
0.0
 11
16719.817868058541
 21
14538.16489467549
 31
0.0
  0
LINE
  5
2354
  8
4
 10
16719.817868058541
 20
14538.16489467549
 30
0.0
 11
23919.817868058552
 21
14538.16489467549
 31
0.0
  0
LINE
  5
2355
  8
4
 10
16719.817868058541
 20
15138.16489467549
 30
0.0
 11
23919.817868058552
 21
15138.16489467549
 31
0.0
  0
TEXT
  5
2356
  8
4
 10
16950.830353139962
 20
15327.423049875169
 30
0.0
 40
300.0
  1
機器名称
  0
TEXT
  5
2357
  8
4
 10
16937.36650420733
 20
14668.03583506756
 30
0.0
 40
300.0
  1
機器型番
  0
TEXT
  5
2358
  8
4
 10
19748.576238264799
 20
15271.28870881717
 30
0.0
 40
270.0
  1
ミツヤリミットロードファン
  0
TEXT
  5
2359
  8
4
 10
19939.744841571439
 20
14641.122400355151
 30
0.0
 40
300.0
  1
LL#11-1
  0
TEXT
  5
235B
  8
4
 10
14716.823428035221
 20
27941.450751871282
 30
0.0
 40
432.0
  1
遠心式片吸込片持リミットロードファン
  0
LINE
  5
235C
  8
4
 10
14319.817868058541
 20
27554.61742026432
 30
0.0
 11
23919.817868058552
 21
27554.61742026432
 31
0.0
  0
LINE
  5
235D
  8
4
 10
14319.817868058541
 20
28754.61742026432
 30
0.0
 11
23919.817868058552
 21
28754.61742026432
 31
0.0
  0
LINE
  5
235E
  8
4
 10
16719.817868058541
 20
15738.16489467549
 30
0.0
 11
23919.817868058552
 21
15738.16489467549
 31
0.0
  0
LINE
  5
235F
  8
4
 10
14319.817868058541
 20
28754.61742026432
 30
0.0
 11
14319.817868058541
 21
27554.61742026432
 31
0.0
  0
TEXT
  5
2360
  8
4
 10
14854.85896496498
 20
27032.081759953559
 30
0.0
 40
323.99999999999989
  1
左回転上向
  0
TEXT
  5
2361
  8
4
 10
21633.635223554291
 20
28974.531383647351
 30
0.0
 40
336.00000000000011
  1
No.
  0
TEXT
  5
2362
  8
4
 10
21597.96432678038
 20
26179.56777318989
 30
0.0
 40
323.99999999999989
  1
縮尺：1/60
  0
LINE
  5
2363
  8
4
 10
23919.817868058552
 20
28754.61742026432
 30
0.0
 11
23919.817868058552
 21
27554.61742026432
 31
0.0
  0
LINE
  5
2364
  8
4
 10
25419.817868058552
 20
30438.16489467549
 30
0.0
 11
25419.817868058552
 21
30438.16489467549
 31
0.0
  0
LINE
  5
2365
  8
4
 10
21463.522402217732
 20
28825.7463934279
 30
0.0
 11
21463.522402217732
 21
29458.078463974001
 31
0.0
  0
LINE
  5
2366
  8
4
 10
21463.522402217732
 20
29458.078463974001
 30
0.0
 11
23919.817868058552
 21
29458.078463974001
 31
0.0
  0
LINE
  5
2367
  8
4
 10
23919.817868058552
 20
29458.078463974001
 30
0.0
 11
23919.817868058552
 21
28825.7463934279
 31
0.0
  0
LINE
  5
2368
  8
4
 10
23919.817868058552
 20
28825.7463934279
 30
0.0
 11
21463.522402217732
 21
28825.7463934279
 31
0.0
  0
LINE
  5
2369
  8
4
 10
12819.817868058541
 20
12738.16489467549
 30
0.0
 11
12819.817868058541
 21
30438.16489467549
 31
0.0
  0
LINE
  5
236A
  8
4
 10
12819.817868058541
 20
30438.16489467549
 30
0.0
 11
25419.817868058552
 21
30438.16489467549
 31
0.0
  0
LINE
  5
236B
  8
4
 10
25419.817868058552
 20
30438.16489467549
 30
0.0
 11
25419.817868058552
 21
12738.16489467549
 31
0.0
  0
LINE
  5
236C
  8
4
 10
25419.817868058552
 20
12738.16489467549
 30
0.0
 11
12819.817868058541
 21
12738.16489467549
 31
0.0
  0
TEXT
  5
236D
  8
4
 10
17931.594752151701
 20
27032.151684601929
 30
0.0
 40
323.99999999999989
  1
床置防振ベット
  0
ENDSEC
  0
EOF
