  0
SECTION
  2
HEADER
  9
$ACADVER
  1
AC1009
  9
$INSBASE
 10
0.0
 20
0.0
 30
0.0
  9
$EXTMIN
 10
15778.54427511113
 20
12701.60026370655
 30
0.0
  9
$EXTMAX
 10
28378.54427511113
 20
30401.60026370655
 30
0.0
  9
$LIMMIN
 10
0.0
 20
0.0
  9
$LIMMAX
 10
297.0
 20
210.0
  9
$ORTHOMODE
 70
     0
  9
$REGENMODE
 70
     1
  9
$FILLMODE
 70
     1
  9
$QTEXTMODE
 70
     0
  9
$MIRRTEXT
 70
     0
  9
$DRAGMODE
 70
     2
  9
$LTSCALE
 40
200.0
  9
$OSMODE
 70
    37
  9
$ATTMODE
 70
     1
  9
$TEXTSIZE
 40
150.0
  9
$TRACEWID
 40
0.05
  9
$TEXTSTYLE
  7
STANDARD
  9
$CLAYER
  8
SP
  9
$CELTYPE
  6
BYLAYER
  9
$CECOLOR
 62
   256
  9
$DIMSCALE
 40
40.0
  9
$DIMASZ
 40
2.0
  9
$DIMEXO
 40
1.0
  9
$DIMDLI
 40
10.0
  9
$DIMRND
 40
0.0
  9
$DIMDLE
 40
0.0
  9
$DIMEXE
 40
1.0
  9
$DIMTP
 40
0.0
  9
$DIMTM
 40
0.0
  9
$DIMTXT
 40
3.0
  9
$DIMCEN
 40
0.0
  9
$DIMTSZ
 40
0.0
  9
$DIMTOL
 70
     0
  9
$DIMLIM
 70
     0
  9
$DIMTIH
 70
     0
  9
$DIMTOH
 70
     0
  9
$DIMSE1
 70
     0
  9
$DIMSE2
 70
     0
  9
$DIMTAD
 70
     1
  9
$DIMZIN
 70
     8
  9
$DIMBLK
  1

  9
$DIMASO
 70
     1
  9
$DIMSHO
 70
     1
  9
$DIMPOST
  1

  9
$DIMAPOST
  1

  9
$DIMALT
 70
     0
  9
$DIMALTD
 70
     2
  9
$DIMALTF
 40
0.03937
  9
$DIMLFAC
 40
1.0
  9
$DIMTOFL
 70
     1
  9
$DIMTVP
 40
0.0
  9
$DIMTIX
 70
     0
  9
$DIMSOXD
 70
     0
  9
$DIMSAH
 70
     1
  9
$DIMBLK1
  1
OPEN
  9
$DIMBLK2
  1
OPEN
  9
$DIMSTYLE
  2
MATSU
  9
$DIMCLRD
 70
   256
  9
$DIMCLRE
 70
   256
  9
$DIMCLRT
 70
   256
  9
$DIMTFAC
 40
1.0
  9
$DIMGAP
 40
0.5
  9
$LUNITS
 70
     2
  9
$LUPREC
 70
     3
  9
$SKETCHINC
 40
0.1
  9
$FILLETRAD
 40
7.0
  9
$AUNITS
 70
     0
  9
$AUPREC
 70
     2
  9
$MENU
  1
acad
  9
$ELEVATION
 40
0.0
  9
$PELEVATION
 40
0.0
  9
$THICKNESS
 40
0.0
  9
$LIMCHECK
 70
     0
  9
$BLIPMODE
 70
     0
  9
$CHAMFERA
 40
0.0
  9
$CHAMFERB
 40
0.0
  9
$SKPOLY
 70
     0
  9
$TDCREATE
 40
2451593.4082031241
  9
$TDUPDATE
 40
2454953.6505056359
  9
$TDINDWG
 40
0.5448447801
  9
$TDUSRTIMER
 40
0.5448447801
  9
$USRTIMER
 70
     1
  9
$ANGBASE
 50
0.0
  9
$ANGDIR
 70
     0
  9
$PDMODE
 70
     0
  9
$PDSIZE
 40
1.0
  9
$PLINEWID
 40
0.0
  9
$COORDS
 70
     1
  9
$SPLFRAME
 70
     0
  9
$SPLINETYPE
 70
     6
  9
$SPLINESEGS
 70
     8
  9
$ATTDIA
 70
     0
  9
$ATTREQ
 70
     1
  9
$HANDLING
 70
 10241
  9
$HANDSEED
  5
272A
  9
$SURFTAB1
 70
     6
  9
$SURFTAB2
 70
     6
  9
$SURFTYPE
 70
     6
  9
$SURFU
 70
     6
  9
$SURFV
 70
     6
  9
$UCSNAME
  2

  9
$UCSORG
 10
0.0
 20
0.0
 30
0.0
  9
$UCSXDIR
 10
1.0
 20
0.0
 30
0.0
  9
$UCSYDIR
 10
0.0
 20
1.0
 30
0.0
  9
$PUCSNAME
  2

  9
$PUCSORG
 10
0.0
 20
0.0
 30
0.0
  9
$PUCSXDIR
 10
1.0
 20
0.0
 30
0.0
  9
$PUCSYDIR
 10
0.0
 20
1.0
 30
0.0
  9
$USERI1
 70
     0
  9
$USERI2
 70
     0
  9
$USERI3
 70
     0
  9
$USERI4
 70
     0
  9
$USERI5
 70
     0
  9
$USERR1
 40
0.0
  9
$USERR2
 40
0.0
  9
$USERR3
 40
0.0
  9
$USERR4
 40
0.0
  9
$USERR5
 40
0.0
  9
$WORLDVIEW
 70
     1
  9
$SHADEDGE
 70
     3
  9
$SHADEDIF
 70
    70
  9
$TILEMODE
 70
     1
  9
$MAXACTVP
 70
    16
  9
$PLIMCHECK
 70
     0
  9
$PEXTMIN
 10
1.0000000000000000E+020
 20
1.0000000000000000E+020
 30
1.0000000000000000E+020
  9
$PEXTMAX
 10
-1.0000000000000000E+020
 20
-1.0000000000000000E+020
 30
-1.0000000000000000E+020
  9
$PLIMMIN
 10
0.0
 20
0.0
  9
$PLIMMAX
 10
12.0
 20
9.0
  9
$UNITMODE
 70
     0
  9
$VISRETAIN
 70
     0
  9
$PLINEGEN
 70
     0
  9
$PSLTSCALE
 70
     0
  0
ENDSEC
  0
SECTION
  2
TABLES
  0
TABLE
  2
VPORT
 70
     2
  0
VPORT
  2
*ACTIVE
 70
     0
 10
0.0
 20
0.0
 11
1.0
 21
1.0
 12
27553.76482959032
 22
14752.00934962268
 13
0.0
 23
0.0
 14
5.0
 24
5.0
 15
0.0
 25
0.0
 16
0.0
 26
0.0
 36
1.0
 17
0.0
 27
0.0
 37
0.0
 40
5433.5896035753494
 41
3.1666666666666661
 42
50.0
 43
0.0
 44
0.0
 50
0.0
 51
0.0
 71
     0
 72
   100
 73
     1
 74
     0
 75
     0
 76
     0
 77
     0
 78
     0
  0
ENDTAB
  0
TABLE
  2
LTYPE
 70
     4
  0
LTYPE
  2
CONTINUOUS
 70
     0
  3
Solid line
 72
    65
 73
     0
 40
0.0
  0
LTYPE
  2
CENTER
 70
     0
  3
____ _ ____ _ ____ _ ____ _ ____ _ ____ _ ____ 
 72
    65
 73
     4
 40
2.0
 49
1.25
 49
-0.25
 49
0.25
 49
-0.25
  0
LTYPE
  2
HIDDEN
 70
     0
  3
__ __ __ __ __ __ __ __ __ __ __ __ __ __ __ __
 72
    65
 73
     2
 40
0.375
 49
0.25
 49
-0.125
  0
LTYPE
  2
PHANTOM
 70
     0
  3
______  __  __  ______  __  __  ______  __  __ 
 72
    65
 73
     6
 40
2.5
 49
1.25
 49
-0.25
 49
0.25
 49
-0.25
 49
0.25
 49
-0.25
  0
ENDTAB
  0
TABLE
  2
LAYER
 70
    10
  0
LAYER
  2
0
 70
     0
 62
     7
  6
CONTINUOUS
  0
LAYER
  2
CT
 70
     0
 62
     3
  6
CENTER
  0
LAYER
  2
FUTO
 70
     0
 62
     4
  6
CONTINUOUS
  0
LAYER
  2
HOSO
 70
     0
 62
     7
  6
CONTINUOUS
  0
LAYER
  2
KL
 70
     0
 62
     7
  6
HIDDEN
  0
LAYER
  2
SL
 70
     0
 62
     1
  6
PHANTOM
  0
LAYER
  2
SP
 70
     0
 62
     2
  6
CONTINUOUS
  0
LAYER
  2
1
 70
     0
 62
     7
  6
CONTINUOUS
  0
LAYER
  2
DEFPOINTS
 70
     0
 62
     7
  6
CONTINUOUS
  0
LAYER
  2
4
 70
     0
 62
     7
  6
CONTINUOUS
  0
ENDTAB
  0
TABLE
  2
STYLE
 70
     1
  0
STYLE
  2
STANDARD
 70
     0
 40
0.0
 41
1.0
 50
15.0
 71
     0
 42
150.0
  3
C:\Program Files\AutoCAD LT\simplex.shx
  4
bigfont.shx
  0
ENDTAB
  0
TABLE
  2
VIEW
 70
     0
  0
ENDTAB
  0
TABLE
  2
UCS
 70
     0
  0
ENDTAB
  0
TABLE
  2
APPID
 70
     2
  0
APPID
  2
ACAD
 70
     0
  0
APPID
  2
CONTENTBLOCKICON
 70
     0
  0
ENDTAB
  0
TABLE
  2
DIMSTYLE
 70
     2
  0
DIMSTYLE
  2
MATSU
 70
     0
  3

  4

  5

  6
OPEN
  7
OPEN
 40
1.0
 41
2.0
 42
1.0
 43
10.0
 44
1.0
 45
0.0
 46
0.0
 47
0.0
 48
0.0
140
3.0
141
0.0
142
0.0
143
0.03937
144
1.0
145
0.0
146
1.0
147
0.5
 71
     0
 72
     0
 73
     0
 74
     0
 75
     0
 76
     0
 77
     1
 78
     8
170
     0
171
     2
172
     1
173
     1
174
     0
175
     0
176
   256
177
   256
178
   256
  0
DIMSTYLE
  2
STANDARD
 70
     0
  3

  4

  5

  6

  7

 40
1.0
 41
0.18
 42
0.0625
 43
0.38
 44
0.18
 45
0.0
 46
0.0
 47
0.0
 48
0.0
140
0.18
141
0.09
142
0.0
143
25.399999999999999
144
1.0
145
0.0
146
1.0
147
0.09
 71
     0
 72
     0
 73
     1
 74
     1
 75
     0
 76
     0
 77
     0
 78
     0
170
     0
171
     2
172
     0
173
     0
174
     0
175
     0
176
     0
177
     0
178
     0
  0
ENDTAB
  0
ENDSEC
  0
SECTION
  2
BLOCKS
  0
BLOCK
  8
0
  2
$MODEL_SPACE
 70
     0
 10
0.0
 20
0.0
 30
0.0
  3
$MODEL_SPACE
  1

  0
ENDBLK
  5
7
  8
0
  0
BLOCK
 67
     1
  8
0
  2
$PAPER_SPACE
 70
     0
 10
0.0
 20
0.0
 30
0.0
  3
$PAPER_SPACE
  1

  0
ENDBLK
  5
A
 67
     1
  8
0
  0
BLOCK
  8
0
  2
_OPEN
 70
     0
 10
0.0
 20
0.0
 30
0.0
  3
_OPEN
  1

  0
LINE
  5
27
  8
0
  6
BYBLOCK
 62
     0
 10
-1.0
 20
0.1666666666666666
 30
0.0
 11
0.0
 21
0.0
 31
0.0
  0
LINE
  5
28
  8
0
  6
BYBLOCK
 62
     0
 10
0.0
 20
0.0
 30
0.0
 11
-1.0
 21
-0.1666666666666666
 31
0.0
  0
LINE
  5
29
  8
0
  6
BYBLOCK
 62
     0
 10
0.0
 20
0.0
 30
0.0
 11
-1.0
 21
0.0
 31
0.0
  0
ENDBLK
  5
2B
  8
0
  0
BLOCK
  8
0
  2
_DOT
 70
     0
 10
0.0
 20
0.0
 30
0.0
  3
_DOT
  1

  0
POLYLINE
  5
DB
  8
0
  6
BYBLOCK
 62
     0
 66
     1
 10
0.0
 20
0.0
 30
0.0
 70
     1
 40
0.25
 41
0.25
  0
VERTEX
  5
2704
  8
0
  6
BYBLOCK
 62
     0
 10
-0.125
 20
0.0
 30
0.0
 42
1.0
  0
VERTEX
  5
2705
  8
0
  6
BYBLOCK
 62
     0
 10
0.125
 20
0.0
 30
0.0
 42
1.0
  0
SEQEND
  5
2706
  8
0
  6
BYBLOCK
 62
     0
  0
LINE
  5
DF
  8
0
  6
BYBLOCK
 62
     0
 10
-0.25
 20
0.0
 30
0.0
 11
-1.0
 21
0.0
 31
0.0
  0
ENDBLK
  5
E1
  8
0
  0
BLOCK
  8
0
  2
まっすぐの矢印
 70
     0
 10
0.0
 20
0.0
 30
0.0
  3
まっすぐの矢印
  1

  0
LINE
  5
8C
  8
SP
 10
13.01863531255526
 20
-41.453946163708451
 30
0.0
 11
13.01863531255526
 21
-93.495696758840026
 31
0.0
  0
LINE
  5
8D
  8
SP
 10
13.01863531255526
 20
-93.495696758840026
 30
0.0
 11
-13.01863531255526
 21
-93.495696758840026
 31
0.0
  0
LINE
  5
8E
  8
SP
 10
-13.01863531255526
 20
-93.495696758840026
 30
0.0
 11
-13.01863531255526
 21
-41.453946163708451
 31
0.0
  0
LINE
  5
8F
  8
SP
 10
-13.01863531255526
 20
-41.453946163708451
 30
0.0
 11
-32.06015471115802
 21
-41.453946163708451
 31
0.0
  0
LINE
  5
90
  8
SP
 10
-32.06015471115802
 20
-41.453946163708451
 30
0.0
 11
0.0
 21
0.0
 31
0.0
  0
LINE
  5
91
  8
SP
 10
0.0
 20
0.0
 30
0.0
 11
32.06015471115802
 21
-41.453946163708451
 31
0.0
  0
LINE
  5
92
  8
SP
 10
32.06015471115802
 20
-41.453946163708451
 30
0.0
 11
13.01863531255526
 21
-41.453946163708451
 31
0.0
  0
ENDBLK
  5
94
  8
0
  0
BLOCK
  8
0
  2
左回転矢印
 70
     0
 10
0.0
 20
0.0
 30
0.0
  3
左回転矢印
  1

  0
LINE
  5
2C7
  8
SP
 10
43.930449171819873
 20
24.859487323637271
 30
0.0
 11
38.511878498580238
 21
44.478978865188871
 31
0.0
  0
LINE
  5
2C8
  8
SP
 10
38.511878498580238
 20
44.478978865188871
 30
0.0
 11
0.0
 21
0.0
 31
0.0
  0
LINE
  5
2C9
  8
SP
 10
0.0
 20
0.0
 30
0.0
 11
52.57968174421967
 21
-6.4575435924972453
 31
0.0
  0
LINE
  5
2CA
  8
SP
 10
52.57968174421967
 20
-6.4575435924972453
 30
0.0
 11
48.189912989015284
 21
9.436875093862227
 31
0.0
  0
ARC
  5
2CB
  8
SP
 10
93.893649146691985
 20
-156.0466295121104
 30
0.0
 40
171.67883327727239
 50
67.881388989212894
 51
105.4392492786835
  0
LINE
  5
2CC
  8
SP
 10
158.53505643637521
 20
2.997736182040398
 30
0.0
 11
164.55945966006539
 21
17.820238190756751
 31
0.0
  0
ARC
  5
2CD
  8
SP
 10
93.893649146692198
 20
-156.04662951211091
 30
0.0
 40
187.67883327727299
 50
67.881388989212994
 51
105.4392492786836
  0
ENDBLK
  5
2CF
  8
0
  0
BLOCK
  8
0
  2
*D4
 70
     1
 10
0.0
 20
0.0
 30
0.0
  3
*D4
  1

  0
LINE
  5
26F7
  8
SP
 10
19460.210465017339
 20
18084.812499051
 30
0.0
 11
18810.801375811741
 21
18084.812499051
 31
0.0
  0
LINE
  5
26F8
  8
SP
 10
18850.801375811749
 20
18184.812499051
 30
0.0
 11
18850.801375811749
 21
18264.812499051
 31
0.0
  0
LINE
  5
26F9
  8
SP
 10
18850.801375811749
 20
18004.812499051
 30
0.0
 11
18850.801375811749
 21
17924.812499051
 31
0.0
  0
LINE
  5
26FA
  8
SP
 10
18850.801375811749
 20
18094.812499051
 30
0.0
 11
18627.21983080226
 21
18215.163376816829
 31
0.0
  0
LINE
  5
26FB
  8
SP
 10
18627.21983080226
 20
18215.163376816829
 30
0.0
 11
18627.21983080226
 21
18603.024201656928
 31
0.0
  0
TEXT
  8
0
  40
120
  5
2726
  72
0
  71
0
 10
18275.8
 20
18196.7
 30
0.000000
  1
(20)
  0
LINE
  5
26FD
  8
SP
 10
18850.801375811749
 20
18104.812499051
 30
0.0
 11
18850.801375811749
 21
18084.812499051
 31
0.0
  0
LINE
  5
26FE
  8
SP
 10
18850.801375811749
 20
18104.812499051
 30
0.0
 11
18850.801375811749
 21
18084.812499051
 31
0.0
  0
INSERT
  5
26FF
  8
SP
  2
_OPEN
 10
18850.801375811749
 20
18104.812499051
 30
0.0
 41
80.0
 42
80.0
 43
80.0
 50
270.0
  0
INSERT
  5
2700
  8
SP
  2
_DOT
 10
18850.801375811749
 20
18084.812499051
 30
0.0
 41
80.0
 42
80.0
 43
80.0
 50
90.0
  0
POINT
  5
2701
  8
DEFPOINTS
 62
     0
 10
19535.097252684849
 20
18104.812499051
 30
0.0
  0
POINT
  5
2702
  8
DEFPOINTS
 62
     0
 10
19500.210465017331
 20
18084.812499051
 30
0.0
  0
POINT
  5
2703
  8
DEFPOINTS
 62
     0
 10
18850.801375811749
 20
18084.812499051
 30
0.0
  0
ENDBLK
  5
88C
  8
0
  0
BLOCK
  8
0
  2
*D5
 70
     1
 10
0.0
 20
0.0
 30
0.0
  3
*D5
  1

  0
LINE
  5
26A7
  8
SP
 10
23150.78590997752
 20
19853.186299051002
 30
0.0
 11
23150.78590997752
 21
21925.562105755711
 31
0.0
  0
LINE
  5
26A8
  8
SP
 10
25600.78590997752
 20
21454.186299051002
 30
0.0
 11
25600.78590997752
 21
21925.562105755711
 31
0.0
  0
LINE
  5
26A9
  8
SP
 10
23230.78590997752
 20
21885.562105755711
 30
0.0
 11
25520.78590997752
 21
21885.562105755711
 31
0.0
  0
INSERT
  5
26AA
  8
SP
  2
_OPEN
 10
23150.78590997752
 20
21885.562105755711
 30
0.0
 41
80.0
 42
80.0
 43
80.0
 50
180.0
  0
INSERT
  5
26AB
  8
SP
  2
_OPEN
 10
25600.78590997752
 20
21885.562105755711
 30
0.0
 41
80.0
 42
80.0
 43
80.0
  0
TEXT
  5
26AC
  8
SP
 10
24078.793221072541
 20
21956.99067718428
 30
0.0
 40
120.0
  1
(2450)
 51
15.0
  0
POINT
  5
26AD
  8
DEFPOINTS
 62
     0
 10
23150.78590997752
 20
19813.186299051002
 30
0.0
  0
POINT
  5
26AE
  8
DEFPOINTS
 62
     0
 10
25600.78590997752
 20
21414.186299051002
 30
0.0
  0
POINT
  5
26AF
  8
DEFPOINTS
 62
     0
 10
25600.78590997752
 20
21885.562105755711
 30
0.0
  0
ENDBLK
  5
1423
  8
0
  0
BLOCK
  8
0
  2
*D6
 70
     1
 10
0.0
 20
0.0
 30
0.0
  3
*D6
  1

  0
LINE
  5
264A
  8
SP
 10
18974.856465973229
 20
19434.812499051
 30
0.0
 11
18810.801375811741
 21
19434.812499051
 31
0.0
  0
LINE
  5
264B
  8
SP
 10
19355.210465017331
 20
21424.812499051
 30
0.0
 11
18810.801375811741
 21
21424.812499051
 31
0.0
  0
LINE
  5
264C
  8
SP
 10
18850.801375811749
 20
19514.812499051
 30
0.0
 11
18850.801375811749
 21
21344.812499051
 31
0.0
  0
INSERT
  5
264D
  8
SP
  2
_OPEN
 10
18850.801375811749
 20
19434.812499051
 30
0.0
 41
80.0
 42
80.0
 43
80.0
 50
270.0
  0
INSERT
  5
264E
  8
SP
  2
_OPEN
 10
18850.801375811749
 20
21424.812499051
 30
0.0
 41
80.0
 42
80.0
 43
80.0
 50
90.0
  0
TEXT
  5
264F
  8
SP
 10
18830.801375811741
 20
20206.640291786269
 30
0.0
 40
120.0
  1
1990
 50
90.0
 51
15.0
  0
POINT
  5
2650
  8
DEFPOINTS
 62
     0
 10
19014.85646597324
 20
19434.812499051
 30
0.0
  0
POINT
  5
2651
  8
DEFPOINTS
 62
     0
 10
19395.210465017339
 20
21424.812499051
 30
0.0
  0
POINT
  5
2652
  8
DEFPOINTS
 62
     0
 10
18850.801375811749
 20
21424.812499051
 30
0.0
  0
ENDBLK
  5
18B9
  8
0
  0
BLOCK
  8
0
  2
*D7
 70
     1
 10
0.0
 20
0.0
 30
0.0
  3
*D7
  1

  0
LINE
  5
2653
  8
SP
 10
18997.456776376701
 20
19434.812499051
 30
0.0
 11
18810.801375811741
 21
19434.812499051
 31
0.0
  0
LINE
  5
2654
  8
SP
 10
19495.097252684849
 20
18104.812499051
 30
0.0
 11
18810.801375811741
 21
18104.812499051
 31
0.0
  0
LINE
  5
2655
  8
SP
 10
18850.801375811749
 20
19354.812499051
 30
0.0
 11
18850.801375811749
 21
18184.812499051
 31
0.0
  0
INSERT
  5
2656
  8
SP
  2
_OPEN
 10
18850.801375811749
 20
19434.812499051
 30
0.0
 41
80.0
 42
80.0
 43
80.0
 50
90.0
  0
INSERT
  5
2657
  8
SP
  2
_OPEN
 10
18850.801375811749
 20
18104.812499051
 30
0.0
 41
80.0
 42
80.0
 43
80.0
 50
270.0
  0
TEXT
  5
2658
  8
SP
 10
18830.801375811741
 20
18546.640291786262
 30
0.0
 40
120.0
  1
1330
 50
90.0
 51
15.0
  0
POINT
  5
2659
  8
DEFPOINTS
 62
     0
 10
19037.456776376701
 20
19434.812499051
 30
0.0
  0
POINT
  5
265A
  8
DEFPOINTS
 62
     0
 10
19535.097252684849
 20
18104.812499051
 30
0.0
  0
POINT
  5
265B
  8
DEFPOINTS
 62
     0
 10
18850.801375811749
 20
18104.812499051
 30
0.0
  0
ENDBLK
  5
18ED
  8
0
  0
BLOCK
  8
0
  2
*D8
 70
     1
 10
0.0
 20
0.0
 30
0.0
  3
*D8
  1

  0
LINE
  5
2707
  8
SP
 10
19460.210465017339
 20
17934.812499051
 30
0.0
 11
18810.801375811741
 21
17934.812499051
 31
0.0
  0
LINE
  5
2708
  8
SP
 10
18850.801375811749
 20
18164.812499051
 30
0.0
 11
18850.801375811749
 21
18244.812499051
 31
0.0
  0
LINE
  5
2709
  8
SP
 10
18850.801375811749
 20
17854.812499051
 30
0.0
 11
18850.801375811749
 21
17454.812499051
 31
0.0
  0
LINE
  5
270A
  8
SP
 10
18850.801375811749
 20
18084.812499051
 30
0.0
 11
18850.801375811749
 21
17934.812499051
 31
0.0
  0
INSERT
  5
270B
  8
SP
  2
_DOT
 10
18850.801375811749
 20
18084.812499051
 30
0.0
 41
80.0
 42
80.0
 43
80.0
 50
270.0
  0
INSERT
  5
270C
  8
SP
  2
_OPEN
 10
18850.801375811749
 20
17934.812499051
 30
0.0
 41
80.0
 42
80.0
 43
80.0
 50
90.0
  0
TEXT
  8
0
  40
120
  5
2727
  72
0
  71
0
 10
18530.8
 20
17402.4
 30
0.000000
  1
150
  0
POINT
  5
270E
  8
DEFPOINTS
 62
     0
 10
19500.210465017331
 20
18084.812499051
 30
0.0
  0
POINT
  5
270F
  8
DEFPOINTS
 62
     0
 10
19500.210465017331
 20
17934.812499051
 30
0.0
  0
POINT
  5
2710
  8
DEFPOINTS
 62
     0
 10
18850.801375811749
 20
17934.812499051
 30
0.0
  0
ENDBLK
  5
18FA
  8
0
  0
BLOCK
  8
0
  2
*D9
 70
     1
 10
0.0
 20
0.0
 30
0.0
  3
*D9
  1

  0
LINE
  5
26C1
  8
SP
 10
20560.210465017331
 20
25835.245527012848
 30
0.0
 11
20560.210465017331
 21
26094.12415532357
 31
0.0
  0
LINE
  5
26C2
  8
SP
 10
19395.210465017331
 20
25570.25022384062
 30
0.0
 11
19395.210465017331
 21
26094.12415532357
 31
0.0
  0
LINE
  5
26C3
  8
SP
 10
20480.210465017331
 20
26054.12415532357
 30
0.0
 11
19475.210465017331
 21
26054.12415532357
 31
0.0
  0
INSERT
  5
26C4
  8
SP
  2
_OPEN
 10
20560.210465017331
 20
26054.12415532357
 30
0.0
 41
80.0
 42
80.0
 43
80.0
  0
INSERT
  5
26C5
  8
SP
  2
_OPEN
 10
19395.210465017331
 20
26054.12415532357
 30
0.0
 41
80.0
 42
80.0
 43
80.0
 50
180.0
  0
TEXT
  5
26C6
  8
SP
 10
19765.761695553381
 20
26074.12415532357
 30
0.0
 40
120.0
  1
1165
 51
15.0
  0
POINT
  5
26C7
  8
DEFPOINTS
 62
     0
 10
20560.210465017331
 20
25795.245527012848
 30
0.0
  0
POINT
  5
26C8
  8
DEFPOINTS
 62
     0
 10
19395.210465017331
 20
25530.25022384062
 30
0.0
  0
POINT
  5
26C9
  8
DEFPOINTS
 62
     0
 10
19395.210465017331
 20
26054.12415532357
 30
0.0
  0
ENDBLK
  5
1915
  8
0
  0
BLOCK
  8
0
  2
*D10
 70
     1
 10
0.0
 20
0.0
 30
0.0
  3
*D10
  1

  0
LINE
  5
26B9
  8
SP
 10
22500.210465017331
 20
24177.25022384062
 30
0.0
 11
22500.210465017331
 21
26094.12415532357
 31
0.0
  0
LINE
  5
26BA
  8
SP
 10
20640.210465017331
 20
26054.12415532357
 30
0.0
 11
22420.210465017331
 21
26054.12415532357
 31
0.0
  0
INSERT
  5
26BB
  8
SP
  2
_OPEN
 10
20560.210465017331
 20
26054.12415532357
 30
0.0
 41
80.0
 42
80.0
 43
80.0
 50
180.0
  0
INSERT
  5
26BC
  8
SP
  2
_OPEN
 10
22500.210465017331
 20
26054.12415532357
 30
0.0
 41
80.0
 42
80.0
 43
80.0
  0
TEXT
  5
26BD
  8
SP
 10
21307.0382577526
 20
26074.12415532357
 30
0.0
 40
120.0
  1
1940
 51
15.0
  0
POINT
  5
26BE
  8
DEFPOINTS
 62
     0
 10
20560.210465017331
 20
26054.12415532357
 30
0.0
  0
POINT
  5
26BF
  8
DEFPOINTS
 62
     0
 10
22500.210465017331
 20
24137.25022384062
 30
0.0
  0
POINT
  5
26C0
  8
DEFPOINTS
 62
     0
 10
22500.210465017331
 20
26054.12415532357
 30
0.0
  0
ENDBLK
  5
1921
  8
0
  0
BLOCK
  8
0
  2
*D11
 70
     1
 10
0.0
 20
0.0
 30
0.0
  3
*D11
  1

  0
LINE
  5
2641
  8
SP
 10
19555.210465017331
 20
25596.25022384063
 30
0.0
 11
18935.22419952722
 21
25596.25022384063
 31
0.0
  0
LINE
  5
2642
  8
SP
 10
18947.976021308408
 20
24801.25022384062
 30
0.0
 11
19015.22419952722
 21
24801.25022384062
 31
0.0
  0
LINE
  5
2643
  8
SP
 10
18975.22419952722
 20
25516.25022384063
 30
0.0
 11
18975.22419952722
 21
24881.25022384062
 31
0.0
  0
INSERT
  5
2644
  8
SP
  2
_OPEN
 10
18975.22419952722
 20
25596.25022384063
 30
0.0
 41
80.0
 42
80.0
 43
80.0
 50
90.0
  0
INSERT
  5
2645
  8
SP
  2
_OPEN
 10
18975.22419952722
 20
24801.25022384062
 30
0.0
 41
80.0
 42
80.0
 43
80.0
 50
270.0
  0
TEXT
  5
2646
  8
SP
 10
18955.224199527209
 20
25022.67327229476
 30
0.0
 40
120.0
  1
795
 50
90.0
 51
15.0
  0
POINT
  5
2647
  8
DEFPOINTS
 62
     0
 10
19595.210465017331
 20
25596.25022384063
 30
0.0
  0
POINT
  5
2648
  8
DEFPOINTS
 62
     0
 10
18907.976021308408
 20
24801.25022384062
 30
0.0
  0
POINT
  5
2649
  8
DEFPOINTS
 62
     0
 10
18975.22419952722
 20
24801.25022384062
 30
0.0
  0
ENDBLK
  5
192F
  8
0
  0
BLOCK
  8
0
  2
*D12
 70
     1
 10
0.0
 20
0.0
 30
0.0
  3
*D12
  1

  0
LINE
  5
2639
  8
SP
 10
20140.210465017339
 20
22351.25022384062
 30
0.0
 11
18935.22419952722
 21
22351.25022384062
 31
0.0
  0
LINE
  5
263A
  8
SP
 10
18975.22419952722
 20
24721.25022384062
 30
0.0
 11
18975.22419952722
 21
22431.25022384062
 31
0.0
  0
INSERT
  5
263B
  8
SP
  2
_OPEN
 10
18975.22419952722
 20
24801.25022384062
 30
0.0
 41
80.0
 42
80.0
 43
80.0
 50
90.0
  0
INSERT
  5
263C
  8
SP
  2
_OPEN
 10
18975.22419952722
 20
22351.25022384062
 30
0.0
 41
80.0
 42
80.0
 43
80.0
 50
270.0
  0
TEXT
  5
263D
  8
SP
 10
18955.22419952722
 20
23354.664120208261
 30
0.0
 40
120.0
  1
2450
 50
90.0
 51
15.0
  0
POINT
  5
263E
  8
DEFPOINTS
 62
     0
 10
18975.22419952722
 20
24801.25022384062
 30
0.0
  0
POINT
  5
263F
  8
DEFPOINTS
 62
     0
 10
20180.210465017339
 20
22351.25022384062
 30
0.0
  0
POINT
  5
2640
  8
DEFPOINTS
 62
     0
 10
18975.22419952722
 20
22351.25022384062
 30
0.0
  0
ENDBLK
  5
193B
  8
0
  0
BLOCK
  8
0
  2
*D13
 70
     1
 10
0.0
 20
0.0
 30
0.0
  3
*D13
  1

  0
LINE
  5
2696
  8
SP
 10
19500.210465017331
 20
17894.812499051
 30
0.0
 11
19500.210465017331
 21
17140.890569712072
 31
0.0
  0
LINE
  5
2697
  8
SP
 10
22500.210465017331
 20
17894.812499051
 30
0.0
 11
22500.210465017331
 21
17140.890569712072
 31
0.0
  0
LINE
  5
2698
  8
SP
 10
19580.210465017339
 20
17180.890569712072
 30
0.0
 11
22420.210465017331
 21
17180.890569712072
 31
0.0
  0
INSERT
  5
2699
  8
SP
  2
_OPEN
 10
19500.210465017331
 20
17180.890569712072
 30
0.0
 41
80.0
 42
80.0
 43
80.0
 50
180.0
  0
INSERT
  5
269A
  8
SP
  2
_OPEN
 10
22500.210465017331
 20
17180.890569712072
 30
0.0
 41
80.0
 42
80.0
 43
80.0
  0
TEXT
  5
269B
  8
SP
 10
20775.562084900041
 20
17200.890569712072
 30
0.0
 40
120.0
  1
3000
 51
15.0
  0
POINT
  5
269C
  8
DEFPOINTS
 62
     0
 10
19500.210465017331
 20
17934.812499051
 30
0.0
  0
POINT
  5
269D
  8
DEFPOINTS
 62
     0
 10
22500.210465017331
 20
17934.812499051
 30
0.0
  0
POINT
  5
269E
  8
DEFPOINTS
 62
     0
 10
22500.210465017331
 20
17180.890569712072
 30
0.0
  0
ENDBLK
  5
1983
  8
0
  0
BLOCK
  8
0
  2
*D14
 70
     1
 10
0.0
 20
0.0
 30
0.0
  3
*D14
  1

  0
LINE
  5
2711
  8
SP
 10
22500.210465017331
 20
17894.812499051
 30
0.0
 11
22500.210465017331
 21
17459.605120332701
 31
0.0
  0
LINE
  5
2712
  8
SP
 10
20640.210465017331
 20
17499.605120332701
 30
0.0
 11
22420.210465017331
 21
17499.605120332701
 31
0.0
  0
INSERT
  5
2713
  8
SP
  2
_OPEN
 10
20560.210465017331
 20
17499.605120332701
 30
0.0
 41
80.0
 42
80.0
 43
80.0
 50
180.0
  0
INSERT
  5
2714
  8
SP
  2
_OPEN
 10
22500.210465017331
 20
17499.605120332701
 30
0.0
 41
80.0
 42
80.0
 43
80.0
  0
TEXT
  8
0
  40
120
  5
2728
  72
0
  71
0
 10
21290.2
 20
17367.2
 30
0.000000
  1
1940
  0
POINT
  5
2716
  8
DEFPOINTS
 62
     0
 10
20560.210465017331
 20
17854.158324040789
 30
0.0
  0
POINT
  5
2717
  8
DEFPOINTS
 62
     0
 10
22500.210465017331
 20
17934.812499051
 30
0.0
  0
POINT
  5
2718
  8
DEFPOINTS
 62
     0
 10
22500.210465017331
 20
17499.605120332701
 30
0.0
  0
ENDBLK
  5
198E
  8
0
  0
BLOCK
  8
0
  2
*D15
 70
     1
 10
0.0
 20
0.0
 30
0.0
  3
*D15
  1

  0
LINE
  5
268D
  8
SP
 10
19500.210465017331
 20
17894.812499051
 30
0.0
 11
19500.210465017331
 21
17459.605120332701
 31
0.0
  0
LINE
  5
268E
  8
SP
 10
20560.210465017331
 20
17814.158324040789
 30
0.0
 11
20560.210465017331
 21
17459.605120332701
 31
0.0
  0
LINE
  5
268F
  8
SP
 10
19580.210465017339
 20
17499.605120332701
 30
0.0
 11
20480.210465017331
 21
17499.605120332701
 31
0.0
  0
INSERT
  5
2690
  8
SP
  2
_OPEN
 10
19500.210465017331
 20
17499.605120332701
 30
0.0
 41
80.0
 42
80.0
 43
80.0
 50
180.0
  0
INSERT
  5
2691
  8
SP
  2
_OPEN
 10
20560.210465017331
 20
17499.605120332701
 30
0.0
 41
80.0
 42
80.0
 43
80.0
  0
TEXT
  5
2692
  8
SP
 10
19807.0382577526
 20
17519.605120332701
 30
0.0
 40
120.0
  1
1060
 51
15.0
  0
POINT
  5
2693
  8
DEFPOINTS
 62
     0
 10
19500.210465017331
 20
17934.812499051
 30
0.0
  0
POINT
  5
2694
  8
DEFPOINTS
 62
     0
 10
20560.210465017331
 20
17854.158324040789
 30
0.0
  0
POINT
  5
2695
  8
DEFPOINTS
 62
     0
 10
20560.210465017331
 20
17499.605120332701
 30
0.0
  0
ENDBLK
  5
199A
  8
0
  0
BLOCK
  8
0
  2
*D16
 70
     1
 10
0.0
 20
0.0
 30
0.0
  3
*D16
  1

  0
LINE
  5
26B0
  8
SP
 10
19395.210465017339
 20
21464.812499051
 30
0.0
 11
19395.210465017339
 21
21936.610515213601
 31
0.0
  0
LINE
  5
26B1
  8
SP
 10
20560.210465017331
 20
21465.078037615371
 30
0.0
 11
20560.210465017331
 21
21936.610515213601
 31
0.0
  0
LINE
  5
26B2
  8
SP
 10
19475.210465017331
 20
21896.610515213601
 30
0.0
 11
20480.210465017331
 21
21896.610515213601
 31
0.0
  0
INSERT
  5
26B3
  8
SP
  2
_OPEN
 10
19395.210465017339
 20
21896.610515213601
 30
0.0
 41
80.0
 42
80.0
 43
80.0
 50
180.0
  0
INSERT
  5
26B4
  8
SP
  2
_OPEN
 10
20560.210465017331
 20
21896.610515213601
 30
0.0
 41
80.0
 42
80.0
 43
80.0
  0
TEXT
  5
26B5
  8
SP
 10
19765.761695553389
 20
21916.610515213601
 30
0.0
 40
120.0
  1
1165
 51
15.0
  0
POINT
  5
26B6
  8
DEFPOINTS
 62
     0
 10
19395.210465017339
 20
21424.812499051
 30
0.0
  0
POINT
  5
26B7
  8
DEFPOINTS
 62
     0
 10
20560.210465017331
 20
21425.078037615371
 30
0.0
  0
POINT
  5
26B8
  8
DEFPOINTS
 62
     0
 10
20560.210465017331
 20
21896.610515213601
 30
0.0
  0
ENDBLK
  5
19AE
  8
0
  0
BLOCK
  8
0
  2
*D17
 70
     1
 10
0.0
 20
0.0
 30
0.0
  3
*D17
  1

  0
LINE
  5
267B
  8
SP
 10
23489.78590997752
 20
17894.812482445021
 30
0.0
 11
23489.78590997752
 21
17155.294324715778
 31
0.0
  0
LINE
  5
267C
  8
SP
 10
26339.78590997752
 20
17894.812482445021
 30
0.0
 11
26339.78590997752
 21
17155.294324715778
 31
0.0
  0
LINE
  5
267D
  8
SP
 10
23569.78590997752
 20
17195.294324715778
 30
0.0
 11
26259.78590997752
 21
17195.294324715778
 31
0.0
  0
INSERT
  5
267E
  8
SP
  2
_OPEN
 10
23489.78590997752
 20
17195.294324715778
 30
0.0
 41
80.0
 42
80.0
 43
80.0
 50
180.0
  0
INSERT
  5
267F
  8
SP
  2
_OPEN
 10
26339.78590997752
 20
17195.294324715778
 30
0.0
 41
80.0
 42
80.0
 43
80.0
  0
TEXT
  5
2680
  8
SP
 10
24693.19980634515
 20
17215.294324715778
 30
0.0
 40
120.0
  1
2850
 51
15.0
  0
POINT
  5
2681
  8
DEFPOINTS
 62
     0
 10
23489.78590997752
 20
17934.812482445021
 30
0.0
  0
POINT
  5
2682
  8
DEFPOINTS
 62
     0
 10
26339.78590997752
 20
17934.812482445021
 30
0.0
  0
POINT
  5
2683
  8
DEFPOINTS
 62
     0
 10
26339.78590997752
 20
17195.294324715778
 30
0.0
  0
ENDBLK
  5
1A43
  8
0
  0
BLOCK
  8
0
  2
*D18
 70
     1
 10
0.0
 20
0.0
 30
0.0
  3
*D18
  1

  0
LINE
  5
2684
  8
SP
 10
23489.78590997752
 20
17894.812482445021
 30
0.0
 11
23489.78590997752
 21
17455.3318696807
 31
0.0
  0
LINE
  5
2685
  8
SP
 10
25600.78590997752
 20
17873.885430451079
 30
0.0
 11
25600.78590997752
 21
17455.3318696807
 31
0.0
  0
LINE
  5
2686
  8
SP
 10
23569.78590997752
 20
17495.3318696807
 30
0.0
 11
25520.78590997752
 21
17495.3318696807
 31
0.0
  0
INSERT
  5
2687
  8
SP
  2
_OPEN
 10
23489.78590997752
 20
17495.3318696807
 30
0.0
 41
80.0
 42
80.0
 43
80.0
 50
180.0
  0
INSERT
  5
2688
  8
SP
  2
_OPEN
 10
25600.78590997752
 20
17495.3318696807
 30
0.0
 41
80.0
 42
80.0
 43
80.0
  0
TEXT
  5
2689
  8
SP
 10
24366.351815574511
 20
17515.3318696807
 30
0.0
 40
120.0
  1
2111
 51
15.0
  0
POINT
  5
268A
  8
DEFPOINTS
 62
     0
 10
23489.78590997752
 20
17934.812482445021
 30
0.0
  0
POINT
  5
268B
  8
DEFPOINTS
 62
     0
 10
25600.78590997752
 20
17913.885430451079
 30
0.0
  0
POINT
  5
268C
  8
DEFPOINTS
 62
     0
 10
25600.78590997752
 20
17495.3318696807
 30
0.0
  0
ENDBLK
  5
1A4F
  8
0
  0
BLOCK
  8
0
  2
*D19
 70
     1
 10
0.0
 20
0.0
 30
0.0
  3
*D19
  1

  0
LINE
  5
2719
  8
SP
 10
26339.78590997752
 20
17894.812482445021
 30
0.0
 11
26339.78590997752
 21
17455.3318696807
 31
0.0
  0
LINE
  5
271A
  8
SP
 10
25680.78590997752
 20
17495.3318696807
 30
0.0
 11
26259.78590997752
 21
17495.3318696807
 31
0.0
  0
INSERT
  5
271B
  8
SP
  2
_OPEN
 10
25600.78590997752
 20
17495.3318696807
 30
0.0
 41
80.0
 42
80.0
 43
80.0
 50
180.0
  0
INSERT
  5
271C
  8
SP
  2
_OPEN
 10
26339.78590997752
 20
17495.3318696807
 30
0.0
 41
80.0
 42
80.0
 43
80.0
  0
TEXT
  8
0
  40
120
  5
2729
  72
0
  71
0
 10
25730.3
 20
17362.9
 30
0.000000
  1
739
  0
POINT
  5
271E
  8
DEFPOINTS
 62
     0
 10
25600.78590997752
 20
17913.885430451079
 30
0.0
  0
POINT
  5
271F
  8
DEFPOINTS
 62
     0
 10
26339.78590997752
 20
17934.812482445021
 30
0.0
  0
POINT
  5
2720
  8
DEFPOINTS
 62
     0
 10
26339.78590997752
 20
17495.3318696807
 30
0.0
  0
ENDBLK
  5
1A5A
  8
0
  0
BLOCK
  8
0
  2
*D20
 70
     1
 10
0.0
 20
0.0
 30
0.0
  3
*D20
  1

  0
LINE
  5
26CB
  8
SP
 10
26435.78590997752
 20
20333.186299051002
 30
0.0
 11
27015.794052189249
 21
20333.186299051002
 31
0.0
  0
LINE
  5
26CC
  8
SP
 10
26435.78590997752
 20
18533.186299051002
 30
0.0
 11
27015.794052189249
 21
18533.186299051002
 31
0.0
  0
LINE
  5
26CD
  8
SP
 10
26975.794052189249
 20
20253.186299051002
 30
0.0
 11
26975.794052189249
 21
18613.186299051002
 31
0.0
  0
INSERT
  5
26CE
  8
SP
  2
_OPEN
 10
26975.794052189249
 20
20333.186299051002
 30
0.0
 41
80.0
 42
80.0
 43
80.0
 50
90.0
  0
INSERT
  5
26CF
  8
SP
  2
_OPEN
 10
26975.794052189249
 20
18533.186299051002
 30
0.0
 41
80.0
 42
80.0
 43
80.0
 50
270.0
  0
INSERT
  5
26D0
  8
SP
  2
*U22
 10
0.0
 20
0.0
 30
0.0
  0
POINT
  5
26D1
  8
DEFPOINTS
 62
     0
 10
26395.78590997752
 20
20333.186299051002
 30
0.0
  0
POINT
  5
26D2
  8
DEFPOINTS
 62
     0
 10
26395.78590997752
 20
18533.186299051002
 30
0.0
  0
POINT
  5
26D3
  8
DEFPOINTS
 62
     0
 10
26975.794052189249
 20
18533.186299051002
 30
0.0
  0
ENDBLK
  5
26D5
  8
0
  0
BLOCK
  8
0
  2
*D21
 70
     1
 10
0.0
 20
0.0
 30
0.0
  3
*D21
  1

  0
LINE
  5
26D7
  8
SP
 10
25600.78590997752
 20
21877.504445120088
 30
0.0
 11
25600.78590997752
 21
21845.562105755711
 31
0.0
  0
LINE
  5
26D8
  8
SP
 10
26395.78590997752
 20
20438.186299051002
 30
0.0
 11
26395.78590997752
 21
21925.562105755711
 31
0.0
  0
LINE
  5
26D9
  8
SP
 10
25680.78590997752
 20
21885.562105755711
 30
0.0
 11
26315.78590997752
 21
21885.562105755711
 31
0.0
  0
INSERT
  5
26DA
  8
SP
  2
_OPEN
 10
25600.78590997752
 20
21885.562105755711
 30
0.0
 41
80.0
 42
80.0
 43
80.0
 50
180.0
  0
INSERT
  5
26DB
  8
SP
  2
_OPEN
 10
26395.78590997752
 20
21885.562105755711
 30
0.0
 41
80.0
 42
80.0
 43
80.0
  0
TEXT
  5
26DC
  8
SP
 10
25753.57133347576
 20
21905.562105755711
 30
0.0
 40
120.0
  1
795
 51
15.0
  0
POINT
  5
26DD
  8
DEFPOINTS
 62
     0
 10
25600.78590997752
 20
21917.504445120088
 30
0.0
  0
POINT
  5
26DE
  8
DEFPOINTS
 62
     0
 10
26395.78590997752
 20
20398.186299051002
 30
0.0
  0
POINT
  5
26DF
  8
DEFPOINTS
 62
     0
 10
26395.78590997752
 20
21885.562105755711
 30
0.0
  0
ENDBLK
  5
26E1
  8
0
  0
BLOCK
  8
0
  2
*U22
 70
     1
 10
0.0
 20
0.0
 30
0.0
  3
*U22
  1

  0
TEXT
  5
2722
  8
SP
 10
26955.794052189249
 20
19136.178882214201
 30
0.0
 40
120.0
  1
\U+2205
 50
90.0
 51
15.0
  0
TEXT
  5
2723
  8
SP
 10
26955.794052189249
 20
19244.750310785621
 30
0.0
 40
120.0
  1
1800
 50
90.0
 51
15.0
  0
ENDBLK
  5
2725
  8
0
  0
ENDSEC
  0
SECTION
  2
ENTITIES
  0
INSERT
  5
89
  8
FUTO
  2
まっすぐの矢印
 10
19109.54885435219
 20
21001.254795711338
 30
0.0
 41
2.0
 42
2.0
 43
2.0
 50
90.0
  0
LINE
  5
AF
  8
CT
 10
20560.210465017331
 20
19434.812499051
 30
0.0
 11
19339.629986837641
 21
19326.545126508641
 31
0.0
  0
LINE
  5
B2
  8
CT
 10
19014.85646597324
 20
19434.812499051
 30
0.0
 11
22474.838571527431
 21
19434.812499051
 31
0.0
  0
DIMENSION
  5
CF
  8
SP
  2
*D4
 10
18850.801375811749
 20
18084.812499051
 30
0.0
 11
18627.21983080226
 21
18235.163376816839
 31
0.0
 70
   128
  1
(<>)
 13
19535.097252684849
 23
18104.812499051
 33
0.0
 14
19500.210465017331
 24
18084.812499051
 34
0.0
 50
90.0
1001
ACAD
1000
DSTYLE
1002
{
1070
   287
1070
     4
1070
    40
1040
40.0
1070
    75
1070
     1
1070
   279
1070
     1
1070
   289
1070
     3
1070
     7
1000
DOT
1002
}
  0
DIMENSION
  5
E7
  8
SP
  2
*D8
 10
18850.801375811749
 20
17934.812499051
 30
0.0
 11
18770.801375811741
 21
17614.812499051
 31
0.0
 70
     0
 13
19500.210465017331
 23
18084.812499051
 33
0.0
 14
19500.210465017331
 24
17934.812499051
 34
0.0
 50
90.0
1001
ACAD
1000
DSTYLE
1002
{
1070
   287
1070
     1
1070
    40
1040
40.0
1070
    75
1070
     1
1070
   289
1070
     1
1070
     6
1000
DOT
1002
}
  0
DIMENSION
  5
F5
  8
SP
  2
*D7
 10
18850.801375811749
 20
18104.812499051
 30
0.0
 11
18770.801375811741
 21
18769.812499051
 31
0.0
 70
     0
 13
19037.456776376701
 23
19434.812499051
 33
0.0
 14
19535.097252684849
 24
18104.812499051
 34
0.0
 50
90.0
1001
ACAD
1000
DSTYLE
1002
{
1070
    40
1040
40.0
1002
}
  0
LINE
  5
104
  8
CT
 10
20560.210465017331
 20
21425.078037615371
 30
0.0
 11
20560.210465017331
 21
17854.158324040789
 31
0.0
  0
LINE
  5
10B
  8
FUTO
 10
21954.154500698471
 20
18345.675214137391
 30
0.0
 11
20378.40024047071
 21
18990.57715348481
 31
0.0
  0
ARC
  5
10E
  8
FUTO
 10
22060.210465017331
 20
18604.812499051
 30
0.0
 40
280.0
 50
247.74240502844651
 51
54.343159773977042
  0
LINE
  5
10F
  8
SL
 10
20417.12339415478
 20
19109.926226407821
 30
0.0
 11
21979.598030728572
 21
18421.77797925203
 31
0.0
  0
LINE
  5
110
  8
SL
 10
22172.46739214355
 20
18770.337066146581
 30
0.0
 11
20759.466510666382
 21
19728.61860564565
 31
0.0
  0
ARC
  5
111
  8
FUTO
 10
22060.210465017331
 20
18604.812499051
 30
0.0
 40
310.0
 50
300.10230806831191
 51
239.897691931688
  0
LINE
  5
112
  8
CT
 10
22060.210465017331
 20
19269.578384977322
 30
0.0
 11
22060.210465017331
 21
18282.52118278986
 31
0.0
  0
LINE
  5
113
  8
FUTO
 10
21619.210465017339
 20
19425.812499051
 30
0.0
 11
21619.210465017339
 21
19265.805379424499
 31
0.0
  0
LINE
  5
114
  8
FUTO
 10
21116.323748391031
 20
18688.570480642891
 30
0.0
 11
21260.210465017339
 21
18268.977393589419
 31
0.0
  0
LINE
  5
115
  8
FUTO
 10
19519.210465017339
 20
19425.812499051
 30
0.0
 11
19519.210465017339
 21
18254.812499051
 31
0.0
  0
LINE
  5
116
  8
FUTO
 10
19510.210465017331
 20
19425.812499051
 30
0.0
 11
19510.210465017331
 21
18254.812499051
 31
0.0
  0
LINE
  5
117
  8
FUTO
 10
21610.210465017331
 20
19443.812499051
 30
0.0
 11
21610.210465017331
 21
19272.262260937041
 31
0.0
  0
LINE
  5
118
  8
FUTO
 10
21601.210465017331
 20
19443.812499051
 30
0.0
 11
21601.210465017331
 21
19278.71914244958
 31
0.0
  0
LINE
  5
119
  8
CT
 10
22060.210465017331
 20
18318.311236050999
 30
0.0
 11
22060.210465017331
 21
18902.582915051
 31
0.0
  0
LINE
  5
11D
  8
KL
 10
20218.162039193288
 20
19312.812499051
 30
0.0
 11
20166.058255779571
 21
19160.870833813689
 31
0.0
  0
ARC
  5
122
  8
FUTO
 10
20670.710465017331
 20
19324.312499051
 30
0.0
 40
1201.5
 50
172.27518828965921
 51
230.39010528819949
  0
ARC
  5
123
  8
KL
 10
20670.710465017331
 20
19324.312499051
 30
0.0
 40
1181.4999999999991
 50
180.0
 51
270.99417894367201
  0
ARC
  5
124
  8
KL
 10
20691.210465017339
 20
19565.812499051
 30
0.0
 40
1423.0
 50
270.0
 51
354.73663459410341
  0
DIMENSION
  5
13A
  8
SP
  2
*D14
 10
22500.210465017331
 20
17499.605120332701
 30
0.0
 11
21530.210465017331
 21
17579.605120332701
 31
0.0
 70
     0
 13
20560.210465017331
 23
17854.158324040789
 33
0.0
 14
22500.210465017331
 24
17934.812499051
 34
0.0
 50
180.0
1001
ACAD
1000
DSTYLE
1002
{
1070
   287
1070
     4
1070
    40
1040
40.0
1070
    75
1070
     1
1070
   279
1070
     1
1070
   289
1070
     3
1002
}
  0
LINE
  5
146
  8
FUTO
 10
19500.210465017331
 20
18084.812499051
 30
0.0
 11
22500.210465017331
 21
18084.812499051
 31
0.0
1001
ACAD
1000
ASC_BOUNDS
1002
{
1070
    19
1005
0
1002
}
  0
LINE
  5
147
  8
FUTO
 10
19500.210465017331
 20
18072.812499051
 30
0.0
 11
22500.210465017331
 21
18072.812499051
 31
0.0
  0
LINE
  5
148
  8
FUTO
 10
19500.210465017331
 20
17946.812499051
 30
0.0
 11
22500.210465017331
 21
17946.812499051
 31
0.0
  0
LINE
  5
149
  8
FUTO
 10
19500.210465017331
 20
17934.812499051
 30
0.0
 11
22500.210465017331
 21
17934.812499051
 31
0.0
  0
DIMENSION
  5
14A
  8
SP
  2
*D13
 10
22500.210465017331
 20
17180.890569712072
 30
0.0
 11
21000.210465017331
 21
17260.890569712072
 31
0.0
 70
     0
 13
19500.210465017331
 23
17934.812499051
 33
0.0
 14
22500.210465017331
 24
17934.812499051
 34
0.0
 50
180.0
1001
ACAD
1000
DSTYLE
1002
{
1070
    40
1040
40.0
1002
}
  0
LINE
  5
157
  8
FUTO
 10
19500.210465017331
 20
18242.812499051
 30
0.0
 11
22500.210465017331
 21
18242.812499051
 31
0.0
  0
LINE
  5
158
  8
FUTO
 10
19500.210465017331
 20
18116.812499051
 30
0.0
 11
22500.210465017331
 21
18116.812499051
 31
0.0
  0
LINE
  5
159
  8
FUTO
 10
19500.210465017331
 20
18254.812499051
 30
0.0
 11
22500.210465017331
 21
18254.812499051
 31
0.0
  0
LINE
  5
15A
  8
FUTO
 10
19500.210465017331
 20
18104.812499051
 30
0.0
 11
22500.210465017331
 21
18104.812499051
 31
0.0
1001
ACAD
1000
ASC_BOUNDS
1002
{
1070
    19
1005
0
1002
}
  0
LINE
  5
15B
  8
FUTO
 10
21780.210465017331
 20
18354.812499051
 30
0.0
 11
21876.907437219099
 21
18354.812499051
 31
0.0
  0
LINE
  5
15C
  8
FUTO
 10
21780.210465017331
 20
18324.812499051
 30
0.0
 11
21890.210465017331
 21
18324.812499051
 31
0.0
  0
LINE
  5
15D
  8
FUTO
 10
21960.210465017339
 20
18324.812499051
 30
0.0
 11
21745.210465017331
 21
18324.812499051
 31
0.0
  0
LINE
  5
15E
  8
FUTO
 10
21735.210465017339
 20
18254.812499051
 30
0.0
 11
21960.210465017339
 21
18254.812499051
 31
0.0
  0
LINE
  5
15F
  8
CT
 10
21722.75150082758
 20
18604.812499051
 30
0.0
 11
22403.48768721036
 21
18604.812499051
 31
0.0
  0
LINE
  5
163
  8
CT
 10
22288.166754524271
 20
18119.340482258209
 30
0.0
 11
22288.166754524271
 21
18065.13370735406
 31
0.0
  0
LINE
  5
166
  8
FUTO
 10
22500.210465017331
 20
18084.812499051
 30
0.0
 11
22500.210465017331
 21
17934.812499051
 31
0.0
  0
LINE
  5
175
  8
FUTO
 10
22375.210465017339
 20
18324.812499051
 30
0.0
 11
22160.210465017339
 21
18324.812499051
 31
0.0
  0
LINE
  5
176
  8
FUTO
 10
22160.210465017339
 20
18254.812499051
 30
0.0
 11
22385.210465017339
 21
18254.812499051
 31
0.0
  0
CIRCLE
  5
177
  8
SL
 10
22060.210465017331
 20
18604.812499051
 30
0.0
 40
200.0
  0
LINE
  5
178
  8
FUTO
 10
22340.210465017331
 20
18471.77115209445
 30
0.0
 11
22340.210465017331
 21
18324.812499051
 31
0.0
  0
LINE
  5
179
  8
FUTO
 10
22500.210465017331
 20
18254.812499051
 30
0.0
 11
22500.210465017331
 21
18104.812499051
 31
0.0
  0
LINE
  5
17B
  8
CT
 10
22288.710465017331
 20
18369.98194754064
 30
0.0
 11
22288.710465017331
 21
18282.52118278986
 31
0.0
  0
LINE
  5
17C
  8
FUTO
 10
22243.513492815571
 20
18354.812499051
 30
0.0
 11
22340.210465017331
 21
18354.812499051
 31
0.0
  0
LINE
  5
17D
  8
FUTO
 10
22230.210465017339
 20
18345.582871114679
 30
0.0
 11
22230.210465017339
 21
18324.812499051
 31
0.0
  0
LINE
  5
17E
  8
FUTO
 10
22230.210465017339
 20
18324.812499051
 30
0.0
 11
22340.210465017331
 21
18324.812499051
 31
0.0
  0
LINE
  5
17F
  8
FUTO
 10
22385.210465017339
 20
18254.812499051
 30
0.0
 11
22375.210465017339
 21
18324.812499051
 31
0.0
  0
LINE
  5
180
  8
CT
 10
22060.210465017331
 20
18113.394113862541
 30
0.0
 11
22060.210465017331
 21
18778.9105132476
 31
0.0
  0
LINE
  5
181
  8
FUTO
 10
21904.731332741729
 20
18336.62182168353
 30
0.0
 11
22215.689597292941
 21
18336.62182168353
 31
0.0
  0
LINE
  5
182
  8
FUTO
 10
22160.210465017339
 20
18314.812499051
 30
0.0
 11
21960.210465017339
 21
18314.812499051
 31
0.0
  0
LINE
  5
183
  8
FUTO
 10
22160.210465017339
 20
18264.812499051
 30
0.0
 11
21960.210465017339
 21
18264.812499051
 31
0.0
  0
LINE
  5
184
  8
FUTO
 10
22160.210465017339
 20
18314.812499051
 30
0.0
 11
22160.210465017339
 21
18324.812499051
 31
0.0
  0
LINE
  5
185
  8
FUTO
 10
22160.210465017339
 20
18254.812499051
 30
0.0
 11
22160.210465017339
 21
18264.812499051
 31
0.0
  0
LINE
  5
186
  8
CT
 10
21831.710465017331
 20
18369.98194754064
 30
0.0
 11
21831.710465017331
 21
18278.356384468389
 31
0.0
  0
LINE
  5
187
  8
FUTO
 10
21890.210465017331
 20
18345.582871114679
 30
0.0
 11
21890.210465017331
 21
18324.812499051
 31
0.0
  0
LINE
  5
188
  8
FUTO
 10
21960.210465017339
 20
18314.812499051
 30
0.0
 11
21960.210465017339
 21
18324.812499051
 31
0.0
  0
LINE
  5
189
  8
FUTO
 10
21817.210465017339
 20
18324.812499051
 30
0.0
 11
21917.210465017331
 21
18324.812499051
 31
0.0
  0
LINE
  5
18A
  8
FUTO
 10
21960.210465017339
 20
18254.812499051
 30
0.0
 11
21960.210465017339
 21
18264.812499051
 31
0.0
  0
LINE
  5
18B
  8
CT
 10
21510.306859127089
 20
18119.340482258209
 30
0.0
 11
21510.306859127089
 21
18065.13370735406
 31
0.0
  0
LINE
  5
1A1
  8
FUTO
 10
21260.210465017339
 20
18084.812499051
 30
0.0
 11
21260.210465017339
 21
17934.812499051
 31
0.0
  0
LINE
  5
1A2
  8
FUTO
 10
21269.210465017331
 20
18084.812499051
 30
0.0
 11
21269.210465017331
 21
17934.812499051
 31
0.0
  0
LINE
  5
1A3
  8
FUTO
 10
21251.210465017339
 20
18084.812499051
 30
0.0
 11
21251.210465017339
 21
17934.812499051
 31
0.0
  0
ARC
  5
1A4
  8
FUTO
 10
20691.210465017339
 20
19565.812499051
 30
0.0
 40
1443.0
 50
294.69784295846279
 51
310.93164026379389
  0
LINE
  5
1A7
  8
FUTO
 10
21780.210465017331
 20
18471.771152094469
 30
0.0
 11
21780.210465017331
 21
18324.812499051
 31
0.0
  0
LINE
  5
1A8
  8
FUTO
 10
21603.320666905289
 20
18473.574439097069
 30
0.0
 11
21645.31726277222
 21
18423.925806564421
 31
0.0
  0
LINE
  5
1A9
  8
FUTO
 10
21617.063501472829
 20
18485.199175569309
 30
0.0
 11
21659.06009733976
 21
18435.550543036661
 31
0.0
  0
LINE
  5
1AA
  8
FUTO
 10
21610.210465017331
 20
18479.365077405571
 30
0.0
 11
21652.188680055991
 21
18429.738174800539
 31
0.0
  0
LINE
  5
1AB
  8
FUTO
 10
21745.210465017331
 20
18324.812499051
 30
0.0
 11
21735.210465017339
 21
18254.812499051
 31
0.0
  0
LINE
  5
1AC
  8
FUTO
 10
21645.317262772202
 20
18423.92580656441
 30
0.0
 11
21659.06009733976
 21
18435.550543036661
 31
0.0
  0
LINE
  5
1AE
  8
KL
 10
21185.210465017331
 20
18254.812499051
 30
0.0
 11
21185.210465017331
 21
18104.812499051
 31
0.0
  0
LINE
  5
1AF
  8
FUTO
 10
21251.210465017339
 20
18254.812499051
 30
0.0
 11
21251.210465017339
 21
18104.812499051
 31
0.0
  0
LINE
  5
1B0
  8
FUTO
 10
21269.210465017331
 20
18254.812499051
 30
0.0
 11
21269.210465017331
 21
18104.812499051
 31
0.0
  0
LINE
  5
1B1
  8
FUTO
 10
21260.210465017339
 20
18254.812499051
 30
0.0
 11
21260.210465017339
 21
18104.812499051
 31
0.0
  0
LINE
  5
1B2
  8
KL
 10
21260.210465017339
 20
18268.977393589419
 30
0.0
 11
21260.210465017339
 21
18104.812499051
 31
0.0
  0
DIMENSION
  5
1B3
  8
SP
  2
*D15
 10
20560.210465017331
 20
17499.605120332701
 30
0.0
 11
20030.210465017331
 21
17579.605120332701
 31
0.0
 70
     0
 13
19500.210465017331
 23
17934.812499051
 33
0.0
 14
20560.210465017331
 24
17854.158324040789
 34
0.0
 50
180.0
1001
ACAD
1000
DSTYLE
1002
{
1070
    40
1040
40.0
1002
}
  0
LINE
  5
1C2
  8
CT
 10
20719.728703907669
 20
18119.340482258209
 30
0.0
 11
20719.728703907669
 21
18065.13370735406
 31
0.0
  0
LINE
  5
1D4
  8
CT
 10
19682.094881793932
 20
18119.340482258209
 30
0.0
 11
19682.094881793932
 21
18065.13370735406
 31
0.0
  0
LINE
  5
1E2
  8
FUTO
 10
19860.210465017339
 20
18084.812499051
 30
0.0
 11
19860.210465017339
 21
17934.812499051
 31
0.0
  0
LINE
  5
1E8
  8
FUTO
 10
19500.210465017331
 20
18084.812499051
 30
0.0
 11
19500.210465017331
 21
17934.812499051
 31
0.0
  0
LINE
  5
1EC
  8
KL
 10
19935.210465017331
 20
18254.812499051
 30
0.0
 11
19935.210465017331
 21
18104.812499051
 31
0.0
  0
LINE
  5
1ED
  8
FUTO
 10
19860.210465017339
 20
18254.812499051
 30
0.0
 11
19860.210465017339
 21
18104.812499051
 31
0.0
  0
LINE
  5
1EE
  8
KL
 10
19860.210465017339
 20
18268.977393589419
 30
0.0
 11
19860.210465017339
 21
18104.812499051
 31
0.0
  0
LINE
  5
1EF
  8
FUTO
 10
19500.210465017331
 20
18254.812499051
 30
0.0
 11
19500.210465017331
 21
18104.812499051
 31
0.0
  0
LINE
  5
1F0
  8
FUTO
 10
22249.09037946217
 20
24062.25022384063
 30
0.0
 11
22249.09037946217
 21
23910.25022384063
 31
0.0
  0
LINE
  5
1F1
  8
FUTO
 10
22500.210465017331
 20
24137.25022384062
 30
0.0
 11
22500.210465017331
 21
24062.25022384063
 31
0.0
  0
LINE
  5
1F2
  8
CT
 10
22060.210465017331
 20
23987.622112398742
 30
0.0
 11
22060.210465017331
 21
22444.15540079397
 31
0.0
  0
LINE
  5
1F3
  8
FUTO
 10
21260.210465017339
 20
24062.25022384062
 30
0.0
 11
21260.210465017339
 21
22690.25022384062
 31
0.0
  0
LINE
  5
1F4
  8
FUTO
 10
21185.210465017339
 20
24062.25022384062
 30
0.0
 11
21185.210465017331
 21
22765.25022384062
 31
0.0
  0
LINE
  5
1F5
  8
FUTO
 10
19935.210465017331
 20
24062.25022384062
 30
0.0
 11
19935.210465017339
 21
22765.25022384062
 31
0.0
  0
LINE
  5
1F6
  8
FUTO
 10
19860.210465017339
 20
24062.25022384062
 30
0.0
 11
19860.210465017339
 21
22690.25022384062
 31
0.0
  0
DIMENSION
  5
253
  8
SP
  2
*D16
 10
20560.210465017331
 20
21896.610515213601
 30
0.0
 11
19977.710465017339
 21
21976.610515213601
 31
0.0
 70
     0
 13
19395.210465017339
 23
21424.812499051
 33
0.0
 14
20560.210465017331
 24
21425.078037615371
 34
0.0
 50
180.0
1001
ACAD
1000
DSTYLE
1002
{
1070
    40
1040
40.0
1002
}
  0
LINE
  5
262
  8
KL
 10
20902.258890841382
 20
19312.812499051
 30
0.0
 11
21116.32374839102
 21
18688.570480642898
 31
0.0
  0
ARC
  5
263
  8
FUTO
 10
20560.210465017331
 20
19434.812499051
 30
0.0
 40
480.0
 50
54.343159773977021
 51
247.74240502844651
  0
LINE
  5
264
  8
FUTO
 10
22223.430674461932
 20
18832.318901661711
 30
0.0
 11
20840.016538350919
 21
19824.823474955061
 31
0.0
  0
LINE
  5
265
  8
FUTO
 10
20860.210465017331
 20
19312.812499051
 30
0.0
 11
20902.258890841382
 21
19312.812499051
 31
0.0
  0
LINE
  5
267
  8
FUTO
 10
22158.210465017339
 20
19425.812499051
 30
0.0
 11
21396.182665321481
 21
19425.812499051
 31
0.0
  0
LINE
  5
268
  8
FUTO
 10
22158.210465017339
 20
19443.812499051
 30
0.0
 11
21371.093154280359
 21
19443.812499051
 31
0.0
  0
ARC
  5
269
  8
FUTO
 10
20429.210465017331
 20
19565.812499051
 30
0.0
 40
1705.0
 50
355.89673679108768
 51
85.593459492743051
  0
ARC
  5
26A
  8
KL
 10
20429.210465017331
 20
19565.812499051
 30
0.0
 40
1685.0
 50
4.8366232341939783
 51
84.612059138996784
  0
LINE
  5
26D
  8
FUTO
 10
21601.210465017331
 20
20804.134347360239
 30
0.0
 11
21601.210465017331
 21
19434.812499051
 31
0.0
  0
LINE
  5
26E
  8
FUTO
 10
21610.210465017331
 20
20795.55393528871
 30
0.0
 11
21610.210465017331
 21
19434.812499051
 31
0.0
  0
LINE
  5
26F
  8
KL
 10
22108.210465017339
 20
19435.27514807435
 30
0.0
 11
22108.210465017339
 21
19707.882904132421
 31
0.0
  0
LINE
  5
272
  8
CT
 10
22161.916879641602
 20
19054.812499051
 30
0.0
 11
22316.21381716129
 21
19054.812499051
 31
0.0
  0
LINE
  5
273
  8
FUTO
 10
21850.210465017331
 20
19194.812499051
 30
0.0
 11
22240.210465017339
 21
19194.812499051
 31
0.0
  0
LINE
  5
274
  8
FUTO
 10
21850.210465017331
 20
18929.812499051
 30
0.0
 11
22240.210465017339
 21
18929.812499051
 31
0.0
  0
ARC
  5
275
  8
FUTO
 10
22240.210465017339
 20
19174.812499051
 30
0.0
 40
20.0
 50
0.000000000000007
 51
90.0
  0
ARC
  5
276
  8
FUTO
 10
22240.210465017339
 20
18949.812499051
 30
0.0
 40
20.0
 50
270.0
 51
0.000000000000007
  0
LINE
  5
277
  8
FUTO
 10
22260.210465017331
 20
19174.812499051
 30
0.0
 11
22260.210465017331
 21
18949.812499051
 31
0.0
  0
ARC
  5
279
  8
FUTO
 10
21850.210465017331
 20
19174.812499051
 30
0.0
 40
20.0
 50
90.0
 51
180.0
  0
LINE
  5
27A
  8
KL
 10
22006.564107819559
 20
19024.172586962799
 30
0.0
 11
22042.877345786241
 21
19007.239446006541
 31
0.0
  0
LINE
  5
27B
  8
CT
 10
21943.531261161861
 20
18981.845721342041
 30
0.0
 11
22050.477544397909
 21
18931.97585045786
 31
0.0
  0
LINE
  5
27C
  8
KL
 10
22056.166606274011
 20
19012.076341259501
 30
0.0
 11
21992.773867012911
 21
18876.130173204001
 31
0.0
  0
LINE
  5
27D
  8
KL
 10
22042.877345786241
 20
19007.239446006541
 30
0.0
 11
21987.936971759951
 21
18889.419433691779
 31
0.0
  0
LINE
  5
27E
  8
KL
 10
22010.790290436969
 20
19033.23566483317
 30
0.0
 11
22056.166606274011
 21
19012.076341259501
 31
0.0
  0
LINE
  5
27F
  8
KL
 10
21947.397551175869
 20
18897.289496777681
 30
0.0
 11
21992.773867012911
 21
18876.130173204001
 31
0.0
  0
LINE
  5
280
  8
KL
 10
21951.62373379328
 20
18906.352574648052
 30
0.0
 11
21987.936971759951
 21
18889.419433691779
 31
0.0
  0
ARC
  5
281
  8
FUTO
 10
21850.210465017331
 20
18949.812499051
 30
0.0
 40
20.0
 50
180.0
 51
270.0
  0
LINE
  5
282
  8
FUTO
 10
21830.210465017339
 20
19174.812499051
 30
0.0
 11
21830.210465017339
 21
18949.812499051
 31
0.0
  0
LINE
  5
283
  8
FUTO
 10
22158.210465017339
 20
19443.812499051
 30
0.0
 11
22158.210465017339
 21
19425.812499051
 31
0.0
  0
ARC
  5
284
  8
FUTO
 10
20691.210465017339
 20
19565.812499051
 30
0.0
 40
1443.0
 50
345.1017511652517
 51
354.43239996147793
  0
LINE
  5
285
  8
FUTO
 10
19460.210465017339
 20
19436.812499051
 30
0.0
 11
19460.210465017339
 21
21424.812499051
 31
0.0
  0
LINE
  5
286
  8
FUTO
 10
19395.210465017339
 20
19649.372271083339
 30
0.0
 11
19395.210465017339
 21
20676.774439828121
 31
0.0
  0
LINE
  5
287
  8
FUTO
 10
19395.210465017339
 20
19649.372271083339
 30
0.0
 11
19395.210465017339
 21
21424.812499051
 31
0.0
  0
LINE
  5
288
  8
FUTO
 10
19401.210465017331
 20
19648.314309199079
 30
0.0
 11
19401.210465017331
 21
20682.774439828121
 31
0.0
  0
LINE
  5
289
  8
FUTO
 10
19519.210465017339
 20
21364.206136310589
 30
0.0
 11
19519.210465017339
 21
19443.812499051
 31
0.0
  0
LINE
  5
28A
  8
FUTO
 10
19510.210465017339
 20
21365.054975658019
 30
0.0
 11
19510.210465017331
 21
19443.812499051
 31
0.0
  0
LINE
  5
291
  8
KL
 10
20361.989650780029
 20
19408.194670381072
 30
0.0
 11
20082.966950182239
 21
19383.444926129509
 31
0.0
  0
LINE
  5
292
  8
KL
 10
20360.399267276222
 20
19426.124273843248
 30
0.0
 11
20081.376566678431
 21
19401.374529591689
 31
0.0
  0
CIRCLE
  5
295
  8
SL
 10
20560.210465017331
 20
19434.812499051
 30
0.0
 40
355.0
  0
ARC
  5
296
  8
FUTO
 10
20508.210465017339
 20
19524.879141044581
 30
0.0
 40
15.000000000000099
 50
25.864502996822029
 51
214.135497003171
  0
ARC
  5
297
  8
FUTO
 10
20560.210465017331
 20
19434.812499051
 30
0.0
 40
103.9999999999995
 50
68.270994006339393
 51
111.7290059936601
  0
LINE
  5
298
  8
CT
 10
20560.210465017331
 20
19558.581258215709
 30
0.0
 11
20560.210465017331
 21
19304.988775148871
 31
0.0
  0
ARC
  5
299
  8
FUTO
 10
20612.210465017331
 20
19524.879141044581
 30
0.0
 40
15.000000000000201
 50
325.8645029968294
 51
154.13549700317759
  0
ARC
  5
29E
  8
FUTO
 10
20508.210465017339
 20
19344.74585705742
 30
0.0
 40
14.99999999999998
 50
145.86450299682841
 51
334.13549700317782
  0
CIRCLE
  5
29F
  8
FUTO
 10
20560.210465017331
 20
19434.812499051
 30
0.0
 40
41.5
  0
LINE
  5
2A0
  8
FUTO
 10
20645.210465017339
 20
19327.812499051
 30
0.0
 11
20475.210465017339
 21
19327.812499051
 31
0.0
  0
LINE
  5
2A2
  8
KL
 10
20218.162039193288
 20
19312.812499051
 30
0.0
 11
20560.210465017331
 21
19312.812499051
 31
0.0
  0
LINE
  5
2A4
  8
FUTO
 10
20684.210465017331
 20
19358.812499051
 30
0.0
 11
20752.210465017339
 21
19358.812499051
 31
0.0
  0
LINE
  5
2A5
  8
FUTO
 10
20765.210465017339
 20
19322.812499051
 30
0.0
 11
20645.210465017339
 21
19322.812499051
 31
0.0
  0
LINE
  5
2A6
  8
KL
 10
20902.258890841382
 20
19312.812499051
 30
0.0
 11
20560.210465017331
 21
19312.812499051
 31
0.0
  0
LINE
  5
2A7
  8
FUTO
 10
20765.210465017339
 20
19322.812499051
 30
0.0
 11
20765.210465017339
 21
19312.812499051
 31
0.0
  0
ARC
  5
2A8
  8
FUTO
 10
20752.210465017339
 20
19355.812499051
 30
0.0
 40
3.0
 50
0.000000000000007
 51
90.0
  0
LINE
  5
2A9
  8
FUTO
 10
20755.210465017339
 20
19355.812499051
 30
0.0
 11
20755.210465017339
 21
19322.812499051
 31
0.0
  0
LINE
  5
2AA
  8
KL
 10
20760.210465017331
 20
19443.812499051
 30
0.0
 11
20760.210465017331
 21
19425.812499051
 31
0.0
  0
ARC
  5
2AD
  8
FUTO
 10
20560.210465017331
 20
19434.812499051
 30
0.0
 40
104.0000000000007
 50
248.27099400633949
 51
291.72900599365971
  0
ARC
  5
2AE
  8
FUTO
 10
20664.210465017339
 20
19434.812499051
 30
0.0
 40
15.0
 50
265.86450299682951
 51
94.135497003170499
  0
ARC
  5
2AF
  8
FUTO
 10
20684.210465017331
 20
19378.812499051
 30
0.0
 40
20.0
 50
180.0
 51
270.0
  0
LINE
  5
2B0
  8
FUTO
 10
20645.210465017339
 20
19322.812499051
 30
0.0
 11
20645.210465017339
 21
19327.812499051
 31
0.0
  0
LINE
  5
2B1
  8
CT
 10
20720.210465017331
 20
19312.812499051
 30
0.0
 11
20720.210465017331
 21
19368.812499051
 31
0.0
  0
LINE
  5
2B2
  8
FUTO
 10
20664.210465017339
 20
19419.812499051
 30
0.0
 11
20664.210465017339
 21
19378.812499051
 31
0.0
  0
ARC
  5
2B3
  8
FUTO
 10
20612.210465017331
 20
19344.74585705742
 30
0.0
 40
14.999999999999719
 50
205.86450299682281
 51
34.135497003170862
  0
ARC
  5
2B4
  8
FUTO
 10
20560.210465017331
 20
19434.812499051
 30
0.0
 40
104.0000000000002
 50
308.27099400633909
 51
351.72900599365983
  0
ARC
  5
2B5
  8
FUTO
 10
20560.210465017331
 20
19434.812499051
 30
0.0
 40
103.9999999999998
 50
8.2709940063395706
 51
51.729005993660287
  0
LINE
  5
2B6
  8
KL
 10
20360.399267276222
 20
19426.124273843248
 30
0.0
 11
20361.989650780029
 21
19408.194670381072
 31
0.0
  0
LINE
  5
2B7
  8
FUTO
 10
20355.210465017339
 20
19312.812499051
 30
0.0
 11
20355.210465017339
 21
19322.812499051
 31
0.0
  0
ARC
  5
2B8
  8
FUTO
 10
20368.210465017331
 20
19355.812499051
 30
0.0
 40
3.0
 50
90.0
 51
180.0
  0
LINE
  5
2B9
  8
FUTO
 10
20365.210465017339
 20
19322.812499051
 30
0.0
 11
20365.210465017339
 21
19355.812499051
 31
0.0
  0
LINE
  5
2BA
  8
CT
 10
20400.210465017331
 20
19312.812499051
 30
0.0
 11
20400.210465017331
 21
19368.812499051
 31
0.0
  0
LINE
  5
2BB
  8
FUTO
 10
20368.210465017331
 20
19358.812499051
 30
0.0
 11
20436.210465017331
 21
19358.812499051
 31
0.0
  0
LINE
  5
2BC
  8
FUTO
 10
20456.210465017339
 20
19378.812499051
 30
0.0
 11
20456.210465017339
 21
19419.812499051
 31
0.0
  0
ARC
  5
2BD
  8
FUTO
 10
20436.210465017331
 20
19378.812499051
 30
0.0
 40
20.0
 50
270.0
 51
0.000000000000007
  0
LINE
  5
2BE
  8
FUTO
 10
20475.210465017339
 20
19327.812499051
 30
0.0
 11
20475.210465017339
 21
19322.812499051
 31
0.0
  0
LINE
  5
2BF
  8
FUTO
 10
20475.210465017339
 20
19322.812499051
 30
0.0
 11
20355.210465017339
 21
19322.812499051
 31
0.0
  0
ARC
  5
2C0
  8
FUTO
 10
20456.210465017339
 20
19434.812499051
 30
0.0
 40
15.0
 50
85.864502996829515
 51
270.0
  0
ARC
  5
2C1
  8
FUTO
 10
20560.210465017331
 20
19434.812499051
 30
0.0
 40
103.9999999999998
 50
188.27099400633949
 51
231.72900599366031
  0
ARC
  5
2C2
  8
FUTO
 10
20560.210465017331
 20
19434.812499051
 30
0.0
 40
103.9999999999994
 50
128.27099400633961
 51
171.72900599366019
  0
INSERT
  5
2C5
  8
FUTO
  2
左回転矢印
 10
20372.775858465091
 20
20133.251572399939
 30
0.0
 41
2.0
 42
2.0
 43
2.0
  0
LINE
  5
2D0
  8
FUTO
 10
20533.15596250023
 20
19535.231889078779
 30
0.0
 11
20533.15596250023
 21
19538.812499051
 31
0.0
  0
LINE
  5
2D1
  8
FUTO
 10
20587.26496753444
 20
19535.231889078779
 30
0.0
 11
20587.26496753444
 21
19538.812499051
 31
0.0
  0
LINE
  5
2D2
  8
FUTO
 10
20587.26496753444
 20
19538.812499051
 30
0.0
 11
20533.15596250023
 21
19538.812499051
 31
0.0
  0
LINE
  5
2D3
  8
FUTO
 10
19401.210465017331
 20
19436.812499051
 30
0.0
 11
19401.210465017331
 21
19684.16088999113
 31
0.0
  0
LINE
  5
2D4
  8
FUTO
 10
19395.210465017339
 20
19436.812499051
 30
0.0
 11
19395.210465017339
 21
19685.499473150088
 31
0.0
  0
LINE
  5
2D5
  8
FUTO
 10
19395.210465017339
 20
19436.812499051
 30
0.0
 11
19395.210465017339
 21
19631.094592069388
 31
0.0
  0
ARC
  5
2D6
  8
KL
 10
20449.710465017331
 20
19324.312499051
 30
0.0
 40
960.5
 50
144.2993633955663
 51
180.0
  0
LINE
  5
2D8
  8
FUTO
 10
19480.113975857381
 20
19485.812499051
 30
0.0
 11
19395.210465017339
 21
19485.812499051
 31
0.0
  0
LINE
  5
2D9
  8
FUTO
 10
19460.210465017339
 20
19436.812499051
 30
0.0
 11
19395.210465017339
 21
19436.812499051
 31
0.0
  0
LINE
  5
2DA
  8
FUTO
 10
19460.210465017339
 20
19436.812499051
 30
0.0
 11
19395.210465017339
 21
19436.812499051
 31
0.0
  0
LINE
  5
2DB
  8
KL
 10
19506.514833136011
 20
19505.812499051
 30
0.0
 11
19395.210465017339
 21
19505.812499051
 31
0.0
  0
LINE
  5
2DC
  8
FUTO
 10
19372.4431746103
 20
19338.49104338255
 30
0.0
 11
19370.033513907241
 21
19320.206629824632
 31
0.0
  0
LINE
  5
2DD
  8
FUTO
 10
19395.210465017339
 20
21375.901256208599
 30
0.0
 11
20589.307874066639
 21
21263.279382267188
 31
0.0
  0
LINE
  5
2DE
  8
KL
 10
19395.210465017339
 20
21355.812499051
 30
0.0
 11
20587.429898593931
 21
21243.367747273449
 31
0.0
  0
LINE
  5
2E3
  8
FUTO
 10
19401.210465017331
 20
20682.774439828121
 30
0.0
 11
19401.210465017331
 21
21424.812499051
 31
0.0
  0
LINE
  5
2E4
  8
FUTO
 10
19460.210465017339
 20
21424.812499051
 30
0.0
 11
19395.210465017339
 21
21424.812499051
 31
0.0
  0
LINE
  5
2FF
  8
FUTO
 10
22500.210465017331
 20
22765.25022384062
 30
0.0
 11
19860.210465017339
 21
22765.25022384062
 31
0.0
  0
LINE
  5
300
  8
FUTO
 10
22500.210465017331
 20
22690.25022384063
 30
0.0
 11
19860.210465017339
 21
22690.25022384062
 31
0.0
  0
LINE
  5
3C8
  8
FUTO
 10
22114.210465017339
 20
25465.25022384062
 30
0.0
 11
19395.210465017339
 21
25465.25022384062
 31
0.0
  0
LINE
  5
3C9
  8
FUTO
 10
21620.210465017331
 20
24137.25022384062
 30
0.0
 11
19395.210465017339
 21
24137.25022384062
 31
0.0
  0
LINE
  5
3CA
  8
FUTO
 10
21620.210465017331
 20
24062.25022384062
 30
0.0
 11
19500.210465017331
 21
24062.25022384062
 31
0.0
  0
LINE
  5
3CB
  8
FUTO
 10
21620.210465017331
 20
25540.25022384063
 30
0.0
 11
19500.210465017331
 21
25540.25022384062
 31
0.0
  0
LINE
  5
3DA
  8
FUTO
 10
22500.210465017331
 20
24062.25022384063
 30
0.0
 11
21260.210465017339
 21
24062.25022384062
 31
0.0
  0
LINE
  5
3DB
  8
FUTO
 10
22500.210465017331
 20
24137.25022384062
 30
0.0
 11
22164.210465017331
 21
24137.25022384062
 31
0.0
  0
LINE
  5
406
  8
FUTO
 10
19500.210465017339
 20
24062.25022384062
 30
0.0
 11
19500.210465017339
 21
24087.25022384062
 31
0.0
  0
LINE
  5
438
  8
SL
 10
23470.78590997752
 20
19713.186299051002
 30
0.0
 11
23470.78590997752
 21
18713.186299051002
 31
0.0
  0
LINE
  5
439
  8
SL
 10
23300.78590997752
 20
19713.186299051002
 30
0.0
 11
23300.785909977531
 21
18713.186299051002
 31
0.0
  0
LINE
  5
43A
  8
CT
 10
25600.78590997752
 20
21616.554895382749
 30
0.0
 11
25600.78590997752
 21
17913.885430451079
 31
0.0
  0
LINE
  5
43C
  8
FUTO
 10
26263.98590997752
 20
18254.812482445021
 30
0.0
 11
26263.98590997752
 21
19501.886299050999
 31
0.0
  0
LINE
  5
43D
  8
FUTO
 10
26260.785909977531
 20
18254.812482445021
 30
0.0
 11
26260.78590997752
 21
19501.886299050999
 31
0.0
  0
LINE
  5
43E
  8
FUTO
 10
24940.78590997752
 20
18254.812482445021
 30
0.0
 11
24940.78590997752
 21
19501.886299050999
 31
0.0
  0
LINE
  5
43F
  8
FUTO
 10
24937.58590997753
 20
18254.812482445021
 30
0.0
 11
24937.585909977519
 21
19501.886299050999
 31
0.0
  0
LINE
  5
441
  8
FUTO
 10
23500.78590997752
 20
19813.186299051002
 30
0.0
 11
23500.78590997752
 21
18353.186299051002
 31
0.0
  0
LINE
  5
442
  8
FUTO
 10
23150.78590997752
 20
19813.186299051002
 30
0.0
 11
23150.78590997752
 21
18353.186299051002
 31
0.0
  0
LINE
  5
445
  8
FUTO
 10
24550.78590997752
 20
19283.186299051002
 30
0.0
 11
24550.785909977509
 21
19273.186299051002
 31
0.0
  0
LINE
  5
446
  8
FUTO
 10
24730.78590997752
 20
19283.186299051002
 30
0.0
 11
24730.78590997752
 21
18254.812482445021
 31
0.0
  0
LINE
  5
449
  8
FUTO
 10
23729.78590997752
 20
19311.186299051002
 30
0.0
 11
23729.78590997752
 21
19273.186299051009
 31
0.0
  0
LINE
  5
44A
  8
FUTO
 10
23549.78590997752
 20
19311.186299051002
 30
0.0
 11
23549.78590997752
 21
18913.186299051002
 31
0.0
  0
DIMENSION
  5
44B
  8
SP
  2
*D20
 10
26975.794052189249
 20
18533.186299051002
 30
0.0
 11
26895.794052189249
 21
19433.186299051009
 31
0.0
 70
     0
  1
%%C<>
 13
26395.78590997752
 23
20333.186299051002
 33
0.0
 14
26395.78590997752
 24
18533.186299051002
 34
0.0
 50
90.0
1001
ACAD
1000
DSTYLE
1002
{
1070
    40
1040
40.0
1002
}
  0
LINE
  5
461
  8
KL
 10
26269.98590997752
 20
20398.186299051002
 30
0.0
 11
26269.98590997752
 21
18468.186299051002
 31
0.0
  0
LINE
  5
462
  8
FUTO
 10
26389.78590997752
 20
20398.186299051002
 30
0.0
 11
26389.78590997752
 21
18468.186299051002
 31
0.0
  0
LINE
  5
463
  8
FUTO
 10
26395.78590997752
 20
20398.186299051002
 30
0.0
 11
26395.78590997752
 21
18468.186299051002
 31
0.0
  0
LINE
  5
464
  8
FUTO
 10
24847.585909977519
 20
19408.16714374525
 30
0.0
 11
24847.585909977519
 21
18254.812482445021
 31
0.0
  0
LINE
  5
465
  8
FUTO
 10
26353.98590997752
 20
19408.16714374525
 30
0.0
 11
26353.98590997752
 21
18254.812482445021
 31
0.0
  0
LINE
  5
46B
  8
FUTO
 10
24861.78590997752
 20
18072.812482445021
 30
0.0
 11
26264.781909977519
 21
18072.812482445021
 31
0.0
  0
LINE
  5
46C
  8
FUTO
 10
24861.78590997752
 20
17946.812482445021
 30
0.0
 11
26264.781909977519
 21
17946.812482445021
 31
0.0
  0
LINE
  5
46D
  8
FUTO
 10
24861.78590997752
 20
18116.812482445021
 30
0.0
 11
26264.781909977519
 21
18116.812482445021
 31
0.0
  0
LINE
  5
46E
  8
FUTO
 10
24861.78590997752
 20
18242.812482445021
 30
0.0
 11
26264.781909977519
 21
18242.812482445021
 31
0.0
  0
LINE
  5
46F
  8
KL
 10
24940.78590997752
 20
18141.186299051002
 30
0.0
 11
26260.785909977531
 21
18141.186299051002
 31
0.0
  0
LINE
  5
470
  8
FUTO
 10
23489.78990997752
 20
18084.812482445021
 30
0.0
 11
26339.781909977519
 21
18084.812482445021
 31
0.0
1001
ACAD
1000
ASC_BOUNDS
1002
{
1070
    19
1002
}
  0
LINE
  5
471
  8
FUTO
 10
23489.78590997752
 20
18104.81248244501
 30
0.0
 11
26339.78590997752
 21
18104.81248244501
 31
0.0
1001
ACAD
1000
ASC_BOUNDS
1002
{
1070
    19
1005
0
1005
0
1005
0
1002
}
  0
DIMENSION
  5
472
  8
SP
  2
*D18
 10
25600.78590997752
 20
17495.3318696807
 30
0.0
 11
24545.28590997752
 21
17575.3318696807
 31
0.0
 70
     0
 13
23489.78590997752
 23
17934.812482445021
 33
0.0
 14
25600.78590997752
 24
17913.885430451079
 34
0.0
1001
ACAD
1000
DSTYLE
1002
{
1070
    40
1040
40.0
1002
}
  0
DIMENSION
  5
47F
  8
SP
  2
*D17
 10
26339.78590997752
 20
17195.294324715778
 30
0.0
 11
24914.78590997752
 21
17275.294324715778
 31
0.0
 70
     0
 13
23489.78590997752
 23
17934.812482445021
 33
0.0
 14
26339.78590997752
 24
17934.812482445021
 34
0.0
1001
ACAD
1000
DSTYLE
1002
{
1070
    40
1040
40.0
1002
}
  0
LINE
  5
48C
  8
FUTO
 10
23489.785909977531
 20
17934.812482445021
 30
0.0
 11
26339.781909977519
 21
17934.812482445021
 31
0.0
  0
LINE
  5
48D
  8
FUTO
 10
23489.785909977531
 20
18254.812482445021
 30
0.0
 11
26353.985909977509
 21
18254.812482445021
 31
0.0
  0
LINE
  5
48E
  8
CT
 10
23092.476638428609
 20
18603.186299051002
 30
0.0
 11
23672.979171284722
 21
18603.186299051002
 31
0.0
  0
LINE
  5
491
  8
FUTO
 10
23564.78990997752
 20
17946.812482445021
 30
0.0
 11
24843.896014583032
 21
17946.81248244501
 31
0.0
  0
LINE
  5
492
  8
FUTO
 10
23564.78990997752
 20
18072.812482445021
 30
0.0
 11
24843.89601458305
 21
18072.812482445021
 31
0.0
  0
LINE
  5
493
  8
FUTO
 10
23564.78990997752
 20
18242.812482445021
 30
0.0
 11
24843.89601458305
 21
18242.812482445021
 31
0.0
  0
LINE
  5
494
  8
FUTO
 10
23564.78990997752
 20
18116.812482445021
 30
0.0
 11
24843.89601458305
 21
18116.812482445021
 31
0.0
  0
LINE
  5
495
  8
CT
 10
23524.78990997752
 20
18117.71428225821
 30
0.0
 11
23524.78990997752
 21
18063.507507354061
 31
0.0
  0
LINE
  5
4AA
  8
FUTO
 10
23564.78990997752
 20
18084.812482445021
 30
0.0
 11
23564.78990997752
 21
17934.812482445021
 31
0.0
  0
LINE
  5
4AB
  8
FUTO
 10
23564.78990997752
 20
17934.812482445021
 30
0.0
 11
23489.78990997752
 21
17934.812482445021
 31
0.0
  0
LINE
  5
4AC
  8
FUTO
 10
23554.638532948509
 20
17947.489515074481
 30
0.0
 11
23493.441287006532
 21
17942.135449815549
 31
0.0
  0
LINE
  5
4AD
  8
FUTO
 10
23564.78990997752
 20
18084.812482445021
 30
0.0
 11
23489.78990997752
 21
18084.812482445021
 31
0.0
1001
ACAD
1000
ASC_BOUNDS
1002
{
1070
    19
1002
}
  0
LINE
  5
4AE
  8
FUTO
 10
23554.638532948509
 20
18072.135449815549
 30
0.0
 11
23493.441287006532
 21
18077.489515074481
 31
0.0
  0
LINE
  5
4AF
  8
FUTO
 10
23558.289909977531
 20
18068.150671023181
 30
0.0
 11
23558.289909977531
 21
17951.47429386685
 31
0.0
  0
ARC
  5
4B0
  8
FUTO
 10
23554.289909977531
 20
17951.47429386685
 30
0.0
 40
4.0
 50
274.99999999999972
 51
0.0
  0
LINE
  5
4B1
  8
FUTO
 10
23564.78990997752
 20
18084.812482445021
 30
0.0
 11
23564.78990997752
 21
17934.812482445021
 31
0.0
  0
ARC
  5
4B2
  8
FUTO
 10
23554.289909977531
 20
18068.150671023181
 30
0.0
 40
4.0
 50
0.0
 51
85.000000000000256
  0
ARC
  5
4B3
  8
FUTO
 10
23493.78990997752
 20
17938.150671023181
 30
0.0
 40
4.0
 50
95.000000000000185
 51
180.0
  0
LINE
  5
4B4
  8
FUTO
 10
23489.78990997752
 20
17934.812482445021
 30
0.0
 11
23489.78990997752
 21
17938.150671023181
 31
0.0
  0
LINE
  5
4B5
  8
FUTO
 10
23489.78990997752
 20
18084.812482445021
 30
0.0
 11
23489.78990997752
 21
18081.47429386685
 31
0.0
  0
ARC
  5
4B6
  8
FUTO
 10
23493.78990997752
 20
18081.47429386685
 30
0.0
 40
4.0
 50
180.0
 51
264.99999999999977
  0
ARC
  5
4B7
  8
FUTO
 10
23494.78590997752
 20
17937.234482445008
 30
0.0
 40
5.0
 50
95.001000000000005
 51
180.00099999999989
  0
LINE
  5
4B8
  8
FUTO
 10
23494.352909977519
 20
17942.215482445019
 30
0.0
 11
23549.156909977519
 21
17947.01248244501
 31
0.0
  0
LINE
  5
4B9
  8
FUTO
 10
23489.78590997752
 20
17934.812482445021
 30
0.0
 11
23489.78590997752
 21
17937.234482445008
 31
0.0
  0
LINE
  5
4BA
  8
FUTO
 10
23489.78590997752
 20
17934.812482445021
 30
0.0
 11
23564.78590997752
 21
17934.812482445021
 31
0.0
  0
LINE
  5
4BB
  8
SL
 10
23470.78590997752
 20
18713.186299051002
 30
0.0
 11
23470.78590997752
 21
18463.186299051002
 31
0.0
  0
LINE
  5
4BC
  8
SL
 10
23300.78590997752
 20
18713.186299051002
 30
0.0
 11
23300.78590997752
 21
18463.186299051002
 31
0.0
  0
LINE
  5
4BD
  8
SL
 10
23300.78590997752
 20
18463.186299051002
 30
0.0
 11
23470.78590997752
 21
18463.186299051002
 31
0.0
  0
LINE
  5
4BE
  8
FUTO
 10
23150.78590997752
 20
18353.186299051002
 30
0.0
 11
23500.78590997752
 21
18353.186299051002
 31
0.0
  0
LINE
  5
4C1
  8
FUTO
 10
23489.78590997752
 20
18104.81248244501
 30
0.0
 11
23564.78590997752
 21
18104.81248244501
 31
0.0
  0
LINE
  5
4C2
  8
FUTO
 10
23489.78590997752
 20
18104.81248244501
 30
0.0
 11
23489.78590997752
 21
18107.234482445019
 31
0.0
  0
LINE
  5
4C3
  8
FUTO
 10
23494.352909977519
 20
18112.215482445012
 30
0.0
 11
23549.156909977519
 21
18117.01248244501
 31
0.0
  0
ARC
  5
4C4
  8
FUTO
 10
23493.78990997752
 20
18251.474293866839
 30
0.0
 40
4.0
 50
180.0
 51
264.99999999999977
  0
LINE
  5
4C5
  8
FUTO
 10
23489.78990997752
 20
18254.812482445021
 30
0.0
 11
23489.78990997752
 21
18251.474293866839
 31
0.0
  0
LINE
  5
4C6
  8
FUTO
 10
23489.78990997752
 20
18104.81248244501
 30
0.0
 11
23489.78990997752
 21
18108.150671023181
 31
0.0
  0
ARC
  5
4C7
  8
FUTO
 10
23493.78990997752
 20
18108.150671023181
 30
0.0
 40
4.0
 50
95.000000000000185
 51
180.0
  0
ARC
  5
4C8
  8
FUTO
 10
23554.289909977531
 20
18238.150671023181
 30
0.0
 40
4.0
 50
0.0
 51
85.000000000000256
  0
LINE
  5
4C9
  8
FUTO
 10
23564.78990997752
 20
18254.812482445021
 30
0.0
 11
23564.78990997752
 21
18104.81248244501
 31
0.0
  0
ARC
  5
4CA
  8
FUTO
 10
23554.289909977531
 20
18121.47429386685
 30
0.0
 40
4.0
 50
274.99999999999972
 51
0.0
  0
LINE
  5
4CB
  8
FUTO
 10
23558.289909977531
 20
18238.150671023181
 30
0.0
 11
23558.289909977531
 21
18121.47429386685
 31
0.0
  0
LINE
  5
4CC
  8
FUTO
 10
23554.638532948509
 20
18242.135449815549
 30
0.0
 11
23493.441287006532
 21
18247.489515074481
 31
0.0
  0
LINE
  5
4CD
  8
FUTO
 10
23564.78990997752
 20
18254.812482445021
 30
0.0
 11
23489.78990997752
 21
18254.812482445021
 31
0.0
  0
LINE
  5
4CE
  8
FUTO
 10
23554.638532948509
 20
18117.489515074481
 30
0.0
 11
23493.441287006532
 21
18112.135449815549
 31
0.0
  0
LINE
  5
4CF
  8
FUTO
 10
23564.78990997752
 20
18104.81248244501
 30
0.0
 11
23489.78990997752
 21
18104.81248244501
 31
0.0
  0
LINE
  5
4D0
  8
FUTO
 10
23564.78990997752
 20
18254.812482445021
 30
0.0
 11
23564.78990997752
 21
18104.81248244501
 31
0.0
  0
LINE
  5
4D1
  8
SL
 10
23300.78590997752
 20
18743.186299051002
 30
0.0
 11
23470.78590997752
 21
18743.186299051002
 31
0.0
  0
LINE
  5
4D5
  8
CT
 10
24821.78590997752
 20
18117.71428225821
 30
0.0
 11
24821.78590997752
 21
18063.507507354061
 31
0.0
  0
LINE
  5
4DC
  8
1
 10
24787.586909977519
 20
17934.812482445021
 30
0.0
 11
24862.586909977519
 21
17934.812482445021
 31
0.0
  0
LINE
  5
4E9
  8
FUTO
 10
24861.78590997752
 20
17934.812482445021
 30
0.0
 11
24786.78590997752
 21
17934.812482445021
 31
0.0
  0
LINE
  5
4EA
  8
FUTO
 10
24851.634532948508
 20
17947.489515074481
 30
0.0
 11
24790.437287006531
 21
17942.135449815549
 31
0.0
  0
LINE
  5
4EB
  8
FUTO
 10
24786.781909977519
 20
17934.812482445021
 30
0.0
 11
24861.781909977519
 21
17934.812482445021
 31
0.0
  0
LINE
  5
4EC
  8
FUTO
 10
24861.78590997752
 20
18084.812482445021
 30
0.0
 11
24786.78590997752
 21
18084.812482445021
 31
0.0
  0
LINE
  5
4ED
  8
FUTO
 10
24851.634532948508
 20
18072.135449815549
 30
0.0
 11
24790.437287006531
 21
18077.489515074481
 31
0.0
  0
ARC
  5
4EE
  8
FUTO
 10
24790.78590997752
 20
17938.150671023181
 30
0.0
 40
4.0
 50
95.000000000000185
 51
180.0
  0
LINE
  5
4EF
  8
FUTO
 10
24786.78590997752
 20
17934.812482445021
 30
0.0
 11
24786.78590997752
 21
17938.150671023181
 31
0.0
  0
LINE
  5
4F0
  8
FUTO
 10
24786.781909977519
 20
17934.812482445021
 30
0.0
 11
24786.781909977519
 21
17937.234482445008
 31
0.0
  0
LINE
  5
4F1
  8
FUTO
 10
24786.78590997752
 20
18084.812482445021
 30
0.0
 11
24786.78590997752
 21
18081.47429386685
 31
0.0
  0
ARC
  5
4F2
  8
FUTO
 10
24790.78590997752
 20
18081.47429386685
 30
0.0
 40
4.0
 50
180.0
 51
264.99999999999972
  0
LINE
  5
4F3
  8
FUTO
 10
24791.348909977522
 20
17942.215482445019
 30
0.0
 11
24846.152909977522
 21
17947.01248244501
 31
0.0
  0
LINE
  5
4F4
  8
FUTO
 10
24861.78590997752
 20
18084.812482445021
 30
0.0
 11
24861.78590997752
 21
17934.812482445021
 31
0.0
  0
LINE
  5
4F5
  8
FUTO
 10
24855.28590997752
 20
18068.150671023181
 30
0.0
 11
24855.28590997752
 21
17951.47429386685
 31
0.0
  0
LINE
  5
4F6
  8
FUTO
 10
24861.78590997752
 20
18084.812482445021
 30
0.0
 11
24861.78590997752
 21
17934.812482445021
 31
0.0
  0
ARC
  5
4F7
  8
FUTO
 10
24851.28590997752
 20
17951.47429386685
 30
0.0
 40
4.0
 50
275.0
 51
0.0
  0
ARC
  5
4F8
  8
FUTO
 10
24851.28590997752
 20
18068.150671023181
 30
0.0
 40
4.0
 50
0.0
 51
84.999999999999957
  0
LINE
  5
4FF
  8
1
 10
24787.586909977519
 20
18104.81248244501
 30
0.0
 11
24862.586909977519
 21
18104.81248244501
 31
0.0
  0
LINE
  5
501
  8
FUTO
 10
24861.78590997752
 20
18254.812482445021
 30
0.0
 11
24786.78590997752
 21
18254.812482445021
 31
0.0
  0
LINE
  5
502
  8
FUTO
 10
24851.634532948508
 20
18242.135449815549
 30
0.0
 11
24790.437287006531
 21
18247.489515074481
 31
0.0
  0
ARC
  5
503
  8
FUTO
 10
24851.28590997752
 20
18238.150671023181
 30
0.0
 40
4.0
 50
0.0
 51
84.999999999999957
  0
LINE
  5
504
  8
FUTO
 10
24786.78590997752
 20
18254.812482445021
 30
0.0
 11
24786.78590997752
 21
18251.474293866839
 31
0.0
  0
ARC
  5
505
  8
FUTO
 10
24790.78590997752
 20
18251.474293866839
 30
0.0
 40
4.0
 50
180.0
 51
264.99999999999972
  0
LINE
  5
506
  8
FUTO
 10
24861.78590997752
 20
18104.81248244501
 30
0.0
 11
24786.78590997752
 21
18104.81248244501
 31
0.0
  0
LINE
  5
507
  8
FUTO
 10
24851.634532948508
 20
18117.489515074481
 30
0.0
 11
24790.437287006531
 21
18112.135449815549
 31
0.0
  0
ARC
  5
508
  8
FUTO
 10
24851.28590997752
 20
18121.47429386685
 30
0.0
 40
4.0
 50
275.0
 51
0.0
  0
ARC
  5
509
  8
FUTO
 10
24790.78590997752
 20
18108.150671023181
 30
0.0
 40
4.0
 50
95.000000000000185
 51
180.0
  0
LINE
  5
50A
  8
FUTO
 10
24786.78590997752
 20
18104.81248244501
 30
0.0
 11
24786.78590997752
 21
18108.150671023181
 31
0.0
  0
LINE
  5
50B
  8
FUTO
 10
24786.781909977519
 20
18104.81248244501
 30
0.0
 11
24786.781909977519
 21
18107.234482445019
 31
0.0
  0
LINE
  5
50C
  8
FUTO
 10
24791.348909977522
 20
18112.215482445012
 30
0.0
 11
24846.152909977522
 21
18117.01248244501
 31
0.0
  0
LINE
  5
50D
  8
FUTO
 10
24786.781909977519
 20
18104.81248244501
 30
0.0
 11
24861.781909977519
 21
18104.81248244501
 31
0.0
  0
LINE
  5
50E
  8
FUTO
 10
24861.78590997752
 20
18254.812482445021
 30
0.0
 11
24861.78590997752
 21
18104.81248244501
 31
0.0
  0
LINE
  5
50F
  8
FUTO
 10
24855.28590997752
 20
18238.150671023181
 30
0.0
 11
24855.28590997752
 21
18121.47429386685
 31
0.0
  0
LINE
  5
510
  8
FUTO
 10
24861.78590997752
 20
18254.812482445021
 30
0.0
 11
24861.78590997752
 21
18104.81248244501
 31
0.0
  0
LINE
  5
511
  8
FUTO
 10
24937.58590997753
 20
18126.186299051002
 30
0.0
 11
24940.78590997752
 21
18126.186299051002
 31
0.0
  0
LINE
  5
512
  8
KL
 10
24937.58590997753
 20
18126.186299051002
 30
0.0
 11
24937.58590997753
 21
18254.812482445021
 31
0.0
  0
LINE
  5
513
  8
KL
 10
24940.78590997752
 20
18126.186299051002
 30
0.0
 11
24940.78590997752
 21
18254.812482445021
 31
0.0
  0
DIMENSION
  5
517
  8
SP
  2
*D19
 10
26339.78590997752
 20
17495.3318696807
 30
0.0
 11
25970.28590997752
 21
17575.3318696807
 31
0.0
 70
     0
 13
25600.78590997752
 23
17913.885430451079
 33
0.0
 14
26339.78590997752
 24
17934.812482445021
 34
0.0
1001
ACAD
1000
DSTYLE
1002
{
1070
   287
1070
     4
1070
    40
1040
40.0
1070
    75
1070
     1
1070
   279
1070
     1
1070
   289
1070
     3
1002
}
  0
LINE
  5
529
  8
CT
 10
26304.78590997752
 20
18117.71428225821
 30
0.0
 11
26304.78590997752
 21
18063.507507354061
 31
0.0
  0
LINE
  5
53A
  8
FUTO
 10
26339.78590997752
 20
17934.812482445021
 30
0.0
 11
26264.78590997752
 21
17934.812482445021
 31
0.0
  0
LINE
  5
53B
  8
FUTO
 10
26335.218909977521
 20
17942.215482445019
 30
0.0
 11
26280.41490997752
 21
17947.01248244501
 31
0.0
  0
LINE
  5
53C
  8
1
 10
26338.980909977519
 20
17934.812482445021
 30
0.0
 11
26263.980909977519
 21
17934.812482445021
 31
0.0
  0
LINE
  5
53D
  8
FUTO
 10
26274.93328700653
 20
17947.489515074481
 30
0.0
 11
26336.130532948519
 21
17942.135449815549
 31
0.0
  0
LINE
  5
53E
  8
FUTO
 10
26264.781909977519
 20
17934.812482445021
 30
0.0
 11
26339.781909977519
 21
17934.812482445021
 31
0.0
  0
LINE
  5
53F
  8
FUTO
 10
26274.93328700653
 20
18072.135449815549
 30
0.0
 11
26336.130532948519
 21
18077.489515074481
 31
0.0
  0
LINE
  5
540
  8
FUTO
 10
26264.781909977519
 20
18084.812482445021
 30
0.0
 11
26339.781909977519
 21
18084.812482445021
 31
0.0
1001
ACAD
1000
ASC_BOUNDS
1002
{
1070
    19
1005
0
1002
}
  0
LINE
  5
541
  8
FUTO
 10
26264.781909977519
 20
18084.812482445021
 30
0.0
 11
26264.781909977519
 21
17934.812482445021
 31
0.0
  0
LINE
  5
542
  8
FUTO
 10
26271.281909977519
 20
18068.150671023181
 30
0.0
 11
26271.281909977519
 21
17951.47429386685
 31
0.0
  0
LINE
  5
543
  8
FUTO
 10
26264.781909977519
 20
18084.812482445021
 30
0.0
 11
26264.781909977519
 21
17934.812482445021
 31
0.0
  0
ARC
  5
544
  8
FUTO
 10
26275.281909977519
 20
17951.47429386685
 30
0.0
 40
4.0
 50
180.0
 51
264.99999999999989
  0
ARC
  5
545
  8
FUTO
 10
26275.281909977519
 20
18068.150671023181
 30
0.0
 40
4.0
 50
95.000000000000057
 51
180.0
  0
LINE
  5
546
  8
FUTO
 10
26339.78590997752
 20
17934.812482445021
 30
0.0
 11
26339.78590997752
 21
17937.234482445008
 31
0.0
  0
LINE
  5
547
  8
FUTO
 10
26339.781909977519
 20
17934.812482445021
 30
0.0
 11
26339.781909977519
 21
17938.150671023181
 31
0.0
  0
ARC
  5
548
  8
FUTO
 10
26335.781909977519
 20
17938.150671023181
 30
0.0
 40
4.0
 50
0.0
 51
84.999999999999801
  0
ARC
  5
549
  8
FUTO
 10
26335.781909977519
 20
18081.47429386685
 30
0.0
 40
4.0
 50
275.00000000000011
 51
0.0
  0
LINE
  5
54A
  8
FUTO
 10
26339.781909977519
 20
18084.812482445021
 30
0.0
 11
26339.781909977519
 21
18081.47429386685
 31
0.0
  0
LINE
  5
54E
  8
FUTO
 10
26260.785909977531
 20
18141.186299051002
 30
0.0
 11
26410.785909977531
 21
18141.186299051002
 31
0.0
  0
LINE
  5
54F
  8
FUTO
 10
26410.785909977531
 20
18175.186299051002
 30
0.0
 11
26260.785909977531
 21
18175.186299051002
 31
0.0
  0
LINE
  5
550
  8
CT
 10
26225.873224494459
 20
18158.186299051002
 30
0.0
 11
26462.37140297165
 21
18158.186299051002
 31
0.0
  0
LINE
  5
553
  8
KL
 10
26260.785909977531
 20
18126.186299051002
 30
0.0
 11
26263.98590997752
 21
18126.186299051002
 31
0.0
  0
LINE
  5
554
  8
FUTO
 10
26339.78590997752
 20
18104.81248244501
 30
0.0
 11
26264.78590997752
 21
18104.81248244501
 31
0.0
  0
LINE
  5
555
  8
FUTO
 10
26335.218909977521
 20
18112.215482445012
 30
0.0
 11
26280.41490997752
 21
18117.01248244501
 31
0.0
  0
LINE
  5
556
  8
FUTO
 10
26339.78590997752
 20
18104.81248244501
 30
0.0
 11
26339.78590997752
 21
18107.234482445019
 31
0.0
  0
LINE
  5
557
  8
1
 10
26338.980909977519
 20
18104.81248244501
 30
0.0
 11
26263.980909977519
 21
18104.81248244501
 31
0.0
  0
ARC
  5
558
  8
FUTO
 10
26335.781909977519
 20
18251.474293866839
 30
0.0
 40
4.0
 50
275.00000000000011
 51
0.0
  0
LINE
  5
559
  8
FUTO
 10
26339.781909977519
 20
18254.812482445021
 30
0.0
 11
26339.781909977519
 21
18251.474293866839
 31
0.0
  0
LINE
  5
55A
  8
FUTO
 10
26339.781909977519
 20
18104.81248244501
 30
0.0
 11
26339.781909977519
 21
18108.150671023181
 31
0.0
  0
ARC
  5
55B
  8
FUTO
 10
26335.781909977519
 20
18108.150671023181
 30
0.0
 40
4.0
 50
0.0
 51
84.999999999999801
  0
ARC
  5
55C
  8
FUTO
 10
26275.281909977519
 20
18238.150671023181
 30
0.0
 40
4.0
 50
95.000000000000057
 51
180.0
  0
LINE
  5
55D
  8
FUTO
 10
26264.781909977519
 20
18254.812482445021
 30
0.0
 11
26264.781909977519
 21
18104.81248244501
 31
0.0
  0
ARC
  5
55E
  8
FUTO
 10
26275.281909977519
 20
18121.47429386685
 30
0.0
 40
4.0
 50
180.0
 51
264.99999999999989
  0
LINE
  5
55F
  8
FUTO
 10
26271.281909977519
 20
18238.150671023181
 30
0.0
 11
26271.281909977519
 21
18121.47429386685
 31
0.0
  0
LINE
  5
560
  8
FUTO
 10
26274.93328700653
 20
18242.135449815549
 30
0.0
 11
26336.130532948519
 21
18247.489515074481
 31
0.0
  0
LINE
  5
561
  8
FUTO
 10
26264.781909977519
 20
18254.812482445021
 30
0.0
 11
26339.781909977519
 21
18254.812482445021
 31
0.0
  0
LINE
  5
562
  8
FUTO
 10
26274.93328700653
 20
18117.489515074481
 30
0.0
 11
26336.130532948519
 21
18112.135449815549
 31
0.0
  0
LINE
  5
563
  8
FUTO
 10
26264.781909977519
 20
18104.81248244501
 30
0.0
 11
26339.781909977519
 21
18104.81248244501
 31
0.0
  0
LINE
  5
564
  8
FUTO
 10
26264.781909977519
 20
18254.812482445021
 30
0.0
 11
26264.781909977519
 21
18104.81248244501
 31
0.0
  0
LINE
  5
565
  8
KL
 10
26263.98590997752
 20
18126.186299051002
 30
0.0
 11
26263.98590997752
 21
18254.812482445021
 31
0.0
  0
LINE
  5
566
  8
KL
 10
26260.785909977531
 20
18126.186299051002
 30
0.0
 11
26260.785909977531
 21
18254.812482445021
 31
0.0
  0
LINE
  5
567
  8
FUTO
 10
26451.890075123069
 20
18137.35808237717
 30
0.0
 11
26451.890075123069
 21
18179.014515724841
 31
0.0
  0
LINE
  5
568
  8
FUTO
 10
26410.785909977531
 20
18137.35808237717
 30
0.0
 11
26410.785909977531
 21
18179.014515724841
 31
0.0
  0
LINE
  5
569
  8
FUTO
 10
26410.785909977531
 20
18137.35808237717
 30
0.0
 11
26451.890075123069
 21
18137.35808237717
 31
0.0
  0
LINE
  5
56A
  8
FUTO
 10
26410.785909977531
 20
18179.014515724841
 30
0.0
 11
26451.890075123069
 21
18179.014515724841
 31
0.0
  0
LINE
  5
56B
  8
KL
 10
26263.98590997752
 20
18527.186299051002
 30
0.0
 11
26353.98590997752
 21
18527.186299051002
 31
0.0
  0
LINE
  5
56C
  8
KL
 10
26263.98590997752
 20
18533.186299051002
 30
0.0
 11
26395.78590997752
 21
18533.186299051002
 31
0.0
  0
LINE
  5
56D
  8
HOSO
 10
26221.45190036661
 20
18493.186299051002
 30
0.0
 11
26295.559515514869
 21
18493.186299051002
 31
0.0
  0
LINE
  5
56E
  8
KL
 10
26263.98590997752
 20
18468.186299051002
 30
0.0
 11
26269.98590997752
 21
18468.186299051002
 31
0.0
  0
LINE
  5
56F
  8
FUTO
 10
26353.98590997752
 20
18527.186299051002
 30
0.0
 11
26395.78590997752
 21
18527.186299051002
 31
0.0
  0
LINE
  5
570
  8
FUTO
 10
26389.78590997752
 20
18468.186299051002
 30
0.0
 11
26395.78590997752
 21
18468.186299051002
 31
0.0
  0
LINE
  5
571
  8
HOSO
 10
26362.3033637915
 20
18493.186299051002
 30
0.0
 11
26436.410978939759
 21
18493.186299051002
 31
0.0
  0
LINE
  5
5F7
  8
FUTO
 10
24877.585909977519
 20
21414.186299051002
 30
0.0
 11
26323.985909977531
 21
21414.186299051002
 31
0.0
  0
LINE
  5
5F8
  8
FUTO
 10
24937.58590997753
 20
21354.186299051002
 30
0.0
 11
26263.985909977531
 21
21354.186299051002
 31
0.0
  0
LINE
  5
600
  8
FUTO
 10
24872.585909977519
 20
19424.186299051002
 30
0.0
 11
26328.98590997752
 21
19424.186299051002
 31
0.0
  0
LINE
  5
601
  8
FUTO
 10
24872.585909977519
 20
19442.186299051002
 30
0.0
 11
26328.98590997752
 21
19442.186299051002
 31
0.0
  0
LINE
  5
61E
  8
CT
 10
23098.859788292739
 20
19433.186299051002
 30
0.0
 11
26594.781213149749
 21
19433.186299051002
 31
0.0
  0
LINE
  5
623
  8
FUTO
 10
23706.28590997752
 20
19537.186299051002
 30
0.0
 11
23573.28590997752
 21
19537.186299051002
 31
0.0
  0
LINE
  5
624
  8
FUTO
 10
23573.28590997752
 20
19329.186299051002
 30
0.0
 11
23584.78590997752
 21
19329.186299051002
 31
0.0
  0
ARC
  5
625
  8
FUTO
 10
23590.78590997752
 20
19351.186299051002
 30
0.0
 40
6.0
 50
90.0
 51
180.0
  0
LINE
  5
626
  8
FUTO
 10
23549.78590997752
 20
19311.186299051002
 30
0.0
 11
23729.78590997752
 21
19311.186299051002
 31
0.0
  0
ARC
  5
628
  8
FUTO
 10
23573.28590997752
 20
19531.186299051002
 30
0.0
 40
6.0
 50
90.0
 51
180.0
  0
LINE
  5
629
  8
SL
 10
23300.78590997752
 20
19153.186299051002
 30
0.0
 11
23470.78590997752
 21
19153.186299051002
 31
0.0
  0
LINE
  5
62A
  8
FUTO
 10
23567.28590997752
 20
19523.186299051002
 30
0.0
 11
23562.28590997752
 21
19523.186299051002
 31
0.0
  0
ARC
  5
62B
  8
FUTO
 10
23573.28590997752
 20
19335.186299051002
 30
0.0
 40
6.0
 50
180.0
 51
270.0
  0
LINE
  5
62C
  8
FUTO
 10
23562.28590997752
 20
19343.186299051002
 30
0.0
 11
23567.28590997752
 21
19343.186299051002
 31
0.0
  0
LINE
  5
62D
  8
FUTO
 10
23567.28590997752
 20
19531.186299051002
 30
0.0
 11
23567.28590997752
 21
19335.186299051002
 31
0.0
  0
LINE
  5
62E
  8
FUTO
 10
23562.28590997752
 20
19523.186299051002
 30
0.0
 11
23562.28590997752
 21
19343.186299051002
 31
0.0
  0
LINE
  5
62F
  8
FUTO
 10
23470.78590997752
 20
19385.686299051002
 30
0.0
 11
23562.28590997752
 21
19385.686299051002
 31
0.0
  0
LINE
  5
630
  8
FUTO
 10
23470.78590997752
 20
19480.686299051002
 30
0.0
 11
23562.28590997752
 21
19480.686299051002
 31
0.0
  0
LINE
  5
631
  8
SL
 10
23300.78590997752
 20
19713.186299051002
 30
0.0
 11
23470.78590997752
 21
19713.186299051002
 31
0.0
  0
LINE
  5
632
  8
FUTO
 10
23150.78590997752
 20
19813.186299051002
 30
0.0
 11
23500.78590997752
 21
19813.186299051002
 31
0.0
  0
LINE
  5
633
  8
FUTO
 10
24877.585909977519
 20
21293.54100271911
 30
0.0
 11
24877.585909977519
 21
21414.186299051002
 31
0.0
  0
LINE
  5
636
  8
FUTO
 10
24937.585909977519
 20
19501.886299050999
 30
0.0
 11
24937.585909977519
 21
21333.186299051002
 31
0.0
  0
LINE
  5
637
  8
FUTO
 10
24940.78590997752
 20
19501.886299050999
 30
0.0
 11
24940.78590997752
 21
21333.186299051002
 31
0.0
  0
LINE
  5
638
  8
FUTO
 10
24872.585909977519
 20
21293.54100271911
 30
0.0
 11
24872.585909977519
 21
19424.186299051002
 31
0.0
  0
LINE
  5
63B
  8
SL
 10
24520.2975313036
 20
19649.26096886125
 30
0.0
 11
23754.919574505911
 21
19649.26096886125
 31
0.0
  0
LINE
  5
63D
  8
FUTO
 10
24550.78590997752
 20
19273.186299051002
 30
0.0
 11
23729.78590997752
 21
19273.186299051009
 31
0.0
  0
LINE
  5
63E
  8
FUTO
 10
23717.28590997752
 20
19380.686299051002
 30
0.0
 11
24547.28590997752
 21
19380.686299051002
 31
0.0
  0
LINE
  5
63F
  8
FUTO
 10
23717.28590997752
 20
19485.686299051002
 30
0.0
 11
24547.28590997752
 21
19485.686299051002
 31
0.0
  0
LINE
  5
640
  8
SL
 10
23754.919574505911
 20
19649.26096886125
 30
0.0
 11
23754.919574505911
 21
19273.186299051009
 31
0.0
  0
LINE
  5
641
  8
CT
 10
23639.78590997752
 20
19614.252213470631
 30
0.0
 11
23639.78590997752
 21
19224.252045525209
 31
0.0
  0
ARC
  5
642
  8
FUTO
 10
23706.28590997752
 20
19531.186299051002
 30
0.0
 40
6.0
 50
0.0
 51
90.0
  0
LINE
  5
643
  8
FUTO
 10
23694.78590997752
 20
19537.186299051002
 30
0.0
 11
23694.78590997752
 21
19311.186299051002
 31
0.0
  0
LINE
  5
644
  8
FUTO
 10
23584.78590997752
 20
19537.186299051002
 30
0.0
 11
23584.78590997752
 21
19311.186299051002
 31
0.0
  0
LINE
  5
645
  8
CT
 10
23639.78590997752
 20
19556.955058215699
 30
0.0
 11
23639.78590997752
 21
19303.36257514888
 31
0.0
  0
LINE
  5
646
  8
FUTO
 10
23712.28590997752
 20
19523.186299051002
 30
0.0
 11
23717.285909977531
 21
19523.186299051002
 31
0.0
  0
LINE
  5
647
  8
FUTO
 10
23717.285909977531
 20
19343.186299051002
 30
0.0
 11
23712.28590997752
 21
19343.186299051002
 31
0.0
  0
ARC
  5
648
  8
FUTO
 10
23706.28590997752
 20
19335.186299051002
 30
0.0
 40
6.0
 50
270.0
 51
0.0
  0
LINE
  5
649
  8
FUTO
 10
23706.28590997752
 20
19329.186299051002
 30
0.0
 11
23694.78590997752
 21
19329.186299051002
 31
0.0
  0
ARC
  5
64A
  8
FUTO
 10
23688.78590997752
 20
19351.186299051002
 30
0.0
 40
6.0
 50
0.0
 51
90.0
  0
LINE
  5
64B
  8
FUTO
 10
23717.285909977531
 20
19523.186299051002
 30
0.0
 11
23717.285909977531
 21
19343.186299051002
 31
0.0
  0
LINE
  5
64C
  8
FUTO
 10
23712.28590997752
 20
19531.186299051002
 30
0.0
 11
23712.28590997752
 21
19335.186299051002
 31
0.0
  0
LINE
  5
64D
  8
FUTO
 10
23584.78590997752
 20
19321.186299051002
 30
0.0
 11
23694.78590997752
 21
19321.186299051002
 31
0.0
  0
LINE
  5
64E
  8
FUTO
 10
23688.78590997752
 20
19357.186299051002
 30
0.0
 11
23590.78590997752
 21
19357.186299051002
 31
0.0
  0
LINE
  5
653
  8
SL
 10
24520.2975313036
 20
19649.26096886125
 30
0.0
 11
24520.2975313036
 21
19273.186299051002
 31
0.0
  0
LINE
  5
654
  8
CT
 10
24640.78590997752
 20
19641.957127131242
 30
0.0
 11
24640.78590997752
 21
19192.284823363651
 31
0.0
  0
LINE
  5
655
  8
FUTO
 10
24719.28590997752
 20
19540.686299051002
 30
0.0
 11
24734.28590997752
 21
19517.186299051002
 31
0.0
  0
LINE
  5
656
  8
FUTO
 10
24707.28590997752
 20
19563.186299051002
 30
0.0
 11
24707.28590997752
 21
19348.186299051002
 31
0.0
  0
LINE
  5
657
  8
FUTO
 10
24707.28590997752
 20
19338.186299051002
 30
0.0
 11
24707.28590997752
 21
19563.186235856621
 31
0.0
  0
LINE
  5
658
  8
FUTO
 10
24719.28590997752
 20
19303.186299051002
 30
0.0
 11
24719.28590997752
 21
19563.186299051002
 31
0.0
  0
LINE
  5
659
  8
FUTO
 10
24547.28590997752
 20
19517.186299051002
 30
0.0
 11
24562.28590997752
 21
19540.686299051002
 31
0.0
  0
LINE
  5
65A
  8
FUTO
 10
24574.28590997752
 20
19563.186299051002
 30
0.0
 11
24574.28590997752
 21
19348.186299051002
 31
0.0
  0
LINE
  5
65B
  8
CT
 10
24640.78590997752
 20
19597.34787871721
 30
0.0
 11
24640.78590997752
 21
19255.478255873109
 31
0.0
  0
LINE
  5
65C
  8
FUTO
 10
24562.28590997752
 20
19563.186299051002
 30
0.0
 11
24562.28590997752
 21
19303.186299051002
 31
0.0
  0
LINE
  5
662
  8
FUTO
 10
24872.585909977519
 20
19424.186299051002
 30
0.0
 11
24847.585909977519
 21
19408.16714374525
 31
0.0
  0
LINE
  5
664
  8
FUTO
 10
24730.78590997752
 20
19283.186299051002
 30
0.0
 11
24550.78590997752
 21
19283.186299051002
 31
0.0
  0
LINE
  5
665
  8
FUTO
 10
24715.785909977531
 20
19293.186299051002
 30
0.0
 11
24565.78590997752
 21
19293.186299051002
 31
0.0
  0
LINE
  5
666
  8
FUTO
 10
24565.78590997752
 20
19348.186299051002
 30
0.0
 11
24715.785909977531
 21
19348.186299051002
 31
0.0
  0
LINE
  5
667
  8
FUTO
 10
24547.28590997752
 20
19349.186299051002
 30
0.0
 11
24547.28590997752
 21
19517.186299051002
 31
0.0
  0
LINE
  5
668
  8
FUTO
 10
24562.28590997752
 20
19303.186299051002
 30
0.0
 11
24565.78590997752
 21
19303.186299051002
 31
0.0
  0
LINE
  5
669
  8
CT
 10
24590.78590997752
 20
19258.231206699751
 30
0.0
 11
24590.78590997752
 21
19379.003731821522
 31
0.0
  0
LINE
  5
66A
  8
FUTO
 10
24565.78590997752
 20
19283.186299051002
 30
0.0
 11
24565.78590997752
 21
19348.186299051002
 31
0.0
  0
LINE
  5
66B
  8
FUTO
 10
24562.28590997752
 20
19325.686299051002
 30
0.0
 11
24547.28590997752
 21
19349.186299051002
 31
0.0
  0
LINE
  5
66C
  8
FUTO
 10
24734.28590997752
 20
19485.686299051002
 30
0.0
 11
24872.585909977519
 21
19485.686299051002
 31
0.0
  0
LINE
  5
66E
  8
FUTO
 10
24734.28590997752
 20
19380.686299051002
 30
0.0
 11
24847.585909977519
 21
19380.686299051002
 31
0.0
  0
LINE
  5
67F
  8
CT
 10
24752.176248213851
 20
19433.186299051002
 30
0.0
 11
24861.51887008976
 21
19433.186299051002
 31
0.0
  0
LINE
  5
69D
  8
FUTO
 10
24734.28590997752
 20
19517.186299051002
 30
0.0
 11
24734.28590997752
 21
19349.186299051002
 31
0.0
  0
LINE
  5
69E
  8
FUTO
 10
24715.785909977531
 20
19303.186299051002
 30
0.0
 11
24719.28590997752
 21
19303.186299051002
 31
0.0
  0
LINE
  5
69F
  8
FUTO
 10
24715.785909977531
 20
19348.186299051002
 30
0.0
 11
24715.785909977531
 21
19283.186299051002
 31
0.0
  0
LINE
  5
6A0
  8
FUTO
 10
24734.28590997752
 20
19349.186299051002
 30
0.0
 11
24719.28590997752
 21
19325.686299051002
 31
0.0
  0
LINE
  5
6A1
  8
CT
 10
24690.78590997752
 20
19258.231206699751
 30
0.0
 11
24690.78590997752
 21
19379.003731821522
 31
0.0
  0
LINE
  5
6AC
  8
FUTO
 10
24702.28590997752
 20
19581.186299051002
 30
0.0
 11
24579.28590997752
 21
19581.186299051002
 31
0.0
  0
LINE
  5
6AD
  8
FUTO
 10
24579.28590997752
 20
19581.186299051002
 30
0.0
 11
24579.28590997752
 21
19563.186299051002
 31
0.0
  0
LINE
  5
6AE
  8
FUTO
 10
24579.28590997752
 20
19563.186299051002
 30
0.0
 11
24562.28590997752
 21
19563.186299051002
 31
0.0
  0
LINE
  5
6B7
  8
FUTO
 10
24719.28590997752
 20
19563.186299051002
 30
0.0
 11
24702.28590997752
 21
19563.186299051002
 31
0.0
  0
LINE
  5
6B8
  8
FUTO
 10
24702.28590997752
 20
19563.186299051002
 30
0.0
 11
24702.28590997752
 21
19581.186299051002
 31
0.0
  0
LINE
  5
6BC
  8
FUTO
 10
24937.585909977519
 20
20378.386299050999
 30
0.0
 11
24937.585909977519
 21
21333.186299051002
 31
0.0
  0
LINE
  5
6BE
  8
FUTO
 10
24872.585909977519
 20
21293.54100271911
 30
0.0
 11
24877.585909977519
 21
21293.54100271911
 31
0.0
  0
LINE
  5
6BF
  8
FUTO
 10
24937.585909977519
 20
21333.186299051002
 30
0.0
 11
24937.585909977519
 21
21354.186299051002
 31
0.0
  0
LINE
  5
6C0
  8
FUTO
 10
24940.78590997752
 20
21333.186299051002
 30
0.0
 11
24940.78590997752
 21
21354.186299051002
 31
0.0
  0
DIMENSION
  5
6CD
  8
SP
  2
*D21
 10
26395.78590997752
 20
21885.562105755711
 30
0.0
 11
25929.648285021631
 21
21885.562105755711
 31
0.0
 70
   128
 13
25600.78590997752
 23
21917.504445120088
 33
0.0
 14
26395.78590997752
 24
20398.186299051002
 34
0.0
1001
ACAD
1000
DSTYLE
1002
{
1070
    40
1040
40.0
1002
}
  0
LINE
  5
6DB
  8
FUTO
 10
26323.98590997752
 20
21293.54100271911
 30
0.0
 11
26323.985909977531
 21
21414.186299051002
 31
0.0
  0
LINE
  5
6E1
  8
FUTO
 10
26260.78590997752
 20
19501.886299050999
 30
0.0
 11
26260.78590997752
 21
21333.186299051002
 31
0.0
  0
LINE
  5
6E2
  8
FUTO
 10
26263.98590997752
 20
19501.886299050999
 30
0.0
 11
26263.98590997752
 21
21333.186299051002
 31
0.0
  0
LINE
  5
6E3
  8
FUTO
 10
26328.985909978161
 20
21293.54100271911
 30
0.0
 11
26328.98590997752
 21
19424.186299051002
 31
0.0
  0
LINE
  5
701
  8
FUTO
 10
26328.985909977549
 20
19424.18629905098
 30
0.0
 11
26353.985909977549
 21
19408.167143745231
 31
0.0
  0
INSERT
  5
702
  8
FUTO
  2
まっすぐの矢印
 10
26591.25906254803
 20
19918.732601900108
 30
0.0
 41
2.0
 42
2.0
 43
2.0
 50
90.0
  0
LINE
  5
704
  8
FUTO
 10
26328.98590997752
 20
20339.186299051002
 30
0.0
 11
26395.78590997752
 21
20339.186299051002
 31
0.0
  0
LINE
  5
705
  8
KL
 10
26263.98590997752
 20
20333.186299051002
 30
0.0
 11
26395.78590997752
 21
20333.186299051002
 31
0.0
  0
LINE
  5
706
  8
HOSO
 10
26235.04794016953
 20
20373.186299051002
 30
0.0
 11
26294.8782889996
 21
20373.186299051002
 31
0.0
  0
LINE
  5
707
  8
KL
 10
26269.98590997752
 20
20398.186299051002
 30
0.0
 11
26263.98590997752
 21
20398.186299051002
 31
0.0
  0
LINE
  5
708
  8
KL
 10
26263.98590997752
 20
20339.186299051002
 30
0.0
 11
26328.98590997752
 21
20339.186299051002
 31
0.0
  0
LINE
  5
709
  8
FUTO
 10
26389.78590997752
 20
20398.186299051002
 30
0.0
 11
26395.78590997752
 21
20398.186299051002
 31
0.0
  0
LINE
  5
70A
  8
HOSO
 10
26363.11813341784
 20
20373.186299051002
 30
0.0
 11
26422.94848224791
 21
20373.186299051002
 31
0.0
  0
LINE
  5
70B
  8
FUTO
 10
26323.985909977531
 20
21293.54100271911
 30
0.0
 11
26328.98590997815
 21
21293.54100271911
 31
0.0
  0
LINE
  5
70C
  8
FUTO
 10
26260.78590997752
 20
21333.186299051002
 30
0.0
 11
26260.78590997752
 21
21354.186299051002
 31
0.0
  0
LINE
  5
70D
  8
FUTO
 10
26263.98590997752
 20
21333.186299051002
 30
0.0
 11
26263.98590997752
 21
21354.186299051002
 31
0.0
  0
LINE
  5
88D
  8
CT
 10
22240.245624355619
 20
24801.25022384063
 30
0.0
 11
18907.976021308408
 21
24801.25022384062
 31
0.0
  0
LINE
  5
88E
  8
FUTO
 10
19395.210465017339
 20
24072.25022384062
 30
0.0
 11
19395.210465017331
 21
25530.25022384062
 31
0.0
  0
LINE
  5
89C
  8
FUTO
 10
19460.210465017339
 20
24072.25022384062
 30
0.0
 11
19395.210465017339
 21
24072.25022384062
 31
0.0
  0
LINE
  5
89D
  8
FUTO
 10
19460.210465017339
 20
24072.25022384062
 30
0.0
 11
19460.210465017339
 21
25530.25022384062
 31
0.0
  0
LINE
  5
89E
  8
FUTO
 10
19460.210465017339
 20
25530.25022384062
 30
0.0
 11
19395.210465017339
 21
25530.25022384062
 31
0.0
  0
LINE
  5
89F
  8
FUTO
 10
22114.210465017339
 20
25465.25022384062
 30
0.0
 11
22114.210465017339
 21
24137.25022384062
 31
0.0
  0
LINE
  5
8A0
  8
FUTO
 10
22164.210465017331
 20
25515.25022384062
 30
0.0
 11
19460.210465017339
 21
25515.25022384062
 31
0.0
  0
LINE
  5
8A1
  8
FUTO
 10
22164.210465017331
 20
25515.25022384063
 30
0.0
 11
22164.210465017331
 21
24087.25022384063
 31
0.0
  0
LINE
  5
8A2
  8
FUTO
 10
22164.210465017331
 20
24087.25022384063
 30
0.0
 11
19460.210465017339
 21
24087.25022384062
 31
0.0
  0
LINE
  5
8A3
  8
FUTO
 10
22114.210465017339
 20
24137.25022384062
 30
0.0
 11
21260.210465017339
 21
24137.25022384062
 31
0.0
  0
LINE
  5
8A4
  8
FUTO
 10
21620.210465017331
 20
25515.25022384062
 30
0.0
 11
21620.210465017331
 21
25540.25022384063
 31
0.0
  0
LINE
  5
8A5
  8
FUTO
 10
19500.210465017339
 20
25515.25022384062
 30
0.0
 11
19500.210465017331
 21
25540.25022384062
 31
0.0
  0
LINE
  5
132F
  8
FUTO
 10
20180.210465017339
 20
22351.25022384062
 30
0.0
 11
22340.210465017331
 21
22351.25022384063
 31
0.0
  0
LINE
  5
1330
  8
FUTO
 10
20180.210465017339
 20
22701.25022384063
 30
0.0
 11
22340.210465017331
 21
22701.25022384062
 31
0.0
  0
LINE
  5
1336
  8
SL
 10
20280.210465017331
 20
22501.25022384062
 30
0.0
 11
22260.210465017331
 21
22501.25022384063
 31
0.0
  0
LINE
  5
1337
  8
SL
 10
20280.210465017331
 20
22671.25022384063
 30
0.0
 11
22260.210465017331
 21
22671.25022384062
 31
0.0
  0
LINE
  5
1338
  8
CT
 10
20560.210465017331
 20
22299.324102155839
 30
0.0
 11
20560.210465017331
 21
25795.245527012848
 31
0.0
  0
LINE
  5
1342
  8
FUTO
 10
20456.210465017339
 20
22773.75022384063
 30
0.0
 11
20456.210465017339
 21
22785.25022384063
 31
0.0
  0
LINE
  5
1343
  8
FUTO
 10
20664.210465017339
 20
22906.75022384063
 30
0.0
 11
20664.210465017339
 21
22773.75022384063
 31
0.0
  0
ARC
  5
1344
  8
FUTO
 10
20658.210465017339
 20
22773.75022384063
 30
0.0
 40
6.0
 50
270.0
 51
0.000000000000007
  0
LINE
  5
1345
  8
SL
 10
20840.210465017331
 20
22501.25022384063
 30
0.0
 11
20840.210465017331
 21
22671.25022384063
 31
0.0
  0
LINE
  5
1346
  8
FUTO
 10
20607.710465017331
 20
22671.25022384063
 30
0.0
 11
20607.710465017331
 21
22762.75022384063
 31
0.0
  0
LINE
  5
1347
  8
FUTO
 10
20512.710465017331
 20
22671.25022384063
 30
0.0
 11
20512.710465017331
 21
22762.75022384063
 31
0.0
  0
LINE
  5
1348
  8
FUTO
 10
20650.210465017331
 20
22762.75022384063
 30
0.0
 11
20470.210465017331
 21
22762.75022384063
 31
0.0
  0
LINE
  5
1349
  8
FUTO
 10
20658.210465017339
 20
22767.75022384063
 30
0.0
 11
20462.210465017339
 21
22767.75022384063
 31
0.0
  0
LINE
  5
134A
  8
FUTO
 10
20470.210465017331
 20
22762.75022384063
 30
0.0
 11
20470.210465017331
 21
22767.75022384063
 31
0.0
  0
ARC
  5
134B
  8
FUTO
 10
20462.210465017339
 20
22773.75022384063
 30
0.0
 40
6.0
 50
180.0
 51
270.0
  0
LINE
  5
134C
  8
FUTO
 10
20650.210465017331
 20
22767.75022384063
 30
0.0
 11
20650.210465017331
 21
22762.75022384063
 31
0.0
  0
LINE
  5
1353
  8
FUTO
 10
20612.710465017339
 20
22917.75022384062
 30
0.0
 11
20612.710465017339
 21
23747.75022384063
 31
0.0
  0
LINE
  5
1354
  8
FUTO
 10
20507.710465017339
 20
22917.75022384062
 30
0.0
 11
20507.710465017339
 21
23747.75022384063
 31
0.0
  0
LINE
  5
1357
  8
CT
 10
20683.97922418204
 20
22840.25022384063
 30
0.0
 11
20430.38674111521
 21
22840.25022384063
 31
0.0
  0
LINE
  5
1358
  8
FUTO
 10
20664.210465017339
 20
22785.25022384063
 30
0.0
 11
20456.210465017339
 21
22785.25022384063
 31
0.0
  0
LINE
  5
1359
  8
FUTO
 10
20664.210465017339
 20
22895.25022384063
 30
0.0
 11
20456.210465017339
 21
22895.25022384063
 31
0.0
  0
ARC
  5
135A
  8
FUTO
 10
20658.210465017339
 20
22906.75022384063
 30
0.0
 40
6.0
 50
0.000000000000007
 51
90.0
  0
LINE
  5
135B
  8
CT
 10
20741.27637943696
 20
22840.25022384063
 30
0.0
 11
20351.276211491539
 21
22840.25022384063
 31
0.0
  0
LINE
  5
135F
  8
FUTO
 10
20658.210465017339
 20
22912.75022384063
 30
0.0
 11
20462.210465017339
 21
22912.75022384063
 31
0.0
  0
LINE
  5
1360
  8
FUTO
 10
20650.210465017331
 20
22917.75022384062
 30
0.0
 11
20470.210465017331
 21
22917.75022384062
 31
0.0
  0
LINE
  5
1362
  8
FUTO
 10
20456.210465017339
 20
22906.75022384063
 30
0.0
 11
20456.210465017339
 21
22895.25022384063
 31
0.0
  0
ARC
  5
1363
  8
FUTO
 10
20462.210465017339
 20
22906.75022384063
 30
0.0
 40
6.0
 50
90.0
 51
180.0
  0
LINE
  5
1364
  8
FUTO
 10
20470.210465017331
 20
22917.75022384062
 30
0.0
 11
20470.210465017331
 21
22912.75022384063
 31
0.0
  0
LINE
  5
1365
  8
FUTO
 10
20650.210465017331
 20
22912.75022384063
 30
0.0
 11
20650.210465017331
 21
22917.75022384062
 31
0.0
  0
LINE
  5
136A
  8
FUTO
 10
20690.210465017331
 20
23762.75022384063
 30
0.0
 11
20430.210465017331
 21
23762.75022384062
 31
0.0
  0
LINE
  5
136B
  8
CT
 10
20724.37204468354
 20
23841.25022384063
 30
0.0
 11
20382.50242183945
 21
23841.25022384063
 31
0.0
  0
LINE
  5
136C
  8
FUTO
 10
20690.210465017331
 20
23774.75022384063
 30
0.0
 11
20430.210465017331
 21
23774.75022384063
 31
0.0
  0
LINE
  5
136D
  8
FUTO
 10
20644.210465017331
 20
23747.75022384063
 30
0.0
 11
20667.710465017339
 21
23762.75022384063
 31
0.0
  0
LINE
  5
136E
  8
FUTO
 10
20430.210465017331
 20
23919.75022384063
 30
0.0
 11
20690.210465017331
 21
23919.75022384063
 31
0.0
  0
LINE
  5
136F
  8
FUTO
 10
20430.210465017331
 20
23907.75022384063
 30
0.0
 11
20690.210401822951
 21
23907.75022384063
 31
0.0
  0
LINE
  5
1370
  8
FUTO
 10
20690.210465017331
 20
23907.75022384063
 30
0.0
 11
20475.210465017339
 21
23907.75022384063
 31
0.0
  0
LINE
  5
1371
  8
FUTO
 10
20667.710465017339
 20
23919.75022384063
 30
0.0
 11
20644.210465017331
 21
23934.75022384063
 31
0.0
  0
LINE
  5
1372
  8
CT
 10
20768.981293097571
 20
23841.25022384062
 30
0.0
 11
20319.30898932998
 21
23841.25022384062
 31
0.0
  0
LINE
  5
137E
  8
FUTO
 10
20452.710465017339
 20
23762.75022384063
 30
0.0
 11
20476.210465017331
 21
23747.75022384063
 31
0.0
  0
LINE
  5
1381
  8
FUTO
 10
20430.210465017331
 20
23762.75022384063
 30
0.0
 11
20430.210465017331
 21
23766.25022384063
 31
0.0
  0
LINE
  5
1382
  8
FUTO
 10
20476.210465017331
 20
23747.75022384063
 30
0.0
 11
20644.210465017331
 21
23747.75022384063
 31
0.0
  0
LINE
  5
1384
  8
FUTO
 10
20476.210465017331
 20
23934.75022384063
 30
0.0
 11
20452.710465017339
 21
23919.75022384063
 31
0.0
  0
LINE
  5
1386
  8
FUTO
 10
20430.210465017331
 20
23916.25022384063
 30
0.0
 11
20430.210465017331
 21
23919.75022384063
 31
0.0
  0
LINE
  5
1387
  8
FUTO
 10
20644.210465017331
 20
23934.75022384063
 30
0.0
 11
20476.210465017331
 21
23934.75022384063
 31
0.0
  0
LINE
  5
13A3
  8
CT
 10
20560.210465017331
 20
23952.640562076951
 30
0.0
 11
20560.210465017331
 21
24061.98318395286
 31
0.0
  0
LINE
  5
13B2
  8
FUTO
 10
20507.710465017339
 20
23934.75022384063
 30
0.0
 11
20507.710465017339
 21
24087.25022384062
 31
0.0
  0
LINE
  5
13B4
  8
FUTO
 10
20612.710465017339
 20
23934.75022384063
 30
0.0
 11
20612.710465017331
 21
24087.25022384062
 31
0.0
  0
LINE
  5
13BE
  8
FUTO
 10
20708.210465017339
 20
23902.75022384062
 30
0.0
 11
20708.210465017339
 21
23779.75022384063
 31
0.0
  0
LINE
  5
13BF
  8
FUTO
 10
20690.210465017331
 20
23779.75022384063
 30
0.0
 11
20690.210465017331
 21
23762.75022384063
 31
0.0
  0
LINE
  5
13C0
  8
FUTO
 10
20708.210465017339
 20
23779.75022384063
 30
0.0
 11
20690.210465017331
 21
23779.75022384063
 31
0.0
  0
LINE
  5
13C1
  8
FUTO
 10
20690.210465017331
 20
23902.75022384062
 30
0.0
 11
20708.210465017339
 21
23902.75022384062
 31
0.0
  0
LINE
  5
13C2
  8
FUTO
 10
20690.210465017331
 20
23919.75022384063
 30
0.0
 11
20690.210465017331
 21
23902.75022384062
 31
0.0
  0
LINE
  5
13E1
  8
FUTO
 10
20180.210465017339
 20
22351.25022384062
 30
0.0
 11
20180.210465017339
 21
22701.25022384063
 31
0.0
  0
LINE
  5
13E2
  8
SL
 10
20280.210465017331
 20
22501.25022384063
 30
0.0
 11
20280.210465017331
 21
22671.25022384063
 31
0.0
  0
DIMENSION
  5
1417
  8
SP
  2
*D5
 10
25600.78590997752
 20
21885.562105755711
 30
0.0
 11
24375.78590997752
 21
21996.99067718428
 31
0.0
 70
     0
  1
(<>)
 13
23150.78590997752
 23
19813.186299051002
 33
0.0
 14
25600.78590997752
 24
21414.186299051002
 34
0.0
1001
ACAD
1000
DSTYLE
1002
{
1070
    40
1040
40.0
1002
}
  0
LINE
  5
1453
  8
FUTO
 10
20456.210465017339
 20
22906.75022384063
 30
0.0
 11
20456.210465017339
 21
22773.75022384063
 31
0.0
  0
LINE
  5
1454
  8
FUTO
 10
20412.210465017331
 20
23902.75022384062
 30
0.0
 11
20412.210465017331
 21
23779.75022384063
 31
0.0
  0
LINE
  5
1455
  8
FUTO
 10
20412.210465017331
 20
23779.75022384063
 30
0.0
 11
20430.210465017331
 21
23779.75022384063
 31
0.0
  0
LINE
  5
1456
  8
FUTO
 10
20430.210465017331
 20
23779.75022384063
 30
0.0
 11
20430.210465017331
 21
23762.75022384063
 31
0.0
  0
LINE
  5
1457
  8
FUTO
 10
20430.210465017331
 20
23919.75022384063
 30
0.0
 11
20430.210465017331
 21
23902.75022384062
 31
0.0
  0
LINE
  5
1458
  8
FUTO
 10
20430.210465017331
 20
23902.75022384062
 30
0.0
 11
20412.210465017331
 21
23902.75022384062
 31
0.0
  0
LINE
  5
1698
  8
FUTO
 10
23539.285909977531
 20
18323.186299051002
 30
0.0
 11
23539.28590997752
 21
18253.186299052861
 31
0.0
  0
LINE
  5
1699
  8
FUTO
 10
24239.285909977531
 20
18323.186299051002
 30
0.0
 11
24239.28590997752
 21
18253.18629905289
 31
0.0
  0
LINE
  5
169A
  8
FUTO
 10
24034.28590997752
 20
18323.186299051002
 30
0.0
 11
23539.285909977531
 21
18323.186299051002
 31
0.0
  0
LINE
  5
169B
  8
FUTO
 10
23539.28590997752
 20
18323.186299051002
 30
0.0
 11
24239.285909977531
 21
18323.186299051002
 31
0.0
  0
LINE
  5
16AB
  8
FUTO
 10
23475.78590997752
 20
18703.186299051002
 30
0.0
 11
23475.78590997752
 21
18503.186299051002
 31
0.0
  0
LINE
  5
16AC
  8
FUTO
 10
24709.78590997752
 20
18863.186299051002
 30
0.0
 11
24709.78590997752
 21
18385.03736096892
 31
0.0
  0
LINE
  5
16AD
  8
FUTO
 10
23495.78590997752
 20
18913.186299051002
 30
0.0
 11
23495.78590997752
 21
18336.959575578821
 31
0.0
  0
LINE
  5
16AE
  8
FUTO
 10
23574.78590997752
 20
18913.186299051002
 30
0.0
 11
23574.78590997752
 21
18336.959575578821
 31
0.0
  0
LINE
  5
16AF
  8
FUTO
 10
24459.78590997752
 20
18913.186299051002
 30
0.0
 11
24459.78590997752
 21
18335.03736096892
 31
0.0
  0
LINE
  5
16B0
  8
CT
 10
23889.28590997752
 20
18949.82566703764
 30
0.0
 11
23889.28590997752
 21
18231.237772033921
 31
0.0
  0
LINE
  5
16B1
  8
FUTO
 10
24034.28590997752
 20
18323.186299051002
 30
0.0
 11
24154.28590997752
 21
18323.186299051002
 31
0.0
  0
LINE
  5
16B2
  8
FUTO
 10
23624.28590997752
 20
18353.186299051002
 30
0.0
 11
24154.28590997752
 21
18353.186299051002
 31
0.0
  0
LINE
  5
16B3
  8
FUTO
 10
24459.78590997752
 20
18335.03736096892
 30
0.0
 11
24659.78590997752
 21
18335.03736096892
 31
0.0
  0
ARC
  5
16B4
  8
FUTO
 10
24659.78590997752
 20
18385.03736096892
 30
0.0
 40
50.0
 50
270.0
 51
0.0
  0
LINE
  5
16B5
  8
FUTO
 10
24154.28590997752
 20
18335.03736096892
 30
0.0
 11
24439.460691979359
 21
18335.03736096892
 31
0.0
  0
LINE
  5
16B6
  8
FUTO
 10
24459.78590997752
 20
18346.57064862836
 30
0.0
 11
24439.46069197937
 21
18335.03736096892
 31
0.0
  0
LINE
  5
16B7
  8
CT
 10
24117.78590997752
 20
18377.17705080994
 30
0.0
 11
24117.78590997752
 21
18306.704008727469
 31
0.0
  0
LINE
  5
16B8
  8
FUTO
 10
24154.28590997752
 20
18353.186299051002
 30
0.0
 11
24154.28590997752
 21
18323.186299051002
 31
0.0
  0
LINE
  5
16B9
  8
FUTO
 10
24034.28590997752
 20
18335.03736096892
 30
0.0
 11
23744.28590997752
 21
18335.03736096892
 31
0.0
  0
LINE
  5
16BA
  8
FUTO
 10
24034.28590997752
 20
18335.03736096892
 30
0.0
 11
24034.28590997752
 21
18323.186299051002
 31
0.0
  0
LINE
  5
16BB
  8
FUTO
 10
23624.28590997752
 20
18353.186299051002
 30
0.0
 11
23624.28590997752
 21
18323.186299051002
 31
0.0
  0
LINE
  5
16BC
  8
CT
 10
23660.78590997752
 20
18377.17705080994
 30
0.0
 11
23660.78590997752
 21
18306.704008727469
 31
0.0
  0
LINE
  5
16BD
  8
FUTO
 10
23624.28590997752
 20
18336.959575578821
 30
0.0
 11
23495.78590997752
 21
18336.959575578821
 31
0.0
  0
LINE
  5
16BE
  8
FUTO
 10
23744.28590997752
 20
18335.03736096892
 30
0.0
 11
23744.28590997752
 21
18323.186299051002
 31
0.0
  0
LINE
  5
16BF
  8
FUTO
 10
23624.28590997752
 20
18323.186299051002
 30
0.0
 11
23744.28590997752
 21
18323.186299051002
 31
0.0
  0
LINE
  5
16C0
  8
FUTO
 10
23495.78590997752
 20
18503.186299051002
 30
0.0
 11
23475.78590997752
 21
18503.186299051002
 31
0.0
  0
LINE
  5
16C1
  8
FUTO
 10
24438.391083811959
 20
18913.186299051002
 30
0.0
 11
23495.78590997752
 21
18913.186299051002
 31
0.0
  0
LINE
  5
16C2
  8
CT
 10
24746.428675441959
 20
18603.186299051002
 30
0.0
 11
23274.637079138141
 21
18603.186299051002
 31
0.0
  0
LINE
  5
16C3
  8
FUTO
 10
24659.78590997752
 20
18913.186299051002
 30
0.0
 11
24459.78590997752
 21
18913.186299051002
 31
0.0
  0
ARC
  5
16C4
  8
FUTO
 10
24659.78590997752
 20
18863.186299051002
 30
0.0
 40
50.0
 50
0.0
 51
90.0
  0
LINE
  5
16C5
  8
FUTO
 10
24459.78590997752
 20
18888.635168622252
 30
0.0
 11
24438.391083811959
 21
18913.186299051002
 31
0.0
  0
LINE
  5
16C6
  8
FUTO
 10
23475.78590997752
 20
18645.686299051002
 30
0.0
 11
23300.78590997752
 21
18645.686299051002
 31
0.0
  0
LINE
  5
16C7
  8
FUTO
 10
23475.78590997752
 20
18560.686299051002
 30
0.0
 11
23300.78590997752
 21
18560.686299051002
 31
0.0
  0
LINE
  5
16C8
  8
CT
 10
23684.78590997752
 20
19236.556013015492
 30
0.0
 11
23684.78590997752
 21
18837.696481459701
 31
0.0
  0
LINE
  5
16C9
  8
FUTO
 10
23495.78590997752
 20
18703.186299051002
 30
0.0
 11
23475.78590997752
 21
18703.186299051002
 31
0.0
  0
LINE
  5
16CA
  8
FUTO
 10
23784.78590997752
 20
19193.186299051002
 30
0.0
 11
23584.78590997752
 21
19193.186299051002
 31
0.0
  0
LINE
  5
16CB
  8
FUTO
 10
23784.78590997752
 20
18928.186299051002
 30
0.0
 11
23584.78590997752
 21
18928.186299051002
 31
0.0
  0
LINE
  5
16CC
  8
CT
 10
23848.65183716391
 20
19053.186299051002
 30
0.0
 11
23546.51564777939
 21
19053.186299051002
 31
0.0
  0
LINE
  5
16CD
  8
FUTO
 10
23804.78590997752
 20
19173.186299051002
 30
0.0
 11
23804.78590997752
 21
18948.186299051002
 31
0.0
  0
ARC
  5
16CE
  8
FUTO
 10
23784.78590997752
 20
18948.186299051002
 30
0.0
 40
20.0
 50
270.0
 51
0.0
  0
ARC
  5
16CF
  8
FUTO
 10
23784.78590997752
 20
19173.186299051002
 30
0.0
 40
20.0
 50
0.0
 51
90.0
  0
LINE
  5
16D0
  8
FUTO
 10
23564.78590997752
 20
19173.186299051002
 30
0.0
 11
23564.78590997752
 21
18948.186299051002
 31
0.0
  0
ARC
  5
16D1
  8
FUTO
 10
23584.78590997752
 20
18948.186299051002
 30
0.0
 40
20.0
 50
180.0
 51
270.0
  0
ARC
  5
16D2
  8
FUTO
 10
23584.78590997752
 20
19173.186299051002
 30
0.0
 40
20.0
 50
90.0
 51
180.0
  0
LINE
  5
16D3
  8
FUTO
 10
23470.78590997752
 20
18645.686299051002
 30
0.0
 11
23470.78590997752
 21
18560.686299051002
 31
0.0
  0
LINE
  5
16D4
  8
FUTO
 10
23300.78590997752
 20
18645.686299051002
 30
0.0
 11
23300.78590997752
 21
18560.686299051002
 31
0.0
  0
LINE
  5
17EE
  8
FUTO
 10
21750.210465017379
 20
23638.85539767507
 30
0.0
 11
21750.210465017339
 21
22696.250223840641
 31
0.0
  0
LINE
  5
17EF
  8
CT
 10
22060.21046501739
 20
23946.892989305059
 30
0.0
 11
22060.210465017331
 21
22475.101393001241
 31
0.0
  0
LINE
  5
17F0
  8
FUTO
 10
22370.210465017379
 20
23638.855397675041
 30
0.0
 11
22370.210465017339
 21
22696.25022384062
 31
0.0
  0
LINE
  5
17F1
  8
FUTO
 10
21850.21046501735
 20
22765.250223840641
 30
0.0
 11
22240.21046501735
 21
22765.25022384062
 31
0.0
  0
LINE
  5
17F2
  8
CT
 10
22268.52332439466
 20
22885.25022384062
 30
0.0
 11
21805.540685380151
 21
22885.250223840641
 31
0.0
  0
LINE
  5
17F3
  8
CT
 10
22406.849833003998
 20
23089.750223840609
 30
0.0
 11
21688.261938000269
 21
23089.750223840641
 31
0.0
  0
LINE
  5
17F4
  8
FUTO
 10
22370.210465017339
 20
22696.25022384062
 30
0.0
 11
21750.210465017339
 21
22696.250223840641
 31
0.0
  0
LINE
  5
17F5
  8
FUTO
 10
22160.210465017339
 20
22676.25022384063
 30
0.0
 11
21960.210465017339
 21
22676.25022384063
 31
0.0
  0
LINE
  5
17F6
  8
FUTO
 10
21850.210465017361
 20
23005.250223840641
 30
0.0
 11
22240.210465017361
 21
23005.25022384062
 31
0.0
  0
LINE
  5
17F7
  8
FUTO
 10
22429.55485386026
 20
22739.75022384062
 30
0.0
 11
22429.554853860282
 21
23439.75022384062
 31
0.0
  0
LINE
  5
17F8
  8
FUTO
 10
22260.210465017361
 20
22985.25022384062
 30
0.0
 11
22260.21046501735
 21
22885.25022384062
 31
0.0
  0
LINE
  5
17F9
  8
CT
 10
22060.210465017251
 20
22329.79926767054
 30
0.0
 11
22060.210465017841
 21
23588.205663786721
 31
0.0
  0
LINE
  5
17FA
  8
FUTO
 10
22370.21046501735
 20
22739.75022384062
 30
0.0
 11
22429.55485386026
 21
22739.75022384062
 31
0.0
  0
LINE
  5
17FE
  8
FUTO
 10
22017.710465017339
 20
22676.25022384063
 30
0.0
 11
22017.710465017331
 21
22501.25022384063
 31
0.0
  0
LINE
  5
17FF
  8
FUTO
 10
22102.710465017339
 20
22676.25022384063
 30
0.0
 11
22102.710465017339
 21
22501.25022384063
 31
0.0
  0
LINE
  5
1802
  8
FUTO
 10
22102.710465017339
 20
22501.25022384063
 30
0.0
 11
22017.710465017331
 21
22501.25022384063
 31
0.0
  0
ARC
  5
1804
  8
FUTO
 10
22240.21046501735
 20
22785.25022384062
 30
0.0
 40
20.0
 50
270.0
 51
0.000000000000007
  0
LINE
  5
1805
  8
FUTO
 10
22260.21046501735
 20
22785.25022384062
 30
0.0
 11
22260.21046501735
 21
22885.25022384062
 31
0.0
  0
LINE
  5
1806
  8
FUTO
 10
22370.21046501735
 20
22775.250223840609
 30
0.0
 11
22257.530973093038
 21
22775.25022384062
 31
0.0
  0
LINE
  5
1807
  8
FUTO
 10
22102.710465017339
 20
22671.25022384063
 30
0.0
 11
22017.710465017339
 21
22671.25022384063
 31
0.0
  0
LINE
  5
1808
  8
FUTO
 10
22160.210465017339
 20
22696.25022384063
 30
0.0
 11
22160.210465017339
 21
22676.25022384063
 31
0.0
  0
LINE
  5
1809
  8
FUTO
 10
22370.210465017371
 20
23439.75022384062
 30
0.0
 11
22429.554853860282
 21
23439.75022384062
 31
0.0
  0
ARC
  5
180A
  8
FUTO
 10
22240.210465017361
 20
22985.25022384062
 30
0.0
 40
20.0
 50
0.000000000000007
 51
90.0
  0
LINE
  5
180B
  8
FUTO
 10
21690.86607617444
 20
22739.750223840641
 30
0.0
 11
21690.866076174461
 21
23439.750223840641
 31
0.0
  0
LINE
  5
180C
  8
FUTO
 10
21830.210465017361
 20
22985.250223840641
 30
0.0
 11
21830.210465017339
 21
22885.250223840641
 31
0.0
  0
LINE
  5
180F
  8
FUTO
 10
21832.889956941661
 20
22775.25022384063
 30
0.0
 11
21750.21046501735
 21
22775.250223840641
 31
0.0
  0
LINE
  5
1810
  8
CT
 10
21785.638910063139
 20
22861.250223840641
 30
0.0
 11
21715.165867980671
 21
22861.250223840641
 31
0.0
  0
ARC
  5
1811
  8
FUTO
 10
21850.21046501735
 20
22785.250223840641
 30
0.0
 40
20.0
 50
180.0
 51
270.0
  0
LINE
  5
1812
  8
FUTO
 10
21830.21046501735
 20
22785.250223840641
 30
0.0
 11
21830.210465017339
 21
22885.250223840641
 31
0.0
  0
LINE
  5
1813
  8
FUTO
 10
21960.210465017339
 20
22696.25022384063
 30
0.0
 11
21960.210465017339
 21
22676.25022384063
 31
0.0
  0
LINE
  5
1814
  8
FUTO
 10
21750.21046501735
 20
22739.750223840641
 30
0.0
 11
21690.86607617444
 21
22739.750223840641
 31
0.0
  0
ARC
  5
1815
  8
FUTO
 10
21850.210465017361
 20
22985.250223840641
 30
0.0
 40
20.0
 50
90.0
 51
180.0
  0
LINE
  5
1816
  8
CT
 10
21785.63891006316
 20
23318.250223840641
 30
0.0
 11
21715.16586798069
 21
23318.250223840641
 31
0.0
  0
LINE
  5
1817
  8
FUTO
 10
21750.210465017371
 20
23439.750223840641
 30
0.0
 11
21690.866076174461
 21
23439.750223840641
 31
0.0
  0
LINE
  5
181A
  8
FUTO
 10
22370.210465017379
 20
23660.25022384062
 30
0.0
 11
21750.210465017379
 21
23660.250223840641
 31
0.0
  0
LINE
  5
181B
  8
FUTO
 10
22320.21046501739
 20
23910.25022384062
 30
0.0
 11
21800.21046501739
 21
23910.250223840641
 31
0.0
  0
LINE
  5
181F
  8
FUTO
 10
22345.659334588629
 20
23660.25022384062
 30
0.0
 11
22370.210465017379
 21
23638.855397675041
 31
0.0
  0
ARC
  5
1820
  8
FUTO
 10
22320.210465017379
 20
23860.25022384062
 30
0.0
 40
50.0
 50
0.000000000000007
 51
90.0
  0
LINE
  5
1821
  8
FUTO
 10
22370.21046501739
 20
23860.25022384062
 30
0.0
 11
22370.210465017379
 21
23660.25022384062
 31
0.0
  0
ARC
  5
1824
  8
FUTO
 10
21800.210465017379
 20
23860.250223840641
 30
0.0
 40
50.0
 50
90.0
 51
180.0
  0
LINE
  5
1825
  8
FUTO
 10
21774.761595446129
 20
23660.250223840641
 30
0.0
 11
21750.210465017379
 21
23638.85539767507
 31
0.0
  0
LINE
  5
1826
  8
FUTO
 10
21750.210465017379
 20
23860.250223840641
 30
0.0
 11
21750.210465017379
 21
23660.250223840641
 31
0.0
  0
LINE
  5
1827
  8
FUTO
 10
22500.210465017331
 20
22765.25022384062
 30
0.0
 11
22500.210465017331
 21
22690.25022384062
 31
0.0
  0
LINE
  5
1828
  8
FUTO
 10
22324.090379462181
 20
24062.25022384063
 30
0.0
 11
22324.090379462181
 21
23910.099459179801
 31
0.0
  0
LINE
  5
1829
  8
FUTO
 10
21796.330550572678
 20
24062.250223840751
 30
0.0
 11
21796.330550572598
 21
23910.099459179921
 31
0.0
  0
LINE
  5
182A
  8
FUTO
 10
21871.330550572671
 20
24062.250223840711
 30
0.0
 11
21871.330550572609
 21
23910.2502238407
 31
0.0
  0
LINE
  5
182B
  8
SL
 10
22260.210465017331
 20
22501.25022384063
 30
0.0
 11
22260.210465017331
 21
22671.25022384063
 31
0.0
  0
LINE
  5
182D
  8
FUTO
 10
22340.210465017331
 20
22351.25022384063
 30
0.0
 11
22340.210465017331
 21
22701.25022384062
 31
0.0
  0
LINE
  5
182F
  8
FUTO
 10
20218.162039193288
 20
22765.25022384062
 30
0.0
 11
20218.162039193288
 21
24087.25022384062
 31
0.0
  0
LINE
  5
1830
  8
FUTO
 10
20902.258890841382
 20
22765.25022384062
 30
0.0
 11
20902.258890841382
 21
24087.25022384062
 31
0.0
  0
LINE
  5
1832
  8
FUTO
 10
21525.210465017339
 20
25596.25022384062
 30
0.0
 11
19595.210465017331
 21
25596.25022384063
 31
0.0
  0
LINE
  5
1833
  8
FUTO
 10
21525.210465017339
 20
25590.25022384063
 30
0.0
 11
19595.210465017331
 21
25590.25022384063
 31
0.0
  0
LINE
  5
1834
  8
KL
 10
21525.210465017339
 20
25470.45022384062
 30
0.0
 11
19595.210465017331
 21
25470.45022384062
 31
0.0
  0
LINE
  5
1839
  8
KL
 10
19660.210465017331
 20
25464.45022384062
 30
0.0
 11
19660.210465017331
 21
25596.25022384063
 31
0.0
  0
LINE
  5
183A
  8
KL
 10
19654.210465017331
 20
25464.45022384062
 30
0.0
 11
19654.210465017331
 21
25554.45022384062
 31
0.0
  0
LINE
  5
183B
  8
KL
 10
19595.210465017331
 20
25464.45022384062
 30
0.0
 11
19595.210465017331
 21
25470.45022384062
 31
0.0
  0
LINE
  5
183C
  8
HOSO
 10
19620.210465017339
 20
25421.91621422971
 30
0.0
 11
19620.210465017339
 21
25496.023829377969
 31
0.0
  0
LINE
  5
183D
  8
HOSO
 10
19620.210465017339
 20
25562.7676776546
 30
0.0
 11
19620.210465017339
 21
25636.875292802859
 31
0.0
  0
LINE
  5
183E
  8
FUTO
 10
19595.210465017331
 20
25590.25022384063
 30
0.0
 11
19595.210465017331
 21
25596.25022384063
 31
0.0
  0
LINE
  5
183F
  8
FUTO
 10
19654.210465017331
 20
25554.45022384062
 30
0.0
 11
19654.210465017331
 21
25596.25022384063
 31
0.0
  0
INSERT
  5
185B
  8
FUTO
  2
まっすぐの矢印
 10
21045.756767866449
 20
25791.72337641113
 30
0.0
 41
-2.0
 42
2.0
 43
2.0
 50
180.0
  0
LINE
  5
185D
  8
KL
 10
21460.210465017331
 20
25464.45022384062
 30
0.0
 11
21460.210465017331
 21
25596.25022384063
 31
0.0
  0
LINE
  5
185E
  8
FUTO
 10
21466.210465017339
 20
25529.45022384062
 30
0.0
 11
21466.210465017339
 21
25596.25022384063
 31
0.0
  0
LINE
  5
185F
  8
KL
 10
21466.210465017339
 20
25464.45022384062
 30
0.0
 11
21466.210465017339
 21
25529.45022384062
 31
0.0
  0
LINE
  5
1860
  8
KL
 10
21525.210465017339
 20
25470.45022384062
 30
0.0
 11
21525.210465017339
 21
25464.45022384062
 31
0.0
  0
LINE
  5
1861
  8
HOSO
 10
21500.210465017331
 20
25435.51225403263
 30
0.0
 11
21500.210465017331
 21
25495.3426028627
 31
0.0
  0
LINE
  5
1862
  8
HOSO
 10
21500.210465017331
 20
25563.582447280951
 30
0.0
 11
21500.210465017331
 21
25623.412796111021
 31
0.0
  0
LINE
  5
1863
  8
FUTO
 10
21525.210465017339
 20
25590.25022384063
 30
0.0
 11
21525.210465017339
 21
25596.25022384063
 31
0.0
  0
LINE
  5
188E
  8
FUTO
 10
20166.058255779571
 20
19160.870833813689
 30
0.0
 11
19860.210465017339
 21
18268.977393589419
 31
0.0
  0
LINE
  5
188F
  8
FUTO
 10
20081.376566678431
 20
19401.374529591689
 30
0.0
 11
19372.4431746103
 21
19338.49104338255
 31
0.0
  0
LINE
  5
1890
  8
FUTO
 10
20082.966950182239
 20
19383.444926129509
 30
0.0
 11
19370.033513907241
 21
19320.206629824632
 31
0.0
  0
LINE
  5
1891
  8
KL
 10
21371.093154280359
 20
19443.812499051
 30
0.0
 11
20760.210465017331
 21
19443.812499051
 31
0.0
  0
LINE
  5
1892
  8
KL
 10
21396.182665321481
 20
19425.812499051
 30
0.0
 11
20760.210465017331
 21
19425.812499051
 31
0.0
  0
LINE
  5
1893
  8
FUTO
 10
21610.210465017331
 20
18486.439660241878
 30
0.0
 11
21610.210465017331
 21
18254.812499051
 31
0.0
  0
LINE
  5
1894
  8
FUTO
 10
21601.210465017331
 20
18490.123050222559
 30
0.0
 11
21601.210465017331
 21
18254.812499051
 31
0.0
  0
LINE
  5
1895
  8
KL
 10
21619.210465017339
 20
19265.805379424499
 30
0.0
 11
21619.210465017339
 21
18482.66102213374
 31
0.0
  0
LINE
  5
1896
  8
KL
 10
21610.210465017331
 20
19272.262260937041
 30
0.0
 11
21610.210465017331
 21
18486.439660241878
 31
0.0
  0
LINE
  5
1897
  8
KL
 10
21601.210465017331
 20
19278.71914244958
 30
0.0
 11
21601.210465017331
 21
18490.123050222559
 31
0.0
  0
DIMENSION
  5
18AD
  8
SP
  2
*D6
 10
18850.801375811749
 20
21424.812499051
 30
0.0
 11
18770.801375811741
 21
20429.812499051
 31
0.0
 70
     0
 13
19014.85646597324
 23
19434.812499051
 33
0.0
 14
19395.210465017339
 24
21424.812499051
 34
0.0
 50
90.0
1001
ACAD
1000
DSTYLE
1002
{
1070
    40
1040
40.0
1002
}
  0
DIMENSION
  5
1909
  8
SP
  2
*D9
 10
19395.210465017331
 20
26054.12415532357
 30
0.0
 11
19977.710465017331
 21
26134.12415532357
 31
0.0
 70
     0
 13
20560.210465017331
 23
25795.245527012848
 33
0.0
 14
19395.210465017331
 24
25530.25022384062
 34
0.0
 50
180.0
1001
ACAD
1000
DSTYLE
1002
{
1070
    40
1040
40.0
1002
}
  0
DIMENSION
  5
1916
  8
SP
  2
*D10
 10
22500.210465017331
 20
26054.12415532357
 30
0.0
 11
21530.210465017331
 21
26134.12415532357
 31
0.0
 70
     0
 13
20560.210465017331
 23
26054.12415532357
 33
0.0
 14
22500.210465017331
 24
24137.25022384062
 34
0.0
 50
180.0
1001
ACAD
1000
DSTYLE
1002
{
1070
    40
1040
40.0
1002
}
  0
DIMENSION
  5
1923
  8
SP
  2
*D11
 10
18975.22419952722
 20
24801.25022384062
 30
0.0
 11
18895.224199527209
 21
25198.75022384063
 31
0.0
 70
     0
 13
19595.210465017331
 23
25596.25022384063
 33
0.0
 14
18907.976021308408
 24
24801.25022384062
 34
0.0
 50
90.0
1001
ACAD
1000
DSTYLE
1002
{
1070
    40
1040
40.0
1002
}
  0
DIMENSION
  5
1930
  8
SP
  2
*D12
 10
18975.22419952722
 20
22351.25022384062
 30
0.0
 11
18895.22419952722
 21
23576.25022384063
 31
0.0
 70
     0
 13
18975.22419952722
 23
24801.25022384062
 33
0.0
 14
20180.210465017339
 24
22351.25022384062
 34
0.0
 50
90.0
1001
ACAD
1000
DSTYLE
1002
{
1070
    40
1040
40.0
1002
}
  0
LINE
  5
19B8
  8
KL
 10
23549.78590997752
 20
18913.186299051002
 30
0.0
 11
23549.78590997752
 21
18254.812482445021
 31
0.0
  0
TEXT
  5
2499
  8
SP
 10
42497.23742459101
 20
25275.620478045181
 30
0.0
 40
100.0
  1
 
  0
LINE
  5
249A
  8
4
 10
26878.54427511113
 20
15701.60026370655
 30
0.0
 11
26878.54427511113
 21
14501.60026370655
 31
0.0
  0
LINE
  5
249B
  8
4
 10
22678.54427511113
 20
15701.60026370655
 30
0.0
 11
22678.544275111119
 21
14501.60026370655
 31
0.0
  0
LINE
  5
249C
  8
4
 10
19678.54427511113
 20
15701.60026370655
 30
0.0
 11
19678.54427511113
 21
14501.60026370655
 31
0.0
  0
LINE
  5
249F
  8
4
 10
19678.54427511113
 20
14501.60026370655
 30
0.0
 11
26878.54427511113
 21
14501.60026370655
 31
0.0
  0
LINE
  5
24A0
  8
4
 10
19678.54427511113
 20
15101.60026370655
 30
0.0
 11
26878.54427511113
 21
15101.60026370655
 31
0.0
  0
TEXT
  5
24A1
  8
4
 10
19909.55676019255
 20
15290.858418906229
 30
0.0
 40
300.0
  1
機器名称
  0
TEXT
  5
24A2
  8
4
 10
19896.092911259919
 20
14631.471204098611
 30
0.0
 40
300.0
  1
機器型番
  0
TEXT
  5
24A3
  8
4
 10
22707.302645317392
 20
15234.72407784823
 30
0.0
 40
270.0
  1
ミツヤリミットロードファン
  0
TEXT
  5
24A4
  8
4
 10
22898.471248624021
 20
14604.557769386211
 30
0.0
 40
300.0
  1
LL#11-1
  0
TEXT
  5
24A6
  8
4
 10
17675.549835087812
 20
27904.886120902342
 30
0.0
 40
432.0
  1
遠心式片吸込片持リミットロードファン
  0
LINE
  5
24A7
  8
4
 10
17278.54427511113
 20
27518.05278929538
 30
0.0
 11
26878.54427511113
 21
27518.05278929538
 31
0.0
  0
LINE
  5
24A8
  8
4
 10
17278.54427511113
 20
28718.05278929538
 30
0.0
 11
26878.54427511113
 21
28718.05278929538
 31
0.0
  0
LINE
  5
24A9
  8
4
 10
19678.54427511113
 20
15701.60026370655
 30
0.0
 11
26878.54427511113
 21
15701.60026370655
 31
0.0
  0
LINE
  5
24AA
  8
4
 10
17278.54427511113
 20
28718.05278929538
 30
0.0
 11
17278.54427511113
 21
27518.05278929538
 31
0.0
  0
TEXT
  5
24AB
  8
4
 10
17813.585372017569
 20
26995.517128984618
 30
0.0
 40
323.99999999999989
  1
左回転左横向
  0
TEXT
  5
24AC
  8
4
 10
24592.36163060688
 20
28937.966752678411
 30
0.0
 40
336.00000000000011
  1
No.
  0
TEXT
  5
24AD
  8
4
 10
24556.690733832969
 20
26143.00314222095
 30
0.0
 40
323.99999999999989
  1
縮尺：1/60
  0
LINE
  5
24AE
  8
4
 10
26878.54427511113
 20
28718.05278929538
 30
0.0
 11
26878.54427511113
 21
27518.05278929538
 31
0.0
  0
LINE
  5
24AF
  8
4
 10
28378.54427511113
 20
30401.60026370655
 30
0.0
 11
28378.54427511113
 21
30401.60026370655
 31
0.0
  0
LINE
  5
24B0
  8
4
 10
24422.248809270321
 20
28789.18176245896
 30
0.0
 11
24422.248809270321
 21
29421.513833005061
 31
0.0
  0
LINE
  5
24B1
  8
4
 10
24422.248809270321
 20
29421.513833005061
 30
0.0
 11
26878.54427511113
 21
29421.513833005061
 31
0.0
  0
LINE
  5
24B2
  8
4
 10
26878.54427511113
 20
29421.513833005061
 30
0.0
 11
26878.54427511113
 21
28789.18176245896
 31
0.0
  0
LINE
  5
24B3
  8
4
 10
26878.54427511113
 20
28789.18176245896
 30
0.0
 11
24422.248809270321
 21
28789.18176245896
 31
0.0
  0
LINE
  5
24B4
  8
4
 10
15778.54427511113
 20
12701.60026370655
 30
0.0
 11
15778.54427511113
 21
30401.60026370655
 31
0.0
  0
LINE
  5
24B5
  8
4
 10
15778.54427511113
 20
30401.60026370655
 30
0.0
 11
28378.54427511113
 21
30401.60026370655
 31
0.0
  0
LINE
  5
24B6
  8
4
 10
28378.54427511113
 20
30401.60026370655
 30
0.0
 11
28378.54427511113
 21
12701.60026370655
 31
0.0
  0
LINE
  5
24B7
  8
4
 10
28378.54427511113
 20
12701.60026370655
 30
0.0
 11
15778.54427511113
 21
12701.60026370655
 31
0.0
  0
TEXT
  5
24B8
  8
4
 10
20890.321159204279
 20
26995.587053632989
 30
0.0
 40
323.99999999999989
  1
床置防振ベット
  0
ENDSEC
  0
EOF
