  0
SECTION
  2
HEADER
  9
$ACADVER
  1
AC1009
  9
$INSBASE
 10
0.0
 20
0.0
 30
0.0
  9
$EXTMIN
 10
13395.14791671081
 20
15494.2960849843
 30
0.0
  9
$EXTMAX
 10
25995.147916710808
 20
33194.2960849843
 30
0.0
  9
$LIMMIN
 10
0.0
 20
0.0
  9
$LIMMAX
 10
297.0
 20
210.0
  9
$ORTHOMODE
 70
     0
  9
$REGENMODE
 70
     1
  9
$FILLMODE
 70
     1
  9
$QTEXTMODE
 70
     0
  9
$MIRRTEXT
 70
     0
  9
$DRAGMODE
 70
     2
  9
$LTSCALE
 40
200.0
  9
$OSMODE
 70
    37
  9
$ATTMODE
 70
     1
  9
$TEXTSIZE
 40
150.0
  9
$TRACEWID
 40
0.05
  9
$TEXTSTYLE
  7
STANDARD
  9
$CLAYER
  8
FUTO
  9
$CELTYPE
  6
BYLAYER
  9
$CECOLOR
 62
   256
  9
$DIMSCALE
 40
40.0
  9
$DIMASZ
 40
2.0
  9
$DIMEXO
 40
1.0
  9
$DIMDLI
 40
10.0
  9
$DIMRND
 40
0.0
  9
$DIMDLE
 40
0.0
  9
$DIMEXE
 40
1.0
  9
$DIMTP
 40
0.0
  9
$DIMTM
 40
0.0
  9
$DIMTXT
 40
3.0
  9
$DIMCEN
 40
0.0
  9
$DIMTSZ
 40
0.0
  9
$DIMTOL
 70
     0
  9
$DIMLIM
 70
     0
  9
$DIMTIH
 70
     0
  9
$DIMTOH
 70
     0
  9
$DIMSE1
 70
     0
  9
$DIMSE2
 70
     0
  9
$DIMTAD
 70
     1
  9
$DIMZIN
 70
     8
  9
$DIMBLK
  1

  9
$DIMASO
 70
     1
  9
$DIMSHO
 70
     1
  9
$DIMPOST
  1

  9
$DIMAPOST
  1

  9
$DIMALT
 70
     0
  9
$DIMALTD
 70
     2
  9
$DIMALTF
 40
0.03937
  9
$DIMLFAC
 40
1.0
  9
$DIMTOFL
 70
     1
  9
$DIMTVP
 40
0.0
  9
$DIMTIX
 70
     0
  9
$DIMSOXD
 70
     0
  9
$DIMSAH
 70
     1
  9
$DIMBLK1
  1
OPEN
  9
$DIMBLK2
  1
OPEN
  9
$DIMSTYLE
  2
MATSU
  9
$DIMCLRD
 70
   256
  9
$DIMCLRE
 70
   256
  9
$DIMCLRT
 70
   256
  9
$DIMTFAC
 40
1.0
  9
$DIMGAP
 40
0.5
  9
$LUNITS
 70
     2
  9
$LUPREC
 70
     3
  9
$SKETCHINC
 40
0.1
  9
$FILLETRAD
 40
7.0
  9
$AUNITS
 70
     0
  9
$AUPREC
 70
     2
  9
$MENU
  1
acad
  9
$ELEVATION
 40
0.0
  9
$PELEVATION
 40
0.0
  9
$THICKNESS
 40
0.0
  9
$LIMCHECK
 70
     0
  9
$BLIPMODE
 70
     0
  9
$CHAMFERA
 40
0.0
  9
$CHAMFERB
 40
0.0
  9
$SKPOLY
 70
     0
  9
$TDCREATE
 40
2451593.4082031241
  9
$TDUPDATE
 40
2454953.6504549989
  9
$TDINDWG
 40
0.5611714815
  9
$TDUSRTIMER
 40
0.5611714815
  9
$USRTIMER
 70
     1
  9
$ANGBASE
 50
0.0
  9
$ANGDIR
 70
     0
  9
$PDMODE
 70
     0
  9
$PDSIZE
 40
1.0
  9
$PLINEWID
 40
0.0
  9
$COORDS
 70
     1
  9
$SPLFRAME
 70
     0
  9
$SPLINETYPE
 70
     6
  9
$SPLINESEGS
 70
     8
  9
$ATTDIA
 70
     0
  9
$ATTREQ
 70
     1
  9
$HANDLING
 70
 10241
  9
$HANDSEED
  5
2383
  9
$SURFTAB1
 70
     6
  9
$SURFTAB2
 70
     6
  9
$SURFTYPE
 70
     6
  9
$SURFU
 70
     6
  9
$SURFV
 70
     6
  9
$UCSNAME
  2

  9
$UCSORG
 10
0.0
 20
0.0
 30
0.0
  9
$UCSXDIR
 10
1.0
 20
0.0
 30
0.0
  9
$UCSYDIR
 10
0.0
 20
1.0
 30
0.0
  9
$PUCSNAME
  2

  9
$PUCSORG
 10
0.0
 20
0.0
 30
0.0
  9
$PUCSXDIR
 10
1.0
 20
0.0
 30
0.0
  9
$PUCSYDIR
 10
0.0
 20
1.0
 30
0.0
  9
$USERI1
 70
     0
  9
$USERI2
 70
     0
  9
$USERI3
 70
     0
  9
$USERI4
 70
     0
  9
$USERI5
 70
     0
  9
$USERR1
 40
0.0
  9
$USERR2
 40
0.0
  9
$USERR3
 40
0.0
  9
$USERR4
 40
0.0
  9
$USERR5
 40
0.0
  9
$WORLDVIEW
 70
     1
  9
$SHADEDGE
 70
     3
  9
$SHADEDIF
 70
    70
  9
$TILEMODE
 70
     1
  9
$MAXACTVP
 70
    16
  9
$PLIMCHECK
 70
     0
  9
$PEXTMIN
 10
1.0000000000000000E+020
 20
1.0000000000000000E+020
 30
1.0000000000000000E+020
  9
$PEXTMAX
 10
-1.0000000000000000E+020
 20
-1.0000000000000000E+020
 30
-1.0000000000000000E+020
  9
$PLIMMIN
 10
0.0
 20
0.0
  9
$PLIMMAX
 10
12.0
 20
9.0
  9
$UNITMODE
 70
     0
  9
$VISRETAIN
 70
     0
  9
$PLINEGEN
 70
     0
  9
$PSLTSCALE
 70
     0
  0
ENDSEC
  0
SECTION
  2
TABLES
  0
TABLE
  2
VPORT
 70
     2
  0
VPORT
  2
*ACTIVE
 70
     0
 10
0.0
 20
0.0
 11
1.0
 21
1.0
 12
25360.922481476449
 22
17504.914626731821
 13
0.0
 23
0.0
 14
5.0
 24
5.0
 15
0.0
 25
0.0
 16
0.0
 26
0.0
 36
1.0
 17
0.0
 27
0.0
 37
0.0
 40
5503.3522506234503
 41
3.1666666666666661
 42
50.0
 43
0.0
 44
0.0
 50
0.0
 51
0.0
 71
     0
 72
   100
 73
     1
 74
     0
 75
     0
 76
     0
 77
     0
 78
     0
  0
ENDTAB
  0
TABLE
  2
LTYPE
 70
     4
  0
LTYPE
  2
CONTINUOUS
 70
     0
  3
Solid line
 72
    65
 73
     0
 40
0.0
  0
LTYPE
  2
CENTER
 70
     0
  3
____ _ ____ _ ____ _ ____ _ ____ _ ____ _ ____ 
 72
    65
 73
     4
 40
2.0
 49
1.25
 49
-0.25
 49
0.25
 49
-0.25
  0
LTYPE
  2
HIDDEN
 70
     0
  3
__ __ __ __ __ __ __ __ __ __ __ __ __ __ __ __
 72
    65
 73
     2
 40
0.375
 49
0.25
 49
-0.125
  0
LTYPE
  2
PHANTOM
 70
     0
  3
______  __  __  ______  __  __  ______  __  __ 
 72
    65
 73
     6
 40
2.5
 49
1.25
 49
-0.25
 49
0.25
 49
-0.25
 49
0.25
 49
-0.25
  0
ENDTAB
  0
TABLE
  2
LAYER
 70
    10
  0
LAYER
  2
0
 70
     0
 62
     7
  6
CONTINUOUS
  0
LAYER
  2
CT
 70
     0
 62
     3
  6
CENTER
  0
LAYER
  2
FUTO
 70
     0
 62
     4
  6
CONTINUOUS
  0
LAYER
  2
HOSO
 70
     0
 62
     7
  6
CONTINUOUS
  0
LAYER
  2
KL
 70
     0
 62
     7
  6
HIDDEN
  0
LAYER
  2
SL
 70
     0
 62
     1
  6
PHANTOM
  0
LAYER
  2
SP
 70
     0
 62
     2
  6
CONTINUOUS
  0
LAYER
  2
1
 70
     0
 62
     7
  6
CONTINUOUS
  0
LAYER
  2
DEFPOINTS
 70
     0
 62
     7
  6
CONTINUOUS
  0
LAYER
  2
4
 70
     0
 62
     7
  6
CONTINUOUS
  0
ENDTAB
  0
TABLE
  2
STYLE
 70
     1
  0
STYLE
  2
STANDARD
 70
     0
 40
0.0
 41
1.0
 50
15.0
 71
     0
 42
150.0
  3
C:\Program Files\AutoCAD LT\simplex.shx
  4
bigfont.shx
  0
ENDTAB
  0
TABLE
  2
VIEW
 70
     0
  0
ENDTAB
  0
TABLE
  2
UCS
 70
     0
  0
ENDTAB
  0
TABLE
  2
APPID
 70
     2
  0
APPID
  2
ACAD
 70
     0
  0
APPID
  2
CONTENTBLOCKICON
 70
     0
  0
ENDTAB
  0
TABLE
  2
DIMSTYLE
 70
     2
  0
DIMSTYLE
  2
MATSU
 70
     0
  3

  4

  5

  6
OPEN
  7
OPEN
 40
1.0
 41
2.0
 42
1.0
 43
10.0
 44
1.0
 45
0.0
 46
0.0
 47
0.0
 48
0.0
140
3.0
141
0.0
142
0.0
143
0.03937
144
1.0
145
0.0
146
1.0
147
0.5
 71
     0
 72
     0
 73
     0
 74
     0
 75
     0
 76
     0
 77
     1
 78
     8
170
     0
171
     2
172
     1
173
     1
174
     0
175
     0
176
   256
177
   256
178
   256
  0
DIMSTYLE
  2
STANDARD
 70
     0
  3

  4

  5

  6

  7

 40
1.0
 41
0.18
 42
0.0625
 43
0.38
 44
0.18
 45
0.0
 46
0.0
 47
0.0
 48
0.0
140
0.18
141
0.09
142
0.0
143
25.399999999999999
144
1.0
145
0.0
146
1.0
147
0.09
 71
     0
 72
     0
 73
     1
 74
     1
 75
     0
 76
     0
 77
     0
 78
     0
170
     0
171
     2
172
     0
173
     0
174
     0
175
     0
176
     0
177
     0
178
     0
  0
ENDTAB
  0
ENDSEC
  0
SECTION
  2
BLOCKS
  0
BLOCK
  8
0
  2
$MODEL_SPACE
 70
     0
 10
0.0
 20
0.0
 30
0.0
  3
$MODEL_SPACE
  1

  0
ENDBLK
  5
7
  8
0
  0
BLOCK
 67
     1
  8
0
  2
$PAPER_SPACE
 70
     0
 10
0.0
 20
0.0
 30
0.0
  3
$PAPER_SPACE
  1

  0
ENDBLK
  5
A
 67
     1
  8
0
  0
BLOCK
  8
0
  2
_OPEN
 70
     0
 10
0.0
 20
0.0
 30
0.0
  3
_OPEN
  1

  0
LINE
  5
27
  8
0
  6
BYBLOCK
 62
     0
 10
-1.0
 20
0.1666666666666666
 30
0.0
 11
0.0
 21
0.0
 31
0.0
  0
LINE
  5
28
  8
0
  6
BYBLOCK
 62
     0
 10
0.0
 20
0.0
 30
0.0
 11
-1.0
 21
-0.1666666666666666
 31
0.0
  0
LINE
  5
29
  8
0
  6
BYBLOCK
 62
     0
 10
0.0
 20
0.0
 30
0.0
 11
-1.0
 21
0.0
 31
0.0
  0
ENDBLK
  5
2B
  8
0
  0
BLOCK
  8
0
  2
まっすぐの矢印
 70
     0
 10
0.0
 20
0.0
 30
0.0
  3
まっすぐの矢印
  1

  0
LINE
  5
8C
  8
SP
 10
13.01863531255526
 20
-41.453946163708451
 30
0.0
 11
13.01863531255526
 21
-93.495696758840026
 31
0.0
  0
LINE
  5
8D
  8
SP
 10
13.01863531255526
 20
-93.495696758840026
 30
0.0
 11
-13.01863531255526
 21
-93.495696758840026
 31
0.0
  0
LINE
  5
8E
  8
SP
 10
-13.01863531255526
 20
-93.495696758840026
 30
0.0
 11
-13.01863531255526
 21
-41.453946163708451
 31
0.0
  0
LINE
  5
8F
  8
SP
 10
-13.01863531255526
 20
-41.453946163708451
 30
0.0
 11
-32.06015471115802
 21
-41.453946163708451
 31
0.0
  0
LINE
  5
90
  8
SP
 10
-32.06015471115802
 20
-41.453946163708451
 30
0.0
 11
0.0
 21
0.0
 31
0.0
  0
LINE
  5
91
  8
SP
 10
0.0
 20
0.0
 30
0.0
 11
32.06015471115802
 21
-41.453946163708451
 31
0.0
  0
LINE
  5
92
  8
SP
 10
32.06015471115802
 20
-41.453946163708451
 30
0.0
 11
13.01863531255526
 21
-41.453946163708451
 31
0.0
  0
ENDBLK
  5
94
  8
0
  0
BLOCK
  8
0
  2
左回転矢印
 70
     0
 10
0.0
 20
0.0
 30
0.0
  3
左回転矢印
  1

  0
LINE
  5
2C7
  8
SP
 10
43.930449171819873
 20
24.859487323637271
 30
0.0
 11
38.511878498580238
 21
44.478978865188871
 31
0.0
  0
LINE
  5
2C8
  8
SP
 10
38.511878498580238
 20
44.478978865188871
 30
0.0
 11
0.0
 21
0.0
 31
0.0
  0
LINE
  5
2C9
  8
SP
 10
0.0
 20
0.0
 30
0.0
 11
52.57968174421967
 21
-6.4575435924972453
 31
0.0
  0
LINE
  5
2CA
  8
SP
 10
52.57968174421967
 20
-6.4575435924972453
 30
0.0
 11
48.189912989015284
 21
9.436875093862227
 31
0.0
  0
ARC
  5
2CB
  8
SP
 10
93.893649146691985
 20
-156.0466295121104
 30
0.0
 40
171.67883327727239
 50
67.881388989212894
 51
105.4392492786835
  0
LINE
  5
2CC
  8
SP
 10
158.53505643637521
 20
2.997736182040398
 30
0.0
 11
164.55945966006539
 21
17.820238190756751
 31
0.0
  0
ARC
  5
2CD
  8
SP
 10
93.893649146692198
 20
-156.04662951211091
 30
0.0
 40
187.67883327727299
 50
67.881388989212994
 51
105.4392492786836
  0
ENDBLK
  5
2CF
  8
0
  0
BLOCK
  8
0
  2
*D3
 70
     1
 10
0.0
 20
0.0
 30
0.0
  3
*D3
  1

  0
LINE
  5
231D
  8
SP
 10
20469.509220494441
 20
23086.084303287691
 30
0.0
 11
20469.509220494441
 21
24479.414601982549
 31
0.0
  0
LINE
  5
231E
  8
SP
 10
22919.509220494441
 20
24008.03879527784
 30
0.0
 11
22919.509220494441
 21
24479.414601982549
 31
0.0
  0
LINE
  5
231F
  8
SP
 10
20549.509220494441
 20
24439.414601982549
 30
0.0
 11
22839.509220494441
 21
24439.414601982549
 31
0.0
  0
INSERT
  5
2320
  8
SP
  2
_OPEN
 10
20469.509220494441
 20
24439.414601982549
 30
0.0
 41
80.0
 42
80.0
 43
80.0
 50
180.0
  0
INSERT
  5
2321
  8
SP
  2
_OPEN
 10
22919.509220494441
 20
24439.414601982549
 30
0.0
 41
80.0
 42
80.0
 43
80.0
  0
TEXT
  5
2322
  8
FUTO
 10
21397.51653158947
 20
24510.843173411118
 30
0.0
 40
120.0
  1
(2450)
 51
15.0
  0
POINT
  5
2323
  8
DEFPOINTS
 62
     0
 10
20469.509220494441
 20
23046.084303287691
 30
0.0
  0
POINT
  5
2324
  8
DEFPOINTS
 62
     0
 10
22919.509220494441
 20
23968.03879527784
 30
0.0
  0
POINT
  5
2325
  8
DEFPOINTS
 62
     0
 10
22919.509220494441
 20
24439.414601982549
 30
0.0
  0
ENDBLK
  5
1423
  8
0
  0
BLOCK
  8
0
  2
*D4
 70
     1
 10
0.0
 20
0.0
 30
0.0
  3
*D4
  1

  0
LINE
  5
2337
  8
SP
 10
17878.933775534249
 20
28570.794534670589
 30
0.0
 11
17878.933775534249
 21
28829.673162981311
 31
0.0
  0
LINE
  5
2338
  8
SP
 10
16713.933775534249
 20
28305.79923149836
 30
0.0
 11
16713.933775534249
 21
28829.673162981311
 31
0.0
  0
LINE
  5
2339
  8
SP
 10
17798.933775534249
 20
28789.673162981311
 30
0.0
 11
16793.933775534249
 21
28789.673162981311
 31
0.0
  0
INSERT
  5
233A
  8
SP
  2
_OPEN
 10
17878.933775534249
 20
28789.673162981311
 30
0.0
 41
80.0
 42
80.0
 43
80.0
  0
INSERT
  5
233B
  8
SP
  2
_OPEN
 10
16713.933775534249
 20
28789.673162981311
 30
0.0
 41
80.0
 42
80.0
 43
80.0
 50
180.0
  0
TEXT
  5
233C
  8
FUTO
 10
17084.485006070299
 20
28809.673162981311
 30
0.0
 40
120.0
  1
1165
 51
15.0
  0
POINT
  5
233D
  8
DEFPOINTS
 62
     0
 10
17878.933775534249
 20
28530.794534670589
 30
0.0
  0
POINT
  5
233E
  8
DEFPOINTS
 62
     0
 10
16713.933775534249
 20
28265.79923149836
 30
0.0
  0
POINT
  5
233F
  8
DEFPOINTS
 62
     0
 10
16713.933775534249
 20
28789.673162981311
 30
0.0
  0
ENDBLK
  5
1915
  8
0
  0
BLOCK
  8
0
  2
*D5
 70
     1
 10
0.0
 20
0.0
 30
0.0
  3
*D5
  1

  0
LINE
  5
232F
  8
SP
 10
19818.933775534249
 20
26912.79923149836
 30
0.0
 11
19818.933775534249
 21
28829.673162981311
 31
0.0
  0
LINE
  5
2330
  8
SP
 10
17958.933775534249
 20
28789.673162981311
 30
0.0
 11
19738.933775534249
 21
28789.673162981311
 31
0.0
  0
INSERT
  5
2331
  8
SP
  2
_OPEN
 10
17878.933775534249
 20
28789.673162981311
 30
0.0
 41
80.0
 42
80.0
 43
80.0
 50
180.0
  0
INSERT
  5
2332
  8
SP
  2
_OPEN
 10
19818.933775534249
 20
28789.673162981311
 30
0.0
 41
80.0
 42
80.0
 43
80.0
  0
TEXT
  5
2333
  8
FUTO
 10
18625.76156826951
 20
28809.673162981311
 30
0.0
 40
120.0
  1
1940
 51
15.0
  0
POINT
  5
2334
  8
DEFPOINTS
 62
     0
 10
17878.933775534249
 20
28789.673162981311
 30
0.0
  0
POINT
  5
2335
  8
DEFPOINTS
 62
     0
 10
19818.933775534249
 20
26872.79923149836
 30
0.0
  0
POINT
  5
2336
  8
DEFPOINTS
 62
     0
 10
19818.933775534249
 20
28789.673162981311
 30
0.0
  0
ENDBLK
  5
1921
  8
0
  0
BLOCK
  8
0
  2
*D6
 70
     1
 10
0.0
 20
0.0
 30
0.0
  3
*D6
  1

  0
LINE
  5
22E0
  8
SP
 10
16873.933775534249
 20
28331.79923149836
 30
0.0
 11
16253.94751004414
 21
28331.79923149836
 31
0.0
  0
LINE
  5
22E1
  8
SP
 10
16266.69933182533
 20
27536.79923149836
 30
0.0
 11
16333.94751004414
 21
27536.79923149836
 31
0.0
  0
LINE
  5
22E2
  8
SP
 10
16293.94751004414
 20
28251.79923149836
 30
0.0
 11
16293.94751004414
 21
27616.79923149836
 31
0.0
  0
INSERT
  5
22E3
  8
SP
  2
_OPEN
 10
16293.94751004414
 20
28331.79923149836
 30
0.0
 41
80.0
 42
80.0
 43
80.0
 50
90.0
  0
INSERT
  5
22E4
  8
SP
  2
_OPEN
 10
16293.94751004414
 20
27536.79923149836
 30
0.0
 41
80.0
 42
80.0
 43
80.0
 50
270.0
  0
TEXT
  5
22E5
  8
FUTO
 10
16273.94751004413
 20
27758.222279952501
 30
0.0
 40
120.0
  1
795
 50
90.0
 51
15.0
  0
POINT
  5
22E6
  8
DEFPOINTS
 62
     0
 10
16913.933775534249
 20
28331.79923149836
 30
0.0
  0
POINT
  5
22E7
  8
DEFPOINTS
 62
     0
 10
16226.69933182533
 20
27536.79923149836
 30
0.0
  0
POINT
  5
22E8
  8
DEFPOINTS
 62
     0
 10
16293.94751004414
 20
27536.79923149836
 30
0.0
  0
ENDBLK
  5
192F
  8
0
  0
BLOCK
  8
0
  2
*D7
 70
     1
 10
0.0
 20
0.0
 30
0.0
  3
*D7
  1

  0
LINE
  5
22D8
  8
SP
 10
17458.933775534249
 20
25086.79923149836
 30
0.0
 11
16253.94751004414
 21
25086.79923149836
 31
0.0
  0
LINE
  5
22D9
  8
SP
 10
16293.94751004414
 20
27456.79923149836
 30
0.0
 11
16293.94751004414
 21
25166.79923149836
 31
0.0
  0
INSERT
  5
22DA
  8
SP
  2
_OPEN
 10
16293.94751004414
 20
27536.79923149836
 30
0.0
 41
80.0
 42
80.0
 43
80.0
 50
90.0
  0
INSERT
  5
22DB
  8
SP
  2
_OPEN
 10
16293.94751004414
 20
25086.79923149836
 30
0.0
 41
80.0
 42
80.0
 43
80.0
 50
270.0
  0
TEXT
  5
22DC
  8
FUTO
 10
16273.94751004413
 20
26090.213127865991
 30
0.0
 40
120.0
  1
2450
 50
90.0
 51
15.0
  0
POINT
  5
22DD
  8
DEFPOINTS
 62
     0
 10
16293.94751004414
 20
27536.79923149836
 30
0.0
  0
POINT
  5
22DE
  8
DEFPOINTS
 62
     0
 10
17498.933775534249
 20
25086.79923149836
 30
0.0
  0
POINT
  5
22DF
  8
DEFPOINTS
 62
     0
 10
16293.94751004414
 20
25086.79923149836
 30
0.0
  0
ENDBLK
  5
193B
  8
0
  0
BLOCK
  8
0
  2
*D8
 70
     1
 10
0.0
 20
0.0
 30
0.0
  3
*D8
  1

  0
LINE
  5
22FB
  8
SP
 10
16818.933775534249
 20
20477.71050328769
 30
0.0
 11
16818.933775534249
 21
19723.788573948761
 31
0.0
  0
LINE
  5
22FC
  8
SP
 10
19818.933775534249
 20
20477.71050328769
 30
0.0
 11
19818.933775534249
 21
19723.788573948761
 31
0.0
  0
LINE
  5
22FD
  8
SP
 10
16898.933775534249
 20
19763.788573948761
 30
0.0
 11
19738.933775534249
 21
19763.788573948761
 31
0.0
  0
INSERT
  5
22FE
  8
SP
  2
_OPEN
 10
16818.933775534249
 20
19763.788573948761
 30
0.0
 41
80.0
 42
80.0
 43
80.0
 50
180.0
  0
INSERT
  5
22FF
  8
SP
  2
_OPEN
 10
19818.933775534249
 20
19763.788573948761
 30
0.0
 41
80.0
 42
80.0
 43
80.0
  0
TEXT
  5
2300
  8
FUTO
 10
18094.285395416959
 20
19783.788573948761
 30
0.0
 40
120.0
  1
3000
 51
15.0
  0
POINT
  5
2301
  8
DEFPOINTS
 62
     0
 10
16818.933775534249
 20
20517.71050328769
 30
0.0
  0
POINT
  5
2302
  8
DEFPOINTS
 62
     0
 10
19818.933775534249
 20
20517.71050328769
 30
0.0
  0
POINT
  5
2303
  8
DEFPOINTS
 62
     0
 10
19818.933775534249
 20
19763.788573948761
 30
0.0
  0
ENDBLK
  5
1983
  8
0
  0
BLOCK
  8
0
  2
*D9
 70
     1
 10
0.0
 20
0.0
 30
0.0
  3
*D9
  1

  0
LINE
  5
236C
  8
SP
 10
19818.933775534249
 20
20477.71050328769
 30
0.0
 11
19818.933775534249
 21
20042.503124569379
 31
0.0
  0
LINE
  5
236D
  8
SP
 10
17958.933775534249
 20
20082.503124569379
 30
0.0
 11
19738.933775534249
 21
20082.503124569379
 31
0.0
  0
INSERT
  5
236E
  8
SP
  2
_OPEN
 10
17878.933775534249
 20
20082.503124569379
 30
0.0
 41
80.0
 42
80.0
 43
80.0
 50
180.0
  0
INSERT
  5
236F
  8
SP
  2
_OPEN
 10
19818.933775534249
 20
20082.503124569379
 30
0.0
 41
80.0
 42
80.0
 43
80.0
  0
TEXT
  8
0
  40
120
  5
2381
  72
0
  71
0
 10
18608.9
 20
19950.1
 30
0.000000
  1
1940
  0
POINT
  5
2371
  8
DEFPOINTS
 62
     0
 10
17878.933775534249
 20
20437.056328277478
 30
0.0
  0
POINT
  5
2372
  8
DEFPOINTS
 62
     0
 10
19818.933775534249
 20
20517.71050328769
 30
0.0
  0
POINT
  5
2373
  8
DEFPOINTS
 62
     0
 10
19818.933775534249
 20
20082.503124569379
 30
0.0
  0
ENDBLK
  5
198E
  8
0
  0
BLOCK
  8
0
  2
*D10
 70
     1
 10
0.0
 20
0.0
 30
0.0
  3
*D10
  1

  0
LINE
  5
230C
  8
SP
 10
16818.933775534249
 20
20477.71050328769
 30
0.0
 11
16818.933775534249
 21
20042.503124569379
 31
0.0
  0
LINE
  5
230D
  8
SP
 10
17878.933775534249
 20
20397.056328277478
 30
0.0
 11
17878.933775534249
 21
20042.503124569379
 31
0.0
  0
LINE
  5
230E
  8
SP
 10
16898.933775534249
 20
20082.503124569379
 30
0.0
 11
17798.933775534249
 21
20082.503124569379
 31
0.0
  0
INSERT
  5
230F
  8
SP
  2
_OPEN
 10
16818.933775534249
 20
20082.503124569379
 30
0.0
 41
80.0
 42
80.0
 43
80.0
 50
180.0
  0
INSERT
  5
2310
  8
SP
  2
_OPEN
 10
17878.933775534249
 20
20082.503124569379
 30
0.0
 41
80.0
 42
80.0
 43
80.0
  0
TEXT
  5
2311
  8
FUTO
 10
17125.76156826951
 20
20102.503124569379
 30
0.0
 40
120.0
  1
1060
 51
15.0
  0
POINT
  5
2312
  8
DEFPOINTS
 62
     0
 10
16818.933775534249
 20
20517.71050328769
 30
0.0
  0
POINT
  5
2313
  8
DEFPOINTS
 62
     0
 10
17878.933775534249
 20
20437.056328277478
 30
0.0
  0
POINT
  5
2314
  8
DEFPOINTS
 62
     0
 10
17878.933775534249
 20
20082.503124569379
 30
0.0
  0
ENDBLK
  5
199A
  8
0
  0
BLOCK
  8
0
  2
*D11
 70
     1
 10
0.0
 20
0.0
 30
0.0
  3
*D11
  1

  0
LINE
  5
2326
  8
SP
 10
16713.933775534249
 20
22671.516983730711
 30
0.0
 11
16713.933775534249
 21
24495.902319793218
 31
0.0
  0
LINE
  5
2327
  8
SP
 10
17878.933775534249
 20
24024.369842194988
 30
0.0
 11
17878.933775534249
 21
24495.902319793218
 31
0.0
  0
LINE
  5
2328
  8
SP
 10
16793.933775534249
 20
24455.902319793218
 30
0.0
 11
17798.933775534249
 21
24455.902319793218
 31
0.0
  0
INSERT
  5
2329
  8
SP
  2
_OPEN
 10
16713.933775534249
 20
24455.902319793218
 30
0.0
 41
80.0
 42
80.0
 43
80.0
 50
180.0
  0
INSERT
  5
232A
  8
SP
  2
_OPEN
 10
17878.933775534249
 20
24455.902319793218
 30
0.0
 41
80.0
 42
80.0
 43
80.0
  0
TEXT
  5
232B
  8
FUTO
 10
17084.485006070299
 20
24475.902319793218
 30
0.0
 40
120.0
  1
1165
 51
15.0
  0
POINT
  5
232C
  8
DEFPOINTS
 62
     0
 10
16713.933775534249
 20
22631.516983730711
 30
0.0
  0
POINT
  5
232D
  8
DEFPOINTS
 62
     0
 10
17878.933775534249
 20
23984.369842194988
 30
0.0
  0
POINT
  5
232E
  8
DEFPOINTS
 62
     0
 10
17878.933775534249
 20
24455.902319793218
 30
0.0
  0
ENDBLK
  5
19AE
  8
0
  0
BLOCK
  8
0
  2
*D12
 70
     1
 10
0.0
 20
0.0
 30
0.0
  3
*D12
  1

  0
LINE
  5
22E9
  8
SP
 10
20808.509220494441
 20
20477.710486681699
 30
0.0
 11
20808.509220494441
 21
19738.192328952471
 31
0.0
  0
LINE
  5
22EA
  8
SP
 10
23658.509220494441
 20
20477.710486681699
 30
0.0
 11
23658.509220494441
 21
19738.192328952471
 31
0.0
  0
LINE
  5
22EB
  8
SP
 10
20888.509220494441
 20
19778.192328952471
 30
0.0
 11
23578.509220494441
 21
19778.192328952471
 31
0.0
  0
INSERT
  5
22EC
  8
SP
  2
_OPEN
 10
20808.509220494441
 20
19778.192328952471
 30
0.0
 41
80.0
 42
80.0
 43
80.0
 50
180.0
  0
INSERT
  5
22ED
  8
SP
  2
_OPEN
 10
23658.509220494441
 20
19778.192328952471
 30
0.0
 41
80.0
 42
80.0
 43
80.0
  0
TEXT
  5
22EE
  8
FUTO
 10
22011.923116862072
 20
19798.192328952471
 30
0.0
 40
120.0
  1
2850
 51
15.0
  0
POINT
  5
22EF
  8
DEFPOINTS
 62
     0
 10
20808.509220494441
 20
20517.710486681699
 30
0.0
  0
POINT
  5
22F0
  8
DEFPOINTS
 62
     0
 10
23658.509220494441
 20
20517.710486681699
 30
0.0
  0
POINT
  5
22F1
  8
DEFPOINTS
 62
     0
 10
23658.509220494441
 20
19778.192328952471
 30
0.0
  0
ENDBLK
  5
1A36
  8
0
  0
BLOCK
  8
0
  2
*D13
 70
     1
 10
0.0
 20
0.0
 30
0.0
  3
*D13
  1

  0
LINE
  5
22F2
  8
SP
 10
20808.509220494441
 20
20477.710486681699
 30
0.0
 11
20808.509220494441
 21
20038.229873917389
 31
0.0
  0
LINE
  5
22F3
  8
SP
 10
22919.509220494441
 20
20456.783434687772
 30
0.0
 11
22919.509220494441
 21
20038.229873917389
 31
0.0
  0
LINE
  5
22F4
  8
SP
 10
20888.509220494441
 20
20078.229873917389
 30
0.0
 11
22839.509220494441
 21
20078.229873917389
 31
0.0
  0
INSERT
  5
22F5
  8
SP
  2
_OPEN
 10
20808.509220494441
 20
20078.229873917389
 30
0.0
 41
80.0
 42
80.0
 43
80.0
 50
180.0
  0
INSERT
  5
22F6
  8
SP
  2
_OPEN
 10
22919.509220494441
 20
20078.229873917389
 30
0.0
 41
80.0
 42
80.0
 43
80.0
  0
TEXT
  5
22F7
  8
FUTO
 10
21685.075126091429
 20
20098.229873917389
 30
0.0
 40
120.0
  1
2111
 51
15.0
  0
POINT
  5
22F8
  8
DEFPOINTS
 62
     0
 10
20808.509220494441
 20
20517.710486681699
 30
0.0
  0
POINT
  5
22F9
  8
DEFPOINTS
 62
     0
 10
22919.509220494441
 20
20496.783434687772
 30
0.0
  0
POINT
  5
22FA
  8
DEFPOINTS
 62
     0
 10
22919.509220494441
 20
20078.229873917389
 30
0.0
  0
ENDBLK
  5
1A42
  8
0
  0
BLOCK
  8
0
  2
*D14
 70
     1
 10
0.0
 20
0.0
 30
0.0
  3
*D14
  1

  0
LINE
  5
2374
  8
SP
 10
23658.509220494441
 20
20477.710486681699
 30
0.0
 11
23658.509220494441
 21
20038.229873917389
 31
0.0
  0
LINE
  5
2375
  8
SP
 10
22999.509220494441
 20
20078.229873917389
 30
0.0
 11
23578.509220494441
 21
20078.229873917389
 31
0.0
  0
INSERT
  5
2376
  8
SP
  2
_OPEN
 10
22919.509220494441
 20
20078.229873917389
 30
0.0
 41
80.0
 42
80.0
 43
80.0
 50
180.0
  0
INSERT
  5
2377
  8
SP
  2
_OPEN
 10
23658.509220494441
 20
20078.229873917389
 30
0.0
 41
80.0
 42
80.0
 43
80.0
  0
TEXT
  8
0
  40
120
  5
2382
  72
0
  71
0
 10
23049.0
 20
19945.8
 30
0.000000
  1
739
  0
POINT
  5
2379
  8
DEFPOINTS
 62
     0
 10
22919.509220494441
 20
20496.783434687772
 30
0.0
  0
POINT
  5
237A
  8
DEFPOINTS
 62
     0
 10
23658.509220494441
 20
20517.710486681699
 30
0.0
  0
POINT
  5
237B
  8
DEFPOINTS
 62
     0
 10
23658.509220494441
 20
20078.229873917389
 30
0.0
  0
ENDBLK
  5
1A4D
  8
0
  0
BLOCK
  8
0
  2
*D15
 70
     1
 10
0.0
 20
0.0
 30
0.0
  3
*D15
  1

  0
LINE
  5
234C
  8
SP
 10
22919.509220494441
 20
24431.35694134693
 30
0.0
 11
22919.509220494441
 21
24399.414601982549
 31
0.0
  0
LINE
  5
234D
  8
SP
 10
23714.509220494441
 20
23671.084303287691
 30
0.0
 11
23714.509220494441
 21
24479.414601982549
 31
0.0
  0
LINE
  5
234E
  8
SP
 10
22999.509220494441
 20
24439.414601982549
 30
0.0
 11
23634.509220494441
 21
24439.414601982549
 31
0.0
  0
INSERT
  5
234F
  8
SP
  2
_OPEN
 10
22919.509220494441
 20
24439.414601982549
 30
0.0
 41
80.0
 42
80.0
 43
80.0
 50
180.0
  0
INSERT
  5
2350
  8
SP
  2
_OPEN
 10
23714.509220494441
 20
24439.414601982549
 30
0.0
 41
80.0
 42
80.0
 43
80.0
  0
TEXT
  5
2351
  8
FUTO
 10
23072.294643992682
 20
24459.414601982538
 30
0.0
 40
120.0
  1
795
 51
15.0
  0
POINT
  5
2352
  8
DEFPOINTS
 62
     0
 10
22919.509220494441
 20
24471.35694134693
 30
0.0
  0
POINT
  5
2353
  8
DEFPOINTS
 62
     0
 10
23714.509220494441
 20
23631.084303287691
 30
0.0
  0
POINT
  5
2354
  8
DEFPOINTS
 62
     0
 10
23714.509220494441
 20
24439.414601982549
 30
0.0
  0
ENDBLK
  5
1A85
  8
0
  0
BLOCK
  8
0
  2
*D16
 70
     1
 10
0.0
 20
0.0
 30
0.0
  3
*D16
  1

  0
LINE
  5
22CF
  8
SP
 10
16778.933775534249
 20
20517.71050328769
 30
0.0
 11
16129.524686328659
 21
20517.71050328769
 31
0.0
  0
LINE
  5
22D0
  8
SP
 10
16293.579776490151
 20
22667.71050328769
 30
0.0
 11
16129.524686328659
 21
22667.71050328769
 31
0.0
  0
LINE
  5
22D1
  8
SP
 10
16169.524686328659
 20
20597.71050328769
 30
0.0
 11
16169.524686328659
 21
22587.71050328769
 31
0.0
  0
INSERT
  5
22D2
  8
SP
  2
_OPEN
 10
16169.524686328659
 20
20517.71050328769
 30
0.0
 41
80.0
 42
80.0
 43
80.0
 50
270.0
  0
INSERT
  5
22D3
  8
SP
  2
_OPEN
 10
16169.524686328659
 20
22667.71050328769
 30
0.0
 41
80.0
 42
80.0
 43
80.0
 50
90.0
  0
TEXT
  5
22D4
  8
FUTO
 10
16149.524686328659
 20
21382.552971083889
 30
0.0
 40
120.0
  1
2150
 50
90.0
 51
15.0
  0
POINT
  5
22D5
  8
DEFPOINTS
 62
     0
 10
16818.933775534249
 20
20517.71050328769
 30
0.0
  0
POINT
  5
22D6
  8
DEFPOINTS
 62
     0
 10
16333.579776490151
 20
22667.71050328769
 30
0.0
  0
POINT
  5
22D7
  8
DEFPOINTS
 62
     0
 10
16169.524686328659
 20
22667.71050328769
 30
0.0
  0
ENDBLK
  5
1A9B
  8
0
  0
BLOCK
  8
0
  2
*D17
 70
     1
 10
0.0
 20
0.0
 30
0.0
  3
*D17
  1

  0
LINE
  5
22C6
  8
SP
 10
17731.122071771031
 20
23959.71050328769
 30
0.0
 11
16129.524686328659
 21
23959.71050328769
 31
0.0
  0
LINE
  5
22C7
  8
SP
 10
16293.579776490151
 20
22667.71050328769
 30
0.0
 11
16129.524686328659
 21
22667.71050328769
 31
0.0
  0
LINE
  5
22C8
  8
SP
 10
16169.524686328659
 20
23879.710503287679
 30
0.0
 11
16169.524686328659
 21
22747.71050328769
 31
0.0
  0
INSERT
  5
22C9
  8
SP
  2
_OPEN
 10
16169.524686328659
 20
23959.71050328769
 30
0.0
 41
80.0
 42
80.0
 43
80.0
 50
90.0
  0
INSERT
  5
22CA
  8
SP
  2
_OPEN
 10
16169.524686328659
 20
22667.71050328769
 30
0.0
 41
80.0
 42
80.0
 43
80.0
 50
270.0
  0
TEXT
  5
22CB
  8
FUTO
 10
16149.524686328659
 20
23090.538296022951
 30
0.0
 40
120.0
  1
1292
 50
90.0
 51
15.0
  0
POINT
  5
22CC
  8
DEFPOINTS
 62
     0
 10
17771.122071771031
 20
23959.71050328769
 30
0.0
  0
POINT
  5
22CD
  8
DEFPOINTS
 62
     0
 10
16333.579776490151
 20
22667.71050328769
 30
0.0
  0
POINT
  5
22CE
  8
DEFPOINTS
 62
     0
 10
16169.524686328659
 20
22667.71050328769
 30
0.0
  0
ENDBLK
  5
1AB2
  8
0
  0
BLOCK
  8
0
  2
*D18
 70
     1
 10
0.0
 20
0.0
 30
0.0
  3
*D18
  1

  0
LINE
  5
2341
  8
SP
 10
23754.509220494441
 20
23566.084303287691
 30
0.0
 11
24334.51736270617
 21
23566.084303287691
 31
0.0
  0
LINE
  5
2342
  8
SP
 10
23754.509220494441
 20
21766.084303287691
 30
0.0
 11
24334.51736270617
 21
21766.084303287691
 31
0.0
  0
LINE
  5
2343
  8
SP
 10
24294.51736270617
 20
23486.084303287691
 30
0.0
 11
24294.51736270617
 21
21846.084303287691
 31
0.0
  0
INSERT
  5
2344
  8
SP
  2
_OPEN
 10
24294.51736270617
 20
23566.084303287691
 30
0.0
 41
80.0
 42
80.0
 43
80.0
 50
90.0
  0
INSERT
  5
2345
  8
SP
  2
_OPEN
 10
24294.51736270617
 20
21766.084303287691
 30
0.0
 41
80.0
 42
80.0
 43
80.0
 50
270.0
  0
INSERT
  5
2346
  8
FUTO
  2
*U19
 10
0.0
 20
0.0
 30
0.0
  0
POINT
  5
2347
  8
DEFPOINTS
 62
     0
 10
23714.509220494441
 20
23566.084303287691
 30
0.0
  0
POINT
  5
2348
  8
DEFPOINTS
 62
     0
 10
23714.509220494441
 20
21766.084303287691
 30
0.0
  0
POINT
  5
2349
  8
DEFPOINTS
 62
     0
 10
24294.51736270617
 20
21766.084303287691
 30
0.0
  0
ENDBLK
  5
234B
  8
0
  0
BLOCK
  8
0
  2
*U19
 70
     1
 10
0.0
 20
0.0
 30
0.0
  3
*U19
  1

  0
TEXT
  5
237D
  8
FUTO
 10
24274.517362706159
 20
22369.076886450879
 30
0.0
 40
120.0
  1
\U+2205
 50
90.0
 51
15.0
  0
TEXT
  5
237E
  8
FUTO
 10
24274.517362706159
 20
22477.64831502231
 30
0.0
 40
120.0
  1
1800
 50
90.0
 51
15.0
  0
ENDBLK
  5
2380
  8
0
  0
ENDSEC
  0
SECTION
  2
ENTITIES
  0
INSERT
  5
89
  8
FUTO
  2
まっすぐの矢印
 10
16428.272164869111
 20
21101.268206627341
 30
0.0
 41
-2.0
 42
2.0
 43
2.0
 50
90.0
  0
LINE
  5
AF
  8
CT
 10
17878.933775534249
 20
22667.71050328769
 30
0.0
 11
16707.39828005313
 21
22771.65350613698
 31
0.0
  0
LINE
  5
B2
  8
CT
 10
16333.579776490151
 20
22667.71050328769
 30
0.0
 11
19793.561882044349
 21
22667.71050328769
 31
0.0
  0
LINE
  5
104
  8
CT
 10
17878.933775534249
 20
23984.369842194988
 30
0.0
 11
17878.933775534249
 21
20246.158233500078
 31
0.0
  0
ARC
  5
10E
  8
FUTO
 10
19378.933775534249
 20
21017.710503287679
 30
0.0
 40
280.0
 50
227.41944536016459
 51
37.127932652023048
  0
ARC
  5
111
  8
FUTO
 10
19378.933775534249
 20
21017.710503287679
 30
0.0
 40
310.0
 50
300.10230806831191
 51
239.897691931688
  0
LINE
  5
112
  8
CT
 10
19378.933775534249
 20
21682.476389214
 30
0.0
 11
19378.933775534249
 21
20695.419187026539
 31
0.0
  0
LINE
  5
115
  8
FUTO
 10
16837.933775534249
 20
22676.71050328769
 30
0.0
 11
16837.933775534249
 21
23121.211961010529
 31
0.0
  0
LINE
  5
116
  8
FUTO
 10
16828.933775534249
 20
22676.71050328769
 30
0.0
 11
16828.933775534249
 21
23089.404976246318
 31
0.0
  0
LINE
  5
117
  8
FUTO
 10
18928.933775534249
 20
22676.71050328769
 30
0.0
 11
18928.933775534249
 21
22505.16026517373
 31
0.0
  0
LINE
  5
118
  8
FUTO
 10
18919.933775534249
 20
22676.71050328769
 30
0.0
 11
18919.933775534249
 21
22511.617146686269
 31
0.0
  0
LINE
  5
119
  8
CT
 10
19378.933775534249
 20
20731.209240287692
 30
0.0
 11
19378.933775534249
 21
21315.480919287689
 31
0.0
  0
ARC
  5
122
  8
FUTO
 10
17989.433775534249
 20
22778.21050328769
 30
0.0
 40
1201.5
 50
95.276856286926375
 51
187.7248117103407
  0
ARC
  5
123
  8
KL
 10
17989.433775534249
 20
22778.21050328769
 30
0.0
 40
1181.4999999999991
 50
89.005821056327946
 51
180.0
  0
ARC
  5
124
  8
KL
 10
18009.933775534249
 20
22536.710503287679
 30
0.0
 40
1423.0
 50
5.2633654058965771
 51
90.000000000000028
  0
DIMENSION
  5
13A
  8
SP
  2
*D9
 10
19818.933775534249
 20
20082.503124569379
 30
0.0
 11
18848.933775534249
 21
20162.503124569379
 31
0.0
 70
     0
 13
17878.933775534249
 23
20437.056328277478
 33
0.0
 14
19818.933775534249
 24
20517.71050328769
 34
0.0
 50
180.0
1001
ACAD
1000
DSTYLE
1002
{
1070
   287
1070
     4
1070
    40
1040
40.0
1070
    75
1070
     1
1070
   279
1070
     1
1070
   289
1070
     3
1002
}
  0
DIMENSION
  5
14A
  8
SP
  2
*D8
 10
19818.933775534249
 20
19763.788573948761
 30
0.0
 11
18318.933775534249
 21
19843.788573948761
 31
0.0
 70
     0
 13
16818.933775534249
 23
20517.71050328769
 33
0.0
 14
19818.933775534249
 24
20517.71050328769
 34
0.0
 50
180.0
1001
ACAD
1000
DSTYLE
1002
{
1070
    40
1040
40.0
1002
}
  0
LINE
  5
157
  8
FUTO
 10
16818.933775534249
 20
20655.710503287679
 30
0.0
 11
19818.933775534249
 21
20655.710503287679
 31
0.0
  0
LINE
  5
158
  8
FUTO
 10
16818.933775534249
 20
20529.71050328769
 30
0.0
 11
19818.933775534249
 21
20529.71050328769
 31
0.0
  0
LINE
  5
159
  8
FUTO
 10
16818.933775534249
 20
20667.71050328769
 30
0.0
 11
19818.933775534249
 21
20667.71050328769
 31
0.0
  0
LINE
  5
15A
  8
FUTO
 10
16818.933775534249
 20
20517.71050328769
 30
0.0
 11
19818.933775534249
 21
20517.71050328769
 31
0.0
1001
ACAD
1000
ASC_BOUNDS
1002
{
1070
    19
1005
0
1002
}
  0
LINE
  5
15B
  8
FUTO
 10
19098.933775534249
 20
20767.71050328769
 30
0.0
 11
19195.630747736021
 21
20767.71050328769
 31
0.0
  0
LINE
  5
15C
  8
FUTO
 10
19098.933775534249
 20
20737.710503287679
 30
0.0
 11
19208.933775534249
 21
20737.710503287679
 31
0.0
  0
LINE
  5
15D
  8
FUTO
 10
19278.933775534249
 20
20737.710503287679
 30
0.0
 11
19063.933775534249
 21
20737.710503287679
 31
0.0
  0
LINE
  5
15E
  8
FUTO
 10
19053.933775534249
 20
20667.71050328769
 30
0.0
 11
19278.933775534249
 21
20667.71050328769
 31
0.0
  0
LINE
  5
15F
  8
CT
 10
19041.474811344491
 20
21017.710503287679
 30
0.0
 11
19722.210997727281
 21
21017.710503287679
 31
0.0
  0
LINE
  5
175
  8
FUTO
 10
19693.933775534249
 20
20737.710503287679
 30
0.0
 11
19478.933775534249
 21
20737.710503287679
 31
0.0
  0
LINE
  5
176
  8
FUTO
 10
19478.933775534249
 20
20667.71050328769
 30
0.0
 11
19703.933775534249
 21
20667.71050328769
 31
0.0
  0
CIRCLE
  5
177
  8
SL
 10
19378.933775534249
 20
21017.710503287679
 30
0.0
 40
200.0
  0
LINE
  5
178
  8
FUTO
 10
19658.933775534249
 20
20884.66915633114
 30
0.0
 11
19658.933775534249
 21
20737.710503287679
 31
0.0
  0
LINE
  5
179
  8
FUTO
 10
19818.933775534249
 20
20667.71050328769
 30
0.0
 11
19818.933775534249
 21
20517.71050328769
 31
0.0
  0
LINE
  5
17B
  8
CT
 10
19607.433775534249
 20
20782.87995177733
 30
0.0
 11
19607.433775534249
 21
20695.419187026539
 31
0.0
  0
LINE
  5
17C
  8
FUTO
 10
19562.236803332489
 20
20767.71050328769
 30
0.0
 11
19658.933775534249
 21
20767.71050328769
 31
0.0
  0
LINE
  5
17D
  8
FUTO
 10
19548.933775534249
 20
20758.480875351372
 30
0.0
 11
19548.933775534249
 21
20737.710503287679
 31
0.0
  0
LINE
  5
17E
  8
FUTO
 10
19548.933775534249
 20
20737.710503287679
 30
0.0
 11
19658.933775534249
 21
20737.710503287679
 31
0.0
  0
LINE
  5
17F
  8
FUTO
 10
19703.933775534249
 20
20667.71050328769
 30
0.0
 11
19693.933775534249
 21
20737.710503287679
 31
0.0
  0
LINE
  5
180
  8
CT
 10
19378.933775534249
 20
20526.29211809922
 30
0.0
 11
19378.933775534249
 21
21191.808517484289
 31
0.0
  0
LINE
  5
181
  8
FUTO
 10
19223.45464325865
 20
20749.519825920212
 30
0.0
 11
19534.412907809859
 21
20749.519825920212
 31
0.0
  0
LINE
  5
182
  8
FUTO
 10
19478.933775534249
 20
20727.71050328769
 30
0.0
 11
19278.933775534249
 21
20727.71050328769
 31
0.0
  0
LINE
  5
183
  8
FUTO
 10
19478.933775534249
 20
20677.71050328769
 30
0.0
 11
19278.933775534249
 21
20677.71050328769
 31
0.0
  0
LINE
  5
184
  8
FUTO
 10
19478.933775534249
 20
20727.71050328769
 30
0.0
 11
19478.933775534249
 21
20737.710503287679
 31
0.0
  0
LINE
  5
185
  8
FUTO
 10
19478.933775534249
 20
20667.71050328769
 30
0.0
 11
19478.933775534249
 21
20677.71050328769
 31
0.0
  0
LINE
  5
186
  8
CT
 10
19150.433775534249
 20
20782.87995177733
 30
0.0
 11
19150.433775534249
 21
20691.254388705082
 31
0.0
  0
LINE
  5
187
  8
FUTO
 10
19208.933775534249
 20
20758.480875351372
 30
0.0
 11
19208.933775534249
 21
20737.710503287679
 31
0.0
  0
LINE
  5
188
  8
FUTO
 10
19278.933775534249
 20
20727.71050328769
 30
0.0
 11
19278.933775534249
 21
20737.710503287679
 31
0.0
  0
LINE
  5
189
  8
FUTO
 10
19135.933775534249
 20
20737.710503287679
 30
0.0
 11
19235.933775534249
 21
20737.710503287679
 31
0.0
  0
LINE
  5
18A
  8
FUTO
 10
19278.933775534249
 20
20667.71050328769
 30
0.0
 11
19278.933775534249
 21
20677.71050328769
 31
0.0
  0
ARC
  5
1A4
  8
FUTO
 10
18009.933775534249
 20
22536.710503287679
 30
0.0
 40
1443.0
 50
49.068359736206048
 51
95.208659318954403
  0
LINE
  5
1A7
  8
FUTO
 10
19098.933775534249
 20
20884.669156331162
 30
0.0
 11
19098.933775534249
 21
20737.710503287679
 31
0.0
  0
LINE
  5
1A8
  8
KL
 10
18922.04397742221
 20
21329.061304249179
 30
0.0
 11
18964.04057328913
 21
21279.412671716531
 31
0.0
  0
LINE
  5
1A9
  8
KL
 10
18935.78681198975
 20
21340.686040721419
 30
0.0
 11
18977.783407856681
 21
21291.037408188771
 31
0.0
  0
LINE
  5
1AA
  8
KL
 10
18928.933775534249
 20
21334.851942557681
 30
0.0
 11
18970.911990572899
 21
21285.225039952649
 31
0.0
  0
LINE
  5
1AB
  8
FUTO
 10
19063.933775534249
 20
20737.710503287679
 30
0.0
 11
19053.933775534249
 21
20667.71050328769
 31
0.0
  0
LINE
  5
1AC
  8
KL
 10
18964.040573289119
 20
21279.41267171652
 30
0.0
 11
18977.783407856681
 21
21291.037408188771
 31
0.0
  0
LINE
  5
1AE
  8
KL
 10
18503.933775534249
 20
20667.71050328769
 30
0.0
 11
18503.933775534249
 21
20517.71050328769
 31
0.0
  0
LINE
  5
1AF
  8
FUTO
 10
18569.933775534249
 20
20667.71050328769
 30
0.0
 11
18569.933775534249
 21
20517.71050328769
 31
0.0
  0
LINE
  5
1B0
  8
FUTO
 10
18587.933775534249
 20
20667.71050328769
 30
0.0
 11
18587.933775534249
 21
20517.71050328769
 31
0.0
  0
LINE
  5
1B1
  8
FUTO
 10
18578.933775534249
 20
20667.71050328769
 30
0.0
 11
18578.933775534249
 21
20517.71050328769
 31
0.0
  0
LINE
  5
1B2
  8
KL
 10
18578.933775534249
 20
20681.875397826101
 30
0.0
 11
18578.933775534249
 21
20517.71050328769
 31
0.0
  0
DIMENSION
  5
1B3
  8
SP
  2
*D10
 10
17878.933775534249
 20
20082.503124569379
 30
0.0
 11
17348.933775534249
 21
20162.503124569379
 31
0.0
 70
     0
 13
16818.933775534249
 23
20517.71050328769
 33
0.0
 14
17878.933775534249
 24
20437.056328277478
 34
0.0
 50
180.0
1001
ACAD
1000
DSTYLE
1002
{
1070
    40
1040
40.0
1002
}
  0
LINE
  5
1EC
  8
KL
 10
17253.933775534249
 20
20667.71050328769
 30
0.0
 11
17253.933775534249
 21
20517.71050328769
 31
0.0
  0
LINE
  5
1ED
  8
FUTO
 10
17178.933775534249
 20
20667.71050328769
 30
0.0
 11
17178.933775534249
 21
20517.71050328769
 31
0.0
  0
LINE
  5
1EE
  8
KL
 10
17178.933775534249
 20
20681.875397826101
 30
0.0
 11
17178.933775534249
 21
20517.71050328769
 31
0.0
  0
LINE
  5
1EF
  8
FUTO
 10
16818.933775534249
 20
20667.71050328769
 30
0.0
 11
16818.933775534249
 21
20517.71050328769
 31
0.0
  0
LINE
  5
1F0
  8
FUTO
 10
19567.813689979092
 20
26797.799231498371
 30
0.0
 11
19567.813689979092
 21
26645.79923149836
 31
0.0
  0
LINE
  5
1F1
  8
FUTO
 10
19818.933775534249
 20
26872.79923149836
 30
0.0
 11
19818.933775534249
 21
26797.79923149836
 31
0.0
  0
LINE
  5
1F2
  8
CT
 10
19378.933775534249
 20
26723.17112005649
 30
0.0
 11
19378.933775534249
 21
25179.704408451711
 31
0.0
  0
LINE
  5
1F3
  8
FUTO
 10
18578.933775534249
 20
26797.79923149836
 30
0.0
 11
18578.933775534249
 21
25425.79923149836
 31
0.0
  0
LINE
  5
1F4
  8
FUTO
 10
18503.933775534249
 20
26797.79923149836
 30
0.0
 11
18503.933775534249
 21
25500.79923149836
 31
0.0
  0
LINE
  5
1F5
  8
FUTO
 10
17253.933775534249
 20
26797.79923149836
 30
0.0
 11
17253.933775534249
 21
25500.79923149836
 31
0.0
  0
LINE
  5
1F6
  8
FUTO
 10
17178.933775534249
 20
26797.79923149836
 30
0.0
 11
17178.933775534249
 21
25425.79923149836
 31
0.0
  0
DIMENSION
  5
253
  8
SP
  2
*D11
 10
17878.933775534249
 20
24455.902319793218
 30
0.0
 11
17296.433775534249
 21
24535.902319793218
 31
0.0
 70
     0
 13
16713.933775534249
 23
22631.516983730711
 33
0.0
 14
17878.933775534249
 24
23984.369842194988
 34
0.0
 50
180.0
1001
ACAD
1000
DSTYLE
1002
{
1070
    40
1040
40.0
1002
}
  0
ARC
  5
263
  8
FUTO
 10
17878.933775534249
 20
22667.71050328769
 30
0.0
 40
480.0
 50
37.127932652022849
 51
227.41944536016459
  0
LINE
  5
265
  8
FUTO
 10
18178.933775534249
 20
22545.71050328769
 30
0.0
 11
18220.982201358289
 21
22545.71050328769
 31
0.0
  0
LINE
  5
267
  8
FUTO
 10
19476.933775534249
 20
22658.710503287679
 30
0.0
 11
18714.905975838388
 21
22658.71050328769
 31
0.0
  0
LINE
  5
268
  8
FUTO
 10
19476.933775534249
 20
22676.71050328769
 30
0.0
 11
18689.816464797281
 21
22676.71050328769
 31
0.0
  0
ARC
  5
269
  8
FUTO
 10
17747.933775534249
 20
22536.710503287679
 30
0.0
 40
1705.0
 50
296.7418488230777
 51
307.4592633947517
  0
ARC
  5
26A
  8
KL
 10
17747.933775534249
 20
22536.710503287679
 30
0.0
 40
1685.0
 50
275.38794086100319
 51
355.16337676580599
  0
LINE
  5
26D
  8
FUTO
 10
18919.933775534249
 20
23656.598444110339
 30
0.0
 11
18919.933775534249
 21
22667.71050328769
 31
0.0
  0
LINE
  5
26E
  8
FUTO
 10
18928.933775534249
 20
23649.224772859088
 30
0.0
 11
18928.933775534249
 21
22667.71050328769
 31
0.0
  0
LINE
  5
26F
  8
KL
 10
19426.933775534249
 20
22667.247854264329
 30
0.0
 11
19426.933775534249
 21
22394.640098206259
 31
0.0
  0
LINE
  5
272
  8
CT
 10
19480.64019015852
 20
21467.710503287679
 30
0.0
 11
19634.937127678211
 21
21467.710503287679
 31
0.0
  0
LINE
  5
273
  8
FUTO
 10
19168.933775534249
 20
21607.71050328769
 30
0.0
 11
19558.933775534249
 21
21607.71050328769
 31
0.0
  0
LINE
  5
274
  8
FUTO
 10
19168.933775534249
 20
21342.71050328769
 30
0.0
 11
19558.933775534249
 21
21342.71050328769
 31
0.0
  0
ARC
  5
275
  8
FUTO
 10
19558.933775534249
 20
21587.710503287679
 30
0.0
 40
20.0
 50
0.000000000000007
 51
90.0
  0
ARC
  5
276
  8
FUTO
 10
19558.933775534249
 20
21362.710503287679
 30
0.0
 40
20.0
 50
270.0
 51
0.000000000000007
  0
LINE
  5
277
  8
FUTO
 10
19578.933775534249
 20
21587.710503287679
 30
0.0
 11
19578.933775534249
 21
21362.710503287679
 31
0.0
  0
ARC
  5
279
  8
FUTO
 10
19168.933775534249
 20
21587.710503287679
 30
0.0
 40
20.0
 50
90.0
 51
180.0
  0
LINE
  5
27A
  8
KL
 10
19341.60109959566
 20
21924.42671216551
 30
0.0
 11
19377.914337562332
 21
21907.493571209248
 31
0.0
  0
LINE
  5
27B
  8
CT
 10
19278.568252937948
 20
21882.099846544748
 30
0.0
 11
19385.514536174011
 21
21832.229975660572
 31
0.0
  0
LINE
  5
27C
  8
KL
 10
19391.20359805011
 20
21912.330466462208
 30
0.0
 11
19327.810858788998
 21
21776.384298406709
 31
0.0
  0
LINE
  5
27D
  8
KL
 10
19377.914337562332
 20
21907.493571209248
 30
0.0
 11
19322.973963536038
 21
21789.67355889449
 31
0.0
  0
LINE
  5
27E
  8
KL
 10
19345.82728221306
 20
21933.489790035881
 30
0.0
 11
19391.203598050099
 21
21912.330466462208
 31
0.0
  0
LINE
  5
27F
  8
KL
 10
19282.43454295196
 20
21797.543621980389
 30
0.0
 11
19327.810858788998
 21
21776.384298406709
 31
0.0
  0
LINE
  5
280
  8
KL
 10
19286.660725569371
 20
21806.606699850749
 30
0.0
 11
19322.973963536038
 21
21789.67355889449
 31
0.0
  0
ARC
  5
281
  8
FUTO
 10
19168.933775534249
 20
21362.710503287679
 30
0.0
 40
20.0
 50
180.0
 51
270.0
  0
LINE
  5
282
  8
FUTO
 10
19148.933775534249
 20
21587.710503287679
 30
0.0
 11
19148.933775534249
 21
21362.710503287679
 31
0.0
  0
LINE
  5
283
  8
FUTO
 10
19476.933775534249
 20
22676.71050328769
 30
0.0
 11
19476.933775534249
 21
22658.710503287679
 31
0.0
  0
ARC
  5
284
  8
FUTO
 10
18009.933775534249
 20
22536.710503287679
 30
0.0
 40
1443.0
 50
5.567600038522011
 51
50.441358354594847
  0
LINE
  5
285
  8
FUTO
 10
16778.933775534249
 20
22665.71050328769
 30
0.0
 11
16778.933775534249
 21
20677.71050328769
 31
0.0
  0
LINE
  5
286
  8
FUTO
 10
16713.933775534249
 20
22453.150731255351
 30
0.0
 11
16713.933775534249
 21
21425.748562510558
 31
0.0
  0
LINE
  5
287
  8
FUTO
 10
16713.933775534249
 20
22453.150731255351
 30
0.0
 11
16713.933775534249
 21
20677.71050328769
 31
0.0
  0
LINE
  5
288
  8
FUTO
 10
16719.933775534249
 20
22454.208693139612
 30
0.0
 11
16719.933775534249
 21
21419.748562510558
 31
0.0
  0
LINE
  5
289
  8
FUTO
 10
16837.93377553426
 20
20667.71050328769
 30
0.0
 11
16837.933775534249
 21
22658.710503287679
 31
0.0
  0
LINE
  5
28A
  8
FUTO
 10
16828.933775534249
 20
20667.71050328769
 30
0.0
 11
16828.933775534249
 21
22658.710503287679
 31
0.0
  0
LINE
  5
291
  8
KL
 10
17680.712961296951
 20
22694.328331957611
 30
0.0
 11
17401.690260699161
 21
22719.078076209171
 31
0.0
  0
LINE
  5
292
  8
KL
 10
17679.122577793139
 20
22676.398728495438
 30
0.0
 11
17400.099877195338
 21
22701.148472747002
 31
0.0
  0
CIRCLE
  5
295
  8
SL
 10
17878.933775534249
 20
22667.71050328769
 30
0.0
 40
355.0
  0
ARC
  5
296
  8
FUTO
 10
17826.933775534249
 20
22757.77714528127
 30
0.0
 40
15.000000000000099
 50
25.864502996822029
 51
214.135497003171
  0
ARC
  5
297
  8
FUTO
 10
17878.933775534249
 20
22667.71050328769
 30
0.0
 40
103.9999999999995
 50
68.270994006339393
 51
111.7290059936601
  0
LINE
  5
298
  8
CT
 10
17878.933775534249
 20
22791.479262452402
 30
0.0
 11
17878.933775534249
 21
22537.886779385561
 31
0.0
  0
ARC
  5
299
  8
FUTO
 10
17930.933775534249
 20
22757.77714528127
 30
0.0
 40
15.000000000000201
 50
325.8645029968294
 51
154.13549700317759
  0
ARC
  5
29E
  8
FUTO
 10
17826.933775534249
 20
22577.643861294098
 30
0.0
 40
14.99999999999998
 50
145.86450299682841
 51
334.13549700317782
  0
CIRCLE
  5
29F
  8
FUTO
 10
17878.933775534249
 20
22667.71050328769
 30
0.0
 40
41.5
  0
LINE
  5
2A0
  8
FUTO
 10
17963.933775534249
 20
22560.71050328769
 30
0.0
 11
17793.933775534249
 21
22560.71050328769
 31
0.0
  0
LINE
  5
2A2
  8
KL
 10
17536.88534971021
 20
22545.71050328769
 30
0.0
 11
17878.933775534249
 21
22545.71050328769
 31
0.0
  0
LINE
  5
2A4
  8
FUTO
 10
18002.933775534249
 20
22591.710503287679
 30
0.0
 11
18070.933775534249
 21
22591.710503287679
 31
0.0
  0
LINE
  5
2A5
  8
FUTO
 10
18083.933775534249
 20
22555.710503287679
 30
0.0
 11
17963.933775534249
 21
22555.710503287679
 31
0.0
  0
LINE
  5
2A6
  8
KL
 10
18220.9822013583
 20
22545.71050328769
 30
0.0
 11
17878.933775534249
 21
22545.71050328769
 31
0.0
  0
LINE
  5
2A7
  8
FUTO
 10
18083.933775534249
 20
22555.710503287679
 30
0.0
 11
18083.933775534249
 21
22545.71050328769
 31
0.0
  0
ARC
  5
2A8
  8
FUTO
 10
18070.933775534249
 20
22588.71050328769
 30
0.0
 40
3.0
 50
0.000000000000007
 51
90.0
  0
LINE
  5
2A9
  8
FUTO
 10
18073.933775534249
 20
22588.71050328769
 30
0.0
 11
18073.933775534249
 21
22555.710503287679
 31
0.0
  0
LINE
  5
2AA
  8
KL
 10
18078.933775534249
 20
22676.71050328769
 30
0.0
 11
18078.933775534249
 21
22658.710503287679
 31
0.0
  0
ARC
  5
2AD
  8
FUTO
 10
17878.933775534249
 20
22667.71050328769
 30
0.0
 40
104.0000000000007
 50
248.27099400633949
 51
291.72900599365971
  0
ARC
  5
2AE
  8
FUTO
 10
17982.933775534249
 20
22667.71050328769
 30
0.0
 40
15.0
 50
265.86450299682951
 51
94.135497003170499
  0
ARC
  5
2AF
  8
FUTO
 10
18002.933775534249
 20
22611.71050328769
 30
0.0
 40
20.0
 50
180.0
 51
270.0
  0
LINE
  5
2B0
  8
FUTO
 10
17963.933775534249
 20
22555.710503287679
 30
0.0
 11
17963.933775534249
 21
22560.71050328769
 31
0.0
  0
LINE
  5
2B1
  8
CT
 10
18038.933775534249
 20
22545.71050328769
 30
0.0
 11
18038.933775534249
 21
22601.71050328769
 31
0.0
  0
LINE
  5
2B2
  8
FUTO
 10
17982.933775534249
 20
22652.710503287679
 30
0.0
 11
17982.933775534249
 21
22611.71050328769
 31
0.0
  0
ARC
  5
2B3
  8
FUTO
 10
17930.933775534249
 20
22577.643861294098
 30
0.0
 40
14.999999999999719
 50
205.86450299682281
 51
34.135497003170862
  0
ARC
  5
2B4
  8
FUTO
 10
17878.933775534249
 20
22667.71050328769
 30
0.0
 40
104.0000000000002
 50
308.27099400633909
 51
351.72900599365983
  0
ARC
  5
2B5
  8
FUTO
 10
17878.933775534249
 20
22667.71050328769
 30
0.0
 40
103.9999999999998
 50
8.2709940063395706
 51
51.729005993660287
  0
LINE
  5
2B6
  8
KL
 10
17679.122577793139
 20
22676.398728495438
 30
0.0
 11
17680.712961296951
 21
22694.328331957611
 31
0.0
  0
LINE
  5
2B7
  8
FUTO
 10
17673.933775534249
 20
22545.71050328769
 30
0.0
 11
17673.933775534249
 21
22555.710503287679
 31
0.0
  0
ARC
  5
2B8
  8
FUTO
 10
17686.933775534249
 20
22588.71050328769
 30
0.0
 40
3.0
 50
90.0
 51
180.0
  0
LINE
  5
2B9
  8
FUTO
 10
17683.933775534249
 20
22555.710503287679
 30
0.0
 11
17683.933775534249
 21
22588.71050328769
 31
0.0
  0
LINE
  5
2BA
  8
CT
 10
17718.933775534249
 20
22545.71050328769
 30
0.0
 11
17718.933775534249
 21
22601.71050328769
 31
0.0
  0
LINE
  5
2BB
  8
FUTO
 10
17686.933775534249
 20
22591.710503287679
 30
0.0
 11
17754.933775534249
 21
22591.710503287679
 31
0.0
  0
LINE
  5
2BC
  8
FUTO
 10
17774.933775534249
 20
22611.71050328769
 30
0.0
 11
17774.933775534249
 21
22652.710503287679
 31
0.0
  0
ARC
  5
2BD
  8
FUTO
 10
17754.933775534249
 20
22611.71050328769
 30
0.0
 40
20.0
 50
270.0
 51
0.000000000000007
  0
LINE
  5
2BE
  8
FUTO
 10
17793.933775534249
 20
22560.71050328769
 30
0.0
 11
17793.933775534249
 21
22555.710503287679
 31
0.0
  0
LINE
  5
2BF
  8
FUTO
 10
17793.933775534249
 20
22555.710503287679
 30
0.0
 11
17673.933775534249
 21
22555.710503287679
 31
0.0
  0
ARC
  5
2C0
  8
FUTO
 10
17774.933775534249
 20
22667.71050328769
 30
0.0
 40
15.0
 50
85.864502996829515
 51
270.0
  0
ARC
  5
2C1
  8
FUTO
 10
17878.933775534249
 20
22667.71050328769
 30
0.0
 40
103.9999999999998
 50
188.27099400633949
 51
231.72900599366031
  0
ARC
  5
2C2
  8
FUTO
 10
17878.933775534249
 20
22667.71050328769
 30
0.0
 40
103.9999999999994
 50
128.27099400633961
 51
171.72900599366019
  0
INSERT
  5
2C5
  8
FUTO
  2
左回転矢印
 10
18066.368382086501
 20
23366.149576636632
 30
0.0
 41
-2.0
 42
2.0
 43
2.0
  0
LINE
  5
2D0
  8
FUTO
 10
17851.879273017152
 20
22768.129893315469
 30
0.0
 11
17851.879273017152
 21
22771.71050328769
 31
0.0
  0
LINE
  5
2D1
  8
FUTO
 10
17905.988278051362
 20
22768.129893315469
 30
0.0
 11
17905.988278051362
 21
22771.71050328769
 31
0.0
  0
LINE
  5
2D2
  8
FUTO
 10
17905.988278051362
 20
22771.71050328769
 30
0.0
 11
17851.879273017152
 21
22771.71050328769
 31
0.0
  0
LINE
  5
2D3
  8
FUTO
 10
16719.933775534249
 20
22665.71050328769
 30
0.0
 11
16719.933775534249
 21
22418.36211234756
 31
0.0
  0
LINE
  5
2D4
  8
FUTO
 10
16713.933775534249
 20
22665.71050328769
 30
0.0
 11
16713.933775534249
 21
22417.023529188598
 31
0.0
  0
LINE
  5
2D5
  8
FUTO
 10
16713.933775534249
 20
22665.71050328769
 30
0.0
 11
16713.933775534249
 21
22471.428410269298
 31
0.0
  0
ARC
  5
2D6
  8
KL
 10
17768.433775534249
 20
22778.21050328769
 30
0.0
 40
960.5
 50
180.0
 51
215.70063660443361
  0
LINE
  5
2D8
  8
FUTO
 10
16798.837286374299
 20
22616.710503287679
 30
0.0
 11
16713.933775534249
 21
22616.710503287679
 31
0.0
  0
LINE
  5
2D9
  8
FUTO
 10
16778.933775534249
 20
22665.71050328769
 30
0.0
 11
16713.933775534249
 21
22665.71050328769
 31
0.0
  0
LINE
  5
2DA
  8
FUTO
 10
16778.933775534249
 20
22665.71050328769
 30
0.0
 11
16713.933775534249
 21
22665.71050328769
 31
0.0
  0
LINE
  5
2DB
  8
KL
 10
16825.238143652939
 20
22596.71050328769
 30
0.0
 11
16713.933775534249
 21
22596.71050328769
 31
0.0
  0
LINE
  5
2DC
  8
FUTO
 10
16740.211467825789
 20
22759.707589263078
 30
0.0
 11
16737.801807122731
 21
22777.992002821
 31
0.0
  0
LINE
  5
2DD
  8
FUTO
 10
16713.933775534249
 20
20726.621746130091
 30
0.0
 11
17196.26399706196
 21
20772.112953962351
 31
0.0
  0
LINE
  5
2DE
  8
KL
 10
16713.933775534249
 20
20746.71050328769
 30
0.0
 11
17906.153209110838
 21
20859.15525506523
 31
0.0
  0
LINE
  5
2E3
  8
FUTO
 10
16719.933775534249
 20
21419.748562510558
 30
0.0
 11
16719.933775534249
 21
20677.71050328769
 31
0.0
  0
LINE
  5
2E4
  8
FUTO
 10
16778.933775534249
 20
20677.71050328769
 30
0.0
 11
16713.933775534249
 21
20677.71050328769
 31
0.0
  0
LINE
  5
2FF
  8
FUTO
 10
19818.933775534249
 20
25500.79923149836
 30
0.0
 11
17178.933775534249
 21
25500.79923149836
 31
0.0
  0
LINE
  5
300
  8
FUTO
 10
19818.933775534249
 20
25425.79923149836
 30
0.0
 11
17178.933775534249
 21
25425.79923149836
 31
0.0
  0
LINE
  5
3C8
  8
FUTO
 10
19432.933775534249
 20
28200.79923149836
 30
0.0
 11
16713.933775534249
 21
28200.79923149836
 31
0.0
  0
LINE
  5
3C9
  8
FUTO
 10
18938.933775534249
 20
26872.79923149836
 30
0.0
 11
16713.933775534249
 21
26872.79923149836
 31
0.0
  0
LINE
  5
3CA
  8
FUTO
 10
18938.933775534249
 20
26797.79923149836
 30
0.0
 11
16818.933775534249
 21
26797.79923149836
 31
0.0
  0
LINE
  5
3CB
  8
FUTO
 10
18938.933775534249
 20
28275.799231498371
 30
0.0
 11
16818.933775534249
 21
28275.79923149836
 31
0.0
  0
LINE
  5
3DA
  8
FUTO
 10
19818.933775534249
 20
26797.79923149836
 30
0.0
 11
18578.933775534249
 21
26797.79923149836
 31
0.0
  0
LINE
  5
3DB
  8
FUTO
 10
19818.933775534249
 20
26872.79923149836
 30
0.0
 11
19482.933775534249
 21
26872.799231498371
 31
0.0
  0
LINE
  5
406
  8
FUTO
 10
16818.933775534249
 20
26797.79923149836
 30
0.0
 11
16818.93377553426
 21
26822.799231498349
 31
0.0
  0
LINE
  5
438
  8
SL
 10
20789.509220494441
 20
22946.084303287691
 30
0.0
 11
20789.50922049443
 21
20876.084303287691
 31
0.0
  0
LINE
  5
439
  8
SL
 10
20619.509220494441
 20
22946.084303287691
 30
0.0
 11
20619.509220494449
 21
20876.084303287691
 31
0.0
  0
LINE
  5
43A
  8
CT
 10
22919.509220494441
 20
24170.407391609591
 30
0.0
 11
22919.509220494441
 21
20268.631737027019
 31
0.0
  0
LINE
  5
43C
  8
FUTO
 10
23582.709220494438
 20
20667.710486681699
 30
0.0
 11
23582.709220494438
 21
22734.784303287692
 31
0.0
  0
LINE
  5
43D
  8
FUTO
 10
23579.509220494449
 20
20667.710486681699
 30
0.0
 11
23579.509220494441
 21
22734.784303287692
 31
0.0
  0
LINE
  5
43E
  8
FUTO
 10
22259.509220494441
 20
20667.710486681699
 30
0.0
 11
22259.509220494441
 21
22734.784303287692
 31
0.0
  0
LINE
  5
43F
  8
FUTO
 10
22256.309220494451
 20
20667.710486681699
 30
0.0
 11
22256.309220494441
 21
22734.784303287692
 31
0.0
  0
LINE
  5
441
  8
FUTO
 10
20819.509220494441
 20
23046.084303287691
 30
0.0
 11
20819.509220494441
 21
20766.084303287691
 31
0.0
  0
LINE
  5
442
  8
FUTO
 10
20469.509220494441
 20
23046.084303287691
 30
0.0
 11
20469.509220494441
 21
20766.084303287691
 31
0.0
  0
LINE
  5
445
  8
FUTO
 10
21869.509220494441
 20
22516.084303287691
 30
0.0
 11
21869.50922049443
 21
22506.084303287691
 31
0.0
  0
LINE
  5
446
  8
FUTO
 10
22049.509220494441
 20
22516.084303287691
 30
0.0
 11
22049.509220494441
 21
20667.710486681699
 31
0.0
  0
LINE
  5
449
  8
FUTO
 10
21048.509220494441
 20
22544.084303287691
 30
0.0
 11
21048.509220494441
 21
22506.084303287691
 31
0.0
  0
LINE
  5
44A
  8
FUTO
 10
20868.509220494441
 20
22544.084303287691
 30
0.0
 11
20868.509220494441
 21
21326.084303287691
 31
0.0
  0
DIMENSION
  5
44B
  8
SP
  2
*D18
 10
24294.51736270617
 20
21766.084303287691
 30
0.0
 11
24214.51736270617
 21
22666.084303287691
 31
0.0
 70
     0
  1
%%C<>
 13
23714.509220494441
 23
23566.084303287691
 33
0.0
 14
23714.509220494441
 24
21766.084303287691
 34
0.0
 50
90.0
1001
ACAD
1000
DSTYLE
1002
{
1070
    40
1040
40.0
1002
}
  0
LINE
  5
461
  8
KL
 10
23588.709220494438
 20
23631.084303287691
 30
0.0
 11
23588.709220494438
 21
21701.08430328768
 31
0.0
  0
LINE
  5
462
  8
FUTO
 10
23708.509220494441
 20
23631.084303287691
 30
0.0
 11
23708.509220494441
 21
21701.084303287691
 31
0.0
  0
LINE
  5
463
  8
FUTO
 10
23714.509220494441
 20
23631.084303287691
 30
0.0
 11
23714.509220494441
 21
21701.084303287691
 31
0.0
  0
LINE
  5
464
  8
FUTO
 10
22166.309220494441
 20
22641.065147981939
 30
0.0
 11
22166.309220494441
 21
20667.710486681699
 31
0.0
  0
LINE
  5
465
  8
FUTO
 10
23672.709220494438
 20
22641.065147981939
 30
0.0
 11
23672.709220494438
 21
20667.710486681699
 31
0.0
  0
LINE
  5
46D
  8
FUTO
 10
22180.509220494441
 20
20529.710486681699
 30
0.0
 11
23583.50522049444
 21
20529.710486681699
 31
0.0
  0
LINE
  5
46E
  8
FUTO
 10
22180.509220494441
 20
20655.710486681699
 30
0.0
 11
23583.50522049444
 21
20655.710486681699
 31
0.0
  0
LINE
  5
471
  8
FUTO
 10
20808.509220494441
 20
20517.710486681699
 30
0.0
 11
23658.509220494441
 21
20517.71048668171
 31
0.0
1001
ACAD
1000
ASC_BOUNDS
1002
{
1070
    19
1005
0
1005
0
1005
0
1002
}
  0
DIMENSION
  5
472
  8
SP
  2
*D13
 10
22919.509220494441
 20
20078.229873917389
 30
0.0
 11
21864.009220494441
 21
20158.229873917389
 31
0.0
 70
     0
 13
20808.509220494441
 23
20517.710486681699
 33
0.0
 14
22919.509220494441
 24
20496.783434687772
 34
0.0
1001
ACAD
1000
DSTYLE
1002
{
1070
    40
1040
40.0
1002
}
  0
DIMENSION
  5
47F
  8
SP
  2
*D12
 10
23658.509220494441
 20
19778.192328952471
 30
0.0
 11
22233.509220494441
 21
19858.192328952471
 31
0.0
 70
     0
 13
20808.509220494441
 23
20517.710486681699
 33
0.0
 14
23658.509220494441
 24
20517.710486681699
 34
0.0
1001
ACAD
1000
DSTYLE
1002
{
1070
    40
1040
40.0
1002
}
  0
LINE
  5
48D
  8
FUTO
 10
20808.509220494441
 20
20667.710486681699
 30
0.0
 11
23672.709220494438
 21
20667.710486681699
 31
0.0
  0
LINE
  5
48E
  8
CT
 10
20411.19994894553
 20
21016.084303287691
 30
0.0
 11
20991.702481801651
 21
21016.084303287691
 31
0.0
  0
LINE
  5
493
  8
FUTO
 10
20883.513220494438
 20
20655.710486681699
 30
0.0
 11
22162.61932509996
 21
20655.710486681699
 31
0.0
  0
LINE
  5
494
  8
FUTO
 10
20883.513220494438
 20
20529.710486681699
 30
0.0
 11
22162.61932509996
 21
20529.710486681699
 31
0.0
  0
LINE
  5
495
  8
CT
 10
20843.513220494438
 20
20530.612286494899
 30
0.0
 11
20843.513220494438
 21
20476.40551159075
 31
0.0
  0
LINE
  5
4BB
  8
SL
 10
20789.509220494441
 20
21126.084303287691
 30
0.0
 11
20789.509220494441
 21
20876.084303287691
 31
0.0
  0
LINE
  5
4BC
  8
SL
 10
20619.509220494441
 20
21126.084303287691
 30
0.0
 11
20619.509220494441
 21
20876.084303287691
 31
0.0
  0
LINE
  5
4BD
  8
SL
 10
20619.509220494441
 20
20876.084303287691
 30
0.0
 11
20789.509220494441
 21
20876.084303287691
 31
0.0
  0
LINE
  5
4BE
  8
FUTO
 10
20469.509220494441
 20
20766.084303287691
 30
0.0
 11
20819.509220494441
 21
20766.084303287691
 31
0.0
  0
LINE
  5
4C1
  8
FUTO
 10
20808.509220494441
 20
20517.710486681699
 30
0.0
 11
20883.509220494441
 21
20517.710486681699
 31
0.0
  0
LINE
  5
4C2
  8
FUTO
 10
20808.509220494441
 20
20517.710486681699
 30
0.0
 11
20808.509220494441
 21
20520.132486681709
 31
0.0
  0
LINE
  5
4C3
  8
FUTO
 10
20813.07622049444
 20
20525.113486681701
 30
0.0
 11
20867.88022049444
 21
20529.9104866817
 31
0.0
  0
ARC
  5
4C4
  8
FUTO
 10
20812.513220494438
 20
20664.372298103532
 30
0.0
 40
4.0
 50
180.0
 51
264.99999999999977
  0
LINE
  5
4C5
  8
FUTO
 10
20808.513220494438
 20
20667.710486681699
 30
0.0
 11
20808.513220494438
 21
20664.372298103532
 31
0.0
  0
LINE
  5
4C6
  8
FUTO
 10
20808.513220494438
 20
20517.710486681699
 30
0.0
 11
20808.513220494438
 21
20521.04867525987
 31
0.0
  0
ARC
  5
4C7
  8
FUTO
 10
20812.513220494438
 20
20521.04867525987
 30
0.0
 40
4.0
 50
95.000000000000185
 51
180.0
  0
ARC
  5
4C8
  8
FUTO
 10
20873.013220494438
 20
20651.04867525987
 30
0.0
 40
4.0
 50
0.0
 51
85.000000000000256
  0
LINE
  5
4C9
  8
FUTO
 10
20883.513220494438
 20
20667.710486681699
 30
0.0
 11
20883.513220494438
 21
20517.710486681699
 31
0.0
  0
ARC
  5
4CA
  8
FUTO
 10
20873.013220494438
 20
20534.372298103539
 30
0.0
 40
4.0
 50
274.99999999999972
 51
0.0
  0
LINE
  5
4CB
  8
FUTO
 10
20877.013220494438
 20
20651.04867525987
 30
0.0
 11
20877.013220494438
 21
20534.372298103539
 31
0.0
  0
LINE
  5
4CC
  8
FUTO
 10
20873.361843465431
 20
20655.033454052242
 30
0.0
 11
20812.16459752345
 21
20660.387519311171
 31
0.0
  0
LINE
  5
4CD
  8
FUTO
 10
20883.513220494438
 20
20667.710486681699
 30
0.0
 11
20808.513220494438
 21
20667.710486681699
 31
0.0
  0
LINE
  5
4CE
  8
FUTO
 10
20873.361843465431
 20
20530.387519311171
 30
0.0
 11
20812.16459752345
 21
20525.033454052231
 31
0.0
  0
LINE
  5
4CF
  8
FUTO
 10
20883.513220494438
 20
20517.710486681699
 30
0.0
 11
20808.513220494438
 21
20517.710486681699
 31
0.0
  0
LINE
  5
4D0
  8
FUTO
 10
20883.513220494438
 20
20667.710486681699
 30
0.0
 11
20883.513220494438
 21
20517.710486681699
 31
0.0
  0
LINE
  5
4D1
  8
SL
 10
20619.509220494441
 20
21156.08430328768
 30
0.0
 11
20789.509220494441
 21
21156.08430328768
 31
0.0
  0
LINE
  5
4D5
  8
CT
 10
22140.509220494441
 20
20530.612286494899
 30
0.0
 11
22140.509220494441
 21
20476.40551159075
 31
0.0
  0
LINE
  5
4FF
  8
1
 10
22106.310220494441
 20
20517.710486681699
 30
0.0
 11
22181.310220494441
 21
20517.710486681699
 31
0.0
  0
LINE
  5
501
  8
FUTO
 10
22180.509220494441
 20
20667.710486681699
 30
0.0
 11
22105.509220494441
 21
20667.710486681699
 31
0.0
  0
LINE
  5
502
  8
FUTO
 10
22170.35784346543
 20
20655.033454052242
 30
0.0
 11
22109.160597523449
 21
20660.387519311171
 31
0.0
  0
ARC
  5
503
  8
FUTO
 10
22170.009220494441
 20
20651.04867525987
 30
0.0
 40
4.0
 50
0.0
 51
84.999999999999957
  0
LINE
  5
504
  8
FUTO
 10
22105.509220494441
 20
20667.710486681699
 30
0.0
 11
22105.509220494441
 21
20664.372298103532
 31
0.0
  0
ARC
  5
505
  8
FUTO
 10
22109.509220494441
 20
20664.372298103532
 30
0.0
 40
4.0
 50
180.0
 51
264.99999999999972
  0
LINE
  5
506
  8
FUTO
 10
22180.509220494441
 20
20517.710486681699
 30
0.0
 11
22105.509220494441
 21
20517.710486681699
 31
0.0
  0
LINE
  5
507
  8
FUTO
 10
22170.35784346543
 20
20530.387519311171
 30
0.0
 11
22109.160597523449
 21
20525.033454052231
 31
0.0
  0
ARC
  5
508
  8
FUTO
 10
22170.009220494441
 20
20534.372298103539
 30
0.0
 40
4.0
 50
275.0
 51
0.0
  0
ARC
  5
509
  8
FUTO
 10
22109.509220494441
 20
20521.04867525987
 30
0.0
 40
4.0
 50
95.000000000000185
 51
180.0
  0
LINE
  5
50A
  8
FUTO
 10
22105.509220494441
 20
20517.710486681699
 30
0.0
 11
22105.509220494441
 21
20521.04867525987
 31
0.0
  0
LINE
  5
50B
  8
FUTO
 10
22105.50522049444
 20
20517.710486681699
 30
0.0
 11
22105.50522049444
 21
20520.132486681709
 31
0.0
  0
LINE
  5
50C
  8
FUTO
 10
22110.07222049444
 20
20525.113486681701
 30
0.0
 11
22164.87622049444
 21
20529.9104866817
 31
0.0
  0
LINE
  5
50D
  8
FUTO
 10
22105.50522049444
 20
20517.710486681699
 30
0.0
 11
22180.50522049444
 21
20517.710486681699
 31
0.0
  0
LINE
  5
50E
  8
FUTO
 10
22180.509220494441
 20
20667.710486681699
 30
0.0
 11
22180.509220494441
 21
20517.710486681699
 31
0.0
  0
LINE
  5
50F
  8
FUTO
 10
22174.009220494441
 20
20651.04867525987
 30
0.0
 11
22174.009220494441
 21
20534.372298103539
 31
0.0
  0
LINE
  5
510
  8
FUTO
 10
22180.509220494441
 20
20667.710486681699
 30
0.0
 11
22180.509220494441
 21
20517.710486681699
 31
0.0
  0
DIMENSION
  5
517
  8
SP
  2
*D14
 10
23658.509220494441
 20
20078.229873917389
 30
0.0
 11
23289.009220494441
 21
20158.229873917389
 31
0.0
 70
     0
 13
22919.509220494441
 23
20496.783434687772
 33
0.0
 14
23658.509220494441
 24
20517.710486681699
 34
0.0
1001
ACAD
1000
DSTYLE
1002
{
1070
   287
1070
     4
1070
    40
1040
40.0
1070
    75
1070
     1
1070
   279
1070
     1
1070
   289
1070
     3
1002
}
  0
LINE
  5
529
  8
CT
 10
23623.509220494441
 20
20530.612286494899
 30
0.0
 11
23623.509220494441
 21
20476.40551159075
 31
0.0
  0
LINE
  5
554
  8
FUTO
 10
23658.509220494441
 20
20517.710486681699
 30
0.0
 11
23583.509220494441
 21
20517.710486681699
 31
0.0
  0
LINE
  5
555
  8
FUTO
 10
23653.942220494439
 20
20525.113486681701
 30
0.0
 11
23599.138220494438
 21
20529.9104866817
 31
0.0
  0
LINE
  5
556
  8
FUTO
 10
23658.509220494441
 20
20517.710486681699
 30
0.0
 11
23658.509220494441
 21
20520.132486681709
 31
0.0
  0
LINE
  5
557
  8
1
 10
23657.704220494441
 20
20517.710486681699
 30
0.0
 11
23582.704220494441
 21
20517.710486681699
 31
0.0
  0
ARC
  5
558
  8
FUTO
 10
23654.50522049444
 20
20664.372298103532
 30
0.0
 40
4.0
 50
275.00000000000011
 51
0.0
  0
LINE
  5
559
  8
FUTO
 10
23658.50522049444
 20
20667.710486681699
 30
0.0
 11
23658.50522049444
 21
20664.372298103532
 31
0.0
  0
LINE
  5
55A
  8
FUTO
 10
23658.50522049444
 20
20517.710486681699
 30
0.0
 11
23658.50522049444
 21
20521.04867525987
 31
0.0
  0
ARC
  5
55B
  8
FUTO
 10
23654.50522049444
 20
20521.04867525987
 30
0.0
 40
4.0
 50
0.0
 51
84.999999999999801
  0
ARC
  5
55C
  8
FUTO
 10
23594.00522049444
 20
20651.04867525987
 30
0.0
 40
4.0
 50
95.000000000000057
 51
180.0
  0
LINE
  5
55D
  8
FUTO
 10
23583.50522049444
 20
20667.710486681699
 30
0.0
 11
23583.50522049444
 21
20517.710486681699
 31
0.0
  0
ARC
  5
55E
  8
FUTO
 10
23594.00522049444
 20
20534.372298103539
 30
0.0
 40
4.0
 50
180.0
 51
264.99999999999989
  0
LINE
  5
55F
  8
FUTO
 10
23590.00522049444
 20
20651.04867525987
 30
0.0
 11
23590.00522049444
 21
20534.372298103539
 31
0.0
  0
LINE
  5
560
  8
FUTO
 10
23593.656597523452
 20
20655.033454052242
 30
0.0
 11
23654.853843465429
 21
20660.387519311171
 31
0.0
  0
LINE
  5
561
  8
FUTO
 10
23583.50522049444
 20
20667.710486681699
 30
0.0
 11
23658.50522049444
 21
20667.710486681699
 31
0.0
  0
LINE
  5
562
  8
FUTO
 10
23593.656597523452
 20
20530.387519311171
 30
0.0
 11
23654.853843465429
 21
20525.033454052231
 31
0.0
  0
LINE
  5
563
  8
FUTO
 10
23583.50522049444
 20
20517.710486681699
 30
0.0
 11
23658.50522049444
 21
20517.710486681699
 31
0.0
  0
LINE
  5
564
  8
FUTO
 10
23583.50522049444
 20
20667.710486681699
 30
0.0
 11
23583.50522049444
 21
20517.710486681699
 31
0.0
  0
LINE
  5
56B
  8
KL
 10
23582.709220494438
 20
21760.084303287691
 30
0.0
 11
23672.709220494438
 21
21760.084303287691
 31
0.0
  0
LINE
  5
56C
  8
KL
 10
23582.709220494438
 20
21766.084303287691
 30
0.0
 11
23714.509220494441
 21
21766.084303287691
 31
0.0
  0
LINE
  5
56D
  8
HOSO
 10
23540.175210883521
 20
21726.084303287691
 30
0.0
 11
23614.282826031791
 21
21726.084303287691
 31
0.0
  0
LINE
  5
56E
  8
KL
 10
23582.709220494438
 20
21701.08430328768
 30
0.0
 11
23588.709220494438
 21
21701.08430328768
 31
0.0
  0
LINE
  5
56F
  8
FUTO
 10
23672.709220494438
 20
21760.084303287691
 30
0.0
 11
23714.509220494441
 21
21760.084303287691
 31
0.0
  0
LINE
  5
570
  8
FUTO
 10
23708.509220494441
 20
21701.084303287691
 30
0.0
 11
23714.509220494441
 21
21701.084303287691
 31
0.0
  0
LINE
  5
571
  8
HOSO
 10
23681.026674308421
 20
21726.084303287691
 30
0.0
 11
23755.134289456681
 21
21726.084303287691
 31
0.0
  0
LINE
  5
600
  8
FUTO
 10
22191.309220494441
 20
22657.084303287691
 30
0.0
 11
23647.709220494438
 21
22657.084303287691
 31
0.0
  0
LINE
  5
601
  8
FUTO
 10
22191.309220494441
 20
22675.084303287691
 30
0.0
 11
23647.709220494438
 21
22675.084303287691
 31
0.0
  0
LINE
  5
61E
  8
CT
 10
20417.58309880966
 20
22666.084303287691
 30
0.0
 11
23913.50452366667
 21
22666.084303287691
 31
0.0
  0
LINE
  5
623
  8
FUTO
 10
21025.009220494441
 20
22770.084303287691
 30
0.0
 11
20892.009220494441
 21
22770.084303287691
 31
0.0
  0
LINE
  5
624
  8
FUTO
 10
20892.009220494441
 20
22562.084303287691
 30
0.0
 11
20903.509220494441
 21
22562.084303287691
 31
0.0
  0
ARC
  5
625
  8
FUTO
 10
20909.509220494441
 20
22584.084303287691
 30
0.0
 40
6.0
 50
90.0
 51
180.0
  0
LINE
  5
626
  8
FUTO
 10
20868.509220494441
 20
22544.084303287691
 30
0.0
 11
21048.509220494441
 21
22544.084303287691
 31
0.0
  0
ARC
  5
628
  8
FUTO
 10
20892.009220494441
 20
22764.084303287691
 30
0.0
 40
6.0
 50
90.0
 51
180.0
  0
LINE
  5
62A
  8
FUTO
 10
20886.009220494441
 20
22756.084303287691
 30
0.0
 11
20881.009220494441
 21
22756.084303287691
 31
0.0
  0
ARC
  5
62B
  8
FUTO
 10
20892.009220494441
 20
22568.08430328768
 30
0.0
 40
6.0
 50
180.0
 51
270.0
  0
LINE
  5
62C
  8
FUTO
 10
20881.009220494441
 20
22576.084303287691
 30
0.0
 11
20886.009220494441
 21
22576.084303287691
 31
0.0
  0
LINE
  5
62D
  8
FUTO
 10
20886.009220494441
 20
22764.084303287691
 30
0.0
 11
20886.009220494441
 21
22568.08430328768
 31
0.0
  0
LINE
  5
62E
  8
FUTO
 10
20881.009220494441
 20
22756.084303287691
 30
0.0
 11
20881.009220494441
 21
22576.084303287691
 31
0.0
  0
LINE
  5
62F
  8
FUTO
 10
20789.509220494441
 20
22618.584303287691
 30
0.0
 11
20881.009220494441
 21
22618.584303287691
 31
0.0
  0
LINE
  5
630
  8
FUTO
 10
20789.509220494441
 20
22713.584303287691
 30
0.0
 11
20881.009220494441
 21
22713.584303287691
 31
0.0
  0
LINE
  5
631
  8
SL
 10
20619.509220494441
 20
22946.084303287691
 30
0.0
 11
20789.509220494441
 21
22946.084303287691
 31
0.0
  0
LINE
  5
632
  8
FUTO
 10
20469.509220494441
 20
23046.084303287691
 30
0.0
 11
20819.509220494441
 21
23046.084303287691
 31
0.0
  0
LINE
  5
636
  8
FUTO
 10
22256.309220494441
 20
22734.784303287692
 30
0.0
 11
22256.309220494441
 21
23952.905687944109
 31
0.0
  0
LINE
  5
637
  8
FUTO
 10
22259.509220494441
 20
22734.784303287692
 30
0.0
 11
22259.509220494441
 21
23952.905687944109
 31
0.0
  0
LINE
  5
638
  8
FUTO
 10
22191.309220494441
 20
23952.905687944109
 30
0.0
 11
22191.309220494441
 21
22657.08430328768
 31
0.0
  0
LINE
  5
63B
  8
SL
 10
21839.020841820518
 20
22882.158973097939
 30
0.0
 11
21073.642885022829
 21
22882.158973097939
 31
0.0
  0
LINE
  5
63D
  8
FUTO
 10
21869.509220494441
 20
22506.084303287691
 30
0.0
 11
21048.509220494441
 21
22506.084303287691
 31
0.0
  0
LINE
  5
63E
  8
FUTO
 10
21036.009220494441
 20
22613.584303287691
 30
0.0
 11
21866.009220494441
 21
22613.584303287691
 31
0.0
  0
LINE
  5
63F
  8
FUTO
 10
21036.009220494441
 20
22718.58430328768
 30
0.0
 11
21866.009220494441
 21
22718.584303287691
 31
0.0
  0
LINE
  5
640
  8
SL
 10
21073.642885022829
 20
22882.158973097939
 30
0.0
 11
21073.642885022829
 21
22506.084303287691
 31
0.0
  0
LINE
  5
641
  8
CT
 10
20958.509220494441
 20
22847.15021770732
 30
0.0
 11
20958.509220494441
 21
22457.150049761902
 31
0.0
  0
ARC
  5
642
  8
FUTO
 10
21025.009220494441
 20
22764.084303287691
 30
0.0
 40
6.0
 50
0.0
 51
90.0
  0
LINE
  5
643
  8
FUTO
 10
21013.509220494441
 20
22770.084303287691
 30
0.0
 11
21013.509220494441
 21
22544.084303287691
 31
0.0
  0
LINE
  5
644
  8
FUTO
 10
20903.509220494441
 20
22770.084303287691
 30
0.0
 11
20903.509220494441
 21
22544.084303287691
 31
0.0
  0
LINE
  5
645
  8
CT
 10
20958.509220494441
 20
22789.853062452388
 30
0.0
 11
20958.509220494441
 21
22536.260579385569
 31
0.0
  0
LINE
  5
646
  8
FUTO
 10
21031.009220494441
 20
22756.084303287691
 30
0.0
 11
21036.009220494441
 21
22756.084303287691
 31
0.0
  0
LINE
  5
647
  8
FUTO
 10
21036.009220494441
 20
22576.084303287691
 30
0.0
 11
21031.009220494441
 21
22576.084303287691
 31
0.0
  0
ARC
  5
648
  8
FUTO
 10
21025.009220494441
 20
22568.08430328768
 30
0.0
 40
6.0
 50
270.0
 51
0.0
  0
LINE
  5
649
  8
FUTO
 10
21025.009220494441
 20
22562.084303287691
 30
0.0
 11
21013.509220494441
 21
22562.084303287691
 31
0.0
  0
ARC
  5
64A
  8
FUTO
 10
21007.509220494441
 20
22584.084303287691
 30
0.0
 40
6.0
 50
0.0
 51
90.0
  0
LINE
  5
64B
  8
FUTO
 10
21036.009220494441
 20
22756.084303287691
 30
0.0
 11
21036.009220494441
 21
22576.084303287691
 31
0.0
  0
LINE
  5
64C
  8
FUTO
 10
21031.009220494441
 20
22764.084303287691
 30
0.0
 11
21031.009220494441
 21
22568.08430328768
 31
0.0
  0
LINE
  5
64D
  8
FUTO
 10
20903.509220494441
 20
22554.084303287691
 30
0.0
 11
21013.509220494441
 21
22554.084303287691
 31
0.0
  0
LINE
  5
64E
  8
FUTO
 10
21007.509220494441
 20
22590.084303287691
 30
0.0
 11
20909.509220494441
 21
22590.084303287691
 31
0.0
  0
LINE
  5
653
  8
SL
 10
21839.020841820518
 20
22882.158973097939
 30
0.0
 11
21839.020841820518
 21
22506.084303287691
 31
0.0
  0
LINE
  5
654
  8
CT
 10
21959.509220494441
 20
22874.855131367931
 30
0.0
 11
21959.509220494441
 21
22425.18282760034
 31
0.0
  0
LINE
  5
655
  8
FUTO
 10
22038.009220494441
 20
22773.584303287691
 30
0.0
 11
22053.009220494441
 21
22750.084303287691
 31
0.0
  0
LINE
  5
656
  8
FUTO
 10
22026.009220494441
 20
22796.084303287691
 30
0.0
 11
22026.009220494441
 21
22581.084303287691
 31
0.0
  0
LINE
  5
657
  8
FUTO
 10
22026.009220494441
 20
22571.084303287691
 30
0.0
 11
22026.009220494441
 21
22796.0842400933
 31
0.0
  0
LINE
  5
658
  8
FUTO
 10
22038.009220494441
 20
22536.084303287691
 30
0.0
 11
22038.009220494441
 21
22796.084303287691
 31
0.0
  0
LINE
  5
659
  8
FUTO
 10
21866.009220494441
 20
22750.084303287691
 30
0.0
 11
21881.009220494441
 21
22773.584303287691
 31
0.0
  0
LINE
  5
65A
  8
FUTO
 10
21893.009220494441
 20
22796.084303287691
 30
0.0
 11
21893.009220494441
 21
22581.084303287691
 31
0.0
  0
LINE
  5
65B
  8
CT
 10
21959.509220494441
 20
22830.245882953899
 30
0.0
 11
21959.509220494441
 21
22488.376260109799
 31
0.0
  0
LINE
  5
65C
  8
FUTO
 10
21881.009220494441
 20
22796.084303287691
 30
0.0
 11
21881.009220494441
 21
22536.084303287691
 31
0.0
  0
LINE
  5
662
  8
FUTO
 10
22191.309220494441
 20
22657.08430328768
 30
0.0
 11
22166.309220494441
 21
22641.065147981939
 31
0.0
  0
LINE
  5
664
  8
FUTO
 10
22049.509220494441
 20
22516.084303287691
 30
0.0
 11
21869.509220494441
 21
22516.084303287691
 31
0.0
  0
LINE
  5
665
  8
FUTO
 10
22034.509220494441
 20
22526.084303287691
 30
0.0
 11
21884.509220494441
 21
22526.084303287691
 31
0.0
  0
LINE
  5
666
  8
FUTO
 10
21884.509220494441
 20
22581.084303287691
 30
0.0
 11
22034.509220494441
 21
22581.084303287691
 31
0.0
  0
LINE
  5
667
  8
FUTO
 10
21866.009220494441
 20
22582.084303287691
 30
0.0
 11
21866.009220494441
 21
22750.084303287691
 31
0.0
  0
LINE
  5
668
  8
FUTO
 10
21881.009220494441
 20
22536.084303287691
 30
0.0
 11
21884.509220494441
 21
22536.084303287691
 31
0.0
  0
LINE
  5
669
  8
CT
 10
21909.509220494441
 20
22491.12921093644
 30
0.0
 11
21909.509220494441
 21
22611.9017360582
 31
0.0
  0
LINE
  5
66A
  8
FUTO
 10
21884.509220494441
 20
22516.084303287691
 30
0.0
 11
21884.509220494441
 21
22581.084303287691
 31
0.0
  0
LINE
  5
66B
  8
FUTO
 10
21881.009220494441
 20
22558.584303287691
 30
0.0
 11
21866.009220494441
 21
22582.084303287691
 31
0.0
  0
LINE
  5
66C
  8
FUTO
 10
22053.009220494441
 20
22718.58430328768
 30
0.0
 11
22191.309220494441
 21
22718.584303287691
 31
0.0
  0
LINE
  5
66E
  8
FUTO
 10
22053.009220494441
 20
22613.584303287691
 30
0.0
 11
22166.309220494441
 21
22613.584303287691
 31
0.0
  0
LINE
  5
67F
  8
CT
 10
22070.899558730769
 20
22666.084303287691
 30
0.0
 11
22180.242180606681
 21
22666.084303287691
 31
0.0
  0
LINE
  5
69D
  8
FUTO
 10
22053.009220494441
 20
22750.084303287691
 30
0.0
 11
22053.009220494441
 21
22582.084303287691
 31
0.0
  0
LINE
  5
69E
  8
FUTO
 10
22034.509220494441
 20
22536.084303287691
 30
0.0
 11
22038.009220494441
 21
22536.084303287691
 31
0.0
  0
LINE
  5
69F
  8
FUTO
 10
22034.509220494441
 20
22581.084303287691
 30
0.0
 11
22034.509220494441
 21
22516.084303287691
 31
0.0
  0
LINE
  5
6A0
  8
FUTO
 10
22053.009220494441
 20
22582.084303287691
 30
0.0
 11
22038.009220494441
 21
22558.584303287691
 31
0.0
  0
LINE
  5
6A1
  8
CT
 10
22009.509220494441
 20
22491.12921093644
 30
0.0
 11
22009.509220494441
 21
22611.9017360582
 31
0.0
  0
LINE
  5
6AC
  8
FUTO
 10
22021.009220494441
 20
22814.084303287691
 30
0.0
 11
21898.009220494441
 21
22814.084303287691
 31
0.0
  0
LINE
  5
6AD
  8
FUTO
 10
21898.009220494441
 20
22814.084303287691
 30
0.0
 11
21898.009220494441
 21
22796.084303287691
 31
0.0
  0
LINE
  5
6AE
  8
FUTO
 10
21898.009220494441
 20
22796.084303287691
 30
0.0
 11
21881.009220494441
 21
22796.084303287691
 31
0.0
  0
LINE
  5
6B7
  8
FUTO
 10
22038.009220494441
 20
22796.084303287691
 30
0.0
 11
22021.009220494441
 21
22796.084303287691
 31
0.0
  0
LINE
  5
6B8
  8
FUTO
 10
22021.009220494441
 20
22796.084303287691
 30
0.0
 11
22021.009220494441
 21
22814.084303287691
 31
0.0
  0
LINE
  5
6BC
  8
FUTO
 10
22256.309220494441
 20
23611.284303287692
 30
0.0
 11
22256.309220494451
 21
23952.905687944109
 31
0.0
  0
DIMENSION
  5
6CD
  8
SP
  2
*D15
 10
23714.509220494441
 20
24439.414601982549
 30
0.0
 11
23248.371595538549
 21
24439.414601982549
 31
0.0
 70
   128
 13
22919.509220494441
 23
24471.35694134693
 33
0.0
 14
23714.509220494441
 24
23631.084303287691
 34
0.0
1001
ACAD
1000
DSTYLE
1002
{
1070
    40
1040
40.0
1002
}
  0
LINE
  5
6E1
  8
FUTO
 10
23579.509220494441
 20
22734.784303287692
 30
0.0
 11
23579.509220494441
 21
23952.905687944109
 31
0.0
  0
LINE
  5
6E2
  8
FUTO
 10
23582.709220494438
 20
22734.784303287692
 30
0.0
 11
23582.709220494438
 21
23952.905687944109
 31
0.0
  0
LINE
  5
6E3
  8
FUTO
 10
23647.709220494879
 20
23952.905687944109
 30
0.0
 11
23647.709220494431
 21
22657.084303287691
 31
0.0
  0
LINE
  5
701
  8
FUTO
 10
23647.709220494471
 20
22657.084303287658
 30
0.0
 11
23672.709220494471
 21
22641.065147981921
 31
0.0
  0
INSERT
  5
702
  8
FUTO
  2
まっすぐの矢印
 10
23909.982373064951
 20
23151.630606136801
 30
0.0
 41
2.0
 42
2.0
 43
2.0
 50
90.0
  0
LINE
  5
704
  8
FUTO
 10
23647.709220494438
 20
23572.084303287691
 30
0.0
 11
23714.509220494441
 21
23572.084303287691
 31
0.0
  0
LINE
  5
705
  8
KL
 10
23582.709220494438
 20
23566.084303287691
 30
0.0
 11
23714.509220494441
 21
23566.084303287691
 31
0.0
  0
LINE
  5
706
  8
HOSO
 10
23553.771250686448
 20
23606.084303287691
 30
0.0
 11
23613.601599516522
 21
23606.084303287691
 31
0.0
  0
LINE
  5
707
  8
KL
 10
23588.709220494438
 20
23631.084303287691
 30
0.0
 11
23582.709220494438
 21
23631.084303287691
 31
0.0
  0
LINE
  5
708
  8
KL
 10
23582.709220494438
 20
23572.084303287691
 30
0.0
 11
23647.709220494438
 21
23572.084303287691
 31
0.0
  0
LINE
  5
709
  8
FUTO
 10
23708.509220494441
 20
23631.084303287691
 30
0.0
 11
23714.509220494441
 21
23631.084303287691
 31
0.0
  0
LINE
  5
70A
  8
HOSO
 10
23681.841443934762
 20
23606.084303287691
 30
0.0
 11
23741.671792764831
 21
23606.084303287691
 31
0.0
  0
LINE
  5
88D
  8
CT
 10
19558.968934872541
 20
27536.799231498371
 30
0.0
 11
16226.69933182533
 21
27536.79923149836
 31
0.0
  0
LINE
  5
88E
  8
FUTO
 10
16713.933775534249
 20
26807.79923149836
 30
0.0
 11
16713.933775534249
 21
28265.79923149836
 31
0.0
  0
LINE
  5
89C
  8
FUTO
 10
16778.933775534249
 20
26807.79923149836
 30
0.0
 11
16713.933775534249
 21
26807.79923149836
 31
0.0
  0
LINE
  5
89D
  8
FUTO
 10
16778.933775534249
 20
26807.79923149836
 30
0.0
 11
16778.933775534249
 21
28265.79923149836
 31
0.0
  0
LINE
  5
89E
  8
FUTO
 10
16778.933775534249
 20
28265.79923149836
 30
0.0
 11
16713.933775534249
 21
28265.79923149836
 31
0.0
  0
LINE
  5
89F
  8
FUTO
 10
19432.933775534249
 20
28200.79923149836
 30
0.0
 11
19432.933775534249
 21
26872.799231498371
 31
0.0
  0
LINE
  5
8A0
  8
FUTO
 10
19482.933775534249
 20
28250.79923149836
 30
0.0
 11
16778.933775534249
 21
28250.79923149836
 31
0.0
  0
LINE
  5
8A1
  8
FUTO
 10
19482.933775534249
 20
28250.79923149836
 30
0.0
 11
19482.933775534249
 21
26822.79923149836
 31
0.0
  0
LINE
  5
8A2
  8
FUTO
 10
19482.933775534249
 20
26822.79923149836
 30
0.0
 11
16778.933775534249
 21
26822.79923149836
 31
0.0
  0
LINE
  5
8A3
  8
FUTO
 10
19432.933775534249
 20
26872.799231498371
 30
0.0
 11
18578.933775534249
 21
26872.79923149836
 31
0.0
  0
LINE
  5
8A4
  8
FUTO
 10
18938.933775534249
 20
28250.79923149836
 30
0.0
 11
18938.933775534249
 21
28275.799231498371
 31
0.0
  0
LINE
  5
8A5
  8
FUTO
 10
16818.933775534249
 20
28250.79923149836
 30
0.0
 11
16818.933775534249
 21
28275.79923149836
 31
0.0
  0
LINE
  5
132F
  8
FUTO
 10
17498.933775534249
 20
25086.79923149836
 30
0.0
 11
19658.933775534249
 21
25086.79923149836
 31
0.0
  0
LINE
  5
1330
  8
FUTO
 10
17498.933775534249
 20
25436.799231498371
 30
0.0
 11
19658.933775534249
 21
25436.79923149836
 31
0.0
  0
LINE
  5
1336
  8
SL
 10
17598.933775534249
 20
25236.79923149836
 30
0.0
 11
19578.933775534249
 21
25236.799231498371
 31
0.0
  0
LINE
  5
1337
  8
SL
 10
17598.933775534249
 20
25406.79923149836
 30
0.0
 11
19578.933775534249
 21
25406.79923149836
 31
0.0
  0
LINE
  5
1338
  8
CT
 10
17878.933775534249
 20
25034.87310981358
 30
0.0
 11
17878.933775534249
 21
28530.794534670589
 31
0.0
  0
LINE
  5
1342
  8
FUTO
 10
17774.933775534249
 20
25509.299231498371
 30
0.0
 11
17774.933775534249
 21
25520.799231498371
 31
0.0
  0
LINE
  5
1343
  8
FUTO
 10
17982.933775534249
 20
25642.29923149836
 30
0.0
 11
17982.933775534249
 21
25509.299231498371
 31
0.0
  0
ARC
  5
1344
  8
FUTO
 10
17976.933775534249
 20
25509.299231498371
 30
0.0
 40
6.0
 50
270.0
 51
0.000000000000007
  0
LINE
  5
1345
  8
SL
 10
18158.933775534249
 20
25236.799231498371
 30
0.0
 11
18158.933775534249
 21
25406.79923149836
 31
0.0
  0
LINE
  5
1346
  8
FUTO
 10
17926.433775534249
 20
25406.79923149836
 30
0.0
 11
17926.433775534249
 21
25498.29923149836
 31
0.0
  0
LINE
  5
1347
  8
FUTO
 10
17831.433775534249
 20
25406.79923149836
 30
0.0
 11
17831.433775534249
 21
25498.29923149836
 31
0.0
  0
LINE
  5
1348
  8
FUTO
 10
17968.933775534249
 20
25498.29923149836
 30
0.0
 11
17788.933775534249
 21
25498.29923149836
 31
0.0
  0
LINE
  5
1349
  8
FUTO
 10
17976.933775534249
 20
25503.299231498371
 30
0.0
 11
17780.933775534249
 21
25503.299231498371
 31
0.0
  0
LINE
  5
134A
  8
FUTO
 10
17788.933775534249
 20
25498.29923149836
 30
0.0
 11
17788.933775534249
 21
25503.299231498371
 31
0.0
  0
ARC
  5
134B
  8
FUTO
 10
17780.933775534249
 20
25509.299231498371
 30
0.0
 40
6.0
 50
180.0
 51
270.0
  0
LINE
  5
134C
  8
FUTO
 10
17968.933775534249
 20
25503.299231498371
 30
0.0
 11
17968.933775534249
 21
25498.29923149836
 31
0.0
  0
LINE
  5
1353
  8
FUTO
 10
17931.433775534249
 20
25653.29923149836
 30
0.0
 11
17931.433775534249
 21
26483.29923149836
 31
0.0
  0
LINE
  5
1354
  8
FUTO
 10
17826.433775534249
 20
25653.29923149836
 30
0.0
 11
17826.433775534249
 21
26483.29923149836
 31
0.0
  0
LINE
  5
1357
  8
CT
 10
18002.702534698961
 20
25575.799231498371
 30
0.0
 11
17749.110051632131
 21
25575.799231498371
 31
0.0
  0
LINE
  5
1358
  8
FUTO
 10
17982.933775534249
 20
25520.799231498371
 30
0.0
 11
17774.933775534249
 21
25520.799231498371
 31
0.0
  0
LINE
  5
1359
  8
FUTO
 10
17982.933775534249
 20
25630.79923149836
 30
0.0
 11
17774.933775534249
 21
25630.79923149836
 31
0.0
  0
ARC
  5
135A
  8
FUTO
 10
17976.933775534249
 20
25642.29923149836
 30
0.0
 40
6.0
 50
0.000000000000007
 51
90.0
  0
LINE
  5
135B
  8
CT
 10
18059.999689953878
 20
25575.799231498371
 30
0.0
 11
17669.99952200846
 21
25575.799231498371
 31
0.0
  0
LINE
  5
135F
  8
FUTO
 10
17976.933775534249
 20
25648.299231498371
 30
0.0
 11
17780.933775534249
 21
25648.299231498371
 31
0.0
  0
LINE
  5
1360
  8
FUTO
 10
17968.933775534249
 20
25653.29923149836
 30
0.0
 11
17788.933775534249
 21
25653.29923149836
 31
0.0
  0
LINE
  5
1362
  8
FUTO
 10
17774.933775534249
 20
25642.29923149836
 30
0.0
 11
17774.933775534249
 21
25630.79923149836
 31
0.0
  0
ARC
  5
1363
  8
FUTO
 10
17780.933775534249
 20
25642.29923149836
 30
0.0
 40
6.0
 50
90.0
 51
180.0
  0
LINE
  5
1364
  8
FUTO
 10
17788.933775534249
 20
25653.29923149836
 30
0.0
 11
17788.933775534249
 21
25648.299231498371
 31
0.0
  0
LINE
  5
1365
  8
FUTO
 10
17968.933775534249
 20
25648.299231498371
 30
0.0
 11
17968.933775534249
 21
25653.29923149836
 31
0.0
  0
LINE
  5
136A
  8
FUTO
 10
18008.933775534249
 20
26498.299231498371
 30
0.0
 11
17748.933775534249
 21
26498.29923149836
 31
0.0
  0
LINE
  5
136B
  8
CT
 10
18043.095355200461
 20
26576.79923149836
 30
0.0
 11
17701.225732356361
 21
26576.79923149836
 31
0.0
  0
LINE
  5
136C
  8
FUTO
 10
18008.933775534249
 20
26510.29923149836
 30
0.0
 11
17748.933775534249
 21
26510.29923149836
 31
0.0
  0
LINE
  5
136D
  8
FUTO
 10
17962.933775534249
 20
26483.29923149836
 30
0.0
 11
17986.433775534249
 21
26498.299231498371
 31
0.0
  0
LINE
  5
136E
  8
FUTO
 10
17748.933775534249
 20
26655.29923149836
 30
0.0
 11
18008.933775534249
 21
26655.29923149836
 31
0.0
  0
LINE
  5
136F
  8
FUTO
 10
17748.933775534249
 20
26643.29923149836
 30
0.0
 11
18008.933712339869
 21
26643.29923149836
 31
0.0
  0
LINE
  5
1370
  8
FUTO
 10
18008.933775534249
 20
26643.29923149836
 30
0.0
 11
17793.933775534249
 21
26643.29923149836
 31
0.0
  0
LINE
  5
1371
  8
FUTO
 10
17986.433775534249
 20
26655.29923149836
 30
0.0
 11
17962.933775534249
 21
26670.29923149836
 31
0.0
  0
LINE
  5
1372
  8
CT
 10
18087.704603614489
 20
26576.79923149836
 30
0.0
 11
17638.032299846898
 21
26576.79923149836
 31
0.0
  0
LINE
  5
137E
  8
FUTO
 10
17771.433775534249
 20
26498.299231498371
 30
0.0
 11
17794.933775534249
 21
26483.29923149836
 31
0.0
  0
LINE
  5
1381
  8
FUTO
 10
17748.933775534249
 20
26498.299231498371
 30
0.0
 11
17748.933775534249
 21
26501.799231498371
 31
0.0
  0
LINE
  5
1382
  8
FUTO
 10
17794.933775534249
 20
26483.29923149836
 30
0.0
 11
17962.933775534249
 21
26483.29923149836
 31
0.0
  0
LINE
  5
1384
  8
FUTO
 10
17794.933775534249
 20
26670.29923149836
 30
0.0
 11
17771.433775534249
 21
26655.29923149836
 31
0.0
  0
LINE
  5
1386
  8
FUTO
 10
17748.933775534249
 20
26651.79923149836
 30
0.0
 11
17748.933775534249
 21
26655.29923149836
 31
0.0
  0
LINE
  5
1387
  8
FUTO
 10
17962.933775534249
 20
26670.29923149836
 30
0.0
 11
17794.933775534249
 21
26670.29923149836
 31
0.0
  0
LINE
  5
13A3
  8
CT
 10
17878.933775534249
 20
26688.189569734692
 30
0.0
 11
17878.933775534249
 21
26797.5321916106
 31
0.0
  0
LINE
  5
13B2
  8
FUTO
 10
17826.433775534249
 20
26670.29923149836
 30
0.0
 11
17826.433775534249
 21
26822.79923149836
 31
0.0
  0
LINE
  5
13B4
  8
FUTO
 10
17931.433775534249
 20
26670.29923149836
 30
0.0
 11
17931.433775534249
 21
26822.79923149836
 31
0.0
  0
LINE
  5
13BE
  8
FUTO
 10
18026.933775534249
 20
26638.29923149836
 30
0.0
 11
18026.933775534249
 21
26515.299231498371
 31
0.0
  0
LINE
  5
13BF
  8
FUTO
 10
18008.933775534249
 20
26515.299231498371
 30
0.0
 11
18008.933775534249
 21
26498.299231498371
 31
0.0
  0
LINE
  5
13C0
  8
FUTO
 10
18026.933775534249
 20
26515.299231498371
 30
0.0
 11
18008.933775534249
 21
26515.299231498371
 31
0.0
  0
LINE
  5
13C1
  8
FUTO
 10
18008.933775534249
 20
26638.29923149836
 30
0.0
 11
18026.933775534249
 21
26638.29923149836
 31
0.0
  0
LINE
  5
13C2
  8
FUTO
 10
18008.933775534249
 20
26655.29923149836
 30
0.0
 11
18008.933775534249
 21
26638.29923149836
 31
0.0
  0
LINE
  5
13E1
  8
FUTO
 10
17498.933775534249
 20
25086.79923149836
 30
0.0
 11
17498.933775534249
 21
25436.799231498371
 31
0.0
  0
LINE
  5
13E2
  8
SL
 10
17598.933775534249
 20
25236.799231498371
 30
0.0
 11
17598.933775534249
 21
25406.79923149836
 31
0.0
  0
DIMENSION
  5
1417
  8
SP
  2
*D3
 10
22919.509220494441
 20
24439.414601982549
 30
0.0
 11
21694.509220494441
 21
24550.843173411118
 31
0.0
 70
     0
  1
(<>)
 13
20469.509220494441
 23
23046.084303287691
 33
0.0
 14
22919.509220494441
 24
23968.03879527784
 34
0.0
1001
ACAD
1000
DSTYLE
1002
{
1070
    40
1040
40.0
1002
}
  0
LINE
  5
1453
  8
FUTO
 10
17774.933775534249
 20
25642.29923149836
 30
0.0
 11
17774.933775534249
 21
25509.299231498371
 31
0.0
  0
LINE
  5
1454
  8
FUTO
 10
17730.933775534249
 20
26638.29923149836
 30
0.0
 11
17730.933775534249
 21
26515.299231498371
 31
0.0
  0
LINE
  5
1455
  8
FUTO
 10
17730.933775534249
 20
26515.299231498371
 30
0.0
 11
17748.933775534249
 21
26515.299231498371
 31
0.0
  0
LINE
  5
1456
  8
FUTO
 10
17748.933775534249
 20
26515.299231498371
 30
0.0
 11
17748.933775534249
 21
26498.299231498371
 31
0.0
  0
LINE
  5
1457
  8
FUTO
 10
17748.933775534249
 20
26655.29923149836
 30
0.0
 11
17748.933775534249
 21
26638.29923149836
 31
0.0
  0
LINE
  5
1458
  8
FUTO
 10
17748.933775534249
 20
26638.29923149836
 30
0.0
 11
17730.933775534249
 21
26638.29923149836
 31
0.0
  0
LINE
  5
1698
  8
FUTO
 10
20858.009220494449
 20
20736.084303287691
 30
0.0
 11
20858.009220494441
 21
20666.084303289561
 31
0.0
  0
LINE
  5
1699
  8
FUTO
 10
21558.009220494449
 20
20736.084303287691
 30
0.0
 11
21558.009220494441
 21
20666.084303289579
 31
0.0
  0
LINE
  5
169A
  8
FUTO
 10
21353.009220494441
 20
20736.084303287691
 30
0.0
 11
20858.009220494449
 21
20736.084303287691
 31
0.0
  0
LINE
  5
169B
  8
FUTO
 10
20858.009220494441
 20
20736.084303287691
 30
0.0
 11
21558.009220494449
 21
20736.084303287691
 31
0.0
  0
LINE
  5
16AB
  8
FUTO
 10
20794.509220494441
 20
21116.08430328768
 30
0.0
 11
20794.509220494441
 21
20916.084303287691
 31
0.0
  0
LINE
  5
16AC
  8
FUTO
 10
22028.509220494441
 20
21276.084303287691
 30
0.0
 11
22028.509220494441
 21
20797.935365205602
 31
0.0
  0
LINE
  5
16AD
  8
FUTO
 10
20814.509220494441
 20
21326.084303287691
 30
0.0
 11
20814.509220494441
 21
20749.857579815511
 31
0.0
  0
LINE
  5
16AE
  8
FUTO
 10
20893.509220494441
 20
21326.084303287691
 30
0.0
 11
20893.509220494441
 21
20749.857579815511
 31
0.0
  0
LINE
  5
16AF
  8
FUTO
 10
21778.509220494441
 20
21326.084303287691
 30
0.0
 11
21778.509220494441
 21
20747.935365205602
 31
0.0
  0
LINE
  5
16B0
  8
CT
 10
21208.009220494441
 20
21362.723671274329
 30
0.0
 11
21208.009220494441
 21
20644.135776270599
 31
0.0
  0
LINE
  5
16B1
  8
FUTO
 10
21353.009220494441
 20
20736.084303287691
 30
0.0
 11
21473.009220494441
 21
20736.084303287691
 31
0.0
  0
LINE
  5
16B2
  8
FUTO
 10
20943.009220494441
 20
20766.084303287691
 30
0.0
 11
21473.009220494441
 21
20766.084303287691
 31
0.0
  0
LINE
  5
16B3
  8
FUTO
 10
21778.509220494441
 20
20747.935365205602
 30
0.0
 11
21978.509220494441
 21
20747.935365205602
 31
0.0
  0
ARC
  5
16B4
  8
FUTO
 10
21978.509220494441
 20
20797.935365205602
 30
0.0
 40
50.0
 50
270.0
 51
0.0
  0
LINE
  5
16B5
  8
FUTO
 10
21473.009220494441
 20
20747.935365205602
 30
0.0
 11
21758.18400249628
 21
20747.935365205602
 31
0.0
  0
LINE
  5
16B6
  8
FUTO
 10
21778.509220494441
 20
20759.468652865049
 30
0.0
 11
21758.184002496291
 21
20747.935365205602
 31
0.0
  0
LINE
  5
16B7
  8
CT
 10
21436.509220494441
 20
20790.075055046629
 30
0.0
 11
21436.509220494441
 21
20719.602012964151
 31
0.0
  0
LINE
  5
16B8
  8
FUTO
 10
21473.009220494441
 20
20766.084303287691
 30
0.0
 11
21473.009220494441
 21
20736.084303287691
 31
0.0
  0
LINE
  5
16B9
  8
FUTO
 10
21353.009220494441
 20
20747.935365205602
 30
0.0
 11
21063.009220494441
 21
20747.935365205602
 31
0.0
  0
LINE
  5
16BA
  8
FUTO
 10
21353.009220494441
 20
20747.935365205602
 30
0.0
 11
21353.009220494441
 21
20736.08430328768
 31
0.0
  0
LINE
  5
16BB
  8
FUTO
 10
20943.009220494441
 20
20766.084303287691
 30
0.0
 11
20943.009220494441
 21
20736.084303287691
 31
0.0
  0
LINE
  5
16BC
  8
CT
 10
20979.509220494441
 20
20790.075055046629
 30
0.0
 11
20979.509220494441
 21
20719.602012964151
 31
0.0
  0
LINE
  5
16BD
  8
FUTO
 10
20943.009220494441
 20
20749.857579815511
 30
0.0
 11
20814.509220494441
 21
20749.857579815511
 31
0.0
  0
LINE
  5
16BE
  8
FUTO
 10
21063.009220494441
 20
20747.935365205602
 30
0.0
 11
21063.009220494441
 21
20736.084303287691
 31
0.0
  0
LINE
  5
16BF
  8
FUTO
 10
20943.009220494441
 20
20736.084303287691
 30
0.0
 11
21063.009220494441
 21
20736.084303287691
 31
0.0
  0
LINE
  5
16C0
  8
FUTO
 10
20814.509220494441
 20
20916.084303287691
 30
0.0
 11
20794.509220494441
 21
20916.084303287691
 31
0.0
  0
LINE
  5
16C1
  8
FUTO
 10
21757.114394328881
 20
21326.084303287691
 30
0.0
 11
20814.509220494441
 21
21326.084303287691
 31
0.0
  0
LINE
  5
16C2
  8
CT
 10
22065.151985958881
 20
21016.084303287691
 30
0.0
 11
20593.360389655048
 21
21016.084303287691
 31
0.0
  0
LINE
  5
16C3
  8
FUTO
 10
21978.509220494441
 20
21326.084303287691
 30
0.0
 11
21778.509220494441
 21
21326.084303287691
 31
0.0
  0
ARC
  5
16C4
  8
FUTO
 10
21978.509220494441
 20
21276.084303287691
 30
0.0
 40
50.0
 50
0.0
 51
90.0
  0
LINE
  5
16C5
  8
FUTO
 10
21778.509220494441
 20
21301.533172858941
 30
0.0
 11
21757.114394328881
 21
21326.084303287691
 31
0.0
  0
LINE
  5
16C6
  8
FUTO
 10
20794.509220494441
 20
21058.584303287691
 30
0.0
 11
20619.509220494441
 21
21058.584303287691
 31
0.0
  0
LINE
  5
16C7
  8
FUTO
 10
20794.509220494441
 20
20973.584303287691
 30
0.0
 11
20619.509220494441
 21
20973.584303287691
 31
0.0
  0
LINE
  5
16C8
  8
CT
 10
21003.509220494441
 20
21649.454017252181
 30
0.0
 11
21003.509220494441
 21
21250.594485696391
 31
0.0
  0
LINE
  5
16C9
  8
FUTO
 10
20814.509220494441
 20
21116.08430328768
 30
0.0
 11
20794.509220494441
 21
21116.08430328768
 31
0.0
  0
LINE
  5
16CA
  8
FUTO
 10
21103.509220494441
 20
21606.084303287691
 30
0.0
 11
20903.509220494441
 21
21606.084303287691
 31
0.0
  0
LINE
  5
16CB
  8
FUTO
 10
21103.509220494441
 20
21341.084303287691
 30
0.0
 11
20903.509220494441
 21
21341.084303287691
 31
0.0
  0
LINE
  5
16CC
  8
CT
 10
21167.375147680821
 20
21466.084303287691
 30
0.0
 11
20865.238958296311
 21
21466.084303287691
 31
0.0
  0
LINE
  5
16CD
  8
FUTO
 10
21123.509220494441
 20
21586.084303287691
 30
0.0
 11
21123.509220494441
 21
21361.084303287691
 31
0.0
  0
ARC
  5
16CE
  8
FUTO
 10
21103.509220494441
 20
21361.084303287691
 30
0.0
 40
20.0
 50
270.0
 51
0.0
  0
ARC
  5
16CF
  8
FUTO
 10
21103.509220494441
 20
21586.084303287691
 30
0.0
 40
20.0
 50
0.0
 51
90.0
  0
LINE
  5
16D0
  8
FUTO
 10
20883.509220494441
 20
21586.084303287691
 30
0.0
 11
20883.509220494441
 21
21361.084303287691
 31
0.0
  0
ARC
  5
16D1
  8
FUTO
 10
20903.509220494441
 20
21361.084303287691
 30
0.0
 40
20.0
 50
180.0
 51
270.0
  0
ARC
  5
16D2
  8
FUTO
 10
20903.509220494441
 20
21586.084303287691
 30
0.0
 40
20.0
 50
90.0
 51
180.0
  0
LINE
  5
16D3
  8
FUTO
 10
20789.509220494441
 20
21058.584303287691
 30
0.0
 11
20789.509220494441
 21
20973.584303287691
 31
0.0
  0
LINE
  5
16D4
  8
FUTO
 10
20619.509220494441
 20
21058.584303287691
 30
0.0
 11
20619.509220494441
 21
20973.584303287691
 31
0.0
  0
LINE
  5
17EE
  8
FUTO
 10
19068.9337755343
 20
26374.404405332811
 30
0.0
 11
19068.93377553426
 21
25431.799231498379
 31
0.0
  0
LINE
  5
17EF
  8
CT
 10
19378.933775534311
 20
26682.4419969628
 30
0.0
 11
19378.933775534249
 21
25210.650400658978
 31
0.0
  0
LINE
  5
17F0
  8
FUTO
 10
19688.9337755343
 20
26374.404405332782
 30
0.0
 11
19688.93377553426
 21
25431.79923149836
 31
0.0
  0
LINE
  5
17F1
  8
FUTO
 10
19168.933775534271
 20
25500.799231498379
 30
0.0
 11
19558.933775534271
 21
25500.79923149836
 31
0.0
  0
LINE
  5
17F2
  8
CT
 10
19587.246634911578
 20
25620.79923149836
 30
0.0
 11
19124.263995897061
 21
25620.799231498379
 31
0.0
  0
LINE
  5
17F3
  8
CT
 10
19725.573143520909
 20
25825.299231498349
 30
0.0
 11
19006.98524851719
 21
25825.299231498379
 31
0.0
  0
LINE
  5
17F4
  8
FUTO
 10
19688.93377553426
 20
25431.79923149836
 30
0.0
 11
19068.93377553426
 21
25431.799231498379
 31
0.0
  0
LINE
  5
17F5
  8
FUTO
 10
19478.93377553426
 20
25411.799231498371
 30
0.0
 11
19278.93377553426
 21
25411.799231498371
 31
0.0
  0
LINE
  5
17F6
  8
FUTO
 10
19168.933775534279
 20
25740.799231498379
 30
0.0
 11
19558.933775534279
 21
25740.79923149836
 31
0.0
  0
LINE
  5
17F7
  8
FUTO
 10
19748.278164377181
 20
25475.299231498349
 30
0.0
 11
19748.2781643772
 21
26175.299231498349
 31
0.0
  0
LINE
  5
17F8
  8
FUTO
 10
19578.933775534271
 20
25720.79923149836
 30
0.0
 11
19578.933775534271
 21
25620.79923149836
 31
0.0
  0
LINE
  5
17F9
  8
CT
 10
19378.933775534169
 20
25065.348275328281
 30
0.0
 11
19378.933775534759
 21
26323.754671444462
 31
0.0
  0
LINE
  5
17FA
  8
FUTO
 10
19688.933775534271
 20
25475.299231498349
 30
0.0
 11
19748.278164377181
 21
25475.299231498349
 31
0.0
  0
LINE
  5
17FE
  8
FUTO
 10
19336.43377553426
 20
25411.799231498371
 30
0.0
 11
19336.433775534249
 21
25236.799231498371
 31
0.0
  0
LINE
  5
17FF
  8
FUTO
 10
19421.43377553426
 20
25411.799231498371
 30
0.0
 11
19421.433775534249
 21
25236.799231498371
 31
0.0
  0
LINE
  5
1802
  8
FUTO
 10
19421.433775534249
 20
25236.799231498371
 30
0.0
 11
19336.433775534249
 21
25236.799231498371
 31
0.0
  0
ARC
  5
1804
  8
FUTO
 10
19558.933775534271
 20
25520.79923149836
 30
0.0
 40
20.0
 50
270.0
 51
0.000000000000007
  0
LINE
  5
1805
  8
FUTO
 10
19578.933775534271
 20
25520.79923149836
 30
0.0
 11
19578.933775534271
 21
25620.79923149836
 31
0.0
  0
LINE
  5
1806
  8
FUTO
 10
19688.933775534271
 20
25510.799231498349
 30
0.0
 11
19576.25428360996
 21
25510.79923149836
 31
0.0
  0
LINE
  5
1807
  8
FUTO
 10
19421.43377553426
 20
25406.799231498371
 30
0.0
 11
19336.43377553426
 21
25406.799231498371
 31
0.0
  0
LINE
  5
1808
  8
FUTO
 10
19478.93377553426
 20
25431.799231498371
 30
0.0
 11
19478.93377553426
 21
25411.799231498371
 31
0.0
  0
LINE
  5
1809
  8
FUTO
 10
19688.933775534289
 20
26175.299231498349
 30
0.0
 11
19748.2781643772
 21
26175.299231498349
 31
0.0
  0
ARC
  5
180A
  8
FUTO
 10
19558.933775534279
 20
25720.79923149836
 30
0.0
 40
20.0
 50
0.000000000000007
 51
90.0
  0
LINE
  5
180B
  8
FUTO
 10
19009.589386691361
 20
25475.299231498379
 30
0.0
 11
19009.589386691379
 21
26175.299231498379
 31
0.0
  0
LINE
  5
180C
  8
FUTO
 10
19148.933775534271
 20
25720.799231498371
 30
0.0
 11
19148.93377553426
 21
25620.799231498379
 31
0.0
  0
LINE
  5
180F
  8
FUTO
 10
19151.613267458579
 20
25510.799231498379
 30
0.0
 11
19068.933775534271
 21
25510.799231498379
 31
0.0
  0
LINE
  5
1810
  8
CT
 10
19104.36222058006
 20
25596.799231498379
 30
0.0
 11
19033.889178497589
 21
25596.799231498379
 31
0.0
  0
ARC
  5
1811
  8
FUTO
 10
19168.933775534271
 20
25520.799231498371
 30
0.0
 40
20.0
 50
180.0
 51
270.0
  0
LINE
  5
1812
  8
FUTO
 10
19148.933775534271
 20
25520.799231498371
 30
0.0
 11
19148.93377553426
 21
25620.799231498379
 31
0.0
  0
LINE
  5
1813
  8
FUTO
 10
19278.93377553426
 20
25431.799231498371
 30
0.0
 11
19278.93377553426
 21
25411.799231498371
 31
0.0
  0
LINE
  5
1814
  8
FUTO
 10
19068.933775534271
 20
25475.299231498379
 30
0.0
 11
19009.589386691361
 21
25475.299231498379
 31
0.0
  0
ARC
  5
1815
  8
FUTO
 10
19168.933775534279
 20
25720.799231498371
 30
0.0
 40
20.0
 50
90.0
 51
180.0
  0
LINE
  5
1816
  8
CT
 10
19104.362220580078
 20
26053.799231498379
 30
0.0
 11
19033.889178497611
 21
26053.799231498379
 31
0.0
  0
LINE
  5
1817
  8
FUTO
 10
19068.933775534289
 20
26175.299231498379
 30
0.0
 11
19009.589386691379
 21
26175.299231498379
 31
0.0
  0
LINE
  5
181A
  8
FUTO
 10
19688.9337755343
 20
26395.799231498349
 30
0.0
 11
19068.9337755343
 21
26395.799231498379
 31
0.0
  0
LINE
  5
181B
  8
FUTO
 10
19638.933775534311
 20
26645.79923149836
 30
0.0
 11
19118.933775534311
 21
26645.799231498379
 31
0.0
  0
LINE
  5
181F
  8
FUTO
 10
19664.38264510555
 20
26395.79923149836
 30
0.0
 11
19688.9337755343
 21
26374.404405332782
 31
0.0
  0
ARC
  5
1820
  8
FUTO
 10
19638.9337755343
 20
26595.79923149836
 30
0.0
 40
50.0
 50
0.000000000000007
 51
90.0
  0
LINE
  5
1821
  8
FUTO
 10
19688.9337755343
 20
26595.799231498349
 30
0.0
 11
19688.9337755343
 21
26395.799231498349
 31
0.0
  0
ARC
  5
1824
  8
FUTO
 10
19118.9337755343
 20
26595.799231498371
 30
0.0
 40
50.0
 50
90.0
 51
180.0
  0
LINE
  5
1825
  8
FUTO
 10
19093.484905963051
 20
26395.799231498379
 30
0.0
 11
19068.9337755343
 21
26374.404405332811
 31
0.0
  0
LINE
  5
1826
  8
FUTO
 10
19068.9337755343
 20
26595.799231498379
 30
0.0
 11
19068.9337755343
 21
26395.799231498379
 31
0.0
  0
LINE
  5
1827
  8
FUTO
 10
19818.933775534249
 20
25500.79923149836
 30
0.0
 11
19818.933775534249
 21
25425.79923149836
 31
0.0
  0
LINE
  5
1828
  8
FUTO
 10
19642.813689979092
 20
26797.799231498371
 30
0.0
 11
19642.813689979092
 21
26645.648466837541
 31
0.0
  0
LINE
  5
1829
  8
FUTO
 10
19115.053861089589
 20
26797.79923149848
 30
0.0
 11
19115.053861089531
 21
26645.648466837662
 31
0.0
  0
LINE
  5
182A
  8
FUTO
 10
19190.053861089589
 20
26797.799231498451
 30
0.0
 11
19190.05386108952
 21
26645.799231498451
 31
0.0
  0
LINE
  5
182B
  8
SL
 10
19578.933775534249
 20
25236.799231498371
 30
0.0
 11
19578.933775534249
 21
25406.79923149836
 31
0.0
  0
LINE
  5
182D
  8
FUTO
 10
19658.933775534249
 20
25086.79923149836
 30
0.0
 11
19658.933775534249
 21
25436.79923149836
 31
0.0
  0
LINE
  5
182F
  8
FUTO
 10
17536.88534971021
 20
25500.79923149836
 30
0.0
 11
17536.88534971021
 21
26822.79923149836
 31
0.0
  0
LINE
  5
1830
  8
FUTO
 10
18220.9822013583
 20
25500.79923149836
 30
0.0
 11
18220.9822013583
 21
26822.79923149836
 31
0.0
  0
LINE
  5
1832
  8
FUTO
 10
18843.933775534249
 20
28331.79923149836
 30
0.0
 11
16913.933775534249
 21
28331.79923149836
 31
0.0
  0
LINE
  5
1833
  8
FUTO
 10
18843.933775534249
 20
28325.79923149836
 30
0.0
 11
16913.933775534249
 21
28325.79923149836
 31
0.0
  0
LINE
  5
1834
  8
KL
 10
18843.933775534249
 20
28205.999231498361
 30
0.0
 11
16913.933775534249
 21
28205.999231498368
 31
0.0
  0
LINE
  5
1839
  8
KL
 10
16978.933775534249
 20
28199.999231498368
 30
0.0
 11
16978.933775534249
 21
28331.79923149836
 31
0.0
  0
LINE
  5
183A
  8
KL
 10
16972.933775534249
 20
28199.999231498368
 30
0.0
 11
16972.933775534249
 21
28289.999231498368
 31
0.0
  0
LINE
  5
183B
  8
KL
 10
16913.933775534249
 20
28199.999231498368
 30
0.0
 11
16913.933775534249
 21
28205.999231498368
 31
0.0
  0
LINE
  5
183C
  8
HOSO
 10
16938.933775534249
 20
28157.46522188744
 30
0.0
 11
16938.933775534249
 21
28231.57283703571
 31
0.0
  0
LINE
  5
183D
  8
HOSO
 10
16938.933775534249
 20
28298.31668531234
 30
0.0
 11
16938.933775534249
 21
28372.4243004606
 31
0.0
  0
LINE
  5
183E
  8
FUTO
 10
16913.933775534249
 20
28325.79923149836
 30
0.0
 11
16913.933775534249
 21
28331.79923149836
 31
0.0
  0
LINE
  5
183F
  8
FUTO
 10
16972.933775534249
 20
28289.999231498368
 30
0.0
 11
16972.933775534249
 21
28331.79923149836
 31
0.0
  0
INSERT
  5
185B
  8
FUTO
  2
まっすぐの矢印
 10
18364.48007838336
 20
28527.27238406887
 30
0.0
 41
-2.0
 42
2.0
 43
2.0
 50
180.0
  0
LINE
  5
185D
  8
KL
 10
18778.933775534249
 20
28199.999231498368
 30
0.0
 11
18778.933775534249
 21
28331.79923149836
 31
0.0
  0
LINE
  5
185E
  8
FUTO
 10
18784.933775534249
 20
28264.999231498368
 30
0.0
 11
18784.933775534249
 21
28331.79923149836
 31
0.0
  0
LINE
  5
185F
  8
KL
 10
18784.933775534249
 20
28199.999231498368
 30
0.0
 11
18784.933775534249
 21
28264.999231498368
 31
0.0
  0
LINE
  5
1860
  8
KL
 10
18843.933775534249
 20
28205.999231498361
 30
0.0
 11
18843.933775534249
 21
28199.999231498368
 31
0.0
  0
LINE
  5
1861
  8
HOSO
 10
18818.933775534249
 20
28171.061261690371
 30
0.0
 11
18818.933775534249
 21
28230.891610520441
 31
0.0
  0
LINE
  5
1862
  8
HOSO
 10
18818.933775534249
 20
28299.131454938681
 30
0.0
 11
18818.933775534249
 21
28358.961803768761
 31
0.0
  0
LINE
  5
1863
  8
FUTO
 10
18843.933775534249
 20
28325.79923149836
 30
0.0
 11
18843.933775534249
 21
28331.79923149836
 31
0.0
  0
LINE
  5
188F
  8
FUTO
 10
17400.099877195338
 20
22701.148472747002
 30
0.0
 11
16740.211467825789
 21
22759.707589263078
 31
0.0
  0
LINE
  5
1890
  8
FUTO
 10
17401.690260699161
 20
22719.078076209171
 30
0.0
 11
16737.801807122731
 21
22777.992002821
 31
0.0
  0
LINE
  5
1891
  8
KL
 10
18689.816464797281
 20
22676.71050328769
 30
0.0
 11
18078.933775534249
 21
22676.71050328769
 31
0.0
  0
LINE
  5
1892
  8
KL
 10
18714.905975838388
 20
22658.71050328769
 30
0.0
 11
18078.933775534249
 21
22658.710503287679
 31
0.0
  0
LINE
  5
1893
  8
KL
 10
18928.933775534249
 20
21719.337664478571
 30
0.0
 11
18928.933775534249
 21
21050.958988337388
 31
0.0
  0
LINE
  5
1894
  8
KL
 10
18919.933775534249
 20
21723.021054459241
 30
0.0
 11
18919.933775534249
 21
21059.229277108159
 31
0.0
  0
LINE
  5
1895
  8
FUTO
 10
18937.933775534249
 20
22658.710503287679
 30
0.0
 11
18937.933775534249
 21
22064.112397506491
 31
0.0
  0
LINE
  5
1896
  8
FUTO
 10
18928.933775534249
 20
22505.16026517373
 30
0.0
 11
18928.933775534249
 21
22087.888562046399
 31
0.0
  0
LINE
  5
1897
  8
FUTO
 10
18919.933775534249
 20
22511.617146686269
 30
0.0
 11
18919.933775534249
 21
22087.888562046399
 31
0.0
  0
DIMENSION
  5
1909
  8
SP
  2
*D4
 10
16713.933775534249
 20
28789.673162981311
 30
0.0
 11
17296.433775534249
 21
28869.673162981311
 31
0.0
 70
     0
 13
17878.933775534249
 23
28530.794534670589
 33
0.0
 14
16713.933775534249
 24
28265.79923149836
 34
0.0
 50
180.0
1001
ACAD
1000
DSTYLE
1002
{
1070
    40
1040
40.0
1002
}
  0
DIMENSION
  5
1916
  8
SP
  2
*D5
 10
19818.933775534249
 20
28789.673162981311
 30
0.0
 11
18848.933775534249
 21
28869.673162981311
 31
0.0
 70
     0
 13
17878.933775534249
 23
28789.673162981311
 33
0.0
 14
19818.933775534249
 24
26872.79923149836
 34
0.0
 50
180.0
1001
ACAD
1000
DSTYLE
1002
{
1070
    40
1040
40.0
1002
}
  0
DIMENSION
  5
1923
  8
SP
  2
*D6
 10
16293.94751004414
 20
27536.79923149836
 30
0.0
 11
16213.94751004413
 21
27934.299231498371
 31
0.0
 70
     0
 13
16913.933775534249
 23
28331.79923149836
 33
0.0
 14
16226.69933182533
 24
27536.79923149836
 34
0.0
 50
90.0
1001
ACAD
1000
DSTYLE
1002
{
1070
    40
1040
40.0
1002
}
  0
DIMENSION
  5
1930
  8
SP
  2
*D7
 10
16293.94751004414
 20
25086.79923149836
 30
0.0
 11
16213.94751004413
 21
26311.79923149836
 31
0.0
 70
     0
 13
16293.94751004414
 23
27536.79923149836
 33
0.0
 14
17498.933775534249
 24
25086.79923149836
 34
0.0
 50
90.0
1001
ACAD
1000
DSTYLE
1002
{
1070
    40
1040
40.0
1002
}
  0
LINE
  5
19B8
  8
KL
 10
20868.509220494441
 20
21326.084303287691
 30
0.0
 11
20868.509220494441
 21
20667.710486681699
 31
0.0
  0
LINE
  5
1A4E
  8
FUTO
 10
17178.933775534249
 20
20681.875397826101
 30
0.0
 11
17502.99797521035
 21
22369.260718508362
 31
0.0
  0
LINE
  5
1A4F
  8
SL
 10
19535.91528272046
 20
21141.633085578182
 30
0.0
 11
18157.575950789778
 21
22887.67308685332
 31
0.0
  0
LINE
  5
1A50
  8
SL
 10
19240.655134109729
 20
20873.214768659342
 30
0.0
 11
17633.489187005722
 21
22411.230574322359
 31
0.0
  0
LINE
  5
1A51
  8
FUTO
 10
19602.17490835084
 20
21186.717593727011
 30
0.0
 11
18261.63286036269
 21
22957.436944040819
 31
0.0
  0
LINE
  5
1A52
  8
FUTO
 10
19189.478464738779
 20
20811.539008625128
 30
0.0
 11
17554.15324274201
 21
22314.273655294739
 31
0.0
  0
LINE
  5
1A53
  8
KL
 10
18937.933775534249
 20
22064.112397506491
 30
0.0
 11
18937.933775534249
 21
21338.14788728585
 31
0.0
  0
LINE
  5
1A54
  8
KL
 10
18928.933775534249
 20
22087.888562046399
 30
0.0
 11
18928.933775534249
 21
21719.337664478571
 31
0.0
  0
LINE
  5
1A55
  8
KL
 10
18919.933775534249
 20
22087.888562046399
 30
0.0
 11
18919.933775534249
 21
21723.021054459241
 31
0.0
  0
LINE
  5
1A56
  8
FUTO
 10
18578.933775534249
 20
20681.875397826101
 30
0.0
 11
18417.855968654891
 21
21520.599104695269
 31
0.0
  0
LINE
  5
1A57
  8
KL
 10
17502.99797521035
 20
22369.260718508362
 30
0.0
 11
17536.88534971021
 21
22545.71050328769
 31
0.0
  0
LINE
  5
1A58
  8
KL
 10
18417.855968654891
 20
21520.599104695269
 30
0.0
 11
18220.9822013583
 21
22545.71050328769
 31
0.0
  0
LINE
  5
1A59
  8
FUTO
 10
18928.933775534249
 20
21050.958988337388
 30
0.0
 11
18928.933775534249
 21
20667.71050328769
 31
0.0
  0
LINE
  5
1A5A
  8
FUTO
 10
18919.933775534249
 20
21059.229277108159
 30
0.0
 11
18919.933775534249
 21
20667.71050328769
 31
0.0
  0
ARC
  5
1A5B
  8
FUTO
 10
17747.933775534249
 20
22536.710503287679
 30
0.0
 40
1705.0
 50
330.03011408362448
 51
4.103263208912229
  0
LINE
  5
1A65
  8
FUTO
 10
22256.309220494451
 20
20745.084303287691
 30
0.0
 11
23582.709220494438
 21
20745.084303287691
 31
0.0
  0
LINE
  5
1A66
  8
FUTO
 10
22196.309220494441
 20
20685.084303287691
 30
0.0
 11
23642.709220494449
 21
20685.084303287691
 31
0.0
  0
LINE
  5
1A67
  8
FUTO
 10
22259.509220494441
 20
20766.084303287691
 30
0.0
 11
22259.509220494441
 21
20745.084303287691
 31
0.0
  0
LINE
  5
1A68
  8
FUTO
 10
22256.309220494451
 20
20766.084303287691
 30
0.0
 11
22256.309220494451
 21
20745.084303287691
 31
0.0
  0
LINE
  5
1A6A
  8
KL
 10
22196.309220494441
 20
20805.729599619579
 30
0.0
 11
22196.309220494441
 21
20685.084303287691
 31
0.0
  0
LINE
  5
1A6B
  8
FUTO
 10
23582.709220494438
 20
20766.084303287691
 30
0.0
 11
23582.709220494438
 21
20745.084303287691
 31
0.0
  0
LINE
  5
1A6C
  8
FUTO
 10
23579.509220494441
 20
20766.084303287691
 30
0.0
 11
23579.509220494441
 21
20745.084303287691
 31
0.0
  0
LINE
  5
1A6E
  8
KL
 10
23642.709220494449
 20
20805.729599619572
 30
0.0
 11
23642.709220494449
 21
20685.084303287691
 31
0.0
  0
LINE
  5
1A6F
  8
FUTO
 10
22191.309220494441
 20
23952.905687944109
 30
0.0
 11
23647.709220494879
 21
23952.905687944109
 31
0.0
  0
DIMENSION
  5
1A8F
  8
SP
  2
*D16
 10
16169.524686328659
 20
22667.71050328769
 30
0.0
 11
16089.524686328659
 21
21592.71050328769
 31
0.0
 70
     0
 13
16818.933775534249
 23
20517.71050328769
 33
0.0
 14
16333.579776490151
 24
22667.71050328769
 34
0.0
 50
90.0
1001
ACAD
1000
DSTYLE
1002
{
1070
    40
1040
40.0
1002
}
  0
LINE
  5
1AA5
  8
CT
 10
17771.122071771031
 20
23959.71050328769
 30
0.0
 11
17878.933775534249
 21
23959.71050328769
 31
0.0
  0
DIMENSION
  5
1AA6
  8
SP
  2
*D17
 10
16169.524686328659
 20
22667.71050328769
 30
0.0
 11
16089.524686328659
 21
23313.71050328769
 31
0.0
 70
     0
 13
17771.122071771031
 23
23959.71050328769
 33
0.0
 14
16333.579776490151
 24
22667.71050328769
 34
0.0
 50
90.0
1001
ACAD
1000
DSTYLE
1002
{
1070
    40
1040
40.0
1002
}
  0
TEXT
  5
215E
  8
SP
 10
40113.841066190696
 20
28068.316299322931
 30
0.0
 40
100.0
  1
 
  0
LINE
  5
215F
  8
4
 10
24495.147916710808
 20
18494.2960849843
 30
0.0
 11
24495.147916710808
 21
17294.2960849843
 31
0.0
  0
LINE
  5
2160
  8
4
 10
20295.147916710808
 20
18494.2960849843
 30
0.0
 11
20295.147916710801
 21
17294.2960849843
 31
0.0
  0
LINE
  5
2161
  8
4
 10
17295.147916710808
 20
18494.2960849843
 30
0.0
 11
17295.147916710808
 21
17294.2960849843
 31
0.0
  0
LINE
  5
2164
  8
4
 10
17295.147916710808
 20
17294.2960849843
 30
0.0
 11
24495.147916710808
 21
17294.2960849843
 31
0.0
  0
LINE
  5
2165
  8
4
 10
17295.147916710808
 20
17894.2960849843
 30
0.0
 11
24495.147916710808
 21
17894.2960849843
 31
0.0
  0
TEXT
  5
2166
  8
4
 10
17526.160401792229
 20
18083.554240183981
 30
0.0
 40
300.0
  1
機器名称
  0
TEXT
  5
2167
  8
4
 10
17512.69655285959
 20
17424.16702537637
 30
0.0
 40
300.0
  1
機器型番
  0
TEXT
  5
2168
  8
4
 10
20323.906286917059
 20
18027.419899125991
 30
0.0
 40
270.0
  1
ミツヤリミットロードファン
  0
TEXT
  5
2169
  8
4
 10
20515.074890223699
 20
17397.25359066396
 30
0.0
 40
300.0
  1
LL#11-1
  0
TEXT
  5
216B
  8
4
 10
15292.15347668749
 20
30697.581942180092
 30
0.0
 40
432.0
  1
遠心式片吸込片持リミットロードファン
  0
LINE
  5
216C
  8
4
 10
14895.14791671081
 20
30310.74861057313
 30
0.0
 11
24495.147916710808
 21
30310.74861057313
 31
0.0
  0
LINE
  5
216D
  8
4
 10
14895.14791671081
 20
31510.74861057313
 30
0.0
 11
24495.147916710808
 21
31510.74861057313
 31
0.0
  0
LINE
  5
216E
  8
4
 10
17295.147916710808
 20
18494.2960849843
 30
0.0
 11
24495.147916710808
 21
18494.2960849843
 31
0.0
  0
LINE
  5
216F
  8
4
 10
14895.14791671081
 20
31510.74861057313
 30
0.0
 11
14895.14791671081
 21
30310.74861057313
 31
0.0
  0
TEXT
  5
2170
  8
4
 10
15430.18901361725
 20
29788.212950262368
 30
0.0
 40
323.99999999999989
  1
右回転左横向
  0
TEXT
  5
2171
  8
4
 10
22208.965272206551
 20
31730.66257395616
 30
0.0
 40
336.00000000000011
  1
No.
  0
TEXT
  5
2172
  8
4
 10
22173.294375432652
 20
28935.6989634987
 30
0.0
 40
323.99999999999989
  1
縮尺：1/60
  0
LINE
  5
2173
  8
4
 10
24495.147916710808
 20
31510.74861057313
 30
0.0
 11
24495.147916710808
 21
30310.74861057313
 31
0.0
  0
LINE
  5
2174
  8
4
 10
25995.147916710808
 20
33194.2960849843
 30
0.0
 11
25995.147916710808
 21
33194.2960849843
 31
0.0
  0
LINE
  5
2175
  8
4
 10
22038.852450869999
 20
31581.87758373671
 30
0.0
 11
22038.852450869999
 21
32214.209654282819
 31
0.0
  0
LINE
  5
2176
  8
4
 10
22038.852450869999
 20
32214.209654282819
 30
0.0
 11
24495.147916710808
 21
32214.209654282819
 31
0.0
  0
LINE
  5
2177
  8
4
 10
24495.147916710808
 20
32214.209654282819
 30
0.0
 11
24495.147916710808
 21
31581.87758373671
 31
0.0
  0
LINE
  5
2178
  8
4
 10
24495.147916710808
 20
31581.87758373671
 30
0.0
 11
22038.852450869999
 21
31581.87758373671
 31
0.0
  0
LINE
  5
2179
  8
4
 10
13395.14791671081
 20
15494.2960849843
 30
0.0
 11
13395.14791671081
 21
33194.2960849843
 31
0.0
  0
LINE
  5
217A
  8
4
 10
13395.14791671081
 20
33194.2960849843
 30
0.0
 11
25995.147916710808
 21
33194.2960849843
 31
0.0
  0
LINE
  5
217B
  8
4
 10
25995.147916710808
 20
33194.2960849843
 30
0.0
 11
25995.147916710808
 21
15494.2960849843
 31
0.0
  0
LINE
  5
217C
  8
4
 10
25995.147916710808
 20
15494.2960849843
 30
0.0
 11
13395.14791671081
 21
15494.2960849843
 31
0.0
  0
TEXT
  5
217D
  8
4
 10
18506.924800803961
 20
29788.282874910739
 30
0.0
 40
323.99999999999989
  1
床置ベット
  0
ENDSEC
  0
EOF
