  0
SECTION
  2
HEADER
  9
$ACADVER
  1
AC1009
  9
$INSBASE
 10
0.0
 20
0.0
 30
0.0
  9
$EXTMIN
 10
14443.524277917641
 20
14264.31134830355
 30
0.0
  9
$EXTMAX
 10
27043.524277917651
 20
31964.311348303559
 30
0.0
  9
$LIMMIN
 10
0.0
 20
0.0
  9
$LIMMAX
 10
297.0
 20
210.0
  9
$ORTHOMODE
 70
     0
  9
$REGENMODE
 70
     1
  9
$FILLMODE
 70
     1
  9
$QTEXTMODE
 70
     0
  9
$MIRRTEXT
 70
     0
  9
$DRAGMODE
 70
     2
  9
$LTSCALE
 40
200.0
  9
$OSMODE
 70
    37
  9
$ATTMODE
 70
     1
  9
$TEXTSIZE
 40
150.0
  9
$TRACEWID
 40
0.05
  9
$TEXTSTYLE
  7
STANDARD
  9
$CLAYER
  8
FUTO
  9
$CELTYPE
  6
BYLAYER
  9
$CECOLOR
 62
   256
  9
$DIMSCALE
 40
40.0
  9
$DIMASZ
 40
2.0
  9
$DIMEXO
 40
1.0
  9
$DIMDLI
 40
10.0
  9
$DIMRND
 40
0.0
  9
$DIMDLE
 40
0.0
  9
$DIMEXE
 40
1.0
  9
$DIMTP
 40
0.0
  9
$DIMTM
 40
0.0
  9
$DIMTXT
 40
3.0
  9
$DIMCEN
 40
0.0
  9
$DIMTSZ
 40
0.0
  9
$DIMTOL
 70
     0
  9
$DIMLIM
 70
     0
  9
$DIMTIH
 70
     0
  9
$DIMTOH
 70
     0
  9
$DIMSE1
 70
     0
  9
$DIMSE2
 70
     0
  9
$DIMTAD
 70
     1
  9
$DIMZIN
 70
     8
  9
$DIMBLK
  1

  9
$DIMASO
 70
     1
  9
$DIMSHO
 70
     1
  9
$DIMPOST
  1

  9
$DIMAPOST
  1

  9
$DIMALT
 70
     0
  9
$DIMALTD
 70
     2
  9
$DIMALTF
 40
0.03937
  9
$DIMLFAC
 40
1.0
  9
$DIMTOFL
 70
     1
  9
$DIMTVP
 40
0.0
  9
$DIMTIX
 70
     0
  9
$DIMSOXD
 70
     0
  9
$DIMSAH
 70
     1
  9
$DIMBLK1
  1
OPEN
  9
$DIMBLK2
  1
OPEN
  9
$DIMSTYLE
  2
MATSU
  9
$DIMCLRD
 70
   256
  9
$DIMCLRE
 70
   256
  9
$DIMCLRT
 70
   256
  9
$DIMTFAC
 40
1.0
  9
$DIMGAP
 40
0.5
  9
$LUNITS
 70
     2
  9
$LUPREC
 70
     3
  9
$SKETCHINC
 40
0.1
  9
$FILLETRAD
 40
7.0
  9
$AUNITS
 70
     0
  9
$AUPREC
 70
     2
  9
$MENU
  1
acad
  9
$ELEVATION
 40
0.0
  9
$PELEVATION
 40
0.0
  9
$THICKNESS
 40
0.0
  9
$LIMCHECK
 70
     0
  9
$BLIPMODE
 70
     0
  9
$CHAMFERA
 40
0.0
  9
$CHAMFERB
 40
0.0
  9
$SKPOLY
 70
     0
  9
$TDCREATE
 40
2451593.4082031241
  9
$TDUPDATE
 40
2454953.650398761
  9
$TDINDWG
 40
0.5697778819
  9
$TDUSRTIMER
 40
0.5697778819
  9
$USRTIMER
 70
     1
  9
$ANGBASE
 50
0.0
  9
$ANGDIR
 70
     0
  9
$PDMODE
 70
     0
  9
$PDSIZE
 40
1.0
  9
$PLINEWID
 40
0.0
  9
$COORDS
 70
     1
  9
$SPLFRAME
 70
     0
  9
$SPLINETYPE
 70
     6
  9
$SPLINESEGS
 70
     8
  9
$ATTDIA
 70
     0
  9
$ATTREQ
 70
     1
  9
$HANDLING
 70
 10241
  9
$HANDSEED
  5
2559
  9
$SURFTAB1
 70
     6
  9
$SURFTAB2
 70
     6
  9
$SURFTYPE
 70
     6
  9
$SURFU
 70
     6
  9
$SURFV
 70
     6
  9
$UCSNAME
  2

  9
$UCSORG
 10
0.0
 20
0.0
 30
0.0
  9
$UCSXDIR
 10
1.0
 20
0.0
 30
0.0
  9
$UCSYDIR
 10
0.0
 20
1.0
 30
0.0
  9
$PUCSNAME
  2

  9
$PUCSORG
 10
0.0
 20
0.0
 30
0.0
  9
$PUCSXDIR
 10
1.0
 20
0.0
 30
0.0
  9
$PUCSYDIR
 10
0.0
 20
1.0
 30
0.0
  9
$USERI1
 70
     0
  9
$USERI2
 70
     0
  9
$USERI3
 70
     0
  9
$USERI4
 70
     0
  9
$USERI5
 70
     0
  9
$USERR1
 40
0.0
  9
$USERR2
 40
0.0
  9
$USERR3
 40
0.0
  9
$USERR4
 40
0.0
  9
$USERR5
 40
0.0
  9
$WORLDVIEW
 70
     1
  9
$SHADEDGE
 70
     3
  9
$SHADEDIF
 70
    70
  9
$TILEMODE
 70
     1
  9
$MAXACTVP
 70
    16
  9
$PLIMCHECK
 70
     0
  9
$PEXTMIN
 10
1.0000000000000000E+020
 20
1.0000000000000000E+020
 30
1.0000000000000000E+020
  9
$PEXTMAX
 10
-1.0000000000000000E+020
 20
-1.0000000000000000E+020
 30
-1.0000000000000000E+020
  9
$PLIMMIN
 10
0.0
 20
0.0
  9
$PLIMMAX
 10
12.0
 20
9.0
  9
$UNITMODE
 70
     0
  9
$VISRETAIN
 70
     0
  9
$PLINEGEN
 70
     0
  9
$PSLTSCALE
 70
     0
  0
ENDSEC
  0
SECTION
  2
TABLES
  0
TABLE
  2
VPORT
 70
     2
  0
VPORT
  2
*ACTIVE
 70
     0
 10
0.0
 20
0.0
 11
1.0
 21
1.0
 12
26291.792132652328
 22
16341.50983577138
 13
0.0
 23
0.0
 14
5.0
 24
5.0
 15
0.0
 25
0.0
 16
0.0
 26
0.0
 36
1.0
 17
0.0
 27
0.0
 37
0.0
 40
5311.0132246123376
 41
3.1666666666666661
 42
50.0
 43
0.0
 44
0.0
 50
0.0
 51
0.0
 71
     0
 72
   100
 73
     1
 74
     0
 75
     0
 76
     0
 77
     0
 78
     0
  0
ENDTAB
  0
TABLE
  2
LTYPE
 70
     4
  0
LTYPE
  2
CONTINUOUS
 70
     0
  3
Solid line
 72
    65
 73
     0
 40
0.0
  0
LTYPE
  2
CENTER
 70
     0
  3
____ _ ____ _ ____ _ ____ _ ____ _ ____ _ ____ 
 72
    65
 73
     4
 40
2.0
 49
1.25
 49
-0.25
 49
0.25
 49
-0.25
  0
LTYPE
  2
HIDDEN
 70
     0
  3
__ __ __ __ __ __ __ __ __ __ __ __ __ __ __ __
 72
    65
 73
     2
 40
0.375
 49
0.25
 49
-0.125
  0
LTYPE
  2
PHANTOM
 70
     0
  3
______  __  __  ______  __  __  ______  __  __ 
 72
    65
 73
     6
 40
2.5
 49
1.25
 49
-0.25
 49
0.25
 49
-0.25
 49
0.25
 49
-0.25
  0
ENDTAB
  0
TABLE
  2
LAYER
 70
    10
  0
LAYER
  2
0
 70
     0
 62
     7
  6
CONTINUOUS
  0
LAYER
  2
CT
 70
     0
 62
     3
  6
CENTER
  0
LAYER
  2
FUTO
 70
     0
 62
     4
  6
CONTINUOUS
  0
LAYER
  2
HOSO
 70
     0
 62
     7
  6
CONTINUOUS
  0
LAYER
  2
KL
 70
     0
 62
     7
  6
HIDDEN
  0
LAYER
  2
SL
 70
     0
 62
     1
  6
PHANTOM
  0
LAYER
  2
SP
 70
     0
 62
     2
  6
CONTINUOUS
  0
LAYER
  2
1
 70
     0
 62
     7
  6
CONTINUOUS
  0
LAYER
  2
DEFPOINTS
 70
     0
 62
     7
  6
CONTINUOUS
  0
LAYER
  2
4
 70
     0
 62
     7
  6
CONTINUOUS
  0
ENDTAB
  0
TABLE
  2
STYLE
 70
     1
  0
STYLE
  2
STANDARD
 70
     0
 40
0.0
 41
1.0
 50
15.0
 71
     0
 42
150.0
  3
C:\Program Files\AutoCAD LT\simplex.shx
  4
bigfont.shx
  0
ENDTAB
  0
TABLE
  2
VIEW
 70
     0
  0
ENDTAB
  0
TABLE
  2
UCS
 70
     0
  0
ENDTAB
  0
TABLE
  2
APPID
 70
     2
  0
APPID
  2
ACAD
 70
     0
  0
APPID
  2
CONTENTBLOCKICON
 70
     0
  0
ENDTAB
  0
TABLE
  2
DIMSTYLE
 70
     2
  0
DIMSTYLE
  2
MATSU
 70
     0
  3

  4

  5

  6
OPEN
  7
OPEN
 40
1.0
 41
2.0
 42
1.0
 43
10.0
 44
1.0
 45
0.0
 46
0.0
 47
0.0
 48
0.0
140
3.0
141
0.0
142
0.0
143
0.03937
144
1.0
145
0.0
146
1.0
147
0.5
 71
     0
 72
     0
 73
     0
 74
     0
 75
     0
 76
     0
 77
     1
 78
     8
170
     0
171
     2
172
     1
173
     1
174
     0
175
     0
176
   256
177
   256
178
   256
  0
DIMSTYLE
  2
STANDARD
 70
     0
  3

  4

  5

  6

  7

 40
1.0
 41
0.18
 42
0.0625
 43
0.38
 44
0.18
 45
0.0
 46
0.0
 47
0.0
 48
0.0
140
0.18
141
0.09
142
0.0
143
25.399999999999999
144
1.0
145
0.0
146
1.0
147
0.09
 71
     0
 72
     0
 73
     1
 74
     1
 75
     0
 76
     0
 77
     0
 78
     0
170
     0
171
     2
172
     0
173
     0
174
     0
175
     0
176
     0
177
     0
178
     0
  0
ENDTAB
  0
ENDSEC
  0
SECTION
  2
BLOCKS
  0
BLOCK
  8
0
  2
$MODEL_SPACE
 70
     0
 10
0.0
 20
0.0
 30
0.0
  3
$MODEL_SPACE
  1

  0
ENDBLK
  5
7
  8
0
  0
BLOCK
 67
     1
  8
0
  2
$PAPER_SPACE
 70
     0
 10
0.0
 20
0.0
 30
0.0
  3
$PAPER_SPACE
  1

  0
ENDBLK
  5
A
 67
     1
  8
0
  0
BLOCK
  8
0
  2
_OPEN
 70
     0
 10
0.0
 20
0.0
 30
0.0
  3
_OPEN
  1

  0
LINE
  5
27
  8
0
  6
BYBLOCK
 62
     0
 10
-1.0
 20
0.1666666666666666
 30
0.0
 11
0.0
 21
0.0
 31
0.0
  0
LINE
  5
28
  8
0
  6
BYBLOCK
 62
     0
 10
0.0
 20
0.0
 30
0.0
 11
-1.0
 21
-0.1666666666666666
 31
0.0
  0
LINE
  5
29
  8
0
  6
BYBLOCK
 62
     0
 10
0.0
 20
0.0
 30
0.0
 11
-1.0
 21
0.0
 31
0.0
  0
ENDBLK
  5
2B
  8
0
  0
BLOCK
  8
0
  2
まっすぐの矢印
 70
     0
 10
0.0
 20
0.0
 30
0.0
  3
まっすぐの矢印
  1

  0
LINE
  5
8C
  8
SP
 10
13.01863531255526
 20
-41.453946163708451
 30
0.0
 11
13.01863531255526
 21
-93.495696758840026
 31
0.0
  0
LINE
  5
8D
  8
SP
 10
13.01863531255526
 20
-93.495696758840026
 30
0.0
 11
-13.01863531255526
 21
-93.495696758840026
 31
0.0
  0
LINE
  5
8E
  8
SP
 10
-13.01863531255526
 20
-93.495696758840026
 30
0.0
 11
-13.01863531255526
 21
-41.453946163708451
 31
0.0
  0
LINE
  5
8F
  8
SP
 10
-13.01863531255526
 20
-41.453946163708451
 30
0.0
 11
-32.06015471115802
 21
-41.453946163708451
 31
0.0
  0
LINE
  5
90
  8
SP
 10
-32.06015471115802
 20
-41.453946163708451
 30
0.0
 11
0.0
 21
0.0
 31
0.0
  0
LINE
  5
91
  8
SP
 10
0.0
 20
0.0
 30
0.0
 11
32.06015471115802
 21
-41.453946163708451
 31
0.0
  0
LINE
  5
92
  8
SP
 10
32.06015471115802
 20
-41.453946163708451
 30
0.0
 11
13.01863531255526
 21
-41.453946163708451
 31
0.0
  0
ENDBLK
  5
94
  8
0
  0
BLOCK
  8
0
  2
左回転矢印
 70
     0
 10
0.0
 20
0.0
 30
0.0
  3
左回転矢印
  1

  0
LINE
  5
2C7
  8
SP
 10
43.930449171819873
 20
24.859487323637271
 30
0.0
 11
38.511878498580238
 21
44.478978865188871
 31
0.0
  0
LINE
  5
2C8
  8
SP
 10
38.511878498580238
 20
44.478978865188871
 30
0.0
 11
0.0
 21
0.0
 31
0.0
  0
LINE
  5
2C9
  8
SP
 10
0.0
 20
0.0
 30
0.0
 11
52.57968174421967
 21
-6.4575435924972453
 31
0.0
  0
LINE
  5
2CA
  8
SP
 10
52.57968174421967
 20
-6.4575435924972453
 30
0.0
 11
48.189912989015284
 21
9.436875093862227
 31
0.0
  0
ARC
  5
2CB
  8
SP
 10
93.893649146691985
 20
-156.0466295121104
 30
0.0
 40
171.67883327727239
 50
67.881388989212894
 51
105.4392492786835
  0
LINE
  5
2CC
  8
SP
 10
158.53505643637521
 20
2.997736182040398
 30
0.0
 11
164.55945966006539
 21
17.820238190756751
 31
0.0
  0
ARC
  5
2CD
  8
SP
 10
93.893649146692198
 20
-156.04662951211091
 30
0.0
 40
187.67883327727299
 50
67.881388989212994
 51
105.4392492786836
  0
ENDBLK
  5
2CF
  8
0
  0
BLOCK
  8
0
  2
*D3
 70
     1
 10
0.0
 20
0.0
 30
0.0
  3
*D3
  1

  0
LINE
  5
24E5
  8
SP
 10
22097.07116704408
 20
21691.812554343571
 30
0.0
 11
22097.07116704408
 21
22824.99060765218
 31
0.0
  0
LINE
  5
24E6
  8
SP
 10
24547.07116704408
 20
22545.03442882956
 30
0.0
 11
24547.07116704408
 21
22824.99060765218
 31
0.0
  0
LINE
  5
24E7
  8
SP
 10
22177.07116704408
 20
22784.99060765218
 30
0.0
 11
24467.07116704408
 21
22784.99060765218
 31
0.0
  0
INSERT
  5
24E8
  8
SP
  2
_OPEN
 10
22097.07116704408
 20
22784.99060765218
 30
0.0
 41
80.0
 42
80.0
 43
80.0
 50
180.0
  0
INSERT
  5
24E9
  8
SP
  2
_OPEN
 10
24547.07116704408
 20
22784.99060765218
 30
0.0
 41
80.0
 42
80.0
 43
80.0
  0
TEXT
  5
24EA
  8
FUTO
 10
23025.078478139108
 20
22856.419179080749
 30
0.0
 40
120.0
  1
(2450)
 51
15.0
  0
POINT
  5
24EB
  8
DEFPOINTS
 62
     0
 10
22097.07116704408
 20
21651.812554343571
 30
0.0
  0
POINT
  5
24EC
  8
DEFPOINTS
 62
     0
 10
24547.07116704408
 20
22505.03442882956
 30
0.0
  0
POINT
  5
24ED
  8
DEFPOINTS
 62
     0
 10
24547.07116704408
 20
22784.99060765218
 30
0.0
  0
ENDBLK
  5
1423
  8
0
  0
BLOCK
  8
0
  2
*D4
 70
     1
 10
0.0
 20
0.0
 30
0.0
  3
*D4
  1

  0
LINE
  5
24A8
  8
SP
 10
19362.108250108289
 20
22659.822006333248
 30
0.0
 11
19362.108250108289
 21
22823.87709649474
 31
0.0
  0
LINE
  5
24A9
  8
SP
 10
17372.1082501083
 20
22478.43875434357
 30
0.0
 11
17372.1082501083
 21
22823.87709649474
 31
0.0
  0
LINE
  5
24AA
  8
SP
 10
19282.108250108289
 20
22783.87709649474
 30
0.0
 11
17452.1082501083
 21
22783.87709649474
 31
0.0
  0
INSERT
  5
24AB
  8
SP
  2
_OPEN
 10
19362.108250108289
 20
22783.87709649474
 30
0.0
 41
80.0
 42
80.0
 43
80.0
  0
INSERT
  5
24AC
  8
SP
  2
_OPEN
 10
17372.1082501083
 20
22783.87709649474
 30
0.0
 41
80.0
 42
80.0
 43
80.0
 50
180.0
  0
TEXT
  5
24AD
  8
FUTO
 10
18143.936042843561
 20
22803.87709649474
 30
0.0
 40
120.0
  1
1990
 51
15.0
  0
POINT
  5
24AE
  8
DEFPOINTS
 62
     0
 10
19362.108250108289
 20
22619.822006333248
 30
0.0
  0
POINT
  5
24AF
  8
DEFPOINTS
 62
     0
 10
17372.1082501083
 20
22438.43875434357
 30
0.0
  0
POINT
  5
24B0
  8
DEFPOINTS
 62
     0
 10
17372.1082501083
 20
22783.87709649474
 30
0.0
  0
ENDBLK
  5
18B9
  8
0
  0
BLOCK
  8
0
  2
*D5
 70
     1
 10
0.0
 20
0.0
 30
0.0
  3
*D5
  1

  0
LINE
  5
2509
  8
SP
 10
20367.108250108289
 20
26661.676268966439
 30
0.0
 11
21109.421007064098
 21
26661.676268966439
 31
0.0
  0
LINE
  5
250A
  8
SP
 10
21054.342693817209
 20
25866.676268966428
 30
0.0
 11
21109.421007064098
 21
25866.676268966428
 31
0.0
  0
LINE
  5
250B
  8
SP
 10
21069.421007064098
 20
26581.676268966439
 30
0.0
 11
21069.421007064098
 21
25946.676268966428
 31
0.0
  0
INSERT
  5
250C
  8
SP
  2
_OPEN
 10
21069.421007064098
 20
26661.676268966439
 30
0.0
 41
80.0
 42
80.0
 43
80.0
 50
90.0
  0
INSERT
  5
250D
  8
SP
  2
_OPEN
 10
21069.421007064098
 20
25866.676268966428
 30
0.0
 41
80.0
 42
80.0
 43
80.0
 50
270.0
  0
TEXT
  5
250E
  8
FUTO
 10
21049.421007064091
 20
26078.04920617439
 30
0.0
 40
120.0
  1
795
 50
90.0
 51
15.0
  0
POINT
  5
250F
  8
DEFPOINTS
 62
     0
 10
20327.108250108289
 20
26661.676268966439
 30
0.0
  0
POINT
  5
2510
  8
DEFPOINTS
 62
     0
 10
21014.342693817209
 20
25866.676268966428
 30
0.0
  0
POINT
  5
2511
  8
DEFPOINTS
 62
     0
 10
21069.421007064098
 20
25866.676268966428
 30
0.0
  0
ENDBLK
  5
192F
  8
0
  0
BLOCK
  8
0
  2
*D6
 70
     1
 10
0.0
 20
0.0
 30
0.0
  3
*D6
  1

  0
LINE
  5
24EE
  8
SP
 10
20987.094515598412
 20
25866.676268966428
 30
0.0
 11
21109.421007064091
 21
25866.676268966428
 31
0.0
  0
LINE
  5
24EF
  8
SP
 10
19782.108250108289
 20
23416.676268966439
 30
0.0
 11
21109.421007064091
 21
23416.676268966439
 31
0.0
  0
LINE
  5
24F0
  8
SP
 10
21069.421007064091
 20
25786.676268966428
 30
0.0
 11
21069.421007064091
 21
23496.676268966439
 31
0.0
  0
INSERT
  5
24F1
  8
SP
  2
_OPEN
 10
21069.421007064091
 20
25866.676268966428
 30
0.0
 41
80.0
 42
80.0
 43
80.0
 50
90.0
  0
INSERT
  5
24F2
  8
SP
  2
_OPEN
 10
21069.421007064091
 20
23416.676268966439
 30
0.0
 41
80.0
 42
80.0
 43
80.0
 50
270.0
  0
TEXT
  5
24F3
  8
FUTO
 10
21049.421007064091
 20
24342.673359306431
 30
0.0
 40
120.0
  1
2450
 50
90.0
 51
15.0
  0
POINT
  5
24F4
  8
DEFPOINTS
 62
     0
 10
20947.094515598412
 20
25866.676268966428
 30
0.0
  0
POINT
  5
24F5
  8
DEFPOINTS
 62
     0
 10
19742.108250108289
 20
23416.676268966439
 30
0.0
  0
POINT
  5
24F6
  8
DEFPOINTS
 62
     0
 10
21069.421007064091
 20
23416.676268966439
 30
0.0
  0
ENDBLK
  5
193B
  8
0
  0
BLOCK
  8
0
  2
*D7
 70
     1
 10
0.0
 20
0.0
 30
0.0
  3
*D7
  1

  0
LINE
  5
24B1
  8
SP
 10
20422.108250108289
 20
19643.43875434357
 30
0.0
 11
20422.108250108289
 21
18889.516825004641
 31
0.0
  0
LINE
  5
24B2
  8
SP
 10
17422.108250108289
 20
19643.43875434357
 30
0.0
 11
17422.108250108289
 21
18889.516825004641
 31
0.0
  0
LINE
  5
24B3
  8
SP
 10
20342.108250108289
 20
18929.516825004641
 30
0.0
 11
17502.108250108289
 21
18929.516825004641
 31
0.0
  0
INSERT
  5
24B4
  8
SP
  2
_OPEN
 10
20422.108250108289
 20
18929.516825004641
 30
0.0
 41
80.0
 42
80.0
 43
80.0
  0
INSERT
  5
24B5
  8
SP
  2
_OPEN
 10
17422.108250108289
 20
18929.516825004641
 30
0.0
 41
80.0
 42
80.0
 43
80.0
 50
180.0
  0
TEXT
  5
24B6
  8
FUTO
 10
18697.459869990998
 20
18949.516825004641
 30
0.0
 40
120.0
  1
3000
 51
15.0
  0
POINT
  5
24B7
  8
DEFPOINTS
 62
     0
 10
20422.108250108289
 20
19683.43875434357
 30
0.0
  0
POINT
  5
24B8
  8
DEFPOINTS
 62
     0
 10
17422.108250108289
 20
19683.43875434357
 30
0.0
  0
POINT
  5
24B9
  8
DEFPOINTS
 62
     0
 10
17422.108250108289
 20
18929.516825004641
 30
0.0
  0
ENDBLK
  5
1983
  8
0
  0
BLOCK
  8
0
  2
*D8
 70
     1
 10
0.0
 20
0.0
 30
0.0
  3
*D8
  1

  0
LINE
  5
2542
  8
SP
 10
17422.108250108289
 20
19643.43875434357
 30
0.0
 11
17422.108250108289
 21
19208.23137562527
 31
0.0
  0
LINE
  5
2543
  8
SP
 10
19282.108250108289
 20
19248.23137562527
 30
0.0
 11
17502.108250108289
 21
19248.23137562527
 31
0.0
  0
INSERT
  5
2544
  8
SP
  2
_OPEN
 10
19362.108250108289
 20
19248.23137562527
 30
0.0
 41
80.0
 42
80.0
 43
80.0
  0
INSERT
  5
2545
  8
SP
  2
_OPEN
 10
17422.108250108289
 20
19248.23137562527
 30
0.0
 41
80.0
 42
80.0
 43
80.0
 50
180.0
  0
TEXT
  8
0
  40
120
  5
2557
  72
0
  71
0
 10
18152.1
 20
19115.8
 30
0.000000
  1
1940
  0
POINT
  5
2547
  8
DEFPOINTS
 62
     0
 10
19362.108250108289
 20
19602.784579333362
 30
0.0
  0
POINT
  5
2548
  8
DEFPOINTS
 62
     0
 10
17422.108250108289
 20
19683.43875434357
 30
0.0
  0
POINT
  5
2549
  8
DEFPOINTS
 62
     0
 10
17422.108250108289
 20
19248.23137562527
 30
0.0
  0
ENDBLK
  5
198E
  8
0
  0
BLOCK
  8
0
  2
*D9
 70
     1
 10
0.0
 20
0.0
 30
0.0
  3
*D9
  1

  0
LINE
  5
24DC
  8
SP
 10
20422.108250108289
 20
19643.43875434357
 30
0.0
 11
20422.108250108289
 21
19208.23137562527
 31
0.0
  0
LINE
  5
24DD
  8
SP
 10
19362.108250108289
 20
19562.784579333362
 30
0.0
 11
19362.108250108289
 21
19208.23137562527
 31
0.0
  0
LINE
  5
24DE
  8
SP
 10
20342.108250108289
 20
19248.23137562527
 30
0.0
 11
19442.108250108289
 21
19248.23137562527
 31
0.0
  0
INSERT
  5
24DF
  8
SP
  2
_OPEN
 10
20422.108250108289
 20
19248.23137562527
 30
0.0
 41
80.0
 42
80.0
 43
80.0
  0
INSERT
  5
24E0
  8
SP
  2
_OPEN
 10
19362.108250108289
 20
19248.23137562527
 30
0.0
 41
80.0
 42
80.0
 43
80.0
 50
180.0
  0
TEXT
  5
24E1
  8
FUTO
 10
19668.93604284355
 20
19268.23137562527
 30
0.0
 40
120.0
  1
1060
 51
15.0
  0
POINT
  5
24E2
  8
DEFPOINTS
 62
     0
 10
20422.108250108289
 20
19683.43875434357
 30
0.0
  0
POINT
  5
24E3
  8
DEFPOINTS
 62
     0
 10
19362.108250108289
 20
19602.784579333362
 30
0.0
  0
POINT
  5
24E4
  8
DEFPOINTS
 62
     0
 10
19362.108250108289
 20
19248.23137562527
 30
0.0
  0
ENDBLK
  5
199A
  8
0
  0
BLOCK
  8
0
  2
*D10
 70
     1
 10
0.0
 20
0.0
 30
0.0
  3
*D10
  1

  0
LINE
  5
24CA
  8
SP
 10
22436.071167044091
 20
19643.438737737579
 30
0.0
 11
22436.071167044091
 21
18903.920580008351
 31
0.0
  0
LINE
  5
24CB
  8
SP
 10
25286.071167044091
 20
19643.438737737579
 30
0.0
 11
25286.071167044091
 21
18903.920580008351
 31
0.0
  0
LINE
  5
24CC
  8
SP
 10
22516.071167044091
 20
18943.920580008351
 30
0.0
 11
25206.071167044091
 21
18943.920580008351
 31
0.0
  0
INSERT
  5
24CD
  8
SP
  2
_OPEN
 10
22436.071167044091
 20
18943.920580008351
 30
0.0
 41
80.0
 42
80.0
 43
80.0
 50
180.0
  0
INSERT
  5
24CE
  8
SP
  2
_OPEN
 10
25286.071167044091
 20
18943.920580008351
 30
0.0
 41
80.0
 42
80.0
 43
80.0
  0
TEXT
  5
24CF
  8
FUTO
 10
23639.485063411721
 20
18963.920580008351
 30
0.0
 40
120.0
  1
2850
 51
15.0
  0
POINT
  5
24D0
  8
DEFPOINTS
 62
     0
 10
22436.071167044091
 20
19683.43873773759
 30
0.0
  0
POINT
  5
24D1
  8
DEFPOINTS
 62
     0
 10
25286.071167044091
 20
19683.43873773759
 30
0.0
  0
POINT
  5
24D2
  8
DEFPOINTS
 62
     0
 10
25286.071167044091
 20
18943.920580008351
 30
0.0
  0
ENDBLK
  5
1A49
  8
0
  0
BLOCK
  8
0
  2
*D11
 70
     1
 10
0.0
 20
0.0
 30
0.0
  3
*D11
  1

  0
LINE
  5
24D3
  8
SP
 10
22436.071167044091
 20
19643.438737737579
 30
0.0
 11
22436.071167044091
 21
19203.958124973269
 31
0.0
  0
LINE
  5
24D4
  8
SP
 10
24547.071167044091
 20
19622.511685743651
 30
0.0
 11
24547.071167044091
 21
19203.958124973269
 31
0.0
  0
LINE
  5
24D5
  8
SP
 10
22516.071167044091
 20
19243.958124973269
 30
0.0
 11
24467.071167044091
 21
19243.958124973269
 31
0.0
  0
INSERT
  5
24D6
  8
SP
  2
_OPEN
 10
22436.071167044091
 20
19243.958124973269
 30
0.0
 41
80.0
 42
80.0
 43
80.0
 50
180.0
  0
INSERT
  5
24D7
  8
SP
  2
_OPEN
 10
24547.071167044091
 20
19243.958124973269
 30
0.0
 41
80.0
 42
80.0
 43
80.0
  0
TEXT
  5
24D8
  8
FUTO
 10
23312.637072641079
 20
19263.958124973269
 30
0.0
 40
120.0
  1
2111
 51
15.0
  0
POINT
  5
24D9
  8
DEFPOINTS
 62
     0
 10
22436.071167044091
 20
19683.43873773759
 30
0.0
  0
POINT
  5
24DA
  8
DEFPOINTS
 62
     0
 10
24547.071167044091
 20
19662.511685743651
 30
0.0
  0
POINT
  5
24DB
  8
DEFPOINTS
 62
     0
 10
24547.071167044091
 20
19243.958124973269
 30
0.0
  0
ENDBLK
  5
1A55
  8
0
  0
BLOCK
  8
0
  2
*D12
 70
     1
 10
0.0
 20
0.0
 30
0.0
  3
*D12
  1

  0
LINE
  5
254A
  8
SP
 10
25286.071167044091
 20
19643.438737737579
 30
0.0
 11
25286.071167044091
 21
19203.958124973269
 31
0.0
  0
LINE
  5
254B
  8
SP
 10
24627.071167044091
 20
19243.958124973269
 30
0.0
 11
25206.071167044091
 21
19243.958124973269
 31
0.0
  0
INSERT
  5
254C
  8
SP
  2
_OPEN
 10
24547.071167044091
 20
19243.958124973269
 30
0.0
 41
80.0
 42
80.0
 43
80.0
 50
180.0
  0
INSERT
  5
254D
  8
SP
  2
_OPEN
 10
25286.071167044091
 20
19243.958124973269
 30
0.0
 41
80.0
 42
80.0
 43
80.0
  0
TEXT
  8
0
  40
120
  5
2558
  72
0
  71
0
 10
24676.6
 20
19111.6
 30
0.000000
  1
739
  0
POINT
  5
254F
  8
DEFPOINTS
 62
     0
 10
24547.071167044091
 20
19662.511685743651
 30
0.0
  0
POINT
  5
2550
  8
DEFPOINTS
 62
     0
 10
25286.071167044091
 20
19683.43873773759
 30
0.0
  0
POINT
  5
2551
  8
DEFPOINTS
 62
     0
 10
25286.071167044091
 20
19243.958124973269
 30
0.0
  0
ENDBLK
  5
1A60
  8
0
  0
BLOCK
  8
0
  2
*D13
 70
     1
 10
0.0
 20
0.0
 30
0.0
  3
*D13
  1

  0
LINE
  5
2524
  8
SP
 10
24547.071167044091
 20
22776.932947016561
 30
0.0
 11
24547.071167044091
 21
22744.99060765218
 31
0.0
  0
LINE
  5
2525
  8
SP
 10
25342.07116704408
 20
22276.812554343571
 30
0.0
 11
25342.07116704408
 21
22824.99060765218
 31
0.0
  0
LINE
  5
2526
  8
SP
 10
24627.071167044091
 20
22784.99060765218
 30
0.0
 11
25262.07116704408
 21
22784.99060765218
 31
0.0
  0
INSERT
  5
2527
  8
SP
  2
_OPEN
 10
24547.071167044091
 20
22784.99060765218
 30
0.0
 41
80.0
 42
80.0
 43
80.0
 50
180.0
  0
INSERT
  5
2528
  8
SP
  2
_OPEN
 10
25342.07116704408
 20
22784.99060765218
 30
0.0
 41
80.0
 42
80.0
 43
80.0
  0
TEXT
  5
2529
  8
FUTO
 10
24699.85659054232
 20
22804.99060765218
 30
0.0
 40
120.0
  1
795
 51
15.0
  0
POINT
  5
252A
  8
DEFPOINTS
 62
     0
 10
24547.071167044091
 20
22816.932947016561
 30
0.0
  0
POINT
  5
252B
  8
DEFPOINTS
 62
     0
 10
25342.07116704408
 20
22236.812554343571
 30
0.0
  0
POINT
  5
252C
  8
DEFPOINTS
 62
     0
 10
25342.07116704408
 20
22784.99060765218
 30
0.0
  0
ENDBLK
  5
1B13
  8
0
  0
BLOCK
  8
0
  2
*D14
 70
     1
 10
0.0
 20
0.0
 30
0.0
  3
*D14
  1

  0
LINE
  5
2500
  8
SP
 10
20462.108250108289
 20
19683.43875434357
 30
0.0
 11
21111.517339313879
 21
19683.43875434357
 31
0.0
  0
LINE
  5
2501
  8
SP
 10
20947.462249152391
 20
21273.43875434357
 30
0.0
 11
21111.517339313879
 21
21273.43875434357
 31
0.0
  0
LINE
  5
2502
  8
SP
 10
21071.517339313879
 20
19763.43875434357
 30
0.0
 11
21071.517339313879
 21
21193.43875434357
 31
0.0
  0
INSERT
  5
2503
  8
SP
  2
_OPEN
 10
21071.517339313879
 20
19683.43875434357
 30
0.0
 41
80.0
 42
80.0
 43
80.0
 50
270.0
  0
INSERT
  5
2504
  8
SP
  2
_OPEN
 10
21071.517339313879
 20
21273.43875434357
 30
0.0
 41
80.0
 42
80.0
 43
80.0
 50
90.0
  0
TEXT
  5
2505
  8
FUTO
 10
21051.517339313879
 20
20255.266547078842
 30
0.0
 40
120.0
  1
1590
 50
90.0
 51
15.0
  0
POINT
  5
2506
  8
DEFPOINTS
 62
     0
 10
20422.108250108289
 20
19683.43875434357
 30
0.0
  0
POINT
  5
2507
  8
DEFPOINTS
 62
     0
 10
20907.462249152391
 20
21273.43875434357
 30
0.0
  0
POINT
  5
2508
  8
DEFPOINTS
 62
     0
 10
21071.517339313879
 20
21273.43875434357
 30
0.0
  0
ENDBLK
  5
1B77
  8
0
  0
BLOCK
  8
0
  2
*D15
 70
     1
 10
0.0
 20
0.0
 30
0.0
  3
*D15
  1

  0
LINE
  5
24F7
  8
SP
 10
20947.462249152391
 20
21273.43875434357
 30
0.0
 11
21111.517339313879
 21
21273.43875434357
 31
0.0
  0
LINE
  5
24F8
  8
SP
 10
19400.108250108289
 20
22438.43875434357
 30
0.0
 11
21111.517339313879
 21
22438.43875434357
 31
0.0
  0
LINE
  5
24F9
  8
SP
 10
21071.517339313879
 20
21353.43875434357
 30
0.0
 11
21071.517339313879
 21
22358.43875434357
 31
0.0
  0
INSERT
  5
24FA
  8
SP
  2
_OPEN
 10
21071.517339313879
 20
21273.43875434357
 30
0.0
 41
80.0
 42
80.0
 43
80.0
 50
270.0
  0
INSERT
  5
24FB
  8
SP
  2
_OPEN
 10
21071.517339313879
 20
22438.43875434357
 30
0.0
 41
80.0
 42
80.0
 43
80.0
 50
90.0
  0
TEXT
  5
24FC
  8
FUTO
 10
21051.517339313879
 20
21643.989984879619
 30
0.0
 40
120.0
  1
1165
 50
90.0
 51
15.0
  0
POINT
  5
24FD
  8
DEFPOINTS
 62
     0
 10
20907.462249152391
 20
21273.43875434357
 30
0.0
  0
POINT
  5
24FE
  8
DEFPOINTS
 62
     0
 10
19360.108250108289
 20
22438.43875434357
 30
0.0
  0
POINT
  5
24FF
  8
DEFPOINTS
 62
     0
 10
21071.517339313879
 20
22438.43875434357
 30
0.0
  0
ENDBLK
  5
1B84
  8
0
  0
BLOCK
  8
0
  2
*D16
 70
     1
 10
0.0
 20
0.0
 30
0.0
  3
*D16
  1

  0
LINE
  5
2512
  8
SP
 10
19362.108250108289
 20
26900.671572138661
 30
0.0
 11
19362.108250108289
 21
27173.66390689557
 31
0.0
  0
LINE
  5
2513
  8
SP
 10
20704.108250108289
 20
26620.676268966428
 30
0.0
 11
20704.108250108289
 21
27173.66390689557
 31
0.0
  0
LINE
  5
2514
  8
SP
 10
19442.108250108289
 20
27133.66390689557
 30
0.0
 11
20624.108250108289
 21
27133.66390689557
 31
0.0
  0
INSERT
  5
2515
  8
SP
  2
_OPEN
 10
19362.108250108289
 20
27133.66390689557
 30
0.0
 41
80.0
 42
80.0
 43
80.0
 50
180.0
  0
INSERT
  5
2516
  8
SP
  2
_OPEN
 10
20704.108250108289
 20
27133.66390689557
 30
0.0
 41
80.0
 42
80.0
 43
80.0
  0
TEXT
  5
2517
  8
FUTO
 10
19809.93604284355
 20
27153.66390689557
 30
0.0
 40
120.0
  1
1342
 51
15.0
  0
POINT
  5
2518
  8
DEFPOINTS
 62
     0
 10
19362.108250108289
 20
26860.671572138661
 30
0.0
  0
POINT
  5
2519
  8
DEFPOINTS
 62
     0
 10
20704.108250108289
 20
26580.676268966428
 30
0.0
  0
POINT
  5
251A
  8
DEFPOINTS
 62
     0
 10
20704.108250108289
 20
27133.66390689557
 30
0.0
  0
ENDBLK
  5
1BB5
  8
0
  0
BLOCK
  8
0
  2
*D17
 70
     1
 10
0.0
 20
0.0
 30
0.0
  3
*D17
  1

  0
LINE
  5
249F
  8
SP
 10
19362.108250108289
 20
26900.671572138661
 30
0.0
 11
19362.108250108289
 21
27173.66390689557
 31
0.0
  0
LINE
  5
24A0
  8
SP
 10
17372.1082501083
 20
26635.676268966428
 30
0.0
 11
17372.1082501083
 21
27173.66390689557
 31
0.0
  0
LINE
  5
24A1
  8
SP
 10
19282.108250108289
 20
27133.66390689557
 30
0.0
 11
17452.1082501083
 21
27133.66390689557
 31
0.0
  0
INSERT
  5
24A2
  8
SP
  2
_OPEN
 10
19362.108250108289
 20
27133.66390689557
 30
0.0
 41
80.0
 42
80.0
 43
80.0
  0
INSERT
  5
24A3
  8
SP
  2
_OPEN
 10
17372.1082501083
 20
27133.66390689557
 30
0.0
 41
80.0
 42
80.0
 43
80.0
 50
180.0
  0
TEXT
  5
24A4
  8
FUTO
 10
18143.936042843561
 20
27153.66390689557
 30
0.0
 40
120.0
  1
1990
 51
15.0
  0
POINT
  5
24A5
  8
DEFPOINTS
 62
     0
 10
19362.108250108289
 20
26860.671572138661
 30
0.0
  0
POINT
  5
24A6
  8
DEFPOINTS
 62
     0
 10
17372.1082501083
 20
26595.676268966428
 30
0.0
  0
POINT
  5
24A7
  8
DEFPOINTS
 62
     0
 10
17372.1082501083
 20
27133.66390689557
 30
0.0
  0
ENDBLK
  5
1BC2
  8
0
  0
BLOCK
  8
0
  2
*D18
 70
     1
 10
0.0
 20
0.0
 30
0.0
  3
*D18
  1

  0
LINE
  5
251B
  8
SP
 10
25382.071167044091
 20
22171.812554343571
 30
0.0
 11
25962.07930925582
 21
22171.812554343571
 31
0.0
  0
LINE
  5
251C
  8
SP
 10
25382.071167044091
 20
20371.812554343571
 30
0.0
 11
25962.07930925582
 21
20371.812554343571
 31
0.0
  0
LINE
  5
251D
  8
SP
 10
25922.07930925582
 20
22091.812554343571
 30
0.0
 11
25922.07930925582
 21
20451.812554343571
 31
0.0
  0
INSERT
  5
251E
  8
SP
  2
_OPEN
 10
25922.07930925582
 20
22171.812554343571
 30
0.0
 41
80.0
 42
80.0
 43
80.0
 50
90.0
  0
INSERT
  5
251F
  8
SP
  2
_OPEN
 10
25922.07930925582
 20
20371.812554343571
 30
0.0
 41
80.0
 42
80.0
 43
80.0
 50
270.0
  0
INSERT
  5
2520
  8
FUTO
  2
*U19
 10
0.0
 20
0.0
 30
0.0
  0
POINT
  5
2521
  8
DEFPOINTS
 62
     0
 10
25342.071167044091
 20
22171.812554343571
 30
0.0
  0
POINT
  5
2522
  8
DEFPOINTS
 62
     0
 10
25342.071167044091
 20
20371.812554343571
 30
0.0
  0
POINT
  5
2523
  8
DEFPOINTS
 62
     0
 10
25922.07930925582
 20
20371.812554343571
 30
0.0
  0
ENDBLK
  5
1C45
  8
0
  0
BLOCK
  8
0
  2
*U19
 70
     1
 10
0.0
 20
0.0
 30
0.0
  3
*U19
  1

  0
TEXT
  5
2553
  8
FUTO
 10
25902.079309255809
 20
20974.80513750677
 30
0.0
 40
120.0
  1
\U+2205
 50
90.0
 51
15.0
  0
TEXT
  5
2554
  8
FUTO
 10
25902.079309255809
 20
21083.37656607819
 30
0.0
 40
120.0
  1
1800
 50
90.0
 51
15.0
  0
ENDBLK
  5
2556
  8
0
  0
ENDSEC
  0
SECTION
  2
ENTITIES
  0
INSERT
  5
89
  8
FUTO
  2
まっすぐの矢印
 10
17795.665953447951
 20
22724.100365008711
 30
0.0
 41
-2.0
 42
2.0
 43
2.0
  0
LINE
  5
B2
  8
CT
 10
20907.462249152391
 20
21273.43875434357
 30
0.0
 11
17447.48014359819
 21
21273.43875434357
 31
0.0
  0
LINE
  5
104
  8
CT
 10
19362.108250108289
 20
22594.547168455119
 30
0.0
 11
19362.108250108289
 21
19400.531194559699
 31
0.0
  0
ARC
  5
10E
  8
FUTO
 10
17862.108250108289
 20
20183.43875434357
 30
0.0
 40
280.0
 50
132.19677141018849
 51
299.81253858245282
  0
ARC
  5
111
  8
FUTO
 10
17862.108250108289
 20
20183.43875434357
 30
0.0
 40
310.0
 50
300.10230806831191
 51
239.897691931688
  0
LINE
  5
112
  8
CT
 10
17862.108250108289
 20
20848.20464026988
 30
0.0
 11
17862.108250108289
 21
19861.147438082418
 31
0.0
  0
LINE
  5
113
  8
FUTO
 10
18303.108250108289
 20
21264.43875434357
 30
0.0
 11
18303.108250108289
 21
20961.215963579121
 31
0.0
  0
LINE
  5
115
  8
FUTO
 10
20403.108250108289
 20
21264.43875434357
 30
0.0
 11
20403.108250108289
 21
19833.43875434357
 31
0.0
  0
LINE
  5
116
  8
FUTO
 10
20412.108250108289
 20
21264.43875434357
 30
0.0
 11
20412.108250108289
 21
19833.43875434357
 31
0.0
  0
LINE
  5
117
  8
FUTO
 10
18312.108250108289
 20
21282.43875434357
 30
0.0
 11
18312.108250108289
 21
20969.375741179709
 31
0.0
  0
LINE
  5
118
  8
FUTO
 10
18321.108250108289
 20
21282.43875434357
 30
0.0
 11
18321.108250108289
 21
20977.535518780311
 31
0.0
  0
LINE
  5
119
  8
CT
 10
17862.108250108289
 20
19896.937491343571
 30
0.0
 11
17862.108250108289
 21
20481.209170343569
 31
0.0
  0
ARC
  5
122
  8
FUTO
 10
19472.608250108289
 20
21162.93875434357
 30
0.0
 40
1201.5
 50
5.2768562869262041
 51
97.724811710340802
  0
ARC
  5
123
  8
KL
 10
19472.608250108289
 20
21162.93875434357
 30
0.0
 40
1181.4999999999991
 50
359.00582105632787
 51
90.000000000000028
  0
ARC
  5
124
  8
KL
 10
19231.108250108289
 20
21142.43875434357
 30
0.0
 40
1423.0
 50
275.26336540589648
 51
0.000000000000007
  0
DIMENSION
  5
13A
  8
SP
  2
*D8
 10
17422.108250108289
 20
19248.23137562527
 30
0.0
 11
18392.108250108289
 21
19328.23137562527
 31
0.0
 70
     0
 13
19362.108250108289
 23
19602.784579333362
 33
0.0
 14
17422.108250108289
 24
19683.43875434357
 34
0.0
1001
ACAD
1000
DSTYLE
1002
{
1070
   287
1070
     4
1070
    40
1040
40.0
1070
    75
1070
     1
1070
   279
1070
     1
1070
   289
1070
     3
1002
}
  0
DIMENSION
  5
14A
  8
SP
  2
*D7
 10
17422.108250108289
 20
18929.516825004641
 30
0.0
 11
18922.108250108289
 21
19009.516825004641
 31
0.0
 70
     0
 13
20422.108250108289
 23
19683.43875434357
 33
0.0
 14
17422.108250108289
 24
19683.43875434357
 34
0.0
1001
ACAD
1000
DSTYLE
1002
{
1070
    40
1040
40.0
1002
}
  0
LINE
  5
157
  8
FUTO
 10
20422.108250108289
 20
19821.43875434357
 30
0.0
 11
17422.108250108289
 21
19821.43875434357
 31
0.0
  0
LINE
  5
158
  8
FUTO
 10
20422.108250108289
 20
19695.43875434357
 30
0.0
 11
17422.108250108289
 21
19695.43875434357
 31
0.0
  0
LINE
  5
159
  8
FUTO
 10
20422.108250108289
 20
19833.43875434357
 30
0.0
 11
17422.108250108289
 21
19833.43875434357
 31
0.0
  0
LINE
  5
15A
  8
FUTO
 10
20422.108250108289
 20
19683.43875434357
 30
0.0
 11
17422.108250108289
 21
19683.43875434357
 31
0.0
1001
ACAD
1000
ASC_BOUNDS
1002
{
1070
    19
1005
0
1002
}
  0
LINE
  5
15B
  8
FUTO
 10
18142.108250108289
 20
19933.43875434357
 30
0.0
 11
18045.411277906522
 21
19933.43875434357
 31
0.0
  0
LINE
  5
15C
  8
FUTO
 10
18142.108250108289
 20
19903.43875434357
 30
0.0
 11
18032.108250108289
 21
19903.43875434357
 31
0.0
  0
LINE
  5
15D
  8
FUTO
 10
17962.108250108289
 20
19903.43875434357
 30
0.0
 11
18177.108250108289
 21
19903.43875434357
 31
0.0
  0
LINE
  5
15E
  8
FUTO
 10
18187.108250108289
 20
19833.43875434357
 30
0.0
 11
17962.108250108289
 21
19833.43875434357
 31
0.0
  0
LINE
  5
15F
  8
CT
 10
18199.567214298051
 20
20183.43875434357
 30
0.0
 11
17518.831027915261
 21
20183.43875434357
 31
0.0
  0
LINE
  5
175
  8
FUTO
 10
17547.108250108289
 20
19903.43875434357
 30
0.0
 11
17762.108250108289
 21
19903.43875434357
 31
0.0
  0
LINE
  5
176
  8
FUTO
 10
17762.108250108289
 20
19833.43875434357
 30
0.0
 11
17537.108250108289
 21
19833.43875434357
 31
0.0
  0
CIRCLE
  5
177
  8
SL
 10
17862.108250108289
 20
20183.43875434357
 30
0.0
 40
200.0
  0
LINE
  5
178
  8
FUTO
 10
17582.108250108289
 20
20050.397407387019
 30
0.0
 11
17582.108250108289
 21
19903.43875434357
 31
0.0
  0
LINE
  5
179
  8
FUTO
 10
17422.108250108289
 20
19833.43875434357
 30
0.0
 11
17422.108250108289
 21
19683.43875434357
 31
0.0
  0
LINE
  5
17B
  8
CT
 10
17633.608250108289
 20
19948.608202833209
 30
0.0
 11
17633.608250108289
 21
19861.147438082418
 31
0.0
  0
LINE
  5
17C
  8
FUTO
 10
17678.80522231006
 20
19933.43875434357
 30
0.0
 11
17582.108250108289
 21
19933.43875434357
 31
0.0
  0
LINE
  5
17D
  8
FUTO
 10
17692.108250108289
 20
19924.209126407251
 30
0.0
 11
17692.108250108289
 21
19903.43875434357
 31
0.0
  0
LINE
  5
17E
  8
FUTO
 10
17692.108250108289
 20
19903.43875434357
 30
0.0
 11
17582.108250108289
 21
19903.43875434357
 31
0.0
  0
LINE
  5
17F
  8
FUTO
 10
17537.108250108289
 20
19833.43875434357
 30
0.0
 11
17547.108250108289
 21
19903.43875434357
 31
0.0
  0
LINE
  5
180
  8
CT
 10
17862.108250108289
 20
19692.020369155111
 30
0.0
 11
17862.108250108289
 21
20357.536768540169
 31
0.0
  0
LINE
  5
181
  8
FUTO
 10
18017.587382383899
 20
19915.248076976099
 30
0.0
 11
17706.62911783269
 21
19915.248076976099
 31
0.0
  0
LINE
  5
182
  8
FUTO
 10
17762.108250108289
 20
19893.43875434357
 30
0.0
 11
17962.108250108289
 21
19893.43875434357
 31
0.0
  0
LINE
  5
183
  8
FUTO
 10
17762.108250108289
 20
19843.43875434357
 30
0.0
 11
17962.108250108289
 21
19843.43875434357
 31
0.0
  0
LINE
  5
184
  8
FUTO
 10
17762.108250108289
 20
19893.43875434357
 30
0.0
 11
17762.108250108289
 21
19903.43875434357
 31
0.0
  0
LINE
  5
185
  8
FUTO
 10
17762.108250108289
 20
19833.43875434357
 30
0.0
 11
17762.108250108289
 21
19843.43875434357
 31
0.0
  0
LINE
  5
186
  8
CT
 10
18090.608250108289
 20
19948.608202833209
 30
0.0
 11
18090.608250108289
 21
19856.982639760961
 31
0.0
  0
LINE
  5
187
  8
FUTO
 10
18032.108250108289
 20
19924.209126407251
 30
0.0
 11
18032.108250108289
 21
19903.43875434357
 31
0.0
  0
LINE
  5
188
  8
FUTO
 10
17962.108250108289
 20
19893.43875434357
 30
0.0
 11
17962.108250108289
 21
19903.43875434357
 31
0.0
  0
LINE
  5
189
  8
FUTO
 10
18105.108250108289
 20
19903.43875434357
 30
0.0
 11
18005.108250108289
 21
19903.43875434357
 31
0.0
  0
LINE
  5
18A
  8
FUTO
 10
17962.108250108289
 20
19833.43875434357
 30
0.0
 11
17962.108250108289
 21
19843.43875434357
 31
0.0
  0
ARC
  5
1A4
  8
FUTO
 10
19231.108250108289
 20
21142.43875434357
 30
0.0
 40
1443.0
 50
303.73616723022678
 51
5.2086593189542461
  0
LINE
  5
1A7
  8
FUTO
 10
18142.1082501083
 20
20050.397407387041
 30
0.0
 11
18142.108250108289
 21
19903.43875434357
 31
0.0
  0
LINE
  5
1A8
  8
FUTO
 10
18318.998048220339
 20
19986.322374571719
 30
0.0
 11
18277.001452353419
 21
19936.673742039071
 31
0.0
  0
LINE
  5
1A9
  8
FUTO
 10
18305.255213652799
 20
19997.94711104397
 30
0.0
 11
18263.258617785861
 21
19948.298478511311
 31
0.0
  0
LINE
  5
1AA
  8
FUTO
 10
18312.1082501083
 20
19992.113012880222
 30
0.0
 11
18270.13003506964
 21
19942.486110275189
 31
0.0
  0
LINE
  5
1AB
  8
FUTO
 10
18177.108250108289
 20
19903.43875434357
 30
0.0
 11
18187.108250108289
 21
19833.43875434357
 31
0.0
  0
LINE
  5
1AC
  8
FUTO
 10
18277.00145235343
 20
19936.67374203906
 30
0.0
 11
18263.258617785868
 21
19948.298478511319
 31
0.0
  0
LINE
  5
1AE
  8
KL
 10
18737.108250108289
 20
19833.43875434357
 30
0.0
 11
18737.108250108289
 21
19683.43875434357
 31
0.0
  0
LINE
  5
1AF
  8
FUTO
 10
18671.108250108289
 20
19833.43875434357
 30
0.0
 11
18671.108250108289
 21
19683.43875434357
 31
0.0
  0
LINE
  5
1B0
  8
FUTO
 10
18653.108250108289
 20
19833.43875434357
 30
0.0
 11
18653.108250108289
 21
19683.43875434357
 31
0.0
  0
LINE
  5
1B1
  8
FUTO
 10
18662.108250108289
 20
19833.43875434357
 30
0.0
 11
18662.108250108289
 21
19683.43875434357
 31
0.0
  0
LINE
  5
1B2
  8
KL
 10
18662.108250108289
 20
19847.603648881981
 30
0.0
 11
18662.108250108289
 21
19683.43875434357
 31
0.0
  0
DIMENSION
  5
1B3
  8
SP
  2
*D9
 10
19362.108250108289
 20
19248.23137562527
 30
0.0
 11
19892.108250108289
 21
19328.23137562527
 31
0.0
 70
     0
 13
20422.108250108289
 23
19683.43875434357
 33
0.0
 14
19362.108250108289
 24
19602.784579333362
 34
0.0
1001
ACAD
1000
DSTYLE
1002
{
1070
    40
1040
40.0
1002
}
  0
LINE
  5
1EC
  8
KL
 10
19987.108250108289
 20
19833.43875434357
 30
0.0
 11
19987.108250108289
 21
19683.43875434357
 31
0.0
  0
LINE
  5
1ED
  8
FUTO
 10
20062.108250108289
 20
19833.43875434357
 30
0.0
 11
20062.108250108289
 21
19683.43875434357
 31
0.0
  0
LINE
  5
1EE
  8
KL
 10
20062.108250108289
 20
19847.603648881981
 30
0.0
 11
20062.108250108289
 21
19683.43875434357
 31
0.0
  0
LINE
  5
1EF
  8
FUTO
 10
20422.108250108289
 20
19833.43875434357
 30
0.0
 11
20422.108250108289
 21
19683.43875434357
 31
0.0
  0
LINE
  5
1F0
  8
FUTO
 10
17673.228335663451
 20
25127.676268966439
 30
0.0
 11
17673.228335663451
 21
24975.676268966439
 31
0.0
  0
LINE
  5
1F1
  8
FUTO
 10
17422.108250108289
 20
25137.676268966428
 30
0.0
 11
17422.108250108289
 21
25127.676268966439
 31
0.0
  0
LINE
  5
1F2
  8
CT
 10
17862.108250108289
 20
25053.048157524561
 30
0.0
 11
17862.108250108289
 21
23509.581445919779
 31
0.0
  0
LINE
  5
1F3
  8
FUTO
 10
18662.108250108289
 20
25127.676268966439
 30
0.0
 11
18662.108250108289
 21
23755.676268966439
 31
0.0
  0
LINE
  5
1F4
  8
FUTO
 10
18737.108250108289
 20
25127.676268966439
 30
0.0
 11
18737.108250108289
 21
23830.676268966428
 31
0.0
  0
LINE
  5
1F5
  8
FUTO
 10
19987.108250108289
 20
25127.676268966439
 30
0.0
 11
19987.108250108289
 21
23830.676268966428
 31
0.0
  0
LINE
  5
1F6
  8
FUTO
 10
20062.108250108289
 20
25127.676268966439
 30
0.0
 11
20062.108250108289
 21
23755.676268966439
 31
0.0
  0
ARC
  5
263
  8
FUTO
 10
19362.108250108289
 20
21273.43875434357
 30
0.0
 40
480.0
 50
299.81253858245299
 51
132.1967714101884
  0
LINE
  5
267
  8
FUTO
 10
17468.160920116748
 20
21264.43875434357
 30
0.0
 11
18526.13604980415
 21
21264.43875434357
 31
0.0
  0
LINE
  5
268
  8
FUTO
 10
17468.160920116748
 20
21282.43875434357
 30
0.0
 11
18551.225560845269
 21
21282.43875434357
 31
0.0
  0
ARC
  5
269
  8
FUTO
 10
19231.108250108289
 20
21404.43875434357
 30
0.0
 40
1705.0
 50
232.5424727835202
 51
247.13274235252899
  0
ARC
  5
26A
  8
KL
 10
19231.108250108289
 20
21404.43875434357
 30
0.0
 40
1685.0
 50
185.38794086100319
 51
265.16337676580599
  0
LINE
  5
26D
  8
FUTO
 10
18321.108250108289
 20
22373.43875434357
 30
0.0
 11
18321.108250108289
 21
21273.43875434357
 31
0.0
  0
LINE
  5
26E
  8
FUTO
 10
18312.108250108289
 20
22373.43875434357
 30
0.0
 11
18312.108250108289
 21
21273.43875434357
 31
0.0
  0
LINE
  5
26F
  8
KL
 10
19361.64560108494
 20
19725.43875434357
 30
0.0
 11
19089.037845026869
 21
19725.43875434357
 31
0.0
  0
LINE
  5
272
  8
CT
 10
17760.401835484019
 20
20633.43875434357
 30
0.0
 11
17606.104897964338
 21
20633.43875434357
 31
0.0
  0
LINE
  5
273
  8
FUTO
 10
18072.108250108289
 20
20773.43875434357
 30
0.0
 11
17682.108250108289
 21
20773.43875434357
 31
0.0
  0
LINE
  5
274
  8
FUTO
 10
18072.108250108289
 20
20508.43875434357
 30
0.0
 11
17682.108250108289
 21
20508.43875434357
 31
0.0
  0
ARC
  5
275
  8
FUTO
 10
17682.108250108289
 20
20753.43875434357
 30
0.0
 40
20.0
 50
90.0
 51
180.0
  0
ARC
  5
276
  8
FUTO
 10
17682.108250108289
 20
20528.43875434357
 30
0.0
 40
20.0
 50
180.0
 51
270.0
  0
LINE
  5
277
  8
FUTO
 10
17662.108250108289
 20
20753.43875434357
 30
0.0
 11
17662.108250108289
 21
20528.43875434357
 31
0.0
  0
ARC
  5
279
  8
FUTO
 10
18072.108250108289
 20
20753.43875434357
 30
0.0
 40
20.0
 50
0.000000000000007
 51
90.0
  0
LINE
  5
27A
  8
FUTO
 10
17641.41650444999
 20
20776.35392599041
 30
0.0
 11
17605.103266483318
 21
20759.420785034152
 31
0.0
  0
LINE
  5
27B
  8
CT
 10
17704.449351107702
 20
20734.027060369652
 30
0.0
 11
17597.503067871639
 21
20684.157189485471
 31
0.0
  0
LINE
  5
27C
  8
FUTO
 10
17591.814005995551
 20
20764.257680287112
 30
0.0
 11
17655.206745256652
 21
20628.311512231609
 31
0.0
  0
LINE
  5
27D
  8
FUTO
 10
17605.103266483318
 20
20759.420785034152
 30
0.0
 11
17660.043640509612
 21
20641.60077271939
 31
0.0
  0
LINE
  5
27E
  8
FUTO
 10
17637.190321832579
 20
20785.417003860781
 30
0.0
 11
17591.814005995551
 21
20764.257680287112
 31
0.0
  0
LINE
  5
27F
  8
KL
 10
17700.58306109369
 20
20649.470835805281
 30
0.0
 11
17655.206745256652
 21
20628.311512231619
 31
0.0
  0
LINE
  5
280
  8
KL
 10
17696.356878476279
 20
20658.533913675659
 30
0.0
 11
17660.043640509612
 21
20641.60077271939
 31
0.0
  0
ARC
  5
281
  8
FUTO
 10
18072.108250108289
 20
20528.43875434357
 30
0.0
 40
20.0
 50
270.0
 51
0.000000000000007
  0
LINE
  5
282
  8
FUTO
 10
18092.108250108289
 20
20753.43875434357
 30
0.0
 11
18092.108250108289
 21
20528.43875434357
 31
0.0
  0
LINE
  5
283
  8
FUTO
 10
17468.160920116748
 20
21282.43875434357
 30
0.0
 11
17468.160920116748
 21
21264.43875434357
 31
0.0
  0
LINE
  5
285
  8
FUTO
 10
19360.108250108289
 20
22373.43875434357
 30
0.0
 11
17372.1082501083
 21
22373.43875434357
 31
0.0
  0
LINE
  5
286
  8
FUTO
 10
19147.548478075962
 20
22438.43875434357
 30
0.0
 11
18120.146309331169
 21
22438.43875434357
 31
0.0
  0
LINE
  5
287
  8
FUTO
 10
19147.548478075962
 20
22438.43875434357
 30
0.0
 11
17372.1082501083
 21
22438.43875434357
 31
0.0
  0
LINE
  5
288
  8
FUTO
 10
19148.606439960211
 20
22432.43875434357
 30
0.0
 11
18114.146309331169
 21
22432.43875434357
 31
0.0
  0
CIRCLE
  5
295
  8
SL
 10
19362.108250108289
 20
21273.43875434357
 30
0.0
 40
355.0
  0
ARC
  5
296
  8
FUTO
 10
19414.108250108289
 20
21363.50539633715
 30
0.0
 40
15.000000000000099
 50
325.86450299682889
 51
154.1354970031779
  0
ARC
  5
297
  8
FUTO
 10
19362.108250108289
 20
21273.43875434357
 30
0.0
 40
103.9999999999995
 50
68.270994006339905
 51
111.72900599366061
  0
LINE
  5
298
  8
CT
 10
19362.108250108289
 20
21397.207513508281
 30
0.0
 11
19362.108250108289
 21
21143.615030441451
 31
0.0
  0
ARC
  5
299
  8
FUTO
 10
19310.108250108289
 20
21363.50539633715
 30
0.0
 40
15.000000000000201
 50
25.864502996822338
 51
214.13549700317051
  0
ARC
  5
29E
  8
FUTO
 10
19414.108250108289
 20
21183.372112349989
 30
0.0
 40
14.99999999999998
 50
205.8645029968221
 51
34.135497003171601
  0
CIRCLE
  5
29F
  8
FUTO
 10
19362.108250108289
 20
21273.43875434357
 30
0.0
 40
41.5
  0
LINE
  5
2A0
  8
FUTO
 10
19277.108250108289
 20
21166.43875434357
 30
0.0
 11
19447.108250108289
 21
21166.43875434357
 31
0.0
  0
LINE
  5
2A2
  8
KL
 10
19704.15667593234
 20
21151.43875434357
 30
0.0
 11
19362.108250108289
 21
21151.43875434357
 31
0.0
  0
LINE
  5
2A4
  8
FUTO
 10
19238.108250108289
 20
21197.43875434357
 30
0.0
 11
19170.108250108289
 21
21197.43875434357
 31
0.0
  0
LINE
  5
2A5
  8
FUTO
 10
19157.108250108289
 20
21161.43875434357
 30
0.0
 11
19277.108250108289
 21
21161.43875434357
 31
0.0
  0
LINE
  5
2A6
  8
KL
 10
19020.05982428425
 20
21151.43875434357
 30
0.0
 11
19362.108250108289
 21
21151.43875434357
 31
0.0
  0
LINE
  5
2A7
  8
FUTO
 10
19157.108250108289
 20
21161.43875434357
 30
0.0
 11
19157.108250108289
 21
21151.43875434357
 31
0.0
  0
ARC
  5
2A8
  8
FUTO
 10
19170.108250108289
 20
21194.43875434357
 30
0.0
 40
3.0
 50
90.0
 51
180.0
  0
LINE
  5
2A9
  8
FUTO
 10
19167.108250108289
 20
21194.43875434357
 30
0.0
 11
19167.108250108289
 21
21161.43875434357
 31
0.0
  0
LINE
  5
2AA
  8
KL
 10
19162.108250108289
 20
21282.43875434357
 30
0.0
 11
19162.108250108289
 21
21264.43875434357
 31
0.0
  0
ARC
  5
2AD
  8
FUTO
 10
19362.108250108289
 20
21273.43875434357
 30
0.0
 40
104.0000000000007
 50
248.2709940063402
 51
291.72900599366039
  0
ARC
  5
2AE
  8
FUTO
 10
19258.108250108289
 20
21273.43875434357
 30
0.0
 40
15.0
 50
85.864502996829515
 51
274.13549700317049
  0
ARC
  5
2AF
  8
FUTO
 10
19238.108250108289
 20
21217.43875434357
 30
0.0
 40
20.0
 50
270.0
 51
0.000000000000007
  0
LINE
  5
2B0
  8
FUTO
 10
19277.108250108289
 20
21161.43875434357
 30
0.0
 11
19277.108250108289
 21
21166.43875434357
 31
0.0
  0
LINE
  5
2B1
  8
CT
 10
19202.108250108289
 20
21151.43875434357
 30
0.0
 11
19202.108250108289
 21
21207.43875434357
 31
0.0
  0
LINE
  5
2B2
  8
FUTO
 10
19258.108250108289
 20
21258.43875434357
 30
0.0
 11
19258.108250108289
 21
21217.43875434357
 31
0.0
  0
ARC
  5
2B3
  8
FUTO
 10
19310.108250108289
 20
21183.372112349989
 30
0.0
 40
14.999999999999719
 50
145.86450299682909
 51
334.13549700317708
  0
ARC
  5
2B4
  8
FUTO
 10
19362.108250108289
 20
21273.43875434357
 30
0.0
 40
104.0000000000002
 50
188.27099400634009
 51
231.72900599366079
  0
ARC
  5
2B5
  8
FUTO
 10
19362.108250108289
 20
21273.43875434357
 30
0.0
 40
103.9999999999998
 50
128.27099400633969
 51
171.72900599366039
  0
LINE
  5
2B7
  8
FUTO
 10
19567.108250108289
 20
21151.43875434357
 30
0.0
 11
19567.108250108289
 21
21161.43875434357
 31
0.0
  0
ARC
  5
2B8
  8
FUTO
 10
19554.108250108289
 20
21194.43875434357
 30
0.0
 40
3.0
 50
0.000000000000007
 51
90.0
  0
LINE
  5
2B9
  8
FUTO
 10
19557.108250108289
 20
21161.43875434357
 30
0.0
 11
19557.108250108289
 21
21194.43875434357
 31
0.0
  0
LINE
  5
2BA
  8
CT
 10
19522.108250108289
 20
21151.43875434357
 30
0.0
 11
19522.108250108289
 21
21207.43875434357
 31
0.0
  0
LINE
  5
2BB
  8
FUTO
 10
19554.108250108289
 20
21197.43875434357
 30
0.0
 11
19486.108250108289
 21
21197.43875434357
 31
0.0
  0
LINE
  5
2BC
  8
FUTO
 10
19466.108250108289
 20
21217.43875434357
 30
0.0
 11
19466.108250108289
 21
21258.43875434357
 31
0.0
  0
ARC
  5
2BD
  8
FUTO
 10
19486.108250108289
 20
21217.43875434357
 30
0.0
 40
20.0
 50
180.0
 51
270.0
  0
LINE
  5
2BE
  8
FUTO
 10
19447.108250108289
 20
21166.43875434357
 30
0.0
 11
19447.108250108289
 21
21161.43875434357
 31
0.0
  0
LINE
  5
2BF
  8
FUTO
 10
19447.108250108289
 20
21161.43875434357
 30
0.0
 11
19567.108250108289
 21
21161.43875434357
 31
0.0
  0
ARC
  5
2C0
  8
FUTO
 10
19466.108250108289
 20
21273.43875434357
 30
0.0
 40
15.0
 50
270.0
 51
94.135497003170499
  0
ARC
  5
2C1
  8
FUTO
 10
19362.108250108289
 20
21273.43875434357
 30
0.0
 40
103.9999999999998
 50
308.27099400633961
 51
351.72900599366039
  0
ARC
  5
2C2
  8
FUTO
 10
19362.108250108289
 20
21273.43875434357
 30
0.0
 40
103.9999999999994
 50
8.2709940063397234
 51
51.729005993660351
  0
INSERT
  5
2C5
  8
FUTO
  2
左回転矢印
 10
19549.542856660541
 20
21971.877827692511
 30
0.0
 41
-2.0
 42
2.0
 43
2.0
  0
LINE
  5
2D0
  8
FUTO
 10
19389.162752625401
 20
21373.858144371348
 30
0.0
 11
19389.162752625401
 21
21377.43875434357
 31
0.0
  0
LINE
  5
2D1
  8
FUTO
 10
19335.053747591191
 20
21373.858144371348
 30
0.0
 11
19335.053747591191
 21
21377.43875434357
 31
0.0
  0
LINE
  5
2D2
  8
FUTO
 10
19335.053747591191
 20
21377.43875434357
 30
0.0
 11
19389.162752625401
 21
21377.43875434357
 31
0.0
  0
LINE
  5
2D3
  8
FUTO
 10
19360.108250108289
 20
22432.43875434357
 30
0.0
 11
19112.75985916816
 21
22432.43875434357
 31
0.0
  0
LINE
  5
2D4
  8
FUTO
 10
19360.108250108289
 20
22438.43875434357
 30
0.0
 11
19111.421276009201
 21
22438.43875434357
 31
0.0
  0
LINE
  5
2D5
  8
FUTO
 10
19360.108250108289
 20
22438.43875434357
 30
0.0
 11
19165.826157089901
 21
22438.43875434357
 31
0.0
  0
ARC
  5
2D6
  8
KL
 10
19472.608250108289
 20
21383.93875434357
 30
0.0
 40
960.5
 50
90.000000000000028
 51
125.7006366044336
  0
LINE
  5
2D8
  8
FUTO
 10
19311.108250108289
 20
22353.53524350352
 30
0.0
 11
19311.108250108289
 21
22438.43875434357
 31
0.0
  0
LINE
  5
2D9
  8
FUTO
 10
19360.108250108289
 20
22373.43875434357
 30
0.0
 11
19360.108250108289
 21
22438.43875434357
 31
0.0
  0
LINE
  5
2DA
  8
FUTO
 10
19360.108250108289
 20
22373.43875434357
 30
0.0
 11
19360.108250108289
 21
22438.43875434357
 31
0.0
  0
LINE
  5
2DB
  8
KL
 10
19291.108250108289
 20
22327.13438622489
 30
0.0
 11
19291.108250108289
 21
22438.43875434357
 31
0.0
  0
LINE
  5
2DD
  8
FUTO
 10
17421.019492950691
 20
22438.43875434357
 30
0.0
 11
17533.641366892101
 21
21244.341345294259
 31
0.0
  0
LINE
  5
2DE
  8
KL
 10
17441.108250108289
 20
22438.43875434357
 30
0.0
 11
17553.553001885841
 21
21246.219320766981
 31
0.0
  0
LINE
  5
2E3
  8
FUTO
 10
18114.146309331169
 20
22432.43875434357
 30
0.0
 11
17372.1082501083
 21
22432.43875434357
 31
0.0
  0
LINE
  5
2E4
  8
FUTO
 10
17372.108250108289
 20
22373.43875434357
 30
0.0
 11
17372.1082501083
 21
22438.43875434357
 31
0.0
  0
LINE
  5
2FF
  8
FUTO
 10
17422.108250108289
 20
23830.676268966428
 30
0.0
 11
20062.108250108289
 21
23830.676268966428
 31
0.0
  0
LINE
  5
300
  8
FUTO
 10
17422.108250108289
 20
23755.676268966439
 30
0.0
 11
20062.108250108289
 21
23755.676268966439
 31
0.0
  0
LINE
  5
3C8
  8
FUTO
 10
17437.1082501083
 20
26530.676268966428
 30
0.0
 11
20654.108250108289
 21
26530.676268966428
 31
0.0
  0
LINE
  5
3C9
  8
FUTO
 10
18302.108250108289
 20
25202.676268966428
 30
0.0
 11
20654.108250108289
 21
25202.676268966428
 31
0.0
  0
LINE
  5
3CA
  8
FUTO
 10
18302.108250108289
 20
25127.676268966439
 30
0.0
 11
20422.108250108289
 21
25127.676268966439
 31
0.0
  0
LINE
  5
3CB
  8
FUTO
 10
18302.108250108289
 20
26605.676268966428
 30
0.0
 11
20422.108250108289
 21
26605.676268966428
 31
0.0
  0
LINE
  5
3DA
  8
FUTO
 10
17422.108250108289
 20
25127.676268966439
 30
0.0
 11
18662.108250108289
 21
25127.676268966439
 31
0.0
  0
LINE
  5
3DB
  8
FUTO
 10
17437.108250108289
 20
25202.676268966428
 30
0.0
 11
17758.108250108289
 21
25202.676268966439
 31
0.0
  0
LINE
  5
406
  8
FUTO
 10
20422.108250108289
 20
25127.676268966439
 30
0.0
 11
20422.108250108289
 21
25152.676268966428
 31
0.0
  0
LINE
  5
438
  8
SL
 10
22417.071167044091
 20
21551.812554343571
 30
0.0
 11
22417.07116704408
 21
20321.812554343571
 31
0.0
  0
LINE
  5
439
  8
SL
 10
22247.07116704408
 20
21551.812554343571
 30
0.0
 11
22247.071167044091
 21
20321.812554343571
 31
0.0
  0
LINE
  5
43A
  8
CT
 10
24547.07116704408
 20
22515.983397279211
 30
0.0
 11
24547.071167044091
 21
19444.224540575418
 31
0.0
  0
LINE
  5
43C
  8
FUTO
 10
25210.271167044091
 20
19833.438737737579
 30
0.0
 11
25210.271167044091
 21
21340.512554343572
 31
0.0
  0
LINE
  5
43D
  8
FUTO
 10
25207.071167044091
 20
19833.438737737579
 30
0.0
 11
25207.07116704408
 21
21340.512554343572
 31
0.0
  0
LINE
  5
43E
  8
FUTO
 10
23887.071167044091
 20
19833.438737737579
 30
0.0
 11
23887.071167044091
 21
21340.512554343572
 31
0.0
  0
LINE
  5
43F
  8
FUTO
 10
23883.87116704409
 20
19833.438737737579
 30
0.0
 11
23883.87116704409
 21
21340.512554343572
 31
0.0
  0
LINE
  5
441
  8
FUTO
 10
22447.071167044091
 20
21651.812554343571
 30
0.0
 11
22447.071167044091
 21
19931.812554343571
 31
0.0
  0
LINE
  5
442
  8
FUTO
 10
22097.07116704408
 20
21651.812554343571
 30
0.0
 11
22097.071167044091
 21
19931.812554343571
 31
0.0
  0
LINE
  5
445
  8
FUTO
 10
23497.07116704408
 20
21121.812554343571
 30
0.0
 11
23497.07116704408
 21
21111.812554343571
 31
0.0
  0
LINE
  5
446
  8
FUTO
 10
23677.071167044091
 20
21121.812554343571
 30
0.0
 11
23677.071167044091
 21
19833.438737737579
 31
0.0
  0
LINE
  5
449
  8
FUTO
 10
22676.071167044091
 20
21149.812554343571
 30
0.0
 11
22676.071167044091
 21
21111.812554343571
 31
0.0
  0
LINE
  5
44A
  8
FUTO
 10
22496.071167044091
 20
21149.812554343571
 30
0.0
 11
22496.071167044091
 21
20491.812554343571
 31
0.0
  0
DIMENSION
  5
44B
  8
SP
  2
*D18
 10
25922.07930925582
 20
20371.812554343571
 30
0.0
 11
25842.079309255809
 21
21271.812554343582
 31
0.0
 70
     0
  1
%%C<>
 13
25342.071167044091
 23
22171.812554343571
 33
0.0
 14
25342.071167044091
 24
20371.812554343571
 34
0.0
 50
90.0
1001
ACAD
1000
DSTYLE
1002
{
1070
    40
1040
40.0
1002
}
  0
LINE
  5
461
  8
KL
 10
25216.27116704408
 20
22236.812554343571
 30
0.0
 11
25216.271167044091
 21
20306.812554343571
 31
0.0
  0
LINE
  5
462
  8
FUTO
 10
25336.071167044091
 20
22236.812554343571
 30
0.0
 11
25336.071167044091
 21
20306.812554343571
 31
0.0
  0
LINE
  5
463
  8
FUTO
 10
25342.07116704408
 20
22236.812554343571
 30
0.0
 11
25342.071167044091
 21
20306.812554343571
 31
0.0
  0
LINE
  5
464
  8
FUTO
 10
23793.87116704409
 20
21246.793399037819
 30
0.0
 11
23793.87116704409
 21
19833.438737737579
 31
0.0
  0
LINE
  5
465
  8
FUTO
 10
25300.27116704408
 20
21246.793399037819
 30
0.0
 11
25300.271167044091
 21
19833.438737737579
 31
0.0
  0
LINE
  5
46D
  8
FUTO
 10
23808.071167044091
 20
19695.43873773759
 30
0.0
 11
25211.06716704409
 21
19695.43873773759
 31
0.0
  0
LINE
  5
46E
  8
FUTO
 10
23808.071167044091
 20
19821.43873773759
 30
0.0
 11
25211.06716704409
 21
19821.43873773759
 31
0.0
  0
LINE
  5
46F
  8
KL
 10
23887.071167044091
 20
19719.812554343571
 30
0.0
 11
25207.071167044091
 21
19719.812554343571
 31
0.0
  0
LINE
  5
471
  8
FUTO
 10
22436.07116704408
 20
19683.438737737579
 30
0.0
 11
25286.071167044091
 21
19683.43873773759
 31
0.0
1001
ACAD
1000
ASC_BOUNDS
1002
{
1070
    19
1005
0
1005
0
1005
0
1002
}
  0
DIMENSION
  5
472
  8
SP
  2
*D11
 10
24547.071167044091
 20
19243.958124973269
 30
0.0
 11
23491.571167044091
 21
19323.958124973269
 31
0.0
 70
     0
 13
22436.071167044091
 23
19683.43873773759
 33
0.0
 14
24547.071167044091
 24
19662.511685743651
 34
0.0
1001
ACAD
1000
DSTYLE
1002
{
1070
    40
1040
40.0
1002
}
  0
DIMENSION
  5
47F
  8
SP
  2
*D10
 10
25286.071167044091
 20
18943.920580008351
 30
0.0
 11
23861.071167044091
 21
19023.920580008351
 31
0.0
 70
     0
 13
22436.071167044091
 23
19683.43873773759
 33
0.0
 14
25286.071167044091
 24
19683.43873773759
 34
0.0
1001
ACAD
1000
DSTYLE
1002
{
1070
    40
1040
40.0
1002
}
  0
LINE
  5
48D
  8
FUTO
 10
22436.071167044091
 20
19833.438737737579
 30
0.0
 11
25300.27116704408
 21
19833.438737737579
 31
0.0
  0
LINE
  5
48E
  8
CT
 10
22038.761895495179
 20
20441.812554343571
 30
0.0
 11
22619.264428351289
 21
20441.812554343571
 31
0.0
  0
LINE
  5
493
  8
FUTO
 10
22511.075167044091
 20
19821.43873773759
 30
0.0
 11
23790.18127164961
 21
19821.43873773759
 31
0.0
  0
LINE
  5
494
  8
FUTO
 10
22511.075167044091
 20
19695.43873773759
 30
0.0
 11
23790.18127164961
 21
19695.43873773759
 31
0.0
  0
LINE
  5
495
  8
CT
 10
22471.075167044091
 20
19696.340537550779
 30
0.0
 11
22471.075167044091
 21
19642.13376264663
 31
0.0
  0
LINE
  5
4BB
  8
SL
 10
22417.07116704408
 20
20321.812554343571
 30
0.0
 11
22417.071167044091
 21
20041.812554343571
 31
0.0
  0
LINE
  5
4BC
  8
SL
 10
22247.071167044091
 20
20321.812554343571
 30
0.0
 11
22247.071167044091
 21
20041.812554343571
 31
0.0
  0
LINE
  5
4BD
  8
SL
 10
22247.071167044091
 20
20041.812554343571
 30
0.0
 11
22417.07116704408
 21
20041.812554343571
 31
0.0
  0
LINE
  5
4BE
  8
FUTO
 10
22097.071167044091
 20
19931.812554343571
 30
0.0
 11
22447.071167044091
 21
19931.812554343571
 31
0.0
  0
LINE
  5
4C1
  8
FUTO
 10
22436.071167044091
 20
19683.43873773759
 30
0.0
 11
22511.07116704408
 21
19683.43873773759
 31
0.0
  0
LINE
  5
4C2
  8
FUTO
 10
22436.071167044091
 20
19683.43873773759
 30
0.0
 11
22436.071167044091
 21
19685.860737737581
 31
0.0
  0
LINE
  5
4C3
  8
FUTO
 10
22440.63816704409
 20
19690.841737737581
 30
0.0
 11
22495.44216704409
 21
19695.63873773758
 31
0.0
  0
ARC
  5
4C4
  8
FUTO
 10
22440.075167044091
 20
19830.100549159411
 30
0.0
 40
4.0
 50
180.0
 51
264.99999999999977
  0
LINE
  5
4C5
  8
FUTO
 10
22436.075167044091
 20
19833.438737737579
 30
0.0
 11
22436.075167044091
 21
19830.100549159411
 31
0.0
  0
LINE
  5
4C6
  8
FUTO
 10
22436.075167044091
 20
19683.43873773759
 30
0.0
 11
22436.075167044091
 21
19686.77692631575
 31
0.0
  0
ARC
  5
4C7
  8
FUTO
 10
22440.075167044091
 20
19686.77692631575
 30
0.0
 40
4.0
 50
95.000000000000185
 51
180.0
  0
ARC
  5
4C8
  8
FUTO
 10
22500.575167044091
 20
19816.77692631575
 30
0.0
 40
4.0
 50
0.0
 51
85.000000000000256
  0
LINE
  5
4C9
  8
FUTO
 10
22511.075167044091
 20
19833.438737737579
 30
0.0
 11
22511.075167044091
 21
19683.43873773759
 31
0.0
  0
ARC
  5
4CA
  8
FUTO
 10
22500.575167044091
 20
19700.100549159419
 30
0.0
 40
4.0
 50
274.99999999999972
 51
0.0
  0
LINE
  5
4CB
  8
FUTO
 10
22504.575167044091
 20
19816.77692631575
 30
0.0
 11
22504.575167044091
 21
19700.100549159419
 31
0.0
  0
LINE
  5
4CC
  8
FUTO
 10
22500.92379001508
 20
19820.761705108122
 30
0.0
 11
22439.726544073092
 21
19826.115770367051
 31
0.0
  0
LINE
  5
4CD
  8
FUTO
 10
22511.075167044091
 20
19833.438737737579
 30
0.0
 11
22436.075167044091
 21
19833.438737737579
 31
0.0
  0
LINE
  5
4CE
  8
FUTO
 10
22500.92379001508
 20
19696.115770367051
 30
0.0
 11
22439.726544073092
 21
19690.761705108122
 31
0.0
  0
LINE
  5
4CF
  8
FUTO
 10
22511.075167044091
 20
19683.43873773759
 30
0.0
 11
22436.075167044091
 21
19683.43873773759
 31
0.0
  0
LINE
  5
4D0
  8
FUTO
 10
22511.075167044091
 20
19833.438737737579
 30
0.0
 11
22511.075167044091
 21
19683.43873773759
 31
0.0
  0
LINE
  5
4D1
  8
SL
 10
22247.071167044091
 20
20321.812554343571
 30
0.0
 11
22417.07116704408
 21
20321.812554343571
 31
0.0
  0
LINE
  5
4D5
  8
CT
 10
23768.071167044091
 20
19696.340537550779
 30
0.0
 11
23768.071167044091
 21
19642.13376264663
 31
0.0
  0
LINE
  5
4FF
  8
1
 10
23733.87216704409
 20
19683.43873773759
 30
0.0
 11
23808.87216704409
 21
19683.43873773759
 31
0.0
  0
LINE
  5
501
  8
FUTO
 10
23808.071167044091
 20
19833.438737737579
 30
0.0
 11
23733.071167044091
 21
19833.438737737579
 31
0.0
  0
LINE
  5
502
  8
FUTO
 10
23797.919790015079
 20
19820.761705108122
 30
0.0
 11
23736.722544073091
 21
19826.115770367051
 31
0.0
  0
ARC
  5
503
  8
FUTO
 10
23797.571167044091
 20
19816.77692631575
 30
0.0
 40
4.0
 50
0.0
 51
84.999999999999957
  0
LINE
  5
504
  8
FUTO
 10
23733.071167044091
 20
19833.438737737579
 30
0.0
 11
23733.071167044091
 21
19830.100549159411
 31
0.0
  0
ARC
  5
505
  8
FUTO
 10
23737.071167044091
 20
19830.100549159411
 30
0.0
 40
4.0
 50
180.0
 51
264.99999999999972
  0
LINE
  5
506
  8
FUTO
 10
23808.071167044091
 20
19683.43873773759
 30
0.0
 11
23733.071167044091
 21
19683.43873773759
 31
0.0
  0
LINE
  5
507
  8
FUTO
 10
23797.919790015079
 20
19696.115770367051
 30
0.0
 11
23736.722544073091
 21
19690.761705108122
 31
0.0
  0
ARC
  5
508
  8
FUTO
 10
23797.571167044091
 20
19700.100549159419
 30
0.0
 40
4.0
 50
275.0
 51
0.0
  0
ARC
  5
509
  8
FUTO
 10
23737.071167044091
 20
19686.77692631575
 30
0.0
 40
4.0
 50
95.000000000000185
 51
180.0
  0
LINE
  5
50A
  8
FUTO
 10
23733.071167044091
 20
19683.43873773759
 30
0.0
 11
23733.071167044091
 21
19686.77692631575
 31
0.0
  0
LINE
  5
50B
  8
FUTO
 10
23733.06716704409
 20
19683.43873773759
 30
0.0
 11
23733.06716704409
 21
19685.860737737581
 31
0.0
  0
LINE
  5
50C
  8
FUTO
 10
23737.634167044089
 20
19690.841737737581
 30
0.0
 11
23792.438167044089
 21
19695.63873773758
 31
0.0
  0
LINE
  5
50D
  8
FUTO
 10
23733.06716704409
 20
19683.43873773759
 30
0.0
 11
23808.067167044079
 21
19683.43873773759
 31
0.0
  0
LINE
  5
50E
  8
FUTO
 10
23808.071167044091
 20
19833.438737737579
 30
0.0
 11
23808.071167044091
 21
19683.43873773759
 31
0.0
  0
LINE
  5
50F
  8
FUTO
 10
23801.571167044091
 20
19816.77692631575
 30
0.0
 11
23801.571167044091
 21
19700.100549159419
 31
0.0
  0
LINE
  5
510
  8
FUTO
 10
23808.071167044091
 20
19833.438737737579
 30
0.0
 11
23808.071167044091
 21
19683.43873773759
 31
0.0
  0
LINE
  5
511
  8
FUTO
 10
23883.87116704409
 20
19704.812554343571
 30
0.0
 11
23887.071167044091
 21
19704.812554343571
 31
0.0
  0
LINE
  5
512
  8
KL
 10
23883.87116704409
 20
19704.812554343571
 30
0.0
 11
23883.87116704409
 21
19833.438737737579
 31
0.0
  0
LINE
  5
513
  8
KL
 10
23887.071167044091
 20
19704.812554343571
 30
0.0
 11
23887.071167044091
 21
19833.438737737579
 31
0.0
  0
DIMENSION
  5
517
  8
SP
  2
*D12
 10
25286.071167044091
 20
19243.958124973269
 30
0.0
 11
24916.571167044091
 21
19323.958124973269
 31
0.0
 70
     0
 13
24547.071167044091
 23
19662.511685743651
 33
0.0
 14
25286.071167044091
 24
19683.43873773759
 34
0.0
1001
ACAD
1000
DSTYLE
1002
{
1070
   287
1070
     4
1070
    40
1040
40.0
1070
    75
1070
     1
1070
   279
1070
     1
1070
   289
1070
     3
1002
}
  0
LINE
  5
529
  8
CT
 10
25251.071167044091
 20
19696.340537550779
 30
0.0
 11
25251.071167044091
 21
19642.13376264663
 31
0.0
  0
LINE
  5
54E
  8
FUTO
 10
25207.071167044091
 20
19719.812554343571
 30
0.0
 11
25357.071167044091
 21
19719.812554343571
 31
0.0
  0
LINE
  5
54F
  8
FUTO
 10
25357.071167044091
 20
19753.812554343571
 30
0.0
 11
25207.071167044091
 21
19753.812554343571
 31
0.0
  0
LINE
  5
550
  8
CT
 10
25172.158481561019
 20
19736.812554343571
 30
0.0
 11
25408.656660038221
 21
19736.812554343571
 31
0.0
  0
LINE
  5
553
  8
KL
 10
25207.071167044091
 20
19704.812554343571
 30
0.0
 11
25210.271167044091
 21
19704.812554343571
 31
0.0
  0
LINE
  5
554
  8
FUTO
 10
25286.071167044091
 20
19683.43873773759
 30
0.0
 11
25211.071167044091
 21
19683.43873773759
 31
0.0
  0
LINE
  5
555
  8
FUTO
 10
25281.504167044091
 20
19690.841737737581
 30
0.0
 11
25226.700167044091
 21
19695.63873773758
 31
0.0
  0
LINE
  5
556
  8
FUTO
 10
25286.071167044091
 20
19683.43873773759
 30
0.0
 11
25286.071167044091
 21
19685.860737737581
 31
0.0
  0
LINE
  5
557
  8
1
 10
25285.26616704409
 20
19683.43873773759
 30
0.0
 11
25210.26616704409
 21
19683.43873773759
 31
0.0
  0
ARC
  5
558
  8
FUTO
 10
25282.06716704409
 20
19830.100549159411
 30
0.0
 40
4.0
 50
275.00000000000011
 51
0.0
  0
LINE
  5
559
  8
FUTO
 10
25286.06716704409
 20
19833.438737737579
 30
0.0
 11
25286.06716704409
 21
19830.100549159411
 31
0.0
  0
LINE
  5
55A
  8
FUTO
 10
25286.06716704409
 20
19683.43873773759
 30
0.0
 11
25286.06716704409
 21
19686.77692631575
 31
0.0
  0
ARC
  5
55B
  8
FUTO
 10
25282.06716704409
 20
19686.77692631575
 30
0.0
 40
4.0
 50
0.0
 51
84.999999999999801
  0
ARC
  5
55C
  8
FUTO
 10
25221.567167044079
 20
19816.77692631575
 30
0.0
 40
4.0
 50
95.000000000000057
 51
180.0
  0
LINE
  5
55D
  8
FUTO
 10
25211.06716704409
 20
19833.438737737579
 30
0.0
 11
25211.06716704409
 21
19683.43873773759
 31
0.0
  0
ARC
  5
55E
  8
FUTO
 10
25221.567167044079
 20
19700.100549159419
 30
0.0
 40
4.0
 50
180.0
 51
264.99999999999989
  0
LINE
  5
55F
  8
FUTO
 10
25217.56716704409
 20
19816.77692631575
 30
0.0
 11
25217.56716704409
 21
19700.100549159419
 31
0.0
  0
LINE
  5
560
  8
FUTO
 10
25221.218544073101
 20
19820.761705108122
 30
0.0
 11
25282.415790015079
 21
19826.115770367051
 31
0.0
  0
LINE
  5
561
  8
FUTO
 10
25211.06716704409
 20
19833.438737737579
 30
0.0
 11
25286.06716704409
 21
19833.438737737579
 31
0.0
  0
LINE
  5
562
  8
FUTO
 10
25221.218544073101
 20
19696.115770367051
 30
0.0
 11
25282.415790015079
 21
19690.761705108122
 31
0.0
  0
LINE
  5
563
  8
FUTO
 10
25211.06716704409
 20
19683.43873773759
 30
0.0
 11
25286.06716704409
 21
19683.43873773759
 31
0.0
  0
LINE
  5
564
  8
FUTO
 10
25211.06716704409
 20
19833.438737737579
 30
0.0
 11
25211.06716704409
 21
19683.43873773759
 31
0.0
  0
LINE
  5
565
  8
KL
 10
25210.271167044091
 20
19704.812554343571
 30
0.0
 11
25210.271167044091
 21
19833.438737737579
 31
0.0
  0
LINE
  5
566
  8
KL
 10
25207.071167044091
 20
19704.812554343571
 30
0.0
 11
25207.071167044091
 21
19833.438737737579
 31
0.0
  0
LINE
  5
567
  8
FUTO
 10
25398.175332189629
 20
19715.984337669739
 30
0.0
 11
25398.175332189629
 21
19757.64077101741
 31
0.0
  0
LINE
  5
568
  8
FUTO
 10
25357.071167044091
 20
19715.984337669739
 30
0.0
 11
25357.071167044091
 21
19757.64077101741
 31
0.0
  0
LINE
  5
569
  8
FUTO
 10
25357.071167044091
 20
19715.984337669739
 30
0.0
 11
25398.175332189629
 21
19715.984337669739
 31
0.0
  0
LINE
  5
56A
  8
FUTO
 10
25357.071167044091
 20
19757.64077101741
 30
0.0
 11
25398.175332189629
 21
19757.64077101741
 31
0.0
  0
LINE
  5
56B
  8
KL
 10
25210.271167044091
 20
20365.812554343571
 30
0.0
 11
25300.271167044091
 21
20365.812554343571
 31
0.0
  0
LINE
  5
56C
  8
KL
 10
25210.271167044091
 20
20371.812554343571
 30
0.0
 11
25342.071167044091
 21
20371.812554343571
 31
0.0
  0
LINE
  5
56D
  8
HOSO
 10
25167.73715743317
 20
20331.812554343571
 30
0.0
 11
25241.844772581429
 21
20331.812554343571
 31
0.0
  0
LINE
  5
56E
  8
KL
 10
25210.271167044091
 20
20306.812554343571
 30
0.0
 11
25216.271167044091
 21
20306.812554343571
 31
0.0
  0
LINE
  5
56F
  8
FUTO
 10
25300.271167044091
 20
20365.812554343571
 30
0.0
 11
25342.071167044091
 21
20365.812554343571
 31
0.0
  0
LINE
  5
570
  8
FUTO
 10
25336.071167044091
 20
20306.812554343571
 30
0.0
 11
25342.071167044091
 21
20306.812554343571
 31
0.0
  0
LINE
  5
571
  8
HOSO
 10
25308.58862085807
 20
20331.812554343571
 30
0.0
 11
25382.69623600633
 21
20331.812554343571
 31
0.0
  0
LINE
  5
600
  8
FUTO
 10
23818.87116704409
 20
21262.812554343571
 30
0.0
 11
25275.27116704408
 21
21262.812554343571
 31
0.0
  0
LINE
  5
601
  8
FUTO
 10
23818.87116704409
 20
21280.812554343571
 30
0.0
 11
25275.27116704408
 21
21280.812554343571
 31
0.0
  0
LINE
  5
61E
  8
CT
 10
22045.145045359299
 20
21271.812554343571
 30
0.0
 11
25541.066470216309
 21
21271.812554343571
 31
0.0
  0
LINE
  5
623
  8
FUTO
 10
22652.571167044091
 20
21375.812554343571
 30
0.0
 11
22519.571167044091
 21
21375.812554343571
 31
0.0
  0
LINE
  5
624
  8
FUTO
 10
22519.571167044091
 20
21167.812554343571
 30
0.0
 11
22531.071167044091
 21
21167.812554343571
 31
0.0
  0
ARC
  5
625
  8
FUTO
 10
22537.071167044091
 20
21189.812554343571
 30
0.0
 40
6.0
 50
90.0
 51
180.0
  0
LINE
  5
626
  8
FUTO
 10
22496.071167044091
 20
21149.812554343571
 30
0.0
 11
22676.07116704408
 21
21149.812554343571
 31
0.0
  0
ARC
  5
628
  8
FUTO
 10
22519.571167044091
 20
21369.812554343571
 30
0.0
 40
6.0
 50
90.0
 51
180.0
  0
LINE
  5
629
  8
SL
 10
22247.071167044091
 20
20991.812554343571
 30
0.0
 11
22417.071167044091
 21
20991.812554343571
 31
0.0
  0
LINE
  5
62A
  8
FUTO
 10
22513.571167044091
 20
21361.812554343571
 30
0.0
 11
22508.571167044091
 21
21361.812554343571
 31
0.0
  0
ARC
  5
62B
  8
FUTO
 10
22519.571167044091
 20
21173.812554343571
 30
0.0
 40
6.0
 50
180.0
 51
270.0
  0
LINE
  5
62C
  8
FUTO
 10
22508.571167044091
 20
21181.812554343571
 30
0.0
 11
22513.571167044091
 21
21181.812554343571
 31
0.0
  0
LINE
  5
62D
  8
FUTO
 10
22513.571167044091
 20
21369.812554343571
 30
0.0
 11
22513.571167044091
 21
21173.812554343571
 31
0.0
  0
LINE
  5
62E
  8
FUTO
 10
22508.571167044091
 20
21361.812554343571
 30
0.0
 11
22508.571167044091
 21
21181.812554343571
 31
0.0
  0
LINE
  5
62F
  8
FUTO
 10
22417.071167044091
 20
21224.312554343571
 30
0.0
 11
22508.571167044091
 21
21224.312554343571
 31
0.0
  0
LINE
  5
630
  8
FUTO
 10
22417.071167044091
 20
21319.312554343571
 30
0.0
 11
22508.571167044091
 21
21319.312554343571
 31
0.0
  0
LINE
  5
631
  8
SL
 10
22247.071167044091
 20
21551.812554343571
 30
0.0
 11
22417.071167044091
 21
21551.812554343571
 31
0.0
  0
LINE
  5
632
  8
FUTO
 10
22097.07116704408
 20
21651.812554343571
 30
0.0
 11
22447.071167044091
 21
21651.812554343571
 31
0.0
  0
LINE
  5
636
  8
FUTO
 10
23883.87116704409
 20
21340.512554343572
 30
0.0
 11
23883.87116704409
 21
22436.812554343571
 31
0.0
  0
LINE
  5
637
  8
FUTO
 10
23887.071167044091
 20
21340.512554343572
 30
0.0
 11
23887.07116704408
 21
22436.812554343571
 31
0.0
  0
LINE
  5
638
  8
FUTO
 10
23818.87116704409
 20
22436.812554343571
 30
0.0
 11
23818.87116704409
 21
21262.812554343571
 31
0.0
  0
LINE
  5
63B
  8
SL
 10
23466.58278837016
 20
21487.887224153819
 30
0.0
 11
22701.204831572471
 21
21487.887224153819
 31
0.0
  0
LINE
  5
63D
  8
FUTO
 10
23497.07116704408
 20
21111.812554343571
 30
0.0
 11
22676.071167044091
 21
21111.812554343571
 31
0.0
  0
LINE
  5
63E
  8
FUTO
 10
22663.57116704408
 20
21219.312554343571
 30
0.0
 11
23493.571167044091
 21
21219.312554343571
 31
0.0
  0
LINE
  5
63F
  8
FUTO
 10
22663.57116704408
 20
21324.312554343571
 30
0.0
 11
23493.571167044091
 21
21324.312554343571
 31
0.0
  0
LINE
  5
640
  8
SL
 10
22701.204831572471
 20
21487.887224153819
 30
0.0
 11
22701.204831572471
 21
21111.812554343571
 31
0.0
  0
LINE
  5
641
  8
CT
 10
22586.071167044091
 20
21452.878468763189
 30
0.0
 11
22586.071167044091
 21
21062.878300817782
 31
0.0
  0
ARC
  5
642
  8
FUTO
 10
22652.571167044091
 20
21369.812554343571
 30
0.0
 40
6.0
 50
0.0
 51
90.0
  0
LINE
  5
643
  8
FUTO
 10
22641.071167044091
 20
21375.812554343571
 30
0.0
 11
22641.071167044091
 21
21149.812554343571
 31
0.0
  0
LINE
  5
644
  8
FUTO
 10
22531.071167044091
 20
21375.812554343571
 30
0.0
 11
22531.071167044091
 21
21149.812554343571
 31
0.0
  0
LINE
  5
645
  8
CT
 10
22586.071167044091
 20
21395.581313508279
 30
0.0
 11
22586.071167044091
 21
21141.988830441442
 31
0.0
  0
LINE
  5
646
  8
FUTO
 10
22658.571167044091
 20
21361.812554343571
 30
0.0
 11
22663.57116704408
 21
21361.812554343571
 31
0.0
  0
LINE
  5
647
  8
FUTO
 10
22663.57116704408
 20
21181.812554343571
 30
0.0
 11
22658.571167044091
 21
21181.812554343571
 31
0.0
  0
ARC
  5
648
  8
FUTO
 10
22652.571167044091
 20
21173.812554343571
 30
0.0
 40
6.0
 50
270.0
 51
0.0
  0
LINE
  5
649
  8
FUTO
 10
22652.571167044091
 20
21167.812554343571
 30
0.0
 11
22641.071167044091
 21
21167.812554343571
 31
0.0
  0
ARC
  5
64A
  8
FUTO
 10
22635.07116704408
 20
21189.812554343571
 30
0.0
 40
6.0
 50
0.0
 51
90.0
  0
LINE
  5
64B
  8
FUTO
 10
22663.57116704408
 20
21361.812554343571
 30
0.0
 11
22663.57116704408
 21
21181.812554343571
 31
0.0
  0
LINE
  5
64C
  8
FUTO
 10
22658.571167044091
 20
21369.812554343571
 30
0.0
 11
22658.571167044091
 21
21173.812554343571
 31
0.0
  0
LINE
  5
64D
  8
FUTO
 10
22531.071167044091
 20
21159.812554343571
 30
0.0
 11
22641.071167044091
 21
21159.812554343571
 31
0.0
  0
LINE
  5
64E
  8
FUTO
 10
22635.07116704408
 20
21195.812554343571
 30
0.0
 11
22537.071167044091
 21
21195.812554343571
 31
0.0
  0
LINE
  5
653
  8
SL
 10
23466.58278837016
 20
21487.887224153819
 30
0.0
 11
23466.58278837016
 21
21111.812554343571
 31
0.0
  0
LINE
  5
654
  8
CT
 10
23587.07116704408
 20
21480.583382423811
 30
0.0
 11
23587.07116704408
 21
21030.91107865622
 31
0.0
  0
LINE
  5
655
  8
FUTO
 10
23665.571167044091
 20
21379.312554343571
 30
0.0
 11
23680.571167044091
 21
21355.812554343571
 31
0.0
  0
LINE
  5
656
  8
FUTO
 10
23653.571167044091
 20
21401.812554343571
 30
0.0
 11
23653.571167044091
 21
21186.812554343571
 31
0.0
  0
LINE
  5
657
  8
FUTO
 10
23653.571167044091
 20
21176.812554343571
 30
0.0
 11
23653.571167044091
 21
21401.81249114919
 31
0.0
  0
LINE
  5
658
  8
FUTO
 10
23665.571167044091
 20
21141.812554343571
 30
0.0
 11
23665.571167044091
 21
21401.812554343571
 31
0.0
  0
LINE
  5
659
  8
FUTO
 10
23493.571167044091
 20
21355.812554343571
 30
0.0
 11
23508.571167044091
 21
21379.312554343571
 31
0.0
  0
LINE
  5
65A
  8
FUTO
 10
23520.571167044091
 20
21401.812554343571
 30
0.0
 11
23520.571167044091
 21
21186.812554343571
 31
0.0
  0
LINE
  5
65B
  8
CT
 10
23587.071167044091
 20
21435.974134009779
 30
0.0
 11
23587.071167044091
 21
21094.104511165679
 31
0.0
  0
LINE
  5
65C
  8
FUTO
 10
23508.571167044091
 20
21401.812554343571
 30
0.0
 11
23508.57116704408
 21
21141.812554343571
 31
0.0
  0
LINE
  5
662
  8
FUTO
 10
23818.87116704409
 20
21262.812554343571
 30
0.0
 11
23793.87116704409
 21
21246.793399037819
 31
0.0
  0
LINE
  5
664
  8
FUTO
 10
23677.071167044091
 20
21121.812554343571
 30
0.0
 11
23497.07116704408
 21
21121.812554343571
 31
0.0
  0
LINE
  5
665
  8
FUTO
 10
23662.07116704408
 20
21131.812554343571
 30
0.0
 11
23512.071167044091
 21
21131.812554343571
 31
0.0
  0
LINE
  5
666
  8
FUTO
 10
23512.071167044091
 20
21186.812554343571
 30
0.0
 11
23662.07116704408
 21
21186.812554343571
 31
0.0
  0
LINE
  5
667
  8
FUTO
 10
23493.571167044091
 20
21187.812554343571
 30
0.0
 11
23493.571167044091
 21
21355.812554343571
 31
0.0
  0
LINE
  5
668
  8
FUTO
 10
23508.571167044091
 20
21141.812554343571
 30
0.0
 11
23512.071167044091
 21
21141.812554343571
 31
0.0
  0
LINE
  5
669
  8
CT
 10
23537.071167044091
 20
21096.85746199232
 30
0.0
 11
23537.071167044091
 21
21217.629987114091
 31
0.0
  0
LINE
  5
66A
  8
FUTO
 10
23512.071167044091
 20
21121.812554343571
 30
0.0
 11
23512.071167044091
 21
21186.812554343571
 31
0.0
  0
LINE
  5
66B
  8
FUTO
 10
23508.571167044091
 20
21164.312554343571
 30
0.0
 11
23493.571167044091
 21
21187.812554343571
 31
0.0
  0
LINE
  5
66C
  8
FUTO
 10
23680.571167044091
 20
21324.312554343571
 30
0.0
 11
23818.87116704409
 21
21324.312554343571
 31
0.0
  0
LINE
  5
66E
  8
FUTO
 10
23680.571167044091
 20
21219.312554343571
 30
0.0
 11
23793.87116704409
 21
21219.312554343571
 31
0.0
  0
LINE
  5
67F
  8
CT
 10
23698.461505280411
 20
21271.812554343571
 30
0.0
 11
23807.80412715632
 21
21271.812554343571
 31
0.0
  0
LINE
  5
69D
  8
FUTO
 10
23680.571167044091
 20
21355.812554343571
 30
0.0
 11
23680.571167044091
 21
21187.812554343571
 31
0.0
  0
LINE
  5
69E
  8
FUTO
 10
23662.07116704408
 20
21141.812554343571
 30
0.0
 11
23665.571167044091
 21
21141.812554343571
 31
0.0
  0
LINE
  5
69F
  8
FUTO
 10
23662.07116704408
 20
21186.812554343571
 30
0.0
 11
23662.07116704408
 21
21121.812554343571
 31
0.0
  0
LINE
  5
6A0
  8
FUTO
 10
23680.571167044091
 20
21187.812554343571
 30
0.0
 11
23665.571167044091
 21
21164.312554343571
 31
0.0
  0
LINE
  5
6A1
  8
CT
 10
23637.071167044091
 20
21096.85746199232
 30
0.0
 11
23637.071167044091
 21
21217.629987114091
 31
0.0
  0
LINE
  5
6AC
  8
FUTO
 10
23648.571167044091
 20
21419.812554343571
 30
0.0
 11
23525.571167044091
 21
21419.812554343571
 31
0.0
  0
LINE
  5
6AD
  8
FUTO
 10
23525.571167044091
 20
21419.812554343571
 30
0.0
 11
23525.571167044091
 21
21401.812554343571
 31
0.0
  0
LINE
  5
6AE
  8
FUTO
 10
23525.571167044091
 20
21401.812554343571
 30
0.0
 11
23508.571167044091
 21
21401.812554343571
 31
0.0
  0
LINE
  5
6B7
  8
FUTO
 10
23665.571167044091
 20
21401.812554343571
 30
0.0
 11
23648.571167044091
 21
21401.812554343571
 31
0.0
  0
LINE
  5
6B8
  8
FUTO
 10
23648.571167044091
 20
21401.812554343571
 30
0.0
 11
23648.571167044091
 21
21419.812554343571
 31
0.0
  0
LINE
  5
6BC
  8
FUTO
 10
23883.87116704409
 20
22217.012554343572
 30
0.0
 11
23883.87116704409
 21
22436.812554343571
 31
0.0
  0
DIMENSION
  5
6CD
  8
SP
  2
*D13
 10
25342.07116704408
 20
22784.99060765218
 30
0.0
 11
24875.933542088191
 21
22784.99060765218
 31
0.0
 70
   128
 13
24547.071167044091
 23
22816.932947016561
 33
0.0
 14
25342.07116704408
 24
22236.812554343571
 34
0.0
1001
ACAD
1000
DSTYLE
1002
{
1070
    40
1040
40.0
1002
}
  0
LINE
  5
6E1
  8
FUTO
 10
25207.071167044091
 20
21340.512554343572
 30
0.0
 11
25207.07116704408
 21
22436.812554343571
 31
0.0
  0
LINE
  5
6E2
  8
FUTO
 10
25210.271167044091
 20
21340.512554343572
 30
0.0
 11
25210.271167044091
 21
22436.812554343571
 31
0.0
  0
LINE
  5
6E3
  8
FUTO
 10
25275.271167044481
 20
22436.812554343571
 30
0.0
 11
25275.27116704408
 21
21262.812554343571
 31
0.0
  0
LINE
  5
701
  8
FUTO
 10
25275.271167044109
 20
21262.812554343549
 30
0.0
 11
25300.271167044109
 21
21246.793399037811
 31
0.0
  0
INSERT
  5
702
  8
FUTO
  2
まっすぐの矢印
 10
25537.544319614601
 20
21757.358857192681
 30
0.0
 41
2.0
 42
2.0
 43
2.0
 50
90.0
  0
LINE
  5
704
  8
FUTO
 10
25275.271167044091
 20
22177.812554343571
 30
0.0
 11
25342.071167044091
 21
22177.812554343571
 31
0.0
  0
LINE
  5
705
  8
KL
 10
25210.271167044091
 20
22171.812554343571
 30
0.0
 11
25342.071167044091
 21
22171.812554343571
 31
0.0
  0
LINE
  5
706
  8
HOSO
 10
25181.33319723609
 20
22211.812554343571
 30
0.0
 11
25241.16354606616
 21
22211.812554343571
 31
0.0
  0
LINE
  5
707
  8
KL
 10
25216.27116704408
 20
22236.812554343571
 30
0.0
 11
25210.271167044091
 21
22236.812554343571
 31
0.0
  0
LINE
  5
708
  8
KL
 10
25210.271167044091
 20
22177.812554343571
 30
0.0
 11
25275.271167044091
 21
22177.812554343571
 31
0.0
  0
LINE
  5
709
  8
FUTO
 10
25336.071167044091
 20
22236.812554343571
 30
0.0
 11
25342.071167044091
 21
22236.812554343571
 31
0.0
  0
LINE
  5
70A
  8
HOSO
 10
25309.403390484411
 20
22211.812554343571
 30
0.0
 11
25369.233739314481
 21
22211.812554343571
 31
0.0
  0
LINE
  5
88D
  8
CT
 10
17226.783158632628
 20
25866.676268966439
 30
0.0
 11
21014.342693817209
 21
25866.676268966428
 31
0.0
  0
LINE
  5
88E
  8
FUTO
 10
17437.1082501083
 20
25202.676268966439
 30
0.0
 11
17437.1082501083
 21
26530.676268966428
 31
0.0
  0
LINE
  5
89C
  8
FUTO
 10
17372.108250108289
 20
25137.676268966428
 30
0.0
 11
19360.1082501083
 21
25137.676268966428
 31
0.0
  0
LINE
  5
89D
  8
FUTO
 10
17372.108250108289
 20
25137.676268966428
 30
0.0
 11
17372.1082501083
 21
26595.676268966428
 31
0.0
  0
LINE
  5
89E
  8
FUTO
 10
17372.1082501083
 20
26595.676268966428
 30
0.0
 11
19360.108250108289
 21
26595.676268966428
 31
0.0
  0
LINE
  5
89F
  8
FUTO
 10
20704.108250108289
 20
26580.676268966428
 30
0.0
 11
20704.108250108289
 21
25152.676268966439
 31
0.0
  0
LINE
  5
8A0
  8
FUTO
 10
19360.1082501083
 20
26580.676268966428
 30
0.0
 11
20704.108250108289
 21
26580.676268966428
 31
0.0
  0
LINE
  5
8A1
  8
FUTO
 10
20654.108250108289
 20
26530.676268966428
 30
0.0
 11
20654.108250108289
 21
25202.676268966428
 31
0.0
  0
LINE
  5
8A2
  8
FUTO
 10
19360.1082501083
 20
25152.676268966439
 30
0.0
 11
20704.108250108289
 21
25152.676268966428
 31
0.0
  0
LINE
  5
8A3
  8
FUTO
 10
17437.1082501083
 20
25202.676268966439
 30
0.0
 11
18662.108250108289
 21
25202.676268966428
 31
0.0
  0
LINE
  5
8A4
  8
FUTO
 10
18302.1082501083
 20
26580.676268966428
 30
0.0
 11
18302.108250108289
 21
26605.676268966439
 31
0.0
  0
LINE
  5
8A5
  8
FUTO
 10
20422.108250108289
 20
26580.676268966428
 30
0.0
 11
20422.108250108289
 21
26605.676268966428
 31
0.0
  0
LINE
  5
132F
  8
FUTO
 10
19742.108250108289
 20
23416.676268966439
 30
0.0
 11
17582.108250108289
 21
23416.676268966439
 31
0.0
  0
LINE
  5
1330
  8
FUTO
 10
19742.108250108289
 20
23766.676268966439
 30
0.0
 11
17582.108250108289
 21
23766.676268966439
 31
0.0
  0
LINE
  5
1336
  8
SL
 10
19642.108250108289
 20
23566.676268966439
 30
0.0
 11
17662.108250108289
 21
23566.676268966439
 31
0.0
  0
LINE
  5
1337
  8
SL
 10
19642.108250108289
 20
23736.676268966439
 30
0.0
 11
17662.108250108289
 21
23736.676268966439
 31
0.0
  0
LINE
  5
1338
  8
CT
 10
19362.108250108289
 20
23364.750147281651
 30
0.0
 11
19362.108250108289
 21
26860.671572138661
 31
0.0
  0
LINE
  5
1342
  8
FUTO
 10
19466.108250108289
 20
23839.176268966439
 30
0.0
 11
19466.108250108289
 21
23850.676268966439
 31
0.0
  0
LINE
  5
1343
  8
FUTO
 10
19258.108250108289
 20
23972.176268966428
 30
0.0
 11
19258.108250108289
 21
23839.176268966439
 31
0.0
  0
ARC
  5
1344
  8
FUTO
 10
19264.108250108289
 20
23839.176268966439
 30
0.0
 40
6.0
 50
180.0
 51
270.0
  0
LINE
  5
1345
  8
SL
 10
19082.108250108289
 20
23566.676268966439
 30
0.0
 11
19082.108250108289
 21
23736.676268966439
 31
0.0
  0
LINE
  5
1346
  8
FUTO
 10
19314.608250108289
 20
23736.676268966439
 30
0.0
 11
19314.608250108289
 21
23828.176268966439
 31
0.0
  0
LINE
  5
1347
  8
FUTO
 10
19409.608250108289
 20
23736.676268966439
 30
0.0
 11
19409.608250108289
 21
23828.176268966439
 31
0.0
  0
LINE
  5
1348
  8
FUTO
 10
19272.108250108289
 20
23828.176268966439
 30
0.0
 11
19452.108250108289
 21
23828.176268966439
 31
0.0
  0
LINE
  5
1349
  8
FUTO
 10
19264.108250108289
 20
23833.176268966428
 30
0.0
 11
19460.108250108289
 21
23833.176268966428
 31
0.0
  0
LINE
  5
134A
  8
FUTO
 10
19452.108250108289
 20
23828.176268966439
 30
0.0
 11
19452.108250108289
 21
23833.176268966428
 31
0.0
  0
ARC
  5
134B
  8
FUTO
 10
19460.108250108289
 20
23839.176268966439
 30
0.0
 40
6.0
 50
270.0
 51
0.000000000000007
  0
LINE
  5
134C
  8
FUTO
 10
19272.108250108289
 20
23833.176268966428
 30
0.0
 11
19272.108250108289
 21
23828.176268966439
 31
0.0
  0
LINE
  5
1353
  8
FUTO
 10
19309.608250108289
 20
23983.176268966428
 30
0.0
 11
19309.608250108289
 21
24813.176268966439
 31
0.0
  0
LINE
  5
1354
  8
FUTO
 10
19414.608250108289
 20
23983.176268966428
 30
0.0
 11
19414.608250108289
 21
24813.176268966439
 31
0.0
  0
LINE
  5
1357
  8
CT
 10
19238.339490943581
 20
23905.676268966439
 30
0.0
 11
19491.931974010411
 21
23905.676268966439
 31
0.0
  0
LINE
  5
1358
  8
FUTO
 10
19258.108250108289
 20
23850.676268966439
 30
0.0
 11
19466.108250108289
 21
23850.676268966439
 31
0.0
  0
LINE
  5
1359
  8
FUTO
 10
19258.108250108289
 20
23960.676268966428
 30
0.0
 11
19466.108250108289
 21
23960.676268966428
 31
0.0
  0
ARC
  5
135A
  8
FUTO
 10
19264.108250108289
 20
23972.176268966428
 30
0.0
 40
6.0
 50
90.0
 51
180.0
  0
LINE
  5
135B
  8
CT
 10
19181.04233568866
 20
23905.676268966439
 30
0.0
 11
19571.042503634078
 21
23905.676268966439
 31
0.0
  0
LINE
  5
135F
  8
FUTO
 10
19264.108250108289
 20
23978.176268966439
 30
0.0
 11
19460.108250108289
 21
23978.176268966439
 31
0.0
  0
LINE
  5
1360
  8
FUTO
 10
19272.108250108289
 20
23983.176268966428
 30
0.0
 11
19452.108250108289
 21
23983.176268966428
 31
0.0
  0
LINE
  5
1362
  8
FUTO
 10
19466.108250108289
 20
23972.176268966428
 30
0.0
 11
19466.108250108289
 21
23960.676268966428
 31
0.0
  0
ARC
  5
1363
  8
FUTO
 10
19460.108250108289
 20
23972.176268966428
 30
0.0
 40
6.0
 50
0.000000000000007
 51
90.0
  0
LINE
  5
1364
  8
FUTO
 10
19452.108250108289
 20
23983.176268966428
 30
0.0
 11
19452.108250108289
 21
23978.176268966439
 31
0.0
  0
LINE
  5
1365
  8
FUTO
 10
19272.108250108289
 20
23978.176268966439
 30
0.0
 11
19272.108250108289
 21
23983.176268966428
 31
0.0
  0
LINE
  5
136A
  8
FUTO
 10
19232.108250108289
 20
24828.176268966439
 30
0.0
 11
19492.108250108289
 21
24828.176268966439
 31
0.0
  0
LINE
  5
136B
  8
CT
 10
19197.946670442081
 20
24906.676268966439
 30
0.0
 11
19539.816293286181
 21
24906.676268966439
 31
0.0
  0
LINE
  5
136C
  8
FUTO
 10
19232.108250108289
 20
24840.176268966439
 30
0.0
 11
19492.108250108289
 21
24840.176268966439
 31
0.0
  0
LINE
  5
136D
  8
FUTO
 10
19278.108250108289
 20
24813.176268966439
 30
0.0
 11
19254.608250108289
 21
24828.176268966439
 31
0.0
  0
LINE
  5
136E
  8
FUTO
 10
19492.108250108289
 20
24985.176268966439
 30
0.0
 11
19232.108250108289
 21
24985.176268966439
 31
0.0
  0
LINE
  5
136F
  8
FUTO
 10
19492.1082501083
 20
24973.176268966439
 30
0.0
 11
19232.10831330268
 21
24973.176268966439
 31
0.0
  0
LINE
  5
1370
  8
FUTO
 10
19232.108250108289
 20
24973.176268966439
 30
0.0
 11
19447.108250108289
 21
24973.176268966439
 31
0.0
  0
LINE
  5
1371
  8
FUTO
 10
19254.608250108289
 20
24985.176268966439
 30
0.0
 11
19278.108250108289
 21
25000.176268966439
 31
0.0
  0
LINE
  5
1372
  8
CT
 10
19153.337422028049
 20
24906.676268966439
 30
0.0
 11
19603.00972579564
 21
24906.676268966439
 31
0.0
  0
LINE
  5
137E
  8
FUTO
 10
19469.608250108289
 20
24828.176268966439
 30
0.0
 11
19446.108250108289
 21
24813.176268966439
 31
0.0
  0
LINE
  5
1381
  8
FUTO
 10
19492.108250108289
 20
24828.176268966439
 30
0.0
 11
19492.108250108289
 21
24831.676268966428
 31
0.0
  0
LINE
  5
1382
  8
FUTO
 10
19446.108250108289
 20
24813.176268966439
 30
0.0
 11
19278.108250108289
 21
24813.176268966439
 31
0.0
  0
LINE
  5
1384
  8
FUTO
 10
19446.108250108289
 20
25000.176268966439
 30
0.0
 11
19469.608250108289
 21
24985.176268966439
 31
0.0
  0
LINE
  5
1386
  8
FUTO
 10
19492.108250108289
 20
24981.676268966428
 30
0.0
 11
19492.108250108289
 21
24985.176268966439
 31
0.0
  0
LINE
  5
1387
  8
FUTO
 10
19278.108250108289
 20
25000.176268966439
 30
0.0
 11
19446.108250108289
 21
25000.176268966439
 31
0.0
  0
LINE
  5
13A3
  8
CT
 10
19362.108250108289
 20
25018.06660720276
 30
0.0
 11
19362.108250108289
 21
25127.409229078668
 31
0.0
  0
LINE
  5
13B2
  8
FUTO
 10
19414.608250108289
 20
25000.176268966439
 30
0.0
 11
19414.608250108289
 21
25152.676268966439
 31
0.0
  0
LINE
  5
13B4
  8
FUTO
 10
19309.608250108289
 20
25000.176268966439
 30
0.0
 11
19309.6082501083
 21
25152.676268966439
 31
0.0
  0
LINE
  5
13BE
  8
FUTO
 10
19214.108250108289
 20
24968.176268966428
 30
0.0
 11
19214.108250108289
 21
24845.176268966439
 31
0.0
  0
LINE
  5
13BF
  8
FUTO
 10
19232.108250108289
 20
24845.176268966439
 30
0.0
 11
19232.108250108289
 21
24828.176268966439
 31
0.0
  0
LINE
  5
13C0
  8
FUTO
 10
19214.108250108289
 20
24845.176268966439
 30
0.0
 11
19232.108250108289
 21
24845.176268966439
 31
0.0
  0
LINE
  5
13C1
  8
FUTO
 10
19232.108250108289
 20
24968.176268966428
 30
0.0
 11
19214.108250108289
 21
24968.176268966428
 31
0.0
  0
LINE
  5
13C2
  8
FUTO
 10
19232.108250108289
 20
24985.176268966439
 30
0.0
 11
19232.108250108289
 21
24968.176268966428
 31
0.0
  0
LINE
  5
13E1
  8
FUTO
 10
19742.108250108289
 20
23416.676268966439
 30
0.0
 11
19742.108250108289
 21
23766.676268966439
 31
0.0
  0
LINE
  5
13E2
  8
SL
 10
19642.108250108289
 20
23566.676268966439
 30
0.0
 11
19642.108250108289
 21
23736.676268966439
 31
0.0
  0
DIMENSION
  5
1417
  8
SP
  2
*D3
 10
24547.07116704408
 20
22784.99060765218
 30
0.0
 11
23322.07116704408
 21
22896.419179080749
 31
0.0
 70
     0
  1
(<>)
 13
22097.07116704408
 23
21651.812554343571
 33
0.0
 14
24547.07116704408
 24
22505.03442882956
 34
0.0
1001
ACAD
1000
DSTYLE
1002
{
1070
    40
1040
40.0
1002
}
  0
LINE
  5
1453
  8
FUTO
 10
19466.108250108289
 20
23972.176268966428
 30
0.0
 11
19466.108250108289
 21
23839.176268966439
 31
0.0
  0
LINE
  5
1454
  8
FUTO
 10
19510.108250108289
 20
24968.176268966428
 30
0.0
 11
19510.108250108289
 21
24845.176268966439
 31
0.0
  0
LINE
  5
1455
  8
FUTO
 10
19510.108250108289
 20
24845.176268966439
 30
0.0
 11
19492.108250108289
 21
24845.176268966439
 31
0.0
  0
LINE
  5
1456
  8
FUTO
 10
19492.108250108289
 20
24845.176268966439
 30
0.0
 11
19492.108250108289
 21
24828.176268966439
 31
0.0
  0
LINE
  5
1457
  8
FUTO
 10
19492.108250108289
 20
24985.176268966439
 30
0.0
 11
19492.108250108289
 21
24968.176268966428
 31
0.0
  0
LINE
  5
1458
  8
FUTO
 10
19492.108250108289
 20
24968.176268966428
 30
0.0
 11
19510.108250108289
 21
24968.176268966428
 31
0.0
  0
LINE
  5
1698
  8
KL
 10
22485.571167044101
 20
19901.812554343571
 30
0.0
 11
22485.571167044091
 21
19831.81255434543
 31
0.0
  0
LINE
  5
1699
  8
KL
 10
23185.571167044091
 20
19901.812554343571
 30
0.0
 11
23185.571167044091
 21
19831.812554345459
 31
0.0
  0
LINE
  5
169A
  8
KL
 10
22980.571167044091
 20
19901.812554343571
 30
0.0
 11
22485.571167044101
 21
19901.812554343571
 31
0.0
  0
LINE
  5
169B
  8
KL
 10
22485.571167044091
 20
19901.812554343571
 30
0.0
 11
23185.571167044091
 21
19901.812554343571
 31
0.0
  0
LINE
  5
16AB
  8
FUTO
 10
22422.071167044091
 20
20281.812554343571
 30
0.0
 11
22422.071167044091
 21
20081.812554343571
 31
0.0
  0
LINE
  5
16AC
  8
KL
 10
23656.071167044091
 20
20441.812554343571
 30
0.0
 11
23656.071167044091
 21
19963.663616261481
 31
0.0
  0
LINE
  5
16AD
  8
FUTO
 10
22442.071167044091
 20
20491.812554343571
 30
0.0
 11
22442.071167044091
 21
19915.58583087139
 31
0.0
  0
LINE
  5
16AE
  8
KL
 10
22521.071167044091
 20
20491.812554343571
 30
0.0
 11
22521.071167044091
 21
19915.58583087139
 31
0.0
  0
LINE
  5
16AF
  8
KL
 10
23406.071167044091
 20
20491.812554343571
 30
0.0
 11
23406.071167044091
 21
19913.663616261481
 31
0.0
  0
LINE
  5
16B0
  8
CT
 10
22835.571167044091
 20
20528.451922330209
 30
0.0
 11
22835.571167044091
 21
19809.86402732649
 31
0.0
  0
LINE
  5
16B1
  8
KL
 10
22980.571167044091
 20
19901.812554343571
 30
0.0
 11
23100.571167044091
 21
19901.812554343571
 31
0.0
  0
LINE
  5
16B2
  8
KL
 10
22570.571167044091
 20
19931.812554343571
 30
0.0
 11
23100.571167044091
 21
19931.812554343571
 31
0.0
  0
LINE
  5
16B3
  8
KL
 10
23406.071167044091
 20
19913.663616261481
 30
0.0
 11
23606.071167044091
 21
19913.663616261481
 31
0.0
  0
ARC
  5
16B4
  8
KL
 10
23606.071167044091
 20
19963.663616261481
 30
0.0
 40
50.0
 50
270.0
 51
0.0
  0
LINE
  5
16B5
  8
KL
 10
23100.571167044091
 20
19913.663616261481
 30
0.0
 11
23385.745949045919
 21
19913.663616261481
 31
0.0
  0
LINE
  5
16B6
  8
KL
 10
23406.071167044091
 20
19925.196903920929
 30
0.0
 11
23385.74594904593
 21
19913.663616261481
 31
0.0
  0
LINE
  5
16B7
  8
CT
 10
23064.071167044091
 20
19955.803306102509
 30
0.0
 11
23064.071167044091
 21
19885.330264020042
 31
0.0
  0
LINE
  5
16B8
  8
KL
 10
23100.571167044091
 20
19931.812554343571
 30
0.0
 11
23100.571167044091
 21
19901.812554343571
 31
0.0
  0
LINE
  5
16B9
  8
KL
 10
22980.571167044091
 20
19913.663616261481
 30
0.0
 11
22690.571167044091
 21
19913.663616261481
 31
0.0
  0
LINE
  5
16BA
  8
KL
 10
22980.571167044091
 20
19913.663616261481
 30
0.0
 11
22980.571167044091
 21
19901.812554343571
 31
0.0
  0
LINE
  5
16BB
  8
KL
 10
22570.571167044091
 20
19931.812554343571
 30
0.0
 11
22570.571167044091
 21
19901.812554343571
 31
0.0
  0
LINE
  5
16BC
  8
CT
 10
22607.071167044091
 20
19955.803306102509
 30
0.0
 11
22607.071167044091
 21
19885.330264020042
 31
0.0
  0
LINE
  5
16BD
  8
KL
 10
22570.571167044091
 20
19915.58583087139
 30
0.0
 11
22442.071167044091
 21
19915.58583087139
 31
0.0
  0
LINE
  5
16BE
  8
KL
 10
22690.571167044091
 20
19913.663616261481
 30
0.0
 11
22690.571167044091
 21
19901.812554343571
 31
0.0
  0
LINE
  5
16BF
  8
KL
 10
22570.571167044091
 20
19901.812554343571
 30
0.0
 11
22690.571167044091
 21
19901.812554343571
 31
0.0
  0
LINE
  5
16C0
  8
FUTO
 10
22442.071167044091
 20
20081.812554343571
 30
0.0
 11
22422.071167044091
 21
20081.812554343571
 31
0.0
  0
LINE
  5
16C1
  8
KL
 10
23384.676340878519
 20
20491.812554343571
 30
0.0
 11
22442.071167044091
 21
20491.812554343571
 31
0.0
  0
LINE
  5
16C2
  8
CT
 10
23692.713932508519
 20
20181.812554343571
 30
0.0
 11
22220.922336204701
 21
20181.812554343571
 31
0.0
  0
LINE
  5
16C3
  8
KL
 10
23606.071167044091
 20
20491.812554343571
 30
0.0
 11
23406.071167044091
 21
20491.812554343571
 31
0.0
  0
ARC
  5
16C4
  8
KL
 10
23606.071167044091
 20
20441.812554343571
 30
0.0
 40
50.0
 50
0.0
 51
90.0
  0
LINE
  5
16C5
  8
KL
 10
23406.071167044091
 20
20467.261423914821
 30
0.0
 11
23384.676340878519
 21
20491.812554343571
 31
0.0
  0
LINE
  5
16C6
  8
FUTO
 10
22422.071167044091
 20
20224.312554343571
 30
0.0
 11
22247.071167044091
 21
20224.312554343571
 31
0.0
  0
LINE
  5
16C7
  8
FUTO
 10
22422.071167044091
 20
20139.312554343571
 30
0.0
 11
22247.071167044091
 21
20139.312554343571
 31
0.0
  0
LINE
  5
16C8
  8
CT
 10
22631.071167044091
 20
20815.182268308072
 30
0.0
 11
22631.071167044091
 21
20416.32273675227
 31
0.0
  0
LINE
  5
16C9
  8
FUTO
 10
22442.071167044091
 20
20281.812554343571
 30
0.0
 11
22422.071167044091
 21
20281.812554343571
 31
0.0
  0
LINE
  5
16CA
  8
KL
 10
22731.071167044091
 20
20771.812554343571
 30
0.0
 11
22531.071167044091
 21
20771.812554343571
 31
0.0
  0
LINE
  5
16CB
  8
KL
 10
22731.071167044091
 20
20506.812554343571
 30
0.0
 11
22531.071167044091
 21
20506.812554343571
 31
0.0
  0
LINE
  5
16CC
  8
CT
 10
22794.937094230459
 20
20631.812554343571
 30
0.0
 11
22492.80090484595
 21
20631.812554343571
 31
0.0
  0
LINE
  5
16CD
  8
KL
 10
22751.071167044091
 20
20751.812554343571
 30
0.0
 11
22751.071167044091
 21
20526.812554343571
 31
0.0
  0
ARC
  5
16CE
  8
KL
 10
22731.071167044091
 20
20526.812554343571
 30
0.0
 40
20.0
 50
270.0
 51
0.0
  0
ARC
  5
16CF
  8
KL
 10
22731.071167044091
 20
20751.812554343571
 30
0.0
 40
20.0
 50
0.0
 51
90.0
  0
LINE
  5
16D0
  8
KL
 10
22511.07116704408
 20
20751.812554343571
 30
0.0
 11
22511.07116704408
 21
20526.812554343571
 31
0.0
  0
ARC
  5
16D1
  8
KL
 10
22531.071167044091
 20
20526.812554343571
 30
0.0
 40
20.0
 50
180.0
 51
270.0
  0
ARC
  5
16D2
  8
KL
 10
22531.071167044091
 20
20751.812554343571
 30
0.0
 40
20.0
 50
90.0
 51
180.0
  0
LINE
  5
16D3
  8
FUTO
 10
22417.071167044091
 20
20224.312554343571
 30
0.0
 11
22417.071167044091
 21
20139.312554343571
 31
0.0
  0
LINE
  5
16D4
  8
FUTO
 10
22247.071167044091
 20
20224.312554343571
 30
0.0
 11
22247.071167044091
 21
20139.312554343571
 31
0.0
  0
LINE
  5
17EE
  8
FUTO
 10
18172.108250108249
 20
24704.281442800879
 30
0.0
 11
18172.108250108278
 21
23761.67626896645
 31
0.0
  0
LINE
  5
17EF
  8
CT
 10
17862.108250108231
 20
25012.319034430871
 30
0.0
 11
17862.108250108289
 21
23540.52743812705
 31
0.0
  0
LINE
  5
17F0
  8
FUTO
 10
17552.108250108249
 20
24704.281442800861
 30
0.0
 11
17552.108250108278
 21
23761.676268966428
 31
0.0
  0
LINE
  5
17F1
  8
FUTO
 10
18072.108250108278
 20
23830.67626896645
 30
0.0
 11
17682.108250108278
 21
23830.676268966428
 31
0.0
  0
LINE
  5
17F2
  8
CT
 10
17653.79539073096
 20
23950.676268966428
 30
0.0
 11
18116.778029745481
 21
23950.67626896645
 31
0.0
  0
LINE
  5
17F3
  8
CT
 10
17515.46888212163
 20
24155.176268966428
 30
0.0
 11
18234.056777125359
 21
24155.176268966461
 31
0.0
  0
LINE
  5
17F4
  8
FUTO
 10
17552.108250108278
 20
23761.676268966428
 30
0.0
 11
18172.108250108278
 21
23761.67626896645
 31
0.0
  0
LINE
  5
17F5
  8
FUTO
 10
17762.108250108289
 20
23741.676268966439
 30
0.0
 11
17962.108250108289
 21
23741.67626896645
 31
0.0
  0
LINE
  5
17F6
  8
FUTO
 10
18072.108250108271
 20
24070.67626896645
 30
0.0
 11
17682.108250108271
 21
24070.676268966428
 31
0.0
  0
LINE
  5
17F7
  8
FUTO
 10
17492.763861265372
 20
23805.176268966428
 30
0.0
 11
17492.76386126535
 21
24505.176268966428
 31
0.0
  0
LINE
  5
17F8
  8
FUTO
 10
17662.108250108271
 20
24050.676268966439
 30
0.0
 11
17662.108250108278
 21
23950.676268966428
 31
0.0
  0
LINE
  5
17F9
  8
CT
 10
17862.108250108369
 20
23395.225312796349
 30
0.0
 11
17862.10825010778
 21
24653.63170891253
 31
0.0
  0
LINE
  5
17FA
  8
FUTO
 10
17552.108250108278
 20
23805.176268966428
 30
0.0
 11
17492.763861265372
 21
23805.176268966428
 31
0.0
  0
LINE
  5
17FE
  8
FUTO
 10
17904.608250108278
 20
23741.676268966439
 30
0.0
 11
17904.608250108289
 21
23566.676268966439
 31
0.0
  0
LINE
  5
17FF
  8
FUTO
 10
17819.608250108289
 20
23741.676268966439
 30
0.0
 11
17819.608250108289
 21
23566.676268966439
 31
0.0
  0
LINE
  5
1802
  8
FUTO
 10
17819.608250108289
 20
23566.676268966439
 30
0.0
 11
17904.608250108289
 21
23566.676268966439
 31
0.0
  0
ARC
  5
1804
  8
FUTO
 10
17682.108250108278
 20
23850.676268966439
 30
0.0
 40
20.0
 50
180.0
 51
270.0
  0
LINE
  5
1805
  8
FUTO
 10
17662.108250108278
 20
23850.676268966428
 30
0.0
 11
17662.108250108278
 21
23950.676268966428
 31
0.0
  0
LINE
  5
1806
  8
FUTO
 10
17552.108250108278
 20
23840.676268966428
 30
0.0
 11
17664.787742032589
 21
23840.676268966428
 31
0.0
  0
LINE
  5
1807
  8
FUTO
 10
17819.608250108289
 20
23736.676268966439
 30
0.0
 11
17904.608250108278
 21
23736.676268966439
 31
0.0
  0
LINE
  5
1808
  8
FUTO
 10
17762.108250108289
 20
23761.676268966439
 30
0.0
 11
17762.108250108289
 21
23741.676268966428
 31
0.0
  0
LINE
  5
1809
  8
FUTO
 10
17552.108250108249
 20
24505.176268966428
 30
0.0
 11
17492.76386126535
 21
24505.176268966428
 31
0.0
  0
ARC
  5
180A
  8
FUTO
 10
17682.108250108271
 20
24050.676268966439
 30
0.0
 40
20.0
 50
90.0
 51
180.0
  0
LINE
  5
180B
  8
FUTO
 10
18231.452638951188
 20
23805.17626896645
 30
0.0
 11
18231.45263895117
 21
24505.17626896645
 31
0.0
  0
LINE
  5
180C
  8
FUTO
 10
18092.108250108271
 20
24050.67626896645
 30
0.0
 11
18092.108250108278
 21
23950.67626896645
 31
0.0
  0
LINE
  5
180F
  8
FUTO
 10
18089.428758183971
 20
23840.67626896645
 30
0.0
 11
18172.108250108278
 21
23840.67626896645
 31
0.0
  0
LINE
  5
1810
  8
CT
 10
18136.679805062489
 20
23926.67626896645
 30
0.0
 11
18207.15284714496
 21
23926.676268966461
 31
0.0
  0
ARC
  5
1811
  8
FUTO
 10
18072.108250108278
 20
23850.67626896645
 30
0.0
 40
20.0
 50
270.0
 51
0.000000000000007
  0
LINE
  5
1812
  8
FUTO
 10
18092.108250108278
 20
23850.67626896645
 30
0.0
 11
18092.108250108278
 21
23950.67626896645
 31
0.0
  0
LINE
  5
1813
  8
FUTO
 10
17962.108250108289
 20
23761.676268966439
 30
0.0
 11
17962.108250108289
 21
23741.67626896645
 31
0.0
  0
LINE
  5
1814
  8
FUTO
 10
18172.108250108278
 20
23805.17626896645
 30
0.0
 11
18231.452638951188
 21
23805.17626896645
 31
0.0
  0
ARC
  5
1815
  8
FUTO
 10
18072.108250108271
 20
24050.67626896645
 30
0.0
 40
20.0
 50
0.000000000000007
 51
90.0
  0
LINE
  5
1816
  8
CT
 10
18136.67980506246
 20
24383.67626896645
 30
0.0
 11
18207.152847144931
 21
24383.67626896645
 31
0.0
  0
LINE
  5
1817
  8
FUTO
 10
18172.10825010826
 20
24505.17626896645
 30
0.0
 11
18231.45263895117
 21
24505.17626896645
 31
0.0
  0
LINE
  5
181A
  8
FUTO
 10
17552.108250108249
 20
24725.676268966428
 30
0.0
 11
18172.108250108249
 21
24725.67626896645
 31
0.0
  0
LINE
  5
181B
  8
FUTO
 10
17602.108250108231
 20
24975.676268966428
 30
0.0
 11
18122.108250108238
 21
24975.67626896645
 31
0.0
  0
LINE
  5
181F
  8
FUTO
 10
17576.659380536999
 20
24725.676268966428
 30
0.0
 11
17552.108250108249
 21
24704.281442800861
 31
0.0
  0
ARC
  5
1820
  8
FUTO
 10
17602.108250108238
 20
24925.676268966428
 30
0.0
 40
50.0
 50
90.0
 51
180.0
  0
LINE
  5
1821
  8
FUTO
 10
17552.108250108238
 20
24925.676268966428
 30
0.0
 11
17552.108250108249
 21
24725.676268966428
 31
0.0
  0
ARC
  5
1824
  8
FUTO
 10
18122.108250108238
 20
24925.67626896645
 30
0.0
 40
50.0
 50
0.000000000000007
 51
90.0
  0
LINE
  5
1825
  8
FUTO
 10
18147.557119679499
 20
24725.67626896645
 30
0.0
 11
18172.108250108249
 21
24704.281442800879
 31
0.0
  0
LINE
  5
1826
  8
FUTO
 10
18172.108250108238
 20
24925.67626896645
 30
0.0
 11
18172.108250108249
 21
24725.67626896645
 31
0.0
  0
LINE
  5
1827
  8
FUTO
 10
17422.108250108289
 20
23830.676268966428
 30
0.0
 11
17422.108250108289
 21
23755.676268966439
 31
0.0
  0
LINE
  5
1828
  8
FUTO
 10
17598.228335663451
 20
25127.676268966439
 30
0.0
 11
17598.228335663451
 21
24975.52550430561
 31
0.0
  0
LINE
  5
1829
  8
FUTO
 10
18125.988164552949
 20
25127.676268966559
 30
0.0
 11
18125.988164553019
 21
24975.52550430573
 31
0.0
  0
LINE
  5
182A
  8
FUTO
 10
18050.988164552949
 20
25127.676268966519
 30
0.0
 11
18050.988164553019
 21
24975.676268966519
 31
0.0
  0
LINE
  5
182B
  8
SL
 10
17662.108250108289
 20
23566.676268966439
 30
0.0
 11
17662.108250108289
 21
23736.676268966439
 31
0.0
  0
LINE
  5
182D
  8
FUTO
 10
17582.108250108289
 20
23416.676268966439
 30
0.0
 11
17582.108250108289
 21
23766.676268966439
 31
0.0
  0
LINE
  5
182F
  8
FUTO
 10
19704.15667593234
 20
23830.676268966428
 30
0.0
 11
19704.15667593234
 21
25152.676268966439
 31
0.0
  0
LINE
  5
1830
  8
FUTO
 10
19020.05982428425
 20
23830.676268966428
 30
0.0
 11
19020.05982428425
 21
25152.676268966439
 31
0.0
  0
LINE
  5
1832
  8
FUTO
 10
18397.108250108289
 20
26661.676268966439
 30
0.0
 11
20327.108250108289
 21
26661.676268966439
 31
0.0
  0
LINE
  5
1833
  8
FUTO
 10
18397.108250108289
 20
26655.676268966439
 30
0.0
 11
20327.108250108289
 21
26655.676268966439
 31
0.0
  0
LINE
  5
1834
  8
KL
 10
18397.108250108289
 20
26535.876268966429
 30
0.0
 11
20327.108250108289
 21
26535.87626896644
 31
0.0
  0
LINE
  5
1839
  8
KL
 10
20262.108250108289
 20
26529.87626896644
 30
0.0
 11
20262.108250108289
 21
26661.676268966439
 31
0.0
  0
LINE
  5
183A
  8
KL
 10
20268.108250108289
 20
26529.87626896644
 30
0.0
 11
20268.108250108289
 21
26619.87626896644
 31
0.0
  0
LINE
  5
183B
  8
KL
 10
20327.108250108289
 20
26529.87626896644
 30
0.0
 11
20327.108250108289
 21
26535.87626896644
 31
0.0
  0
LINE
  5
183C
  8
HOSO
 10
20302.108250108289
 20
26487.342259355519
 30
0.0
 11
20302.108250108289
 21
26561.449874503782
 31
0.0
  0
LINE
  5
183D
  8
HOSO
 10
20302.108250108289
 20
26628.193722780408
 30
0.0
 11
20302.108250108289
 21
26702.301337928671
 31
0.0
  0
LINE
  5
183E
  8
FUTO
 10
20327.108250108289
 20
26655.676268966439
 30
0.0
 11
20327.108250108289
 21
26661.676268966439
 31
0.0
  0
LINE
  5
183F
  8
FUTO
 10
20268.108250108289
 20
26619.87626896644
 30
0.0
 11
20268.108250108289
 21
26661.676268966439
 31
0.0
  0
INSERT
  5
185B
  8
FUTO
  2
まっすぐの矢印
 10
18876.561947259179
 20
26857.149421536938
 30
0.0
 41
2.0
 42
2.0
 43
2.0
 50
180.0
  0
LINE
  5
185D
  8
KL
 10
18462.108250108289
 20
26529.87626896644
 30
0.0
 11
18462.108250108289
 21
26661.676268966439
 31
0.0
  0
LINE
  5
185E
  8
FUTO
 10
18456.108250108289
 20
26594.87626896644
 30
0.0
 11
18456.108250108289
 21
26661.676268966439
 31
0.0
  0
LINE
  5
185F
  8
KL
 10
18456.108250108289
 20
26529.87626896644
 30
0.0
 11
18456.108250108289
 21
26594.87626896644
 31
0.0
  0
LINE
  5
1860
  8
KL
 10
18397.108250108289
 20
26535.876268966429
 30
0.0
 11
18397.108250108289
 21
26529.87626896644
 31
0.0
  0
LINE
  5
1861
  8
HOSO
 10
18422.108250108289
 20
26500.938299158439
 30
0.0
 11
18422.108250108289
 21
26560.768647988509
 31
0.0
  0
LINE
  5
1862
  8
HOSO
 10
18422.108250108289
 20
26629.008492406749
 30
0.0
 11
18422.108250108289
 21
26688.838841236829
 31
0.0
  0
LINE
  5
1863
  8
FUTO
 10
18397.108250108289
 20
26655.676268966439
 30
0.0
 11
18397.108250108289
 21
26661.676268966439
 31
0.0
  0
LINE
  5
1891
  8
KL
 10
18551.225560845269
 20
21282.43875434357
 30
0.0
 11
19162.108250108289
 21
21282.43875434357
 31
0.0
  0
LINE
  5
1892
  8
KL
 10
18526.13604980415
 20
21264.43875434357
 30
0.0
 11
19162.108250108289
 21
21264.43875434357
 31
0.0
  0
LINE
  5
1893
  8
FUTO
 10
18312.108250108289
 20
20325.065915534451
 30
0.0
 11
18312.1082501083
 21
19833.43875434357
 31
0.0
  0
LINE
  5
1894
  8
FUTO
 10
18321.108250108289
 20
20328.749305515121
 30
0.0
 11
18321.108250108289
 21
19833.43875434357
 31
0.0
  0
LINE
  5
1895
  8
KL
 10
18303.108250108289
 20
20961.215963579121
 30
0.0
 11
18303.108250108289
 21
20113.42172610349
 31
0.0
  0
LINE
  5
1896
  8
KL
 10
18312.108250108289
 20
20969.375741179709
 30
0.0
 11
18312.108250108289
 21
20325.065915534451
 31
0.0
  0
LINE
  5
1897
  8
KL
 10
18321.108250108289
 20
20977.535518780311
 30
0.0
 11
18321.108250108289
 21
20328.749305515121
 31
0.0
  0
DIMENSION
  5
18AD
  8
SP
  2
*D4
 10
17372.1082501083
 20
22783.87709649474
 30
0.0
 11
18367.1082501083
 21
22863.87709649474
 31
0.0
 70
     0
 13
19362.108250108289
 23
22619.822006333248
 33
0.0
 14
17372.1082501083
 24
22438.43875434357
 34
0.0
 50
180.0
1001
ACAD
1000
DSTYLE
1002
{
1070
    40
1040
40.0
1002
}
  0
DIMENSION
  5
1923
  8
SP
  2
*D5
 10
21069.421007064098
 20
25866.676268966428
 30
0.0
 11
21069.421007064091
 21
26254.12615772026
 31
0.0
 70
   128
 13
20327.108250108289
 23
26661.676268966439
 33
0.0
 14
21014.342693817209
 24
25866.676268966428
 34
0.0
 50
90.0
1001
ACAD
1000
DSTYLE
1002
{
1070
    40
1040
40.0
1002
}
  0
DIMENSION
  5
1930
  8
SP
  2
*D6
 10
21069.421007064091
 20
23416.676268966439
 30
0.0
 11
21069.421007064091
 21
24564.2594629388
 31
0.0
 70
   128
 13
20947.094515598412
 23
25866.676268966428
 33
0.0
 14
19742.108250108289
 24
23416.676268966439
 34
0.0
 50
90.0
1001
ACAD
1000
DSTYLE
1002
{
1070
    40
1040
40.0
1002
}
  0
LINE
  5
19B8
  8
FUTO
 10
22496.071167044091
 20
20491.812554343571
 30
0.0
 11
22496.071167044091
 21
19833.438737737579
 31
0.0
  0
LINE
  5
1AEA
  8
FUTO
 10
20699.740358242299
 20
21282.43875434357
 30
0.0
 11
19842.023867691219
 21
21282.43875434357
 31
0.0
  0
LINE
  5
1AEB
  8
FUTO
 10
20699.740358242299
 20
21264.43875434357
 30
0.0
 11
19842.023867691219
 21
21264.43875434357
 31
0.0
  0
LINE
  5
1AEC
  8
KL
 10
19842.023867691219
 20
21282.43875434357
 30
0.0
 11
19562.108250108289
 21
21282.43875434357
 31
0.0
  0
LINE
  5
1AED
  8
KL
 10
19842.023867691219
 20
21264.43875434357
 30
0.0
 11
19562.108250108289
 21
21264.43875434357
 31
0.0
  0
LINE
  5
1AEE
  8
KL
 10
19562.108250108289
 20
21282.43875434357
 30
0.0
 11
19562.108250108289
 21
21264.43875434357
 31
0.0
  0
LINE
  5
1AF1
  8
FUTO
 10
20699.740358242299
 20
21264.43875434357
 30
0.0
 11
20699.740358242299
 21
21282.43875434357
 31
0.0
  0
LINE
  5
1AF2
  8
KL
 10
19704.15667593234
 20
21151.43875434357
 30
0.0
 11
19748.40239311503
 21
20988.523266735949
 31
0.0
  0
LINE
  5
1AF3
  8
KL
 10
19020.05982428425
 20
21151.43875434357
 30
0.0
 11
18818.325105875851
 21
20408.638951117769
 31
0.0
  0
LINE
  5
1AF4
  8
FUTO
 10
20403.108250108289
 20
21282.43875434357
 30
0.0
 11
20403.108250108289
 21
21923.051903815409
 31
0.0
  0
LINE
  5
1AF5
  8
FUTO
 10
20412.108250108289
 20
21282.43875434357
 30
0.0
 11
20412.108250108289
 21
21911.899367460181
 31
0.0
  0
LINE
  5
1AF6
  8
FUTO
 10
19039.702404858032
 20
21629.043128541169
 30
0.0
 11
17674.03817371231
 21
20390.874639292171
 31
0.0
  0
LINE
  5
1AF7
  8
SL
 10
17731.424645138792
 20
20334.838210723621
 30
0.0
 11
19130.144851287419
 21
21542.17278941816
 31
0.0
  0
LINE
  5
1AF8
  8
SL
 10
17965.742031047081
 20
20012.383092501201
 30
0.0
 11
19546.058211274649
 21
20969.814954573361
 31
0.0
  0
LINE
  5
1AF9
  8
FUTO
 10
19600.746898360208
 20
20856.963550327171
 30
0.0
 11
18001.314128255239
 21
19940.494885333999
 31
0.0
  0
LINE
  5
1AFA
  8
FUTO
 10
18303.108250108289
 20
20113.42172610349
 30
0.0
 11
18303.108250108289
 21
19995.40895760839
 31
0.0
  0
LINE
  5
1AFC
  8
FUTO
 10
23818.87116704409
 20
22436.812554343571
 30
0.0
 11
25275.271167044481
 21
22436.812554343571
 31
0.0
  0
LINE
  5
1AFD
  8
FUTO
 10
23818.87116704409
 20
22371.812554343571
 30
0.0
 11
25275.271167044459
 21
22371.812554343571
 31
0.0
  0
LINE
  5
1AFE
  8
FUTO
 10
23818.87116704409
 20
22430.812554343571
 30
0.0
 11
25275.271167044481
 21
22430.812554343571
 31
0.0
  0
LINE
  5
1B50
  8
FUTO
 10
19291.108250108289
 20
25202.676268966428
 30
0.0
 11
19291.108250108289
 21
26535.87626896644
 31
0.0
  0
LINE
  5
1B51
  8
FUTO
 10
19360.108250108289
 20
25137.676268966439
 30
0.0
 11
19360.108250108289
 21
26595.676268966428
 31
0.0
  0
LINE
  5
1B53
  8
FUTO
 10
17437.1082501083
 20
25202.676268966439
 30
0.0
 11
17437.1082501083
 21
26530.676268966428
 31
0.0
  0
LINE
  5
1B5E
  8
FUTO
 10
19748.40239311503
 20
20988.523266735949
 30
0.0
 11
20062.108250108289
 21
19833.43875434357
 31
0.0
  0
LINE
  5
1B5F
  8
FUTO
 10
18818.325105875851
 20
20408.638951117769
 30
0.0
 11
18662.108250108289
 21
19833.43875434357
 31
0.0
  0
ARC
  5
1B60
  8
FUTO
 10
19231.108250108289
 20
21404.43875434357
 30
0.0
 40
1705.0
 50
184.40654050725689
 51
212.23466043811069
  0
DIMENSION
  5
1B6B
  8
SP
  2
*D14
 10
21071.517339313879
 20
21273.43875434357
 30
0.0
 11
20991.517339313879
 21
20478.43875434357
 31
0.0
 70
     0
 13
20422.108250108289
 23
19683.43875434357
 33
0.0
 14
20907.462249152391
 24
21273.43875434357
 34
0.0
 50
90.0
1001
ACAD
1000
DSTYLE
1002
{
1070
    40
1040
40.0
1002
}
  0
DIMENSION
  5
1B78
  8
SP
  2
*D15
 10
21071.517339313879
 20
22438.43875434357
 30
0.0
 11
20991.517339313879
 21
21855.93875434357
 31
0.0
 70
     0
 13
20907.462249152391
 23
21273.43875434357
 33
0.0
 14
19360.108250108289
 24
22438.43875434357
 34
0.0
 50
90.0
1001
ACAD
1000
DSTYLE
1002
{
1070
    40
1040
40.0
1002
}
  0
DIMENSION
  5
1BA9
  8
SP
  2
*D16
 10
20704.108250108289
 20
27133.66390689557
 30
0.0
 11
20033.108250108289
 21
27213.66390689557
 31
0.0
 70
     0
 13
19362.108250108289
 23
26860.671572138661
 33
0.0
 14
20704.108250108289
 24
26580.676268966428
 34
0.0
 50
180.0
1001
ACAD
1000
DSTYLE
1002
{
1070
    40
1040
40.0
1002
}
  0
DIMENSION
  5
1BB6
  8
SP
  2
*D17
 10
17372.1082501083
 20
27133.66390689557
 30
0.0
 11
18367.1082501083
 21
27213.66390689557
 31
0.0
 70
     0
 13
19362.108250108289
 23
26860.671572138661
 33
0.0
 14
17372.1082501083
 24
26595.676268966428
 34
0.0
 50
180.0
1001
ACAD
1000
DSTYLE
1002
{
1070
    40
1040
40.0
1002
}
  0
LINE
  5
1BD5
  8
SL
 10
19291.108250108289
 20
26530.676268966428
 30
0.0
 11
17437.1082501083
 21
25202.676268966439
 31
0.0
  0
LINE
  5
1BD6
  8
SL
 10
17437.1082501083
 20
26530.676268966428
 30
0.0
 11
19291.108250108289
 21
25202.676268966428
 31
0.0
  0
TEXT
  5
2337
  8
SP
 10
41162.21742739754
 20
26838.33156264219
 30
0.0
 40
100.0
  1
 
  0
LINE
  5
2338
  8
4
 10
25543.524277917651
 20
17264.311348303559
 30
0.0
 11
25543.524277917641
 21
16064.31134830355
 31
0.0
  0
LINE
  5
2339
  8
4
 10
21343.524277917641
 20
17264.311348303559
 30
0.0
 11
21343.524277917641
 21
16064.31134830355
 31
0.0
  0
LINE
  5
233A
  8
4
 10
18343.524277917641
 20
17264.311348303559
 30
0.0
 11
18343.524277917641
 21
16064.31134830355
 31
0.0
  0
LINE
  5
233D
  8
4
 10
18343.524277917641
 20
16064.311348303559
 30
0.0
 11
25543.524277917651
 21
16064.311348303559
 31
0.0
  0
LINE
  5
233E
  8
4
 10
18343.524277917641
 20
16664.311348303559
 30
0.0
 11
25543.524277917651
 21
16664.311348303559
 31
0.0
  0
TEXT
  5
233F
  8
4
 10
18574.536762999061
 20
16853.56950350324
 30
0.0
 40
300.0
  1
機器名称
  0
TEXT
  5
2340
  8
4
 10
18561.07291406643
 20
16194.18228869562
 30
0.0
 40
300.0
  1
機器型番
  0
TEXT
  5
2341
  8
4
 10
21372.282648123899
 20
16797.435162445239
 30
0.0
 40
270.0
  1
ミツヤリミットロードファン
  0
TEXT
  5
2342
  8
4
 10
21563.451251430539
 20
16167.26885398322
 30
0.0
 40
300.0
  1
LL#11-1
  0
TEXT
  5
2344
  8
4
 10
16340.529837894321
 20
29467.597205499351
 30
0.0
 40
432.0
  1
遠心式片吸込片持リミットロードファン
  0
LINE
  5
2345
  8
4
 10
15943.524277917641
 20
29080.763873892389
 30
0.0
 11
25543.524277917651
 21
29080.763873892389
 31
0.0
  0
LINE
  5
2346
  8
4
 10
15943.524277917641
 20
30280.763873892389
 30
0.0
 11
25543.524277917651
 21
30280.763873892389
 31
0.0
  0
LINE
  5
2347
  8
4
 10
18343.524277917641
 20
17264.311348303559
 30
0.0
 11
25543.524277917651
 21
17264.311348303559
 31
0.0
  0
LINE
  5
2348
  8
4
 10
15943.524277917641
 20
30280.763873892389
 30
0.0
 11
15943.524277917641
 21
29080.763873892389
 31
0.0
  0
TEXT
  5
2349
  8
4
 10
16478.56537482408
 20
28558.228213581631
 30
0.0
 40
323.99999999999989
  1
右回転上向
  0
TEXT
  5
234A
  8
4
 10
23257.341633413391
 20
30500.67783727542
 30
0.0
 40
336.00000000000011
  1
No.
  0
TEXT
  5
234B
  8
4
 10
23221.67073663948
 20
27705.71422681796
 30
0.0
 40
323.99999999999989
  1
縮尺：1/60
  0
LINE
  5
234C
  8
4
 10
25543.524277917651
 20
30280.763873892389
 30
0.0
 11
25543.524277917651
 21
29080.763873892389
 31
0.0
  0
LINE
  5
234D
  8
4
 10
27043.524277917651
 20
31964.311348303559
 30
0.0
 11
27043.524277917651
 21
31964.311348303559
 31
0.0
  0
LINE
  5
234E
  8
4
 10
23087.228812076832
 20
30351.892847055969
 30
0.0
 11
23087.228812076832
 21
30984.22491760207
 31
0.0
  0
LINE
  5
234F
  8
4
 10
23087.228812076832
 20
30984.22491760207
 30
0.0
 11
25543.524277917651
 21
30984.22491760207
 31
0.0
  0
LINE
  5
2350
  8
4
 10
25543.524277917651
 20
30984.22491760207
 30
0.0
 11
25543.524277917651
 21
30351.892847055969
 31
0.0
  0
LINE
  5
2351
  8
4
 10
25543.524277917651
 20
30351.892847055969
 30
0.0
 11
23087.228812076832
 21
30351.892847055969
 31
0.0
  0
LINE
  5
2352
  8
4
 10
14443.524277917641
 20
14264.31134830355
 30
0.0
 11
14443.524277917641
 21
31964.311348303559
 31
0.0
  0
LINE
  5
2353
  8
4
 10
14443.524277917641
 20
31964.311348303559
 30
0.0
 11
27043.524277917651
 21
31964.311348303559
 31
0.0
  0
LINE
  5
2354
  8
4
 10
27043.524277917651
 20
31964.311348303559
 30
0.0
 11
27043.524277917651
 21
14264.31134830355
 31
0.0
  0
LINE
  5
2355
  8
4
 10
27043.524277917651
 20
14264.31134830355
 30
0.0
 11
14443.524277917641
 21
14264.31134830355
 31
0.0
  0
TEXT
  5
2356
  8
4
 10
19555.301162010801
 20
28558.298138229999
 30
0.0
 40
323.99999999999989
  1
床置ベット
  0
ENDSEC
  0
EOF
