  0
SECTION
  2
HEADER
  9
$ACADVER
  1
AC1009
  9
$INSBASE
 10
0.0
 20
0.0
 30
0.0
  9
$EXTMIN
 10
15574.06596885496
 20
15470.98914022701
 30
0.0
  9
$EXTMAX
 10
28174.065968854971
 20
33170.989140227008
 30
0.0
  9
$LIMMIN
 10
0.0
 20
0.0
  9
$LIMMAX
 10
297.0
 20
210.0
  9
$ORTHOMODE
 70
     0
  9
$REGENMODE
 70
     1
  9
$FILLMODE
 70
     1
  9
$QTEXTMODE
 70
     0
  9
$MIRRTEXT
 70
     0
  9
$DRAGMODE
 70
     2
  9
$LTSCALE
 40
200.0
  9
$OSMODE
 70
    37
  9
$ATTMODE
 70
     1
  9
$TEXTSIZE
 40
150.0
  9
$TRACEWID
 40
0.05
  9
$TEXTSTYLE
  7
STANDARD
  9
$CLAYER
  8
SP
  9
$CELTYPE
  6
BYLAYER
  9
$CECOLOR
 62
   256
  9
$DIMSCALE
 40
40.0
  9
$DIMASZ
 40
2.0
  9
$DIMEXO
 40
1.0
  9
$DIMDLI
 40
10.0
  9
$DIMRND
 40
0.0
  9
$DIMDLE
 40
0.0
  9
$DIMEXE
 40
1.0
  9
$DIMTP
 40
0.0
  9
$DIMTM
 40
0.0
  9
$DIMTXT
 40
3.0
  9
$DIMCEN
 40
0.0
  9
$DIMTSZ
 40
0.0
  9
$DIMTOL
 70
     0
  9
$DIMLIM
 70
     0
  9
$DIMTIH
 70
     0
  9
$DIMTOH
 70
     0
  9
$DIMSE1
 70
     0
  9
$DIMSE2
 70
     0
  9
$DIMTAD
 70
     1
  9
$DIMZIN
 70
     8
  9
$DIMBLK
  1

  9
$DIMASO
 70
     1
  9
$DIMSHO
 70
     1
  9
$DIMPOST
  1

  9
$DIMAPOST
  1

  9
$DIMALT
 70
     0
  9
$DIMALTD
 70
     2
  9
$DIMALTF
 40
0.03937
  9
$DIMLFAC
 40
1.0
  9
$DIMTOFL
 70
     1
  9
$DIMTVP
 40
0.0
  9
$DIMTIX
 70
     0
  9
$DIMSOXD
 70
     0
  9
$DIMSAH
 70
     1
  9
$DIMBLK1
  1
OPEN
  9
$DIMBLK2
  1
OPEN
  9
$DIMSTYLE
  2
MATSU
  9
$DIMCLRD
 70
   256
  9
$DIMCLRE
 70
   256
  9
$DIMCLRT
 70
   256
  9
$DIMTFAC
 40
1.0
  9
$DIMGAP
 40
0.5
  9
$LUNITS
 70
     2
  9
$LUPREC
 70
     3
  9
$SKETCHINC
 40
0.1
  9
$FILLETRAD
 40
7.0
  9
$AUNITS
 70
     0
  9
$AUPREC
 70
     2
  9
$MENU
  1
acad
  9
$ELEVATION
 40
0.0
  9
$PELEVATION
 40
0.0
  9
$THICKNESS
 40
0.0
  9
$LIMCHECK
 70
     0
  9
$BLIPMODE
 70
     0
  9
$CHAMFERA
 40
0.0
  9
$CHAMFERB
 40
0.0
  9
$SKPOLY
 70
     0
  9
$TDCREATE
 40
2451593.4082031241
  9
$TDUPDATE
 40
2454953.6503482978
  9
$TDINDWG
 40
0.5387356597
  9
$TDUSRTIMER
 40
0.5387356597
  9
$USRTIMER
 70
     1
  9
$ANGBASE
 50
0.0
  9
$ANGDIR
 70
     0
  9
$PDMODE
 70
     0
  9
$PDSIZE
 40
1.0
  9
$PLINEWID
 40
0.0
  9
$COORDS
 70
     1
  9
$SPLFRAME
 70
     0
  9
$SPLINETYPE
 70
     6
  9
$SPLINESEGS
 70
     8
  9
$ATTDIA
 70
     0
  9
$ATTREQ
 70
     1
  9
$HANDLING
 70
 10241
  9
$HANDSEED
  5
220D
  9
$SURFTAB1
 70
     6
  9
$SURFTAB2
 70
     6
  9
$SURFTYPE
 70
     6
  9
$SURFU
 70
     6
  9
$SURFV
 70
     6
  9
$UCSNAME
  2

  9
$UCSORG
 10
0.0
 20
0.0
 30
0.0
  9
$UCSXDIR
 10
1.0
 20
0.0
 30
0.0
  9
$UCSYDIR
 10
0.0
 20
1.0
 30
0.0
  9
$PUCSNAME
  2

  9
$PUCSORG
 10
0.0
 20
0.0
 30
0.0
  9
$PUCSXDIR
 10
1.0
 20
0.0
 30
0.0
  9
$PUCSYDIR
 10
0.0
 20
1.0
 30
0.0
  9
$USERI1
 70
     0
  9
$USERI2
 70
     0
  9
$USERI3
 70
     0
  9
$USERI4
 70
     0
  9
$USERI5
 70
     0
  9
$USERR1
 40
0.0
  9
$USERR2
 40
0.0
  9
$USERR3
 40
0.0
  9
$USERR4
 40
0.0
  9
$USERR5
 40
0.0
  9
$WORLDVIEW
 70
     1
  9
$SHADEDGE
 70
     3
  9
$SHADEDIF
 70
    70
  9
$TILEMODE
 70
     1
  9
$MAXACTVP
 70
    16
  9
$PLIMCHECK
 70
     0
  9
$PEXTMIN
 10
1.0000000000000000E+020
 20
1.0000000000000000E+020
 30
1.0000000000000000E+020
  9
$PEXTMAX
 10
-1.0000000000000000E+020
 20
-1.0000000000000000E+020
 30
-1.0000000000000000E+020
  9
$PLIMMIN
 10
0.0
 20
0.0
  9
$PLIMMAX
 10
12.0
 20
9.0
  9
$UNITMODE
 70
     0
  9
$VISRETAIN
 70
     0
  9
$PLINEGEN
 70
     0
  9
$PSLTSCALE
 70
     0
  0
ENDSEC
  0
SECTION
  2
TABLES
  0
TABLE
  2
VPORT
 70
     2
  0
VPORT
  2
*ACTIVE
 70
     0
 10
0.0
 20
0.0
 11
1.0
 21
1.0
 12
27452.201209078561
 22
17574.089271746081
 13
0.0
 23
0.0
 14
5.0
 24
5.0
 15
0.0
 25
0.0
 16
0.0
 26
0.0
 36
1.0
 17
0.0
 27
0.0
 37
0.0
 40
5363.7835150126539
 41
3.1666666666666661
 42
50.0
 43
0.0
 44
0.0
 50
0.0
 51
0.0
 71
     0
 72
   100
 73
     1
 74
     0
 75
     0
 76
     0
 77
     0
 78
     0
  0
ENDTAB
  0
TABLE
  2
LTYPE
 70
     4
  0
LTYPE
  2
CONTINUOUS
 70
     0
  3
Solid line
 72
    65
 73
     0
 40
0.0
  0
LTYPE
  2
CENTER
 70
     0
  3
____ _ ____ _ ____ _ ____ _ ____ _ ____ _ ____ 
 72
    65
 73
     4
 40
2.0
 49
1.25
 49
-0.25
 49
0.25
 49
-0.25
  0
LTYPE
  2
HIDDEN
 70
     0
  3
__ __ __ __ __ __ __ __ __ __ __ __ __ __ __ __
 72
    65
 73
     2
 40
0.375
 49
0.25
 49
-0.125
  0
LTYPE
  2
PHANTOM
 70
     0
  3
______  __  __  ______  __  __  ______  __  __ 
 72
    65
 73
     6
 40
2.5
 49
1.25
 49
-0.25
 49
0.25
 49
-0.25
 49
0.25
 49
-0.25
  0
ENDTAB
  0
TABLE
  2
LAYER
 70
    10
  0
LAYER
  2
0
 70
     0
 62
     7
  6
CONTINUOUS
  0
LAYER
  2
CT
 70
     0
 62
     3
  6
CENTER
  0
LAYER
  2
FUTO
 70
     0
 62
     4
  6
CONTINUOUS
  0
LAYER
  2
HOSO
 70
     0
 62
     7
  6
CONTINUOUS
  0
LAYER
  2
KL
 70
     0
 62
     7
  6
HIDDEN
  0
LAYER
  2
SL
 70
     0
 62
     1
  6
PHANTOM
  0
LAYER
  2
SP
 70
     0
 62
     2
  6
CONTINUOUS
  0
LAYER
  2
1
 70
     0
 62
     7
  6
CONTINUOUS
  0
LAYER
  2
DEFPOINTS
 70
     0
 62
     7
  6
CONTINUOUS
  0
LAYER
  2
4
 70
     0
 62
     7
  6
CONTINUOUS
  0
ENDTAB
  0
TABLE
  2
STYLE
 70
     1
  0
STYLE
  2
STANDARD
 70
     0
 40
0.0
 41
1.0
 50
15.0
 71
     0
 42
150.0
  3
C:\Program Files\AutoCAD LT\simplex.shx
  4
bigfont.shx
  0
ENDTAB
  0
TABLE
  2
VIEW
 70
     0
  0
ENDTAB
  0
TABLE
  2
UCS
 70
     0
  0
ENDTAB
  0
TABLE
  2
APPID
 70
     2
  0
APPID
  2
ACAD
 70
     0
  0
APPID
  2
CONTENTBLOCKICON
 70
     0
  0
ENDTAB
  0
TABLE
  2
DIMSTYLE
 70
     2
  0
DIMSTYLE
  2
MATSU
 70
     0
  3

  4

  5

  6
OPEN
  7
OPEN
 40
1.0
 41
2.0
 42
1.0
 43
10.0
 44
1.0
 45
0.0
 46
0.0
 47
0.0
 48
0.0
140
3.0
141
0.0
142
0.0
143
0.03937
144
1.0
145
0.0
146
1.0
147
0.5
 71
     0
 72
     0
 73
     0
 74
     0
 75
     0
 76
     0
 77
     1
 78
     8
170
     0
171
     2
172
     1
173
     1
174
     0
175
     0
176
   256
177
   256
178
   256
  0
DIMSTYLE
  2
STANDARD
 70
     0
  3

  4

  5

  6

  7

 40
1.0
 41
0.18
 42
0.0625
 43
0.38
 44
0.18
 45
0.0
 46
0.0
 47
0.0
 48
0.0
140
0.18
141
0.09
142
0.0
143
25.399999999999999
144
1.0
145
0.0
146
1.0
147
0.09
 71
     0
 72
     0
 73
     1
 74
     1
 75
     0
 76
     0
 77
     0
 78
     0
170
     0
171
     2
172
     0
173
     0
174
     0
175
     0
176
     0
177
     0
178
     0
  0
ENDTAB
  0
ENDSEC
  0
SECTION
  2
BLOCKS
  0
BLOCK
  8
0
  2
$MODEL_SPACE
 70
     0
 10
0.0
 20
0.0
 30
0.0
  3
$MODEL_SPACE
  1

  0
ENDBLK
  5
7
  8
0
  0
BLOCK
 67
     1
  8
0
  2
$PAPER_SPACE
 70
     0
 10
0.0
 20
0.0
 30
0.0
  3
$PAPER_SPACE
  1

  0
ENDBLK
  5
A
 67
     1
  8
0
  0
BLOCK
  8
0
  2
_OPEN
 70
     0
 10
0.0
 20
0.0
 30
0.0
  3
_OPEN
  1

  0
LINE
  5
27
  8
0
  6
BYBLOCK
 62
     0
 10
-1.0
 20
0.1666666666666666
 30
0.0
 11
0.0
 21
0.0
 31
0.0
  0
LINE
  5
28
  8
0
  6
BYBLOCK
 62
     0
 10
0.0
 20
0.0
 30
0.0
 11
-1.0
 21
-0.1666666666666666
 31
0.0
  0
LINE
  5
29
  8
0
  6
BYBLOCK
 62
     0
 10
0.0
 20
0.0
 30
0.0
 11
-1.0
 21
0.0
 31
0.0
  0
ENDBLK
  5
2B
  8
0
  0
BLOCK
  8
0
  2
まっすぐの矢印
 70
     0
 10
0.0
 20
0.0
 30
0.0
  3
まっすぐの矢印
  1

  0
LINE
  5
8C
  8
SP
 10
13.01863531255526
 20
-41.453946163708451
 30
0.0
 11
13.01863531255526
 21
-93.495696758840026
 31
0.0
  0
LINE
  5
8D
  8
SP
 10
13.01863531255526
 20
-93.495696758840026
 30
0.0
 11
-13.01863531255526
 21
-93.495696758840026
 31
0.0
  0
LINE
  5
8E
  8
SP
 10
-13.01863531255526
 20
-93.495696758840026
 30
0.0
 11
-13.01863531255526
 21
-41.453946163708451
 31
0.0
  0
LINE
  5
8F
  8
SP
 10
-13.01863531255526
 20
-41.453946163708451
 30
0.0
 11
-32.06015471115802
 21
-41.453946163708451
 31
0.0
  0
LINE
  5
90
  8
SP
 10
-32.06015471115802
 20
-41.453946163708451
 30
0.0
 11
0.0
 21
0.0
 31
0.0
  0
LINE
  5
91
  8
SP
 10
0.0
 20
0.0
 30
0.0
 11
32.06015471115802
 21
-41.453946163708451
 31
0.0
  0
LINE
  5
92
  8
SP
 10
32.06015471115802
 20
-41.453946163708451
 30
0.0
 11
13.01863531255526
 21
-41.453946163708451
 31
0.0
  0
ENDBLK
  5
94
  8
0
  0
BLOCK
  8
0
  2
左回転矢印
 70
     0
 10
0.0
 20
0.0
 30
0.0
  3
左回転矢印
  1

  0
LINE
  5
2C7
  8
SP
 10
43.930449171819873
 20
24.859487323637271
 30
0.0
 11
38.511878498580238
 21
44.478978865188871
 31
0.0
  0
LINE
  5
2C8
  8
SP
 10
38.511878498580238
 20
44.478978865188871
 30
0.0
 11
0.0
 21
0.0
 31
0.0
  0
LINE
  5
2C9
  8
SP
 10
0.0
 20
0.0
 30
0.0
 11
52.57968174421967
 21
-6.4575435924972453
 31
0.0
  0
LINE
  5
2CA
  8
SP
 10
52.57968174421967
 20
-6.4575435924972453
 30
0.0
 11
48.189912989015284
 21
9.436875093862227
 31
0.0
  0
ARC
  5
2CB
  8
SP
 10
93.893649146691985
 20
-156.0466295121104
 30
0.0
 40
171.67883327727239
 50
67.881388989212894
 51
105.4392492786835
  0
LINE
  5
2CC
  8
SP
 10
158.53505643637521
 20
2.997736182040398
 30
0.0
 11
164.55945966006539
 21
17.820238190756751
 31
0.0
  0
ARC
  5
2CD
  8
SP
 10
93.893649146692198
 20
-156.04662951211091
 30
0.0
 40
187.67883327727299
 50
67.881388989212994
 51
105.4392492786836
  0
ENDBLK
  5
2CF
  8
0
  0
BLOCK
  8
0
  2
*D3
 70
     1
 10
0.0
 20
0.0
 30
0.0
  3
*D3
  1

  0
LINE
  5
2185
  8
SP
 10
22817.036645918641
 20
22253.718035677739
 30
0.0
 11
22817.036645918641
 21
24326.093842382448
 31
0.0
  0
LINE
  5
2186
  8
SP
 10
25267.036645918641
 20
23854.718035677732
 30
0.0
 11
25267.036645918641
 21
24326.093842382448
 31
0.0
  0
LINE
  5
2187
  8
SP
 10
22897.036645918641
 20
24286.093842382448
 30
0.0
 11
25187.036645918641
 21
24286.093842382448
 31
0.0
  0
INSERT
  5
2188
  8
SP
  2
_OPEN
 10
22817.036645918641
 20
24286.093842382448
 30
0.0
 41
80.0
 42
80.0
 43
80.0
 50
180.0
  0
INSERT
  5
2189
  8
SP
  2
_OPEN
 10
25267.036645918641
 20
24286.093842382448
 30
0.0
 41
80.0
 42
80.0
 43
80.0
  0
TEXT
  5
218A
  8
SP
 10
23745.043957013659
 20
24357.522413811021
 30
0.0
 40
120.0
  1
(2450)
 51
15.0
  0
POINT
  5
218B
  8
DEFPOINTS
 62
     0
 10
22817.036645918641
 20
22213.718035677739
 30
0.0
  0
POINT
  5
218C
  8
DEFPOINTS
 62
     0
 10
25267.036645918641
 20
23814.718035677732
 30
0.0
  0
POINT
  5
218D
  8
DEFPOINTS
 62
     0
 10
25267.036645918641
 20
24286.093842382448
 30
0.0
  0
ENDBLK
  5
1423
  8
0
  0
BLOCK
  8
0
  2
*D4
 70
     1
 10
0.0
 20
0.0
 30
0.0
  3
*D4
  1

  0
LINE
  5
219F
  8
SP
 10
21811.815200002551
 20
21835.344235677741
 30
0.0
 11
21975.870290164039
 21
21835.344235677741
 31
0.0
  0
LINE
  5
21A0
  8
SP
 10
21431.461200958449
 20
23825.34423567773
 30
0.0
 11
21975.870290164039
 21
23825.34423567773
 31
0.0
  0
LINE
  5
21A1
  8
SP
 10
21935.870290164039
 20
21915.344235677741
 30
0.0
 11
21935.870290164039
 21
23745.34423567773
 31
0.0
  0
INSERT
  5
21A2
  8
SP
  2
_OPEN
 10
21935.870290164039
 20
21835.344235677741
 30
0.0
 41
80.0
 42
80.0
 43
80.0
 50
270.0
  0
INSERT
  5
21A3
  8
SP
  2
_OPEN
 10
21935.870290164039
 20
23825.34423567773
 30
0.0
 41
80.0
 42
80.0
 43
80.0
 50
90.0
  0
TEXT
  5
21A4
  8
SP
 10
21915.870290164039
 20
22607.172028412999
 30
0.0
 40
120.0
  1
1990
 50
90.0
 51
15.0
  0
POINT
  5
21A5
  8
DEFPOINTS
 62
     0
 10
21771.815200002551
 20
21835.344235677741
 30
0.0
  0
POINT
  5
21A6
  8
DEFPOINTS
 62
     0
 10
21391.461200958449
 20
23825.34423567773
 30
0.0
  0
POINT
  5
21A7
  8
DEFPOINTS
 62
     0
 10
21935.870290164039
 20
23825.34423567773
 30
0.0
  0
ENDBLK
  5
18B9
  8
0
  0
BLOCK
  8
0
  2
*D5
 70
     1
 10
0.0
 20
0.0
 30
0.0
  3
*D5
  1

  0
LINE
  5
21A8
  8
SP
 10
21789.21488959909
 20
21835.344235677741
 30
0.0
 11
21975.870290164039
 21
21835.344235677741
 31
0.0
  0
LINE
  5
21A9
  8
SP
 10
21291.574413290939
 20
20505.344235677741
 30
0.0
 11
21975.870290164039
 21
20505.344235677741
 31
0.0
  0
LINE
  5
21AA
  8
SP
 10
21935.870290164039
 20
21755.344235677741
 30
0.0
 11
21935.870290164039
 21
20585.344235677741
 31
0.0
  0
INSERT
  5
21AB
  8
SP
  2
_OPEN
 10
21935.870290164039
 20
21835.344235677741
 30
0.0
 41
80.0
 42
80.0
 43
80.0
 50
90.0
  0
INSERT
  5
21AC
  8
SP
  2
_OPEN
 10
21935.870290164039
 20
20505.344235677741
 30
0.0
 41
80.0
 42
80.0
 43
80.0
 50
270.0
  0
TEXT
  5
21AD
  8
SP
 10
21915.870290164039
 20
20947.172028412999
 30
0.0
 40
120.0
  1
1330
 50
90.0
 51
15.0
  0
POINT
  5
21AE
  8
DEFPOINTS
 62
     0
 10
21749.21488959909
 20
21835.344235677741
 30
0.0
  0
POINT
  5
21AF
  8
DEFPOINTS
 62
     0
 10
21251.574413290939
 20
20505.344235677741
 30
0.0
  0
POINT
  5
21B0
  8
DEFPOINTS
 62
     0
 10
21935.870290164039
 20
20505.344235677741
 30
0.0
  0
ENDBLK
  5
18ED
  8
0
  0
BLOCK
  8
0
  2
*D6
 70
     1
 10
0.0
 20
0.0
 30
0.0
  3
*D6
  1

  0
LINE
  5
21B1
  8
SP
 10
20226.461200958449
 20
28535.762386558261
 30
0.0
 11
20226.461200958449
 21
28794.641014868979
 31
0.0
  0
LINE
  5
21B2
  8
SP
 10
21391.461200958449
 20
28270.767083386028
 30
0.0
 11
21391.461200958449
 21
28794.641014868979
 31
0.0
  0
LINE
  5
21B3
  8
SP
 10
20306.461200958449
 20
28754.641014868979
 30
0.0
 11
21311.461200958449
 21
28754.641014868979
 31
0.0
  0
INSERT
  5
21B4
  8
SP
  2
_OPEN
 10
20226.461200958449
 20
28754.641014868979
 30
0.0
 41
80.0
 42
80.0
 43
80.0
 50
180.0
  0
INSERT
  5
21B5
  8
SP
  2
_OPEN
 10
21391.461200958449
 20
28754.641014868979
 30
0.0
 41
80.0
 42
80.0
 43
80.0
  0
TEXT
  5
21B6
  8
SP
 10
20597.01243149451
 20
28774.641014868979
 30
0.0
 40
120.0
  1
1165
 51
15.0
  0
POINT
  5
21B7
  8
DEFPOINTS
 62
     0
 10
20226.461200958449
 20
28495.762386558261
 30
0.0
  0
POINT
  5
21B8
  8
DEFPOINTS
 62
     0
 10
21391.461200958449
 20
28230.767083386028
 30
0.0
  0
POINT
  5
21B9
  8
DEFPOINTS
 62
     0
 10
21391.461200958449
 20
28754.641014868979
 30
0.0
  0
ENDBLK
  5
1915
  8
0
  0
BLOCK
  8
0
  2
*D7
 70
     1
 10
0.0
 20
0.0
 30
0.0
  3
*D7
  1

  0
LINE
  5
2149
  8
SP
 10
18286.461200958449
 20
26877.767083386039
 30
0.0
 11
18286.461200958449
 21
28794.641014868979
 31
0.0
  0
LINE
  5
214A
  8
SP
 10
20146.461200958449
 20
28754.641014868979
 30
0.0
 11
18366.461200958449
 21
28754.641014868979
 31
0.0
  0
INSERT
  5
214B
  8
SP
  2
_OPEN
 10
20226.461200958449
 20
28754.641014868979
 30
0.0
 41
80.0
 42
80.0
 43
80.0
  0
INSERT
  5
214C
  8
SP
  2
_OPEN
 10
18286.461200958449
 20
28754.641014868979
 30
0.0
 41
80.0
 42
80.0
 43
80.0
 50
180.0
  0
TEXT
  5
214D
  8
SP
 10
19033.28899369371
 20
28774.641014868979
 30
0.0
 40
120.0
  1
1940
 51
15.0
  0
POINT
  5
214E
  8
DEFPOINTS
 62
     0
 10
20226.461200958449
 20
28754.641014868979
 30
0.0
  0
POINT
  5
214F
  8
DEFPOINTS
 62
     0
 10
18286.461200958449
 20
26837.767083386039
 30
0.0
  0
POINT
  5
2150
  8
DEFPOINTS
 62
     0
 10
18286.461200958449
 20
28754.641014868979
 30
0.0
  0
ENDBLK
  5
1921
  8
0
  0
BLOCK
  8
0
  2
*D8
 70
     1
 10
0.0
 20
0.0
 30
0.0
  3
*D8
  1

  0
LINE
  5
21BA
  8
SP
 10
21231.461200958449
 20
28296.767083386028
 30
0.0
 11
21851.447466448572
 21
28296.767083386028
 31
0.0
  0
LINE
  5
21BB
  8
SP
 10
21838.695644667368
 20
27501.767083386028
 30
0.0
 11
21771.447466448572
 21
27501.767083386028
 31
0.0
  0
LINE
  5
21BC
  8
SP
 10
21811.447466448572
 20
28216.767083386028
 30
0.0
 11
21811.447466448572
 21
27581.767083386028
 31
0.0
  0
INSERT
  5
21BD
  8
SP
  2
_OPEN
 10
21811.447466448572
 20
28296.767083386028
 30
0.0
 41
80.0
 42
80.0
 43
80.0
 50
90.0
  0
INSERT
  5
21BE
  8
SP
  2
_OPEN
 10
21811.447466448572
 20
27501.767083386028
 30
0.0
 41
80.0
 42
80.0
 43
80.0
 50
270.0
  0
TEXT
  5
21BF
  8
SP
 10
21791.447466448561
 20
27723.190131840169
 30
0.0
 40
120.0
  1
795
 50
90.0
 51
15.0
  0
POINT
  5
21C0
  8
DEFPOINTS
 62
     0
 10
21191.461200958449
 20
28296.767083386028
 30
0.0
  0
POINT
  5
21C1
  8
DEFPOINTS
 62
     0
 10
21878.695644667368
 20
27501.767083386028
 30
0.0
  0
POINT
  5
21C2
  8
DEFPOINTS
 62
     0
 10
21811.447466448572
 20
27501.767083386028
 30
0.0
  0
ENDBLK
  5
192F
  8
0
  0
BLOCK
  8
0
  2
*D9
 70
     1
 10
0.0
 20
0.0
 30
0.0
  3
*D9
  1

  0
LINE
  5
218E
  8
SP
 10
20646.461200958449
 20
25051.767083386028
 30
0.0
 11
21851.447466448572
 21
25051.767083386028
 31
0.0
  0
LINE
  5
218F
  8
SP
 10
21811.447466448572
 20
27421.767083386028
 30
0.0
 11
21811.447466448572
 21
25131.767083386028
 31
0.0
  0
INSERT
  5
2190
  8
SP
  2
_OPEN
 10
21811.447466448572
 20
27501.767083386028
 30
0.0
 41
80.0
 42
80.0
 43
80.0
 50
90.0
  0
INSERT
  5
2191
  8
SP
  2
_OPEN
 10
21811.447466448572
 20
25051.767083386028
 30
0.0
 41
80.0
 42
80.0
 43
80.0
 50
270.0
  0
TEXT
  5
2192
  8
SP
 10
21791.447466448561
 20
26055.180979753659
 30
0.0
 40
120.0
  1
2450
 50
90.0
 51
15.0
  0
POINT
  5
2193
  8
DEFPOINTS
 62
     0
 10
21811.447466448572
 20
27501.767083386028
 30
0.0
  0
POINT
  5
2194
  8
DEFPOINTS
 62
     0
 10
20606.461200958449
 20
25051.767083386028
 30
0.0
  0
POINT
  5
2195
  8
DEFPOINTS
 62
     0
 10
21811.447466448572
 20
25051.767083386028
 30
0.0
  0
ENDBLK
  5
193B
  8
0
  0
BLOCK
  8
0
  2
*D10
 70
     1
 10
0.0
 20
0.0
 30
0.0
  3
*D10
  1

  0
LINE
  5
2151
  8
SP
 10
21286.461200958449
 20
20465.344235677741
 30
0.0
 11
21286.461200958449
 21
19711.422306338809
 31
0.0
  0
LINE
  5
2152
  8
SP
 10
18286.461200958449
 20
20465.344235677741
 30
0.0
 11
18286.461200958449
 21
19711.422306338809
 31
0.0
  0
LINE
  5
2153
  8
SP
 10
21206.461200958449
 20
19751.422306338809
 30
0.0
 11
18366.461200958449
 21
19751.422306338809
 31
0.0
  0
INSERT
  5
2154
  8
SP
  2
_OPEN
 10
21286.461200958449
 20
19751.422306338809
 30
0.0
 41
80.0
 42
80.0
 43
80.0
  0
INSERT
  5
2155
  8
SP
  2
_OPEN
 10
18286.461200958449
 20
19751.422306338809
 30
0.0
 41
80.0
 42
80.0
 43
80.0
 50
180.0
  0
TEXT
  5
2156
  8
SP
 10
19561.812820841162
 20
19771.422306338802
 30
0.0
 40
120.0
  1
3000
 51
15.0
  0
POINT
  5
2157
  8
DEFPOINTS
 62
     0
 10
21286.461200958449
 20
20505.344235677741
 30
0.0
  0
POINT
  5
2158
  8
DEFPOINTS
 62
     0
 10
18286.461200958449
 20
20505.344235677741
 30
0.0
  0
POINT
  5
2159
  8
DEFPOINTS
 62
     0
 10
18286.461200958449
 20
19751.422306338809
 30
0.0
  0
ENDBLK
  5
1957
  8
0
  0
BLOCK
  8
0
  2
*D11
 70
     1
 10
0.0
 20
0.0
 30
0.0
  3
*D11
  1

  0
LINE
  5
21F6
  8
SP
 10
18286.461200958449
 20
20465.344235677741
 30
0.0
 11
18286.461200958449
 21
20030.136856959431
 31
0.0
  0
LINE
  5
21F7
  8
SP
 10
20146.461200958449
 20
20070.136856959431
 30
0.0
 11
18366.461200958449
 21
20070.136856959431
 31
0.0
  0
INSERT
  5
21F8
  8
SP
  2
_OPEN
 10
20226.461200958449
 20
20070.136856959431
 30
0.0
 41
80.0
 42
80.0
 43
80.0
  0
INSERT
  5
21F9
  8
SP
  2
_OPEN
 10
18286.461200958449
 20
20070.136856959431
 30
0.0
 41
80.0
 42
80.0
 43
80.0
 50
180.0
  0
TEXT
  8
0
  40
120
  5
220B
  72
0
  71
0
 10
19016.5
 20
19937.7
 30
0.000000
  1
1940
  0
POINT
  5
21FB
  8
DEFPOINTS
 62
     0
 10
20226.461200958449
 20
20424.690060667519
 30
0.0
  0
POINT
  5
21FC
  8
DEFPOINTS
 62
     0
 10
18286.461200958449
 20
20505.344235677741
 30
0.0
  0
POINT
  5
21FD
  8
DEFPOINTS
 62
     0
 10
18286.461200958449
 20
20070.136856959431
 30
0.0
  0
ENDBLK
  5
1962
  8
0
  0
BLOCK
  8
0
  2
*D12
 70
     1
 10
0.0
 20
0.0
 30
0.0
  3
*D12
  1

  0
LINE
  5
217C
  8
SP
 10
21286.461200958449
 20
20465.344235677741
 30
0.0
 11
21286.461200958449
 21
20030.136856959431
 31
0.0
  0
LINE
  5
217D
  8
SP
 10
20226.461200958449
 20
20384.690060667519
 30
0.0
 11
20226.461200958449
 21
20030.136856959431
 31
0.0
  0
LINE
  5
217E
  8
SP
 10
21206.461200958449
 20
20070.136856959431
 30
0.0
 11
20306.461200958449
 21
20070.136856959431
 31
0.0
  0
INSERT
  5
217F
  8
SP
  2
_OPEN
 10
21286.461200958449
 20
20070.136856959431
 30
0.0
 41
80.0
 42
80.0
 43
80.0
  0
INSERT
  5
2180
  8
SP
  2
_OPEN
 10
20226.461200958449
 20
20070.136856959431
 30
0.0
 41
80.0
 42
80.0
 43
80.0
 50
180.0
  0
TEXT
  5
2181
  8
SP
 10
20533.28899369371
 20
20090.136856959431
 30
0.0
 40
120.0
  1
1060
 51
15.0
  0
POINT
  5
2182
  8
DEFPOINTS
 62
     0
 10
21286.461200958449
 20
20505.344235677741
 30
0.0
  0
POINT
  5
2183
  8
DEFPOINTS
 62
     0
 10
20226.461200958449
 20
20424.690060667519
 30
0.0
  0
POINT
  5
2184
  8
DEFPOINTS
 62
     0
 10
20226.461200958449
 20
20070.136856959431
 30
0.0
  0
ENDBLK
  5
1985
  8
0
  0
BLOCK
  8
0
  2
*D13
 70
     1
 10
0.0
 20
0.0
 30
0.0
  3
*D13
  1

  0
LINE
  5
216A
  8
SP
 10
23156.036645918641
 20
20465.344219071751
 30
0.0
 11
23156.036645918641
 21
19725.826061342519
 31
0.0
  0
LINE
  5
216B
  8
SP
 10
26006.036645918641
 20
20465.344219071751
 30
0.0
 11
26006.036645918641
 21
19725.826061342519
 31
0.0
  0
LINE
  5
216C
  8
SP
 10
23236.036645918641
 20
19765.826061342508
 30
0.0
 11
25926.036645918641
 21
19765.826061342508
 31
0.0
  0
INSERT
  5
216D
  8
SP
  2
_OPEN
 10
23156.036645918641
 20
19765.826061342508
 30
0.0
 41
80.0
 42
80.0
 43
80.0
 50
180.0
  0
INSERT
  5
216E
  8
SP
  2
_OPEN
 10
26006.036645918641
 20
19765.826061342508
 30
0.0
 41
80.0
 42
80.0
 43
80.0
  0
TEXT
  5
216F
  8
SP
 10
24359.450542286271
 20
19785.826061342508
 30
0.0
 40
120.0
  1
2850
 51
15.0
  0
POINT
  5
2170
  8
DEFPOINTS
 62
     0
 10
23156.036645918641
 20
20505.344219071751
 30
0.0
  0
POINT
  5
2171
  8
DEFPOINTS
 62
     0
 10
26006.036645918641
 20
20505.344219071751
 30
0.0
  0
POINT
  5
2172
  8
DEFPOINTS
 62
     0
 10
26006.036645918641
 20
19765.826061342508
 30
0.0
  0
ENDBLK
  5
1991
  8
0
  0
BLOCK
  8
0
  2
*D14
 70
     1
 10
0.0
 20
0.0
 30
0.0
  3
*D14
  1

  0
LINE
  5
2173
  8
SP
 10
23156.036645918641
 20
20465.344219071751
 30
0.0
 11
23156.036645918641
 21
20025.863606307441
 31
0.0
  0
LINE
  5
2174
  8
SP
 10
25267.036645918641
 20
20444.417167077809
 30
0.0
 11
25267.036645918641
 21
20025.863606307441
 31
0.0
  0
LINE
  5
2175
  8
SP
 10
23236.036645918641
 20
20065.863606307441
 30
0.0
 11
25187.036645918641
 21
20065.863606307441
 31
0.0
  0
INSERT
  5
2176
  8
SP
  2
_OPEN
 10
23156.036645918641
 20
20065.863606307441
 30
0.0
 41
80.0
 42
80.0
 43
80.0
 50
180.0
  0
INSERT
  5
2177
  8
SP
  2
_OPEN
 10
25267.036645918641
 20
20065.863606307441
 30
0.0
 41
80.0
 42
80.0
 43
80.0
  0
TEXT
  5
2178
  8
SP
 10
24032.602551515629
 20
20085.863606307441
 30
0.0
 40
120.0
  1
2111
 51
15.0
  0
POINT
  5
2179
  8
DEFPOINTS
 62
     0
 10
23156.036645918641
 20
20505.344219071751
 30
0.0
  0
POINT
  5
217A
  8
DEFPOINTS
 62
     0
 10
25267.036645918641
 20
20484.417167077809
 30
0.0
  0
POINT
  5
217B
  8
DEFPOINTS
 62
     0
 10
25267.036645918641
 20
20065.863606307441
 30
0.0
  0
ENDBLK
  5
199D
  8
0
  0
BLOCK
  8
0
  2
*D15
 70
     1
 10
0.0
 20
0.0
 30
0.0
  3
*D15
  1

  0
LINE
  5
21FE
  8
SP
 10
26006.036645918641
 20
20465.344219071751
 30
0.0
 11
26006.036645918641
 21
20025.863606307441
 31
0.0
  0
LINE
  5
21FF
  8
SP
 10
25347.036645918641
 20
20065.863606307441
 30
0.0
 11
25926.036645918641
 21
20065.863606307441
 31
0.0
  0
INSERT
  5
2200
  8
SP
  2
_OPEN
 10
25267.036645918641
 20
20065.863606307441
 30
0.0
 41
80.0
 42
80.0
 43
80.0
 50
180.0
  0
INSERT
  5
2201
  8
SP
  2
_OPEN
 10
26006.036645918641
 20
20065.863606307441
 30
0.0
 41
80.0
 42
80.0
 43
80.0
  0
TEXT
  8
0
  40
120
  5
220C
  72
0
  71
0
 10
25396.5
 20
19933.5
 30
0.000000
  1
739
  0
POINT
  5
2203
  8
DEFPOINTS
 62
     0
 10
25267.036645918641
 20
20484.417167077809
 30
0.0
  0
POINT
  5
2204
  8
DEFPOINTS
 62
     0
 10
26006.036645918641
 20
20505.344219071751
 30
0.0
  0
POINT
  5
2205
  8
DEFPOINTS
 62
     0
 10
26006.036645918641
 20
20065.863606307441
 30
0.0
  0
ENDBLK
  5
19A8
  8
0
  0
BLOCK
  8
0
  2
*D16
 70
     1
 10
0.0
 20
0.0
 30
0.0
  3
*D16
  1

  0
LINE
  5
2196
  8
SP
 10
21391.461200958449
 20
23865.34423567773
 30
0.0
 11
21391.461200958449
 21
24337.142251840331
 31
0.0
  0
LINE
  5
2197
  8
SP
 10
20226.461200958449
 20
23865.609774242101
 30
0.0
 11
20226.461200958449
 21
24337.142251840331
 31
0.0
  0
LINE
  5
2198
  8
SP
 10
21311.461200958449
 20
24297.142251840331
 30
0.0
 11
20306.461200958449
 21
24297.142251840331
 31
0.0
  0
INSERT
  5
2199
  8
SP
  2
_OPEN
 10
21391.461200958449
 20
24297.142251840331
 30
0.0
 41
80.0
 42
80.0
 43
80.0
  0
INSERT
  5
219A
  8
SP
  2
_OPEN
 10
20226.461200958449
 20
24297.142251840331
 30
0.0
 41
80.0
 42
80.0
 43
80.0
 50
180.0
  0
TEXT
  5
219B
  8
SP
 10
20597.012431494499
 20
24317.142251840331
 30
0.0
 40
120.0
  1
1165
 51
15.0
  0
POINT
  5
219C
  8
DEFPOINTS
 62
     0
 10
21391.461200958449
 20
23825.34423567773
 30
0.0
  0
POINT
  5
219D
  8
DEFPOINTS
 62
     0
 10
20226.461200958449
 20
23825.609774242101
 30
0.0
  0
POINT
  5
219E
  8
DEFPOINTS
 62
     0
 10
20226.461200958449
 20
24297.142251840331
 30
0.0
  0
ENDBLK
  5
1A17
  8
0
  0
BLOCK
  8
0
  2
*D17
 70
     1
 10
0.0
 20
0.0
 30
0.0
  3
*D17
  1

  0
LINE
  5
21C4
  8
SP
 10
26102.036645918641
 20
22733.718035677739
 30
0.0
 11
26682.04478813037
 21
22733.718035677739
 31
0.0
  0
LINE
  5
21C5
  8
SP
 10
26102.036645918641
 20
20933.718035677732
 30
0.0
 11
26682.04478813037
 21
20933.718035677732
 31
0.0
  0
LINE
  5
21C6
  8
SP
 10
26642.04478813037
 20
22653.718035677739
 30
0.0
 11
26642.04478813037
 21
21013.718035677732
 31
0.0
  0
INSERT
  5
21C7
  8
SP
  2
_OPEN
 10
26642.04478813037
 20
22733.718035677739
 30
0.0
 41
80.0
 42
80.0
 43
80.0
 50
90.0
  0
INSERT
  5
21C8
  8
SP
  2
_OPEN
 10
26642.04478813037
 20
20933.718035677732
 30
0.0
 41
80.0
 42
80.0
 43
80.0
 50
270.0
  0
INSERT
  5
21C9
  8
SP
  2
*U19
 10
0.0
 20
0.0
 30
0.0
  0
POINT
  5
21CA
  8
DEFPOINTS
 62
     0
 10
26062.036645918641
 20
22733.718035677739
 30
0.0
  0
POINT
  5
21CB
  8
DEFPOINTS
 62
     0
 10
26062.036645918641
 20
20933.718035677732
 30
0.0
  0
POINT
  5
21CC
  8
DEFPOINTS
 62
     0
 10
26642.04478813037
 20
20933.718035677732
 30
0.0
  0
ENDBLK
  5
21CE
  8
0
  0
BLOCK
  8
0
  2
*D18
 70
     1
 10
0.0
 20
0.0
 30
0.0
  3
*D18
  1

  0
LINE
  5
21D0
  8
SP
 10
25267.036645918641
 20
24278.036181746829
 30
0.0
 11
25267.036645918641
 21
24246.093842382448
 31
0.0
  0
LINE
  5
21D1
  8
SP
 10
26062.036645918641
 20
22838.718035677739
 30
0.0
 11
26062.036645918641
 21
24326.093842382448
 31
0.0
  0
LINE
  5
21D2
  8
SP
 10
25347.036645918641
 20
24286.093842382448
 30
0.0
 11
25982.036645918641
 21
24286.093842382448
 31
0.0
  0
INSERT
  5
21D3
  8
SP
  2
_OPEN
 10
25267.036645918641
 20
24286.093842382448
 30
0.0
 41
80.0
 42
80.0
 43
80.0
 50
180.0
  0
INSERT
  5
21D4
  8
SP
  2
_OPEN
 10
26062.036645918641
 20
24286.093842382448
 30
0.0
 41
80.0
 42
80.0
 43
80.0
  0
TEXT
  5
21D5
  8
SP
 10
25419.822069416881
 20
24306.093842382441
 30
0.0
 40
120.0
  1
795
 51
15.0
  0
POINT
  5
21D6
  8
DEFPOINTS
 62
     0
 10
25267.036645918641
 20
24318.036181746829
 30
0.0
  0
POINT
  5
21D7
  8
DEFPOINTS
 62
     0
 10
26062.036645918641
 20
22798.718035677739
 30
0.0
  0
POINT
  5
21D8
  8
DEFPOINTS
 62
     0
 10
26062.036645918641
 20
24286.093842382448
 30
0.0
  0
ENDBLK
  5
21DA
  8
0
  0
BLOCK
  8
0
  2
*U19
 70
     1
 10
0.0
 20
0.0
 30
0.0
  3
*U19
  1

  0
TEXT
  5
2207
  8
SP
 10
26622.04478813037
 20
21536.710618840931
 30
0.0
 40
120.0
  1
\U+2205
 50
90.0
 51
15.0
  0
TEXT
  5
2208
  8
SP
 10
26622.04478813037
 20
21645.282047412358
 30
0.0
 40
120.0
  1
1800
 50
90.0
 51
15.0
  0
ENDBLK
  5
220A
  8
0
  0
ENDSEC
  0
SECTION
  2
ENTITIES
  0
INSERT
  5
89
  8
FUTO
  2
まっすぐの矢印
 10
21677.122811623591
 20
23401.786532338079
 30
0.0
 41
-2.0
 42
2.0
 43
2.0
 50
270.0
  0
LINE
  5
AF
  8
CT
 10
20226.461200958449
 20
21835.344235677741
 30
0.0
 11
21447.04167913815
 21
21727.076863135379
 31
0.0
  0
LINE
  5
B2
  8
CT
 10
21771.815200002551
 20
21835.344235677741
 30
0.0
 11
18311.83309444835
 21
21835.344235677741
 31
0.0
  0
DIMENSION
  5
F5
  8
SP
  2
*D5
 10
21935.870290164039
 20
20505.344235677741
 30
0.0
 11
21855.870290164039
 21
21170.344235677741
 31
0.0
 70
     0
 13
21749.21488959909
 23
21835.344235677741
 33
0.0
 14
21251.574413290939
 24
20505.344235677741
 34
0.0
 50
90.0
1001
ACAD
1000
DSTYLE
1002
{
1070
    40
1040
40.0
1002
}
  0
LINE
  5
104
  8
CT
 10
20226.461200958449
 20
23825.609774242101
 30
0.0
 11
20226.461200958449
 21
20254.690060667519
 31
0.0
  0
LINE
  5
10B
  8
FUTO
 10
18832.51716527731
 20
20746.206950764132
 30
0.0
 11
20408.271425505081
 21
21391.108890111551
 31
0.0
  0
ARC
  5
10E
  8
FUTO
 10
18726.461200958449
 20
21005.34423567773
 30
0.0
 40
280.0
 50
125.65684022602289
 51
292.25759497155337
  0
LINE
  5
10F
  8
SL
 10
20369.548271821011
 20
21510.457963034562
 30
0.0
 11
18807.073635247219
 21
20822.30971587876
 31
0.0
  0
LINE
  5
110
  8
SL
 10
18614.204273832231
 20
21170.868802773311
 30
0.0
 11
20027.20515530941
 21
22129.150342272391
 31
0.0
  0
ARC
  5
111
  8
FUTO
 10
18726.461200958449
 20
21005.34423567773
 30
0.0
 40
310.0
 50
300.10230806831191
 51
239.897691931688
  0
LINE
  5
112
  8
CT
 10
18726.461200958449
 20
21670.110121604052
 30
0.0
 11
18726.461200958449
 21
20683.05291941659
 31
0.0
  0
LINE
  5
113
  8
FUTO
 10
19167.461200958449
 20
21826.34423567773
 30
0.0
 11
19167.461200958449
 21
21666.33711605124
 31
0.0
  0
LINE
  5
114
  8
FUTO
 10
19670.34791758475
 20
21089.102217269628
 30
0.0
 11
19526.461200958449
 21
20669.509130216149
 31
0.0
  0
LINE
  5
115
  8
FUTO
 10
21267.461200958449
 20
21826.34423567773
 30
0.0
 11
21267.461200958449
 21
20655.34423567773
 31
0.0
  0
LINE
  5
116
  8
FUTO
 10
21276.461200958449
 20
21826.34423567773
 30
0.0
 11
21276.461200958449
 21
20655.34423567773
 31
0.0
  0
LINE
  5
117
  8
FUTO
 10
19176.461200958449
 20
21844.34423567773
 30
0.0
 11
19176.461200958449
 21
21672.793997563778
 31
0.0
  0
LINE
  5
118
  8
FUTO
 10
19185.461200958449
 20
21844.34423567773
 30
0.0
 11
19185.461200958449
 21
21679.25087907632
 31
0.0
  0
LINE
  5
119
  8
CT
 10
18726.461200958449
 20
20718.842972677739
 30
0.0
 11
18726.461200958449
 21
21303.11465167773
 31
0.0
  0
LINE
  5
11D
  8
KL
 10
20568.509626782488
 20
21713.344235677741
 30
0.0
 11
20620.61341019622
 21
21561.40257044043
 31
0.0
  0
ARC
  5
122
  8
FUTO
 10
20115.961200958449
 20
21724.844235677741
 30
0.0
 40
1201.5
 50
309.60989471180039
 51
7.7248117103407843
  0
ARC
  5
123
  8
KL
 10
20115.961200958449
 20
21724.844235677741
 30
0.0
 40
1181.4999999999991
 50
269.00582105632787
 51
0.0
  0
ARC
  5
124
  8
KL
 10
20095.461200958449
 20
21966.34423567773
 30
0.0
 40
1423.0
 50
185.26336540589651
 51
270.0
  0
DIMENSION
  5
13A
  8
SP
  2
*D11
 10
18286.461200958449
 20
20070.136856959431
 30
0.0
 11
19256.461200958449
 21
20150.136856959431
 31
0.0
 70
     0
 13
20226.461200958449
 23
20424.690060667519
 33
0.0
 14
18286.461200958449
 24
20505.344235677741
 34
0.0
1001
ACAD
1000
DSTYLE
1002
{
1070
   287
1070
     4
1070
    40
1040
40.0
1070
    75
1070
     1
1070
   279
1070
     1
1070
   289
1070
     3
1002
}
  0
DIMENSION
  5
14A
  8
SP
  2
*D10
 10
18286.461200958449
 20
19751.422306338809
 30
0.0
 11
19786.461200958449
 21
19831.422306338809
 31
0.0
 70
     0
 13
21286.461200958449
 23
20505.344235677741
 33
0.0
 14
18286.461200958449
 24
20505.344235677741
 34
0.0
1001
ACAD
1000
DSTYLE
1002
{
1070
    40
1040
40.0
1002
}
  0
LINE
  5
157
  8
FUTO
 10
21286.461200958449
 20
20643.34423567773
 30
0.0
 11
18286.461200958449
 21
20643.34423567773
 31
0.0
  0
LINE
  5
158
  8
FUTO
 10
21286.461200958449
 20
20517.34423567773
 30
0.0
 11
18286.461200958449
 21
20517.34423567773
 31
0.0
  0
LINE
  5
159
  8
FUTO
 10
21286.461200958449
 20
20655.34423567773
 30
0.0
 11
18286.461200958449
 21
20655.34423567773
 31
0.0
  0
LINE
  5
15A
  8
FUTO
 10
21286.461200958449
 20
20505.344235677741
 30
0.0
 11
18286.461200958449
 21
20505.344235677741
 31
0.0
1001
ACAD
1000
ASC_BOUNDS
1002
{
1070
    19
1005
0
1002
}
  0
LINE
  5
15B
  8
FUTO
 10
19006.461200958449
 20
20755.34423567773
 30
0.0
 11
18909.764228756681
 21
20755.34423567773
 31
0.0
  0
LINE
  5
15C
  8
FUTO
 10
19006.461200958449
 20
20725.34423567773
 30
0.0
 11
18896.461200958449
 21
20725.34423567773
 31
0.0
  0
LINE
  5
15D
  8
FUTO
 10
18826.461200958449
 20
20725.34423567773
 30
0.0
 11
19041.461200958449
 21
20725.34423567773
 31
0.0
  0
LINE
  5
15E
  8
FUTO
 10
19051.461200958449
 20
20655.34423567773
 30
0.0
 11
18826.461200958449
 21
20655.34423567773
 31
0.0
  0
LINE
  5
15F
  8
CT
 10
19063.920165148211
 20
21005.34423567773
 30
0.0
 11
18383.183978765432
 21
21005.34423567773
 31
0.0
  0
LINE
  5
175
  8
FUTO
 10
18411.461200958449
 20
20725.34423567773
 30
0.0
 11
18626.461200958449
 21
20725.34423567773
 31
0.0
  0
LINE
  5
176
  8
FUTO
 10
18626.461200958449
 20
20655.34423567773
 30
0.0
 11
18401.461200958449
 21
20655.34423567773
 31
0.0
  0
CIRCLE
  5
177
  8
SL
 10
18726.461200958449
 20
21005.34423567773
 30
0.0
 40
200.0
  0
LINE
  5
178
  8
FUTO
 10
18446.461200958449
 20
20872.302888721191
 30
0.0
 11
18446.461200958449
 21
20725.34423567773
 31
0.0
  0
LINE
  5
179
  8
FUTO
 10
18286.461200958449
 20
20655.34423567773
 30
0.0
 11
18286.461200958449
 21
20505.344235677741
 31
0.0
  0
LINE
  5
17B
  8
CT
 10
18497.961200958449
 20
20770.513684167381
 30
0.0
 11
18497.961200958449
 21
20683.05291941659
 31
0.0
  0
LINE
  5
17C
  8
FUTO
 10
18543.15817316022
 20
20755.34423567773
 30
0.0
 11
18446.461200958449
 21
20755.34423567773
 31
0.0
  0
LINE
  5
17D
  8
FUTO
 10
18556.461200958449
 20
20746.11460774142
 30
0.0
 11
18556.461200958449
 21
20725.34423567773
 31
0.0
  0
LINE
  5
17E
  8
FUTO
 10
18556.461200958449
 20
20725.34423567773
 30
0.0
 11
18446.461200958449
 21
20725.34423567773
 31
0.0
  0
LINE
  5
17F
  8
FUTO
 10
18401.461200958449
 20
20655.34423567773
 30
0.0
 11
18411.461200958449
 21
20725.34423567773
 31
0.0
  0
LINE
  5
180
  8
CT
 10
18726.461200958449
 20
20513.925850489271
 30
0.0
 11
18726.461200958449
 21
21179.442249874341
 31
0.0
  0
LINE
  5
181
  8
FUTO
 10
18881.940333234059
 20
20737.15355831026
 30
0.0
 11
18570.98206868285
 21
20737.15355831026
 31
0.0
  0
LINE
  5
182
  8
FUTO
 10
18626.461200958449
 20
20715.34423567773
 30
0.0
 11
18826.461200958449
 21
20715.34423567773
 31
0.0
  0
LINE
  5
183
  8
FUTO
 10
18626.461200958449
 20
20665.344235677741
 30
0.0
 11
18826.461200958449
 21
20665.344235677741
 31
0.0
  0
LINE
  5
184
  8
FUTO
 10
18626.461200958449
 20
20715.34423567773
 30
0.0
 11
18626.461200958449
 21
20725.34423567773
 31
0.0
  0
LINE
  5
185
  8
FUTO
 10
18626.461200958449
 20
20655.34423567773
 30
0.0
 11
18626.461200958449
 21
20665.344235677741
 31
0.0
  0
LINE
  5
186
  8
CT
 10
18954.961200958449
 20
20770.513684167381
 30
0.0
 11
18954.961200958449
 21
20678.888121095119
 31
0.0
  0
LINE
  5
187
  8
FUTO
 10
18896.461200958449
 20
20746.11460774142
 30
0.0
 11
18896.461200958449
 21
20725.34423567773
 31
0.0
  0
LINE
  5
188
  8
FUTO
 10
18826.461200958449
 20
20715.34423567773
 30
0.0
 11
18826.461200958449
 21
20725.34423567773
 31
0.0
  0
LINE
  5
189
  8
FUTO
 10
18969.461200958449
 20
20725.34423567773
 30
0.0
 11
18869.461200958449
 21
20725.34423567773
 31
0.0
  0
LINE
  5
18A
  8
FUTO
 10
18826.461200958449
 20
20655.34423567773
 30
0.0
 11
18826.461200958449
 21
20665.344235677741
 31
0.0
  0
ARC
  5
1A4
  8
FUTO
 10
20095.461200958449
 20
21966.34423567773
 30
0.0
 40
1443.0
 50
229.06835973620599
 51
245.3021570415371
  0
LINE
  5
1A7
  8
FUTO
 10
19006.46120095846
 20
20872.302888721209
 30
0.0
 11
19006.461200958449
 21
20725.34423567773
 31
0.0
  0
LINE
  5
1A8
  8
FUTO
 10
19183.350999070499
 20
20874.106175723799
 30
0.0
 11
19141.354403203572
 21
20824.457543191162
 31
0.0
  0
LINE
  5
1A9
  8
FUTO
 10
19169.608164502959
 20
20885.73091219605
 30
0.0
 11
19127.611568636021
 21
20836.082279663398
 31
0.0
  0
LINE
  5
1AA
  8
FUTO
 10
19176.461200958449
 20
20879.896814032309
 30
0.0
 11
19134.4829859198
 21
20830.26991142728
 31
0.0
  0
LINE
  5
1AB
  8
FUTO
 10
19041.461200958449
 20
20725.34423567773
 30
0.0
 11
19051.461200958449
 21
20655.34423567773
 31
0.0
  0
LINE
  5
1AC
  8
FUTO
 10
19141.354403203579
 20
20824.457543191151
 30
0.0
 11
19127.611568636032
 21
20836.082279663398
 31
0.0
  0
LINE
  5
1AE
  8
KL
 10
19601.461200958449
 20
20655.34423567773
 30
0.0
 11
19601.461200958449
 21
20505.344235677741
 31
0.0
  0
LINE
  5
1AF
  8
FUTO
 10
19535.461200958449
 20
20655.34423567773
 30
0.0
 11
19535.461200958449
 21
20505.344235677741
 31
0.0
  0
LINE
  5
1B0
  8
FUTO
 10
19517.461200958449
 20
20655.34423567773
 30
0.0
 11
19517.461200958449
 21
20505.344235677741
 31
0.0
  0
LINE
  5
1B1
  8
FUTO
 10
19526.461200958449
 20
20655.34423567773
 30
0.0
 11
19526.461200958449
 21
20505.344235677741
 31
0.0
  0
LINE
  5
1B2
  8
KL
 10
19526.461200958449
 20
20669.509130216149
 30
0.0
 11
19526.461200958449
 21
20505.344235677741
 31
0.0
  0
DIMENSION
  5
1B3
  8
SP
  2
*D12
 10
20226.461200958449
 20
20070.136856959431
 30
0.0
 11
20756.461200958449
 21
20150.136856959431
 31
0.0
 70
     0
 13
21286.461200958449
 23
20505.344235677741
 33
0.0
 14
20226.461200958449
 24
20424.690060667519
 34
0.0
1001
ACAD
1000
DSTYLE
1002
{
1070
    40
1040
40.0
1002
}
  0
LINE
  5
1EC
  8
KL
 10
20851.461200958449
 20
20655.34423567773
 30
0.0
 11
20851.461200958449
 21
20505.344235677741
 31
0.0
  0
LINE
  5
1ED
  8
FUTO
 10
20926.461200958449
 20
20655.34423567773
 30
0.0
 11
20926.461200958449
 21
20505.344235677741
 31
0.0
  0
LINE
  5
1EE
  8
KL
 10
20926.461200958449
 20
20669.509130216149
 30
0.0
 11
20926.461200958449
 21
20505.344235677741
 31
0.0
  0
LINE
  5
1EF
  8
FUTO
 10
21286.461200958449
 20
20655.34423567773
 30
0.0
 11
21286.461200958449
 21
20505.344235677741
 31
0.0
  0
LINE
  5
1F0
  8
FUTO
 10
18537.58128651361
 20
26762.767083386028
 30
0.0
 11
18537.58128651361
 21
26610.767083386039
 31
0.0
  0
LINE
  5
1F1
  8
FUTO
 10
18286.461200958449
 20
26837.767083386039
 30
0.0
 11
18286.461200958449
 21
26762.767083386028
 31
0.0
  0
LINE
  5
1F2
  8
CT
 10
18726.461200958449
 20
26688.138971944161
 30
0.0
 11
18726.461200958449
 21
25144.672260339379
 31
0.0
  0
LINE
  5
1F3
  8
FUTO
 10
19526.461200958449
 20
26762.767083386028
 30
0.0
 11
19526.461200958449
 21
25390.767083386028
 31
0.0
  0
LINE
  5
1F4
  8
FUTO
 10
19601.461200958449
 20
26762.767083386028
 30
0.0
 11
19601.461200958449
 21
25465.767083386039
 31
0.0
  0
LINE
  5
1F5
  8
FUTO
 10
20851.461200958449
 20
26762.767083386028
 30
0.0
 11
20851.461200958449
 21
25465.767083386028
 31
0.0
  0
LINE
  5
1F6
  8
FUTO
 10
20926.461200958449
 20
26762.767083386028
 30
0.0
 11
20926.461200958449
 21
25390.767083386028
 31
0.0
  0
DIMENSION
  5
253
  8
SP
  2
*D16
 10
20226.461200958449
 20
24297.142251840331
 30
0.0
 11
20808.961200958449
 21
24377.142251840331
 31
0.0
 70
     0
 13
21391.461200958449
 23
23825.34423567773
 33
0.0
 14
20226.461200958449
 24
23825.609774242101
 34
0.0
1001
ACAD
1000
DSTYLE
1002
{
1070
    40
1040
40.0
1002
}
  0
LINE
  5
262
  8
KL
 10
19884.412775134409
 20
21713.344235677741
 30
0.0
 11
19670.347917584771
 21
21089.102217269639
 31
0.0
  0
ARC
  5
263
  8
FUTO
 10
20226.461200958449
 20
21835.344235677741
 30
0.0
 40
480.0
 50
292.25759497155337
 51
125.65684022602289
  0
LINE
  5
264
  8
FUTO
 10
18563.24099151386
 20
21232.850638288441
 30
0.0
 11
19946.655127624868
 21
22225.355211581798
 31
0.0
  0
LINE
  5
265
  8
FUTO
 10
19926.46120095846
 20
21713.344235677741
 30
0.0
 11
19884.412775134409
 21
21713.344235677741
 31
0.0
  0
LINE
  5
267
  8
FUTO
 10
18628.461200958449
 20
21826.34423567773
 30
0.0
 11
19390.48900065431
 21
21826.344235677741
 31
0.0
  0
LINE
  5
268
  8
FUTO
 10
18628.461200958449
 20
21844.34423567773
 30
0.0
 11
19415.578511695428
 21
21844.34423567773
 31
0.0
  0
ARC
  5
269
  8
FUTO
 10
20357.461200958449
 20
21966.34423567773
 30
0.0
 40
1705.0
 50
94.406540507256949
 51
184.10326320891221
  0
ARC
  5
26A
  8
KL
 10
20357.461200958449
 20
21966.34423567773
 30
0.0
 40
1685.0
 50
95.387940861003216
 51
175.16337676580599
  0
LINE
  5
26D
  8
FUTO
 10
19185.46120095846
 20
23204.666083986969
 30
0.0
 11
19185.461200958449
 21
21835.344235677741
 31
0.0
  0
LINE
  5
26E
  8
FUTO
 10
19176.461200958449
 20
23196.085671915451
 30
0.0
 11
19176.461200958449
 21
21835.344235677741
 31
0.0
  0
LINE
  5
26F
  8
KL
 10
18678.461200958449
 20
21835.80688470108
 30
0.0
 11
18678.461200958449
 21
22108.414640759162
 31
0.0
  0
LINE
  5
272
  8
CT
 10
18624.754786334179
 20
21455.34423567773
 30
0.0
 11
18470.457848814502
 21
21455.34423567773
 31
0.0
  0
LINE
  5
273
  8
FUTO
 10
18936.461200958449
 20
21595.344235677741
 30
0.0
 11
18546.461200958449
 21
21595.344235677741
 31
0.0
  0
LINE
  5
274
  8
FUTO
 10
18936.461200958449
 20
21330.344235677741
 30
0.0
 11
18546.461200958449
 21
21330.344235677741
 31
0.0
  0
ARC
  5
275
  8
FUTO
 10
18546.461200958449
 20
21575.34423567773
 30
0.0
 40
20.0
 50
90.0
 51
180.0
  0
ARC
  5
276
  8
FUTO
 10
18546.461200958449
 20
21350.34423567773
 30
0.0
 40
20.0
 50
180.0
 51
270.0
  0
LINE
  5
277
  8
FUTO
 10
18526.461200958449
 20
21575.34423567773
 30
0.0
 11
18526.461200958449
 21
21350.34423567773
 31
0.0
  0
ARC
  5
279
  8
FUTO
 10
18936.461200958449
 20
21575.34423567773
 30
0.0
 40
20.0
 50
0.0
 51
90.0
  0
LINE
  5
27A
  8
KL
 10
18780.107558156222
 20
21424.70432358954
 30
0.0
 11
18743.79432018955
 21
21407.771182633282
 31
0.0
  0
LINE
  5
27B
  8
CT
 10
18843.14040481393
 20
21382.377457968782
 30
0.0
 11
18736.194121577872
 21
21332.50758708459
 31
0.0
  0
LINE
  5
27C
  8
KL
 10
18730.50505970178
 20
21412.608077886242
 30
0.0
 11
18793.89779896288
 21
21276.661909830738
 31
0.0
  0
LINE
  5
27D
  8
KL
 10
18743.79432018955
 20
21407.771182633282
 30
0.0
 11
18798.73469421584
 21
21289.951170318509
 31
0.0
  0
LINE
  5
27E
  8
KL
 10
18775.881375538811
 20
21433.767401459911
 30
0.0
 11
18730.50505970178
 21
21412.608077886242
 31
0.0
  0
LINE
  5
27F
  8
KL
 10
18839.274114799919
 20
21297.821233404411
 30
0.0
 11
18793.89779896288
 21
21276.661909830738
 31
0.0
  0
LINE
  5
280
  8
KL
 10
18835.047932182511
 20
21306.884311274782
 30
0.0
 11
18798.73469421584
 21
21289.951170318509
 31
0.0
  0
ARC
  5
281
  8
FUTO
 10
18936.461200958449
 20
21350.34423567773
 30
0.0
 40
20.0
 50
270.0
 51
0.0
  0
LINE
  5
282
  8
FUTO
 10
18956.461200958449
 20
21575.34423567773
 30
0.0
 11
18956.461200958449
 21
21350.34423567773
 31
0.0
  0
LINE
  5
283
  8
FUTO
 10
18628.461200958449
 20
21844.34423567773
 30
0.0
 11
18628.461200958449
 21
21826.34423567773
 31
0.0
  0
ARC
  5
284
  8
FUTO
 10
20095.461200958449
 20
21966.34423567773
 30
0.0
 40
1443.0
 50
185.5676000385219
 51
194.8982488347483
  0
LINE
  5
285
  8
FUTO
 10
21326.461200958449
 20
21837.344235677741
 30
0.0
 11
21326.461200958449
 21
23825.34423567773
 31
0.0
  0
LINE
  5
286
  8
FUTO
 10
21391.461200958449
 20
22049.904007710069
 30
0.0
 11
21391.461200958449
 21
23077.306176454858
 31
0.0
  0
LINE
  5
287
  8
FUTO
 10
21391.461200958449
 20
22049.904007710069
 30
0.0
 11
21391.461200958449
 21
23825.34423567773
 31
0.0
  0
LINE
  5
288
  8
FUTO
 10
21385.461200958449
 20
22048.84604582582
 30
0.0
 11
21385.461200958449
 21
23083.306176454858
 31
0.0
  0
LINE
  5
289
  8
FUTO
 10
21267.461200958449
 20
23764.73787293733
 30
0.0
 11
21267.461200958449
 21
21844.34423567773
 31
0.0
  0
LINE
  5
28A
  8
FUTO
 10
21276.461200958449
 20
23765.586712284759
 30
0.0
 11
21276.461200958449
 21
21844.34423567773
 31
0.0
  0
LINE
  5
291
  8
KL
 10
20424.682015195762
 20
21808.726407007809
 30
0.0
 11
20703.704715793549
 21
21783.976662756249
 31
0.0
  0
LINE
  5
292
  8
KL
 10
20426.27239869957
 20
21826.656010469978
 30
0.0
 11
20705.29509929736
 21
21801.906266218419
 31
0.0
  0
LINE
  5
294
  8
FUTO
 10
20526.461200958449
 20
21713.344235677741
 30
0.0
 11
20568.509626782488
 21
21713.344235677741
 31
0.0
  0
CIRCLE
  5
295
  8
SL
 10
20226.461200958449
 20
21835.344235677741
 30
0.0
 40
355.0
  0
ARC
  5
296
  8
FUTO
 10
20278.461200958449
 20
21925.410877671318
 30
0.0
 40
15.000000000000099
 50
325.86450299682889
 51
154.1354970031779
  0
ARC
  5
297
  8
FUTO
 10
20226.461200958449
 20
21835.344235677741
 30
0.0
 40
103.9999999999995
 50
68.270994006339876
 51
111.72900599366061
  0
LINE
  5
298
  8
CT
 10
20226.461200958449
 20
21959.112994842439
 30
0.0
 11
20226.461200958449
 21
21705.520511775609
 31
0.0
  0
ARC
  5
299
  8
FUTO
 10
20174.461200958449
 20
21925.410877671318
 30
0.0
 40
15.000000000000201
 50
25.864502996822321
 51
214.13549700317051
  0
ARC
  5
29E
  8
FUTO
 10
20278.461200958449
 20
21745.277593684161
 30
0.0
 40
14.99999999999998
 50
205.8645029968221
 51
34.135497003171587
  0
CIRCLE
  5
29F
  8
FUTO
 10
20226.461200958449
 20
21835.344235677741
 30
0.0
 40
41.5
  0
LINE
  5
2A0
  8
FUTO
 10
20141.461200958449
 20
21728.34423567773
 30
0.0
 11
20311.461200958449
 21
21728.34423567773
 31
0.0
  0
LINE
  5
2A2
  8
KL
 10
20568.509626782488
 20
21713.344235677741
 30
0.0
 11
20226.461200958449
 21
21713.344235677741
 31
0.0
  0
LINE
  5
2A4
  8
FUTO
 10
20102.461200958449
 20
21759.344235677741
 30
0.0
 11
20034.461200958449
 21
21759.344235677741
 31
0.0
  0
LINE
  5
2A5
  8
FUTO
 10
20021.461200958449
 20
21723.34423567773
 30
0.0
 11
20141.461200958449
 21
21723.34423567773
 31
0.0
  0
LINE
  5
2A6
  8
KL
 10
19884.412775134409
 20
21713.344235677741
 30
0.0
 11
20226.461200958449
 21
21713.344235677741
 31
0.0
  0
LINE
  5
2A7
  8
FUTO
 10
20021.461200958449
 20
21723.34423567773
 30
0.0
 11
20021.461200958449
 21
21713.344235677741
 31
0.0
  0
ARC
  5
2A8
  8
FUTO
 10
20034.461200958449
 20
21756.34423567773
 30
0.0
 40
3.0
 50
90.0
 51
180.0
  0
LINE
  5
2A9
  8
FUTO
 10
20031.461200958449
 20
21756.34423567773
 30
0.0
 11
20031.461200958449
 21
21723.34423567773
 31
0.0
  0
LINE
  5
2AA
  8
KL
 10
20026.461200958449
 20
21844.34423567773
 30
0.0
 11
20026.461200958449
 21
21826.34423567773
 31
0.0
  0
ARC
  5
2AD
  8
FUTO
 10
20226.461200958449
 20
21835.344235677741
 30
0.0
 40
104.0000000000007
 50
248.2709940063402
 51
291.72900599366039
  0
ARC
  5
2AE
  8
FUTO
 10
20122.461200958449
 20
21835.344235677741
 30
0.0
 40
15.0
 50
85.864502996829486
 51
274.13549700317049
  0
ARC
  5
2AF
  8
FUTO
 10
20102.461200958449
 20
21779.34423567773
 30
0.0
 40
20.0
 50
270.0
 51
0.0
  0
LINE
  5
2B0
  8
FUTO
 10
20141.461200958449
 20
21723.34423567773
 30
0.0
 11
20141.461200958449
 21
21728.34423567773
 31
0.0
  0
LINE
  5
2B1
  8
CT
 10
20066.461200958449
 20
21713.344235677741
 30
0.0
 11
20066.461200958449
 21
21769.34423567773
 31
0.0
  0
LINE
  5
2B2
  8
FUTO
 10
20122.461200958449
 20
21820.34423567773
 30
0.0
 11
20122.461200958449
 21
21779.34423567773
 31
0.0
  0
ARC
  5
2B3
  8
FUTO
 10
20174.461200958449
 20
21745.277593684161
 30
0.0
 40
14.999999999999719
 50
145.86450299682909
 51
334.13549700317708
  0
ARC
  5
2B4
  8
FUTO
 10
20226.461200958449
 20
21835.344235677741
 30
0.0
 40
104.0000000000002
 50
188.27099400634
 51
231.72900599366079
  0
ARC
  5
2B5
  8
FUTO
 10
20226.461200958449
 20
21835.344235677741
 30
0.0
 40
103.9999999999998
 50
128.27099400633969
 51
171.72900599366039
  0
LINE
  5
2B6
  8
KL
 10
20426.27239869957
 20
21826.656010469978
 30
0.0
 11
20424.682015195762
 21
21808.726407007809
 31
0.0
  0
LINE
  5
2B7
  8
FUTO
 10
20431.461200958449
 20
21713.344235677741
 30
0.0
 11
20431.461200958449
 21
21723.34423567773
 31
0.0
  0
ARC
  5
2B8
  8
FUTO
 10
20418.461200958449
 20
21756.34423567773
 30
0.0
 40
3.0
 50
0.0
 51
90.0
  0
LINE
  5
2B9
  8
FUTO
 10
20421.461200958449
 20
21723.34423567773
 30
0.0
 11
20421.461200958449
 21
21756.34423567773
 31
0.0
  0
LINE
  5
2BA
  8
CT
 10
20386.461200958449
 20
21713.344235677741
 30
0.0
 11
20386.461200958449
 21
21769.34423567773
 31
0.0
  0
LINE
  5
2BB
  8
FUTO
 10
20418.461200958449
 20
21759.344235677741
 30
0.0
 11
20350.461200958449
 21
21759.344235677741
 31
0.0
  0
LINE
  5
2BC
  8
FUTO
 10
20330.461200958449
 20
21779.34423567773
 30
0.0
 11
20330.461200958449
 21
21820.34423567773
 31
0.0
  0
ARC
  5
2BD
  8
FUTO
 10
20350.461200958449
 20
21779.34423567773
 30
0.0
 40
20.0
 50
180.0
 51
270.0
  0
LINE
  5
2BE
  8
FUTO
 10
20311.461200958449
 20
21728.34423567773
 30
0.0
 11
20311.461200958449
 21
21723.34423567773
 31
0.0
  0
LINE
  5
2BF
  8
FUTO
 10
20311.461200958449
 20
21723.34423567773
 30
0.0
 11
20431.461200958449
 21
21723.34423567773
 31
0.0
  0
ARC
  5
2C0
  8
FUTO
 10
20330.461200958449
 20
21835.344235677741
 30
0.0
 40
15.0
 50
270.0
 51
94.135497003170499
  0
ARC
  5
2C1
  8
FUTO
 10
20226.461200958449
 20
21835.344235677741
 30
0.0
 40
103.9999999999998
 50
308.27099400633961
 51
351.72900599366039
  0
ARC
  5
2C2
  8
FUTO
 10
20226.461200958449
 20
21835.344235677741
 30
0.0
 40
103.9999999999994
 50
8.2709940063397092
 51
51.729005993660358
  0
INSERT
  5
2C5
  8
FUTO
  2
左回転矢印
 10
20413.8958075107
 20
22533.783309026679
 30
0.0
 41
-2.0
 42
2.0
 43
2.0
  0
LINE
  5
2D0
  8
FUTO
 10
20253.515703475561
 20
21935.763625705509
 30
0.0
 11
20253.515703475561
 21
21939.34423567773
 31
0.0
  0
LINE
  5
2D1
  8
FUTO
 10
20199.406698441351
 20
21935.763625705509
 30
0.0
 11
20199.406698441351
 21
21939.34423567773
 31
0.0
  0
LINE
  5
2D2
  8
FUTO
 10
20199.406698441351
 20
21939.34423567773
 30
0.0
 11
20253.515703475561
 21
21939.34423567773
 31
0.0
  0
LINE
  5
2D3
  8
FUTO
 10
21385.461200958449
 20
21837.344235677741
 30
0.0
 11
21385.461200958449
 21
22084.692626617871
 31
0.0
  0
LINE
  5
2D4
  8
FUTO
 10
21391.461200958449
 20
21837.344235677741
 30
0.0
 11
21391.461200958449
 21
22086.031209776829
 31
0.0
  0
LINE
  5
2D5
  8
FUTO
 10
21391.461200958449
 20
21837.344235677741
 30
0.0
 11
21391.461200958449
 21
22031.626328696129
 31
0.0
  0
ARC
  5
2D6
  8
KL
 10
20336.961200958449
 20
21724.844235677741
 30
0.0
 40
960.5
 50
0.0
 51
35.700636604433633
  0
LINE
  5
2D8
  8
FUTO
 10
21306.557690118399
 20
21886.34423567773
 30
0.0
 11
21391.461200958449
 21
21886.34423567773
 31
0.0
  0
LINE
  5
2D9
  8
FUTO
 10
21326.461200958449
 20
21837.344235677741
 30
0.0
 11
21391.461200958449
 21
21837.344235677741
 31
0.0
  0
LINE
  5
2DA
  8
FUTO
 10
21326.461200958449
 20
21837.344235677741
 30
0.0
 11
21391.461200958449
 21
21837.344235677741
 31
0.0
  0
LINE
  5
2DB
  8
KL
 10
21280.15683283977
 20
21906.34423567773
 30
0.0
 11
21391.461200958449
 21
21906.34423567773
 31
0.0
  0
LINE
  5
2DC
  8
FUTO
 10
21414.228491365491
 20
21739.022780009291
 30
0.0
 11
21416.63815206855
 21
21720.738366451362
 31
0.0
  0
LINE
  5
2DD
  8
FUTO
 10
21391.461200958449
 20
23776.432992835329
 30
0.0
 11
20197.363791909149
 21
23663.811118893918
 31
0.0
  0
LINE
  5
2DE
  8
KL
 10
21391.461200958449
 20
23756.34423567773
 30
0.0
 11
20199.24176738186
 21
23643.89948390019
 31
0.0
  0
LINE
  5
2E3
  8
FUTO
 10
21385.461200958449
 20
23083.306176454858
 30
0.0
 11
21385.461200958449
 21
23825.34423567773
 31
0.0
  0
LINE
  5
2E4
  8
FUTO
 10
21326.461200958449
 20
23825.34423567773
 30
0.0
 11
21391.461200958449
 21
23825.34423567773
 31
0.0
  0
LINE
  5
2FF
  8
FUTO
 10
18286.461200958449
 20
25465.767083386039
 30
0.0
 11
20926.461200958449
 21
25465.767083386028
 31
0.0
  0
LINE
  5
300
  8
FUTO
 10
18286.461200958449
 20
25390.767083386028
 30
0.0
 11
20926.461200958449
 21
25390.767083386028
 31
0.0
  0
LINE
  5
3C8
  8
FUTO
 10
18672.461200958449
 20
28165.767083386028
 30
0.0
 11
21391.461200958449
 21
28165.767083386028
 31
0.0
  0
LINE
  5
3C9
  8
FUTO
 10
19166.461200958449
 20
26837.767083386039
 30
0.0
 11
21391.461200958449
 21
26837.767083386028
 31
0.0
  0
LINE
  5
3CA
  8
FUTO
 10
19166.461200958449
 20
26762.767083386028
 30
0.0
 11
21286.461200958449
 21
26762.767083386028
 31
0.0
  0
LINE
  5
3CB
  8
FUTO
 10
19166.461200958449
 20
28240.767083386028
 30
0.0
 11
21286.461200958449
 21
28240.767083386028
 31
0.0
  0
LINE
  5
3DA
  8
FUTO
 10
18286.461200958449
 20
26762.767083386028
 30
0.0
 11
19526.461200958449
 21
26762.767083386028
 31
0.0
  0
LINE
  5
3DB
  8
FUTO
 10
18286.461200958449
 20
26837.767083386039
 30
0.0
 11
18622.461200958449
 21
26837.767083386039
 31
0.0
  0
LINE
  5
406
  8
FUTO
 10
21286.461200958449
 20
26762.767083386028
 30
0.0
 11
21286.461200958449
 21
26787.767083386028
 31
0.0
  0
LINE
  5
438
  8
SL
 10
23137.036645918641
 20
22113.718035677732
 30
0.0
 11
23137.036645918641
 21
21113.718035677739
 31
0.0
  0
LINE
  5
439
  8
SL
 10
22967.036645918641
 20
22113.718035677732
 30
0.0
 11
22967.036645918652
 21
21113.718035677739
 31
0.0
  0
LINE
  5
43A
  8
CT
 10
25267.036645918641
 20
24017.08663200949
 30
0.0
 11
25267.036645918641
 21
20314.41716707782
 31
0.0
  0
LINE
  5
43C
  8
FUTO
 10
25930.236645918641
 20
20655.344219071751
 30
0.0
 11
25930.236645918641
 21
21902.418035677729
 31
0.0
  0
LINE
  5
43D
  8
FUTO
 10
25927.036645918641
 20
20655.344219071751
 30
0.0
 11
25927.036645918641
 21
21902.418035677729
 31
0.0
  0
LINE
  5
43E
  8
FUTO
 10
24607.036645918641
 20
20655.344219071751
 30
0.0
 11
24607.036645918641
 21
21902.418035677729
 31
0.0
  0
LINE
  5
43F
  8
FUTO
 10
24603.83664591864
 20
20655.344219071751
 30
0.0
 11
24603.83664591864
 21
21902.418035677729
 31
0.0
  0
LINE
  5
441
  8
FUTO
 10
23167.036645918641
 20
22213.718035677739
 30
0.0
 11
23167.036645918641
 21
20753.718035677739
 31
0.0
  0
LINE
  5
442
  8
FUTO
 10
22817.036645918641
 20
22213.718035677739
 30
0.0
 11
22817.036645918641
 21
20753.718035677739
 31
0.0
  0
LINE
  5
445
  8
FUTO
 10
24217.036645918641
 20
21683.718035677739
 30
0.0
 11
24217.03664591863
 21
21673.718035677732
 31
0.0
  0
LINE
  5
446
  8
FUTO
 10
24397.036645918641
 20
21683.718035677739
 30
0.0
 11
24397.036645918641
 21
20655.344219071751
 31
0.0
  0
LINE
  5
449
  8
FUTO
 10
23396.036645918641
 20
21711.718035677732
 30
0.0
 11
23396.036645918641
 21
21673.718035677739
 31
0.0
  0
LINE
  5
44A
  8
FUTO
 10
23216.036645918641
 20
21711.718035677732
 30
0.0
 11
23216.036645918641
 21
20655.344219071751
 31
0.0
  0
DIMENSION
  5
44B
  8
SP
  2
*D17
 10
26642.04478813037
 20
20933.718035677732
 30
0.0
 11
26562.04478813037
 21
21833.718035677739
 31
0.0
 70
     0
  1
%%C<>
 13
26062.036645918641
 23
22733.718035677739
 33
0.0
 14
26062.036645918641
 24
20933.718035677732
 34
0.0
 50
90.0
1001
ACAD
1000
DSTYLE
1002
{
1070
    40
1040
40.0
1002
}
  0
LINE
  5
461
  8
KL
 10
25936.236645918641
 20
22798.718035677739
 30
0.0
 11
25936.236645918641
 21
20868.718035677739
 31
0.0
  0
LINE
  5
462
  8
FUTO
 10
26056.036645918641
 20
22798.718035677739
 30
0.0
 11
26056.036645918641
 21
20868.718035677739
 31
0.0
  0
LINE
  5
463
  8
FUTO
 10
26062.036645918641
 20
22798.718035677739
 30
0.0
 11
26062.036645918641
 21
20868.718035677739
 31
0.0
  0
LINE
  5
464
  8
FUTO
 10
24513.83664591864
 20
21711.932458669438
 30
0.0
 11
24513.83664591864
 21
20655.344219071751
 31
0.0
  0
LINE
  5
465
  8
FUTO
 10
26020.236645918641
 20
21711.932458669438
 30
0.0
 11
26020.236645918641
 21
20655.344219071751
 31
0.0
  0
LINE
  5
46D
  8
FUTO
 10
24528.036645918641
 20
20517.344219071751
 30
0.0
 11
25931.03264591864
 21
20517.344219071751
 31
0.0
  0
LINE
  5
46E
  8
FUTO
 10
24528.036645918641
 20
20643.344219071751
 30
0.0
 11
25931.03264591864
 21
20643.344219071751
 31
0.0
  0
LINE
  5
46F
  8
KL
 10
24607.036645918641
 20
20541.718035677732
 30
0.0
 11
25927.036645918641
 21
20541.718035677732
 31
0.0
  0
LINE
  5
471
  8
FUTO
 10
23156.036645918641
 20
20505.344219071751
 30
0.0
 11
26006.036645918641
 21
20505.344219071751
 31
0.0
1001
ACAD
1000
ASC_BOUNDS
1002
{
1070
    19
1005
0
1005
0
1005
0
1002
}
  0
DIMENSION
  5
472
  8
SP
  2
*D14
 10
25267.036645918641
 20
20065.863606307441
 30
0.0
 11
24211.536645918641
 21
20145.863606307441
 31
0.0
 70
     0
 13
23156.036645918641
 23
20505.344219071751
 33
0.0
 14
25267.036645918641
 24
20484.417167077809
 34
0.0
1001
ACAD
1000
DSTYLE
1002
{
1070
    40
1040
40.0
1002
}
  0
DIMENSION
  5
47F
  8
SP
  2
*D13
 10
26006.036645918641
 20
19765.826061342508
 30
0.0
 11
24581.036645918641
 21
19845.826061342508
 31
0.0
 70
     0
 13
23156.036645918641
 23
20505.344219071751
 33
0.0
 14
26006.036645918641
 24
20505.344219071751
 34
0.0
1001
ACAD
1000
DSTYLE
1002
{
1070
    40
1040
40.0
1002
}
  0
LINE
  5
48D
  8
FUTO
 10
23156.036645918641
 20
20655.344219071751
 30
0.0
 11
26020.236645918631
 21
20655.344219071751
 31
0.0
  0
LINE
  5
48E
  8
CT
 10
22758.72737436973
 20
21003.718035677739
 30
0.0
 11
23339.229907225839
 21
21003.718035677739
 31
0.0
  0
LINE
  5
493
  8
FUTO
 10
23231.040645918642
 20
20643.344219071751
 30
0.0
 11
24510.14675052416
 21
20643.344219071751
 31
0.0
  0
LINE
  5
494
  8
FUTO
 10
23231.040645918642
 20
20517.344219071751
 30
0.0
 11
24510.14675052416
 21
20517.344219071751
 31
0.0
  0
LINE
  5
495
  8
CT
 10
23191.040645918642
 20
20518.246018884951
 30
0.0
 11
23191.040645918642
 21
20464.039243980798
 31
0.0
  0
LINE
  5
4BB
  8
SL
 10
23137.036645918641
 20
21113.718035677739
 30
0.0
 11
23137.036645918641
 21
20863.718035677732
 31
0.0
  0
LINE
  5
4BC
  8
SL
 10
22967.036645918641
 20
21113.718035677739
 30
0.0
 11
22967.036645918641
 21
20863.718035677732
 31
0.0
  0
LINE
  5
4BD
  8
SL
 10
22967.036645918641
 20
20863.718035677732
 30
0.0
 11
23137.036645918641
 21
20863.718035677732
 31
0.0
  0
LINE
  5
4BE
  8
FUTO
 10
22817.036645918641
 20
20753.718035677739
 30
0.0
 11
23167.036645918641
 21
20753.718035677739
 31
0.0
  0
LINE
  5
4C1
  8
FUTO
 10
23156.036645918641
 20
20505.344219071751
 30
0.0
 11
23231.036645918641
 21
20505.344219071751
 31
0.0
  0
LINE
  5
4C2
  8
FUTO
 10
23156.036645918641
 20
20505.344219071751
 30
0.0
 11
23156.036645918641
 21
20507.766219071749
 31
0.0
  0
LINE
  5
4C3
  8
FUTO
 10
23160.60364591864
 20
20512.747219071749
 30
0.0
 11
23215.40764591864
 21
20517.544219071751
 31
0.0
  0
ARC
  5
4C4
  8
FUTO
 10
23160.040645918642
 20
20652.00603049358
 30
0.0
 40
4.0
 50
180.0
 51
264.99999999999977
  0
LINE
  5
4C5
  8
FUTO
 10
23156.040645918642
 20
20655.344219071751
 30
0.0
 11
23156.040645918642
 21
20652.00603049358
 31
0.0
  0
LINE
  5
4C6
  8
FUTO
 10
23156.040645918642
 20
20505.344219071751
 30
0.0
 11
23156.040645918642
 21
20508.682407649922
 31
0.0
  0
ARC
  5
4C7
  8
FUTO
 10
23160.040645918642
 20
20508.682407649922
 30
0.0
 40
4.0
 50
95.000000000000185
 51
180.0
  0
ARC
  5
4C8
  8
FUTO
 10
23220.540645918642
 20
20638.682407649922
 30
0.0
 40
4.0
 50
0.0
 51
85.000000000000256
  0
LINE
  5
4C9
  8
FUTO
 10
23231.040645918642
 20
20655.344219071751
 30
0.0
 11
23231.040645918642
 21
20505.344219071751
 31
0.0
  0
ARC
  5
4CA
  8
FUTO
 10
23220.540645918642
 20
20522.00603049358
 30
0.0
 40
4.0
 50
274.99999999999972
 51
0.0
  0
LINE
  5
4CB
  8
FUTO
 10
23224.540645918642
 20
20638.682407649922
 30
0.0
 11
23224.540645918642
 21
20522.00603049358
 31
0.0
  0
LINE
  5
4CC
  8
FUTO
 10
23220.88926888963
 20
20642.667186442279
 30
0.0
 11
23159.692022947649
 21
20648.021251701219
 31
0.0
  0
LINE
  5
4CD
  8
FUTO
 10
23231.040645918642
 20
20655.344219071751
 30
0.0
 11
23156.040645918642
 21
20655.344219071751
 31
0.0
  0
LINE
  5
4CE
  8
FUTO
 10
23220.88926888963
 20
20518.021251701219
 30
0.0
 11
23159.692022947649
 21
20512.66718644229
 31
0.0
  0
LINE
  5
4CF
  8
FUTO
 10
23231.040645918642
 20
20505.344219071751
 30
0.0
 11
23156.040645918642
 21
20505.344219071751
 31
0.0
  0
LINE
  5
4D0
  8
FUTO
 10
23231.040645918642
 20
20655.344219071751
 30
0.0
 11
23231.040645918642
 21
20505.344219071751
 31
0.0
  0
LINE
  5
4D1
  8
SL
 10
22967.036645918641
 20
21143.718035677732
 30
0.0
 11
23137.036645918641
 21
21143.718035677732
 31
0.0
  0
LINE
  5
4D5
  8
CT
 10
24488.036645918641
 20
20518.246018884951
 30
0.0
 11
24488.036645918641
 21
20464.039243980798
 31
0.0
  0
LINE
  5
4FF
  8
1
 10
24453.83764591864
 20
20505.344219071751
 30
0.0
 11
24528.83764591864
 21
20505.344219071751
 31
0.0
  0
LINE
  5
501
  8
FUTO
 10
24528.036645918641
 20
20655.344219071751
 30
0.0
 11
24453.036645918641
 21
20655.344219071751
 31
0.0
  0
LINE
  5
502
  8
FUTO
 10
24517.88526888963
 20
20642.667186442279
 30
0.0
 11
24456.688022947648
 21
20648.021251701219
 31
0.0
  0
ARC
  5
503
  8
FUTO
 10
24517.536645918641
 20
20638.682407649922
 30
0.0
 40
4.0
 50
0.0
 51
84.999999999999957
  0
LINE
  5
504
  8
FUTO
 10
24453.036645918641
 20
20655.344219071751
 30
0.0
 11
24453.036645918641
 21
20652.00603049358
 31
0.0
  0
ARC
  5
505
  8
FUTO
 10
24457.036645918641
 20
20652.00603049358
 30
0.0
 40
4.0
 50
180.0
 51
264.99999999999972
  0
LINE
  5
506
  8
FUTO
 10
24528.036645918641
 20
20505.344219071751
 30
0.0
 11
24453.036645918641
 21
20505.344219071751
 31
0.0
  0
LINE
  5
507
  8
FUTO
 10
24517.88526888963
 20
20518.021251701219
 30
0.0
 11
24456.688022947648
 21
20512.66718644229
 31
0.0
  0
ARC
  5
508
  8
FUTO
 10
24517.536645918641
 20
20522.00603049358
 30
0.0
 40
4.0
 50
275.0
 51
0.0
  0
ARC
  5
509
  8
FUTO
 10
24457.036645918641
 20
20508.682407649922
 30
0.0
 40
4.0
 50
95.000000000000185
 51
180.0
  0
LINE
  5
50A
  8
FUTO
 10
24453.036645918641
 20
20505.344219071751
 30
0.0
 11
24453.036645918641
 21
20508.682407649922
 31
0.0
  0
LINE
  5
50B
  8
FUTO
 10
24453.03264591864
 20
20505.344219071751
 30
0.0
 11
24453.03264591864
 21
20507.766219071749
 31
0.0
  0
LINE
  5
50C
  8
FUTO
 10
24457.599645918639
 20
20512.747219071749
 30
0.0
 11
24512.403645918639
 21
20517.544219071751
 31
0.0
  0
LINE
  5
50D
  8
FUTO
 10
24453.03264591864
 20
20505.344219071751
 30
0.0
 11
24528.03264591864
 21
20505.344219071751
 31
0.0
  0
LINE
  5
50E
  8
FUTO
 10
24528.036645918641
 20
20655.344219071751
 30
0.0
 11
24528.036645918641
 21
20505.344219071751
 31
0.0
  0
LINE
  5
50F
  8
FUTO
 10
24521.536645918641
 20
20638.682407649922
 30
0.0
 11
24521.536645918641
 21
20522.00603049358
 31
0.0
  0
LINE
  5
510
  8
FUTO
 10
24528.036645918641
 20
20655.344219071751
 30
0.0
 11
24528.036645918641
 21
20505.344219071751
 31
0.0
  0
LINE
  5
511
  8
FUTO
 10
24603.83664591864
 20
20526.718035677732
 30
0.0
 11
24607.036645918641
 21
20526.718035677732
 31
0.0
  0
LINE
  5
512
  8
KL
 10
24603.83664591864
 20
20526.718035677732
 30
0.0
 11
24603.83664591864
 21
20655.344219071751
 31
0.0
  0
LINE
  5
513
  8
KL
 10
24607.036645918641
 20
20526.718035677732
 30
0.0
 11
24607.036645918641
 21
20655.344219071751
 31
0.0
  0
DIMENSION
  5
517
  8
SP
  2
*D15
 10
26006.036645918641
 20
20065.863606307441
 30
0.0
 11
25636.536645918641
 21
20145.863606307441
 31
0.0
 70
     0
 13
25267.036645918641
 23
20484.417167077809
 33
0.0
 14
26006.036645918641
 24
20505.344219071751
 34
0.0
1001
ACAD
1000
DSTYLE
1002
{
1070
   287
1070
     4
1070
    40
1040
40.0
1070
    75
1070
     1
1070
   279
1070
     1
1070
   289
1070
     3
1002
}
  0
LINE
  5
529
  8
CT
 10
25971.036645918641
 20
20518.246018884951
 30
0.0
 11
25971.036645918641
 21
20464.039243980798
 31
0.0
  0
LINE
  5
54E
  8
FUTO
 10
25927.036645918641
 20
20541.718035677732
 30
0.0
 11
26077.036645918641
 21
20541.718035677732
 31
0.0
  0
LINE
  5
54F
  8
FUTO
 10
26077.036645918641
 20
20575.718035677732
 30
0.0
 11
25927.036645918641
 21
20575.718035677732
 31
0.0
  0
LINE
  5
550
  8
CT
 10
25892.123960435569
 20
20558.718035677732
 30
0.0
 11
26128.622138912771
 21
20558.718035677732
 31
0.0
  0
LINE
  5
553
  8
KL
 10
25927.036645918641
 20
20526.718035677732
 30
0.0
 11
25930.236645918641
 21
20526.718035677732
 31
0.0
  0
LINE
  5
554
  8
FUTO
 10
26006.036645918641
 20
20505.344219071751
 30
0.0
 11
25931.036645918641
 21
20505.344219071751
 31
0.0
  0
LINE
  5
555
  8
FUTO
 10
26001.469645918642
 20
20512.747219071749
 30
0.0
 11
25946.665645918642
 21
20517.544219071751
 31
0.0
  0
LINE
  5
556
  8
FUTO
 10
26006.036645918641
 20
20505.344219071751
 30
0.0
 11
26006.036645918641
 21
20507.766219071749
 31
0.0
  0
LINE
  5
557
  8
1
 10
26005.23164591864
 20
20505.344219071751
 30
0.0
 11
25930.23164591864
 21
20505.344219071751
 31
0.0
  0
ARC
  5
558
  8
FUTO
 10
26002.03264591864
 20
20652.00603049358
 30
0.0
 40
4.0
 50
275.00000000000011
 51
0.0
  0
LINE
  5
559
  8
FUTO
 10
26006.03264591864
 20
20655.344219071751
 30
0.0
 11
26006.03264591864
 21
20652.00603049358
 31
0.0
  0
LINE
  5
55A
  8
FUTO
 10
26006.03264591864
 20
20505.344219071751
 30
0.0
 11
26006.03264591864
 21
20508.682407649922
 31
0.0
  0
ARC
  5
55B
  8
FUTO
 10
26002.03264591864
 20
20508.682407649922
 30
0.0
 40
4.0
 50
0.0
 51
84.999999999999801
  0
ARC
  5
55C
  8
FUTO
 10
25941.53264591864
 20
20638.682407649922
 30
0.0
 40
4.0
 50
95.000000000000057
 51
180.0
  0
LINE
  5
55D
  8
FUTO
 10
25931.03264591864
 20
20655.344219071751
 30
0.0
 11
25931.03264591864
 21
20505.344219071751
 31
0.0
  0
ARC
  5
55E
  8
FUTO
 10
25941.53264591864
 20
20522.00603049358
 30
0.0
 40
4.0
 50
180.0
 51
264.99999999999989
  0
LINE
  5
55F
  8
FUTO
 10
25937.53264591864
 20
20638.682407649922
 30
0.0
 11
25937.53264591864
 21
20522.00603049358
 31
0.0
  0
LINE
  5
560
  8
FUTO
 10
25941.184022947651
 20
20642.667186442279
 30
0.0
 11
26002.381268889629
 21
20648.021251701219
 31
0.0
  0
LINE
  5
561
  8
FUTO
 10
25931.03264591864
 20
20655.344219071751
 30
0.0
 11
26006.03264591864
 21
20655.344219071751
 31
0.0
  0
LINE
  5
562
  8
FUTO
 10
25941.184022947651
 20
20518.021251701219
 30
0.0
 11
26002.381268889629
 21
20512.66718644229
 31
0.0
  0
LINE
  5
563
  8
FUTO
 10
25931.03264591864
 20
20505.344219071751
 30
0.0
 11
26006.03264591864
 21
20505.344219071751
 31
0.0
  0
LINE
  5
564
  8
FUTO
 10
25931.03264591864
 20
20655.344219071751
 30
0.0
 11
25931.03264591864
 21
20505.344219071751
 31
0.0
  0
LINE
  5
565
  8
KL
 10
25930.236645918641
 20
20526.718035677732
 30
0.0
 11
25930.236645918641
 21
20655.344219071751
 31
0.0
  0
LINE
  5
566
  8
KL
 10
25927.036645918641
 20
20526.718035677732
 30
0.0
 11
25927.036645918641
 21
20655.344219071751
 31
0.0
  0
LINE
  5
567
  8
FUTO
 10
26118.14081106419
 20
20537.8898190039
 30
0.0
 11
26118.14081106419
 21
20579.546252351571
 31
0.0
  0
LINE
  5
568
  8
FUTO
 10
26077.036645918641
 20
20537.8898190039
 30
0.0
 11
26077.036645918641
 21
20579.546252351571
 31
0.0
  0
LINE
  5
569
  8
FUTO
 10
26077.036645918641
 20
20537.8898190039
 30
0.0
 11
26118.14081106419
 21
20537.8898190039
 31
0.0
  0
LINE
  5
56A
  8
FUTO
 10
26077.036645918641
 20
20579.546252351571
 30
0.0
 11
26118.14081106419
 21
20579.546252351571
 31
0.0
  0
LINE
  5
56B
  8
KL
 10
25930.236645918641
 20
20927.718035677739
 30
0.0
 11
26020.236645918641
 21
20927.718035677739
 31
0.0
  0
LINE
  5
56C
  8
KL
 10
25930.236645918641
 20
20933.718035677732
 30
0.0
 11
26062.036645918641
 21
20933.718035677732
 31
0.0
  0
LINE
  5
56D
  8
HOSO
 10
25887.702636307731
 20
20893.718035677732
 30
0.0
 11
25961.810251455991
 21
20893.718035677732
 31
0.0
  0
LINE
  5
56E
  8
KL
 10
25930.236645918641
 20
20868.718035677739
 30
0.0
 11
25936.236645918641
 21
20868.718035677739
 31
0.0
  0
LINE
  5
56F
  8
FUTO
 10
26020.236645918641
 20
20927.718035677739
 30
0.0
 11
26062.036645918641
 21
20927.718035677739
 31
0.0
  0
LINE
  5
570
  8
FUTO
 10
26056.036645918641
 20
20868.718035677739
 30
0.0
 11
26062.036645918641
 21
20868.718035677739
 31
0.0
  0
LINE
  5
571
  8
HOSO
 10
26028.554099732621
 20
20893.718035677732
 30
0.0
 11
26102.66171488088
 21
20893.718035677732
 31
0.0
  0
LINE
  5
5F6
  8
FUTO
 10
24753.03364591864
 20
22683.718035677732
 30
0.0
 11
25235.037645918641
 21
22683.718035677732
 31
0.0
  0
LINE
  5
5F7
  8
FUTO
 10
24543.83664591864
 20
23814.718035677732
 30
0.0
 11
25990.236645918641
 21
23814.718035677732
 31
0.0
  0
LINE
  5
5F8
  8
FUTO
 10
24603.83664591864
 20
23754.718035677739
 30
0.0
 11
25930.236645918649
 21
23754.718035677739
 31
0.0
  0
LINE
  5
5FD
  8
FUTO
 10
24607.036645918641
 20
22283.718035677739
 30
0.0
 11
25927.036645918641
 21
22283.718035677739
 31
0.0
  0
LINE
  5
5FE
  8
FUTO
 10
24543.83664591864
 20
21844.718035677732
 30
0.0
 11
25990.236645918641
 21
21844.718035677732
 31
0.0
  0
LINE
  5
5FF
  8
FUTO
 10
24607.036645918641
 20
21904.718035677739
 30
0.0
 11
25927.036645918641
 21
21904.718035677739
 31
0.0
  0
LINE
  5
600
  8
FUTO
 10
24538.83664591864
 20
21727.951613975179
 30
0.0
 11
25995.236645918641
 21
21727.951613975179
 31
0.0
  0
LINE
  5
601
  8
FUTO
 10
24538.83664591864
 20
21745.951613975179
 30
0.0
 11
25995.236645918641
 21
21745.951613975179
 31
0.0
  0
LINE
  5
602
  8
CT
 10
24538.83664591864
 20
21736.951613975179
 30
0.0
 11
25995.236645918641
 21
21736.951613975179
 31
0.0
  0
LINE
  5
61E
  8
CT
 10
22765.11052423386
 20
21833.718035677732
 30
0.0
 11
26261.03194909087
 21
21833.718035677732
 31
0.0
  0
LINE
  5
623
  8
FUTO
 10
23372.536645918641
 20
21937.718035677739
 30
0.0
 11
23239.536645918641
 21
21937.718035677739
 31
0.0
  0
LINE
  5
624
  8
FUTO
 10
23239.536645918641
 20
21729.718035677739
 30
0.0
 11
23251.036645918641
 21
21729.718035677739
 31
0.0
  0
ARC
  5
625
  8
FUTO
 10
23257.036645918641
 20
21751.718035677732
 30
0.0
 40
6.0
 50
90.0
 51
180.0
  0
LINE
  5
626
  8
FUTO
 10
23216.036645918641
 20
21711.718035677732
 30
0.0
 11
23396.036645918641
 21
21711.718035677732
 31
0.0
  0
ARC
  5
628
  8
FUTO
 10
23239.536645918641
 20
21931.718035677739
 30
0.0
 40
6.0
 50
90.0
 51
180.0
  0
LINE
  5
629
  8
SL
 10
22967.036645918641
 20
21553.718035677732
 30
0.0
 11
23137.036645918641
 21
21553.718035677732
 31
0.0
  0
LINE
  5
62A
  8
FUTO
 10
23233.536645918641
 20
21923.718035677739
 30
0.0
 11
23228.536645918641
 21
21923.718035677739
 31
0.0
  0
ARC
  5
62B
  8
FUTO
 10
23239.536645918641
 20
21735.718035677739
 30
0.0
 40
6.0
 50
180.0
 51
270.0
  0
LINE
  5
62C
  8
FUTO
 10
23228.536645918641
 20
21743.718035677732
 30
0.0
 11
23233.536645918641
 21
21743.718035677732
 31
0.0
  0
LINE
  5
62D
  8
FUTO
 10
23233.536645918641
 20
21931.718035677739
 30
0.0
 11
23233.536645918641
 21
21735.718035677739
 31
0.0
  0
LINE
  5
62E
  8
FUTO
 10
23228.536645918641
 20
21923.718035677739
 30
0.0
 11
23228.536645918641
 21
21743.718035677732
 31
0.0
  0
LINE
  5
62F
  8
FUTO
 10
23137.036645918641
 20
21786.218035677732
 30
0.0
 11
23228.536645918641
 21
21786.218035677732
 31
0.0
  0
LINE
  5
630
  8
FUTO
 10
23137.036645918641
 20
21881.218035677732
 30
0.0
 11
23228.536645918641
 21
21881.218035677732
 31
0.0
  0
LINE
  5
631
  8
SL
 10
22967.036645918641
 20
22113.718035677732
 30
0.0
 11
23137.036645918641
 21
22113.718035677732
 31
0.0
  0
LINE
  5
632
  8
FUTO
 10
22817.036645918641
 20
22213.718035677739
 30
0.0
 11
23167.036645918641
 21
22213.718035677739
 31
0.0
  0
LINE
  5
633
  8
FUTO
 10
24543.83664591864
 20
21844.718035677732
 30
0.0
 11
24543.83664591864
 21
23814.718035677732
 31
0.0
  0
LINE
  5
634
  8
FUTO
 10
24753.03364591864
 20
22283.718035677739
 30
0.0
 11
24753.03364591864
 21
22697.718035677739
 31
0.0
  0
LINE
  5
635
  8
FUTO
 10
24741.03364591864
 20
22283.718035677739
 30
0.0
 11
24741.03364591864
 21
22697.718035677739
 31
0.0
  0
LINE
  5
636
  8
FUTO
 10
24603.83664591864
 20
21902.418035677729
 30
0.0
 11
24603.83664591864
 21
23733.718035677739
 31
0.0
  0
LINE
  5
637
  8
FUTO
 10
24607.036645918641
 20
21902.418035677729
 30
0.0
 11
24607.036645918641
 21
23733.718035677739
 31
0.0
  0
LINE
  5
638
  8
FUTO
 10
24538.83664591864
 20
23694.072739345851
 30
0.0
 11
24538.83664591864
 21
21727.951613975179
 31
0.0
  0
LINE
  5
63B
  8
SL
 10
24186.548267244722
 20
22049.792705487991
 30
0.0
 11
23421.170310447029
 21
22049.792705487991
 31
0.0
  0
LINE
  5
63D
  8
FUTO
 10
24217.036645918641
 20
21673.718035677732
 30
0.0
 11
23396.036645918641
 21
21673.718035677739
 31
0.0
  0
LINE
  5
63E
  8
FUTO
 10
23383.536645918641
 20
21781.218035677739
 30
0.0
 11
24213.536645918641
 21
21781.218035677739
 31
0.0
  0
LINE
  5
63F
  8
FUTO
 10
23383.536645918641
 20
21886.218035677739
 30
0.0
 11
24213.536645918641
 21
21886.218035677739
 31
0.0
  0
LINE
  5
640
  8
SL
 10
23421.170310447029
 20
22049.792705487991
 30
0.0
 11
23421.170310447029
 21
21673.718035677739
 31
0.0
  0
LINE
  5
641
  8
CT
 10
23306.036645918641
 20
22014.783950097361
 30
0.0
 11
23306.036645918641
 21
21624.78378215195
 31
0.0
  0
ARC
  5
642
  8
FUTO
 10
23372.536645918641
 20
21931.718035677739
 30
0.0
 40
6.0
 50
0.0
 51
90.0
  0
LINE
  5
643
  8
FUTO
 10
23361.036645918641
 20
21937.718035677739
 30
0.0
 11
23361.036645918641
 21
21711.718035677732
 31
0.0
  0
LINE
  5
644
  8
FUTO
 10
23251.036645918641
 20
21937.718035677739
 30
0.0
 11
23251.036645918641
 21
21711.718035677732
 31
0.0
  0
LINE
  5
645
  8
CT
 10
23306.036645918641
 20
21957.48679484244
 30
0.0
 11
23306.036645918641
 21
21703.89431177561
 31
0.0
  0
LINE
  5
646
  8
FUTO
 10
23378.536645918641
 20
21923.718035677739
 30
0.0
 11
23383.536645918641
 21
21923.718035677739
 31
0.0
  0
LINE
  5
647
  8
FUTO
 10
23383.536645918641
 20
21743.718035677732
 30
0.0
 11
23378.536645918641
 21
21743.718035677732
 31
0.0
  0
ARC
  5
648
  8
FUTO
 10
23372.536645918641
 20
21735.718035677739
 30
0.0
 40
6.0
 50
270.0
 51
0.0
  0
LINE
  5
649
  8
FUTO
 10
23372.536645918641
 20
21729.718035677739
 30
0.0
 11
23361.036645918641
 21
21729.718035677739
 31
0.0
  0
ARC
  5
64A
  8
FUTO
 10
23355.036645918641
 20
21751.718035677732
 30
0.0
 40
6.0
 50
0.0
 51
90.0
  0
LINE
  5
64B
  8
FUTO
 10
23383.536645918641
 20
21923.718035677739
 30
0.0
 11
23383.536645918641
 21
21743.718035677732
 31
0.0
  0
LINE
  5
64C
  8
FUTO
 10
23378.536645918641
 20
21931.718035677739
 30
0.0
 11
23378.536645918641
 21
21735.718035677739
 31
0.0
  0
LINE
  5
64D
  8
FUTO
 10
23251.036645918641
 20
21721.718035677739
 30
0.0
 11
23361.036645918641
 21
21721.718035677739
 31
0.0
  0
LINE
  5
64E
  8
FUTO
 10
23355.036645918641
 20
21757.718035677739
 30
0.0
 11
23257.036645918641
 21
21757.718035677739
 31
0.0
  0
LINE
  5
653
  8
SL
 10
24186.548267244722
 20
22049.792705487991
 30
0.0
 11
24186.548267244722
 21
21673.718035677732
 31
0.0
  0
LINE
  5
654
  8
CT
 10
24307.036645918641
 20
22042.488863757972
 30
0.0
 11
24307.036645918641
 21
21592.816559990391
 31
0.0
  0
LINE
  5
655
  8
FUTO
 10
24385.536645918641
 20
21941.218035677739
 30
0.0
 11
24400.536645918641
 21
21917.718035677732
 31
0.0
  0
LINE
  5
656
  8
FUTO
 10
24373.536645918641
 20
21963.718035677739
 30
0.0
 11
24373.536645918641
 21
21748.718035677739
 31
0.0
  0
LINE
  5
657
  8
FUTO
 10
24373.536645918641
 20
21738.718035677739
 30
0.0
 11
24373.536645918641
 21
21963.717972483351
 31
0.0
  0
LINE
  5
658
  8
FUTO
 10
24385.536645918641
 20
21703.718035677732
 30
0.0
 11
24385.536645918641
 21
21963.718035677739
 31
0.0
  0
LINE
  5
659
  8
FUTO
 10
24213.536645918641
 20
21917.718035677732
 30
0.0
 11
24228.536645918641
 21
21941.218035677739
 31
0.0
  0
LINE
  5
65A
  8
FUTO
 10
24240.536645918641
 20
21963.718035677739
 30
0.0
 11
24240.536645918641
 21
21748.718035677739
 31
0.0
  0
LINE
  5
65B
  8
CT
 10
24307.036645918641
 20
21997.87961534394
 30
0.0
 11
24307.036645918641
 21
21656.009992499839
 31
0.0
  0
LINE
  5
65C
  8
FUTO
 10
24228.536645918641
 20
21963.718035677739
 30
0.0
 11
24228.536645918641
 21
21703.718035677732
 31
0.0
  0
LINE
  5
662
  8
FUTO
 10
24538.83664591864
 20
21727.951613975179
 30
0.0
 11
24513.83664591864
 21
21711.932458669438
 31
0.0
  0
LINE
  5
663
  8
KL
 10
24513.83664591864
 20
21781.218035677739
 30
0.0
 11
24741.03364591864
 21
21781.218035677739
 31
0.0
  0
LINE
  5
664
  8
FUTO
 10
24397.036645918641
 20
21683.718035677739
 30
0.0
 11
24217.036645918641
 21
21683.718035677739
 31
0.0
  0
LINE
  5
665
  8
FUTO
 10
24382.036645918641
 20
21693.718035677739
 30
0.0
 11
24232.036645918641
 21
21693.718035677739
 31
0.0
  0
LINE
  5
666
  8
FUTO
 10
24232.036645918641
 20
21748.718035677739
 30
0.0
 11
24382.036645918641
 21
21748.718035677739
 31
0.0
  0
LINE
  5
667
  8
FUTO
 10
24213.536645918641
 20
21749.718035677732
 30
0.0
 11
24213.536645918641
 21
21917.718035677732
 31
0.0
  0
LINE
  5
668
  8
FUTO
 10
24228.536645918641
 20
21703.718035677732
 30
0.0
 11
24232.036645918641
 21
21703.718035677732
 31
0.0
  0
LINE
  5
669
  8
CT
 10
24257.036645918641
 20
21658.762943326488
 30
0.0
 11
24257.036645918641
 21
21779.535468448252
 31
0.0
  0
LINE
  5
66A
  8
FUTO
 10
24232.036645918641
 20
21683.718035677739
 30
0.0
 11
24232.036645918641
 21
21748.718035677739
 31
0.0
  0
LINE
  5
66B
  8
FUTO
 10
24228.536645918641
 20
21726.218035677739
 30
0.0
 11
24213.536645918641
 21
21749.718035677732
 31
0.0
  0
LINE
  5
66C
  8
FUTO
 10
24400.536645918641
 20
21886.218035677739
 30
0.0
 11
24538.83664591864
 21
21886.218035677739
 31
0.0
  0
LINE
  5
66E
  8
FUTO
 10
24400.536645918641
 20
21781.218035677739
 30
0.0
 11
24538.83664591864
 21
21781.218035677739
 31
0.0
  0
LINE
  5
67F
  8
CT
 10
24418.426984154969
 20
21833.718035677732
 30
0.0
 11
24527.769606030881
 21
21833.718035677732
 31
0.0
  0
LINE
  5
69D
  8
FUTO
 10
24400.536645918641
 20
21917.718035677732
 30
0.0
 11
24400.536645918641
 21
21749.718035677732
 31
0.0
  0
LINE
  5
69E
  8
FUTO
 10
24382.036645918641
 20
21703.718035677732
 30
0.0
 11
24385.536645918641
 21
21703.718035677732
 31
0.0
  0
LINE
  5
69F
  8
FUTO
 10
24382.036645918641
 20
21748.718035677739
 30
0.0
 11
24382.036645918641
 21
21683.718035677739
 31
0.0
  0
LINE
  5
6A0
  8
FUTO
 10
24400.536645918641
 20
21749.718035677732
 30
0.0
 11
24385.536645918641
 21
21726.218035677739
 31
0.0
  0
LINE
  5
6A1
  8
CT
 10
24357.036645918641
 20
21658.762943326488
 30
0.0
 11
24357.036645918641
 21
21779.535468448252
 31
0.0
  0
LINE
  5
6A8
  8
KL
 10
24538.83664591864
 20
21886.218035677739
 30
0.0
 11
24741.03364591864
 21
21886.218035677739
 31
0.0
  0
LINE
  5
6AC
  8
FUTO
 10
24368.536645918641
 20
21981.718035677732
 30
0.0
 11
24245.536645918641
 21
21981.718035677732
 31
0.0
  0
LINE
  5
6AD
  8
FUTO
 10
24245.536645918641
 20
21981.718035677732
 30
0.0
 11
24245.536645918641
 21
21963.718035677739
 31
0.0
  0
LINE
  5
6AE
  8
FUTO
 10
24245.536645918641
 20
21963.718035677739
 30
0.0
 11
24228.536645918641
 21
21963.718035677739
 31
0.0
  0
LINE
  5
6B7
  8
FUTO
 10
24385.536645918641
 20
21963.718035677739
 30
0.0
 11
24368.536645918641
 21
21963.718035677739
 31
0.0
  0
LINE
  5
6B8
  8
FUTO
 10
24368.536645918641
 20
21963.718035677739
 30
0.0
 11
24368.536645918641
 21
21981.718035677732
 31
0.0
  0
LINE
  5
6BC
  8
FUTO
 10
24603.83664591864
 20
22778.918035677729
 30
0.0
 11
24603.83664591864
 21
23733.718035677739
 31
0.0
  0
LINE
  5
6BD
  8
FUTO
 10
24753.03364591864
 20
22697.718035677739
 30
0.0
 11
24741.03364591864
 21
22697.718035677739
 31
0.0
  0
LINE
  5
6BE
  8
FUTO
 10
24538.83664591864
 20
23694.072739345851
 30
0.0
 11
24543.83664591864
 21
23694.072739345851
 31
0.0
  0
LINE
  5
6BF
  8
FUTO
 10
24603.83664591864
 20
23733.718035677739
 30
0.0
 11
24603.83664591864
 21
23754.718035677739
 31
0.0
  0
LINE
  5
6C0
  8
FUTO
 10
24607.036645918641
 20
23733.718035677739
 30
0.0
 11
24607.036645918641
 21
23754.718035677739
 31
0.0
  0
DIMENSION
  5
6CD
  8
SP
  2
*D18
 10
26062.036645918641
 20
24286.093842382448
 30
0.0
 11
25595.899020962741
 21
24286.093842382448
 31
0.0
 70
   128
 13
25267.036645918641
 23
24318.036181746829
 33
0.0
 14
26062.036645918641
 24
22798.718035677739
 34
0.0
1001
ACAD
1000
DSTYLE
1002
{
1070
    40
1040
40.0
1002
}
  0
LINE
  5
6DA
  8
FUTO
 10
25235.037645918641
 20
22697.718035677739
 30
0.0
 11
25235.037645918641
 21
22283.718035677739
 31
0.0
  0
LINE
  5
6DB
  8
FUTO
 10
25990.236645918641
 20
21844.718035677732
 30
0.0
 11
25990.236645918641
 21
23814.718035677732
 31
0.0
  0
LINE
  5
6DC
  8
FUTO
 10
25930.236645918641
 20
22733.718035677739
 30
0.0
 11
25632.35364591864
 21
22424.004035677732
 31
0.0
  0
LINE
  5
6DD
  8
FUTO
 10
25932.541645918642
 20
22731.500035677738
 30
0.0
 11
25634.662645918641
 21
22421.785035677742
 31
0.0
  0
LINE
  5
6DE
  8
FUTO
 10
25238.236645918641
 20
22283.718035677732
 30
0.0
 11
25238.236645918641
 21
22697.718035677739
 31
0.0
  0
LINE
  5
6DF
  8
FUTO
 10
25238.236645918641
 20
22697.718035677739
 30
0.0
 11
25397.244645918639
 21
22450.109035677739
 31
0.0
  0
LINE
  5
6E0
  8
FUTO
 10
25238.236645918641
 20
22686.613035677728
 30
0.0
 11
25392.197645918641
 21
22446.867035677729
 31
0.0
  0
LINE
  5
6E1
  8
FUTO
 10
25927.036645918641
 20
21902.418035677729
 30
0.0
 11
25927.036645918641
 21
23733.718035677739
 31
0.0
  0
LINE
  5
6E2
  8
FUTO
 10
25930.236645918641
 20
21902.418035677729
 30
0.0
 11
25930.236645918641
 21
23733.718035677739
 31
0.0
  0
LINE
  5
6E3
  8
FUTO
 10
25995.236645919282
 20
23694.072739345851
 30
0.0
 11
25995.236645918601
 21
21727.951613975179
 31
0.0
  0
LINE
  5
6FA
  8
FUTO
 10
25462.037645918641
 20
22283.718035677739
 30
0.0
 11
25462.037645918641
 21
22414.718035677732
 31
0.0
  0
ARC
  5
6FB
  8
FUTO
 10
25517.037645918641
 20
22534.91803567774
 30
0.0
 40
163.1999999999999
 50
250.30520048423409
 51
316.11599999999987
  0
ARC
  5
6FC
  8
FUTO
 10
25517.037645918641
 20
22534.91803567774
 30
0.0
 40
160.0
 50
249.89400000000001
 51
316.11599999999987
  0
ARC
  5
6FD
  8
1
 10
25517.037645918641
 20
22534.91803567774
 30
0.0
 40
160.0
 50
239.1699999999999
 51
249.89400000000001
  0
ARC
  5
6FE
  8
FUTO
 10
25462.037645918641
 20
22491.718035677739
 30
0.0
 40
77.0
 50
212.70799999999991
 51
270.0
  0
ARC
  5
6FF
  8
FUTO
 10
25462.037645918641
 20
22491.718035677739
 30
0.0
 40
83.0
 50
212.70799999999991
 51
270.0
  0
ARC
  5
700
  8
KL
 10
25517.037645918641
 20
22534.91803567774
 30
0.0
 40
163.1999999999999
 50
239.1699999999999
 51
250.30520048423409
  0
LINE
  5
701
  8
FUTO
 10
25995.236645918641
 20
21727.951613975179
 30
0.0
 11
26020.236645918641
 21
21711.932458669438
 31
0.0
  0
INSERT
  5
702
  8
FUTO
  2
まっすぐの矢印
 10
26257.509798489151
 20
22319.264338526838
 30
0.0
 41
2.0
 42
2.0
 43
2.0
 50
90.0
  0
LINE
  5
703
  8
FUTO
 10
25235.037645918641
 20
22697.718035677739
 30
0.0
 11
25238.236645918641
 21
22697.718035677739
 31
0.0
  0
LINE
  5
704
  8
FUTO
 10
25995.236645918641
 20
22739.718035677739
 30
0.0
 11
26062.036645918641
 21
22739.718035677739
 31
0.0
  0
LINE
  5
705
  8
KL
 10
25930.236645918641
 20
22733.718035677739
 30
0.0
 11
26062.036645918641
 21
22733.718035677739
 31
0.0
  0
LINE
  5
706
  8
HOSO
 10
25901.29867611064
 20
22773.718035677739
 30
0.0
 11
25961.129024940721
 21
22773.718035677739
 31
0.0
  0
LINE
  5
707
  8
KL
 10
25936.236645918641
 20
22798.718035677739
 30
0.0
 11
25930.236645918641
 21
22798.718035677739
 31
0.0
  0
LINE
  5
708
  8
KL
 10
25930.236645918641
 20
22739.718035677739
 30
0.0
 11
25995.236645918641
 21
22739.718035677739
 31
0.0
  0
LINE
  5
709
  8
FUTO
 10
26056.036645918641
 20
22798.718035677739
 30
0.0
 11
26062.036645918641
 21
22798.718035677739
 31
0.0
  0
LINE
  5
70A
  8
HOSO
 10
26029.368869358961
 20
22773.718035677739
 30
0.0
 11
26089.199218189031
 21
22773.718035677739
 31
0.0
  0
LINE
  5
70B
  8
FUTO
 10
25990.236645918641
 20
23694.072739345851
 30
0.0
 11
25995.236645919271
 21
23694.072739345851
 31
0.0
  0
LINE
  5
70C
  8
FUTO
 10
25927.036645918641
 20
23733.718035677739
 30
0.0
 11
25927.036645918641
 21
23754.718035677739
 31
0.0
  0
LINE
  5
70D
  8
FUTO
 10
25930.236645918641
 20
23733.718035677739
 30
0.0
 11
25930.236645918641
 21
23754.718035677739
 31
0.0
  0
LINE
  5
88D
  8
CT
 10
18546.426041620161
 20
27501.767083386028
 30
0.0
 11
21878.695644667368
 21
27501.767083386028
 31
0.0
  0
LINE
  5
88E
  8
FUTO
 10
21391.461200958449
 20
26772.767083386028
 30
0.0
 11
21391.461200958449
 21
28230.767083386028
 31
0.0
  0
LINE
  5
89C
  8
FUTO
 10
21326.461200958449
 20
26772.767083386028
 30
0.0
 11
21391.461200958449
 21
26772.767083386028
 31
0.0
  0
LINE
  5
89D
  8
FUTO
 10
21326.461200958449
 20
26772.767083386028
 30
0.0
 11
21326.461200958449
 21
28230.767083386028
 31
0.0
  0
LINE
  5
89E
  8
FUTO
 10
21326.461200958449
 20
28230.767083386028
 30
0.0
 11
21391.461200958449
 21
28230.767083386028
 31
0.0
  0
LINE
  5
89F
  8
FUTO
 10
18672.461200958449
 20
28165.767083386028
 30
0.0
 11
18672.461200958449
 21
26837.767083386039
 31
0.0
  0
LINE
  5
8A0
  8
FUTO
 10
18622.461200958449
 20
28215.767083386028
 30
0.0
 11
21326.461200958449
 21
28215.767083386028
 31
0.0
  0
LINE
  5
8A1
  8
FUTO
 10
18622.461200958449
 20
28215.767083386039
 30
0.0
 11
18622.461200958449
 21
26787.767083386039
 31
0.0
  0
LINE
  5
8A2
  8
FUTO
 10
18622.461200958449
 20
26787.767083386039
 30
0.0
 11
21326.461200958449
 21
26787.767083386028
 31
0.0
  0
LINE
  5
8A3
  8
FUTO
 10
18672.461200958449
 20
26837.767083386039
 30
0.0
 11
19526.461200958449
 21
26837.767083386039
 31
0.0
  0
LINE
  5
8A4
  8
FUTO
 10
19166.46120095846
 20
28215.767083386028
 30
0.0
 11
19166.461200958449
 21
28240.767083386039
 31
0.0
  0
LINE
  5
8A5
  8
FUTO
 10
21286.461200958449
 20
28215.767083386028
 30
0.0
 11
21286.461200958449
 21
28240.767083386028
 31
0.0
  0
LINE
  5
132F
  8
FUTO
 10
20606.461200958449
 20
25051.767083386028
 30
0.0
 11
18446.461200958449
 21
25051.767083386028
 31
0.0
  0
LINE
  5
1330
  8
FUTO
 10
20606.461200958449
 20
25401.767083386028
 30
0.0
 11
18446.461200958449
 21
25401.767083386028
 31
0.0
  0
LINE
  5
1336
  8
SL
 10
20506.461200958449
 20
25201.767083386028
 30
0.0
 11
18526.461200958449
 21
25201.767083386028
 31
0.0
  0
LINE
  5
1337
  8
SL
 10
20506.461200958449
 20
25371.767083386028
 30
0.0
 11
18526.461200958449
 21
25371.767083386028
 31
0.0
  0
LINE
  5
1338
  8
CT
 10
20226.461200958449
 20
24999.840961701258
 30
0.0
 11
20226.461200958449
 21
28495.762386558261
 31
0.0
  0
LINE
  5
1342
  8
FUTO
 10
20330.461200958449
 20
25474.267083386028
 30
0.0
 11
20330.461200958449
 21
25485.767083386028
 31
0.0
  0
LINE
  5
1343
  8
FUTO
 10
20122.461200958449
 20
25607.267083386039
 30
0.0
 11
20122.461200958449
 21
25474.267083386028
 31
0.0
  0
ARC
  5
1344
  8
FUTO
 10
20128.461200958449
 20
25474.267083386028
 30
0.0
 40
6.0
 50
180.0
 51
270.0
  0
LINE
  5
1345
  8
SL
 10
19946.461200958449
 20
25201.767083386028
 30
0.0
 11
19946.461200958449
 21
25371.767083386028
 31
0.0
  0
LINE
  5
1346
  8
FUTO
 10
20178.961200958449
 20
25371.767083386028
 30
0.0
 11
20178.961200958449
 21
25463.267083386028
 31
0.0
  0
LINE
  5
1347
  8
FUTO
 10
20273.961200958449
 20
25371.767083386028
 30
0.0
 11
20273.961200958449
 21
25463.267083386028
 31
0.0
  0
LINE
  5
1348
  8
FUTO
 10
20136.461200958449
 20
25463.267083386028
 30
0.0
 11
20316.461200958449
 21
25463.267083386028
 31
0.0
  0
LINE
  5
1349
  8
FUTO
 10
20128.461200958449
 20
25468.267083386039
 30
0.0
 11
20324.461200958449
 21
25468.267083386039
 31
0.0
  0
LINE
  5
134A
  8
FUTO
 10
20316.461200958449
 20
25463.267083386028
 30
0.0
 11
20316.461200958449
 21
25468.267083386039
 31
0.0
  0
ARC
  5
134B
  8
FUTO
 10
20324.461200958449
 20
25474.267083386028
 30
0.0
 40
6.0
 50
270.0
 51
0.0
  0
LINE
  5
134C
  8
FUTO
 10
20136.461200958449
 20
25468.267083386039
 30
0.0
 11
20136.461200958449
 21
25463.267083386028
 31
0.0
  0
LINE
  5
1353
  8
FUTO
 10
20173.961200958449
 20
25618.267083386039
 30
0.0
 11
20173.961200958449
 21
26448.267083386028
 31
0.0
  0
LINE
  5
1354
  8
FUTO
 10
20278.961200958449
 20
25618.267083386039
 30
0.0
 11
20278.961200958449
 21
26448.267083386028
 31
0.0
  0
LINE
  5
1357
  8
CT
 10
20102.692441793752
 20
25540.767083386039
 30
0.0
 11
20356.284924860571
 21
25540.767083386039
 31
0.0
  0
LINE
  5
1358
  8
FUTO
 10
20122.461200958449
 20
25485.767083386028
 30
0.0
 11
20330.461200958449
 21
25485.767083386028
 31
0.0
  0
LINE
  5
1359
  8
FUTO
 10
20122.461200958449
 20
25595.767083386039
 30
0.0
 11
20330.461200958449
 21
25595.767083386039
 31
0.0
  0
ARC
  5
135A
  8
FUTO
 10
20128.461200958449
 20
25607.267083386039
 30
0.0
 40
6.0
 50
90.0
 51
180.0
  0
LINE
  5
135B
  8
CT
 10
20045.39528653882
 20
25540.767083386039
 30
0.0
 11
20435.395454484242
 21
25540.767083386039
 31
0.0
  0
LINE
  5
135F
  8
FUTO
 10
20128.461200958449
 20
25613.267083386028
 30
0.0
 11
20324.461200958449
 21
25613.267083386028
 31
0.0
  0
LINE
  5
1360
  8
FUTO
 10
20136.461200958449
 20
25618.267083386039
 30
0.0
 11
20316.461200958449
 21
25618.267083386039
 31
0.0
  0
LINE
  5
1362
  8
FUTO
 10
20330.461200958449
 20
25607.267083386039
 30
0.0
 11
20330.461200958449
 21
25595.767083386039
 31
0.0
  0
ARC
  5
1363
  8
FUTO
 10
20324.461200958449
 20
25607.267083386039
 30
0.0
 40
6.0
 50
0.0
 51
90.0
  0
LINE
  5
1364
  8
FUTO
 10
20316.461200958449
 20
25618.267083386039
 30
0.0
 11
20316.461200958449
 21
25613.267083386028
 31
0.0
  0
LINE
  5
1365
  8
FUTO
 10
20136.461200958449
 20
25613.267083386028
 30
0.0
 11
20136.461200958449
 21
25618.267083386039
 31
0.0
  0
LINE
  5
136A
  8
FUTO
 10
20096.461200958449
 20
26463.267083386028
 30
0.0
 11
20356.461200958449
 21
26463.267083386028
 31
0.0
  0
LINE
  5
136B
  8
CT
 10
20062.299621292241
 20
26541.767083386028
 30
0.0
 11
20404.169244136341
 21
26541.767083386028
 31
0.0
  0
LINE
  5
136C
  8
FUTO
 10
20096.461200958449
 20
26475.267083386039
 30
0.0
 11
20356.461200958449
 21
26475.267083386039
 31
0.0
  0
LINE
  5
136D
  8
FUTO
 10
20142.461200958449
 20
26448.267083386028
 30
0.0
 11
20118.961200958449
 21
26463.267083386028
 31
0.0
  0
LINE
  5
136E
  8
FUTO
 10
20356.461200958449
 20
26620.267083386039
 30
0.0
 11
20096.461200958449
 21
26620.267083386039
 31
0.0
  0
LINE
  5
136F
  8
FUTO
 10
20356.46120095846
 20
26608.267083386028
 30
0.0
 11
20096.46126415284
 21
26608.267083386028
 31
0.0
  0
LINE
  5
1370
  8
FUTO
 10
20096.461200958449
 20
26608.267083386028
 30
0.0
 11
20311.461200958449
 21
26608.267083386028
 31
0.0
  0
LINE
  5
1371
  8
FUTO
 10
20118.961200958449
 20
26620.267083386039
 30
0.0
 11
20142.461200958449
 21
26635.267083386039
 31
0.0
  0
LINE
  5
1372
  8
CT
 10
20017.690372878209
 20
26541.767083386028
 30
0.0
 11
20467.3626766458
 21
26541.767083386028
 31
0.0
  0
LINE
  5
137E
  8
FUTO
 10
20333.961200958449
 20
26463.267083386028
 30
0.0
 11
20310.461200958449
 21
26448.267083386028
 31
0.0
  0
LINE
  5
1381
  8
FUTO
 10
20356.461200958449
 20
26463.267083386028
 30
0.0
 11
20356.461200958449
 21
26466.767083386039
 31
0.0
  0
LINE
  5
1382
  8
FUTO
 10
20310.461200958449
 20
26448.267083386028
 30
0.0
 11
20142.461200958449
 21
26448.267083386028
 31
0.0
  0
LINE
  5
1384
  8
FUTO
 10
20310.461200958449
 20
26635.267083386039
 30
0.0
 11
20333.961200958449
 21
26620.267083386039
 31
0.0
  0
LINE
  5
1386
  8
FUTO
 10
20356.461200958449
 20
26616.767083386039
 30
0.0
 11
20356.461200958449
 21
26620.267083386039
 31
0.0
  0
LINE
  5
1387
  8
FUTO
 10
20142.461200958449
 20
26635.267083386039
 30
0.0
 11
20310.461200958449
 21
26635.267083386039
 31
0.0
  0
LINE
  5
13A3
  8
CT
 10
20226.461200958449
 20
26653.15742162236
 30
0.0
 11
20226.461200958449
 21
26762.500043498268
 31
0.0
  0
LINE
  5
13B2
  8
FUTO
 10
20278.961200958449
 20
26635.267083386039
 30
0.0
 11
20278.961200958449
 21
26787.767083386028
 31
0.0
  0
LINE
  5
13B4
  8
FUTO
 10
20173.961200958449
 20
26635.267083386039
 30
0.0
 11
20173.961200958449
 21
26787.767083386039
 31
0.0
  0
LINE
  5
13BE
  8
FUTO
 10
20078.461200958449
 20
26603.267083386039
 30
0.0
 11
20078.461200958449
 21
26480.267083386028
 31
0.0
  0
LINE
  5
13BF
  8
FUTO
 10
20096.461200958449
 20
26480.267083386028
 30
0.0
 11
20096.461200958449
 21
26463.267083386028
 31
0.0
  0
LINE
  5
13C0
  8
FUTO
 10
20078.461200958449
 20
26480.267083386028
 30
0.0
 11
20096.461200958449
 21
26480.267083386028
 31
0.0
  0
LINE
  5
13C1
  8
FUTO
 10
20096.461200958449
 20
26603.267083386039
 30
0.0
 11
20078.461200958449
 21
26603.267083386039
 31
0.0
  0
LINE
  5
13C2
  8
FUTO
 10
20096.461200958449
 20
26620.267083386039
 30
0.0
 11
20096.461200958449
 21
26603.267083386039
 31
0.0
  0
LINE
  5
13E1
  8
FUTO
 10
20606.461200958449
 20
25051.767083386028
 30
0.0
 11
20606.461200958449
 21
25401.767083386028
 31
0.0
  0
LINE
  5
13E2
  8
SL
 10
20506.461200958449
 20
25201.767083386028
 30
0.0
 11
20506.461200958449
 21
25371.767083386028
 31
0.0
  0
DIMENSION
  5
1417
  8
SP
  2
*D3
 10
25267.036645918641
 20
24286.093842382448
 30
0.0
 11
24042.036645918641
 21
24397.522413811021
 31
0.0
 70
     0
  1
(<>)
 13
22817.036645918641
 23
22213.718035677739
 33
0.0
 14
25267.036645918641
 24
23814.718035677732
 34
0.0
1001
ACAD
1000
DSTYLE
1002
{
1070
    40
1040
40.0
1002
}
  0
LINE
  5
1453
  8
FUTO
 10
20330.461200958449
 20
25607.267083386039
 30
0.0
 11
20330.461200958449
 21
25474.267083386028
 31
0.0
  0
LINE
  5
1454
  8
FUTO
 10
20374.461200958449
 20
26603.267083386039
 30
0.0
 11
20374.461200958449
 21
26480.267083386028
 31
0.0
  0
LINE
  5
1455
  8
FUTO
 10
20374.461200958449
 20
26480.267083386028
 30
0.0
 11
20356.461200958449
 21
26480.267083386028
 31
0.0
  0
LINE
  5
1456
  8
FUTO
 10
20356.461200958449
 20
26480.267083386028
 30
0.0
 11
20356.461200958449
 21
26463.267083386028
 31
0.0
  0
LINE
  5
1457
  8
FUTO
 10
20356.461200958449
 20
26620.267083386039
 30
0.0
 11
20356.461200958449
 21
26603.267083386039
 31
0.0
  0
LINE
  5
1458
  8
FUTO
 10
20356.461200958449
 20
26603.267083386039
 30
0.0
 11
20374.461200958449
 21
26603.267083386039
 31
0.0
  0
LINE
  5
1698
  8
KL
 10
23205.536645918652
 20
20723.718035677739
 30
0.0
 11
23205.536645918641
 21
20653.718035679602
 31
0.0
  0
LINE
  5
1699
  8
KL
 10
23905.536645918652
 20
20723.718035677739
 30
0.0
 11
23905.536645918641
 21
20653.718035679631
 31
0.0
  0
LINE
  5
169A
  8
KL
 10
23700.536645918641
 20
20723.718035677739
 30
0.0
 11
23205.536645918652
 21
20723.718035677739
 31
0.0
  0
LINE
  5
169B
  8
KL
 10
23205.536645918641
 20
20723.718035677739
 30
0.0
 11
23905.536645918652
 21
20723.718035677739
 31
0.0
  0
LINE
  5
16AB
  8
FUTO
 10
23142.036645918641
 20
21103.718035677732
 30
0.0
 11
23142.036645918641
 21
20903.718035677732
 31
0.0
  0
LINE
  5
16AC
  8
KL
 10
24376.036645918641
 20
21263.718035677732
 30
0.0
 11
24376.036645918641
 21
20785.56909759565
 31
0.0
  0
LINE
  5
16AD
  8
FUTO
 10
23162.036645918641
 20
21313.718035677732
 30
0.0
 11
23162.036645918641
 21
20737.491312205559
 31
0.0
  0
LINE
  5
16AE
  8
KL
 10
23241.036645918641
 20
21313.718035677732
 30
0.0
 11
23241.036645918641
 21
20737.491312205559
 31
0.0
  0
LINE
  5
16AF
  8
KL
 10
24126.036645918641
 20
21313.718035677732
 30
0.0
 11
24126.036645918641
 21
20735.56909759565
 31
0.0
  0
LINE
  5
16B0
  8
CT
 10
23555.536645918641
 20
21350.357403664369
 30
0.0
 11
23555.536645918641
 21
20631.769508660651
 31
0.0
  0
LINE
  5
16B1
  8
KL
 10
23700.536645918641
 20
20723.718035677739
 30
0.0
 11
23820.536645918641
 21
20723.718035677739
 31
0.0
  0
LINE
  5
16B2
  8
KL
 10
23290.536645918641
 20
20753.718035677739
 30
0.0
 11
23820.536645918641
 21
20753.718035677739
 31
0.0
  0
LINE
  5
16B3
  8
KL
 10
24126.036645918641
 20
20735.56909759565
 30
0.0
 11
24326.036645918641
 21
20735.56909759565
 31
0.0
  0
ARC
  5
16B4
  8
KL
 10
24326.036645918641
 20
20785.56909759565
 30
0.0
 40
50.0
 50
270.0
 51
0.0
  0
LINE
  5
16B5
  8
KL
 10
23820.536645918641
 20
20735.56909759565
 30
0.0
 11
24105.711427920469
 21
20735.56909759565
 31
0.0
  0
LINE
  5
16B6
  8
KL
 10
24126.036645918641
 20
20747.102385255101
 30
0.0
 11
24105.71142792048
 21
20735.56909759565
 31
0.0
  0
LINE
  5
16B7
  8
CT
 10
23784.036645918641
 20
20777.708787436681
 30
0.0
 11
23784.036645918641
 21
20707.235745354199
 31
0.0
  0
LINE
  5
16B8
  8
KL
 10
23820.536645918641
 20
20753.718035677739
 30
0.0
 11
23820.536645918641
 21
20723.718035677739
 31
0.0
  0
LINE
  5
16B9
  8
KL
 10
23700.536645918641
 20
20735.56909759565
 30
0.0
 11
23410.536645918641
 21
20735.56909759565
 31
0.0
  0
LINE
  5
16BA
  8
KL
 10
23700.536645918641
 20
20735.56909759565
 30
0.0
 11
23700.536645918641
 21
20723.718035677739
 31
0.0
  0
LINE
  5
16BB
  8
KL
 10
23290.536645918641
 20
20753.718035677739
 30
0.0
 11
23290.536645918641
 21
20723.718035677739
 31
0.0
  0
LINE
  5
16BC
  8
CT
 10
23327.036645918641
 20
20777.708787436681
 30
0.0
 11
23327.036645918641
 21
20707.235745354199
 31
0.0
  0
LINE
  5
16BD
  8
KL
 10
23290.536645918641
 20
20737.491312205559
 30
0.0
 11
23162.036645918641
 21
20737.491312205559
 31
0.0
  0
LINE
  5
16BE
  8
KL
 10
23410.536645918641
 20
20735.56909759565
 30
0.0
 11
23410.536645918641
 21
20723.718035677739
 31
0.0
  0
LINE
  5
16BF
  8
KL
 10
23290.536645918641
 20
20723.718035677739
 30
0.0
 11
23410.536645918641
 21
20723.718035677739
 31
0.0
  0
LINE
  5
16C0
  8
FUTO
 10
23162.036645918641
 20
20903.718035677732
 30
0.0
 11
23142.036645918641
 21
20903.718035677732
 31
0.0
  0
LINE
  5
16C1
  8
KL
 10
24104.641819753069
 20
21313.718035677732
 30
0.0
 11
23162.036645918641
 21
21313.718035677732
 31
0.0
  0
LINE
  5
16C2
  8
CT
 10
24412.67941138308
 20
21003.718035677739
 30
0.0
 11
22940.887815079252
 21
21003.718035677739
 31
0.0
  0
LINE
  5
16C3
  8
KL
 10
24326.036645918641
 20
21313.718035677732
 30
0.0
 11
24126.036645918641
 21
21313.718035677732
 31
0.0
  0
ARC
  5
16C4
  8
KL
 10
24326.036645918641
 20
21263.718035677732
 30
0.0
 40
50.0
 50
0.0
 51
90.0
  0
LINE
  5
16C5
  8
KL
 10
24126.036645918641
 20
21289.166905248989
 30
0.0
 11
24104.641819753069
 21
21313.718035677732
 31
0.0
  0
LINE
  5
16C6
  8
FUTO
 10
23142.036645918641
 20
21046.218035677732
 30
0.0
 11
22967.036645918641
 21
21046.218035677732
 31
0.0
  0
LINE
  5
16C7
  8
FUTO
 10
23142.036645918641
 20
20961.218035677732
 30
0.0
 11
22967.036645918641
 21
20961.218035677732
 31
0.0
  0
LINE
  5
16C8
  8
CT
 10
23351.036645918641
 20
21637.087749642229
 30
0.0
 11
23351.036645918641
 21
21238.228218086439
 31
0.0
  0
LINE
  5
16C9
  8
FUTO
 10
23162.036645918641
 20
21103.718035677732
 30
0.0
 11
23142.036645918641
 21
21103.718035677732
 31
0.0
  0
LINE
  5
16CA
  8
KL
 10
23451.036645918641
 20
21593.718035677732
 30
0.0
 11
23251.036645918641
 21
21593.718035677732
 31
0.0
  0
LINE
  5
16CB
  8
KL
 10
23451.036645918641
 20
21328.718035677732
 30
0.0
 11
23251.036645918641
 21
21328.718035677732
 31
0.0
  0
LINE
  5
16CC
  8
CT
 10
23514.902573105021
 20
21453.718035677739
 30
0.0
 11
23212.7663837205
 21
21453.718035677739
 31
0.0
  0
LINE
  5
16CD
  8
KL
 10
23471.036645918641
 20
21573.718035677739
 30
0.0
 11
23471.036645918641
 21
21348.718035677739
 31
0.0
  0
ARC
  5
16CE
  8
KL
 10
23451.036645918641
 20
21348.718035677739
 30
0.0
 40
20.0
 50
270.0
 51
0.0
  0
ARC
  5
16CF
  8
KL
 10
23451.036645918641
 20
21573.718035677739
 30
0.0
 40
20.0
 50
0.0
 51
90.0
  0
LINE
  5
16D0
  8
KL
 10
23231.036645918641
 20
21573.718035677739
 30
0.0
 11
23231.036645918641
 21
21348.718035677739
 31
0.0
  0
ARC
  5
16D1
  8
KL
 10
23251.036645918641
 20
21348.718035677739
 30
0.0
 40
20.0
 50
180.0
 51
270.0
  0
ARC
  5
16D2
  8
KL
 10
23251.036645918641
 20
21573.718035677739
 30
0.0
 40
20.0
 50
90.0
 51
180.0
  0
LINE
  5
16D3
  8
FUTO
 10
23137.036645918641
 20
21046.218035677732
 30
0.0
 11
23137.036645918641
 21
20961.218035677732
 31
0.0
  0
LINE
  5
16D4
  8
FUTO
 10
22967.036645918641
 20
21046.218035677732
 30
0.0
 11
22967.036645918641
 21
20961.218035677732
 31
0.0
  0
LINE
  5
17EE
  8
FUTO
 10
19036.461200958409
 20
26339.372257220479
 30
0.0
 11
19036.461200958442
 21
25396.76708338605
 31
0.0
  0
LINE
  5
17EF
  8
CT
 10
18726.461200958402
 20
26647.409848850471
 30
0.0
 11
18726.461200958449
 21
25175.61825254665
 31
0.0
  0
LINE
  5
17F0
  8
FUTO
 10
18416.461200958409
 20
26339.37225722045
 30
0.0
 11
18416.461200958442
 21
25396.767083386028
 31
0.0
  0
LINE
  5
17F1
  8
FUTO
 10
18936.461200958442
 20
25465.76708338605
 30
0.0
 11
18546.461200958442
 21
25465.767083386039
 31
0.0
  0
LINE
  5
17F2
  8
CT
 10
18518.14834158112
 20
25585.767083386028
 30
0.0
 11
18981.130980595641
 21
25585.76708338605
 31
0.0
  0
LINE
  5
17F3
  8
CT
 10
18379.821832971789
 20
25790.267083386028
 30
0.0
 11
19098.409727975519
 21
25790.26708338605
 31
0.0
  0
LINE
  5
17F4
  8
FUTO
 10
18416.461200958442
 20
25396.767083386028
 30
0.0
 11
19036.461200958442
 21
25396.76708338605
 31
0.0
  0
LINE
  5
17F5
  8
FUTO
 10
18626.461200958449
 20
25376.767083386039
 30
0.0
 11
18826.461200958449
 21
25376.767083386039
 31
0.0
  0
LINE
  5
17F6
  8
FUTO
 10
18936.461200958431
 20
25705.76708338605
 30
0.0
 11
18546.461200958431
 21
25705.767083386039
 31
0.0
  0
LINE
  5
17F7
  8
FUTO
 10
18357.116812115532
 20
25440.267083386028
 30
0.0
 11
18357.11681211551
 21
26140.267083386028
 31
0.0
  0
LINE
  5
17F8
  8
FUTO
 10
18526.461200958431
 20
25685.767083386028
 30
0.0
 11
18526.461200958442
 21
25585.767083386028
 31
0.0
  0
LINE
  5
17F9
  8
CT
 10
18726.461200958529
 20
25030.316127215949
 30
0.0
 11
18726.46120095794
 21
26288.72252333213
 31
0.0
  0
LINE
  5
17FA
  8
FUTO
 10
18416.461200958442
 20
25440.267083386028
 30
0.0
 11
18357.116812115532
 21
25440.267083386028
 31
0.0
  0
LINE
  5
17FE
  8
FUTO
 10
18768.961200958442
 20
25376.767083386039
 30
0.0
 11
18768.961200958449
 21
25201.767083386039
 31
0.0
  0
LINE
  5
17FF
  8
FUTO
 10
18683.961200958442
 20
25376.767083386039
 30
0.0
 11
18683.961200958449
 21
25201.767083386028
 31
0.0
  0
LINE
  5
1802
  8
FUTO
 10
18683.961200958449
 20
25201.767083386028
 30
0.0
 11
18768.961200958449
 21
25201.767083386039
 31
0.0
  0
ARC
  5
1804
  8
FUTO
 10
18546.461200958442
 20
25485.767083386028
 30
0.0
 40
20.0
 50
180.0
 51
270.0
  0
LINE
  5
1805
  8
FUTO
 10
18526.461200958442
 20
25485.767083386028
 30
0.0
 11
18526.461200958442
 21
25585.767083386028
 31
0.0
  0
LINE
  5
1806
  8
FUTO
 10
18416.461200958442
 20
25475.767083386028
 30
0.0
 11
18529.140692882749
 21
25475.767083386028
 31
0.0
  0
LINE
  5
1807
  8
FUTO
 10
18683.961200958442
 20
25371.767083386028
 30
0.0
 11
18768.961200958442
 21
25371.767083386039
 31
0.0
  0
LINE
  5
1808
  8
FUTO
 10
18626.461200958449
 20
25396.767083386039
 30
0.0
 11
18626.461200958449
 21
25376.767083386039
 31
0.0
  0
LINE
  5
1809
  8
FUTO
 10
18416.461200958409
 20
26140.267083386028
 30
0.0
 11
18357.11681211551
 21
26140.267083386028
 31
0.0
  0
ARC
  5
180A
  8
FUTO
 10
18546.461200958431
 20
25685.767083386028
 30
0.0
 40
20.0
 50
90.0
 51
180.0
  0
LINE
  5
180B
  8
FUTO
 10
19095.805589801352
 20
25440.26708338605
 30
0.0
 11
19095.80558980133
 21
26140.26708338605
 31
0.0
  0
LINE
  5
180C
  8
FUTO
 10
18956.461200958431
 20
25685.76708338605
 30
0.0
 11
18956.461200958449
 21
25585.76708338605
 31
0.0
  0
LINE
  5
180F
  8
FUTO
 10
18953.78170903413
 20
25475.767083386039
 30
0.0
 11
19036.461200958442
 21
25475.76708338605
 31
0.0
  0
LINE
  5
1810
  8
CT
 10
19001.032755912649
 20
25561.76708338605
 30
0.0
 11
19071.50579799512
 21
25561.76708338605
 31
0.0
  0
ARC
  5
1811
  8
FUTO
 10
18936.461200958442
 20
25485.76708338605
 30
0.0
 40
20.0
 50
270.0
 51
0.0
  0
LINE
  5
1812
  8
FUTO
 10
18956.461200958442
 20
25485.76708338605
 30
0.0
 11
18956.461200958449
 21
25585.76708338605
 31
0.0
  0
LINE
  5
1813
  8
FUTO
 10
18826.461200958449
 20
25396.767083386039
 30
0.0
 11
18826.461200958449
 21
25376.767083386039
 31
0.0
  0
LINE
  5
1814
  8
FUTO
 10
19036.461200958442
 20
25440.26708338605
 30
0.0
 11
19095.805589801352
 21
25440.26708338605
 31
0.0
  0
ARC
  5
1815
  8
FUTO
 10
18936.461200958431
 20
25685.76708338605
 30
0.0
 40
20.0
 50
0.0
 51
90.0
  0
LINE
  5
1816
  8
CT
 10
19001.03275591262
 20
26018.76708338605
 30
0.0
 11
19071.505797995091
 21
26018.76708338605
 31
0.0
  0
LINE
  5
1817
  8
FUTO
 10
19036.46120095842
 20
26140.26708338605
 30
0.0
 11
19095.80558980133
 21
26140.26708338605
 31
0.0
  0
LINE
  5
181A
  8
FUTO
 10
18416.461200958409
 20
26360.767083386028
 30
0.0
 11
19036.461200958409
 21
26360.76708338605
 31
0.0
  0
LINE
  5
181B
  8
FUTO
 10
18466.461200958391
 20
26610.767083386028
 30
0.0
 11
18986.461200958402
 21
26610.76708338605
 31
0.0
  0
LINE
  5
181F
  8
FUTO
 10
18441.012331387159
 20
26360.767083386028
 30
0.0
 11
18416.461200958409
 21
26339.37225722045
 31
0.0
  0
ARC
  5
1820
  8
FUTO
 10
18466.461200958402
 20
26560.767083386028
 30
0.0
 40
50.0
 50
90.0
 51
180.0
  0
LINE
  5
1821
  8
FUTO
 10
18416.461200958402
 20
26560.767083386028
 30
0.0
 11
18416.461200958409
 21
26360.767083386028
 31
0.0
  0
ARC
  5
1824
  8
FUTO
 10
18986.461200958402
 20
26560.76708338605
 30
0.0
 40
50.0
 50
0.0
 51
90.0
  0
LINE
  5
1825
  8
FUTO
 10
19011.910070529659
 20
26360.76708338605
 30
0.0
 11
19036.461200958409
 21
26339.372257220479
 31
0.0
  0
LINE
  5
1826
  8
FUTO
 10
19036.461200958402
 20
26560.76708338605
 30
0.0
 11
19036.461200958409
 21
26360.76708338605
 31
0.0
  0
LINE
  5
1827
  8
FUTO
 10
18286.461200958449
 20
25465.767083386039
 30
0.0
 11
18286.461200958449
 21
25390.767083386028
 31
0.0
  0
LINE
  5
1828
  8
FUTO
 10
18462.58128651361
 20
26762.767083386028
 30
0.0
 11
18462.58128651361
 21
26610.61631872521
 31
0.0
  0
LINE
  5
1829
  8
FUTO
 10
18990.341115403109
 20
26762.767083386159
 30
0.0
 11
18990.341115403178
 21
26610.61631872533
 31
0.0
  0
LINE
  5
182A
  8
FUTO
 10
18915.341115403109
 20
26762.767083386119
 30
0.0
 11
18915.341115403178
 21
26610.767083386119
 31
0.0
  0
LINE
  5
182B
  8
SL
 10
18526.461200958449
 20
25201.767083386028
 30
0.0
 11
18526.461200958449
 21
25371.767083386028
 31
0.0
  0
LINE
  5
182D
  8
FUTO
 10
18446.461200958449
 20
25051.767083386028
 30
0.0
 11
18446.461200958449
 21
25401.767083386028
 31
0.0
  0
LINE
  5
182F
  8
FUTO
 10
20568.509626782488
 20
25465.767083386028
 30
0.0
 11
20568.509626782488
 21
26787.767083386039
 31
0.0
  0
LINE
  5
1830
  8
FUTO
 10
19884.412775134409
 20
25465.767083386028
 30
0.0
 11
19884.412775134409
 21
26787.767083386039
 31
0.0
  0
LINE
  5
1832
  8
FUTO
 10
19261.461200958449
 20
28296.767083386028
 30
0.0
 11
21191.461200958449
 21
28296.767083386028
 31
0.0
  0
LINE
  5
1833
  8
FUTO
 10
19261.461200958449
 20
28290.767083386039
 30
0.0
 11
21191.461200958449
 21
28290.767083386039
 31
0.0
  0
LINE
  5
1834
  8
KL
 10
19261.461200958449
 20
28170.967083386029
 30
0.0
 11
21191.461200958449
 21
28170.96708338604
 31
0.0
  0
LINE
  5
1839
  8
KL
 10
21126.461200958449
 20
28164.96708338604
 30
0.0
 11
21126.461200958449
 21
28296.767083386028
 31
0.0
  0
LINE
  5
183A
  8
KL
 10
21132.461200958449
 20
28164.96708338604
 30
0.0
 11
21132.461200958449
 21
28254.96708338604
 31
0.0
  0
LINE
  5
183B
  8
KL
 10
21191.461200958449
 20
28164.96708338604
 30
0.0
 11
21191.461200958449
 21
28170.96708338604
 31
0.0
  0
LINE
  5
183C
  8
HOSO
 10
21166.461200958449
 20
28122.433073775119
 30
0.0
 11
21166.461200958449
 21
28196.540688923378
 31
0.0
  0
LINE
  5
183D
  8
HOSO
 10
21166.461200958449
 20
28263.284537200008
 30
0.0
 11
21166.461200958449
 21
28337.392152348279
 31
0.0
  0
LINE
  5
183E
  8
FUTO
 10
21191.461200958449
 20
28290.767083386039
 30
0.0
 11
21191.461200958449
 21
28296.767083386028
 31
0.0
  0
LINE
  5
183F
  8
FUTO
 10
21132.461200958449
 20
28254.96708338604
 30
0.0
 11
21132.461200958449
 21
28296.767083386028
 31
0.0
  0
INSERT
  5
185B
  8
FUTO
  2
まっすぐの矢印
 10
19740.914898109339
 20
28492.240235956539
 30
0.0
 41
2.0
 42
2.0
 43
2.0
 50
180.0
  0
LINE
  5
185D
  8
KL
 10
19326.461200958449
 20
28164.96708338604
 30
0.0
 11
19326.461200958449
 21
28296.767083386028
 31
0.0
  0
LINE
  5
185E
  8
FUTO
 10
19320.461200958449
 20
28229.967083386029
 30
0.0
 11
19320.461200958449
 21
28296.767083386028
 31
0.0
  0
LINE
  5
185F
  8
KL
 10
19320.461200958449
 20
28164.96708338604
 30
0.0
 11
19320.461200958449
 21
28229.967083386029
 31
0.0
  0
LINE
  5
1860
  8
KL
 10
19261.461200958449
 20
28170.967083386029
 30
0.0
 11
19261.461200958449
 21
28164.96708338604
 31
0.0
  0
LINE
  5
1861
  8
HOSO
 10
19286.461200958449
 20
28136.029113578039
 30
0.0
 11
19286.461200958449
 21
28195.859462408109
 31
0.0
  0
LINE
  5
1862
  8
HOSO
 10
19286.461200958449
 20
28264.099306826349
 30
0.0
 11
19286.461200958449
 21
28323.92965565643
 31
0.0
  0
LINE
  5
1863
  8
FUTO
 10
19261.461200958449
 20
28290.767083386039
 30
0.0
 11
19261.461200958449
 21
28296.767083386028
 31
0.0
  0
LINE
  5
188E
  8
FUTO
 10
20620.61341019622
 20
21561.40257044043
 30
0.0
 11
20926.461200958449
 21
20669.509130216149
 31
0.0
  0
LINE
  5
188F
  8
FUTO
 10
20705.29509929736
 20
21801.906266218419
 30
0.0
 11
21414.228491365491
 21
21739.022780009291
 31
0.0
  0
LINE
  5
1890
  8
FUTO
 10
20703.704715793549
 20
21783.976662756249
 30
0.0
 11
21416.63815206855
 21
21720.738366451362
 31
0.0
  0
LINE
  5
1891
  8
KL
 10
19415.578511695428
 20
21844.34423567773
 30
0.0
 11
20026.461200958449
 21
21844.34423567773
 31
0.0
  0
LINE
  5
1892
  8
KL
 10
19390.48900065431
 20
21826.344235677741
 30
0.0
 11
20026.461200958449
 21
21826.34423567773
 31
0.0
  0
LINE
  5
1893
  8
FUTO
 10
19176.461200958449
 20
20886.971396868608
 30
0.0
 11
19176.461200958449
 21
20655.34423567773
 31
0.0
  0
LINE
  5
1894
  8
FUTO
 10
19185.461200958449
 20
20890.654786849289
 30
0.0
 11
19185.461200958449
 21
20655.34423567773
 31
0.0
  0
LINE
  5
1895
  8
KL
 10
19167.461200958449
 20
21666.33711605124
 30
0.0
 11
19167.461200958449
 21
20883.192758760481
 31
0.0
  0
LINE
  5
1896
  8
KL
 10
19176.461200958449
 20
21672.793997563778
 30
0.0
 11
19176.461200958449
 21
20886.971396868608
 31
0.0
  0
LINE
  5
1897
  8
KL
 10
19185.461200958449
 20
21679.25087907632
 30
0.0
 11
19185.461200958449
 21
20890.654786849289
 31
0.0
  0
DIMENSION
  5
18AD
  8
SP
  2
*D4
 10
21935.870290164039
 20
23825.34423567773
 30
0.0
 11
21855.870290164039
 21
22830.344235677741
 31
0.0
 70
     0
 13
21771.815200002551
 23
21835.344235677741
 33
0.0
 14
21391.461200958449
 24
23825.34423567773
 34
0.0
 50
90.0
1001
ACAD
1000
DSTYLE
1002
{
1070
    40
1040
40.0
1002
}
  0
DIMENSION
  5
1909
  8
SP
  2
*D6
 10
21391.461200958449
 20
28754.641014868979
 30
0.0
 11
20808.96120095846
 21
28834.641014868979
 31
0.0
 70
     0
 13
20226.461200958449
 23
28495.762386558261
 33
0.0
 14
21391.461200958449
 24
28230.767083386028
 34
0.0
1001
ACAD
1000
DSTYLE
1002
{
1070
    40
1040
40.0
1002
}
  0
DIMENSION
  5
1916
  8
SP
  2
*D7
 10
18286.461200958449
 20
28754.641014868979
 30
0.0
 11
19256.461200958449
 21
28834.641014868979
 31
0.0
 70
     0
 13
20226.461200958449
 23
28754.641014868979
 33
0.0
 14
18286.461200958449
 24
26837.767083386039
 34
0.0
1001
ACAD
1000
DSTYLE
1002
{
1070
    40
1040
40.0
1002
}
  0
DIMENSION
  5
1923
  8
SP
  2
*D8
 10
21811.447466448572
 20
27501.767083386028
 30
0.0
 11
21731.447466448561
 21
27899.267083386039
 31
0.0
 70
     0
 13
21191.461200958449
 23
28296.767083386028
 33
0.0
 14
21878.695644667368
 24
27501.767083386028
 34
0.0
 50
90.0
1001
ACAD
1000
DSTYLE
1002
{
1070
    40
1040
40.0
1002
}
  0
DIMENSION
  5
1930
  8
SP
  2
*D9
 10
21811.447466448572
 20
25051.767083386028
 30
0.0
 11
21731.447466448561
 21
26276.767083386028
 31
0.0
 70
     0
 13
21811.447466448572
 23
27501.767083386028
 33
0.0
 14
20606.461200958449
 24
25051.767083386028
 34
0.0
 50
90.0
1001
ACAD
1000
DSTYLE
1002
{
1070
    40
1040
40.0
1002
}
  0
TEXT
  5
1FDD
  8
SP
 10
42292.759118334849
 20
28045.009354565638
 30
0.0
 40
100.0
  1
 
  0
LINE
  5
1FDE
  8
4
 10
26674.065968854971
 20
18470.989140227011
 30
0.0
 11
26674.06596885496
 21
17270.989140227011
 31
0.0
  0
LINE
  5
1FDF
  8
4
 10
22474.06596885496
 20
18470.989140227011
 30
0.0
 11
22474.06596885496
 21
17270.989140227011
 31
0.0
  0
LINE
  5
1FE0
  8
4
 10
19474.06596885496
 20
18470.989140227011
 30
0.0
 11
19474.06596885496
 21
17270.989140227011
 31
0.0
  0
LINE
  5
1FE3
  8
4
 10
19474.06596885496
 20
17270.989140227011
 30
0.0
 11
26674.065968854971
 21
17270.989140227011
 31
0.0
  0
LINE
  5
1FE4
  8
4
 10
19474.06596885496
 20
17870.989140227011
 30
0.0
 11
26674.065968854971
 21
17870.989140227011
 31
0.0
  0
TEXT
  5
1FE5
  8
4
 10
19705.078453936381
 20
18060.247295426689
 30
0.0
 40
300.0
  1
機器名称
  0
TEXT
  5
1FE6
  8
4
 10
19691.61460500375
 20
17400.860080619081
 30
0.0
 40
300.0
  1
機器型番
  0
TEXT
  5
1FE7
  8
4
 10
22502.824339061219
 20
18004.112954368691
 30
0.0
 40
270.0
  1
ミツヤリミットロードファン
  0
TEXT
  5
1FE8
  8
4
 10
22693.992942367851
 20
17373.946645906672
 30
0.0
 40
300.0
  1
LL#11-1
  0
TEXT
  5
1FEA
  8
4
 10
17471.071528831639
 20
30674.274997422799
 30
0.0
 40
432.0
  1
遠心式片吸込片持リミットロードファン
  0
LINE
  5
1FEB
  8
4
 10
17074.06596885496
 20
30287.441665815841
 30
0.0
 11
26674.065968854971
 21
30287.441665815841
 31
0.0
  0
LINE
  5
1FEC
  8
4
 10
17074.06596885496
 20
31487.441665815841
 30
0.0
 11
26674.065968854971
 21
31487.441665815841
 31
0.0
  0
LINE
  5
1FED
  8
4
 10
19474.06596885496
 20
18470.989140227011
 30
0.0
 11
26674.065968854971
 21
18470.989140227011
 31
0.0
  0
LINE
  5
1FEE
  8
4
 10
17074.06596885496
 20
31487.441665815841
 30
0.0
 11
17074.06596885496
 21
30287.441665815841
 31
0.0
  0
TEXT
  5
1FEF
  8
4
 10
17609.1070657614
 20
29764.90600550508
 30
0.0
 40
323.99999999999989
  1
右回転右横向
  0
TEXT
  5
1FF0
  8
4
 10
24387.883324350711
 20
31707.355629198872
 30
0.0
 40
336.00000000000011
  1
No.
  0
TEXT
  5
1FF1
  8
4
 10
24352.2124275768
 20
28912.392018741411
 30
0.0
 40
323.99999999999989
  1
縮尺：1/60
  0
LINE
  5
1FF2
  8
4
 10
26674.065968854971
 20
31487.441665815841
 30
0.0
 11
26674.065968854971
 21
30287.441665815841
 31
0.0
  0
LINE
  5
1FF3
  8
4
 10
28174.065968854971
 20
33170.989140227008
 30
0.0
 11
28174.065968854971
 21
33170.989140227008
 31
0.0
  0
LINE
  5
1FF4
  8
4
 10
24217.770503014151
 20
31558.570638979421
 30
0.0
 11
24217.770503014151
 21
32190.90270952553
 31
0.0
  0
LINE
  5
1FF5
  8
4
 10
24217.770503014151
 20
32190.90270952553
 30
0.0
 11
26674.065968854971
 21
32190.90270952553
 31
0.0
  0
LINE
  5
1FF6
  8
4
 10
26674.065968854971
 20
32190.90270952553
 30
0.0
 11
26674.065968854971
 21
31558.570638979421
 31
0.0
  0
LINE
  5
1FF7
  8
4
 10
26674.065968854971
 20
31558.570638979421
 30
0.0
 11
24217.770503014151
 21
31558.570638979421
 31
0.0
  0
LINE
  5
1FF8
  8
4
 10
15574.06596885496
 20
15470.98914022701
 30
0.0
 11
15574.06596885496
 21
33170.989140227008
 31
0.0
  0
LINE
  5
1FF9
  8
4
 10
15574.06596885496
 20
33170.989140227008
 30
0.0
 11
28174.065968854971
 21
33170.989140227008
 31
0.0
  0
LINE
  5
1FFA
  8
4
 10
28174.065968854971
 20
33170.989140227008
 30
0.0
 11
28174.065968854971
 21
15470.98914022701
 31
0.0
  0
LINE
  5
1FFB
  8
4
 10
28174.065968854971
 20
15470.98914022701
 30
0.0
 11
15574.06596885496
 21
15470.98914022701
 31
0.0
  0
TEXT
  5
1FFC
  8
4
 10
20685.842852948121
 20
29764.97593015345
 30
0.0
 40
323.99999999999989
  1
床置ベット
  0
ENDSEC
  0
EOF
