  0
SECTION
  2
HEADER
  9
$ACADVER
  1
AC1009
  9
$INSBASE
 10
0.0
 20
0.0
 30
0.0
  9
$EXTMIN
 10
14064.06295107131
 20
11719.007161947829
 30
0.0
  9
$EXTMAX
 10
26664.062951071312
 20
29419.007161947829
 30
0.0
  9
$LIMMIN
 10
0.0
 20
0.0
  9
$LIMMAX
 10
297.0
 20
210.0
  9
$ORTHOMODE
 70
     0
  9
$REGENMODE
 70
     1
  9
$FILLMODE
 70
     1
  9
$QTEXTMODE
 70
     0
  9
$MIRRTEXT
 70
     0
  9
$DRAGMODE
 70
     2
  9
$LTSCALE
 40
200.0
  9
$OSMODE
 70
    37
  9
$ATTMODE
 70
     1
  9
$TEXTSIZE
 40
150.0
  9
$TRACEWID
 40
0.05
  9
$TEXTSTYLE
  7
STANDARD
  9
$CLAYER
  8
FUTO
  9
$CELTYPE
  6
BYLAYER
  9
$CECOLOR
 62
   256
  9
$DIMSCALE
 40
40.0
  9
$DIMASZ
 40
2.0
  9
$DIMEXO
 40
1.0
  9
$DIMDLI
 40
10.0
  9
$DIMRND
 40
0.0
  9
$DIMDLE
 40
0.0
  9
$DIMEXE
 40
1.0
  9
$DIMTP
 40
0.0
  9
$DIMTM
 40
0.0
  9
$DIMTXT
 40
3.0
  9
$DIMCEN
 40
0.0
  9
$DIMTSZ
 40
0.0
  9
$DIMTOL
 70
     0
  9
$DIMLIM
 70
     0
  9
$DIMTIH
 70
     0
  9
$DIMTOH
 70
     0
  9
$DIMSE1
 70
     0
  9
$DIMSE2
 70
     0
  9
$DIMTAD
 70
     1
  9
$DIMZIN
 70
     8
  9
$DIMBLK
  1

  9
$DIMASO
 70
     1
  9
$DIMSHO
 70
     1
  9
$DIMPOST
  1

  9
$DIMAPOST
  1

  9
$DIMALT
 70
     0
  9
$DIMALTD
 70
     2
  9
$DIMALTF
 40
0.03937
  9
$DIMLFAC
 40
1.0
  9
$DIMTOFL
 70
     1
  9
$DIMTVP
 40
0.0
  9
$DIMTIX
 70
     0
  9
$DIMSOXD
 70
     0
  9
$DIMSAH
 70
     1
  9
$DIMBLK1
  1
OPEN
  9
$DIMBLK2
  1
OPEN
  9
$DIMSTYLE
  2
MATSU
  9
$DIMCLRD
 70
   256
  9
$DIMCLRE
 70
   256
  9
$DIMCLRT
 70
   256
  9
$DIMTFAC
 40
1.0
  9
$DIMGAP
 40
0.5
  9
$LUNITS
 70
     2
  9
$LUPREC
 70
     3
  9
$SKETCHINC
 40
0.1
  9
$FILLETRAD
 40
7.0
  9
$AUNITS
 70
     0
  9
$AUPREC
 70
     2
  9
$MENU
  1
acad
  9
$ELEVATION
 40
0.0
  9
$PELEVATION
 40
0.0
  9
$THICKNESS
 40
0.0
  9
$LIMCHECK
 70
     0
  9
$BLIPMODE
 70
     0
  9
$CHAMFERA
 40
0.0
  9
$CHAMFERB
 40
0.0
  9
$SKPOLY
 70
     0
  9
$TDCREATE
 40
2451593.4082031241
  9
$TDUPDATE
 40
2454953.6502978471
  9
$TDINDWG
 40
0.5593821991
  9
$TDUSRTIMER
 40
0.5593821991
  9
$USRTIMER
 70
     1
  9
$ANGBASE
 50
0.0
  9
$ANGDIR
 70
     0
  9
$PDMODE
 70
     0
  9
$PDSIZE
 40
1.0
  9
$PLINEWID
 40
0.0
  9
$COORDS
 70
     1
  9
$SPLFRAME
 70
     0
  9
$SPLINETYPE
 70
     6
  9
$SPLINESEGS
 70
     8
  9
$ATTDIA
 70
     0
  9
$ATTREQ
 70
     1
  9
$HANDLING
 70
 10241
  9
$HANDSEED
  5
24E6
  9
$SURFTAB1
 70
     6
  9
$SURFTAB2
 70
     6
  9
$SURFTYPE
 70
     6
  9
$SURFU
 70
     6
  9
$SURFV
 70
     6
  9
$UCSNAME
  2

  9
$UCSORG
 10
0.0
 20
0.0
 30
0.0
  9
$UCSXDIR
 10
1.0
 20
0.0
 30
0.0
  9
$UCSYDIR
 10
0.0
 20
1.0
 30
0.0
  9
$PUCSNAME
  2

  9
$PUCSORG
 10
0.0
 20
0.0
 30
0.0
  9
$PUCSXDIR
 10
1.0
 20
0.0
 30
0.0
  9
$PUCSYDIR
 10
0.0
 20
1.0
 30
0.0
  9
$USERI1
 70
     0
  9
$USERI2
 70
     0
  9
$USERI3
 70
     0
  9
$USERI4
 70
     0
  9
$USERI5
 70
     0
  9
$USERR1
 40
0.0
  9
$USERR2
 40
0.0
  9
$USERR3
 40
0.0
  9
$USERR4
 40
0.0
  9
$USERR5
 40
0.0
  9
$WORLDVIEW
 70
     1
  9
$SHADEDGE
 70
     3
  9
$SHADEDIF
 70
    70
  9
$TILEMODE
 70
     1
  9
$MAXACTVP
 70
    16
  9
$PLIMCHECK
 70
     0
  9
$PEXTMIN
 10
1.0000000000000000E+020
 20
1.0000000000000000E+020
 30
1.0000000000000000E+020
  9
$PEXTMAX
 10
-1.0000000000000000E+020
 20
-1.0000000000000000E+020
 30
-1.0000000000000000E+020
  9
$PLIMMIN
 10
0.0
 20
0.0
  9
$PLIMMAX
 10
12.0
 20
9.0
  9
$UNITMODE
 70
     0
  9
$VISRETAIN
 70
     0
  9
$PLINEGEN
 70
     0
  9
$PSLTSCALE
 70
     0
  0
ENDSEC
  0
SECTION
  2
TABLES
  0
TABLE
  2
VPORT
 70
     2
  0
VPORT
  2
*ACTIVE
 70
     0
 10
0.0
 20
0.0
 11
1.0
 21
1.0
 12
25887.739793467921
 22
13756.08059824577
 13
0.0
 23
0.0
 14
5.0
 24
5.0
 15
0.0
 25
0.0
 16
0.0
 26
0.0
 36
1.0
 17
0.0
 27
0.0
 37
0.0
 40
5346.1135761649684
 41
3.1666666666666661
 42
50.0
 43
0.0
 44
0.0
 50
0.0
 51
0.0
 71
     0
 72
   100
 73
     1
 74
     0
 75
     0
 76
     0
 77
     0
 78
     0
  0
ENDTAB
  0
TABLE
  2
LTYPE
 70
     4
  0
LTYPE
  2
CONTINUOUS
 70
     0
  3
Solid line
 72
    65
 73
     0
 40
0.0
  0
LTYPE
  2
CENTER
 70
     0
  3
____ _ ____ _ ____ _ ____ _ ____ _ ____ _ ____ 
 72
    65
 73
     4
 40
2.0
 49
1.25
 49
-0.25
 49
0.25
 49
-0.25
  0
LTYPE
  2
HIDDEN
 70
     0
  3
__ __ __ __ __ __ __ __ __ __ __ __ __ __ __ __
 72
    65
 73
     2
 40
0.375
 49
0.25
 49
-0.125
  0
LTYPE
  2
PHANTOM
 70
     0
  3
______  __  __  ______  __  __  ______  __  __ 
 72
    65
 73
     6
 40
2.5
 49
1.25
 49
-0.25
 49
0.25
 49
-0.25
 49
0.25
 49
-0.25
  0
ENDTAB
  0
TABLE
  2
LAYER
 70
    10
  0
LAYER
  2
0
 70
     0
 62
     7
  6
CONTINUOUS
  0
LAYER
  2
CT
 70
     0
 62
     3
  6
CENTER
  0
LAYER
  2
FUTO
 70
     0
 62
     4
  6
CONTINUOUS
  0
LAYER
  2
HOSO
 70
     0
 62
     7
  6
CONTINUOUS
  0
LAYER
  2
KL
 70
     0
 62
     7
  6
HIDDEN
  0
LAYER
  2
SL
 70
     0
 62
     1
  6
PHANTOM
  0
LAYER
  2
SP
 70
     0
 62
     2
  6
CONTINUOUS
  0
LAYER
  2
1
 70
     0
 62
     7
  6
CONTINUOUS
  0
LAYER
  2
DEFPOINTS
 70
     0
 62
     7
  6
CONTINUOUS
  0
LAYER
  2
4
 70
     0
 62
     7
  6
CONTINUOUS
  0
ENDTAB
  0
TABLE
  2
STYLE
 70
     1
  0
STYLE
  2
STANDARD
 70
     0
 40
0.0
 41
1.0
 50
15.0
 71
     0
 42
150.0
  3
C:\Program Files\AutoCAD LT\simplex.shx
  4
bigfont.shx
  0
ENDTAB
  0
TABLE
  2
VIEW
 70
     0
  0
ENDTAB
  0
TABLE
  2
UCS
 70
     0
  0
ENDTAB
  0
TABLE
  2
APPID
 70
     2
  0
APPID
  2
ACAD
 70
     0
  0
APPID
  2
CONTENTBLOCKICON
 70
     0
  0
ENDTAB
  0
TABLE
  2
DIMSTYLE
 70
     2
  0
DIMSTYLE
  2
MATSU
 70
     0
  3

  4

  5

  6
OPEN
  7
OPEN
 40
1.0
 41
2.0
 42
1.0
 43
10.0
 44
1.0
 45
0.0
 46
0.0
 47
0.0
 48
0.0
140
3.0
141
0.0
142
0.0
143
0.03937
144
1.0
145
0.0
146
1.0
147
0.5
 71
     0
 72
     0
 73
     0
 74
     0
 75
     0
 76
     0
 77
     1
 78
     8
170
     0
171
     2
172
     1
173
     1
174
     0
175
     0
176
   256
177
   256
178
   256
  0
DIMSTYLE
  2
STANDARD
 70
     0
  3

  4

  5

  6

  7

 40
1.0
 41
0.18
 42
0.0625
 43
0.38
 44
0.18
 45
0.0
 46
0.0
 47
0.0
 48
0.0
140
0.18
141
0.09
142
0.0
143
25.399999999999999
144
1.0
145
0.0
146
1.0
147
0.09
 71
     0
 72
     0
 73
     1
 74
     1
 75
     0
 76
     0
 77
     0
 78
     0
170
     0
171
     2
172
     0
173
     0
174
     0
175
     0
176
     0
177
     0
178
     0
  0
ENDTAB
  0
ENDSEC
  0
SECTION
  2
BLOCKS
  0
BLOCK
  8
0
  2
$MODEL_SPACE
 70
     0
 10
0.0
 20
0.0
 30
0.0
  3
$MODEL_SPACE
  1

  0
ENDBLK
  5
7
  8
0
  0
BLOCK
 67
     1
  8
0
  2
$PAPER_SPACE
 70
     0
 10
0.0
 20
0.0
 30
0.0
  3
$PAPER_SPACE
  1

  0
ENDBLK
  5
A
 67
     1
  8
0
  0
BLOCK
  8
0
  2
_OPEN
 70
     0
 10
0.0
 20
0.0
 30
0.0
  3
_OPEN
  1

  0
LINE
  5
27
  8
0
  6
BYBLOCK
 62
     0
 10
-1.0
 20
0.1666666666666666
 30
0.0
 11
0.0
 21
0.0
 31
0.0
  0
LINE
  5
28
  8
0
  6
BYBLOCK
 62
     0
 10
0.0
 20
0.0
 30
0.0
 11
-1.0
 21
-0.1666666666666666
 31
0.0
  0
LINE
  5
29
  8
0
  6
BYBLOCK
 62
     0
 10
0.0
 20
0.0
 30
0.0
 11
-1.0
 21
0.0
 31
0.0
  0
ENDBLK
  5
2B
  8
0
  0
BLOCK
  8
0
  2
まっすぐの矢印
 70
     0
 10
0.0
 20
0.0
 30
0.0
  3
まっすぐの矢印
  1

  0
LINE
  5
8C
  8
SP
 10
13.01863531255526
 20
-41.453946163708451
 30
0.0
 11
13.01863531255526
 21
-93.495696758840026
 31
0.0
  0
LINE
  5
8D
  8
SP
 10
13.01863531255526
 20
-93.495696758840026
 30
0.0
 11
-13.01863531255526
 21
-93.495696758840026
 31
0.0
  0
LINE
  5
8E
  8
SP
 10
-13.01863531255526
 20
-93.495696758840026
 30
0.0
 11
-13.01863531255526
 21
-41.453946163708451
 31
0.0
  0
LINE
  5
8F
  8
SP
 10
-13.01863531255526
 20
-41.453946163708451
 30
0.0
 11
-32.06015471115802
 21
-41.453946163708451
 31
0.0
  0
LINE
  5
90
  8
SP
 10
-32.06015471115802
 20
-41.453946163708451
 30
0.0
 11
0.0
 21
0.0
 31
0.0
  0
LINE
  5
91
  8
SP
 10
0.0
 20
0.0
 30
0.0
 11
32.06015471115802
 21
-41.453946163708451
 31
0.0
  0
LINE
  5
92
  8
SP
 10
32.06015471115802
 20
-41.453946163708451
 30
0.0
 11
13.01863531255526
 21
-41.453946163708451
 31
0.0
  0
ENDBLK
  5
94
  8
0
  0
BLOCK
  8
0
  2
左回転矢印
 70
     0
 10
0.0
 20
0.0
 30
0.0
  3
左回転矢印
  1

  0
LINE
  5
2C7
  8
SP
 10
43.930449171819873
 20
24.859487323637271
 30
0.0
 11
38.511878498580238
 21
44.478978865188871
 31
0.0
  0
LINE
  5
2C8
  8
SP
 10
38.511878498580238
 20
44.478978865188871
 30
0.0
 11
0.0
 21
0.0
 31
0.0
  0
LINE
  5
2C9
  8
SP
 10
0.0
 20
0.0
 30
0.0
 11
52.57968174421967
 21
-6.4575435924972453
 31
0.0
  0
LINE
  5
2CA
  8
SP
 10
52.57968174421967
 20
-6.4575435924972453
 30
0.0
 11
48.189912989015284
 21
9.436875093862227
 31
0.0
  0
ARC
  5
2CB
  8
SP
 10
93.893649146691985
 20
-156.0466295121104
 30
0.0
 40
171.67883327727239
 50
67.881388989212894
 51
105.4392492786835
  0
LINE
  5
2CC
  8
SP
 10
158.53505643637521
 20
2.997736182040398
 30
0.0
 11
164.55945966006539
 21
17.820238190756751
 31
0.0
  0
ARC
  5
2CD
  8
SP
 10
93.893649146692198
 20
-156.04662951211091
 30
0.0
 40
187.67883327727299
 50
67.881388989212994
 51
105.4392492786836
  0
ENDBLK
  5
2CF
  8
0
  0
BLOCK
  8
0
  2
*D3
 70
     1
 10
0.0
 20
0.0
 30
0.0
  3
*D3
  1

  0
LINE
  5
246F
  8
SP
 10
21556.04414269737
 20
19331.079432516159
 30
0.0
 11
21556.04414269737
 21
20724.40973121101
 31
0.0
  0
LINE
  5
2470
  8
SP
 10
24006.04414269737
 20
20253.033924506301
 30
0.0
 11
24006.04414269737
 21
20724.40973121101
 31
0.0
  0
LINE
  5
2471
  8
SP
 10
21636.04414269737
 20
20684.40973121101
 30
0.0
 11
23926.04414269737
 21
20684.40973121101
 31
0.0
  0
INSERT
  5
2472
  8
SP
  2
_OPEN
 10
21556.04414269737
 20
20684.40973121101
 30
0.0
 41
80.0
 42
80.0
 43
80.0
 50
180.0
  0
INSERT
  5
2473
  8
SP
  2
_OPEN
 10
24006.04414269737
 20
20684.40973121101
 30
0.0
 41
80.0
 42
80.0
 43
80.0
  0
TEXT
  5
2474
  8
FUTO
 10
22484.051453792388
 20
20755.838302639579
 30
0.0
 40
120.0
  1
(2450)
 51
15.0
  0
POINT
  5
2475
  8
DEFPOINTS
 62
     0
 10
21556.04414269737
 20
19291.079432516151
 30
0.0
  0
POINT
  5
2476
  8
DEFPOINTS
 62
     0
 10
24006.04414269737
 20
20213.033924506301
 30
0.0
  0
POINT
  5
2477
  8
DEFPOINTS
 62
     0
 10
24006.04414269737
 20
20684.40973121101
 30
0.0
  0
ENDBLK
  5
1423
  8
0
  0
BLOCK
  8
0
  2
*D4
 70
     1
 10
0.0
 20
0.0
 30
0.0
  3
*D4
  1

  0
LINE
  5
2492
  8
SP
 10
18965.468697737178
 20
24815.789663899061
 30
0.0
 11
18965.468697737178
 21
25074.668292209779
 31
0.0
  0
LINE
  5
2493
  8
SP
 10
20130.468697737178
 20
24550.794360726832
 30
0.0
 11
20130.468697737178
 21
25074.668292209779
 31
0.0
  0
LINE
  5
2494
  8
SP
 10
19045.468697737178
 20
25034.668292209779
 30
0.0
 11
20050.468697737178
 21
25034.668292209779
 31
0.0
  0
INSERT
  5
2495
  8
SP
  2
_OPEN
 10
18965.468697737178
 20
25034.668292209779
 30
0.0
 41
80.0
 42
80.0
 43
80.0
 50
180.0
  0
INSERT
  5
2496
  8
SP
  2
_OPEN
 10
20130.468697737178
 20
25034.668292209779
 30
0.0
 41
80.0
 42
80.0
 43
80.0
  0
TEXT
  5
2497
  8
FUTO
 10
19336.019928273228
 20
25054.668292209779
 30
0.0
 40
120.0
  1
1165
 51
15.0
  0
POINT
  5
2498
  8
DEFPOINTS
 62
     0
 10
18965.468697737178
 20
24775.789663899061
 30
0.0
  0
POINT
  5
2499
  8
DEFPOINTS
 62
     0
 10
20130.468697737178
 20
24510.794360726832
 30
0.0
  0
POINT
  5
249A
  8
DEFPOINTS
 62
     0
 10
20130.468697737178
 20
25034.668292209779
 30
0.0
  0
ENDBLK
  5
1915
  8
0
  0
BLOCK
  8
0
  2
*D5
 70
     1
 10
0.0
 20
0.0
 30
0.0
  3
*D5
  1

  0
LINE
  5
242A
  8
SP
 10
17025.468697737178
 20
23157.794360726832
 30
0.0
 11
17025.468697737178
 21
25074.668292209779
 31
0.0
  0
LINE
  5
242B
  8
SP
 10
18885.468697737178
 20
25034.668292209779
 30
0.0
 11
17105.468697737178
 21
25034.668292209779
 31
0.0
  0
INSERT
  5
242C
  8
SP
  2
_OPEN
 10
18965.468697737178
 20
25034.668292209779
 30
0.0
 41
80.0
 42
80.0
 43
80.0
  0
INSERT
  5
242D
  8
SP
  2
_OPEN
 10
17025.468697737178
 20
25034.668292209779
 30
0.0
 41
80.0
 42
80.0
 43
80.0
 50
180.0
  0
TEXT
  5
242E
  8
FUTO
 10
17772.296490472439
 20
25054.668292209779
 30
0.0
 40
120.0
  1
1940
 51
15.0
  0
POINT
  5
242F
  8
DEFPOINTS
 62
     0
 10
18965.468697737178
 20
25034.668292209779
 30
0.0
  0
POINT
  5
2430
  8
DEFPOINTS
 62
     0
 10
17025.468697737178
 20
23117.794360726832
 30
0.0
  0
POINT
  5
2431
  8
DEFPOINTS
 62
     0
 10
17025.468697737178
 20
25034.668292209779
 30
0.0
  0
ENDBLK
  5
1921
  8
0
  0
BLOCK
  8
0
  2
*D6
 70
     1
 10
0.0
 20
0.0
 30
0.0
  3
*D6
  1

  0
LINE
  5
249B
  8
SP
 10
19970.468697737178
 20
24576.794360726832
 30
0.0
 11
20590.454963227301
 21
24576.794360726832
 31
0.0
  0
LINE
  5
249C
  8
SP
 10
20577.703141446102
 20
23781.794360726832
 30
0.0
 11
20510.45496322729
 21
23781.794360726832
 31
0.0
  0
LINE
  5
249D
  8
SP
 10
20550.45496322729
 20
24496.794360726832
 30
0.0
 11
20550.45496322729
 21
23861.794360726832
 31
0.0
  0
INSERT
  5
249E
  8
SP
  2
_OPEN
 10
20550.454963227301
 20
24576.794360726832
 30
0.0
 41
80.0
 42
80.0
 43
80.0
 50
90.0
  0
INSERT
  5
249F
  8
SP
  2
_OPEN
 10
20550.45496322729
 20
23781.794360726832
 30
0.0
 41
80.0
 42
80.0
 43
80.0
 50
270.0
  0
TEXT
  5
24A0
  8
FUTO
 10
20530.45496322729
 20
24003.217409180968
 30
0.0
 40
120.0
  1
795
 50
90.0
 51
15.0
  0
POINT
  5
24A1
  8
DEFPOINTS
 62
     0
 10
19930.468697737178
 20
24576.794360726832
 30
0.0
  0
POINT
  5
24A2
  8
DEFPOINTS
 62
     0
 10
20617.703141446102
 20
23781.794360726832
 30
0.0
  0
POINT
  5
24A3
  8
DEFPOINTS
 62
     0
 10
20550.45496322729
 20
23781.794360726832
 30
0.0
  0
ENDBLK
  5
192F
  8
0
  0
BLOCK
  8
0
  2
*D7
 70
     1
 10
0.0
 20
0.0
 30
0.0
  3
*D7
  1

  0
LINE
  5
2478
  8
SP
 10
19385.468697737178
 20
21331.794360726832
 30
0.0
 11
20590.45496322729
 21
21331.794360726832
 31
0.0
  0
LINE
  5
2479
  8
SP
 10
20550.45496322729
 20
23701.794360726832
 30
0.0
 11
20550.45496322729
 21
21411.794360726832
 31
0.0
  0
INSERT
  5
247A
  8
SP
  2
_OPEN
 10
20550.45496322729
 20
23781.794360726832
 30
0.0
 41
80.0
 42
80.0
 43
80.0
 50
90.0
  0
INSERT
  5
247B
  8
SP
  2
_OPEN
 10
20550.45496322729
 20
21331.794360726832
 30
0.0
 41
80.0
 42
80.0
 43
80.0
 50
270.0
  0
TEXT
  5
247C
  8
FUTO
 10
20530.45496322729
 20
22335.208257094459
 30
0.0
 40
120.0
  1
2450
 50
90.0
 51
15.0
  0
POINT
  5
247D
  8
DEFPOINTS
 62
     0
 10
20550.45496322729
 20
23781.794360726832
 30
0.0
  0
POINT
  5
247E
  8
DEFPOINTS
 62
     0
 10
19345.468697737178
 20
21331.794360726832
 30
0.0
  0
POINT
  5
247F
  8
DEFPOINTS
 62
     0
 10
20550.45496322729
 20
21331.794360726832
 30
0.0
  0
ENDBLK
  5
193B
  8
0
  0
BLOCK
  8
0
  2
*D8
 70
     1
 10
0.0
 20
0.0
 30
0.0
  3
*D8
  1

  0
LINE
  5
2432
  8
SP
 10
20025.468697737178
 20
16722.70563251615
 30
0.0
 11
20025.468697737178
 21
15968.78370317722
 31
0.0
  0
LINE
  5
2433
  8
SP
 10
17025.468697737178
 20
16722.70563251615
 30
0.0
 11
17025.468697737178
 21
15968.78370317722
 31
0.0
  0
LINE
  5
2434
  8
SP
 10
19945.468697737178
 20
16008.78370317722
 30
0.0
 11
17105.468697737178
 21
16008.78370317722
 31
0.0
  0
INSERT
  5
2435
  8
SP
  2
_OPEN
 10
20025.468697737178
 20
16008.78370317722
 30
0.0
 41
80.0
 42
80.0
 43
80.0
  0
INSERT
  5
2436
  8
SP
  2
_OPEN
 10
17025.468697737178
 20
16008.78370317722
 30
0.0
 41
80.0
 42
80.0
 43
80.0
 50
180.0
  0
TEXT
  5
2437
  8
FUTO
 10
18300.82031761988
 20
16028.78370317722
 30
0.0
 40
120.0
  1
3000
 51
15.0
  0
POINT
  5
2438
  8
DEFPOINTS
 62
     0
 10
20025.468697737178
 20
16762.70563251615
 30
0.0
  0
POINT
  5
2439
  8
DEFPOINTS
 62
     0
 10
17025.468697737178
 20
16762.70563251615
 30
0.0
  0
POINT
  5
243A
  8
DEFPOINTS
 62
     0
 10
17025.468697737178
 20
16008.78370317722
 30
0.0
  0
ENDBLK
  5
1983
  8
0
  0
BLOCK
  8
0
  2
*D9
 70
     1
 10
0.0
 20
0.0
 30
0.0
  3
*D9
  1

  0
LINE
  5
24CF
  8
SP
 10
17025.468697737178
 20
16722.70563251615
 30
0.0
 11
17025.468697737178
 21
16287.49825379785
 31
0.0
  0
LINE
  5
24D0
  8
SP
 10
18885.468697737178
 20
16327.49825379785
 30
0.0
 11
17105.468697737178
 21
16327.49825379785
 31
0.0
  0
INSERT
  5
24D1
  8
SP
  2
_OPEN
 10
18965.468697737178
 20
16327.49825379785
 30
0.0
 41
80.0
 42
80.0
 43
80.0
  0
INSERT
  5
24D2
  8
SP
  2
_OPEN
 10
17025.468697737178
 20
16327.49825379785
 30
0.0
 41
80.0
 42
80.0
 43
80.0
 50
180.0
  0
TEXT
  8
0
  40
120
  5
24E4
  72
0
  71
0
 10
17755.5
 20
16195.1
 30
0.000000
  1
1940
  0
POINT
  5
24D4
  8
DEFPOINTS
 62
     0
 10
18965.468697737178
 20
16682.051457505939
 30
0.0
  0
POINT
  5
24D5
  8
DEFPOINTS
 62
     0
 10
17025.468697737178
 20
16762.70563251615
 30
0.0
  0
POINT
  5
24D6
  8
DEFPOINTS
 62
     0
 10
17025.468697737178
 20
16327.49825379785
 30
0.0
  0
ENDBLK
  5
198E
  8
0
  0
BLOCK
  8
0
  2
*D10
 70
     1
 10
0.0
 20
0.0
 30
0.0
  3
*D10
  1

  0
LINE
  5
245E
  8
SP
 10
20025.468697737178
 20
16722.70563251615
 30
0.0
 11
20025.468697737178
 21
16287.49825379785
 31
0.0
  0
LINE
  5
245F
  8
SP
 10
18965.468697737178
 20
16642.051457505939
 30
0.0
 11
18965.468697737178
 21
16287.49825379785
 31
0.0
  0
LINE
  5
2460
  8
SP
 10
19945.468697737178
 20
16327.49825379785
 30
0.0
 11
19045.468697737178
 21
16327.49825379785
 31
0.0
  0
INSERT
  5
2461
  8
SP
  2
_OPEN
 10
20025.468697737178
 20
16327.49825379785
 30
0.0
 41
80.0
 42
80.0
 43
80.0
  0
INSERT
  5
2462
  8
SP
  2
_OPEN
 10
18965.468697737178
 20
16327.49825379785
 30
0.0
 41
80.0
 42
80.0
 43
80.0
 50
180.0
  0
TEXT
  5
2463
  8
FUTO
 10
19272.296490472439
 20
16347.49825379785
 30
0.0
 40
120.0
  1
1060
 51
15.0
  0
POINT
  5
2464
  8
DEFPOINTS
 62
     0
 10
20025.468697737178
 20
16762.70563251615
 30
0.0
  0
POINT
  5
2465
  8
DEFPOINTS
 62
     0
 10
18965.468697737178
 20
16682.051457505939
 30
0.0
  0
POINT
  5
2466
  8
DEFPOINTS
 62
     0
 10
18965.468697737178
 20
16327.49825379785
 30
0.0
  0
ENDBLK
  5
199A
  8
0
  0
BLOCK
  8
0
  2
*D11
 70
     1
 10
0.0
 20
0.0
 30
0.0
  3
*D11
  1

  0
LINE
  5
2489
  8
SP
 10
20130.468697737178
 20
18916.512112959172
 30
0.0
 11
20130.468697737178
 21
20740.89744902169
 31
0.0
  0
LINE
  5
248A
  8
SP
 10
18965.468697737178
 20
20269.36497142346
 30
0.0
 11
18965.468697737178
 21
20740.89744902169
 31
0.0
  0
LINE
  5
248B
  8
SP
 10
20050.468697737178
 20
20700.89744902169
 30
0.0
 11
19045.468697737178
 21
20700.89744902169
 31
0.0
  0
INSERT
  5
248C
  8
SP
  2
_OPEN
 10
20130.468697737178
 20
20700.89744902169
 30
0.0
 41
80.0
 42
80.0
 43
80.0
  0
INSERT
  5
248D
  8
SP
  2
_OPEN
 10
18965.468697737178
 20
20700.89744902169
 30
0.0
 41
80.0
 42
80.0
 43
80.0
 50
180.0
  0
TEXT
  5
248E
  8
FUTO
 10
19336.019928273228
 20
20720.897449021679
 30
0.0
 40
120.0
  1
1165
 51
15.0
  0
POINT
  5
248F
  8
DEFPOINTS
 62
     0
 10
20130.468697737178
 20
18876.512112959172
 30
0.0
  0
POINT
  5
2490
  8
DEFPOINTS
 62
     0
 10
18965.468697737178
 20
20229.36497142346
 30
0.0
  0
POINT
  5
2491
  8
DEFPOINTS
 62
     0
 10
18965.468697737178
 20
20700.89744902169
 30
0.0
  0
ENDBLK
  5
19AE
  8
0
  0
BLOCK
  8
0
  2
*D12
 70
     1
 10
0.0
 20
0.0
 30
0.0
  3
*D12
  1

  0
LINE
  5
244C
  8
SP
 10
21895.04414269737
 20
16722.70561591017
 30
0.0
 11
21895.04414269737
 21
15983.18745818093
 31
0.0
  0
LINE
  5
244D
  8
SP
 10
24745.04414269737
 20
16722.70561591017
 30
0.0
 11
24745.04414269737
 21
15983.18745818093
 31
0.0
  0
LINE
  5
244E
  8
SP
 10
21975.04414269737
 20
16023.18745818093
 30
0.0
 11
24665.04414269737
 21
16023.18745818093
 31
0.0
  0
INSERT
  5
244F
  8
SP
  2
_OPEN
 10
21895.04414269737
 20
16023.18745818093
 30
0.0
 41
80.0
 42
80.0
 43
80.0
 50
180.0
  0
INSERT
  5
2450
  8
SP
  2
_OPEN
 10
24745.04414269737
 20
16023.18745818093
 30
0.0
 41
80.0
 42
80.0
 43
80.0
  0
TEXT
  5
2451
  8
FUTO
 10
23098.458039065001
 20
16043.18745818093
 30
0.0
 40
120.0
  1
2850
 51
15.0
  0
POINT
  5
2452
  8
DEFPOINTS
 62
     0
 10
21895.04414269737
 20
16762.70561591017
 30
0.0
  0
POINT
  5
2453
  8
DEFPOINTS
 62
     0
 10
24745.04414269737
 20
16762.70561591017
 30
0.0
  0
POINT
  5
2454
  8
DEFPOINTS
 62
     0
 10
24745.04414269737
 20
16023.18745818093
 30
0.0
  0
ENDBLK
  5
1A36
  8
0
  0
BLOCK
  8
0
  2
*D13
 70
     1
 10
0.0
 20
0.0
 30
0.0
  3
*D13
  1

  0
LINE
  5
2455
  8
SP
 10
21895.04414269737
 20
16722.70561591017
 30
0.0
 11
21895.04414269737
 21
16283.225003145861
 31
0.0
  0
LINE
  5
2456
  8
SP
 10
24006.04414269737
 20
16701.778563916239
 30
0.0
 11
24006.04414269737
 21
16283.225003145861
 31
0.0
  0
LINE
  5
2457
  8
SP
 10
21975.04414269737
 20
16323.225003145861
 30
0.0
 11
23926.04414269737
 21
16323.225003145861
 31
0.0
  0
INSERT
  5
2458
  8
SP
  2
_OPEN
 10
21895.04414269737
 20
16323.225003145861
 30
0.0
 41
80.0
 42
80.0
 43
80.0
 50
180.0
  0
INSERT
  5
2459
  8
SP
  2
_OPEN
 10
24006.04414269737
 20
16323.225003145861
 30
0.0
 41
80.0
 42
80.0
 43
80.0
  0
TEXT
  5
245A
  8
FUTO
 10
22771.610048294351
 20
16343.225003145861
 30
0.0
 40
120.0
  1
2111
 51
15.0
  0
POINT
  5
245B
  8
DEFPOINTS
 62
     0
 10
21895.04414269737
 20
16762.70561591017
 30
0.0
  0
POINT
  5
245C
  8
DEFPOINTS
 62
     0
 10
24006.04414269737
 20
16741.778563916239
 30
0.0
  0
POINT
  5
245D
  8
DEFPOINTS
 62
     0
 10
24006.04414269737
 20
16323.225003145861
 30
0.0
  0
ENDBLK
  5
1A42
  8
0
  0
BLOCK
  8
0
  2
*D14
 70
     1
 10
0.0
 20
0.0
 30
0.0
  3
*D14
  1

  0
LINE
  5
24D7
  8
SP
 10
24745.04414269737
 20
16722.70561591017
 30
0.0
 11
24745.04414269737
 21
16283.225003145861
 31
0.0
  0
LINE
  5
24D8
  8
SP
 10
24086.04414269737
 20
16323.225003145861
 30
0.0
 11
24665.04414269737
 21
16323.225003145861
 31
0.0
  0
INSERT
  5
24D9
  8
SP
  2
_OPEN
 10
24006.04414269737
 20
16323.225003145861
 30
0.0
 41
80.0
 42
80.0
 43
80.0
 50
180.0
  0
INSERT
  5
24DA
  8
SP
  2
_OPEN
 10
24745.04414269737
 20
16323.225003145861
 30
0.0
 41
80.0
 42
80.0
 43
80.0
  0
TEXT
  8
0
  40
120
  5
24E5
  72
0
  71
0
 10
24135.5
 20
16190.8
 30
0.000000
  1
739
  0
POINT
  5
24DC
  8
DEFPOINTS
 62
     0
 10
24006.04414269737
 20
16741.778563916239
 30
0.0
  0
POINT
  5
24DD
  8
DEFPOINTS
 62
     0
 10
24745.04414269737
 20
16762.70561591017
 30
0.0
  0
POINT
  5
24DE
  8
DEFPOINTS
 62
     0
 10
24745.04414269737
 20
16323.225003145861
 30
0.0
  0
ENDBLK
  5
1A4D
  8
0
  0
BLOCK
  8
0
  2
*D15
 70
     1
 10
0.0
 20
0.0
 30
0.0
  3
*D15
  1

  0
LINE
  5
24B0
  8
SP
 10
24006.04414269737
 20
20676.352070575402
 30
0.0
 11
24006.04414269737
 21
20644.40973121101
 31
0.0
  0
LINE
  5
24B1
  8
SP
 10
24801.04414269737
 20
19916.079432516159
 30
0.0
 11
24801.04414269737
 21
20724.40973121101
 31
0.0
  0
LINE
  5
24B2
  8
SP
 10
24086.04414269737
 20
20684.40973121101
 30
0.0
 11
24721.04414269737
 21
20684.40973121101
 31
0.0
  0
INSERT
  5
24B3
  8
SP
  2
_OPEN
 10
24006.04414269737
 20
20684.40973121101
 30
0.0
 41
80.0
 42
80.0
 43
80.0
 50
180.0
  0
INSERT
  5
24B4
  8
SP
  2
_OPEN
 10
24801.04414269737
 20
20684.40973121101
 30
0.0
 41
80.0
 42
80.0
 43
80.0
  0
TEXT
  5
24B5
  8
FUTO
 10
24158.8295661956
 20
20704.40973121101
 30
0.0
 40
120.0
  1
795
 51
15.0
  0
POINT
  5
24B6
  8
DEFPOINTS
 62
     0
 10
24006.04414269737
 20
20716.352070575402
 30
0.0
  0
POINT
  5
24B7
  8
DEFPOINTS
 62
     0
 10
24801.04414269737
 20
19876.079432516159
 30
0.0
  0
POINT
  5
24B8
  8
DEFPOINTS
 62
     0
 10
24801.04414269737
 20
20684.40973121101
 30
0.0
  0
ENDBLK
  5
1A85
  8
0
  0
BLOCK
  8
0
  2
*D16
 70
     1
 10
0.0
 20
0.0
 30
0.0
  3
*D16
  1

  0
LINE
  5
2443
  8
SP
 10
20065.468697737178
 20
16762.70563251615
 30
0.0
 11
20714.877786942769
 21
16762.70563251615
 31
0.0
  0
LINE
  5
2444
  8
SP
 10
20550.822696781281
 20
18912.70563251615
 30
0.0
 11
20714.877786942769
 21
18912.70563251615
 31
0.0
  0
LINE
  5
2445
  8
SP
 10
20674.877786942769
 20
16842.70563251615
 30
0.0
 11
20674.877786942769
 21
18832.70563251615
 31
0.0
  0
INSERT
  5
2446
  8
SP
  2
_OPEN
 10
20674.877786942769
 20
16762.70563251615
 30
0.0
 41
80.0
 42
80.0
 43
80.0
 50
270.0
  0
INSERT
  5
2447
  8
SP
  2
_OPEN
 10
20674.877786942769
 20
18912.70563251615
 30
0.0
 41
80.0
 42
80.0
 43
80.0
 50
90.0
  0
TEXT
  5
2448
  8
FUTO
 10
20654.877786942769
 20
17627.54810031236
 30
0.0
 40
120.0
  1
2150
 50
90.0
 51
15.0
  0
POINT
  5
2449
  8
DEFPOINTS
 62
     0
 10
20025.468697737178
 20
16762.70563251615
 30
0.0
  0
POINT
  5
244A
  8
DEFPOINTS
 62
     0
 10
20510.822696781281
 20
18912.70563251615
 30
0.0
  0
POINT
  5
244B
  8
DEFPOINTS
 62
     0
 10
20674.877786942769
 20
18912.70563251615
 30
0.0
  0
ENDBLK
  5
1A9B
  8
0
  0
BLOCK
  8
0
  2
*D17
 70
     1
 10
0.0
 20
0.0
 30
0.0
  3
*D17
  1

  0
LINE
  5
2480
  8
SP
 10
19113.2804015004
 20
20204.705632516161
 30
0.0
 11
20714.877786942769
 21
20204.705632516161
 31
0.0
  0
LINE
  5
2481
  8
SP
 10
20550.822696781281
 20
18912.70563251615
 30
0.0
 11
20714.877786942769
 21
18912.70563251615
 31
0.0
  0
LINE
  5
2482
  8
SP
 10
20674.877786942769
 20
20124.70563251615
 30
0.0
 11
20674.877786942769
 21
18992.70563251615
 31
0.0
  0
INSERT
  5
2483
  8
SP
  2
_OPEN
 10
20674.877786942769
 20
20204.705632516161
 30
0.0
 41
80.0
 42
80.0
 43
80.0
 50
90.0
  0
INSERT
  5
2484
  8
SP
  2
_OPEN
 10
20674.877786942769
 20
18912.70563251615
 30
0.0
 41
80.0
 42
80.0
 43
80.0
 50
270.0
  0
TEXT
  5
2485
  8
FUTO
 10
20654.877786942769
 20
19335.533425251419
 30
0.0
 40
120.0
  1
1292
 50
90.0
 51
15.0
  0
POINT
  5
2486
  8
DEFPOINTS
 62
     0
 10
19073.2804015004
 20
20204.705632516161
 30
0.0
  0
POINT
  5
2487
  8
DEFPOINTS
 62
     0
 10
20510.822696781281
 20
18912.70563251615
 30
0.0
  0
POINT
  5
2488
  8
DEFPOINTS
 62
     0
 10
20674.877786942769
 20
18912.70563251615
 30
0.0
  0
ENDBLK
  5
1AB2
  8
0
  0
BLOCK
  8
0
  2
*D18
 70
     1
 10
0.0
 20
0.0
 30
0.0
  3
*D18
  1

  0
LINE
  5
24A5
  8
SP
 10
24841.04414269737
 20
19811.079432516151
 30
0.0
 11
25421.052284909099
 21
19811.079432516151
 31
0.0
  0
LINE
  5
24A6
  8
SP
 10
24841.04414269737
 20
18011.079432516151
 30
0.0
 11
25421.052284909099
 21
18011.079432516151
 31
0.0
  0
LINE
  5
24A7
  8
SP
 10
25381.052284909099
 20
19731.079432516151
 30
0.0
 11
25381.052284909099
 21
18091.079432516159
 31
0.0
  0
INSERT
  5
24A8
  8
SP
  2
_OPEN
 10
25381.052284909099
 20
19811.079432516151
 30
0.0
 41
80.0
 42
80.0
 43
80.0
 50
90.0
  0
INSERT
  5
24A9
  8
SP
  2
_OPEN
 10
25381.052284909099
 20
18011.079432516151
 30
0.0
 41
80.0
 42
80.0
 43
80.0
 50
270.0
  0
INSERT
  5
24AA
  8
FUTO
  2
*U19
 10
0.0
 20
0.0
 30
0.0
  0
POINT
  5
24AB
  8
DEFPOINTS
 62
     0
 10
24801.04414269737
 20
19811.079432516151
 30
0.0
  0
POINT
  5
24AC
  8
DEFPOINTS
 62
     0
 10
24801.04414269737
 20
18011.079432516151
 30
0.0
  0
POINT
  5
24AD
  8
DEFPOINTS
 62
     0
 10
25381.052284909099
 20
18011.079432516151
 30
0.0
  0
ENDBLK
  5
24AF
  8
0
  0
BLOCK
  8
0
  2
*U19
 70
     1
 10
0.0
 20
0.0
 30
0.0
  3
*U19
  1

  0
TEXT
  5
24E0
  8
FUTO
 10
25361.052284909088
 20
18614.07201567935
 30
0.0
 40
120.0
  1
\U+2205
 50
90.0
 51
15.0
  0
TEXT
  5
24E1
  8
FUTO
 10
25361.052284909088
 20
18722.643444250782
 30
0.0
 40
120.0
  1
1800
 50
90.0
 51
15.0
  0
ENDBLK
  5
24E3
  8
0
  0
ENDSEC
  0
SECTION
  2
ENTITIES
  0
INSERT
  5
89
  8
FUTO
  2
まっすぐの矢印
 10
20416.13030840232
 20
17346.263335855809
 30
0.0
 41
2.0
 42
2.0
 43
2.0
 50
270.0
  0
LINE
  5
AF
  8
CT
 10
18965.468697737178
 20
18912.70563251615
 30
0.0
 11
20137.004193218309
 21
19016.648635365451
 31
0.0
  0
LINE
  5
B2
  8
CT
 10
20510.822696781281
 20
18912.70563251615
 30
0.0
 11
17050.840591227079
 21
18912.70563251615
 31
0.0
  0
LINE
  5
104
  8
CT
 10
18965.468697737178
 20
20229.36497142346
 30
0.0
 11
18965.468697737178
 21
16491.153362728539
 31
0.0
  0
ARC
  5
10E
  8
FUTO
 10
17465.468697737178
 20
17262.70563251615
 30
0.0
 40
280.0
 50
142.87206734797689
 51
312.58055463983533
  0
ARC
  5
111
  8
FUTO
 10
17465.468697737178
 20
17262.70563251615
 30
0.0
 40
310.0
 50
300.10230806831191
 51
239.897691931688
  0
LINE
  5
112
  8
CT
 10
17465.468697737178
 20
17927.471518442471
 30
0.0
 11
17465.468697737178
 21
16940.41431625501
 31
0.0
  0
LINE
  5
115
  8
FUTO
 10
20006.468697737178
 20
18921.70563251615
 30
0.0
 11
20006.468697737178
 21
19366.207090239001
 31
0.0
  0
LINE
  5
116
  8
FUTO
 10
20015.468697737178
 20
18921.705632516161
 30
0.0
 11
20015.468697737178
 21
19334.40010547479
 31
0.0
  0
LINE
  5
117
  8
FUTO
 10
17915.468697737178
 20
18921.70563251615
 30
0.0
 11
17915.468697737178
 21
18750.155394402202
 31
0.0
  0
LINE
  5
118
  8
FUTO
 10
17924.468697737178
 20
18921.70563251615
 30
0.0
 11
17924.468697737178
 21
18756.61227591474
 31
0.0
  0
LINE
  5
119
  8
CT
 10
17465.468697737178
 20
16976.204369516148
 30
0.0
 11
17465.468697737178
 21
17560.47604851615
 31
0.0
  0
ARC
  5
122
  8
FUTO
 10
18854.968697737178
 20
19023.20563251615
 30
0.0
 40
1201.5
 50
352.27518828965918
 51
84.72314371307364
  0
ARC
  5
123
  8
KL
 10
18854.968697737178
 20
19023.20563251615
 30
0.0
 40
1181.4999999999991
 50
0.000000000000007
 51
90.994178943672054
  0
ARC
  5
124
  8
KL
 10
18834.468697737178
 20
18781.70563251615
 30
0.0
 40
1423.0
 50
89.999999999999986
 51
174.73663459410341
  0
DIMENSION
  5
13A
  8
SP
  2
*D9
 10
17025.468697737178
 20
16327.49825379785
 30
0.0
 11
17995.468697737178
 21
16407.49825379785
 31
0.0
 70
     0
 13
18965.468697737178
 23
16682.051457505939
 33
0.0
 14
17025.468697737178
 24
16762.70563251615
 34
0.0
1001
ACAD
1000
DSTYLE
1002
{
1070
   287
1070
     4
1070
    40
1040
40.0
1070
    75
1070
     1
1070
   279
1070
     1
1070
   289
1070
     3
1002
}
  0
DIMENSION
  5
14A
  8
SP
  2
*D8
 10
17025.468697737178
 20
16008.78370317722
 30
0.0
 11
18525.468697737178
 21
16088.78370317722
 31
0.0
 70
     0
 13
20025.468697737178
 23
16762.70563251615
 33
0.0
 14
17025.468697737178
 24
16762.70563251615
 34
0.0
1001
ACAD
1000
DSTYLE
1002
{
1070
    40
1040
40.0
1002
}
  0
LINE
  5
157
  8
FUTO
 10
20025.468697737178
 20
16900.70563251615
 30
0.0
 11
17025.468697737178
 21
16900.70563251615
 31
0.0
  0
LINE
  5
158
  8
FUTO
 10
20025.468697737178
 20
16774.70563251615
 30
0.0
 11
17025.468697737178
 21
16774.70563251615
 31
0.0
  0
LINE
  5
159
  8
FUTO
 10
20025.468697737178
 20
16912.70563251615
 30
0.0
 11
17025.468697737178
 21
16912.70563251615
 31
0.0
  0
LINE
  5
15A
  8
FUTO
 10
20025.468697737178
 20
16762.70563251615
 30
0.0
 11
17025.468697737178
 21
16762.70563251615
 31
0.0
1001
ACAD
1000
ASC_BOUNDS
1002
{
1070
    19
1005
0
1002
}
  0
LINE
  5
15B
  8
FUTO
 10
17745.468697737178
 20
17012.70563251615
 30
0.0
 11
17648.771725535411
 21
17012.70563251615
 31
0.0
  0
LINE
  5
15C
  8
FUTO
 10
17745.468697737178
 20
16982.70563251615
 30
0.0
 11
17635.468697737178
 21
16982.70563251615
 31
0.0
  0
LINE
  5
15D
  8
FUTO
 10
17565.468697737178
 20
16982.70563251615
 30
0.0
 11
17780.468697737178
 21
16982.70563251615
 31
0.0
  0
LINE
  5
15E
  8
FUTO
 10
17790.468697737178
 20
16912.70563251615
 30
0.0
 11
17565.468697737178
 21
16912.70563251615
 31
0.0
  0
LINE
  5
15F
  8
CT
 10
17802.92766192694
 20
17262.70563251615
 30
0.0
 11
17122.19147554415
 21
17262.70563251615
 31
0.0
  0
LINE
  5
175
  8
FUTO
 10
17150.468697737178
 20
16982.70563251615
 30
0.0
 11
17365.468697737178
 21
16982.70563251615
 31
0.0
  0
LINE
  5
176
  8
FUTO
 10
17365.468697737178
 20
16912.70563251615
 30
0.0
 11
17140.468697737178
 21
16912.70563251615
 31
0.0
  0
CIRCLE
  5
177
  8
SL
 10
17465.468697737178
 20
17262.70563251615
 30
0.0
 40
200.0
  0
LINE
  5
178
  8
FUTO
 10
17185.468697737178
 20
17129.664285559611
 30
0.0
 11
17185.468697737178
 21
16982.70563251615
 31
0.0
  0
LINE
  5
179
  8
FUTO
 10
17025.468697737178
 20
16912.70563251615
 30
0.0
 11
17025.468697737178
 21
16762.70563251615
 31
0.0
  0
LINE
  5
17B
  8
CT
 10
17236.968697737178
 20
17027.875081005801
 30
0.0
 11
17236.968697737178
 21
16940.41431625501
 31
0.0
  0
LINE
  5
17C
  8
FUTO
 10
17282.16566993895
 20
17012.70563251615
 30
0.0
 11
17185.468697737178
 21
17012.70563251615
 31
0.0
  0
LINE
  5
17D
  8
FUTO
 10
17295.468697737178
 20
17003.476004579839
 30
0.0
 11
17295.468697737178
 21
16982.70563251615
 31
0.0
  0
LINE
  5
17E
  8
FUTO
 10
17295.468697737178
 20
16982.70563251615
 30
0.0
 11
17185.468697737178
 21
16982.70563251615
 31
0.0
  0
LINE
  5
17F
  8
FUTO
 10
17140.468697737178
 20
16912.70563251615
 30
0.0
 11
17150.468697737178
 21
16982.70563251615
 31
0.0
  0
LINE
  5
180
  8
CT
 10
17465.468697737178
 20
16771.287247327691
 30
0.0
 11
17465.468697737178
 21
17436.80364671276
 31
0.0
  0
LINE
  5
181
  8
FUTO
 10
17620.947830012788
 20
16994.514955148679
 30
0.0
 11
17309.989565461568
 21
16994.514955148679
 31
0.0
  0
LINE
  5
182
  8
FUTO
 10
17365.468697737178
 20
16972.70563251615
 30
0.0
 11
17565.468697737178
 21
16972.70563251615
 31
0.0
  0
LINE
  5
183
  8
FUTO
 10
17365.468697737178
 20
16922.70563251615
 30
0.0
 11
17565.468697737178
 21
16922.70563251615
 31
0.0
  0
LINE
  5
184
  8
FUTO
 10
17365.468697737178
 20
16972.70563251615
 30
0.0
 11
17365.468697737178
 21
16982.70563251615
 31
0.0
  0
LINE
  5
185
  8
FUTO
 10
17365.468697737178
 20
16912.70563251615
 30
0.0
 11
17365.468697737178
 21
16922.70563251615
 31
0.0
  0
LINE
  5
186
  8
CT
 10
17693.968697737178
 20
17027.875081005801
 30
0.0
 11
17693.968697737178
 21
16936.249517933549
 31
0.0
  0
LINE
  5
187
  8
FUTO
 10
17635.468697737178
 20
17003.476004579839
 30
0.0
 11
17635.468697737178
 21
16982.70563251615
 31
0.0
  0
LINE
  5
188
  8
FUTO
 10
17565.468697737178
 20
16972.70563251615
 30
0.0
 11
17565.468697737178
 21
16982.70563251615
 31
0.0
  0
LINE
  5
189
  8
FUTO
 10
17708.468697737178
 20
16982.70563251615
 30
0.0
 11
17608.468697737178
 21
16982.70563251615
 31
0.0
  0
LINE
  5
18A
  8
FUTO
 10
17565.468697737178
 20
16912.70563251615
 30
0.0
 11
17565.468697737178
 21
16922.70563251615
 31
0.0
  0
ARC
  5
1A4
  8
FUTO
 10
18834.468697737178
 20
18781.70563251615
 30
0.0
 40
1443.0
 50
84.791340681045625
 51
130.93164026379389
  0
LINE
  5
1A7
  8
FUTO
 10
17745.468697737178
 20
17129.664285559618
 30
0.0
 11
17745.468697737178
 21
16982.70563251615
 31
0.0
  0
LINE
  5
1A8
  8
KL
 10
17922.358495849221
 20
17574.05643347765
 30
0.0
 11
17880.361899982301
 21
17524.407800944999
 31
0.0
  0
LINE
  5
1A9
  8
KL
 10
17908.615661281681
 20
17585.68116994989
 30
0.0
 11
17866.61906541475
 21
17536.032537417239
 31
0.0
  0
LINE
  5
1AA
  8
KL
 10
17915.468697737178
 20
17579.847071786138
 30
0.0
 11
17873.490482698529
 21
17530.220169181121
 31
0.0
  0
LINE
  5
1AB
  8
FUTO
 10
17780.468697737178
 20
16982.70563251615
 30
0.0
 11
17790.468697737178
 21
16912.70563251615
 31
0.0
  0
LINE
  5
1AC
  8
KL
 10
17880.361899982308
 20
17524.407800944991
 30
0.0
 11
17866.61906541475
 21
17536.032537417239
 31
0.0
  0
LINE
  5
1AE
  8
KL
 10
18340.468697737178
 20
16912.70563251615
 30
0.0
 11
18340.468697737178
 21
16762.70563251615
 31
0.0
  0
LINE
  5
1AF
  8
FUTO
 10
18274.468697737178
 20
16912.70563251615
 30
0.0
 11
18274.468697737178
 21
16762.70563251615
 31
0.0
  0
LINE
  5
1B0
  8
FUTO
 10
18256.468697737178
 20
16912.70563251615
 30
0.0
 11
18256.468697737178
 21
16762.70563251615
 31
0.0
  0
LINE
  5
1B1
  8
FUTO
 10
18265.468697737178
 20
16912.70563251615
 30
0.0
 11
18265.468697737178
 21
16762.70563251615
 31
0.0
  0
LINE
  5
1B2
  8
KL
 10
18265.468697737178
 20
16926.870527054569
 30
0.0
 11
18265.468697737178
 21
16762.70563251615
 31
0.0
  0
DIMENSION
  5
1B3
  8
SP
  2
*D10
 10
18965.468697737178
 20
16327.49825379785
 30
0.0
 11
19495.468697737178
 21
16407.49825379785
 31
0.0
 70
     0
 13
20025.468697737178
 23
16762.70563251615
 33
0.0
 14
18965.468697737178
 24
16682.051457505939
 34
0.0
1001
ACAD
1000
DSTYLE
1002
{
1070
    40
1040
40.0
1002
}
  0
LINE
  5
1EC
  8
KL
 10
19590.468697737178
 20
16912.70563251615
 30
0.0
 11
19590.468697737178
 21
16762.70563251615
 31
0.0
  0
LINE
  5
1ED
  8
FUTO
 10
19665.468697737178
 20
16912.70563251615
 30
0.0
 11
19665.468697737178
 21
16762.70563251615
 31
0.0
  0
LINE
  5
1EE
  8
KL
 10
19665.468697737178
 20
16926.870527054569
 30
0.0
 11
19665.468697737178
 21
16762.70563251615
 31
0.0
  0
LINE
  5
1EF
  8
FUTO
 10
20025.468697737178
 20
16912.70563251615
 30
0.0
 11
20025.468697737178
 21
16762.70563251615
 31
0.0
  0
LINE
  5
1F0
  8
FUTO
 10
17276.58878329234
 20
23042.794360726832
 30
0.0
 11
17276.58878329234
 21
22890.794360726832
 31
0.0
  0
LINE
  5
1F1
  8
FUTO
 10
17025.468697737178
 20
23117.794360726832
 30
0.0
 11
17025.468697737178
 21
23042.794360726832
 31
0.0
  0
LINE
  5
1F2
  8
CT
 10
17465.468697737178
 20
22968.16624928495
 30
0.0
 11
17465.468697737178
 21
21424.699537680179
 31
0.0
  0
LINE
  5
1F3
  8
FUTO
 10
18265.468697737178
 20
23042.794360726832
 30
0.0
 11
18265.468697737178
 21
21670.794360726832
 31
0.0
  0
LINE
  5
1F4
  8
FUTO
 10
18340.468697737178
 20
23042.794360726832
 30
0.0
 11
18340.468697737178
 21
21745.794360726832
 31
0.0
  0
LINE
  5
1F5
  8
FUTO
 10
19590.468697737178
 20
23042.794360726832
 30
0.0
 11
19590.468697737178
 21
21745.794360726832
 31
0.0
  0
LINE
  5
1F6
  8
FUTO
 10
19665.468697737178
 20
23042.794360726832
 30
0.0
 11
19665.468697737178
 21
21670.794360726832
 31
0.0
  0
DIMENSION
  5
253
  8
SP
  2
*D11
 10
18965.468697737178
 20
20700.89744902169
 30
0.0
 11
19547.968697737178
 21
20780.89744902169
 31
0.0
 70
     0
 13
20130.468697737178
 23
18876.512112959172
 33
0.0
 14
18965.468697737178
 24
20229.36497142346
 34
0.0
1001
ACAD
1000
DSTYLE
1002
{
1070
    40
1040
40.0
1002
}
  0
ARC
  5
263
  8
FUTO
 10
18965.468697737178
 20
18912.70563251615
 30
0.0
 40
480.0
 50
312.58055463983533
 51
142.87206734797709
  0
LINE
  5
265
  8
FUTO
 10
18665.468697737178
 20
18790.70563251615
 30
0.0
 11
18623.420271913139
 21
18790.705632516161
 31
0.0
  0
LINE
  5
267
  8
FUTO
 10
17367.468697737178
 20
18903.70563251615
 30
0.0
 11
18129.49649743304
 21
18903.705632516161
 31
0.0
  0
LINE
  5
268
  8
FUTO
 10
17367.468697737178
 20
18921.70563251615
 30
0.0
 11
18154.586008474151
 21
18921.70563251615
 31
0.0
  0
ARC
  5
269
  8
FUTO
 10
19096.468697737178
 20
18781.70563251615
 30
0.0
 40
1705.0
 50
232.5407366052483
 51
243.25815117692221
  0
ARC
  5
26A
  8
KL
 10
19096.468697737178
 20
18781.70563251615
 30
0.0
 40
1685.0
 50
184.83662323419401
 51
264.6120591389967
  0
LINE
  5
26D
  8
FUTO
 10
17924.468697737178
 20
19901.593573338811
 30
0.0
 11
17924.468697737178
 21
18912.70563251615
 31
0.0
  0
LINE
  5
26E
  8
FUTO
 10
17915.468697737178
 20
19894.21990208756
 30
0.0
 11
17915.468697737178
 21
18912.70563251615
 31
0.0
  0
LINE
  5
26F
  8
KL
 10
17417.468697737178
 20
18912.242983492801
 30
0.0
 11
17417.468697737178
 21
18639.63522743473
 31
0.0
  0
LINE
  5
272
  8
CT
 10
17363.762283112908
 20
17712.70563251615
 30
0.0
 11
17209.46534559322
 21
17712.70563251615
 31
0.0
  0
LINE
  5
273
  8
FUTO
 10
17675.468697737178
 20
17852.70563251615
 30
0.0
 11
17285.468697737178
 21
17852.70563251615
 31
0.0
  0
LINE
  5
274
  8
FUTO
 10
17675.468697737178
 20
17587.70563251615
 30
0.0
 11
17285.468697737178
 21
17587.70563251615
 31
0.0
  0
ARC
  5
275
  8
FUTO
 10
17285.468697737178
 20
17832.70563251615
 30
0.0
 40
20.0
 50
90.0
 51
180.0
  0
ARC
  5
276
  8
FUTO
 10
17285.468697737178
 20
17607.70563251615
 30
0.0
 40
20.0
 50
180.0
 51
270.0
  0
LINE
  5
277
  8
FUTO
 10
17265.468697737178
 20
17832.70563251615
 30
0.0
 11
17265.468697737178
 21
17607.70563251615
 31
0.0
  0
ARC
  5
279
  8
FUTO
 10
17675.468697737178
 20
17832.70563251615
 30
0.0
 40
20.0
 50
0.000000000000007
 51
90.0
  0
LINE
  5
27A
  8
KL
 10
17502.801373675771
 20
18169.421841393982
 30
0.0
 11
17466.4881357091
 21
18152.48870043772
 31
0.0
  0
LINE
  5
27B
  8
CT
 10
17565.83422033348
 20
18127.09497577322
 30
0.0
 11
17458.887937097421
 21
18077.225104889028
 31
0.0
  0
LINE
  5
27C
  8
KL
 10
17453.198875221318
 20
18157.32559569068
 30
0.0
 11
17516.59161448243
 21
18021.37942763518
 31
0.0
  0
LINE
  5
27D
  8
KL
 10
17466.4881357091
 20
18152.48870043772
 30
0.0
 11
17521.42850973539
 21
18034.668688122951
 31
0.0
  0
LINE
  5
27E
  8
KL
 10
17498.575191058371
 20
18178.484919264349
 30
0.0
 11
17453.198875221329
 21
18157.32559569068
 31
0.0
  0
LINE
  5
27F
  8
KL
 10
17561.967930319472
 20
18042.538751208849
 30
0.0
 11
17516.59161448243
 21
18021.37942763518
 31
0.0
  0
LINE
  5
280
  8
KL
 10
17557.741747702061
 20
18051.60182907922
 30
0.0
 11
17521.42850973539
 21
18034.668688122951
 31
0.0
  0
ARC
  5
281
  8
FUTO
 10
17675.468697737178
 20
17607.70563251615
 30
0.0
 40
20.0
 50
270.0
 51
0.000000000000007
  0
LINE
  5
282
  8
FUTO
 10
17695.468697737178
 20
17832.70563251615
 30
0.0
 11
17695.468697737178
 21
17607.70563251615
 31
0.0
  0
LINE
  5
283
  8
FUTO
 10
17367.468697737178
 20
18921.70563251615
 30
0.0
 11
17367.468697737178
 21
18903.70563251615
 31
0.0
  0
ARC
  5
284
  8
FUTO
 10
18834.468697737178
 20
18781.70563251615
 30
0.0
 40
1443.0
 50
129.55864164540509
 51
174.4323999614779
  0
LINE
  5
285
  8
FUTO
 10
20065.468697737178
 20
18910.70563251615
 30
0.0
 11
20065.468697737178
 21
16922.705632516161
 31
0.0
  0
LINE
  5
286
  8
FUTO
 10
20130.468697737178
 20
18698.145860483819
 30
0.0
 11
20130.468697737178
 21
17670.74369173903
 31
0.0
  0
LINE
  5
287
  8
FUTO
 10
20130.468697737178
 20
18698.145860483819
 30
0.0
 11
20130.468697737178
 21
16922.705632516161
 31
0.0
  0
LINE
  5
288
  8
FUTO
 10
20124.468697737178
 20
18699.203822368068
 30
0.0
 11
20124.468697737178
 21
17664.74369173903
 31
0.0
  0
LINE
  5
289
  8
FUTO
 10
20006.468697737178
 20
16912.70563251615
 30
0.0
 11
20006.468697737178
 21
18903.70563251615
 31
0.0
  0
LINE
  5
28A
  8
FUTO
 10
20015.468697737178
 20
16912.70563251615
 30
0.0
 11
20015.468697737178
 21
18903.70563251615
 31
0.0
  0
LINE
  5
291
  8
KL
 10
19163.68951197448
 20
18939.323461186079
 30
0.0
 11
19442.712212572271
 21
18964.073205437639
 31
0.0
  0
LINE
  5
292
  8
KL
 10
19165.279895478288
 20
18921.39385772391
 30
0.0
 11
19444.30259607609
 21
18946.143601975458
 31
0.0
  0
CIRCLE
  5
295
  8
SL
 10
18965.468697737178
 20
18912.70563251615
 30
0.0
 40
355.0
  0
ARC
  5
296
  8
FUTO
 10
19017.468697737178
 20
19002.772274509742
 30
0.0
 40
15.000000000000099
 50
325.86450299682889
 51
154.1354970031779
  0
ARC
  5
297
  8
FUTO
 10
18965.468697737178
 20
18912.70563251615
 30
0.0
 40
103.9999999999995
 50
68.270994006339905
 51
111.72900599366061
  0
LINE
  5
298
  8
CT
 10
18965.468697737178
 20
19036.474391680858
 30
0.0
 11
18965.468697737178
 21
18782.881908614028
 31
0.0
  0
ARC
  5
299
  8
FUTO
 10
18913.468697737178
 20
19002.772274509742
 30
0.0
 40
15.000000000000201
 50
25.864502996822338
 51
214.13549700317051
  0
ARC
  5
29E
  8
FUTO
 10
19017.468697737178
 20
18822.63899052257
 30
0.0
 40
14.99999999999998
 50
205.8645029968221
 51
34.135497003171601
  0
CIRCLE
  5
29F
  8
FUTO
 10
18965.468697737178
 20
18912.70563251615
 30
0.0
 40
41.5
  0
LINE
  5
2A0
  8
FUTO
 10
18880.468697737178
 20
18805.70563251615
 30
0.0
 11
19050.468697737178
 21
18805.70563251615
 31
0.0
  0
LINE
  5
2A2
  8
KL
 10
19307.517123561222
 20
18790.70563251615
 30
0.0
 11
18965.468697737178
 21
18790.70563251615
 31
0.0
  0
LINE
  5
2A4
  8
FUTO
 10
18841.468697737178
 20
18836.70563251615
 30
0.0
 11
18773.468697737178
 21
18836.70563251615
 31
0.0
  0
LINE
  5
2A5
  8
FUTO
 10
18760.468697737178
 20
18800.70563251615
 30
0.0
 11
18880.468697737178
 21
18800.70563251615
 31
0.0
  0
LINE
  5
2A6
  8
KL
 10
18623.420271913139
 20
18790.70563251615
 30
0.0
 11
18965.468697737178
 21
18790.70563251615
 31
0.0
  0
LINE
  5
2A7
  8
FUTO
 10
18760.468697737178
 20
18800.70563251615
 30
0.0
 11
18760.468697737178
 21
18790.70563251615
 31
0.0
  0
ARC
  5
2A8
  8
FUTO
 10
18773.468697737178
 20
18833.70563251615
 30
0.0
 40
3.0
 50
90.0
 51
180.0
  0
LINE
  5
2A9
  8
FUTO
 10
18770.468697737178
 20
18833.70563251615
 30
0.0
 11
18770.468697737178
 21
18800.70563251615
 31
0.0
  0
LINE
  5
2AA
  8
KL
 10
18765.468697737178
 20
18921.70563251615
 30
0.0
 11
18765.468697737178
 21
18903.70563251615
 31
0.0
  0
ARC
  5
2AD
  8
FUTO
 10
18965.468697737178
 20
18912.705632516161
 30
0.0
 40
104.0000000000007
 50
248.2709940063402
 51
291.72900599366039
  0
ARC
  5
2AE
  8
FUTO
 10
18861.468697737178
 20
18912.70563251615
 30
0.0
 40
15.0
 50
85.864502996829515
 51
274.13549700317049
  0
ARC
  5
2AF
  8
FUTO
 10
18841.468697737178
 20
18856.70563251615
 30
0.0
 40
20.0
 50
270.0
 51
0.000000000000007
  0
LINE
  5
2B0
  8
FUTO
 10
18880.468697737178
 20
18800.70563251615
 30
0.0
 11
18880.468697737178
 21
18805.70563251615
 31
0.0
  0
LINE
  5
2B1
  8
CT
 10
18805.468697737178
 20
18790.70563251615
 30
0.0
 11
18805.468697737178
 21
18846.70563251615
 31
0.0
  0
LINE
  5
2B2
  8
FUTO
 10
18861.468697737178
 20
18897.70563251615
 30
0.0
 11
18861.468697737178
 21
18856.70563251615
 31
0.0
  0
ARC
  5
2B3
  8
FUTO
 10
18913.468697737178
 20
18822.63899052257
 30
0.0
 40
14.999999999999719
 50
145.86450299682909
 51
334.13549700317708
  0
ARC
  5
2B4
  8
FUTO
 10
18965.468697737178
 20
18912.705632516161
 30
0.0
 40
104.0000000000002
 50
188.27099400634009
 51
231.72900599366079
  0
ARC
  5
2B5
  8
FUTO
 10
18965.468697737178
 20
18912.70563251615
 30
0.0
 40
103.9999999999998
 50
128.27099400633969
 51
171.72900599366039
  0
LINE
  5
2B6
  8
KL
 10
19165.279895478288
 20
18921.39385772391
 30
0.0
 11
19163.68951197448
 21
18939.323461186079
 31
0.0
  0
LINE
  5
2B7
  8
FUTO
 10
19170.468697737178
 20
18790.70563251615
 30
0.0
 11
19170.468697737178
 21
18800.70563251615
 31
0.0
  0
ARC
  5
2B8
  8
FUTO
 10
19157.468697737178
 20
18833.70563251615
 30
0.0
 40
3.0
 50
0.000000000000007
 51
90.0
  0
LINE
  5
2B9
  8
FUTO
 10
19160.468697737178
 20
18800.70563251615
 30
0.0
 11
19160.468697737178
 21
18833.70563251615
 31
0.0
  0
LINE
  5
2BA
  8
CT
 10
19125.468697737178
 20
18790.70563251615
 30
0.0
 11
19125.468697737178
 21
18846.70563251615
 31
0.0
  0
LINE
  5
2BB
  8
FUTO
 10
19157.468697737178
 20
18836.70563251615
 30
0.0
 11
19089.468697737178
 21
18836.70563251615
 31
0.0
  0
LINE
  5
2BC
  8
FUTO
 10
19069.468697737178
 20
18856.70563251615
 30
0.0
 11
19069.468697737178
 21
18897.70563251615
 31
0.0
  0
ARC
  5
2BD
  8
FUTO
 10
19089.468697737178
 20
18856.70563251615
 30
0.0
 40
20.0
 50
180.0
 51
270.0
  0
LINE
  5
2BE
  8
FUTO
 10
19050.468697737178
 20
18805.70563251615
 30
0.0
 11
19050.468697737178
 21
18800.70563251615
 31
0.0
  0
LINE
  5
2BF
  8
FUTO
 10
19050.468697737178
 20
18800.70563251615
 30
0.0
 11
19170.468697737178
 21
18800.70563251615
 31
0.0
  0
ARC
  5
2C0
  8
FUTO
 10
19069.468697737178
 20
18912.70563251615
 30
0.0
 40
15.0
 50
270.0
 51
94.135497003170499
  0
ARC
  5
2C1
  8
FUTO
 10
18965.468697737178
 20
18912.70563251615
 30
0.0
 40
103.9999999999998
 50
308.27099400633961
 51
351.72900599366039
  0
ARC
  5
2C2
  8
FUTO
 10
18965.468697737178
 20
18912.70563251615
 30
0.0
 40
103.9999999999994
 50
8.2709940063397234
 51
51.729005993660351
  0
INSERT
  5
2C5
  8
FUTO
  2
左回転矢印
 10
18778.034091184931
 20
19611.144705865099
 30
0.0
 41
2.0
 42
2.0
 43
2.0
  0
LINE
  5
2D0
  8
FUTO
 10
18992.52320025428
 20
19013.125022543929
 30
0.0
 11
18992.52320025428
 21
19016.70563251615
 31
0.0
  0
LINE
  5
2D1
  8
FUTO
 10
18938.41419522007
 20
19013.125022543929
 30
0.0
 11
18938.41419522007
 21
19016.70563251615
 31
0.0
  0
LINE
  5
2D2
  8
FUTO
 10
18938.41419522007
 20
19016.70563251615
 30
0.0
 11
18992.52320025428
 21
19016.70563251615
 31
0.0
  0
LINE
  5
2D3
  8
FUTO
 10
20124.468697737178
 20
18910.70563251615
 30
0.0
 11
20124.468697737178
 21
18663.357241576021
 31
0.0
  0
LINE
  5
2D4
  8
FUTO
 10
20130.468697737178
 20
18910.70563251615
 30
0.0
 11
20130.468697737178
 21
18662.018658417059
 31
0.0
  0
LINE
  5
2D5
  8
FUTO
 10
20130.468697737178
 20
18910.70563251615
 30
0.0
 11
20130.468697737178
 21
18716.42353949777
 31
0.0
  0
ARC
  5
2D6
  8
KL
 10
19075.968697737178
 20
19023.20563251615
 30
0.0
 40
960.5
 50
324.29936339556627
 51
0.000000000000007
  0
LINE
  5
2D8
  8
FUTO
 10
20045.565186897129
 20
18861.70563251615
 30
0.0
 11
20130.468697737178
 21
18861.70563251615
 31
0.0
  0
LINE
  5
2D9
  8
FUTO
 10
20065.468697737178
 20
18910.70563251615
 30
0.0
 11
20130.468697737178
 21
18910.70563251615
 31
0.0
  0
LINE
  5
2DA
  8
FUTO
 10
20065.468697737178
 20
18910.70563251615
 30
0.0
 11
20130.468697737178
 21
18910.70563251615
 31
0.0
  0
LINE
  5
2DB
  8
KL
 10
20019.164329618488
 20
18841.70563251615
 30
0.0
 11
20130.468697737178
 21
18841.70563251615
 31
0.0
  0
LINE
  5
2DC
  8
FUTO
 10
20104.191005445638
 20
19004.702718491539
 30
0.0
 11
20106.600666148712
 21
19022.98713204946
 31
0.0
  0
LINE
  5
2DD
  8
FUTO
 10
20130.468697737178
 20
16971.616875358552
 30
0.0
 11
19648.138476209479
 21
17017.108083190811
 31
0.0
  0
LINE
  5
2DE
  8
KL
 10
20130.468697737178
 20
16991.70563251615
 30
0.0
 11
18938.24926416059
 21
17104.150384293702
 31
0.0
  0
LINE
  5
2E3
  8
FUTO
 10
20124.468697737178
 20
17664.74369173903
 30
0.0
 11
20124.468697737178
 21
16922.705632516161
 31
0.0
  0
LINE
  5
2E4
  8
FUTO
 10
20065.468697737178
 20
16922.70563251615
 30
0.0
 11
20130.468697737178
 21
16922.705632516161
 31
0.0
  0
LINE
  5
2FF
  8
FUTO
 10
17025.468697737178
 20
21745.794360726832
 30
0.0
 11
19665.468697737178
 21
21745.794360726832
 31
0.0
  0
LINE
  5
300
  8
FUTO
 10
17025.468697737178
 20
21670.794360726832
 30
0.0
 11
19665.468697737178
 21
21670.794360726832
 31
0.0
  0
LINE
  5
3C8
  8
FUTO
 10
17411.468697737178
 20
24445.794360726832
 30
0.0
 11
20130.468697737178
 21
24445.794360726832
 31
0.0
  0
LINE
  5
3C9
  8
FUTO
 10
17905.468697737178
 20
23117.794360726832
 30
0.0
 11
20130.468697737178
 21
23117.794360726832
 31
0.0
  0
LINE
  5
3CA
  8
FUTO
 10
17905.468697737178
 20
23042.794360726832
 30
0.0
 11
20025.468697737178
 21
23042.794360726832
 31
0.0
  0
LINE
  5
3CB
  8
FUTO
 10
17905.468697737178
 20
24520.794360726832
 30
0.0
 11
20025.468697737178
 21
24520.794360726832
 31
0.0
  0
LINE
  5
3DA
  8
FUTO
 10
17025.468697737178
 20
23042.794360726832
 30
0.0
 11
18265.468697737178
 21
23042.794360726832
 31
0.0
  0
LINE
  5
3DB
  8
FUTO
 10
17025.468697737178
 20
23117.794360726832
 30
0.0
 11
17361.468697737178
 21
23117.794360726839
 31
0.0
  0
LINE
  5
406
  8
FUTO
 10
20025.468697737178
 20
23042.794360726832
 30
0.0
 11
20025.468697737178
 21
23067.794360726821
 31
0.0
  0
LINE
  5
438
  8
SL
 10
21876.04414269737
 20
19191.079432516151
 30
0.0
 11
21876.044142697359
 21
17121.079432516151
 31
0.0
  0
LINE
  5
439
  8
SL
 10
21706.04414269737
 20
19191.079432516151
 30
0.0
 11
21706.044142697381
 21
17121.079432516151
 31
0.0
  0
LINE
  5
43A
  8
CT
 10
24006.04414269737
 20
20415.402520838059
 30
0.0
 11
24006.04414269737
 21
16512.638702856621
 31
0.0
  0
LINE
  5
43C
  8
FUTO
 10
24669.24414269736
 20
16912.70561591017
 30
0.0
 11
24669.244142697371
 21
16930.079432516151
 31
0.0
  0
LINE
  5
43D
  8
FUTO
 10
24666.04414269737
 20
16912.70561591017
 30
0.0
 11
24666.044142697381
 21
16930.079432516151
 31
0.0
  0
LINE
  5
43E
  8
FUTO
 10
23346.04414269737
 20
16912.70561591017
 30
0.0
 11
23346.04414269737
 21
16930.079432516151
 31
0.0
  0
LINE
  5
43F
  8
FUTO
 10
23342.84414269737
 20
16912.70561591017
 30
0.0
 11
23342.84414269737
 21
16930.079432516151
 31
0.0
  0
LINE
  5
441
  8
FUTO
 10
21906.04414269737
 20
19291.079432516151
 30
0.0
 11
21906.04414269737
 21
17011.079432516151
 31
0.0
  0
LINE
  5
442
  8
FUTO
 10
21556.04414269737
 20
19291.079432516151
 30
0.0
 11
21556.04414269737
 21
17011.079432516151
 31
0.0
  0
LINE
  5
445
  8
FUTO
 10
22956.044142697359
 20
18761.079432516151
 30
0.0
 11
22956.044142697359
 21
18751.079432516159
 31
0.0
  0
LINE
  5
446
  8
FUTO
 10
23136.044142697359
 20
18761.079432516151
 30
0.0
 11
23136.044142697359
 21
16912.70561591017
 31
0.0
  0
LINE
  5
449
  8
FUTO
 10
22135.04414269737
 20
18789.079432516159
 30
0.0
 11
22135.04414269737
 21
18751.079432516159
 31
0.0
  0
LINE
  5
44A
  8
FUTO
 10
21955.04414269737
 20
18789.079432516159
 30
0.0
 11
21955.04414269737
 21
17571.079432516151
 31
0.0
  0
DIMENSION
  5
44B
  8
SP
  2
*D18
 10
25381.052284909099
 20
18011.079432516151
 30
0.0
 11
25301.052284909088
 21
18911.079432516159
 31
0.0
 70
     0
  1
%%C<>
 13
24801.04414269737
 23
19811.079432516151
 33
0.0
 14
24801.04414269737
 24
18011.079432516151
 34
0.0
 50
90.0
1001
ACAD
1000
DSTYLE
1002
{
1070
    40
1040
40.0
1002
}
  0
LINE
  5
461
  8
KL
 10
24675.24414269736
 20
19876.079432516159
 30
0.0
 11
24675.244142697371
 21
17946.079432516151
 31
0.0
  0
LINE
  5
462
  8
FUTO
 10
24795.04414269737
 20
19876.079432516159
 30
0.0
 11
24795.04414269737
 21
17946.079432516159
 31
0.0
  0
LINE
  5
463
  8
FUTO
 10
24801.04414269737
 20
19876.079432516159
 30
0.0
 11
24801.04414269737
 21
17946.079432516159
 31
0.0
  0
LINE
  5
464
  8
FUTO
 10
23252.844142697359
 20
18987.198860287848
 30
0.0
 11
23252.84414269737
 21
16912.70561591017
 31
0.0
  0
LINE
  5
465
  8
FUTO
 10
24759.24414269736
 20
18987.198860287888
 30
0.0
 11
24759.24414269736
 21
16912.70561591017
 31
0.0
  0
LINE
  5
46D
  8
FUTO
 10
23267.04414269737
 20
16774.70561591017
 30
0.0
 11
24670.040142697369
 21
16774.70561591017
 31
0.0
  0
LINE
  5
46E
  8
FUTO
 10
23267.04414269737
 20
16900.70561591017
 30
0.0
 11
24670.040142697369
 21
16900.70561591017
 31
0.0
  0
LINE
  5
471
  8
FUTO
 10
21895.04414269737
 20
16762.70561591017
 30
0.0
 11
24745.04414269737
 21
16762.70561591017
 31
0.0
1001
ACAD
1000
ASC_BOUNDS
1002
{
1070
    19
1005
0
1005
0
1005
0
1002
}
  0
DIMENSION
  5
472
  8
SP
  2
*D13
 10
24006.04414269737
 20
16323.225003145861
 30
0.0
 11
22950.54414269737
 21
16403.225003145861
 31
0.0
 70
     0
 13
21895.04414269737
 23
16762.70561591017
 33
0.0
 14
24006.04414269737
 24
16741.778563916239
 34
0.0
1001
ACAD
1000
DSTYLE
1002
{
1070
    40
1040
40.0
1002
}
  0
DIMENSION
  5
47F
  8
SP
  2
*D12
 10
24745.04414269737
 20
16023.18745818093
 30
0.0
 11
23320.04414269737
 21
16103.18745818093
 31
0.0
 70
     0
 13
21895.04414269737
 23
16762.70561591017
 33
0.0
 14
24745.04414269737
 24
16762.70561591017
 34
0.0
1001
ACAD
1000
DSTYLE
1002
{
1070
    40
1040
40.0
1002
}
  0
LINE
  5
48D
  8
KL
 10
21895.04414269737
 20
16912.70561591017
 30
0.0
 11
24759.24414269736
 21
16912.70561591017
 31
0.0
  0
LINE
  5
48E
  8
CT
 10
21497.734871148448
 20
17261.079432516159
 30
0.0
 11
22078.237404004569
 21
17261.079432516159
 31
0.0
  0
LINE
  5
493
  8
FUTO
 10
21970.048142697371
 20
16900.70561591017
 30
0.0
 11
23249.154247302889
 21
16900.70561591017
 31
0.0
  0
LINE
  5
494
  8
FUTO
 10
21970.048142697371
 20
16774.70561591017
 30
0.0
 11
23249.154247302889
 21
16774.70561591017
 31
0.0
  0
LINE
  5
495
  8
CT
 10
21930.048142697371
 20
16775.607415723371
 30
0.0
 11
21930.048142697371
 21
16721.400640819222
 31
0.0
  0
LINE
  5
4BB
  8
SL
 10
21876.04414269737
 20
17371.079432516151
 30
0.0
 11
21876.04414269737
 21
17121.079432516151
 31
0.0
  0
LINE
  5
4BC
  8
SL
 10
21706.04414269737
 20
17371.079432516151
 30
0.0
 11
21706.04414269737
 21
17121.079432516151
 31
0.0
  0
LINE
  5
4BD
  8
SL
 10
21706.04414269737
 20
17121.079432516151
 30
0.0
 11
21876.04414269737
 21
17121.079432516151
 31
0.0
  0
LINE
  5
4BE
  8
FUTO
 10
21556.04414269737
 20
17011.079432516151
 30
0.0
 11
21906.04414269737
 21
17011.079432516151
 31
0.0
  0
LINE
  5
4C1
  8
FUTO
 10
21895.04414269737
 20
16762.70561591017
 30
0.0
 11
21970.044142697359
 21
16762.70561591017
 31
0.0
  0
LINE
  5
4C2
  8
FUTO
 10
21895.04414269737
 20
16762.70561591017
 30
0.0
 11
21895.04414269737
 21
16765.127615910169
 31
0.0
  0
LINE
  5
4C3
  8
FUTO
 10
21899.611142697369
 20
16770.108615910169
 30
0.0
 11
21954.415142697369
 21
16774.905615910171
 31
0.0
  0
ARC
  5
4C4
  8
FUTO
 10
21899.048142697371
 20
16909.367427331999
 30
0.0
 40
4.0
 50
180.0
 51
264.99999999999977
  0
LINE
  5
4C5
  8
FUTO
 10
21895.048142697371
 20
16912.70561591017
 30
0.0
 11
21895.048142697371
 21
16909.367427331999
 31
0.0
  0
LINE
  5
4C6
  8
FUTO
 10
21895.048142697371
 20
16762.70561591017
 30
0.0
 11
21895.048142697371
 21
16766.043804488341
 31
0.0
  0
ARC
  5
4C7
  8
FUTO
 10
21899.048142697371
 20
16766.043804488341
 30
0.0
 40
4.0
 50
95.000000000000185
 51
180.0
  0
ARC
  5
4C8
  8
FUTO
 10
21959.548142697371
 20
16896.043804488341
 30
0.0
 40
4.0
 50
0.0
 51
85.000000000000256
  0
LINE
  5
4C9
  8
FUTO
 10
21970.048142697371
 20
16912.70561591017
 30
0.0
 11
21970.048142697371
 21
16762.70561591017
 31
0.0
  0
ARC
  5
4CA
  8
FUTO
 10
21959.548142697371
 20
16779.367427331999
 30
0.0
 40
4.0
 50
274.99999999999972
 51
0.0
  0
LINE
  5
4CB
  8
FUTO
 10
21963.548142697371
 20
16896.043804488341
 30
0.0
 11
21963.548142697371
 21
16779.367427331999
 31
0.0
  0
LINE
  5
4CC
  8
FUTO
 10
21959.89676566836
 20
16900.028583280699
 30
0.0
 11
21898.699519726379
 21
16905.382648539638
 31
0.0
  0
LINE
  5
4CD
  8
FUTO
 10
21970.048142697371
 20
16912.70561591017
 30
0.0
 11
21895.048142697371
 21
16912.70561591017
 31
0.0
  0
LINE
  5
4CE
  8
FUTO
 10
21959.89676566836
 20
16775.382648539638
 30
0.0
 11
21898.699519726379
 21
16770.028583280699
 31
0.0
  0
LINE
  5
4CF
  8
FUTO
 10
21970.048142697371
 20
16762.70561591017
 30
0.0
 11
21895.048142697371
 21
16762.70561591017
 31
0.0
  0
LINE
  5
4D0
  8
FUTO
 10
21970.048142697371
 20
16912.70561591017
 30
0.0
 11
21970.048142697371
 21
16762.70561591017
 31
0.0
  0
LINE
  5
4D1
  8
SL
 10
21706.04414269737
 20
17401.079432516151
 30
0.0
 11
21876.04414269737
 21
17401.079432516151
 31
0.0
  0
LINE
  5
4D5
  8
CT
 10
23227.04414269737
 20
16775.607415723371
 30
0.0
 11
23227.04414269737
 21
16721.400640819222
 31
0.0
  0
LINE
  5
4FF
  8
1
 10
23192.84514269737
 20
16762.70561591017
 30
0.0
 11
23267.845142697359
 21
16762.70561591017
 31
0.0
  0
LINE
  5
501
  8
FUTO
 10
23267.04414269737
 20
16912.70561591017
 30
0.0
 11
23192.04414269737
 21
16912.70561591017
 31
0.0
  0
LINE
  5
502
  8
FUTO
 10
23256.892765668359
 20
16900.028583280699
 30
0.0
 11
23195.695519726381
 21
16905.382648539638
 31
0.0
  0
ARC
  5
503
  8
FUTO
 10
23256.54414269737
 20
16896.043804488341
 30
0.0
 40
4.0
 50
0.0
 51
84.999999999999957
  0
LINE
  5
504
  8
FUTO
 10
23192.04414269737
 20
16912.70561591017
 30
0.0
 11
23192.04414269737
 21
16909.367427331999
 31
0.0
  0
ARC
  5
505
  8
FUTO
 10
23196.04414269737
 20
16909.367427331999
 30
0.0
 40
4.0
 50
180.0
 51
264.99999999999972
  0
LINE
  5
506
  8
FUTO
 10
23267.04414269737
 20
16762.70561591017
 30
0.0
 11
23192.04414269737
 21
16762.70561591017
 31
0.0
  0
LINE
  5
507
  8
FUTO
 10
23256.892765668359
 20
16775.382648539638
 30
0.0
 11
23195.695519726381
 21
16770.028583280699
 31
0.0
  0
ARC
  5
508
  8
FUTO
 10
23256.54414269737
 20
16779.367427331999
 30
0.0
 40
4.0
 50
275.0
 51
0.0
  0
ARC
  5
509
  8
FUTO
 10
23196.04414269737
 20
16766.043804488341
 30
0.0
 40
4.0
 50
95.000000000000185
 51
180.0
  0
LINE
  5
50A
  8
FUTO
 10
23192.04414269737
 20
16762.70561591017
 30
0.0
 11
23192.04414269737
 21
16766.043804488341
 31
0.0
  0
LINE
  5
50B
  8
FUTO
 10
23192.040142697359
 20
16762.70561591017
 30
0.0
 11
23192.040142697359
 21
16765.127615910169
 31
0.0
  0
LINE
  5
50C
  8
FUTO
 10
23196.607142697361
 20
16770.108615910169
 30
0.0
 11
23251.411142697369
 21
16774.905615910171
 31
0.0
  0
LINE
  5
50D
  8
FUTO
 10
23192.040142697359
 20
16762.70561591017
 30
0.0
 11
23267.040142697369
 21
16762.70561591017
 31
0.0
  0
LINE
  5
50E
  8
FUTO
 10
23267.04414269737
 20
16912.70561591017
 30
0.0
 11
23267.04414269737
 21
16762.70561591017
 31
0.0
  0
LINE
  5
50F
  8
FUTO
 10
23260.54414269737
 20
16896.043804488341
 30
0.0
 11
23260.54414269737
 21
16779.367427331999
 31
0.0
  0
LINE
  5
510
  8
FUTO
 10
23267.04414269737
 20
16912.70561591017
 30
0.0
 11
23267.04414269737
 21
16762.70561591017
 31
0.0
  0
DIMENSION
  5
517
  8
SP
  2
*D14
 10
24745.04414269737
 20
16323.225003145861
 30
0.0
 11
24375.54414269737
 21
16403.225003145861
 31
0.0
 70
     0
 13
24006.04414269737
 23
16741.778563916239
 33
0.0
 14
24745.04414269737
 24
16762.70561591017
 34
0.0
1001
ACAD
1000
DSTYLE
1002
{
1070
   287
1070
     4
1070
    40
1040
40.0
1070
    75
1070
     1
1070
   279
1070
     1
1070
   289
1070
     3
1002
}
  0
LINE
  5
529
  8
CT
 10
24710.044142697359
 20
16775.607415723371
 30
0.0
 11
24710.044142697359
 21
16721.400640819222
 31
0.0
  0
LINE
  5
554
  8
FUTO
 10
24745.04414269737
 20
16762.70561591017
 30
0.0
 11
24670.044142697359
 21
16762.70561591017
 31
0.0
  0
LINE
  5
555
  8
FUTO
 10
24740.477142697371
 20
16770.108615910169
 30
0.0
 11
24685.673142697371
 21
16774.905615910171
 31
0.0
  0
LINE
  5
556
  8
FUTO
 10
24745.04414269737
 20
16762.70561591017
 30
0.0
 11
24745.04414269737
 21
16765.127615910169
 31
0.0
  0
LINE
  5
557
  8
1
 10
24744.23914269737
 20
16762.70561591017
 30
0.0
 11
24669.23914269737
 21
16762.70561591017
 31
0.0
  0
ARC
  5
558
  8
FUTO
 10
24741.040142697369
 20
16909.367427331999
 30
0.0
 40
4.0
 50
275.00000000000011
 51
0.0
  0
LINE
  5
559
  8
FUTO
 10
24745.040142697359
 20
16912.70561591017
 30
0.0
 11
24745.040142697359
 21
16909.367427331999
 31
0.0
  0
LINE
  5
55A
  8
FUTO
 10
24745.040142697359
 20
16762.70561591017
 30
0.0
 11
24745.040142697359
 21
16766.043804488341
 31
0.0
  0
ARC
  5
55B
  8
FUTO
 10
24741.040142697369
 20
16766.043804488341
 30
0.0
 40
4.0
 50
0.0
 51
84.999999999999801
  0
ARC
  5
55C
  8
FUTO
 10
24680.540142697359
 20
16896.043804488341
 30
0.0
 40
4.0
 50
95.000000000000057
 51
180.0
  0
LINE
  5
55D
  8
FUTO
 10
24670.040142697369
 20
16912.70561591017
 30
0.0
 11
24670.040142697369
 21
16762.70561591017
 31
0.0
  0
ARC
  5
55E
  8
FUTO
 10
24680.540142697359
 20
16779.367427331999
 30
0.0
 40
4.0
 50
180.0
 51
264.99999999999989
  0
LINE
  5
55F
  8
FUTO
 10
24676.540142697359
 20
16896.043804488341
 30
0.0
 11
24676.540142697359
 21
16779.367427331999
 31
0.0
  0
LINE
  5
560
  8
FUTO
 10
24680.19151972637
 20
16900.028583280699
 30
0.0
 11
24741.388765668351
 21
16905.382648539638
 31
0.0
  0
LINE
  5
561
  8
FUTO
 10
24670.040142697369
 20
16912.70561591017
 30
0.0
 11
24745.040142697359
 21
16912.70561591017
 31
0.0
  0
LINE
  5
562
  8
FUTO
 10
24680.19151972637
 20
16775.382648539638
 30
0.0
 11
24741.388765668351
 21
16770.028583280699
 31
0.0
  0
LINE
  5
563
  8
FUTO
 10
24670.040142697369
 20
16762.70561591017
 30
0.0
 11
24745.040142697359
 21
16762.70561591017
 31
0.0
  0
LINE
  5
564
  8
FUTO
 10
24670.040142697369
 20
16912.70561591017
 30
0.0
 11
24670.040142697369
 21
16762.70561591017
 31
0.0
  0
LINE
  5
56B
  8
KL
 10
24669.244142697371
 20
18005.079432516159
 30
0.0
 11
24759.24414269736
 21
18005.079432516159
 31
0.0
  0
LINE
  5
56C
  8
KL
 10
24669.244142697371
 20
18011.079432516151
 30
0.0
 11
24801.04414269737
 21
18011.079432516151
 31
0.0
  0
LINE
  5
56D
  8
HOSO
 10
24626.71013308645
 20
17971.079432516151
 30
0.0
 11
24700.817748234709
 21
17971.079432516151
 31
0.0
  0
LINE
  5
56E
  8
KL
 10
24669.24414269736
 20
17946.079432516151
 30
0.0
 11
24675.244142697371
 21
17946.079432516151
 31
0.0
  0
LINE
  5
56F
  8
FUTO
 10
24759.24414269736
 20
18005.079432516159
 30
0.0
 11
24801.04414269737
 21
18005.079432516159
 31
0.0
  0
LINE
  5
570
  8
FUTO
 10
24795.04414269737
 20
17946.079432516159
 30
0.0
 11
24801.04414269737
 21
17946.079432516159
 31
0.0
  0
LINE
  5
571
  8
HOSO
 10
24767.561596511339
 20
17971.079432516151
 30
0.0
 11
24841.669211659599
 21
17971.079432516151
 31
0.0
  0
LINE
  5
600
  8
FUTO
 10
23277.844142697399
 20
19003.218015593618
 30
0.0
 11
24734.2441426974
 21
19003.218015593618
 31
0.0
  0
LINE
  5
601
  8
FUTO
 10
23277.844142697399
 20
19021.218015593618
 30
0.0
 11
24734.2441426974
 21
19021.218015593618
 31
0.0
  0
LINE
  5
61E
  8
CT
 10
21504.118021012589
 20
18911.079432516159
 30
0.0
 11
25000.039445869588
 21
18911.079432516159
 31
0.0
  0
LINE
  5
623
  8
FUTO
 10
22111.54414269737
 20
19015.079432516151
 30
0.0
 11
21978.54414269737
 21
19015.079432516151
 31
0.0
  0
LINE
  5
624
  8
FUTO
 10
21978.54414269737
 20
18807.079432516159
 30
0.0
 11
21990.04414269737
 21
18807.079432516159
 31
0.0
  0
ARC
  5
625
  8
FUTO
 10
21996.04414269737
 20
18829.079432516151
 30
0.0
 40
6.0
 50
90.0
 51
180.0
  0
LINE
  5
626
  8
FUTO
 10
21955.04414269737
 20
18789.079432516159
 30
0.0
 11
22135.04414269737
 21
18789.079432516159
 31
0.0
  0
ARC
  5
628
  8
FUTO
 10
21978.54414269737
 20
19009.079432516151
 30
0.0
 40
6.0
 50
90.0
 51
180.0
  0
LINE
  5
62A
  8
FUTO
 10
21972.54414269737
 20
19001.079432516151
 30
0.0
 11
21967.54414269737
 21
19001.079432516151
 31
0.0
  0
ARC
  5
62B
  8
FUTO
 10
21978.54414269737
 20
18813.079432516151
 30
0.0
 40
6.0
 50
180.0
 51
270.0
  0
LINE
  5
62C
  8
FUTO
 10
21967.54414269737
 20
18821.079432516151
 30
0.0
 11
21972.54414269737
 21
18821.079432516151
 31
0.0
  0
LINE
  5
62D
  8
FUTO
 10
21972.54414269737
 20
19009.079432516151
 30
0.0
 11
21972.54414269737
 21
18813.079432516151
 31
0.0
  0
LINE
  5
62E
  8
FUTO
 10
21967.54414269737
 20
19001.079432516151
 30
0.0
 11
21967.54414269737
 21
18821.079432516151
 31
0.0
  0
LINE
  5
62F
  8
FUTO
 10
21876.04414269737
 20
18863.579432516151
 30
0.0
 11
21967.54414269737
 21
18863.579432516151
 31
0.0
  0
LINE
  5
630
  8
FUTO
 10
21876.04414269737
 20
18958.579432516159
 30
0.0
 11
21967.54414269737
 21
18958.579432516159
 31
0.0
  0
LINE
  5
631
  8
SL
 10
21706.04414269737
 20
19191.079432516151
 30
0.0
 11
21876.04414269737
 21
19191.079432516151
 31
0.0
  0
LINE
  5
632
  8
FUTO
 10
21556.04414269737
 20
19291.079432516151
 30
0.0
 11
21906.04414269737
 21
19291.079432516151
 31
0.0
  0
LINE
  5
636
  8
FUTO
 10
23342.844142697359
 20
18979.779432516159
 30
0.0
 11
23342.844142697359
 21
20197.90081717258
 31
0.0
  0
LINE
  5
637
  8
FUTO
 10
23346.04414269737
 20
18979.779432516159
 30
0.0
 11
23346.04414269737
 21
20197.90081717258
 31
0.0
  0
LINE
  5
638
  8
FUTO
 10
23277.844142697359
 20
20197.90081717258
 30
0.0
 11
23277.844142697359
 21
19003.218015593589
 31
0.0
  0
LINE
  5
63B
  8
SL
 10
22925.55576402344
 20
19127.154102326411
 30
0.0
 11
22160.177807225751
 21
19127.154102326411
 31
0.0
  0
LINE
  5
63D
  8
FUTO
 10
22956.044142697359
 20
18751.079432516159
 30
0.0
 11
22135.04414269737
 21
18751.079432516159
 31
0.0
  0
LINE
  5
63E
  8
FUTO
 10
22122.54414269737
 20
18858.579432516159
 30
0.0
 11
22952.54414269737
 21
18858.579432516159
 31
0.0
  0
LINE
  5
63F
  8
FUTO
 10
22122.54414269737
 20
18963.579432516151
 30
0.0
 11
22952.54414269737
 21
18963.579432516159
 31
0.0
  0
LINE
  5
640
  8
SL
 10
22160.177807225751
 20
19127.154102326411
 30
0.0
 11
22160.177807225751
 21
18751.079432516159
 31
0.0
  0
LINE
  5
641
  8
CT
 10
22045.04414269737
 20
19092.14534693578
 30
0.0
 11
22045.04414269737
 21
18702.145178990369
 31
0.0
  0
ARC
  5
642
  8
FUTO
 10
22111.54414269737
 20
19009.079432516151
 30
0.0
 40
6.0
 50
0.0
 51
90.0
  0
LINE
  5
643
  8
FUTO
 10
22100.04414269737
 20
19015.079432516151
 30
0.0
 11
22100.04414269737
 21
18789.079432516159
 31
0.0
  0
LINE
  5
644
  8
FUTO
 10
21990.04414269737
 20
19015.079432516151
 30
0.0
 11
21990.04414269737
 21
18789.079432516159
 31
0.0
  0
LINE
  5
645
  8
CT
 10
22045.04414269737
 20
19034.84819168086
 30
0.0
 11
22045.04414269737
 21
18781.25570861403
 31
0.0
  0
LINE
  5
646
  8
FUTO
 10
22117.54414269737
 20
19001.079432516151
 30
0.0
 11
22122.54414269737
 21
19001.079432516151
 31
0.0
  0
LINE
  5
647
  8
FUTO
 10
22122.54414269737
 20
18821.079432516151
 30
0.0
 11
22117.54414269737
 21
18821.079432516151
 31
0.0
  0
ARC
  5
648
  8
FUTO
 10
22111.54414269737
 20
18813.079432516151
 30
0.0
 40
6.0
 50
270.0
 51
0.0
  0
LINE
  5
649
  8
FUTO
 10
22111.54414269737
 20
18807.079432516159
 30
0.0
 11
22100.04414269737
 21
18807.079432516159
 31
0.0
  0
ARC
  5
64A
  8
FUTO
 10
22094.04414269737
 20
18829.079432516151
 30
0.0
 40
6.0
 50
0.0
 51
90.0
  0
LINE
  5
64B
  8
FUTO
 10
22122.54414269737
 20
19001.079432516151
 30
0.0
 11
22122.54414269737
 21
18821.079432516151
 31
0.0
  0
LINE
  5
64C
  8
FUTO
 10
22117.54414269737
 20
19009.079432516151
 30
0.0
 11
22117.54414269737
 21
18813.079432516151
 31
0.0
  0
LINE
  5
64D
  8
FUTO
 10
21990.04414269737
 20
18799.079432516151
 30
0.0
 11
22100.04414269737
 21
18799.079432516151
 31
0.0
  0
LINE
  5
64E
  8
FUTO
 10
22094.04414269737
 20
18835.079432516159
 30
0.0
 11
21996.04414269737
 21
18835.079432516159
 31
0.0
  0
LINE
  5
653
  8
SL
 10
22925.55576402344
 20
19127.154102326411
 30
0.0
 11
22925.55576402344
 21
18751.079432516159
 31
0.0
  0
LINE
  5
654
  8
CT
 10
23046.04414269737
 20
19119.850260596399
 30
0.0
 11
23046.04414269737
 21
18670.1779568288
 31
0.0
  0
LINE
  5
655
  8
FUTO
 10
23124.544142697359
 20
19018.579432516159
 30
0.0
 11
23139.54414269737
 21
18995.079432516159
 31
0.0
  0
LINE
  5
656
  8
FUTO
 10
23112.54414269737
 20
19041.079432516151
 30
0.0
 11
23112.54414269737
 21
18826.079432516151
 31
0.0
  0
LINE
  5
657
  8
FUTO
 10
23112.54414269737
 20
18816.079432516151
 30
0.0
 11
23112.54414269737
 21
19041.079369321771
 31
0.0
  0
LINE
  5
658
  8
FUTO
 10
23124.544142697359
 20
18781.079432516151
 30
0.0
 11
23124.544142697359
 21
19041.079432516151
 31
0.0
  0
LINE
  5
659
  8
FUTO
 10
22952.54414269737
 20
18995.079432516159
 30
0.0
 11
22967.54414269737
 21
19018.579432516159
 31
0.0
  0
LINE
  5
65A
  8
FUTO
 10
22979.54414269737
 20
19041.079432516151
 30
0.0
 11
22979.54414269737
 21
18826.079432516151
 31
0.0
  0
LINE
  5
65B
  8
CT
 10
23046.04414269737
 20
19075.24101218237
 30
0.0
 11
23046.04414269737
 21
18733.37138933827
 31
0.0
  0
LINE
  5
65C
  8
FUTO
 10
22967.54414269737
 20
19041.079432516151
 30
0.0
 11
22967.54414269737
 21
18781.079432516151
 31
0.0
  0
LINE
  5
662
  8
FUTO
 10
23277.844142697399
 20
19003.218015593618
 30
0.0
 11
23252.844142697399
 21
18987.19886028787
 31
0.0
  0
LINE
  5
664
  8
FUTO
 10
23136.044142697359
 20
18761.079432516151
 30
0.0
 11
22956.04414269737
 21
18761.079432516159
 31
0.0
  0
LINE
  5
665
  8
FUTO
 10
23121.04414269737
 20
18771.079432516159
 30
0.0
 11
22971.04414269737
 21
18771.079432516159
 31
0.0
  0
LINE
  5
666
  8
FUTO
 10
22971.04414269737
 20
18826.079432516151
 30
0.0
 11
23121.04414269737
 21
18826.079432516151
 31
0.0
  0
LINE
  5
667
  8
FUTO
 10
22952.54414269737
 20
18827.079432516159
 30
0.0
 11
22952.54414269737
 21
18995.079432516159
 31
0.0
  0
LINE
  5
668
  8
FUTO
 10
22967.54414269737
 20
18781.079432516151
 30
0.0
 11
22971.04414269737
 21
18781.079432516151
 31
0.0
  0
LINE
  5
669
  8
CT
 10
22996.04414269737
 20
18736.124340164912
 30
0.0
 11
22996.04414269737
 21
18856.896865286672
 31
0.0
  0
LINE
  5
66A
  8
FUTO
 10
22971.04414269737
 20
18761.079432516151
 30
0.0
 11
22971.04414269737
 21
18826.079432516151
 31
0.0
  0
LINE
  5
66B
  8
FUTO
 10
22967.54414269737
 20
18803.579432516151
 30
0.0
 11
22952.54414269737
 21
18827.079432516159
 31
0.0
  0
LINE
  5
66C
  8
FUTO
 10
23139.54414269737
 20
18963.579432516151
 30
0.0
 11
23252.84414269737
 21
18963.579432516151
 31
0.0
  0
LINE
  5
66E
  8
FUTO
 10
23139.54414269737
 20
18858.579432516159
 30
0.0
 11
23252.84414269737
 21
18858.579432516159
 31
0.0
  0
LINE
  5
67F
  8
CT
 10
23157.434480933691
 20
18911.079432516159
 30
0.0
 11
23266.777102809599
 21
18911.079432516159
 31
0.0
  0
LINE
  5
69D
  8
FUTO
 10
23139.54414269737
 20
18995.079432516159
 30
0.0
 11
23139.54414269737
 21
18827.079432516159
 31
0.0
  0
LINE
  5
69E
  8
FUTO
 10
23121.04414269737
 20
18781.079432516151
 30
0.0
 11
23124.544142697359
 21
18781.079432516151
 31
0.0
  0
LINE
  5
69F
  8
FUTO
 10
23121.04414269737
 20
18826.079432516151
 30
0.0
 11
23121.04414269737
 21
18761.079432516151
 31
0.0
  0
LINE
  5
6A0
  8
FUTO
 10
23139.54414269737
 20
18827.079432516159
 30
0.0
 11
23124.544142697359
 21
18803.579432516151
 31
0.0
  0
LINE
  5
6A1
  8
CT
 10
23096.044142697359
 20
18736.124340164912
 30
0.0
 11
23096.044142697359
 21
18856.896865286672
 31
0.0
  0
LINE
  5
6AC
  8
FUTO
 10
23107.544142697359
 20
19059.079432516159
 30
0.0
 11
22984.54414269737
 21
19059.079432516159
 31
0.0
  0
LINE
  5
6AD
  8
FUTO
 10
22984.54414269737
 20
19059.079432516159
 30
0.0
 11
22984.54414269737
 21
19041.079432516151
 31
0.0
  0
LINE
  5
6AE
  8
FUTO
 10
22984.54414269737
 20
19041.079432516151
 30
0.0
 11
22967.54414269737
 21
19041.079432516151
 31
0.0
  0
LINE
  5
6B7
  8
FUTO
 10
23124.544142697359
 20
19041.079432516151
 30
0.0
 11
23107.544142697359
 21
19041.079432516151
 31
0.0
  0
LINE
  5
6B8
  8
FUTO
 10
23107.544142697359
 20
19041.079432516151
 30
0.0
 11
23107.544142697359
 21
19059.079432516159
 31
0.0
  0
LINE
  5
6BC
  8
FUTO
 10
23342.844142697359
 20
19856.279432516159
 30
0.0
 11
23342.84414269737
 21
20197.90081717258
 31
0.0
  0
DIMENSION
  5
6CD
  8
SP
  2
*D15
 10
24801.04414269737
 20
20684.40973121101
 30
0.0
 11
24334.90651774147
 21
20684.40973121101
 31
0.0
 70
   128
 13
24006.04414269737
 23
20716.352070575402
 33
0.0
 14
24801.04414269737
 24
19876.079432516159
 34
0.0
1001
ACAD
1000
DSTYLE
1002
{
1070
    40
1040
40.0
1002
}
  0
LINE
  5
6E1
  8
FUTO
 10
24666.044142697359
 20
18979.779432516159
 30
0.0
 11
24666.044142697359
 21
20197.90081717258
 31
0.0
  0
LINE
  5
6E2
  8
FUTO
 10
24669.24414269736
 20
18979.779432516159
 30
0.0
 11
24669.244142697371
 21
20197.90081717258
 31
0.0
  0
LINE
  5
6E3
  8
FUTO
 10
24734.244142697811
 20
20197.90081717258
 30
0.0
 11
24734.244142697389
 21
19003.218015593618
 31
0.0
  0
LINE
  5
701
  8
FUTO
 10
24734.244142697429
 20
19003.2180155936
 30
0.0
 11
24759.244142697429
 21
18987.198860287848
 31
0.0
  0
INSERT
  5
702
  8
FUTO
  2
まっすぐの矢印
 10
24996.517295267869
 20
19396.625735365262
 30
0.0
 41
2.0
 42
2.0
 43
2.0
 50
90.0
  0
LINE
  5
704
  8
FUTO
 10
24734.24414269736
 20
19817.079432516151
 30
0.0
 11
24801.04414269737
 21
19817.079432516151
 31
0.0
  0
LINE
  5
705
  8
KL
 10
24669.24414269736
 20
19811.079432516151
 30
0.0
 11
24801.04414269737
 21
19811.079432516151
 31
0.0
  0
LINE
  5
706
  8
HOSO
 10
24640.30617288937
 20
19851.079432516151
 30
0.0
 11
24700.13652171944
 21
19851.079432516151
 31
0.0
  0
LINE
  5
707
  8
KL
 10
24675.24414269736
 20
19876.079432516159
 30
0.0
 11
24669.24414269736
 21
19876.079432516159
 31
0.0
  0
LINE
  5
708
  8
KL
 10
24669.24414269736
 20
19817.079432516151
 30
0.0
 11
24734.24414269736
 21
19817.079432516151
 31
0.0
  0
LINE
  5
709
  8
FUTO
 10
24795.04414269737
 20
19876.079432516159
 30
0.0
 11
24801.04414269737
 21
19876.079432516159
 31
0.0
  0
LINE
  5
70A
  8
HOSO
 10
24768.37636613768
 20
19851.079432516151
 30
0.0
 11
24828.20671496776
 21
19851.079432516151
 31
0.0
  0
LINE
  5
88D
  8
CT
 10
17285.433538398891
 20
23781.794360726839
 30
0.0
 11
20617.703141446102
 21
23781.794360726832
 31
0.0
  0
LINE
  5
88E
  8
FUTO
 10
20130.468697737178
 20
23052.794360726832
 30
0.0
 11
20130.468697737178
 21
24510.794360726832
 31
0.0
  0
LINE
  5
89C
  8
FUTO
 10
20065.468697737178
 20
23052.794360726832
 30
0.0
 11
20130.468697737178
 21
23052.794360726832
 31
0.0
  0
LINE
  5
89D
  8
FUTO
 10
20065.468697737178
 20
23052.794360726832
 30
0.0
 11
20065.468697737178
 21
24510.794360726832
 31
0.0
  0
LINE
  5
89E
  8
FUTO
 10
20065.468697737178
 20
24510.794360726832
 30
0.0
 11
20130.468697737178
 21
24510.794360726832
 31
0.0
  0
LINE
  5
89F
  8
FUTO
 10
17411.468697737178
 20
24445.794360726832
 30
0.0
 11
17411.468697737178
 21
23117.794360726839
 31
0.0
  0
LINE
  5
8A0
  8
FUTO
 10
17361.468697737178
 20
24495.794360726832
 30
0.0
 11
20065.468697737178
 21
24495.794360726832
 31
0.0
  0
LINE
  5
8A1
  8
FUTO
 10
17361.468697737178
 20
24495.794360726832
 30
0.0
 11
17361.468697737178
 21
23067.794360726832
 31
0.0
  0
LINE
  5
8A2
  8
FUTO
 10
17361.468697737178
 20
23067.794360726832
 30
0.0
 11
20065.468697737178
 21
23067.794360726832
 31
0.0
  0
LINE
  5
8A3
  8
FUTO
 10
17411.468697737178
 20
23117.794360726839
 30
0.0
 11
18265.468697737178
 21
23117.794360726832
 31
0.0
  0
LINE
  5
8A4
  8
FUTO
 10
17905.468697737178
 20
24495.794360726832
 30
0.0
 11
17905.468697737178
 21
24520.794360726839
 31
0.0
  0
LINE
  5
8A5
  8
FUTO
 10
20025.468697737178
 20
24495.794360726832
 30
0.0
 11
20025.468697737178
 21
24520.794360726832
 31
0.0
  0
LINE
  5
132F
  8
FUTO
 10
19345.468697737178
 20
21331.794360726832
 30
0.0
 11
17185.468697737178
 21
21331.794360726832
 31
0.0
  0
LINE
  5
1330
  8
FUTO
 10
19345.468697737178
 20
21681.794360726832
 30
0.0
 11
17185.468697737178
 21
21681.794360726832
 31
0.0
  0
LINE
  5
1336
  8
SL
 10
19245.468697737178
 20
21481.794360726832
 30
0.0
 11
17265.468697737178
 21
21481.794360726839
 31
0.0
  0
LINE
  5
1337
  8
SL
 10
19245.468697737178
 20
21651.794360726832
 30
0.0
 11
17265.468697737178
 21
21651.794360726832
 31
0.0
  0
LINE
  5
1338
  8
CT
 10
18965.468697737178
 20
21279.868239042051
 30
0.0
 11
18965.468697737178
 21
24775.789663899061
 31
0.0
  0
LINE
  5
1342
  8
FUTO
 10
19069.468697737178
 20
21754.294360726832
 30
0.0
 11
19069.468697737178
 21
21765.794360726832
 31
0.0
  0
LINE
  5
1343
  8
FUTO
 10
18861.468697737178
 20
21887.294360726832
 30
0.0
 11
18861.468697737178
 21
21754.294360726832
 31
0.0
  0
ARC
  5
1344
  8
FUTO
 10
18867.468697737178
 20
21754.294360726832
 30
0.0
 40
6.0
 50
180.0
 51
270.0
  0
LINE
  5
1345
  8
SL
 10
18685.468697737178
 20
21481.794360726832
 30
0.0
 11
18685.468697737178
 21
21651.794360726832
 31
0.0
  0
LINE
  5
1346
  8
FUTO
 10
18917.968697737178
 20
21651.794360726832
 30
0.0
 11
18917.968697737178
 21
21743.294360726832
 31
0.0
  0
LINE
  5
1347
  8
FUTO
 10
19012.968697737178
 20
21651.794360726832
 30
0.0
 11
19012.968697737178
 21
21743.294360726832
 31
0.0
  0
LINE
  5
1348
  8
FUTO
 10
18875.468697737178
 20
21743.294360726832
 30
0.0
 11
19055.468697737178
 21
21743.294360726832
 31
0.0
  0
LINE
  5
1349
  8
FUTO
 10
18867.468697737178
 20
21748.294360726832
 30
0.0
 11
19063.468697737178
 21
21748.294360726832
 31
0.0
  0
LINE
  5
134A
  8
FUTO
 10
19055.468697737178
 20
21743.294360726832
 30
0.0
 11
19055.468697737178
 21
21748.294360726832
 31
0.0
  0
ARC
  5
134B
  8
FUTO
 10
19063.468697737178
 20
21754.294360726832
 30
0.0
 40
6.0
 50
270.0
 51
0.000000000000007
  0
LINE
  5
134C
  8
FUTO
 10
18875.468697737178
 20
21748.294360726832
 30
0.0
 11
18875.468697737178
 21
21743.294360726832
 31
0.0
  0
LINE
  5
1353
  8
FUTO
 10
18912.968697737178
 20
21898.294360726832
 30
0.0
 11
18912.968697737178
 21
22728.294360726832
 31
0.0
  0
LINE
  5
1354
  8
FUTO
 10
19017.968697737178
 20
21898.294360726832
 30
0.0
 11
19017.968697737178
 21
22728.294360726832
 31
0.0
  0
LINE
  5
1357
  8
CT
 10
18841.69993857247
 20
21820.794360726832
 30
0.0
 11
19095.2924216393
 21
21820.794360726832
 31
0.0
  0
LINE
  5
1358
  8
FUTO
 10
18861.468697737178
 20
21765.794360726832
 30
0.0
 11
19069.468697737178
 21
21765.794360726832
 31
0.0
  0
LINE
  5
1359
  8
FUTO
 10
18861.468697737178
 20
21875.794360726832
 30
0.0
 11
19069.468697737178
 21
21875.794360726832
 31
0.0
  0
ARC
  5
135A
  8
FUTO
 10
18867.468697737178
 20
21887.294360726832
 30
0.0
 40
6.0
 50
90.0
 51
180.0
  0
LINE
  5
135B
  8
CT
 10
18784.40278331755
 20
21820.794360726832
 30
0.0
 11
19174.402951262971
 21
21820.794360726832
 31
0.0
  0
LINE
  5
135F
  8
FUTO
 10
18867.468697737178
 20
21893.294360726832
 30
0.0
 11
19063.468697737178
 21
21893.294360726832
 31
0.0
  0
LINE
  5
1360
  8
FUTO
 10
18875.468697737178
 20
21898.294360726832
 30
0.0
 11
19055.468697737178
 21
21898.294360726832
 31
0.0
  0
LINE
  5
1362
  8
FUTO
 10
19069.468697737178
 20
21887.294360726832
 30
0.0
 11
19069.468697737178
 21
21875.794360726832
 31
0.0
  0
ARC
  5
1363
  8
FUTO
 10
19063.468697737178
 20
21887.294360726832
 30
0.0
 40
6.0
 50
0.000000000000007
 51
90.0
  0
LINE
  5
1364
  8
FUTO
 10
19055.468697737178
 20
21898.294360726832
 30
0.0
 11
19055.468697737178
 21
21893.294360726832
 31
0.0
  0
LINE
  5
1365
  8
FUTO
 10
18875.468697737178
 20
21893.294360726832
 30
0.0
 11
18875.468697737178
 21
21898.294360726832
 31
0.0
  0
LINE
  5
136A
  8
FUTO
 10
18835.468697737178
 20
22743.294360726832
 30
0.0
 11
19095.468697737178
 21
22743.294360726832
 31
0.0
  0
LINE
  5
136B
  8
CT
 10
18801.30711807097
 20
22821.794360726832
 30
0.0
 11
19143.176740915071
 21
22821.794360726832
 31
0.0
  0
LINE
  5
136C
  8
FUTO
 10
18835.468697737178
 20
22755.294360726832
 30
0.0
 11
19095.468697737178
 21
22755.294360726832
 31
0.0
  0
LINE
  5
136D
  8
FUTO
 10
18881.468697737178
 20
22728.294360726832
 30
0.0
 11
18857.968697737178
 21
22743.294360726832
 31
0.0
  0
LINE
  5
136E
  8
FUTO
 10
19095.468697737178
 20
22900.294360726832
 30
0.0
 11
18835.468697737178
 21
22900.294360726832
 31
0.0
  0
LINE
  5
136F
  8
FUTO
 10
19095.468697737178
 20
22888.294360726832
 30
0.0
 11
18835.468760931559
 21
22888.294360726832
 31
0.0
  0
LINE
  5
1370
  8
FUTO
 10
18835.468697737178
 20
22888.294360726832
 30
0.0
 11
19050.468697737178
 21
22888.294360726832
 31
0.0
  0
LINE
  5
1371
  8
FUTO
 10
18857.968697737178
 20
22900.294360726832
 30
0.0
 11
18881.468697737178
 21
22915.294360726832
 31
0.0
  0
LINE
  5
1372
  8
CT
 10
18756.697869656939
 20
22821.794360726832
 30
0.0
 11
19206.37017342453
 21
22821.794360726832
 31
0.0
  0
LINE
  5
137E
  8
FUTO
 10
19072.968697737178
 20
22743.294360726832
 30
0.0
 11
19049.468697737178
 21
22728.294360726832
 31
0.0
  0
LINE
  5
1381
  8
FUTO
 10
19095.468697737178
 20
22743.294360726832
 30
0.0
 11
19095.468697737178
 21
22746.794360726832
 31
0.0
  0
LINE
  5
1382
  8
FUTO
 10
19049.468697737178
 20
22728.294360726832
 30
0.0
 11
18881.468697737178
 21
22728.294360726832
 31
0.0
  0
LINE
  5
1384
  8
FUTO
 10
19049.468697737178
 20
22915.294360726832
 30
0.0
 11
19072.968697737178
 21
22900.294360726832
 31
0.0
  0
LINE
  5
1386
  8
FUTO
 10
19095.468697737178
 20
22896.794360726832
 30
0.0
 11
19095.468697737178
 21
22900.294360726832
 31
0.0
  0
LINE
  5
1387
  8
FUTO
 10
18881.468697737178
 20
22915.294360726832
 30
0.0
 11
19049.468697737178
 21
22915.294360726832
 31
0.0
  0
LINE
  5
13A3
  8
CT
 10
18965.468697737178
 20
22933.184698963159
 30
0.0
 11
18965.468697737178
 21
23042.527320839072
 31
0.0
  0
LINE
  5
13B2
  8
FUTO
 10
19017.968697737178
 20
22915.294360726832
 30
0.0
 11
19017.968697737178
 21
23067.794360726832
 31
0.0
  0
LINE
  5
13B4
  8
FUTO
 10
18912.968697737178
 20
22915.294360726832
 30
0.0
 11
18912.968697737178
 21
23067.794360726832
 31
0.0
  0
LINE
  5
13BE
  8
FUTO
 10
18817.468697737178
 20
22883.294360726832
 30
0.0
 11
18817.468697737178
 21
22760.294360726832
 31
0.0
  0
LINE
  5
13BF
  8
FUTO
 10
18835.468697737178
 20
22760.294360726832
 30
0.0
 11
18835.468697737178
 21
22743.294360726832
 31
0.0
  0
LINE
  5
13C0
  8
FUTO
 10
18817.468697737178
 20
22760.294360726832
 30
0.0
 11
18835.468697737178
 21
22760.294360726832
 31
0.0
  0
LINE
  5
13C1
  8
FUTO
 10
18835.468697737178
 20
22883.294360726832
 30
0.0
 11
18817.468697737178
 21
22883.294360726832
 31
0.0
  0
LINE
  5
13C2
  8
FUTO
 10
18835.468697737178
 20
22900.294360726832
 30
0.0
 11
18835.468697737178
 21
22883.294360726832
 31
0.0
  0
LINE
  5
13E1
  8
FUTO
 10
19345.468697737178
 20
21331.794360726832
 30
0.0
 11
19345.468697737178
 21
21681.794360726832
 31
0.0
  0
LINE
  5
13E2
  8
SL
 10
19245.468697737178
 20
21481.794360726832
 30
0.0
 11
19245.468697737178
 21
21651.794360726832
 31
0.0
  0
DIMENSION
  5
1417
  8
SP
  2
*D3
 10
24006.04414269737
 20
20684.40973121101
 30
0.0
 11
22781.04414269737
 21
20795.838302639579
 31
0.0
 70
     0
  1
(<>)
 13
21556.04414269737
 23
19291.079432516151
 33
0.0
 14
24006.04414269737
 24
20213.033924506301
 34
0.0
1001
ACAD
1000
DSTYLE
1002
{
1070
    40
1040
40.0
1002
}
  0
LINE
  5
1453
  8
FUTO
 10
19069.468697737178
 20
21887.294360726832
 30
0.0
 11
19069.468697737178
 21
21754.294360726832
 31
0.0
  0
LINE
  5
1454
  8
FUTO
 10
19113.468697737178
 20
22883.294360726832
 30
0.0
 11
19113.468697737178
 21
22760.294360726832
 31
0.0
  0
LINE
  5
1455
  8
FUTO
 10
19113.468697737178
 20
22760.294360726832
 30
0.0
 11
19095.468697737178
 21
22760.294360726832
 31
0.0
  0
LINE
  5
1456
  8
FUTO
 10
19095.468697737178
 20
22760.294360726832
 30
0.0
 11
19095.468697737178
 21
22743.294360726832
 31
0.0
  0
LINE
  5
1457
  8
FUTO
 10
19095.468697737178
 20
22900.294360726832
 30
0.0
 11
19095.468697737178
 21
22883.294360726832
 31
0.0
  0
LINE
  5
1458
  8
FUTO
 10
19095.468697737178
 20
22883.294360726832
 30
0.0
 11
19113.468697737178
 21
22883.294360726832
 31
0.0
  0
LINE
  5
1698
  8
KL
 10
21944.54414269737
 20
16981.079432516159
 30
0.0
 11
21944.54414269737
 21
16911.079432518021
 31
0.0
  0
LINE
  5
1699
  8
KL
 10
22644.54414269737
 20
16981.079432516159
 30
0.0
 11
22644.544142697359
 21
16911.07943251805
 31
0.0
  0
LINE
  5
169A
  8
KL
 10
22439.54414269737
 20
16981.079432516159
 30
0.0
 11
21944.54414269737
 21
16981.079432516159
 31
0.0
  0
LINE
  5
169B
  8
KL
 10
21944.54414269737
 20
16981.079432516159
 30
0.0
 11
22644.54414269737
 21
16981.079432516159
 31
0.0
  0
LINE
  5
16AB
  8
FUTO
 10
21881.04414269737
 20
17361.079432516151
 30
0.0
 11
21881.04414269737
 21
17161.079432516151
 31
0.0
  0
LINE
  5
16AC
  8
KL
 10
23115.044142697359
 20
17521.079432516159
 30
0.0
 11
23115.044142697359
 21
17042.930494434069
 31
0.0
  0
LINE
  5
16AD
  8
FUTO
 10
21901.04414269737
 20
17571.079432516151
 30
0.0
 11
21901.04414269737
 21
16994.852709043978
 31
0.0
  0
LINE
  5
16AE
  8
KL
 10
21980.04414269737
 20
17571.079432516159
 30
0.0
 11
21980.04414269737
 21
16994.852709043978
 31
0.0
  0
LINE
  5
16AF
  8
KL
 10
22865.04414269737
 20
17571.079432516151
 30
0.0
 11
22865.04414269737
 21
16992.930494434069
 31
0.0
  0
LINE
  5
16B0
  8
CT
 10
22294.54414269737
 20
17607.7188005028
 30
0.0
 11
22294.54414269737
 21
16889.130905499071
 31
0.0
  0
LINE
  5
16B1
  8
KL
 10
22439.54414269737
 20
16981.079432516159
 30
0.0
 11
22559.54414269737
 21
16981.079432516151
 31
0.0
  0
LINE
  5
16B2
  8
KL
 10
22029.54414269737
 20
17011.079432516159
 30
0.0
 11
22559.54414269737
 21
17011.079432516151
 31
0.0
  0
LINE
  5
16B3
  8
KL
 10
22865.04414269737
 20
16992.930494434069
 30
0.0
 11
23065.04414269737
 21
16992.930494434069
 31
0.0
  0
ARC
  5
16B4
  8
KL
 10
23065.04414269737
 20
17042.930494434069
 30
0.0
 40
50.0
 50
270.0
 51
0.0
  0
LINE
  5
16B5
  8
KL
 10
22559.54414269737
 20
16992.930494434069
 30
0.0
 11
22844.718924699198
 21
16992.930494434069
 31
0.0
  0
LINE
  5
16B6
  8
KL
 10
22865.04414269737
 20
17004.46378209352
 30
0.0
 11
22844.718924699209
 21
16992.930494434069
 31
0.0
  0
LINE
  5
16B7
  8
CT
 10
22523.04414269737
 20
17035.0701842751
 30
0.0
 11
22523.04414269737
 21
16964.597142192619
 31
0.0
  0
LINE
  5
16B8
  8
KL
 10
22559.54414269737
 20
17011.079432516151
 30
0.0
 11
22559.54414269737
 21
16981.079432516151
 31
0.0
  0
LINE
  5
16B9
  8
KL
 10
22439.54414269737
 20
16992.930494434069
 30
0.0
 11
22149.54414269737
 21
16992.930494434069
 31
0.0
  0
LINE
  5
16BA
  8
KL
 10
22439.54414269737
 20
16992.930494434069
 30
0.0
 11
22439.54414269737
 21
16981.079432516151
 31
0.0
  0
LINE
  5
16BB
  8
KL
 10
22029.54414269737
 20
17011.079432516151
 30
0.0
 11
22029.54414269737
 21
16981.079432516151
 31
0.0
  0
LINE
  5
16BC
  8
CT
 10
22066.04414269737
 20
17035.0701842751
 30
0.0
 11
22066.04414269737
 21
16964.597142192619
 31
0.0
  0
LINE
  5
16BD
  8
KL
 10
22029.54414269737
 20
16994.852709043978
 30
0.0
 11
21901.04414269737
 21
16994.852709043978
 31
0.0
  0
LINE
  5
16BE
  8
KL
 10
22149.54414269737
 20
16992.930494434069
 30
0.0
 11
22149.54414269737
 21
16981.079432516151
 31
0.0
  0
LINE
  5
16BF
  8
KL
 10
22029.54414269737
 20
16981.079432516159
 30
0.0
 11
22149.54414269737
 21
16981.079432516159
 31
0.0
  0
LINE
  5
16C0
  8
FUTO
 10
21901.04414269737
 20
17161.079432516151
 30
0.0
 11
21881.04414269737
 21
17161.079432516151
 31
0.0
  0
LINE
  5
16C1
  8
KL
 10
22843.649316531799
 20
17571.079432516151
 30
0.0
 11
21901.04414269737
 21
17571.079432516151
 31
0.0
  0
LINE
  5
16C2
  8
CT
 10
23151.686908161799
 20
17261.079432516159
 30
0.0
 11
21679.895311857981
 21
17261.079432516159
 31
0.0
  0
LINE
  5
16C3
  8
KL
 10
23065.04414269737
 20
17571.079432516151
 30
0.0
 11
22865.04414269737
 21
17571.079432516159
 31
0.0
  0
ARC
  5
16C4
  8
KL
 10
23065.04414269737
 20
17521.079432516159
 30
0.0
 40
50.0
 50
0.0
 51
90.0
  0
LINE
  5
16C5
  8
KL
 10
22865.04414269737
 20
17546.528302087409
 30
0.0
 11
22843.649316531799
 21
17571.079432516151
 31
0.0
  0
LINE
  5
16C6
  8
FUTO
 10
21881.04414269737
 20
17303.579432516151
 30
0.0
 11
21706.04414269737
 21
17303.579432516151
 31
0.0
  0
LINE
  5
16C7
  8
FUTO
 10
21881.04414269737
 20
17218.579432516151
 30
0.0
 11
21706.04414269737
 21
17218.579432516151
 31
0.0
  0
LINE
  5
16C8
  8
CT
 10
22090.044142697359
 20
17894.449146480649
 30
0.0
 11
22090.044142697359
 21
17495.589614924858
 31
0.0
  0
LINE
  5
16C9
  8
FUTO
 10
21901.04414269737
 20
17361.079432516151
 30
0.0
 11
21881.04414269737
 21
17361.079432516151
 31
0.0
  0
LINE
  5
16CA
  8
KL
 10
22190.04414269737
 20
17851.079432516151
 30
0.0
 11
21990.04414269737
 21
17851.079432516151
 31
0.0
  0
LINE
  5
16CB
  8
KL
 10
22190.04414269737
 20
17586.079432516151
 30
0.0
 11
21990.04414269737
 21
17586.079432516151
 31
0.0
  0
LINE
  5
16CC
  8
CT
 10
22253.91006988375
 20
17711.079432516151
 30
0.0
 11
21951.77388049923
 21
17711.079432516151
 31
0.0
  0
LINE
  5
16CD
  8
KL
 10
22210.044142697359
 20
17831.079432516151
 30
0.0
 11
22210.044142697359
 21
17606.079432516151
 31
0.0
  0
ARC
  5
16CE
  8
KL
 10
22190.04414269737
 20
17606.079432516151
 30
0.0
 40
20.0
 50
270.0
 51
0.0
  0
ARC
  5
16CF
  8
KL
 10
22190.04414269737
 20
17831.079432516151
 30
0.0
 40
20.0
 50
0.0
 51
90.0
  0
LINE
  5
16D0
  8
KL
 10
21970.044142697359
 20
17831.079432516151
 30
0.0
 11
21970.044142697359
 21
17606.079432516151
 31
0.0
  0
ARC
  5
16D1
  8
KL
 10
21990.04414269737
 20
17606.079432516151
 30
0.0
 40
20.0
 50
180.0
 51
270.0
  0
ARC
  5
16D2
  8
KL
 10
21990.04414269737
 20
17831.079432516151
 30
0.0
 40
20.0
 50
90.0
 51
180.0
  0
LINE
  5
16D3
  8
FUTO
 10
21876.04414269737
 20
17303.579432516151
 30
0.0
 11
21876.04414269737
 21
17218.579432516159
 31
0.0
  0
LINE
  5
16D4
  8
FUTO
 10
21706.04414269737
 20
17303.579432516151
 30
0.0
 11
21706.04414269737
 21
17218.579432516151
 31
0.0
  0
LINE
  5
17EE
  8
FUTO
 10
17775.468697737138
 20
22619.399534561271
 30
0.0
 11
17775.468697737171
 21
21676.79436072685
 31
0.0
  0
LINE
  5
17EF
  8
CT
 10
17465.46869773712
 20
22927.437126191271
 30
0.0
 11
17465.468697737178
 21
21455.64552988745
 31
0.0
  0
LINE
  5
17F0
  8
FUTO
 10
17155.468697737138
 20
22619.399534561249
 30
0.0
 11
17155.468697737171
 21
21676.794360726832
 31
0.0
  0
LINE
  5
17F1
  8
FUTO
 10
17675.46869773716
 20
21745.794360726839
 30
0.0
 11
17285.46869773716
 21
21745.794360726832
 31
0.0
  0
LINE
  5
17F2
  8
CT
 10
17257.155838359849
 20
21865.794360726832
 30
0.0
 11
17720.13847737437
 21
21865.794360726839
 31
0.0
  0
LINE
  5
17F3
  8
CT
 10
17118.829329750519
 20
22070.294360726821
 30
0.0
 11
17837.417224754241
 21
22070.29436072685
 31
0.0
  0
LINE
  5
17F4
  8
FUTO
 10
17155.468697737171
 20
21676.794360726832
 30
0.0
 11
17775.468697737171
 21
21676.79436072685
 31
0.0
  0
LINE
  5
17F5
  8
FUTO
 10
17365.468697737171
 20
21656.794360726839
 30
0.0
 11
17565.468697737171
 21
21656.794360726839
 31
0.0
  0
LINE
  5
17F6
  8
FUTO
 10
17675.46869773716
 20
21985.794360726839
 30
0.0
 11
17285.46869773716
 21
21985.794360726832
 31
0.0
  0
LINE
  5
17F7
  8
FUTO
 10
17096.12430889425
 20
21720.294360726821
 30
0.0
 11
17096.124308894228
 21
22420.294360726821
 31
0.0
  0
LINE
  5
17F8
  8
FUTO
 10
17265.46869773716
 20
21965.794360726832
 30
0.0
 11
17265.46869773716
 21
21865.794360726832
 31
0.0
  0
LINE
  5
17F9
  8
CT
 10
17465.468697737258
 20
21310.343404556748
 30
0.0
 11
17465.468697736669
 21
22568.749800672918
 31
0.0
  0
LINE
  5
17FA
  8
FUTO
 10
17155.46869773716
 20
21720.294360726821
 30
0.0
 11
17096.12430889425
 21
21720.294360726821
 31
0.0
  0
LINE
  5
17FE
  8
FUTO
 10
17507.968697737171
 20
21656.794360726839
 30
0.0
 11
17507.968697737178
 21
21481.794360726839
 31
0.0
  0
LINE
  5
17FF
  8
FUTO
 10
17422.968697737171
 20
21656.794360726839
 30
0.0
 11
17422.968697737178
 21
21481.794360726839
 31
0.0
  0
LINE
  5
1802
  8
FUTO
 10
17422.968697737178
 20
21481.794360726839
 30
0.0
 11
17507.968697737178
 21
21481.794360726839
 31
0.0
  0
ARC
  5
1804
  8
FUTO
 10
17285.46869773716
 20
21765.794360726832
 30
0.0
 40
20.0
 50
180.0
 51
270.0
  0
LINE
  5
1805
  8
FUTO
 10
17265.46869773716
 20
21765.794360726832
 30
0.0
 11
17265.46869773716
 21
21865.794360726832
 31
0.0
  0
LINE
  5
1806
  8
FUTO
 10
17155.46869773716
 20
21755.794360726821
 30
0.0
 11
17268.148189661471
 21
21755.794360726832
 31
0.0
  0
LINE
  5
1807
  8
FUTO
 10
17422.968697737171
 20
21651.794360726832
 30
0.0
 11
17507.968697737171
 21
21651.794360726832
 31
0.0
  0
LINE
  5
1808
  8
FUTO
 10
17365.468697737171
 20
21676.794360726832
 30
0.0
 11
17365.468697737171
 21
21656.794360726832
 31
0.0
  0
LINE
  5
1809
  8
FUTO
 10
17155.468697737138
 20
22420.294360726821
 30
0.0
 11
17096.124308894228
 21
22420.294360726821
 31
0.0
  0
ARC
  5
180A
  8
FUTO
 10
17285.46869773716
 20
21965.794360726832
 30
0.0
 40
20.0
 50
90.0
 51
180.0
  0
LINE
  5
180B
  8
FUTO
 10
17834.81308658007
 20
21720.29436072685
 30
0.0
 11
17834.813086580049
 21
22420.29436072685
 31
0.0
  0
LINE
  5
180C
  8
FUTO
 10
17695.46869773716
 20
21965.794360726839
 30
0.0
 11
17695.468697737171
 21
21865.794360726839
 31
0.0
  0
LINE
  5
180F
  8
FUTO
 10
17692.789205812849
 20
21755.794360726839
 30
0.0
 11
17775.46869773716
 21
21755.79436072685
 31
0.0
  0
LINE
  5
1810
  8
CT
 10
17740.040252691371
 20
21841.794360726839
 30
0.0
 11
17810.513294773838
 21
21841.79436072685
 31
0.0
  0
ARC
  5
1811
  8
FUTO
 10
17675.46869773716
 20
21765.794360726839
 30
0.0
 40
20.0
 50
270.0
 51
0.000000000000007
  0
LINE
  5
1812
  8
FUTO
 10
17695.46869773716
 20
21765.794360726839
 30
0.0
 11
17695.468697737171
 21
21865.794360726839
 31
0.0
  0
LINE
  5
1813
  8
FUTO
 10
17565.468697737171
 20
21676.794360726839
 30
0.0
 11
17565.468697737171
 21
21656.794360726839
 31
0.0
  0
LINE
  5
1814
  8
FUTO
 10
17775.46869773716
 20
21720.29436072685
 30
0.0
 11
17834.81308658007
 21
21720.29436072685
 31
0.0
  0
ARC
  5
1815
  8
FUTO
 10
17675.46869773716
 20
21965.794360726839
 30
0.0
 40
20.0
 50
0.000000000000007
 51
90.0
  0
LINE
  5
1816
  8
CT
 10
17740.040252691349
 20
22298.79436072685
 30
0.0
 11
17810.51329477382
 21
22298.79436072685
 31
0.0
  0
LINE
  5
1817
  8
FUTO
 10
17775.468697737138
 20
22420.29436072685
 30
0.0
 11
17834.813086580049
 21
22420.29436072685
 31
0.0
  0
LINE
  5
181A
  8
FUTO
 10
17155.468697737138
 20
22640.794360726821
 30
0.0
 11
17775.468697737138
 21
22640.79436072685
 31
0.0
  0
LINE
  5
181B
  8
FUTO
 10
17205.46869773712
 20
22890.794360726832
 30
0.0
 11
17725.46869773712
 21
22890.794360726839
 31
0.0
  0
LINE
  5
181F
  8
FUTO
 10
17180.019828165881
 20
22640.794360726832
 30
0.0
 11
17155.468697737138
 21
22619.399534561249
 31
0.0
  0
ARC
  5
1820
  8
FUTO
 10
17205.468697737131
 20
22840.794360726832
 30
0.0
 40
50.0
 50
90.0
 51
180.0
  0
LINE
  5
1821
  8
FUTO
 10
17155.468697737131
 20
22840.794360726821
 30
0.0
 11
17155.468697737138
 21
22640.794360726821
 31
0.0
  0
ARC
  5
1824
  8
FUTO
 10
17725.468697737131
 20
22840.794360726839
 30
0.0
 40
50.0
 50
0.000000000000007
 51
90.0
  0
LINE
  5
1825
  8
FUTO
 10
17750.917567308381
 20
22640.79436072685
 30
0.0
 11
17775.468697737138
 21
22619.399534561271
 31
0.0
  0
LINE
  5
1826
  8
FUTO
 10
17775.468697737131
 20
22840.79436072685
 30
0.0
 11
17775.468697737138
 21
22640.79436072685
 31
0.0
  0
LINE
  5
1827
  8
FUTO
 10
17025.468697737178
 20
21745.794360726832
 30
0.0
 11
17025.468697737178
 21
21670.794360726832
 31
0.0
  0
LINE
  5
1828
  8
FUTO
 10
17201.58878329234
 20
23042.794360726832
 30
0.0
 11
17201.58878329234
 21
22890.643596066009
 31
0.0
  0
LINE
  5
1829
  8
FUTO
 10
17729.348612181839
 20
23042.794360726952
 30
0.0
 11
17729.348612181901
 21
22890.643596066129
 31
0.0
  0
LINE
  5
182A
  8
FUTO
 10
17654.348612181839
 20
23042.794360726919
 30
0.0
 11
17654.348612181911
 21
22890.794360726912
 31
0.0
  0
LINE
  5
182B
  8
SL
 10
17265.468697737178
 20
21481.794360726839
 30
0.0
 11
17265.468697737178
 21
21651.794360726832
 31
0.0
  0
LINE
  5
182D
  8
FUTO
 10
17185.468697737178
 20
21331.794360726832
 30
0.0
 11
17185.468697737178
 21
21681.794360726832
 31
0.0
  0
LINE
  5
182F
  8
FUTO
 10
19307.517123561222
 20
21745.794360726832
 30
0.0
 11
19307.517123561222
 21
23067.794360726832
 31
0.0
  0
LINE
  5
1830
  8
FUTO
 10
18623.420271913139
 20
21745.794360726832
 30
0.0
 11
18623.420271913139
 21
23067.794360726832
 31
0.0
  0
LINE
  5
1832
  8
FUTO
 10
18000.468697737178
 20
24576.794360726832
 30
0.0
 11
19930.468697737178
 21
24576.794360726832
 31
0.0
  0
LINE
  5
1833
  8
FUTO
 10
18000.468697737178
 20
24570.794360726832
 30
0.0
 11
19930.468697737178
 21
24570.794360726832
 31
0.0
  0
LINE
  5
1834
  8
KL
 10
18000.468697737178
 20
24450.994360726829
 30
0.0
 11
19930.468697737178
 21
24450.994360726829
 31
0.0
  0
LINE
  5
1839
  8
KL
 10
19865.468697737178
 20
24444.994360726829
 30
0.0
 11
19865.468697737178
 21
24576.794360726832
 31
0.0
  0
LINE
  5
183A
  8
KL
 10
19871.468697737178
 20
24444.994360726829
 30
0.0
 11
19871.468697737178
 21
24534.994360726829
 31
0.0
  0
LINE
  5
183B
  8
KL
 10
19930.468697737178
 20
24444.994360726829
 30
0.0
 11
19930.468697737178
 21
24450.994360726829
 31
0.0
  0
LINE
  5
183C
  8
HOSO
 10
19905.468697737178
 20
24402.460351115911
 30
0.0
 11
19905.468697737178
 21
24476.567966264181
 31
0.0
  0
LINE
  5
183D
  8
HOSO
 10
19905.468697737178
 20
24543.311814540812
 30
0.0
 11
19905.468697737178
 21
24617.419429689071
 31
0.0
  0
LINE
  5
183E
  8
FUTO
 10
19930.468697737178
 20
24570.794360726832
 30
0.0
 11
19930.468697737178
 21
24576.794360726832
 31
0.0
  0
LINE
  5
183F
  8
FUTO
 10
19871.468697737178
 20
24534.994360726829
 30
0.0
 11
19871.468697737178
 21
24576.794360726832
 31
0.0
  0
INSERT
  5
185B
  8
FUTO
  2
まっすぐの矢印
 10
18479.922394888072
 20
24772.267513297342
 30
0.0
 41
2.0
 42
2.0
 43
2.0
 50
180.0
  0
LINE
  5
185D
  8
KL
 10
18065.468697737178
 20
24444.994360726829
 30
0.0
 11
18065.468697737178
 21
24576.794360726832
 31
0.0
  0
LINE
  5
185E
  8
FUTO
 10
18059.468697737178
 20
24509.994360726829
 30
0.0
 11
18059.468697737178
 21
24576.794360726832
 31
0.0
  0
LINE
  5
185F
  8
KL
 10
18059.468697737178
 20
24444.994360726829
 30
0.0
 11
18059.468697737178
 21
24509.994360726829
 31
0.0
  0
LINE
  5
1860
  8
KL
 10
18000.468697737178
 20
24450.994360726829
 30
0.0
 11
18000.468697737178
 21
24444.994360726829
 31
0.0
  0
LINE
  5
1861
  8
HOSO
 10
18025.468697737178
 20
24416.056390918831
 30
0.0
 11
18025.468697737178
 21
24475.886739748908
 31
0.0
  0
LINE
  5
1862
  8
HOSO
 10
18025.468697737178
 20
24544.126584167148
 30
0.0
 11
18025.468697737178
 21
24603.956932997218
 31
0.0
  0
LINE
  5
1863
  8
FUTO
 10
18000.468697737178
 20
24570.794360726832
 30
0.0
 11
18000.468697737178
 21
24576.794360726832
 31
0.0
  0
LINE
  5
188F
  8
FUTO
 10
19444.30259607609
 20
18946.143601975458
 30
0.0
 11
20104.191005445638
 21
19004.702718491539
 31
0.0
  0
LINE
  5
1890
  8
FUTO
 10
19442.712212572271
 20
18964.073205437639
 30
0.0
 11
20106.600666148712
 21
19022.98713204946
 31
0.0
  0
LINE
  5
1891
  8
KL
 10
18154.586008474151
 20
18921.70563251615
 30
0.0
 11
18765.468697737178
 21
18921.70563251615
 31
0.0
  0
LINE
  5
1892
  8
KL
 10
18129.49649743304
 20
18903.705632516161
 30
0.0
 11
18765.468697737178
 21
18903.70563251615
 31
0.0
  0
LINE
  5
1893
  8
KL
 10
17915.468697737178
 20
17964.332793707039
 30
0.0
 11
17915.468697737178
 21
17295.95411756586
 31
0.0
  0
LINE
  5
1894
  8
KL
 10
17924.468697737178
 20
17968.016183687709
 30
0.0
 11
17924.468697737178
 21
17304.22440633662
 31
0.0
  0
LINE
  5
1895
  8
FUTO
 10
17906.468697737178
 20
18903.70563251615
 30
0.0
 11
17906.468697737178
 21
18309.107526734959
 31
0.0
  0
LINE
  5
1896
  8
FUTO
 10
17915.468697737178
 20
18750.155394402202
 30
0.0
 11
17915.468697737178
 21
18332.88369127487
 31
0.0
  0
LINE
  5
1897
  8
FUTO
 10
17924.468697737178
 20
18756.61227591474
 30
0.0
 11
17924.468697737178
 21
18332.88369127487
 31
0.0
  0
DIMENSION
  5
1909
  8
SP
  2
*D4
 10
20130.468697737178
 20
25034.668292209779
 30
0.0
 11
19547.968697737178
 21
25114.668292209779
 31
0.0
 70
     0
 13
18965.468697737178
 23
24775.789663899061
 33
0.0
 14
20130.468697737178
 24
24510.794360726832
 34
0.0
1001
ACAD
1000
DSTYLE
1002
{
1070
    40
1040
40.0
1002
}
  0
DIMENSION
  5
1916
  8
SP
  2
*D5
 10
17025.468697737178
 20
25034.668292209779
 30
0.0
 11
17995.468697737178
 21
25114.668292209779
 31
0.0
 70
     0
 13
18965.468697737178
 23
25034.668292209779
 33
0.0
 14
17025.468697737178
 24
23117.794360726832
 34
0.0
1001
ACAD
1000
DSTYLE
1002
{
1070
    40
1040
40.0
1002
}
  0
DIMENSION
  5
1923
  8
SP
  2
*D6
 10
20550.45496322729
 20
23781.794360726832
 30
0.0
 11
20470.45496322729
 21
24179.294360726839
 31
0.0
 70
     0
 13
19930.468697737178
 23
24576.794360726832
 33
0.0
 14
20617.703141446102
 24
23781.794360726832
 34
0.0
 50
90.0
1001
ACAD
1000
DSTYLE
1002
{
1070
    40
1040
40.0
1002
}
  0
DIMENSION
  5
1930
  8
SP
  2
*D7
 10
20550.45496322729
 20
21331.794360726832
 30
0.0
 11
20470.45496322729
 21
22556.794360726832
 31
0.0
 70
     0
 13
20550.45496322729
 23
23781.794360726832
 33
0.0
 14
19345.468697737178
 24
21331.794360726832
 34
0.0
 50
90.0
1001
ACAD
1000
DSTYLE
1002
{
1070
    40
1040
40.0
1002
}
  0
LINE
  5
19B8
  8
FUTO
 10
21955.04414269737
 20
17571.079432516151
 30
0.0
 11
21955.04414269737
 21
16912.70561591017
 31
0.0
  0
LINE
  5
1A4E
  8
FUTO
 10
19665.468697737178
 20
16926.870527054569
 30
0.0
 11
19341.404498061082
 21
18614.255847736829
 31
0.0
  0
LINE
  5
1A4F
  8
SL
 10
17308.487190550972
 20
17386.628214806649
 30
0.0
 11
18686.82652248165
 21
19132.668216081791
 31
0.0
  0
LINE
  5
1A50
  8
SL
 10
17603.747339161699
 20
17118.209897887798
 30
0.0
 11
19210.91328626571
 21
18656.22570355083
 31
0.0
  0
LINE
  5
1A51
  8
FUTO
 10
17242.227564920591
 20
17431.712722955479
 30
0.0
 11
18582.769612908742
 21
19202.432073269279
 31
0.0
  0
LINE
  5
1A52
  8
FUTO
 10
17654.924008532649
 20
17056.5341378536
 30
0.0
 11
19290.249230529422
 21
18559.26878452321
 31
0.0
  0
LINE
  5
1A53
  8
KL
 10
17906.468697737178
 20
18309.107526734959
 30
0.0
 11
17906.468697737178
 21
17583.143016514321
 31
0.0
  0
LINE
  5
1A54
  8
KL
 10
17915.468697737178
 20
18332.88369127487
 30
0.0
 11
17915.468697737178
 21
17964.332793707039
 31
0.0
  0
LINE
  5
1A55
  8
KL
 10
17924.468697737178
 20
18332.88369127487
 30
0.0
 11
17924.468697737178
 21
17968.016183687709
 31
0.0
  0
LINE
  5
1A56
  8
FUTO
 10
18265.468697737178
 20
16926.870527054569
 30
0.0
 11
18426.546504616541
 21
17765.59423392373
 31
0.0
  0
LINE
  5
1A57
  8
KL
 10
19341.404498061082
 20
18614.255847736829
 30
0.0
 11
19307.517123561222
 21
18790.70563251615
 31
0.0
  0
LINE
  5
1A58
  8
KL
 10
18426.546504616541
 20
17765.59423392373
 30
0.0
 11
18623.420271913139
 21
18790.70563251615
 31
0.0
  0
LINE
  5
1A59
  8
FUTO
 10
17915.468697737178
 20
17295.95411756586
 30
0.0
 11
17915.468697737178
 21
16912.70563251615
 31
0.0
  0
LINE
  5
1A5A
  8
FUTO
 10
17924.468697737178
 20
17304.22440633662
 30
0.0
 11
17924.468697737178
 21
16912.70563251615
 31
0.0
  0
ARC
  5
1A5B
  8
FUTO
 10
19096.468697737178
 20
18781.70563251615
 30
0.0
 40
1705.0
 50
175.8967367910877
 51
209.96988591637529
  0
LINE
  5
1A65
  8
FUTO
 10
23342.84414269737
 20
16990.079432516151
 30
0.0
 11
24669.244142697371
 21
16990.079432516151
 31
0.0
  0
LINE
  5
1A66
  8
FUTO
 10
23282.84414269737
 20
16930.079432516151
 30
0.0
 11
24729.244142697371
 21
16930.079432516151
 31
0.0
  0
LINE
  5
1A67
  8
FUTO
 10
23346.04414269737
 20
17011.079432516151
 30
0.0
 11
23346.04414269737
 21
16990.079432516151
 31
0.0
  0
LINE
  5
1A68
  8
FUTO
 10
23342.84414269737
 20
17011.079432516151
 30
0.0
 11
23342.84414269737
 21
16990.079432516151
 31
0.0
  0
LINE
  5
1A6A
  8
FUTO
 10
23282.84414269737
 20
18909.079432516151
 30
0.0
 11
23282.84414269737
 21
16930.079432516151
 31
0.0
  0
LINE
  5
1A6B
  8
FUTO
 10
24669.244142697371
 20
17011.079432516151
 30
0.0
 11
24669.244142697371
 21
16990.079432516151
 31
0.0
  0
LINE
  5
1A6C
  8
FUTO
 10
24666.044142697359
 20
17011.079432516151
 30
0.0
 11
24666.044142697359
 21
16990.079432516151
 31
0.0
  0
LINE
  5
1A6E
  8
FUTO
 10
24729.244142697338
 20
18909.079432516151
 30
0.0
 11
24729.244142697371
 21
16930.079432516151
 31
0.0
  0
LINE
  5
1A6F
  8
FUTO
 10
23277.84414269737
 20
20197.90081717258
 30
0.0
 11
24734.244142697811
 21
20197.90081717258
 31
0.0
  0
DIMENSION
  5
1A8F
  8
SP
  2
*D16
 10
20674.877786942769
 20
18912.70563251615
 30
0.0
 11
20594.877786942761
 21
17837.705632516161
 31
0.0
 70
     0
 13
20025.468697737178
 23
16762.70563251615
 33
0.0
 14
20510.822696781281
 24
18912.70563251615
 34
0.0
 50
90.0
1001
ACAD
1000
DSTYLE
1002
{
1070
    40
1040
40.0
1002
}
  0
LINE
  5
1AA5
  8
CT
 10
19073.2804015004
 20
20204.705632516161
 30
0.0
 11
18965.468697737178
 21
20204.705632516161
 31
0.0
  0
DIMENSION
  5
1AA6
  8
SP
  2
*D17
 10
20674.877786942769
 20
18912.70563251615
 30
0.0
 11
20594.877786942761
 21
19558.705632516161
 31
0.0
 70
     0
 13
19073.2804015004
 23
20204.705632516161
 33
0.0
 14
20510.822696781281
 24
18912.70563251615
 34
0.0
 50
90.0
1001
ACAD
1000
DSTYLE
1002
{
1070
    40
1040
40.0
1002
}
  0
LINE
  5
1AE4
  8
FUTO
 10
23277.844142697359
 20
19012.218015593618
 30
0.0
 11
24734.2441426974
 21
19012.218015593618
 31
0.0
  0
LINE
  5
1B60
  8
FUTO
 10
23342.84414269737
 20
16990.079432516151
 30
0.0
 11
23342.844142697359
 21
18979.779432516159
 31
0.0
  0
LINE
  5
1B61
  8
FUTO
 10
23346.044142697359
 20
16990.079432516151
 30
0.0
 11
23346.04414269737
 21
18979.779432516159
 31
0.0
  0
LINE
  5
1B62
  8
FUTO
 10
24666.04414269737
 20
16990.079432516151
 30
0.0
 11
24666.044142697359
 21
18979.779432516159
 31
0.0
  0
LINE
  5
1B63
  8
FUTO
 10
24669.24414269736
 20
16990.079432516151
 30
0.0
 11
24669.244142697371
 21
18979.779432516159
 31
0.0
  0
LINE
  5
1B64
  8
FUTO
 10
23346.04414269737
 20
18840.079432516151
 30
0.0
 11
24669.244142697371
 21
18840.079432516151
 31
0.0
  0
LINE
  5
1B65
  8
FUTO
 10
23282.84414269737
 20
18909.079432516151
 30
0.0
 11
24729.244142697338
 21
18909.079432516151
 31
0.0
  0
TEXT
  5
228E
  8
SP
 10
40782.756100551189
 20
24293.02737628646
 30
0.0
 40
100.0
  1
 
  0
LINE
  5
228F
  8
4
 10
25164.062951071312
 20
14719.007161947829
 30
0.0
 11
25164.062951071312
 21
13519.007161947829
 31
0.0
  0
LINE
  5
2290
  8
4
 10
20964.062951071312
 20
14719.007161947829
 30
0.0
 11
20964.062951071312
 21
13519.007161947829
 31
0.0
  0
LINE
  5
2291
  8
4
 10
17964.062951071312
 20
14719.007161947829
 30
0.0
 11
17964.062951071301
 21
13519.007161947829
 31
0.0
  0
LINE
  5
2294
  8
4
 10
17964.062951071312
 20
13519.007161947829
 30
0.0
 11
25164.062951071312
 21
13519.007161947829
 31
0.0
  0
LINE
  5
2295
  8
4
 10
17964.062951071312
 20
14119.007161947829
 30
0.0
 11
25164.062951071312
 21
14119.007161947829
 31
0.0
  0
TEXT
  5
2296
  8
4
 10
18195.075436152729
 20
14308.26531714751
 30
0.0
 40
300.0
  1
機器名称
  0
TEXT
  5
2297
  8
4
 10
18181.61158722009
 20
13648.87810233989
 30
0.0
 40
300.0
  1
機器型番
  0
TEXT
  5
2298
  8
4
 10
20992.821321277559
 20
14252.130976089509
 30
0.0
 40
270.0
  1
ミツヤリミットロードファン
  0
TEXT
  5
2299
  8
4
 10
21183.989924584199
 20
13621.96466762749
 30
0.0
 40
300.0
  1
LL#11-1
  0
TEXT
  5
229B
  8
4
 10
15961.06851104799
 20
26922.293019143621
 30
0.0
 40
432.0
  1
遠心式片吸込片持リミットロードファン
  0
LINE
  5
229C
  8
4
 10
15564.06295107131
 20
26535.459687536659
 30
0.0
 11
25164.062951071312
 21
26535.459687536659
 31
0.0
  0
LINE
  5
229D
  8
4
 10
15564.06295107131
 20
27735.459687536659
 30
0.0
 11
25164.062951071312
 21
27735.459687536659
 31
0.0
  0
LINE
  5
229E
  8
4
 10
17964.062951071312
 20
14719.007161947829
 30
0.0
 11
25164.062951071312
 21
14719.007161947829
 31
0.0
  0
LINE
  5
229F
  8
4
 10
15564.06295107131
 20
27735.459687536659
 30
0.0
 11
15564.06295107131
 21
26535.459687536659
 31
0.0
  0
TEXT
  5
22A0
  8
4
 10
16099.104047977749
 20
26012.92402722589
 30
0.0
 40
323.99999999999989
  1
左回転右横向
  0
TEXT
  5
22A1
  8
4
 10
22877.880306567051
 20
27955.37365091969
 30
0.0
 40
336.00000000000011
  1
No.
  0
TEXT
  5
22A2
  8
4
 10
22842.20940979314
 20
25160.410040462219
 30
0.0
 40
323.99999999999989
  1
縮尺：1/60
  0
LINE
  5
22A3
  8
4
 10
25164.062951071312
 20
27735.459687536659
 30
0.0
 11
25164.062951071312
 21
26535.459687536659
 31
0.0
  0
LINE
  5
22A4
  8
4
 10
26664.062951071312
 20
29419.007161947829
 30
0.0
 11
26664.062951071312
 21
29419.007161947829
 31
0.0
  0
LINE
  5
22A5
  8
4
 10
22707.767485230492
 20
27806.588660700229
 30
0.0
 11
22707.767485230492
 21
28438.920731246351
 31
0.0
  0
LINE
  5
22A6
  8
4
 10
22707.767485230492
 20
28438.920731246351
 30
0.0
 11
25164.062951071312
 21
28438.920731246351
 31
0.0
  0
LINE
  5
22A7
  8
4
 10
25164.062951071312
 20
28438.920731246351
 30
0.0
 11
25164.062951071312
 21
27806.588660700229
 31
0.0
  0
LINE
  5
22A8
  8
4
 10
25164.062951071312
 20
27806.588660700229
 30
0.0
 11
22707.767485230492
 21
27806.588660700229
 31
0.0
  0
LINE
  5
22A9
  8
4
 10
14064.06295107131
 20
11719.007161947829
 30
0.0
 11
14064.06295107131
 21
29419.007161947829
 31
0.0
  0
LINE
  5
22AA
  8
4
 10
14064.06295107131
 20
29419.007161947829
 30
0.0
 11
26664.062951071312
 21
29419.007161947829
 31
0.0
  0
LINE
  5
22AB
  8
4
 10
26664.062951071312
 20
29419.007161947829
 30
0.0
 11
26664.062951071312
 21
11719.007161947829
 31
0.0
  0
LINE
  5
22AC
  8
4
 10
26664.062951071312
 20
11719.007161947829
 30
0.0
 11
14064.06295107131
 21
11719.007161947829
 31
0.0
  0
TEXT
  5
22AD
  8
4
 10
19175.839835164461
 20
26012.993951874269
 30
0.0
 40
323.99999999999989
  1
床置ベット
  0
ENDSEC
  0
EOF
