  0
SECTION
  2
HEADER
  9
$ACADVER
  1
AC1009
  9
$INSBASE
 10
0.0
 20
0.0
 30
0.0
  9
$EXTMIN
 10
11504.12705044651
 20
13523.23286807263
 30
0.0
  9
$EXTMAX
 10
24104.12705044651
 20
31223.232868072631
 30
0.0
  9
$LIMMIN
 10
0.0
 20
0.0
  9
$LIMMAX
 10
297.0
 20
210.0
  9
$ORTHOMODE
 70
     0
  9
$REGENMODE
 70
     1
  9
$FILLMODE
 70
     1
  9
$QTEXTMODE
 70
     0
  9
$MIRRTEXT
 70
     0
  9
$DRAGMODE
 70
     2
  9
$LTSCALE
 40
200.0
  9
$OSMODE
 70
    37
  9
$ATTMODE
 70
     1
  9
$TEXTSIZE
 40
150.0
  9
$TRACEWID
 40
0.05
  9
$TEXTSTYLE
  7
STANDARD
  9
$CLAYER
  8
FUTO
  9
$CELTYPE
  6
BYLAYER
  9
$CECOLOR
 62
   256
  9
$DIMSCALE
 40
40.0
  9
$DIMASZ
 40
2.0
  9
$DIMEXO
 40
1.0
  9
$DIMDLI
 40
10.0
  9
$DIMRND
 40
0.0
  9
$DIMDLE
 40
0.0
  9
$DIMEXE
 40
1.0
  9
$DIMTP
 40
0.0
  9
$DIMTM
 40
0.0
  9
$DIMTXT
 40
3.0
  9
$DIMCEN
 40
0.0
  9
$DIMTSZ
 40
0.0
  9
$DIMTOL
 70
     0
  9
$DIMLIM
 70
     0
  9
$DIMTIH
 70
     0
  9
$DIMTOH
 70
     0
  9
$DIMSE1
 70
     0
  9
$DIMSE2
 70
     0
  9
$DIMTAD
 70
     1
  9
$DIMZIN
 70
     8
  9
$DIMBLK
  1

  9
$DIMASO
 70
     1
  9
$DIMSHO
 70
     1
  9
$DIMPOST
  1

  9
$DIMAPOST
  1

  9
$DIMALT
 70
     0
  9
$DIMALTD
 70
     2
  9
$DIMALTF
 40
0.03937
  9
$DIMLFAC
 40
1.0
  9
$DIMTOFL
 70
     1
  9
$DIMTVP
 40
0.0
  9
$DIMTIX
 70
     0
  9
$DIMSOXD
 70
     0
  9
$DIMSAH
 70
     1
  9
$DIMBLK1
  1
OPEN
  9
$DIMBLK2
  1
OPEN
  9
$DIMSTYLE
  2
MATSU
  9
$DIMCLRD
 70
   256
  9
$DIMCLRE
 70
   256
  9
$DIMCLRT
 70
   256
  9
$DIMTFAC
 40
1.0
  9
$DIMGAP
 40
0.5
  9
$LUNITS
 70
     2
  9
$LUPREC
 70
     3
  9
$SKETCHINC
 40
0.1
  9
$FILLETRAD
 40
7.0
  9
$AUNITS
 70
     0
  9
$AUPREC
 70
     2
  9
$MENU
  1
acad
  9
$ELEVATION
 40
0.0
  9
$PELEVATION
 40
0.0
  9
$THICKNESS
 40
0.0
  9
$LIMCHECK
 70
     0
  9
$BLIPMODE
 70
     0
  9
$CHAMFERA
 40
0.0
  9
$CHAMFERB
 40
0.0
  9
$SKPOLY
 70
     0
  9
$TDCREATE
 40
2451593.4082031241
  9
$TDUPDATE
 40
2454953.650240879
  9
$TDINDWG
 40
0.5768622685
  9
$TDUSRTIMER
 40
0.5768622685
  9
$USRTIMER
 70
     1
  9
$ANGBASE
 50
0.0
  9
$ANGDIR
 70
     0
  9
$PDMODE
 70
     0
  9
$PDSIZE
 40
1.0
  9
$PLINEWID
 40
0.0
  9
$COORDS
 70
     1
  9
$SPLFRAME
 70
     0
  9
$SPLINETYPE
 70
     6
  9
$SPLINESEGS
 70
     8
  9
$ATTDIA
 70
     0
  9
$ATTREQ
 70
     1
  9
$HANDLING
 70
 10241
  9
$HANDSEED
  5
24FE
  9
$SURFTAB1
 70
     6
  9
$SURFTAB2
 70
     6
  9
$SURFTYPE
 70
     6
  9
$SURFU
 70
     6
  9
$SURFV
 70
     6
  9
$UCSNAME
  2

  9
$UCSORG
 10
0.0
 20
0.0
 30
0.0
  9
$UCSXDIR
 10
1.0
 20
0.0
 30
0.0
  9
$UCSYDIR
 10
0.0
 20
1.0
 30
0.0
  9
$PUCSNAME
  2

  9
$PUCSORG
 10
0.0
 20
0.0
 30
0.0
  9
$PUCSXDIR
 10
1.0
 20
0.0
 30
0.0
  9
$PUCSYDIR
 10
0.0
 20
1.0
 30
0.0
  9
$USERI1
 70
     0
  9
$USERI2
 70
     0
  9
$USERI3
 70
     0
  9
$USERI4
 70
     0
  9
$USERI5
 70
     0
  9
$USERR1
 40
0.0
  9
$USERR2
 40
0.0
  9
$USERR3
 40
0.0
  9
$USERR4
 40
0.0
  9
$USERR5
 40
0.0
  9
$WORLDVIEW
 70
     1
  9
$SHADEDGE
 70
     3
  9
$SHADEDIF
 70
    70
  9
$TILEMODE
 70
     1
  9
$MAXACTVP
 70
    16
  9
$PLIMCHECK
 70
     0
  9
$PEXTMIN
 10
1.0000000000000000E+020
 20
1.0000000000000000E+020
 30
1.0000000000000000E+020
  9
$PEXTMAX
 10
-1.0000000000000000E+020
 20
-1.0000000000000000E+020
 30
-1.0000000000000000E+020
  9
$PLIMMIN
 10
0.0
 20
0.0
  9
$PLIMMAX
 10
12.0
 20
9.0
  9
$UNITMODE
 70
     0
  9
$VISRETAIN
 70
     0
  9
$PLINEGEN
 70
     0
  9
$PSLTSCALE
 70
     0
  0
ENDSEC
  0
SECTION
  2
TABLES
  0
TABLE
  2
VPORT
 70
     2
  0
VPORT
  2
*ACTIVE
 70
     0
 10
0.0
 20
0.0
 11
1.0
 21
1.0
 12
23326.23453812371
 22
15559.65947212203
 13
0.0
 23
0.0
 14
5.0
 24
5.0
 15
0.0
 25
0.0
 16
0.0
 26
0.0
 36
1.0
 17
0.0
 27
0.0
 37
0.0
 40
5328.6462661497644
 41
3.1666666666666661
 42
50.0
 43
0.0
 44
0.0
 50
0.0
 51
0.0
 71
     0
 72
   100
 73
     1
 74
     0
 75
     0
 76
     0
 77
     0
 78
     0
  0
ENDTAB
  0
TABLE
  2
LTYPE
 70
     4
  0
LTYPE
  2
CONTINUOUS
 70
     0
  3
Solid line
 72
    65
 73
     0
 40
0.0
  0
LTYPE
  2
CENTER
 70
     0
  3
____ _ ____ _ ____ _ ____ _ ____ _ ____ _ ____ 
 72
    65
 73
     4
 40
2.0
 49
1.25
 49
-0.25
 49
0.25
 49
-0.25
  0
LTYPE
  2
HIDDEN
 70
     0
  3
__ __ __ __ __ __ __ __ __ __ __ __ __ __ __ __
 72
    65
 73
     2
 40
0.375
 49
0.25
 49
-0.125
  0
LTYPE
  2
PHANTOM
 70
     0
  3
______  __  __  ______  __  __  ______  __  __ 
 72
    65
 73
     6
 40
2.5
 49
1.25
 49
-0.25
 49
0.25
 49
-0.25
 49
0.25
 49
-0.25
  0
ENDTAB
  0
TABLE
  2
LAYER
 70
    10
  0
LAYER
  2
0
 70
     0
 62
     7
  6
CONTINUOUS
  0
LAYER
  2
CT
 70
     0
 62
     3
  6
CENTER
  0
LAYER
  2
FUTO
 70
     0
 62
     4
  6
CONTINUOUS
  0
LAYER
  2
HOSO
 70
     0
 62
     7
  6
CONTINUOUS
  0
LAYER
  2
KL
 70
     0
 62
     7
  6
HIDDEN
  0
LAYER
  2
SL
 70
     0
 62
     1
  6
PHANTOM
  0
LAYER
  2
SP
 70
     0
 62
     2
  6
CONTINUOUS
  0
LAYER
  2
1
 70
     0
 62
     7
  6
CONTINUOUS
  0
LAYER
  2
DEFPOINTS
 70
     0
 62
     7
  6
CONTINUOUS
  0
LAYER
  2
4
 70
     0
 62
     7
  6
CONTINUOUS
  0
ENDTAB
  0
TABLE
  2
STYLE
 70
     1
  0
STYLE
  2
STANDARD
 70
     0
 40
0.0
 41
1.0
 50
15.0
 71
     0
 42
150.0
  3
C:\Program Files\AutoCAD LT\simplex.shx
  4
bigfont.shx
  0
ENDTAB
  0
TABLE
  2
VIEW
 70
     0
  0
ENDTAB
  0
TABLE
  2
UCS
 70
     0
  0
ENDTAB
  0
TABLE
  2
APPID
 70
     2
  0
APPID
  2
ACAD
 70
     0
  0
APPID
  2
CONTENTBLOCKICON
 70
     0
  0
ENDTAB
  0
TABLE
  2
DIMSTYLE
 70
     2
  0
DIMSTYLE
  2
MATSU
 70
     0
  3

  4

  5

  6
OPEN
  7
OPEN
 40
1.0
 41
2.0
 42
1.0
 43
10.0
 44
1.0
 45
0.0
 46
0.0
 47
0.0
 48
0.0
140
3.0
141
0.0
142
0.0
143
0.03937
144
1.0
145
0.0
146
1.0
147
0.5
 71
     0
 72
     0
 73
     0
 74
     0
 75
     0
 76
     0
 77
     1
 78
     8
170
     0
171
     2
172
     1
173
     1
174
     0
175
     0
176
   256
177
   256
178
   256
  0
DIMSTYLE
  2
STANDARD
 70
     0
  3

  4

  5

  6

  7

 40
1.0
 41
0.18
 42
0.0625
 43
0.38
 44
0.18
 45
0.0
 46
0.0
 47
0.0
 48
0.0
140
0.18
141
0.09
142
0.0
143
25.399999999999999
144
1.0
145
0.0
146
1.0
147
0.09
 71
     0
 72
     0
 73
     1
 74
     1
 75
     0
 76
     0
 77
     0
 78
     0
170
     0
171
     2
172
     0
173
     0
174
     0
175
     0
176
     0
177
     0
178
     0
  0
ENDTAB
  0
ENDSEC
  0
SECTION
  2
BLOCKS
  0
BLOCK
  8
0
  2
$MODEL_SPACE
 70
     0
 10
0.0
 20
0.0
 30
0.0
  3
$MODEL_SPACE
  1

  0
ENDBLK
  5
7
  8
0
  0
BLOCK
 67
     1
  8
0
  2
$PAPER_SPACE
 70
     0
 10
0.0
 20
0.0
 30
0.0
  3
$PAPER_SPACE
  1

  0
ENDBLK
  5
A
 67
     1
  8
0
  0
BLOCK
  8
0
  2
_OPEN
 70
     0
 10
0.0
 20
0.0
 30
0.0
  3
_OPEN
  1

  0
LINE
  5
27
  8
0
  6
BYBLOCK
 62
     0
 10
-1.0
 20
0.1666666666666666
 30
0.0
 11
0.0
 21
0.0
 31
0.0
  0
LINE
  5
28
  8
0
  6
BYBLOCK
 62
     0
 10
0.0
 20
0.0
 30
0.0
 11
-1.0
 21
-0.1666666666666666
 31
0.0
  0
LINE
  5
29
  8
0
  6
BYBLOCK
 62
     0
 10
0.0
 20
0.0
 30
0.0
 11
-1.0
 21
0.0
 31
0.0
  0
ENDBLK
  5
2B
  8
0
  0
BLOCK
  8
0
  2
まっすぐの矢印
 70
     0
 10
0.0
 20
0.0
 30
0.0
  3
まっすぐの矢印
  1

  0
LINE
  5
8C
  8
SP
 10
13.01863531255526
 20
-41.453946163708451
 30
0.0
 11
13.01863531255526
 21
-93.495696758840026
 31
0.0
  0
LINE
  5
8D
  8
SP
 10
13.01863531255526
 20
-93.495696758840026
 30
0.0
 11
-13.01863531255526
 21
-93.495696758840026
 31
0.0
  0
LINE
  5
8E
  8
SP
 10
-13.01863531255526
 20
-93.495696758840026
 30
0.0
 11
-13.01863531255526
 21
-41.453946163708451
 31
0.0
  0
LINE
  5
8F
  8
SP
 10
-13.01863531255526
 20
-41.453946163708451
 30
0.0
 11
-32.06015471115802
 21
-41.453946163708451
 31
0.0
  0
LINE
  5
90
  8
SP
 10
-32.06015471115802
 20
-41.453946163708451
 30
0.0
 11
0.0
 21
0.0
 31
0.0
  0
LINE
  5
91
  8
SP
 10
0.0
 20
0.0
 30
0.0
 11
32.06015471115802
 21
-41.453946163708451
 31
0.0
  0
LINE
  5
92
  8
SP
 10
32.06015471115802
 20
-41.453946163708451
 30
0.0
 11
13.01863531255526
 21
-41.453946163708451
 31
0.0
  0
ENDBLK
  5
94
  8
0
  0
BLOCK
  8
0
  2
左回転矢印
 70
     0
 10
0.0
 20
0.0
 30
0.0
  3
左回転矢印
  1

  0
LINE
  5
2C7
  8
SP
 10
43.930449171819873
 20
24.859487323637271
 30
0.0
 11
38.511878498580238
 21
44.478978865188871
 31
0.0
  0
LINE
  5
2C8
  8
SP
 10
38.511878498580238
 20
44.478978865188871
 30
0.0
 11
0.0
 21
0.0
 31
0.0
  0
LINE
  5
2C9
  8
SP
 10
0.0
 20
0.0
 30
0.0
 11
52.57968174421967
 21
-6.4575435924972453
 31
0.0
  0
LINE
  5
2CA
  8
SP
 10
52.57968174421967
 20
-6.4575435924972453
 30
0.0
 11
48.189912989015284
 21
9.436875093862227
 31
0.0
  0
ARC
  5
2CB
  8
SP
 10
93.893649146691985
 20
-156.0466295121104
 30
0.0
 40
171.67883327727239
 50
67.881388989212894
 51
105.4392492786835
  0
LINE
  5
2CC
  8
SP
 10
158.53505643637521
 20
2.997736182040398
 30
0.0
 11
164.55945966006539
 21
17.820238190756751
 31
0.0
  0
ARC
  5
2CD
  8
SP
 10
93.893649146692198
 20
-156.04662951211091
 30
0.0
 40
187.67883327727299
 50
67.881388989212994
 51
105.4392492786836
  0
ENDBLK
  5
2CF
  8
0
  0
BLOCK
  8
0
  2
*D3
 70
     1
 10
0.0
 20
0.0
 30
0.0
  3
*D3
  1

  0
LINE
  5
24A5
  8
SP
 10
18352.517586723261
 20
21170.089536587289
 30
0.0
 11
18352.517586723261
 21
22303.267589895899
 31
0.0
  0
LINE
  5
24A6
  8
SP
 10
20802.517586723261
 20
22023.311411073279
 30
0.0
 11
20802.517586723261
 21
22303.267589895899
 31
0.0
  0
LINE
  5
24A7
  8
SP
 10
18432.517586723261
 20
22263.267589895899
 30
0.0
 11
20722.517586723261
 21
22263.267589895899
 31
0.0
  0
INSERT
  5
24A8
  8
SP
  2
_OPEN
 10
18352.517586723261
 20
22263.267589895899
 30
0.0
 41
80.0
 42
80.0
 43
80.0
 50
180.0
  0
INSERT
  5
24A9
  8
SP
  2
_OPEN
 10
20802.517586723261
 20
22263.267589895899
 30
0.0
 41
80.0
 42
80.0
 43
80.0
  0
TEXT
  5
24AA
  8
FUTO
 10
19280.524897818279
 20
22334.696161324478
 30
0.0
 40
120.0
  1
(2450)
 51
15.0
  0
POINT
  5
24AB
  8
DEFPOINTS
 62
     0
 10
18352.517586723261
 20
21130.089536587289
 30
0.0
  0
POINT
  5
24AC
  8
DEFPOINTS
 62
     0
 10
20802.517586723261
 20
21983.311411073279
 30
0.0
  0
POINT
  5
24AD
  8
DEFPOINTS
 62
     0
 10
20802.517586723261
 20
22263.267589895899
 30
0.0
  0
ENDBLK
  5
1423
  8
0
  0
BLOCK
  8
0
  2
*D4
 70
     1
 10
0.0
 20
0.0
 30
0.0
  3
*D4
  1

  0
LINE
  5
24AE
  8
SP
 10
15617.554669787471
 20
22138.098988576981
 30
0.0
 11
15617.554669787471
 21
22302.154078738469
 31
0.0
  0
LINE
  5
24AF
  8
SP
 10
17607.55466978746
 20
21956.715736587299
 30
0.0
 11
17607.55466978746
 21
22302.154078738469
 31
0.0
  0
LINE
  5
24B0
  8
SP
 10
15697.554669787471
 20
22262.154078738469
 30
0.0
 11
17527.55466978746
 21
22262.154078738469
 31
0.0
  0
INSERT
  5
24B1
  8
SP
  2
_OPEN
 10
15617.554669787471
 20
22262.154078738469
 30
0.0
 41
80.0
 42
80.0
 43
80.0
 50
180.0
  0
INSERT
  5
24B2
  8
SP
  2
_OPEN
 10
17607.55466978746
 20
22262.154078738469
 30
0.0
 41
80.0
 42
80.0
 43
80.0
  0
TEXT
  5
24B3
  8
FUTO
 10
16389.382462522721
 20
22282.154078738469
 30
0.0
 40
120.0
  1
1990
 51
15.0
  0
POINT
  5
24B4
  8
DEFPOINTS
 62
     0
 10
15617.554669787471
 20
22098.098988576981
 30
0.0
  0
POINT
  5
24B5
  8
DEFPOINTS
 62
     0
 10
17607.55466978746
 20
21916.715736587299
 30
0.0
  0
POINT
  5
24B6
  8
DEFPOINTS
 62
     0
 10
17607.55466978746
 20
22262.154078738469
 30
0.0
  0
ENDBLK
  5
18B9
  8
0
  0
BLOCK
  8
0
  2
*D5
 70
     1
 10
0.0
 20
0.0
 30
0.0
  3
*D5
  1

  0
LINE
  5
247A
  8
SP
 10
14612.554669787471
 20
26139.953251210161
 30
0.0
 11
13870.241912831671
 21
26139.953251210161
 31
0.0
  0
LINE
  5
247B
  8
SP
 10
13925.320226078549
 20
25344.953251210161
 30
0.0
 11
13870.241912831671
 21
25344.953251210161
 31
0.0
  0
LINE
  5
247C
  8
SP
 10
13910.241912831671
 20
26059.953251210161
 30
0.0
 11
13910.241912831671
 21
25424.953251210161
 31
0.0
  0
INSERT
  5
247D
  8
SP
  2
_OPEN
 10
13910.241912831671
 20
26139.953251210161
 30
0.0
 41
80.0
 42
80.0
 43
80.0
 50
90.0
  0
INSERT
  5
247E
  8
SP
  2
_OPEN
 10
13910.241912831671
 20
25344.953251210161
 30
0.0
 41
80.0
 42
80.0
 43
80.0
 50
270.0
  0
TEXT
  5
247F
  8
FUTO
 10
13890.241912831671
 20
25556.326188418119
 30
0.0
 40
120.0
  1
795
 50
90.0
 51
15.0
  0
POINT
  5
2480
  8
DEFPOINTS
 62
     0
 10
14652.554669787471
 20
26139.953251210161
 30
0.0
  0
POINT
  5
2481
  8
DEFPOINTS
 62
     0
 10
13965.320226078549
 20
25344.953251210161
 30
0.0
  0
POINT
  5
2482
  8
DEFPOINTS
 62
     0
 10
13910.241912831671
 20
25344.953251210161
 30
0.0
  0
ENDBLK
  5
192F
  8
0
  0
BLOCK
  8
0
  2
*D6
 70
     1
 10
0.0
 20
0.0
 30
0.0
  3
*D6
  1

  0
LINE
  5
2456
  8
SP
 10
13992.56840429735
 20
25344.953251210161
 30
0.0
 11
13870.24191283168
 21
25344.953251210161
 31
0.0
  0
LINE
  5
2457
  8
SP
 10
15197.554669787471
 20
22894.953251210161
 30
0.0
 11
13870.24191283168
 21
22894.953251210161
 31
0.0
  0
LINE
  5
2458
  8
SP
 10
13910.24191283168
 20
25264.953251210161
 30
0.0
 11
13910.24191283168
 21
22974.953251210161
 31
0.0
  0
INSERT
  5
2459
  8
SP
  2
_OPEN
 10
13910.24191283168
 20
25344.953251210161
 30
0.0
 41
80.0
 42
80.0
 43
80.0
 50
90.0
  0
INSERT
  5
245A
  8
SP
  2
_OPEN
 10
13910.24191283168
 20
22894.953251210161
 30
0.0
 41
80.0
 42
80.0
 43
80.0
 50
270.0
  0
TEXT
  5
245B
  8
FUTO
 10
13890.241912831671
 20
23820.950341550149
 30
0.0
 40
120.0
  1
2450
 50
90.0
 51
15.0
  0
POINT
  5
245C
  8
DEFPOINTS
 62
     0
 10
14032.56840429735
 20
25344.953251210161
 30
0.0
  0
POINT
  5
245D
  8
DEFPOINTS
 62
     0
 10
15237.554669787471
 20
22894.953251210161
 30
0.0
  0
POINT
  5
245E
  8
DEFPOINTS
 62
     0
 10
13910.24191283168
 20
22894.953251210161
 30
0.0
  0
ENDBLK
  5
193B
  8
0
  0
BLOCK
  8
0
  2
*D7
 70
     1
 10
0.0
 20
0.0
 30
0.0
  3
*D7
  1

  0
LINE
  5
2468
  8
SP
 10
14557.554669787471
 20
19121.715736587292
 30
0.0
 11
14557.554669787471
 21
18367.79380724837
 31
0.0
  0
LINE
  5
2469
  8
SP
 10
17557.554669787471
 20
19121.715736587292
 30
0.0
 11
17557.554669787471
 21
18367.79380724837
 31
0.0
  0
LINE
  5
246A
  8
SP
 10
14637.554669787471
 20
18407.79380724837
 30
0.0
 11
17477.554669787471
 21
18407.79380724837
 31
0.0
  0
INSERT
  5
246B
  8
SP
  2
_OPEN
 10
14557.554669787471
 20
18407.79380724837
 30
0.0
 41
80.0
 42
80.0
 43
80.0
 50
180.0
  0
INSERT
  5
246C
  8
SP
  2
_OPEN
 10
17557.554669787471
 20
18407.79380724837
 30
0.0
 41
80.0
 42
80.0
 43
80.0
  0
TEXT
  5
246D
  8
FUTO
 10
15832.906289670171
 20
18427.79380724837
 30
0.0
 40
120.0
  1
3000
 51
15.0
  0
POINT
  5
246E
  8
DEFPOINTS
 62
     0
 10
14557.554669787471
 20
19161.715736587292
 30
0.0
  0
POINT
  5
246F
  8
DEFPOINTS
 62
     0
 10
17557.554669787471
 20
19161.715736587292
 30
0.0
  0
POINT
  5
2470
  8
DEFPOINTS
 62
     0
 10
17557.554669787471
 20
18407.79380724837
 30
0.0
  0
ENDBLK
  5
1983
  8
0
  0
BLOCK
  8
0
  2
*D8
 70
     1
 10
0.0
 20
0.0
 30
0.0
  3
*D8
  1

  0
LINE
  5
24E7
  8
SP
 10
17557.554669787471
 20
19121.715736587292
 30
0.0
 11
17557.554669787471
 21
18686.508357868988
 31
0.0
  0
LINE
  5
24E8
  8
SP
 10
15697.554669787471
 20
18726.508357868988
 30
0.0
 11
17477.554669787471
 21
18726.508357868988
 31
0.0
  0
INSERT
  5
24E9
  8
SP
  2
_OPEN
 10
15617.554669787471
 20
18726.508357868988
 30
0.0
 41
80.0
 42
80.0
 43
80.0
 50
180.0
  0
INSERT
  5
24EA
  8
SP
  2
_OPEN
 10
17557.554669787471
 20
18726.508357868988
 30
0.0
 41
80.0
 42
80.0
 43
80.0
  0
TEXT
  8
0
  40
120
  5
24FC
  72
0
  71
0
 10
16347.6
 20
18594.1
 30
0.000000
  1
1940
  0
POINT
  5
24EC
  8
DEFPOINTS
 62
     0
 10
15617.554669787471
 20
19081.06156157708
 30
0.0
  0
POINT
  5
24ED
  8
DEFPOINTS
 62
     0
 10
17557.554669787471
 20
19161.715736587292
 30
0.0
  0
POINT
  5
24EE
  8
DEFPOINTS
 62
     0
 10
17557.554669787471
 20
18726.508357868988
 30
0.0
  0
ENDBLK
  5
198E
  8
0
  0
BLOCK
  8
0
  2
*D9
 70
     1
 10
0.0
 20
0.0
 30
0.0
  3
*D9
  1

  0
LINE
  5
245F
  8
SP
 10
14557.554669787471
 20
19121.715736587292
 30
0.0
 11
14557.554669787471
 21
18686.508357868988
 31
0.0
  0
LINE
  5
2460
  8
SP
 10
15617.554669787471
 20
19041.06156157708
 30
0.0
 11
15617.554669787471
 21
18686.508357868988
 31
0.0
  0
LINE
  5
2461
  8
SP
 10
14637.554669787471
 20
18726.508357868988
 30
0.0
 11
15537.554669787471
 21
18726.508357868988
 31
0.0
  0
INSERT
  5
2462
  8
SP
  2
_OPEN
 10
14557.554669787471
 20
18726.508357868988
 30
0.0
 41
80.0
 42
80.0
 43
80.0
 50
180.0
  0
INSERT
  5
2463
  8
SP
  2
_OPEN
 10
15617.554669787471
 20
18726.508357868988
 30
0.0
 41
80.0
 42
80.0
 43
80.0
  0
TEXT
  5
2464
  8
FUTO
 10
14864.38246252273
 20
18746.508357868988
 30
0.0
 40
120.0
  1
1060
 51
15.0
  0
POINT
  5
2465
  8
DEFPOINTS
 62
     0
 10
14557.554669787471
 20
19161.715736587292
 30
0.0
  0
POINT
  5
2466
  8
DEFPOINTS
 62
     0
 10
15617.554669787471
 20
19081.06156157708
 30
0.0
  0
POINT
  5
2467
  8
DEFPOINTS
 62
     0
 10
15617.554669787471
 20
18726.508357868988
 30
0.0
  0
ENDBLK
  5
199A
  8
0
  0
BLOCK
  8
0
  2
*D10
 70
     1
 10
0.0
 20
0.0
 30
0.0
  3
*D10
  1

  0
LINE
  5
248B
  8
SP
 10
18691.517586723261
 20
19121.715719981308
 30
0.0
 11
18691.517586723261
 21
18382.197562252069
 31
0.0
  0
LINE
  5
248C
  8
SP
 10
21541.517586723261
 20
19121.715719981308
 30
0.0
 11
21541.517586723261
 21
18382.197562252069
 31
0.0
  0
LINE
  5
248D
  8
SP
 10
18771.517586723261
 20
18422.197562252069
 30
0.0
 11
21461.517586723261
 21
18422.197562252069
 31
0.0
  0
INSERT
  5
248E
  8
SP
  2
_OPEN
 10
18691.517586723261
 20
18422.197562252069
 30
0.0
 41
80.0
 42
80.0
 43
80.0
 50
180.0
  0
INSERT
  5
248F
  8
SP
  2
_OPEN
 10
21541.517586723261
 20
18422.197562252069
 30
0.0
 41
80.0
 42
80.0
 43
80.0
  0
TEXT
  5
2490
  8
FUTO
 10
19894.931483090892
 20
18442.197562252069
 30
0.0
 40
120.0
  1
2850
 51
15.0
  0
POINT
  5
2491
  8
DEFPOINTS
 62
     0
 10
18691.517586723261
 20
19161.715719981308
 30
0.0
  0
POINT
  5
2492
  8
DEFPOINTS
 62
     0
 10
21541.517586723261
 20
19161.715719981308
 30
0.0
  0
POINT
  5
2493
  8
DEFPOINTS
 62
     0
 10
21541.517586723261
 20
18422.197562252069
 30
0.0
  0
ENDBLK
  5
1A49
  8
0
  0
BLOCK
  8
0
  2
*D11
 70
     1
 10
0.0
 20
0.0
 30
0.0
  3
*D11
  1

  0
LINE
  5
2494
  8
SP
 10
18691.517586723261
 20
19121.715719981308
 30
0.0
 11
18691.517586723261
 21
18682.235107216999
 31
0.0
  0
LINE
  5
2495
  8
SP
 10
20802.517586723261
 20
19100.78866798737
 30
0.0
 11
20802.517586723261
 21
18682.235107216999
 31
0.0
  0
LINE
  5
2496
  8
SP
 10
18771.517586723261
 20
18722.235107216991
 30
0.0
 11
20722.517586723261
 21
18722.235107216991
 31
0.0
  0
INSERT
  5
2497
  8
SP
  2
_OPEN
 10
18691.517586723261
 20
18722.235107216991
 30
0.0
 41
80.0
 42
80.0
 43
80.0
 50
180.0
  0
INSERT
  5
2498
  8
SP
  2
_OPEN
 10
20802.517586723261
 20
18722.235107216991
 30
0.0
 41
80.0
 42
80.0
 43
80.0
  0
TEXT
  5
2499
  8
FUTO
 10
19568.083492320249
 20
18742.235107216999
 30
0.0
 40
120.0
  1
2111
 51
15.0
  0
POINT
  5
249A
  8
DEFPOINTS
 62
     0
 10
18691.517586723261
 20
19161.715719981308
 30
0.0
  0
POINT
  5
249B
  8
DEFPOINTS
 62
     0
 10
20802.517586723261
 20
19140.78866798737
 30
0.0
  0
POINT
  5
249C
  8
DEFPOINTS
 62
     0
 10
20802.517586723261
 20
18722.235107216991
 30
0.0
  0
ENDBLK
  5
1A55
  8
0
  0
BLOCK
  8
0
  2
*D12
 70
     1
 10
0.0
 20
0.0
 30
0.0
  3
*D12
  1

  0
LINE
  5
24EF
  8
SP
 10
21541.517586723261
 20
19121.715719981308
 30
0.0
 11
21541.517586723261
 21
18682.235107216999
 31
0.0
  0
LINE
  5
24F0
  8
SP
 10
20882.517586723261
 20
18722.235107216991
 30
0.0
 11
21461.517586723261
 21
18722.235107216991
 31
0.0
  0
INSERT
  5
24F1
  8
SP
  2
_OPEN
 10
20802.517586723261
 20
18722.235107216991
 30
0.0
 41
80.0
 42
80.0
 43
80.0
 50
180.0
  0
INSERT
  5
24F2
  8
SP
  2
_OPEN
 10
21541.517586723261
 20
18722.235107216991
 30
0.0
 41
80.0
 42
80.0
 43
80.0
  0
TEXT
  8
0
  40
120
  5
24FD
  72
0
  71
0
 10
20932.0
 20
18589.8
 30
0.000000
  1
739
  0
POINT
  5
24F4
  8
DEFPOINTS
 62
     0
 10
20802.517586723261
 20
19140.78866798737
 30
0.0
  0
POINT
  5
24F5
  8
DEFPOINTS
 62
     0
 10
21541.517586723261
 20
19161.715719981308
 30
0.0
  0
POINT
  5
24F6
  8
DEFPOINTS
 62
     0
 10
21541.517586723261
 20
18722.235107216991
 30
0.0
  0
ENDBLK
  5
1A60
  8
0
  0
BLOCK
  8
0
  2
*D13
 70
     1
 10
0.0
 20
0.0
 30
0.0
  3
*D13
  1

  0
LINE
  5
24C9
  8
SP
 10
20802.517586723261
 20
22255.20992926028
 30
0.0
 11
20802.517586723261
 21
22223.267589895899
 31
0.0
  0
LINE
  5
24CA
  8
SP
 10
21597.517586723261
 20
21755.089536587289
 30
0.0
 11
21597.517586723261
 21
22303.267589895899
 31
0.0
  0
LINE
  5
24CB
  8
SP
 10
20882.517586723261
 20
22263.267589895899
 30
0.0
 11
21517.517586723261
 21
22263.267589895899
 31
0.0
  0
INSERT
  5
24CC
  8
SP
  2
_OPEN
 10
20802.517586723261
 20
22263.267589895899
 30
0.0
 41
80.0
 42
80.0
 43
80.0
 50
180.0
  0
INSERT
  5
24CD
  8
SP
  2
_OPEN
 10
21597.517586723261
 20
22263.267589895899
 30
0.0
 41
80.0
 42
80.0
 43
80.0
  0
TEXT
  5
24CE
  8
FUTO
 10
20955.303010221502
 20
22283.267589895899
 30
0.0
 40
120.0
  1
795
 51
15.0
  0
POINT
  5
24CF
  8
DEFPOINTS
 62
     0
 10
20802.517586723261
 20
22295.20992926028
 30
0.0
  0
POINT
  5
24D0
  8
DEFPOINTS
 62
     0
 10
21597.517586723261
 20
21715.089536587289
 30
0.0
  0
POINT
  5
24D1
  8
DEFPOINTS
 62
     0
 10
21597.517586723261
 20
22263.267589895899
 30
0.0
  0
ENDBLK
  5
1B13
  8
0
  0
BLOCK
  8
0
  2
*D14
 70
     1
 10
0.0
 20
0.0
 30
0.0
  3
*D14
  1

  0
LINE
  5
2471
  8
SP
 10
14517.554669787471
 20
19161.715736587292
 30
0.0
 11
13868.14558058187
 21
19161.715736587292
 31
0.0
  0
LINE
  5
2472
  8
SP
 10
14032.20067074337
 20
20751.715736587292
 30
0.0
 11
13868.14558058188
 21
20751.715736587292
 31
0.0
  0
LINE
  5
2473
  8
SP
 10
13908.14558058187
 20
19241.715736587292
 30
0.0
 11
13908.14558058188
 21
20671.715736587292
 31
0.0
  0
INSERT
  5
2474
  8
SP
  2
_OPEN
 10
13908.14558058187
 20
19161.715736587292
 30
0.0
 41
80.0
 42
80.0
 43
80.0
 50
270.0
  0
INSERT
  5
2475
  8
SP
  2
_OPEN
 10
13908.14558058188
 20
20751.715736587292
 30
0.0
 41
80.0
 42
80.0
 43
80.0
 50
90.0
  0
TEXT
  5
2476
  8
FUTO
 10
13888.14558058187
 20
19733.54352932256
 30
0.0
 40
120.0
  1
1590
 50
90.0
 51
15.0
  0
POINT
  5
2477
  8
DEFPOINTS
 62
     0
 10
14557.554669787471
 20
19161.715736587292
 30
0.0
  0
POINT
  5
2478
  8
DEFPOINTS
 62
     0
 10
14072.20067074337
 20
20751.715736587292
 30
0.0
  0
POINT
  5
2479
  8
DEFPOINTS
 62
     0
 10
13908.14558058188
 20
20751.715736587292
 30
0.0
  0
ENDBLK
  5
1B77
  8
0
  0
BLOCK
  8
0
  2
*D15
 70
     1
 10
0.0
 20
0.0
 30
0.0
  3
*D15
  1

  0
LINE
  5
244D
  8
SP
 10
14032.20067074337
 20
20751.715736587292
 30
0.0
 11
13868.14558058188
 21
20751.715736587292
 31
0.0
  0
LINE
  5
244E
  8
SP
 10
15579.554669787471
 20
21916.715736587299
 30
0.0
 11
13868.14558058188
 21
21916.715736587299
 31
0.0
  0
LINE
  5
244F
  8
SP
 10
13908.14558058188
 20
20831.715736587292
 30
0.0
 11
13908.14558058188
 21
21836.715736587299
 31
0.0
  0
INSERT
  5
2450
  8
SP
  2
_OPEN
 10
13908.14558058188
 20
20751.715736587292
 30
0.0
 41
80.0
 42
80.0
 43
80.0
 50
270.0
  0
INSERT
  5
2451
  8
SP
  2
_OPEN
 10
13908.14558058188
 20
21916.715736587299
 30
0.0
 41
80.0
 42
80.0
 43
80.0
 50
90.0
  0
TEXT
  5
2452
  8
FUTO
 10
13888.14558058187
 20
21122.266967123349
 30
0.0
 40
120.0
  1
1165
 50
90.0
 51
15.0
  0
POINT
  5
2453
  8
DEFPOINTS
 62
     0
 10
14072.20067074337
 20
20751.715736587292
 30
0.0
  0
POINT
  5
2454
  8
DEFPOINTS
 62
     0
 10
15619.554669787471
 20
21916.715736587299
 30
0.0
  0
POINT
  5
2455
  8
DEFPOINTS
 62
     0
 10
13908.14558058188
 20
21916.715736587299
 30
0.0
  0
ENDBLK
  5
1B84
  8
0
  0
BLOCK
  8
0
  2
*D16
 70
     1
 10
0.0
 20
0.0
 30
0.0
  3
*D16
  1

  0
LINE
  5
2444
  8
SP
 10
15617.554669787471
 20
26378.94855438239
 30
0.0
 11
15617.554669787471
 21
26651.940889139289
 31
0.0
  0
LINE
  5
2445
  8
SP
 10
14275.554669787471
 20
26098.95325121015
 30
0.0
 11
14275.554669787471
 21
26651.940889139289
 31
0.0
  0
LINE
  5
2446
  8
SP
 10
15537.554669787471
 20
26611.940889139289
 30
0.0
 11
14355.554669787471
 21
26611.940889139289
 31
0.0
  0
INSERT
  5
2447
  8
SP
  2
_OPEN
 10
15617.554669787471
 20
26611.940889139289
 30
0.0
 41
80.0
 42
80.0
 43
80.0
  0
INSERT
  5
2448
  8
SP
  2
_OPEN
 10
14275.554669787471
 20
26611.940889139289
 30
0.0
 41
80.0
 42
80.0
 43
80.0
 50
180.0
  0
TEXT
  5
2449
  8
FUTO
 10
14723.38246252273
 20
26631.940889139289
 30
0.0
 40
120.0
  1
1342
 51
15.0
  0
POINT
  5
244A
  8
DEFPOINTS
 62
     0
 10
15617.554669787471
 20
26338.94855438239
 30
0.0
  0
POINT
  5
244B
  8
DEFPOINTS
 62
     0
 10
14275.554669787471
 20
26058.95325121015
 30
0.0
  0
POINT
  5
244C
  8
DEFPOINTS
 62
     0
 10
14275.554669787471
 20
26611.940889139289
 30
0.0
  0
ENDBLK
  5
1BB5
  8
0
  0
BLOCK
  8
0
  2
*D17
 70
     1
 10
0.0
 20
0.0
 30
0.0
  3
*D17
  1

  0
LINE
  5
24B7
  8
SP
 10
15617.554669787471
 20
26378.94855438239
 30
0.0
 11
15617.554669787471
 21
26651.940889139289
 31
0.0
  0
LINE
  5
24B8
  8
SP
 10
17607.55466978746
 20
26113.953251210161
 30
0.0
 11
17607.55466978746
 21
26651.940889139289
 31
0.0
  0
LINE
  5
24B9
  8
SP
 10
15697.554669787471
 20
26611.940889139289
 30
0.0
 11
17527.55466978746
 21
26611.940889139289
 31
0.0
  0
INSERT
  5
24BA
  8
SP
  2
_OPEN
 10
15617.554669787471
 20
26611.940889139289
 30
0.0
 41
80.0
 42
80.0
 43
80.0
 50
180.0
  0
INSERT
  5
24BB
  8
SP
  2
_OPEN
 10
17607.55466978746
 20
26611.940889139289
 30
0.0
 41
80.0
 42
80.0
 43
80.0
  0
TEXT
  5
24BC
  8
FUTO
 10
16389.382462522721
 20
26631.940889139289
 30
0.0
 40
120.0
  1
1990
 51
15.0
  0
POINT
  5
24BD
  8
DEFPOINTS
 62
     0
 10
15617.554669787471
 20
26338.94855438239
 30
0.0
  0
POINT
  5
24BE
  8
DEFPOINTS
 62
     0
 10
17607.55466978746
 20
26073.953251210161
 30
0.0
  0
POINT
  5
24BF
  8
DEFPOINTS
 62
     0
 10
17607.55466978746
 20
26611.940889139289
 30
0.0
  0
ENDBLK
  5
1BC2
  8
0
  0
BLOCK
  8
0
  2
*D18
 70
     1
 10
0.0
 20
0.0
 30
0.0
  3
*D18
  1

  0
LINE
  5
24C0
  8
SP
 10
21637.517586723261
 20
21650.0895365873
 30
0.0
 11
22217.52572893499
 21
21650.0895365873
 31
0.0
  0
LINE
  5
24C1
  8
SP
 10
21637.517586723261
 20
19850.0895365873
 30
0.0
 11
22217.52572893499
 21
19850.0895365873
 31
0.0
  0
LINE
  5
24C2
  8
SP
 10
22177.52572893499
 20
21570.0895365873
 30
0.0
 11
22177.52572893499
 21
19930.0895365873
 31
0.0
  0
INSERT
  5
24C3
  8
SP
  2
_OPEN
 10
22177.52572893499
 20
21650.0895365873
 30
0.0
 41
80.0
 42
80.0
 43
80.0
 50
90.0
  0
INSERT
  5
24C4
  8
SP
  2
_OPEN
 10
22177.52572893499
 20
19850.0895365873
 30
0.0
 41
80.0
 42
80.0
 43
80.0
 50
270.0
  0
INSERT
  5
24C5
  8
FUTO
  2
*U19
 10
0.0
 20
0.0
 30
0.0
  0
POINT
  5
24C6
  8
DEFPOINTS
 62
     0
 10
21597.517586723261
 20
21650.0895365873
 30
0.0
  0
POINT
  5
24C7
  8
DEFPOINTS
 62
     0
 10
21597.517586723261
 20
19850.0895365873
 30
0.0
  0
POINT
  5
24C8
  8
DEFPOINTS
 62
     0
 10
22177.52572893499
 20
19850.0895365873
 30
0.0
  0
ENDBLK
  5
1C45
  8
0
  0
BLOCK
  8
0
  2
*U19
 70
     1
 10
0.0
 20
0.0
 30
0.0
  3
*U19
  1

  0
TEXT
  5
24F8
  8
FUTO
 10
22157.52572893499
 20
20453.082119750488
 30
0.0
 40
120.0
  1
\U+2205
 50
90.0
 51
15.0
  0
TEXT
  5
24F9
  8
FUTO
 10
22157.52572893499
 20
20561.65354832192
 30
0.0
 40
120.0
  1
1800
 50
90.0
 51
15.0
  0
ENDBLK
  5
24FB
  8
0
  0
ENDSEC
  0
SECTION
  2
ENTITIES
  0
INSERT
  5
89
  8
FUTO
  2
まっすぐの矢印
 10
17183.996966447809
 20
22202.377347252441
 30
0.0
 41
2.0
 42
2.0
 43
2.0
  0
LINE
  5
B2
  8
CT
 10
14072.20067074337
 20
20751.715736587292
 30
0.0
 11
17532.18277629757
 21
20751.715736587292
 31
0.0
  0
LINE
  5
104
  8
CT
 10
15617.554669787471
 20
22072.824150698842
 30
0.0
 11
15617.554669787471
 21
18878.808176803421
 31
0.0
  0
ARC
  5
10E
  8
FUTO
 10
17117.554669787471
 20
19661.715736587299
 30
0.0
 40
280.0
 50
240.18746141754721
 51
47.803228589811383
  0
ARC
  5
111
  8
FUTO
 10
17117.554669787471
 20
19661.715736587299
 30
0.0
 40
310.0
 50
300.10230806831191
 51
239.897691931688
  0
LINE
  5
112
  8
CT
 10
17117.554669787471
 20
20326.481622513609
 30
0.0
 11
17117.554669787471
 21
19339.424420326151
 31
0.0
  0
LINE
  5
113
  8
FUTO
 10
16676.554669787471
 20
20742.715736587292
 30
0.0
 11
16676.554669787471
 21
20439.49294582284
 31
0.0
  0
LINE
  5
115
  8
FUTO
 10
14576.554669787471
 20
20742.715736587292
 30
0.0
 11
14576.554669787471
 21
19311.715736587299
 31
0.0
  0
LINE
  5
116
  8
FUTO
 10
14567.554669787471
 20
20742.715736587292
 30
0.0
 11
14567.554669787471
 21
19311.715736587299
 31
0.0
  0
LINE
  5
117
  8
FUTO
 10
16667.554669787471
 20
20760.715736587299
 30
0.0
 11
16667.554669787471
 21
20447.652723423431
 31
0.0
  0
LINE
  5
118
  8
FUTO
 10
16658.554669787471
 20
20760.715736587299
 30
0.0
 11
16658.554669787471
 21
20455.812501024029
 31
0.0
  0
LINE
  5
119
  8
CT
 10
17117.554669787471
 20
19375.214473587301
 30
0.0
 11
17117.554669787471
 21
19959.486152587291
 31
0.0
  0
ARC
  5
122
  8
FUTO
 10
15507.054669787471
 20
20641.215736587292
 30
0.0
 40
1201.5
 50
82.275188289659212
 51
174.7231437130738
  0
ARC
  5
123
  8
KL
 10
15507.054669787471
 20
20641.215736587292
 30
0.0
 40
1181.4999999999991
 50
89.999999999999986
 51
180.99417894367201
  0
ARC
  5
124
  8
KL
 10
15748.554669787471
 20
20620.715736587292
 30
0.0
 40
1423.0
 50
180.0
 51
264.73663459410341
  0
DIMENSION
  5
13A
  8
SP
  2
*D8
 10
17557.554669787471
 20
18726.508357868988
 30
0.0
 11
16587.554669787471
 21
18806.508357868988
 31
0.0
 70
     0
 13
15617.554669787471
 23
19081.06156157708
 33
0.0
 14
17557.554669787471
 24
19161.715736587292
 34
0.0
 50
180.0
1001
ACAD
1000
DSTYLE
1002
{
1070
   287
1070
     4
1070
    40
1040
40.0
1070
    75
1070
     1
1070
   279
1070
     1
1070
   289
1070
     3
1002
}
  0
DIMENSION
  5
14A
  8
SP
  2
*D7
 10
17557.554669787471
 20
18407.79380724837
 30
0.0
 11
16057.554669787471
 21
18487.79380724837
 31
0.0
 70
     0
 13
14557.554669787471
 23
19161.715736587292
 33
0.0
 14
17557.554669787471
 24
19161.715736587292
 34
0.0
 50
180.0
1001
ACAD
1000
DSTYLE
1002
{
1070
    40
1040
40.0
1002
}
  0
LINE
  5
157
  8
FUTO
 10
14557.554669787471
 20
19299.715736587292
 30
0.0
 11
17557.554669787471
 21
19299.715736587292
 31
0.0
  0
LINE
  5
158
  8
FUTO
 10
14557.554669787471
 20
19173.715736587299
 30
0.0
 11
17557.554669787471
 21
19173.715736587299
 31
0.0
  0
LINE
  5
159
  8
FUTO
 10
14557.554669787471
 20
19311.715736587299
 30
0.0
 11
17557.554669787471
 21
19311.715736587299
 31
0.0
  0
LINE
  5
15A
  8
FUTO
 10
14557.554669787471
 20
19161.715736587292
 30
0.0
 11
17557.554669787471
 21
19161.715736587292
 31
0.0
1001
ACAD
1000
ASC_BOUNDS
1002
{
1070
    19
1005
0
1002
}
  0
LINE
  5
15B
  8
FUTO
 10
16837.554669787471
 20
19411.715736587299
 30
0.0
 11
16934.251641989242
 21
19411.715736587299
 31
0.0
  0
LINE
  5
15C
  8
FUTO
 10
16837.554669787471
 20
19381.715736587292
 30
0.0
 11
16947.554669787471
 21
19381.715736587292
 31
0.0
  0
LINE
  5
15D
  8
FUTO
 10
17017.554669787471
 20
19381.715736587292
 30
0.0
 11
16802.554669787471
 21
19381.715736587292
 31
0.0
  0
LINE
  5
15E
  8
FUTO
 10
16792.554669787471
 20
19311.715736587299
 30
0.0
 11
17017.554669787471
 21
19311.715736587299
 31
0.0
  0
LINE
  5
15F
  8
CT
 10
16780.095705597709
 20
19661.715736587299
 30
0.0
 11
17460.831891980491
 21
19661.715736587299
 31
0.0
  0
LINE
  5
175
  8
FUTO
 10
17432.554669787471
 20
19381.715736587292
 30
0.0
 11
17217.554669787471
 21
19381.715736587292
 31
0.0
  0
LINE
  5
176
  8
FUTO
 10
17217.554669787471
 20
19311.715736587299
 30
0.0
 11
17442.554669787471
 21
19311.715736587299
 31
0.0
  0
CIRCLE
  5
177
  8
SL
 10
17117.554669787471
 20
19661.715736587299
 30
0.0
 40
200.0
  0
LINE
  5
178
  8
FUTO
 10
17397.554669787471
 20
19528.674389630749
 30
0.0
 11
17397.554669787471
 21
19381.715736587292
 31
0.0
  0
LINE
  5
179
  8
FUTO
 10
17557.554669787471
 20
19311.715736587299
 30
0.0
 11
17557.554669787471
 21
19161.715736587292
 31
0.0
  0
LINE
  5
17B
  8
CT
 10
17346.054669787471
 20
19426.885185076939
 30
0.0
 11
17346.054669787471
 21
19339.424420326151
 31
0.0
  0
LINE
  5
17C
  8
FUTO
 10
17300.857697585699
 20
19411.715736587299
 30
0.0
 11
17397.554669787471
 21
19411.715736587299
 31
0.0
  0
LINE
  5
17D
  8
FUTO
 10
17287.554669787471
 20
19402.486108650981
 30
0.0
 11
17287.554669787471
 21
19381.715736587292
 31
0.0
  0
LINE
  5
17E
  8
FUTO
 10
17287.554669787471
 20
19381.715736587292
 30
0.0
 11
17397.554669787471
 21
19381.715736587292
 31
0.0
  0
LINE
  5
17F
  8
FUTO
 10
17442.554669787471
 20
19311.715736587299
 30
0.0
 11
17432.554669787471
 21
19381.715736587292
 31
0.0
  0
LINE
  5
180
  8
CT
 10
17117.554669787471
 20
19170.29735139884
 30
0.0
 11
17117.554669787471
 21
19835.813750783891
 31
0.0
  0
LINE
  5
181
  8
FUTO
 10
16962.075537511861
 20
19393.525059219821
 30
0.0
 11
17273.03380206307
 21
19393.525059219821
 31
0.0
  0
LINE
  5
182
  8
FUTO
 10
17217.554669787471
 20
19371.715736587299
 30
0.0
 11
17017.554669787471
 21
19371.715736587299
 31
0.0
  0
LINE
  5
183
  8
FUTO
 10
17217.554669787471
 20
19321.715736587292
 30
0.0
 11
17017.554669787471
 21
19321.715736587292
 31
0.0
  0
LINE
  5
184
  8
FUTO
 10
17217.554669787471
 20
19371.715736587299
 30
0.0
 11
17217.554669787471
 21
19381.715736587292
 31
0.0
  0
LINE
  5
185
  8
FUTO
 10
17217.554669787471
 20
19311.715736587299
 30
0.0
 11
17217.554669787471
 21
19321.715736587292
 31
0.0
  0
LINE
  5
186
  8
CT
 10
16889.054669787471
 20
19426.885185076939
 30
0.0
 11
16889.054669787471
 21
19335.259622004691
 31
0.0
  0
LINE
  5
187
  8
FUTO
 10
16947.554669787471
 20
19402.486108650981
 30
0.0
 11
16947.554669787471
 21
19381.715736587292
 31
0.0
  0
LINE
  5
188
  8
FUTO
 10
17017.554669787471
 20
19371.715736587299
 30
0.0
 11
17017.554669787471
 21
19381.715736587292
 31
0.0
  0
LINE
  5
189
  8
FUTO
 10
16874.554669787471
 20
19381.715736587292
 30
0.0
 11
16974.554669787471
 21
19381.715736587292
 31
0.0
  0
LINE
  5
18A
  8
FUTO
 10
17017.554669787471
 20
19311.715736587299
 30
0.0
 11
17017.554669787471
 21
19321.715736587292
 31
0.0
  0
ARC
  5
1A4
  8
FUTO
 10
15748.554669787471
 20
20620.715736587292
 30
0.0
 40
1443.0
 50
174.79134068104571
 51
236.2638327697731
  0
LINE
  5
1A7
  8
FUTO
 10
16837.55466978746
 20
19528.67438963076
 30
0.0
 11
16837.554669787471
 21
19381.715736587292
 31
0.0
  0
LINE
  5
1A8
  8
FUTO
 10
16660.664871675421
 20
19464.599356815452
 30
0.0
 11
16702.661467542341
 21
19414.9507242828
 31
0.0
  0
LINE
  5
1A9
  8
FUTO
 10
16674.407706242961
 20
19476.224093287688
 30
0.0
 11
16716.404302109891
 21
19426.575460755041
 31
0.0
  0
LINE
  5
1AA
  8
FUTO
 10
16667.55466978746
 20
19470.389995123951
 30
0.0
 11
16709.53288482612
 21
19420.763092518919
 31
0.0
  0
LINE
  5
1AB
  8
FUTO
 10
16802.554669787471
 20
19381.715736587292
 30
0.0
 11
16792.554669787471
 21
19311.715736587299
 31
0.0
  0
LINE
  5
1AC
  8
FUTO
 10
16702.66146754233
 20
19414.950724282789
 30
0.0
 11
16716.404302109891
 21
19426.575460755041
 31
0.0
  0
LINE
  5
1AE
  8
KL
 10
16242.554669787471
 20
19311.715736587299
 30
0.0
 11
16242.554669787471
 21
19161.715736587292
 31
0.0
  0
LINE
  5
1AF
  8
FUTO
 10
16308.554669787471
 20
19311.715736587299
 30
0.0
 11
16308.554669787471
 21
19161.715736587292
 31
0.0
  0
LINE
  5
1B0
  8
FUTO
 10
16326.554669787471
 20
19311.715736587299
 30
0.0
 11
16326.554669787471
 21
19161.715736587292
 31
0.0
  0
LINE
  5
1B1
  8
FUTO
 10
16317.554669787471
 20
19311.715736587299
 30
0.0
 11
16317.554669787471
 21
19161.715736587292
 31
0.0
  0
LINE
  5
1B2
  8
KL
 10
16317.554669787471
 20
19325.88063112571
 30
0.0
 11
16317.554669787471
 21
19161.715736587292
 31
0.0
  0
DIMENSION
  5
1B3
  8
SP
  2
*D9
 10
15617.554669787471
 20
18726.508357868988
 30
0.0
 11
15087.554669787471
 21
18806.508357868988
 31
0.0
 70
     0
 13
14557.554669787471
 23
19161.715736587292
 33
0.0
 14
15617.554669787471
 24
19081.06156157708
 34
0.0
 50
180.0
1001
ACAD
1000
DSTYLE
1002
{
1070
    40
1040
40.0
1002
}
  0
LINE
  5
1EC
  8
KL
 10
14992.554669787471
 20
19311.715736587299
 30
0.0
 11
14992.554669787471
 21
19161.715736587292
 31
0.0
  0
LINE
  5
1ED
  8
FUTO
 10
14917.554669787471
 20
19311.715736587299
 30
0.0
 11
14917.554669787471
 21
19161.715736587292
 31
0.0
  0
LINE
  5
1EE
  8
KL
 10
14917.554669787471
 20
19325.88063112571
 30
0.0
 11
14917.554669787471
 21
19161.715736587292
 31
0.0
  0
LINE
  5
1EF
  8
FUTO
 10
14557.554669787471
 20
19311.715736587299
 30
0.0
 11
14557.554669787471
 21
19161.715736587292
 31
0.0
  0
LINE
  5
1F0
  8
FUTO
 10
17306.434584232309
 20
24605.953251210161
 30
0.0
 11
17306.434584232309
 21
24453.953251210161
 31
0.0
  0
LINE
  5
1F1
  8
FUTO
 10
17557.554669787471
 20
24615.953251210161
 30
0.0
 11
17557.554669787471
 21
24605.953251210161
 31
0.0
  0
LINE
  5
1F2
  8
CT
 10
17117.554669787471
 20
24531.325139768291
 30
0.0
 11
17117.554669787471
 21
22987.858428163509
 31
0.0
  0
LINE
  5
1F3
  8
FUTO
 10
16317.554669787471
 20
24605.953251210161
 30
0.0
 11
16317.554669787471
 21
23233.953251210161
 31
0.0
  0
LINE
  5
1F4
  8
FUTO
 10
16242.554669787471
 20
24605.953251210161
 30
0.0
 11
16242.554669787471
 21
23308.953251210161
 31
0.0
  0
LINE
  5
1F5
  8
FUTO
 10
14992.554669787471
 20
24605.953251210161
 30
0.0
 11
14992.554669787471
 21
23308.953251210161
 31
0.0
  0
LINE
  5
1F6
  8
FUTO
 10
14917.554669787471
 20
24605.953251210161
 30
0.0
 11
14917.554669787471
 21
23233.953251210161
 31
0.0
  0
ARC
  5
263
  8
FUTO
 10
15617.554669787471
 20
20751.715736587292
 30
0.0
 40
480.0
 50
47.803228589811539
 51
240.1874614175469
  0
LINE
  5
267
  8
FUTO
 10
17511.501999779011
 20
20742.715736587292
 30
0.0
 11
16453.526870091609
 21
20742.715736587292
 31
0.0
  0
LINE
  5
268
  8
FUTO
 10
17511.501999779011
 20
20760.715736587299
 30
0.0
 11
16428.437359050491
 21
20760.715736587299
 31
0.0
  0
ARC
  5
269
  8
FUTO
 10
15748.554669787471
 20
20882.715736587299
 30
0.0
 40
1705.0
 50
292.86725764747092
 51
307.45752721647972
  0
ARC
  5
26A
  8
KL
 10
15748.554669787471
 20
20882.715736587299
 30
0.0
 40
1685.0
 50
274.83662323419389
 51
354.6120591389967
  0
LINE
  5
26D
  8
FUTO
 10
16658.554669787471
 20
21851.715736587292
 30
0.0
 11
16658.554669787471
 21
20751.715736587292
 31
0.0
  0
LINE
  5
26E
  8
FUTO
 10
16667.554669787471
 20
21851.715736587292
 30
0.0
 11
16667.554669787471
 21
20751.715736587292
 31
0.0
  0
LINE
  5
26F
  8
KL
 10
15618.01731881082
 20
19203.715736587292
 30
0.0
 11
15890.625074868891
 21
19203.715736587292
 31
0.0
  0
LINE
  5
272
  8
CT
 10
17219.261084411741
 20
20111.715736587292
 30
0.0
 11
17373.558021931422
 21
20111.715736587292
 31
0.0
  0
LINE
  5
273
  8
FUTO
 10
16907.554669787471
 20
20251.715736587299
 30
0.0
 11
17297.554669787471
 21
20251.715736587299
 31
0.0
  0
LINE
  5
274
  8
FUTO
 10
16907.554669787471
 20
19986.715736587292
 30
0.0
 11
17297.554669787471
 21
19986.715736587292
 31
0.0
  0
ARC
  5
275
  8
FUTO
 10
17297.554669787471
 20
20231.715736587292
 30
0.0
 40
20.0
 50
0.000000000000007
 51
90.0
  0
ARC
  5
276
  8
FUTO
 10
17297.554669787471
 20
20006.715736587292
 30
0.0
 40
20.0
 50
270.0
 51
0.000000000000007
  0
LINE
  5
277
  8
FUTO
 10
17317.554669787471
 20
20231.715736587292
 30
0.0
 11
17317.554669787471
 21
20006.715736587292
 31
0.0
  0
ARC
  5
279
  8
FUTO
 10
16907.554669787471
 20
20231.715736587292
 30
0.0
 40
20.0
 50
90.0
 51
180.0
  0
LINE
  5
27A
  8
FUTO
 10
17338.24641544577
 20
20254.630908234129
 30
0.0
 11
17374.559653412442
 21
20237.697767277881
 31
0.0
  0
LINE
  5
27B
  8
CT
 10
17275.213568788058
 20
20212.304042613381
 30
0.0
 11
17382.15985202412
 21
20162.43417172919
 31
0.0
  0
LINE
  5
27C
  8
FUTO
 10
17387.848913900209
 20
20242.53466253083
 30
0.0
 11
17324.456174639108
 21
20106.588494475342
 31
0.0
  0
LINE
  5
27D
  8
FUTO
 10
17374.559653412442
 20
20237.697767277881
 30
0.0
 11
17319.619279386148
 21
20119.87775496312
 31
0.0
  0
LINE
  5
27E
  8
FUTO
 10
17342.47259806317
 20
20263.69398610451
 30
0.0
 11
17387.848913900209
 21
20242.53466253083
 31
0.0
  0
LINE
  5
27F
  8
KL
 10
17279.07985880207
 20
20127.747818049011
 30
0.0
 11
17324.456174639108
 21
20106.588494475342
 31
0.0
  0
LINE
  5
280
  8
KL
 10
17283.306041419481
 20
20136.810895919381
 30
0.0
 11
17319.619279386148
 21
20119.87775496312
 31
0.0
  0
ARC
  5
281
  8
FUTO
 10
16907.554669787471
 20
20006.715736587292
 30
0.0
 40
20.0
 50
180.0
 51
270.0
  0
LINE
  5
282
  8
FUTO
 10
16887.554669787471
 20
20231.715736587292
 30
0.0
 11
16887.554669787471
 21
20006.715736587292
 31
0.0
  0
LINE
  5
283
  8
FUTO
 10
17511.501999779011
 20
20760.715736587299
 30
0.0
 11
17511.501999779011
 21
20742.715736587292
 31
0.0
  0
LINE
  5
285
  8
FUTO
 10
15619.554669787471
 20
21851.715736587292
 30
0.0
 11
17607.55466978746
 21
21851.715736587292
 31
0.0
  0
LINE
  5
286
  8
FUTO
 10
15832.1144418198
 20
21916.715736587299
 30
0.0
 11
16859.516610564591
 21
21916.715736587299
 31
0.0
  0
LINE
  5
287
  8
FUTO
 10
15832.1144418198
 20
21916.715736587299
 30
0.0
 11
17607.55466978746
 21
21916.715736587299
 31
0.0
  0
LINE
  5
288
  8
FUTO
 10
15831.056479935551
 20
21910.715736587292
 30
0.0
 11
16865.516610564591
 21
21910.715736587292
 31
0.0
  0
CIRCLE
  5
295
  8
SL
 10
15617.554669787471
 20
20751.715736587292
 30
0.0
 40
355.0
  0
ARC
  5
296
  8
FUTO
 10
15565.554669787471
 20
20841.782378580869
 30
0.0
 40
15.000000000000099
 50
25.864502996822029
 51
214.135497003171
  0
ARC
  5
297
  8
FUTO
 10
15617.554669787471
 20
20751.715736587292
 30
0.0
 40
103.9999999999995
 50
68.270994006339393
 51
111.7290059936601
  0
LINE
  5
298
  8
CT
 10
15617.554669787471
 20
20875.484495752
 30
0.0
 11
15617.554669787471
 21
20621.89201268517
 31
0.0
  0
ARC
  5
299
  8
FUTO
 10
15669.554669787471
 20
20841.782378580869
 30
0.0
 40
15.000000000000201
 50
325.8645029968294
 51
154.13549700317759
  0
ARC
  5
29E
  8
FUTO
 10
15565.554669787471
 20
20661.649094593711
 30
0.0
 40
14.99999999999998
 50
145.86450299682841
 51
334.13549700317782
  0
CIRCLE
  5
29F
  8
FUTO
 10
15617.554669787471
 20
20751.715736587292
 30
0.0
 40
41.5
  0
LINE
  5
2A0
  8
FUTO
 10
15702.554669787471
 20
20644.715736587299
 30
0.0
 11
15532.554669787471
 21
20644.715736587299
 31
0.0
  0
LINE
  5
2A2
  8
KL
 10
15275.50624396342
 20
20629.715736587292
 30
0.0
 11
15617.554669787471
 21
20629.715736587292
 31
0.0
  0
LINE
  5
2A4
  8
FUTO
 10
15741.554669787471
 20
20675.715736587292
 30
0.0
 11
15809.554669787471
 21
20675.715736587292
 31
0.0
  0
LINE
  5
2A5
  8
FUTO
 10
15822.554669787471
 20
20639.715736587292
 30
0.0
 11
15702.554669787471
 21
20639.715736587292
 31
0.0
  0
LINE
  5
2A6
  8
KL
 10
15959.60309561151
 20
20629.715736587292
 30
0.0
 11
15617.554669787471
 21
20629.715736587292
 31
0.0
  0
LINE
  5
2A7
  8
FUTO
 10
15822.554669787471
 20
20639.715736587292
 30
0.0
 11
15822.554669787471
 21
20629.715736587292
 31
0.0
  0
ARC
  5
2A8
  8
FUTO
 10
15809.554669787471
 20
20672.715736587299
 30
0.0
 40
3.0
 50
0.000000000000007
 51
90.0
  0
LINE
  5
2A9
  8
FUTO
 10
15812.554669787471
 20
20672.715736587299
 30
0.0
 11
15812.554669787471
 21
20639.715736587292
 31
0.0
  0
LINE
  5
2AA
  8
KL
 10
15817.554669787471
 20
20760.715736587299
 30
0.0
 11
15817.554669787471
 21
20742.715736587292
 31
0.0
  0
ARC
  5
2AD
  8
FUTO
 10
15617.554669787471
 20
20751.715736587292
 30
0.0
 40
104.0000000000007
 50
248.27099400633949
 51
291.72900599365971
  0
ARC
  5
2AE
  8
FUTO
 10
15721.554669787471
 20
20751.715736587292
 30
0.0
 40
15.0
 50
265.86450299682951
 51
94.135497003170499
  0
ARC
  5
2AF
  8
FUTO
 10
15741.554669787471
 20
20695.715736587299
 30
0.0
 40
20.0
 50
180.0
 51
270.0
  0
LINE
  5
2B0
  8
FUTO
 10
15702.554669787471
 20
20639.715736587292
 30
0.0
 11
15702.554669787471
 21
20644.715736587299
 31
0.0
  0
LINE
  5
2B1
  8
CT
 10
15777.554669787471
 20
20629.715736587292
 30
0.0
 11
15777.554669787471
 21
20685.715736587292
 31
0.0
  0
LINE
  5
2B2
  8
FUTO
 10
15721.554669787471
 20
20736.715736587292
 30
0.0
 11
15721.554669787471
 21
20695.715736587299
 31
0.0
  0
ARC
  5
2B3
  8
FUTO
 10
15669.554669787471
 20
20661.649094593711
 30
0.0
 40
14.999999999999719
 50
205.86450299682281
 51
34.135497003170862
  0
ARC
  5
2B4
  8
FUTO
 10
15617.554669787471
 20
20751.715736587292
 30
0.0
 40
104.0000000000002
 50
308.27099400633909
 51
351.72900599365983
  0
ARC
  5
2B5
  8
FUTO
 10
15617.554669787471
 20
20751.715736587292
 30
0.0
 40
103.9999999999998
 50
8.2709940063395706
 51
51.729005993660287
  0
LINE
  5
2B7
  8
FUTO
 10
15412.554669787471
 20
20629.715736587292
 30
0.0
 11
15412.554669787471
 21
20639.715736587292
 31
0.0
  0
ARC
  5
2B8
  8
FUTO
 10
15425.554669787471
 20
20672.715736587299
 30
0.0
 40
3.0
 50
90.0
 51
180.0
  0
LINE
  5
2B9
  8
FUTO
 10
15422.554669787471
 20
20639.715736587292
 30
0.0
 11
15422.554669787471
 21
20672.715736587299
 31
0.0
  0
LINE
  5
2BA
  8
CT
 10
15457.554669787471
 20
20629.715736587292
 30
0.0
 11
15457.554669787471
 21
20685.715736587292
 31
0.0
  0
LINE
  5
2BB
  8
FUTO
 10
15425.554669787471
 20
20675.715736587292
 30
0.0
 11
15493.554669787471
 21
20675.715736587292
 31
0.0
  0
LINE
  5
2BC
  8
FUTO
 10
15513.554669787471
 20
20695.715736587299
 30
0.0
 11
15513.554669787471
 21
20736.715736587292
 31
0.0
  0
ARC
  5
2BD
  8
FUTO
 10
15493.554669787471
 20
20695.715736587299
 30
0.0
 40
20.0
 50
270.0
 51
0.000000000000007
  0
LINE
  5
2BE
  8
FUTO
 10
15532.554669787471
 20
20644.715736587299
 30
0.0
 11
15532.554669787471
 21
20639.715736587292
 31
0.0
  0
LINE
  5
2BF
  8
FUTO
 10
15532.554669787471
 20
20639.715736587292
 30
0.0
 11
15412.554669787471
 21
20639.715736587292
 31
0.0
  0
ARC
  5
2C0
  8
FUTO
 10
15513.554669787471
 20
20751.715736587292
 30
0.0
 40
15.0
 50
85.864502996829515
 51
270.0
  0
ARC
  5
2C1
  8
FUTO
 10
15617.554669787471
 20
20751.715736587292
 30
0.0
 40
103.9999999999998
 50
188.27099400633949
 51
231.72900599366031
  0
ARC
  5
2C2
  8
FUTO
 10
15617.554669787471
 20
20751.715736587292
 30
0.0
 40
103.9999999999994
 50
128.27099400633961
 51
171.72900599366019
  0
INSERT
  5
2C5
  8
FUTO
  2
左回転矢印
 10
15430.120063235219
 20
21450.154809936241
 30
0.0
 41
2.0
 42
2.0
 43
2.0
  0
LINE
  5
2D0
  8
FUTO
 10
15590.50016727036
 20
20852.135126615081
 30
0.0
 11
15590.50016727036
 21
20855.715736587299
 31
0.0
  0
LINE
  5
2D1
  8
FUTO
 10
15644.60917230457
 20
20852.135126615081
 30
0.0
 11
15644.60917230457
 21
20855.715736587299
 31
0.0
  0
LINE
  5
2D2
  8
FUTO
 10
15644.60917230457
 20
20855.715736587299
 30
0.0
 11
15590.50016727036
 21
20855.715736587299
 31
0.0
  0
LINE
  5
2D3
  8
FUTO
 10
15619.554669787471
 20
21910.715736587292
 30
0.0
 11
15866.9030607276
 21
21910.715736587292
 31
0.0
  0
LINE
  5
2D4
  8
FUTO
 10
15619.554669787471
 20
21916.715736587299
 30
0.0
 11
15868.24164388656
 21
21916.715736587299
 31
0.0
  0
LINE
  5
2D5
  8
FUTO
 10
15619.554669787471
 20
21916.715736587299
 30
0.0
 11
15813.83676280586
 21
21916.715736587299
 31
0.0
  0
ARC
  5
2D6
  8
KL
 10
15507.054669787471
 20
20862.215736587292
 30
0.0
 40
960.5
 50
54.29936339556636
 51
89.999999999999986
  0
LINE
  5
2D8
  8
FUTO
 10
15668.554669787471
 20
21831.81222574725
 30
0.0
 11
15668.554669787471
 21
21916.715736587299
 31
0.0
  0
LINE
  5
2D9
  8
FUTO
 10
15619.554669787471
 20
21851.715736587292
 30
0.0
 11
15619.554669787471
 21
21916.715736587299
 31
0.0
  0
LINE
  5
2DA
  8
FUTO
 10
15619.554669787471
 20
21851.715736587292
 30
0.0
 11
15619.554669787471
 21
21916.715736587299
 31
0.0
  0
LINE
  5
2DB
  8
KL
 10
15688.554669787471
 20
21805.411368468609
 30
0.0
 11
15688.554669787471
 21
21916.715736587299
 31
0.0
  0
LINE
  5
2DD
  8
FUTO
 10
17558.643426945069
 20
21916.715736587299
 30
0.0
 11
17446.021553003658
 21
20722.618327537981
 31
0.0
  0
LINE
  5
2DE
  8
KL
 10
17538.554669787471
 20
21916.715736587299
 30
0.0
 11
17426.109918009919
 21
20724.49630301071
 31
0.0
  0
LINE
  5
2E3
  8
FUTO
 10
16865.516610564591
 20
21910.715736587292
 30
0.0
 11
17607.55466978746
 21
21910.715736587292
 31
0.0
  0
LINE
  5
2E4
  8
FUTO
 10
17607.554669787471
 20
21851.715736587292
 30
0.0
 11
17607.55466978746
 21
21916.715736587299
 31
0.0
  0
LINE
  5
2FF
  8
FUTO
 10
17557.554669787471
 20
23308.953251210161
 30
0.0
 11
14917.554669787471
 21
23308.953251210161
 31
0.0
  0
LINE
  5
300
  8
FUTO
 10
17557.554669787471
 20
23233.953251210161
 30
0.0
 11
14917.554669787471
 21
23233.953251210161
 31
0.0
  0
LINE
  5
3C8
  8
FUTO
 10
17542.55466978746
 20
26008.953251210161
 30
0.0
 11
14325.554669787471
 21
26008.953251210161
 31
0.0
  0
LINE
  5
3C9
  8
FUTO
 10
16677.554669787471
 20
24680.953251210161
 30
0.0
 11
14325.554669787471
 21
24680.953251210161
 31
0.0
  0
LINE
  5
3CA
  8
FUTO
 10
16677.554669787471
 20
24605.953251210161
 30
0.0
 11
14557.554669787471
 21
24605.953251210161
 31
0.0
  0
LINE
  5
3CB
  8
FUTO
 10
16677.554669787471
 20
26083.953251210161
 30
0.0
 11
14557.554669787471
 21
26083.953251210161
 31
0.0
  0
LINE
  5
3DA
  8
FUTO
 10
17557.554669787471
 20
24605.953251210161
 30
0.0
 11
16317.554669787471
 21
24605.953251210161
 31
0.0
  0
LINE
  5
3DB
  8
FUTO
 10
17542.554669787471
 20
24680.953251210161
 30
0.0
 11
17221.554669787471
 21
24680.953251210169
 31
0.0
  0
LINE
  5
406
  8
FUTO
 10
14557.554669787471
 20
24605.953251210161
 30
0.0
 11
14557.554669787471
 21
24630.95325121015
 31
0.0
  0
LINE
  5
438
  8
SL
 10
18672.517586723261
 20
21030.0895365873
 30
0.0
 11
18672.517586723261
 21
19800.0895365873
 31
0.0
  0
LINE
  5
439
  8
SL
 10
18502.517586723261
 20
21030.0895365873
 30
0.0
 11
18502.517586723261
 21
19800.0895365873
 31
0.0
  0
LINE
  5
43A
  8
CT
 10
20802.517586723261
 20
21994.260379522941
 30
0.0
 11
20802.517586723261
 21
18922.501522819141
 31
0.0
  0
LINE
  5
43C
  8
FUTO
 10
21465.717586723262
 20
19311.715719981308
 30
0.0
 11
21465.717586723262
 21
20818.78953658729
 31
0.0
  0
LINE
  5
43D
  8
FUTO
 10
21462.517586723268
 20
19311.715719981308
 30
0.0
 11
21462.517586723261
 21
20818.78953658729
 31
0.0
  0
LINE
  5
43E
  8
FUTO
 10
20142.517586723261
 20
19311.715719981308
 30
0.0
 11
20142.517586723261
 21
20818.78953658729
 31
0.0
  0
LINE
  5
43F
  8
FUTO
 10
20139.317586723271
 20
19311.715719981308
 30
0.0
 11
20139.31758672326
 21
20818.78953658729
 31
0.0
  0
LINE
  5
441
  8
FUTO
 10
18702.517586723261
 20
21130.089536587289
 30
0.0
 11
18702.517586723261
 21
19410.0895365873
 31
0.0
  0
LINE
  5
442
  8
FUTO
 10
18352.517586723261
 20
21130.089536587289
 30
0.0
 11
18352.517586723261
 21
19410.0895365873
 31
0.0
  0
LINE
  5
445
  8
FUTO
 10
19752.517586723261
 20
20600.0895365873
 30
0.0
 11
19752.51758672325
 21
20590.0895365873
 31
0.0
  0
LINE
  5
446
  8
FUTO
 10
19932.517586723261
 20
20600.0895365873
 30
0.0
 11
19932.517586723261
 21
19311.715719981308
 31
0.0
  0
LINE
  5
449
  8
FUTO
 10
18931.517586723261
 20
20628.0895365873
 30
0.0
 11
18931.517586723261
 21
20590.0895365873
 31
0.0
  0
LINE
  5
44A
  8
FUTO
 10
18751.517586723261
 20
20628.0895365873
 30
0.0
 11
18751.517586723261
 21
19970.089536587289
 31
0.0
  0
DIMENSION
  5
44B
  8
SP
  2
*D18
 10
22177.52572893499
 20
19850.0895365873
 30
0.0
 11
22097.52572893499
 21
20750.0895365873
 31
0.0
 70
     0
  1
%%C<>
 13
21597.517586723261
 23
21650.0895365873
 33
0.0
 14
21597.517586723261
 24
19850.0895365873
 34
0.0
 50
90.0
1001
ACAD
1000
DSTYLE
1002
{
1070
    40
1040
40.0
1002
}
  0
LINE
  5
461
  8
KL
 10
21471.717586723262
 20
21715.089536587289
 30
0.0
 11
21471.717586723262
 21
19785.0895365873
 31
0.0
  0
LINE
  5
462
  8
FUTO
 10
21591.517586723261
 20
21715.089536587289
 30
0.0
 11
21591.517586723261
 21
19785.0895365873
 31
0.0
  0
LINE
  5
463
  8
FUTO
 10
21597.517586723261
 20
21715.089536587289
 30
0.0
 11
21597.517586723261
 21
19785.0895365873
 31
0.0
  0
LINE
  5
464
  8
FUTO
 10
20049.31758672326
 20
20725.070381281552
 30
0.0
 11
20049.31758672326
 21
19311.715719981308
 31
0.0
  0
LINE
  5
465
  8
FUTO
 10
21555.717586723262
 20
20725.070381281552
 30
0.0
 11
21555.717586723262
 21
19311.715719981308
 31
0.0
  0
LINE
  5
46D
  8
FUTO
 10
20063.517586723261
 20
19173.715719981308
 30
0.0
 11
21466.51358672326
 21
19173.715719981308
 31
0.0
  0
LINE
  5
46E
  8
FUTO
 10
20063.517586723261
 20
19299.715719981308
 30
0.0
 11
21466.51358672326
 21
19299.715719981308
 31
0.0
  0
LINE
  5
46F
  8
KL
 10
20142.517586723261
 20
19198.0895365873
 30
0.0
 11
21462.517586723268
 21
19198.0895365873
 31
0.0
  0
LINE
  5
471
  8
FUTO
 10
18691.517586723261
 20
19161.715719981308
 30
0.0
 11
21541.517586723261
 21
19161.715719981308
 31
0.0
1001
ACAD
1000
ASC_BOUNDS
1002
{
1070
    19
1005
0
1005
0
1005
0
1002
}
  0
DIMENSION
  5
472
  8
SP
  2
*D11
 10
20802.517586723261
 20
18722.235107216991
 30
0.0
 11
19747.017586723261
 21
18802.235107216999
 31
0.0
 70
     0
 13
18691.517586723261
 23
19161.715719981308
 33
0.0
 14
20802.517586723261
 24
19140.78866798737
 34
0.0
1001
ACAD
1000
DSTYLE
1002
{
1070
    40
1040
40.0
1002
}
  0
DIMENSION
  5
47F
  8
SP
  2
*D10
 10
21541.517586723261
 20
18422.197562252069
 30
0.0
 11
20116.517586723261
 21
18502.197562252069
 31
0.0
 70
     0
 13
18691.517586723261
 23
19161.715719981308
 33
0.0
 14
21541.517586723261
 24
19161.715719981308
 34
0.0
1001
ACAD
1000
DSTYLE
1002
{
1070
    40
1040
40.0
1002
}
  0
LINE
  5
48D
  8
FUTO
 10
18691.517586723268
 20
19311.715719981308
 30
0.0
 11
21555.717586723251
 21
19311.715719981308
 31
0.0
  0
LINE
  5
48E
  8
CT
 10
18294.20831517435
 20
19920.0895365873
 30
0.0
 11
18874.71084803046
 21
19920.0895365873
 31
0.0
  0
LINE
  5
493
  8
FUTO
 10
18766.521586723258
 20
19299.715719981308
 30
0.0
 11
20045.62769132878
 21
19299.715719981308
 31
0.0
  0
LINE
  5
494
  8
FUTO
 10
18766.521586723258
 20
19173.715719981308
 30
0.0
 11
20045.62769132878
 21
19173.715719981308
 31
0.0
  0
LINE
  5
495
  8
CT
 10
18726.521586723258
 20
19174.617519794509
 30
0.0
 11
18726.521586723258
 21
19120.41074489036
 31
0.0
  0
LINE
  5
4BB
  8
SL
 10
18672.517586723261
 20
19800.0895365873
 30
0.0
 11
18672.517586723261
 21
19520.0895365873
 31
0.0
  0
LINE
  5
4BC
  8
SL
 10
18502.517586723261
 20
19800.0895365873
 30
0.0
 11
18502.517586723261
 21
19520.0895365873
 31
0.0
  0
LINE
  5
4BD
  8
SL
 10
18502.517586723261
 20
19520.0895365873
 30
0.0
 11
18672.517586723261
 21
19520.0895365873
 31
0.0
  0
LINE
  5
4BE
  8
FUTO
 10
18352.517586723261
 20
19410.0895365873
 30
0.0
 11
18702.517586723261
 21
19410.0895365873
 31
0.0
  0
LINE
  5
4C1
  8
FUTO
 10
18691.517586723261
 20
19161.715719981308
 30
0.0
 11
18766.517586723261
 21
19161.715719981308
 31
0.0
  0
LINE
  5
4C2
  8
FUTO
 10
18691.517586723261
 20
19161.715719981308
 30
0.0
 11
18691.517586723261
 21
19164.137719981311
 31
0.0
  0
LINE
  5
4C3
  8
FUTO
 10
18696.08458672326
 20
19169.11871998131
 30
0.0
 11
18750.88858672326
 21
19173.915719981309
 31
0.0
  0
ARC
  5
4C4
  8
FUTO
 10
18695.521586723258
 20
19308.377531403141
 30
0.0
 40
4.0
 50
180.0
 51
264.99999999999977
  0
LINE
  5
4C5
  8
FUTO
 10
18691.521586723258
 20
19311.715719981308
 30
0.0
 11
18691.521586723258
 21
19308.377531403141
 31
0.0
  0
LINE
  5
4C6
  8
FUTO
 10
18691.521586723258
 20
19161.715719981308
 30
0.0
 11
18691.521586723258
 21
19165.053908559468
 31
0.0
  0
ARC
  5
4C7
  8
FUTO
 10
18695.521586723258
 20
19165.053908559468
 30
0.0
 40
4.0
 50
95.000000000000185
 51
180.0
  0
ARC
  5
4C8
  8
FUTO
 10
18756.021586723258
 20
19295.053908559479
 30
0.0
 40
4.0
 50
0.0
 51
85.000000000000256
  0
LINE
  5
4C9
  8
FUTO
 10
18766.521586723258
 20
19311.715719981308
 30
0.0
 11
18766.521586723258
 21
19161.715719981308
 31
0.0
  0
ARC
  5
4CA
  8
FUTO
 10
18756.021586723258
 20
19178.377531403141
 30
0.0
 40
4.0
 50
274.99999999999972
 51
0.0
  0
LINE
  5
4CB
  8
FUTO
 10
18760.021586723258
 20
19295.053908559479
 30
0.0
 11
18760.021586723258
 21
19178.377531403141
 31
0.0
  0
LINE
  5
4CC
  8
FUTO
 10
18756.370209694262
 20
19299.03868735184
 30
0.0
 11
18695.172963752269
 21
19304.39275261078
 31
0.0
  0
LINE
  5
4CD
  8
FUTO
 10
18766.521586723258
 20
19311.715719981308
 30
0.0
 11
18691.521586723258
 21
19311.715719981308
 31
0.0
  0
LINE
  5
4CE
  8
FUTO
 10
18756.370209694262
 20
19174.39275261078
 30
0.0
 11
18695.172963752269
 21
19169.03868735184
 31
0.0
  0
LINE
  5
4CF
  8
FUTO
 10
18766.521586723258
 20
19161.715719981308
 30
0.0
 11
18691.521586723258
 21
19161.715719981308
 31
0.0
  0
LINE
  5
4D0
  8
FUTO
 10
18766.521586723258
 20
19311.715719981308
 30
0.0
 11
18766.521586723258
 21
19161.715719981308
 31
0.0
  0
LINE
  5
4D1
  8
SL
 10
18502.517586723261
 20
19800.0895365873
 30
0.0
 11
18672.517586723261
 21
19800.0895365873
 31
0.0
  0
LINE
  5
4D5
  8
CT
 10
20023.517586723261
 20
19174.617519794509
 30
0.0
 11
20023.517586723261
 21
19120.41074489036
 31
0.0
  0
LINE
  5
4FF
  8
1
 10
19989.318586723261
 20
19161.715719981308
 30
0.0
 11
20064.318586723261
 21
19161.715719981308
 31
0.0
  0
LINE
  5
501
  8
FUTO
 10
20063.517586723261
 20
19311.715719981308
 30
0.0
 11
19988.517586723261
 21
19311.715719981308
 31
0.0
  0
LINE
  5
502
  8
FUTO
 10
20053.36620969425
 20
19299.03868735184
 30
0.0
 11
19992.168963752269
 21
19304.39275261078
 31
0.0
  0
ARC
  5
503
  8
FUTO
 10
20053.017586723261
 20
19295.053908559479
 30
0.0
 40
4.0
 50
0.0
 51
84.999999999999957
  0
LINE
  5
504
  8
FUTO
 10
19988.517586723261
 20
19311.715719981308
 30
0.0
 11
19988.517586723261
 21
19308.377531403141
 31
0.0
  0
ARC
  5
505
  8
FUTO
 10
19992.517586723261
 20
19308.377531403141
 30
0.0
 40
4.0
 50
180.0
 51
264.99999999999972
  0
LINE
  5
506
  8
FUTO
 10
20063.517586723261
 20
19161.715719981308
 30
0.0
 11
19988.517586723261
 21
19161.715719981308
 31
0.0
  0
LINE
  5
507
  8
FUTO
 10
20053.36620969425
 20
19174.39275261078
 30
0.0
 11
19992.168963752269
 21
19169.03868735184
 31
0.0
  0
ARC
  5
508
  8
FUTO
 10
20053.017586723261
 20
19178.377531403141
 30
0.0
 40
4.0
 50
275.0
 51
0.0
  0
ARC
  5
509
  8
FUTO
 10
19992.517586723261
 20
19165.053908559468
 30
0.0
 40
4.0
 50
95.000000000000185
 51
180.0
  0
LINE
  5
50A
  8
FUTO
 10
19988.517586723261
 20
19161.715719981308
 30
0.0
 11
19988.517586723261
 21
19165.053908559468
 31
0.0
  0
LINE
  5
50B
  8
FUTO
 10
19988.51358672326
 20
19161.715719981308
 30
0.0
 11
19988.51358672326
 21
19164.137719981311
 31
0.0
  0
LINE
  5
50C
  8
FUTO
 10
19993.080586723259
 20
19169.11871998131
 30
0.0
 11
20047.884586723259
 21
19173.915719981309
 31
0.0
  0
LINE
  5
50D
  8
FUTO
 10
19988.51358672326
 20
19161.715719981308
 30
0.0
 11
20063.51358672326
 21
19161.715719981308
 31
0.0
  0
LINE
  5
50E
  8
FUTO
 10
20063.517586723261
 20
19311.715719981308
 30
0.0
 11
20063.517586723261
 21
19161.715719981308
 31
0.0
  0
LINE
  5
50F
  8
FUTO
 10
20057.017586723261
 20
19295.053908559479
 30
0.0
 11
20057.017586723261
 21
19178.377531403141
 31
0.0
  0
LINE
  5
510
  8
FUTO
 10
20063.517586723261
 20
19311.715719981308
 30
0.0
 11
20063.517586723261
 21
19161.715719981308
 31
0.0
  0
LINE
  5
511
  8
FUTO
 10
20139.31758672326
 20
19183.0895365873
 30
0.0
 11
20142.517586723261
 21
19183.0895365873
 31
0.0
  0
LINE
  5
512
  8
KL
 10
20139.31758672326
 20
19183.0895365873
 30
0.0
 11
20139.31758672326
 21
19311.715719981308
 31
0.0
  0
LINE
  5
513
  8
KL
 10
20142.517586723261
 20
19183.0895365873
 30
0.0
 11
20142.517586723261
 21
19311.715719981308
 31
0.0
  0
DIMENSION
  5
517
  8
SP
  2
*D12
 10
21541.517586723261
 20
18722.235107216991
 30
0.0
 11
21172.017586723261
 21
18802.235107216999
 31
0.0
 70
     0
 13
20802.517586723261
 23
19140.78866798737
 33
0.0
 14
21541.517586723261
 24
19161.715719981308
 34
0.0
1001
ACAD
1000
DSTYLE
1002
{
1070
   287
1070
     4
1070
    40
1040
40.0
1070
    75
1070
     1
1070
   279
1070
     1
1070
   289
1070
     3
1002
}
  0
LINE
  5
529
  8
CT
 10
21506.517586723261
 20
19174.617519794509
 30
0.0
 11
21506.517586723261
 21
19120.41074489036
 31
0.0
  0
LINE
  5
54E
  8
FUTO
 10
21462.517586723268
 20
19198.0895365873
 30
0.0
 11
21612.517586723261
 21
19198.0895365873
 31
0.0
  0
LINE
  5
54F
  8
FUTO
 10
21612.517586723261
 20
19232.089536587289
 30
0.0
 11
21462.517586723268
 21
19232.089536587289
 31
0.0
  0
LINE
  5
550
  8
CT
 10
21427.604901240189
 20
19215.0895365873
 30
0.0
 11
21664.103079717392
 21
19215.0895365873
 31
0.0
  0
LINE
  5
553
  8
KL
 10
21462.517586723268
 20
19183.0895365873
 30
0.0
 11
21465.717586723262
 21
19183.0895365873
 31
0.0
  0
LINE
  5
554
  8
FUTO
 10
21541.517586723261
 20
19161.715719981308
 30
0.0
 11
21466.517586723261
 21
19161.715719981308
 31
0.0
  0
LINE
  5
555
  8
FUTO
 10
21536.950586723258
 20
19169.11871998131
 30
0.0
 11
21482.146586723258
 21
19173.915719981309
 31
0.0
  0
LINE
  5
556
  8
FUTO
 10
21541.517586723261
 20
19161.715719981308
 30
0.0
 11
21541.517586723261
 21
19164.137719981311
 31
0.0
  0
LINE
  5
557
  8
1
 10
21540.712586723261
 20
19161.715719981308
 30
0.0
 11
21465.712586723261
 21
19161.715719981308
 31
0.0
  0
ARC
  5
558
  8
FUTO
 10
21537.51358672326
 20
19308.377531403141
 30
0.0
 40
4.0
 50
275.00000000000011
 51
0.0
  0
LINE
  5
559
  8
FUTO
 10
21541.51358672326
 20
19311.715719981308
 30
0.0
 11
21541.51358672326
 21
19308.377531403141
 31
0.0
  0
LINE
  5
55A
  8
FUTO
 10
21541.51358672326
 20
19161.715719981308
 30
0.0
 11
21541.51358672326
 21
19165.053908559468
 31
0.0
  0
ARC
  5
55B
  8
FUTO
 10
21537.51358672326
 20
19165.053908559468
 30
0.0
 40
4.0
 50
0.0
 51
84.999999999999801
  0
ARC
  5
55C
  8
FUTO
 10
21477.01358672326
 20
19295.053908559479
 30
0.0
 40
4.0
 50
95.000000000000057
 51
180.0
  0
LINE
  5
55D
  8
FUTO
 10
21466.51358672326
 20
19311.715719981308
 30
0.0
 11
21466.51358672326
 21
19161.715719981308
 31
0.0
  0
ARC
  5
55E
  8
FUTO
 10
21477.01358672326
 20
19178.377531403141
 30
0.0
 40
4.0
 50
180.0
 51
264.99999999999989
  0
LINE
  5
55F
  8
FUTO
 10
21473.01358672326
 20
19295.053908559479
 30
0.0
 11
21473.01358672326
 21
19178.377531403141
 31
0.0
  0
LINE
  5
560
  8
FUTO
 10
21476.664963752271
 20
19299.03868735184
 30
0.0
 11
21537.862209694249
 21
19304.39275261078
 31
0.0
  0
LINE
  5
561
  8
FUTO
 10
21466.51358672326
 20
19311.715719981308
 30
0.0
 11
21541.51358672326
 21
19311.715719981308
 31
0.0
  0
LINE
  5
562
  8
FUTO
 10
21476.664963752271
 20
19174.39275261078
 30
0.0
 11
21537.862209694249
 21
19169.03868735184
 31
0.0
  0
LINE
  5
563
  8
FUTO
 10
21466.51358672326
 20
19161.715719981308
 30
0.0
 11
21541.51358672326
 21
19161.715719981308
 31
0.0
  0
LINE
  5
564
  8
FUTO
 10
21466.51358672326
 20
19311.715719981308
 30
0.0
 11
21466.51358672326
 21
19161.715719981308
 31
0.0
  0
LINE
  5
565
  8
KL
 10
21465.717586723262
 20
19183.0895365873
 30
0.0
 11
21465.717586723262
 21
19311.715719981308
 31
0.0
  0
LINE
  5
566
  8
KL
 10
21462.517586723268
 20
19183.0895365873
 30
0.0
 11
21462.517586723268
 21
19311.715719981308
 31
0.0
  0
LINE
  5
567
  8
FUTO
 10
21653.62175186881
 20
19194.261319913461
 30
0.0
 11
21653.62175186881
 21
19235.917753261128
 31
0.0
  0
LINE
  5
568
  8
FUTO
 10
21612.517586723261
 20
19194.261319913461
 30
0.0
 11
21612.517586723261
 21
19235.917753261128
 31
0.0
  0
LINE
  5
569
  8
FUTO
 10
21612.517586723261
 20
19194.261319913461
 30
0.0
 11
21653.62175186881
 21
19194.261319913461
 31
0.0
  0
LINE
  5
56A
  8
FUTO
 10
21612.517586723261
 20
19235.917753261128
 30
0.0
 11
21653.62175186881
 21
19235.917753261128
 31
0.0
  0
LINE
  5
56B
  8
KL
 10
21465.717586723262
 20
19844.0895365873
 30
0.0
 11
21555.717586723262
 21
19844.0895365873
 31
0.0
  0
LINE
  5
56C
  8
KL
 10
21465.717586723262
 20
19850.0895365873
 30
0.0
 11
21597.517586723261
 21
19850.0895365873
 31
0.0
  0
LINE
  5
56D
  8
HOSO
 10
21423.183577112341
 20
19810.0895365873
 30
0.0
 11
21497.291192260611
 21
19810.0895365873
 31
0.0
  0
LINE
  5
56E
  8
KL
 10
21465.717586723262
 20
19785.0895365873
 30
0.0
 11
21471.717586723262
 21
19785.0895365873
 31
0.0
  0
LINE
  5
56F
  8
FUTO
 10
21555.717586723262
 20
19844.0895365873
 30
0.0
 11
21597.517586723261
 21
19844.0895365873
 31
0.0
  0
LINE
  5
570
  8
FUTO
 10
21591.517586723261
 20
19785.0895365873
 30
0.0
 11
21597.517586723261
 21
19785.0895365873
 31
0.0
  0
LINE
  5
571
  8
HOSO
 10
21564.035040537241
 20
19810.0895365873
 30
0.0
 11
21638.1426556855
 21
19810.0895365873
 31
0.0
  0
LINE
  5
600
  8
FUTO
 10
20074.31758672326
 20
20741.0895365873
 30
0.0
 11
21530.717586723262
 21
20741.0895365873
 31
0.0
  0
LINE
  5
601
  8
FUTO
 10
20074.31758672326
 20
20759.0895365873
 30
0.0
 11
21530.717586723262
 21
20759.0895365873
 31
0.0
  0
LINE
  5
61E
  8
CT
 10
18300.59146503848
 20
20750.0895365873
 30
0.0
 11
21796.512889895479
 21
20750.0895365873
 31
0.0
  0
LINE
  5
623
  8
FUTO
 10
18908.017586723261
 20
20854.089536587289
 30
0.0
 11
18775.017586723261
 21
20854.089536587289
 31
0.0
  0
LINE
  5
624
  8
FUTO
 10
18775.017586723261
 20
20646.089536587289
 30
0.0
 11
18786.517586723261
 21
20646.089536587289
 31
0.0
  0
ARC
  5
625
  8
FUTO
 10
18792.517586723261
 20
20668.0895365873
 30
0.0
 40
6.0
 50
90.0
 51
180.0
  0
LINE
  5
626
  8
FUTO
 10
18751.517586723261
 20
20628.0895365873
 30
0.0
 11
18931.517586723261
 21
20628.0895365873
 31
0.0
  0
ARC
  5
628
  8
FUTO
 10
18775.017586723261
 20
20848.089536587289
 30
0.0
 40
6.0
 50
90.0
 51
180.0
  0
LINE
  5
629
  8
SL
 10
18502.517586723261
 20
20470.0895365873
 30
0.0
 11
18672.517586723261
 21
20470.0895365873
 31
0.0
  0
LINE
  5
62A
  8
FUTO
 10
18769.017586723261
 20
20840.0895365873
 30
0.0
 11
18764.017586723261
 21
20840.0895365873
 31
0.0
  0
ARC
  5
62B
  8
FUTO
 10
18775.017586723261
 20
20652.089536587289
 30
0.0
 40
6.0
 50
180.0
 51
270.0
  0
LINE
  5
62C
  8
FUTO
 10
18764.017586723261
 20
20660.0895365873
 30
0.0
 11
18769.017586723261
 21
20660.0895365873
 31
0.0
  0
LINE
  5
62D
  8
FUTO
 10
18769.017586723261
 20
20848.089536587289
 30
0.0
 11
18769.017586723261
 21
20652.089536587289
 31
0.0
  0
LINE
  5
62E
  8
FUTO
 10
18764.017586723261
 20
20840.0895365873
 30
0.0
 11
18764.017586723261
 21
20660.0895365873
 31
0.0
  0
LINE
  5
62F
  8
FUTO
 10
18672.517586723261
 20
20702.5895365873
 30
0.0
 11
18764.017586723261
 21
20702.5895365873
 31
0.0
  0
LINE
  5
630
  8
FUTO
 10
18672.517586723261
 20
20797.5895365873
 30
0.0
 11
18764.017586723261
 21
20797.5895365873
 31
0.0
  0
LINE
  5
631
  8
SL
 10
18502.517586723261
 20
21030.0895365873
 30
0.0
 11
18672.517586723261
 21
21030.0895365873
 31
0.0
  0
LINE
  5
632
  8
FUTO
 10
18352.517586723261
 20
21130.089536587289
 30
0.0
 11
18702.517586723261
 21
21130.089536587289
 31
0.0
  0
LINE
  5
636
  8
FUTO
 10
20139.31758672326
 20
20818.78953658729
 30
0.0
 11
20139.31758672326
 21
21915.089536587289
 31
0.0
  0
LINE
  5
637
  8
FUTO
 10
20142.517586723261
 20
20818.78953658729
 30
0.0
 11
20142.517586723261
 21
21915.089536587289
 31
0.0
  0
LINE
  5
638
  8
FUTO
 10
20074.31758672326
 20
21915.089536587289
 30
0.0
 11
20074.31758672326
 21
20741.089536587289
 31
0.0
  0
LINE
  5
63B
  8
SL
 10
19722.029208049338
 20
20966.164206397549
 30
0.0
 11
18956.651251251649
 21
20966.164206397549
 31
0.0
  0
LINE
  5
63D
  8
FUTO
 10
19752.517586723261
 20
20590.0895365873
 30
0.0
 11
18931.517586723261
 21
20590.0895365873
 31
0.0
  0
LINE
  5
63E
  8
FUTO
 10
18919.017586723261
 20
20697.589536587289
 30
0.0
 11
19749.017586723261
 21
20697.589536587289
 31
0.0
  0
LINE
  5
63F
  8
FUTO
 10
18919.017586723261
 20
20802.589536587289
 30
0.0
 11
19749.017586723261
 21
20802.589536587289
 31
0.0
  0
LINE
  5
640
  8
SL
 10
18956.651251251649
 20
20966.164206397549
 30
0.0
 11
18956.651251251649
 21
20590.0895365873
 31
0.0
  0
LINE
  5
641
  8
CT
 10
18841.517586723261
 20
20931.155451006922
 30
0.0
 11
18841.517586723261
 21
20541.155283061511
 31
0.0
  0
ARC
  5
642
  8
FUTO
 10
18908.017586723261
 20
20848.089536587289
 30
0.0
 40
6.0
 50
0.0
 51
90.0
  0
LINE
  5
643
  8
FUTO
 10
18896.517586723261
 20
20854.089536587289
 30
0.0
 11
18896.517586723261
 21
20628.0895365873
 31
0.0
  0
LINE
  5
644
  8
FUTO
 10
18786.517586723261
 20
20854.089536587289
 30
0.0
 11
18786.517586723261
 21
20628.0895365873
 31
0.0
  0
LINE
  5
645
  8
CT
 10
18841.517586723261
 20
20873.858295752001
 30
0.0
 11
18841.517586723261
 21
20620.265812685171
 31
0.0
  0
LINE
  5
646
  8
FUTO
 10
18914.017586723261
 20
20840.0895365873
 30
0.0
 11
18919.017586723261
 21
20840.0895365873
 31
0.0
  0
LINE
  5
647
  8
FUTO
 10
18919.017586723261
 20
20660.0895365873
 30
0.0
 11
18914.017586723261
 21
20660.0895365873
 31
0.0
  0
ARC
  5
648
  8
FUTO
 10
18908.017586723261
 20
20652.089536587289
 30
0.0
 40
6.0
 50
270.0
 51
0.0
  0
LINE
  5
649
  8
FUTO
 10
18908.017586723261
 20
20646.089536587289
 30
0.0
 11
18896.517586723261
 21
20646.089536587289
 31
0.0
  0
ARC
  5
64A
  8
FUTO
 10
18890.517586723261
 20
20668.0895365873
 30
0.0
 40
6.0
 50
0.0
 51
90.0
  0
LINE
  5
64B
  8
FUTO
 10
18919.017586723261
 20
20840.0895365873
 30
0.0
 11
18919.017586723261
 21
20660.0895365873
 31
0.0
  0
LINE
  5
64C
  8
FUTO
 10
18914.017586723261
 20
20848.089536587289
 30
0.0
 11
18914.017586723261
 21
20652.089536587289
 31
0.0
  0
LINE
  5
64D
  8
FUTO
 10
18786.517586723261
 20
20638.0895365873
 30
0.0
 11
18896.517586723261
 21
20638.0895365873
 31
0.0
  0
LINE
  5
64E
  8
FUTO
 10
18890.517586723261
 20
20674.0895365873
 30
0.0
 11
18792.517586723261
 21
20674.0895365873
 31
0.0
  0
LINE
  5
653
  8
SL
 10
19722.029208049338
 20
20966.164206397549
 30
0.0
 11
19722.029208049338
 21
20590.0895365873
 31
0.0
  0
LINE
  5
654
  8
CT
 10
19842.517586723261
 20
20958.86036466754
 30
0.0
 11
19842.517586723261
 21
20509.188060899942
 31
0.0
  0
LINE
  5
655
  8
FUTO
 10
19921.017586723261
 20
20857.589536587289
 30
0.0
 11
19936.017586723261
 21
20834.0895365873
 31
0.0
  0
LINE
  5
656
  8
FUTO
 10
19909.017586723261
 20
20880.0895365873
 30
0.0
 11
19909.017586723261
 21
20665.089536587289
 31
0.0
  0
LINE
  5
657
  8
FUTO
 10
19909.017586723261
 20
20655.0895365873
 30
0.0
 11
19909.017586723261
 21
20880.089473392909
 31
0.0
  0
LINE
  5
658
  8
FUTO
 10
19921.017586723261
 20
20620.0895365873
 30
0.0
 11
19921.017586723261
 21
20880.0895365873
 31
0.0
  0
LINE
  5
659
  8
FUTO
 10
19749.017586723261
 20
20834.0895365873
 30
0.0
 11
19764.017586723261
 21
20857.589536587289
 31
0.0
  0
LINE
  5
65A
  8
FUTO
 10
19776.017586723261
 20
20880.0895365873
 30
0.0
 11
19776.017586723261
 21
20665.089536587289
 31
0.0
  0
LINE
  5
65B
  8
CT
 10
19842.517586723261
 20
20914.251116253501
 30
0.0
 11
19842.517586723261
 21
20572.381493409412
 31
0.0
  0
LINE
  5
65C
  8
FUTO
 10
19764.017586723261
 20
20880.0895365873
 30
0.0
 11
19764.017586723261
 21
20620.0895365873
 31
0.0
  0
LINE
  5
662
  8
FUTO
 10
20074.31758672326
 20
20741.089536587289
 30
0.0
 11
20049.31758672326
 21
20725.070381281552
 31
0.0
  0
LINE
  5
664
  8
FUTO
 10
19932.517586723261
 20
20600.0895365873
 30
0.0
 11
19752.517586723261
 21
20600.0895365873
 31
0.0
  0
LINE
  5
665
  8
FUTO
 10
19917.517586723261
 20
20610.089536587289
 30
0.0
 11
19767.517586723261
 21
20610.089536587289
 31
0.0
  0
LINE
  5
666
  8
FUTO
 10
19767.517586723261
 20
20665.089536587289
 30
0.0
 11
19917.517586723261
 21
20665.089536587289
 31
0.0
  0
LINE
  5
667
  8
FUTO
 10
19749.017586723261
 20
20666.0895365873
 30
0.0
 11
19749.017586723261
 21
20834.0895365873
 31
0.0
  0
LINE
  5
668
  8
FUTO
 10
19764.017586723261
 20
20620.0895365873
 30
0.0
 11
19767.517586723261
 21
20620.0895365873
 31
0.0
  0
LINE
  5
669
  8
CT
 10
19792.517586723261
 20
20575.13444423605
 30
0.0
 11
19792.517586723261
 21
20695.906969357809
 31
0.0
  0
LINE
  5
66A
  8
FUTO
 10
19767.517586723261
 20
20600.0895365873
 30
0.0
 11
19767.517586723261
 21
20665.089536587289
 31
0.0
  0
LINE
  5
66B
  8
FUTO
 10
19764.017586723261
 20
20642.589536587289
 30
0.0
 11
19749.017586723261
 21
20666.0895365873
 31
0.0
  0
LINE
  5
66C
  8
FUTO
 10
19936.017586723261
 20
20802.589536587289
 30
0.0
 11
20074.31758672326
 21
20802.589536587289
 31
0.0
  0
LINE
  5
66E
  8
FUTO
 10
19936.017586723261
 20
20697.589536587289
 30
0.0
 11
20049.31758672326
 21
20697.589536587289
 31
0.0
  0
LINE
  5
67F
  8
CT
 10
19953.907924959589
 20
20750.0895365873
 30
0.0
 11
20063.250546835501
 21
20750.0895365873
 31
0.0
  0
LINE
  5
69D
  8
FUTO
 10
19936.017586723261
 20
20834.0895365873
 30
0.0
 11
19936.017586723261
 21
20666.0895365873
 31
0.0
  0
LINE
  5
69E
  8
FUTO
 10
19917.517586723261
 20
20620.0895365873
 30
0.0
 11
19921.017586723261
 21
20620.0895365873
 31
0.0
  0
LINE
  5
69F
  8
FUTO
 10
19917.517586723261
 20
20665.089536587289
 30
0.0
 11
19917.517586723261
 21
20600.0895365873
 31
0.0
  0
LINE
  5
6A0
  8
FUTO
 10
19936.017586723261
 20
20666.0895365873
 30
0.0
 11
19921.017586723261
 21
20642.589536587289
 31
0.0
  0
LINE
  5
6A1
  8
CT
 10
19892.517586723261
 20
20575.13444423605
 30
0.0
 11
19892.517586723261
 21
20695.906969357809
 31
0.0
  0
LINE
  5
6AC
  8
FUTO
 10
19904.017586723261
 20
20898.0895365873
 30
0.0
 11
19781.017586723261
 21
20898.0895365873
 31
0.0
  0
LINE
  5
6AD
  8
FUTO
 10
19781.017586723261
 20
20898.0895365873
 30
0.0
 11
19781.017586723261
 21
20880.0895365873
 31
0.0
  0
LINE
  5
6AE
  8
FUTO
 10
19781.017586723261
 20
20880.0895365873
 30
0.0
 11
19764.017586723261
 21
20880.0895365873
 31
0.0
  0
LINE
  5
6B7
  8
FUTO
 10
19921.017586723261
 20
20880.0895365873
 30
0.0
 11
19904.017586723261
 21
20880.0895365873
 31
0.0
  0
LINE
  5
6B8
  8
FUTO
 10
19904.017586723261
 20
20880.0895365873
 30
0.0
 11
19904.017586723261
 21
20898.0895365873
 31
0.0
  0
LINE
  5
6BC
  8
FUTO
 10
20139.31758672326
 20
21695.28953658729
 30
0.0
 11
20139.31758672326
 21
21915.089536587289
 31
0.0
  0
DIMENSION
  5
6CD
  8
SP
  2
*D13
 10
21597.517586723261
 20
22263.267589895899
 30
0.0
 11
21131.379961767369
 21
22263.267589895899
 31
0.0
 70
   128
 13
20802.517586723261
 23
22295.20992926028
 33
0.0
 14
21597.517586723261
 24
21715.089536587289
 34
0.0
1001
ACAD
1000
DSTYLE
1002
{
1070
    40
1040
40.0
1002
}
  0
LINE
  5
6E1
  8
FUTO
 10
21462.517586723261
 20
20818.78953658729
 30
0.0
 11
21462.517586723261
 21
21915.089536587289
 31
0.0
  0
LINE
  5
6E2
  8
FUTO
 10
21465.717586723262
 20
20818.78953658729
 30
0.0
 11
21465.717586723262
 21
21915.089536587289
 31
0.0
  0
LINE
  5
6E3
  8
FUTO
 10
21530.717586723651
 20
21915.089536587289
 30
0.0
 11
21530.717586723262
 21
20741.0895365873
 31
0.0
  0
LINE
  5
701
  8
FUTO
 10
21530.717586723291
 20
20741.089536587271
 30
0.0
 11
21555.717586723291
 21
20725.07038128153
 31
0.0
  0
INSERT
  5
702
  8
FUTO
  2
まっすぐの矢印
 10
21792.990739293771
 20
21235.6358394364
 30
0.0
 41
2.0
 42
2.0
 43
2.0
 50
90.0
  0
LINE
  5
704
  8
FUTO
 10
21530.717586723262
 20
21656.089536587289
 30
0.0
 11
21597.517586723261
 21
21656.089536587289
 31
0.0
  0
LINE
  5
705
  8
KL
 10
21465.717586723262
 20
21650.0895365873
 30
0.0
 11
21597.517586723261
 21
21650.0895365873
 31
0.0
  0
LINE
  5
706
  8
HOSO
 10
21436.779616915261
 20
21690.0895365873
 30
0.0
 11
21496.609965745341
 21
21690.0895365873
 31
0.0
  0
LINE
  5
707
  8
KL
 10
21471.717586723262
 20
21715.089536587289
 30
0.0
 11
21465.717586723262
 21
21715.089536587289
 31
0.0
  0
LINE
  5
708
  8
KL
 10
21465.717586723262
 20
21656.089536587289
 30
0.0
 11
21530.717586723262
 21
21656.089536587289
 31
0.0
  0
LINE
  5
709
  8
FUTO
 10
21591.517586723261
 20
21715.089536587289
 30
0.0
 11
21597.517586723261
 21
21715.089536587289
 31
0.0
  0
LINE
  5
70A
  8
HOSO
 10
21564.849810163581
 20
21690.0895365873
 30
0.0
 11
21624.680158993651
 21
21690.0895365873
 31
0.0
  0
LINE
  5
88D
  8
CT
 10
17752.879761263121
 20
25344.953251210169
 30
0.0
 11
13965.320226078549
 21
25344.953251210161
 31
0.0
  0
LINE
  5
88E
  8
FUTO
 10
17542.55466978746
 20
24680.953251210169
 30
0.0
 11
17542.55466978746
 21
26008.953251210161
 31
0.0
  0
LINE
  5
89C
  8
FUTO
 10
17607.554669787471
 20
24615.953251210161
 30
0.0
 11
15619.55466978746
 21
24615.953251210161
 31
0.0
  0
LINE
  5
89D
  8
FUTO
 10
17607.554669787471
 20
24615.953251210161
 30
0.0
 11
17607.55466978746
 21
26073.953251210161
 31
0.0
  0
LINE
  5
89E
  8
FUTO
 10
17607.55466978746
 20
26073.953251210161
 30
0.0
 11
15619.554669787471
 21
26073.953251210161
 31
0.0
  0
LINE
  5
89F
  8
FUTO
 10
14275.554669787471
 20
26058.95325121015
 30
0.0
 11
14275.554669787471
 21
24630.953251210161
 31
0.0
  0
LINE
  5
8A0
  8
FUTO
 10
15619.55466978746
 20
26058.95325121015
 30
0.0
 11
14275.554669787471
 21
26058.95325121015
 31
0.0
  0
LINE
  5
8A1
  8
FUTO
 10
14325.554669787471
 20
26008.953251210161
 30
0.0
 11
14325.554669787471
 21
24680.95325121015
 31
0.0
  0
LINE
  5
8A2
  8
FUTO
 10
15619.55466978746
 20
24630.953251210161
 30
0.0
 11
14275.554669787471
 21
24630.953251210161
 31
0.0
  0
LINE
  5
8A3
  8
FUTO
 10
17542.55466978746
 20
24680.953251210169
 30
0.0
 11
16317.554669787471
 21
24680.953251210161
 31
0.0
  0
LINE
  5
8A4
  8
FUTO
 10
16677.55466978746
 20
26058.953251210161
 30
0.0
 11
16677.554669787471
 21
26083.953251210169
 31
0.0
  0
LINE
  5
8A5
  8
FUTO
 10
14557.554669787471
 20
26058.953251210161
 30
0.0
 11
14557.554669787471
 21
26083.953251210161
 31
0.0
  0
LINE
  5
132F
  8
FUTO
 10
15237.554669787471
 20
22894.953251210161
 30
0.0
 11
17397.554669787471
 21
22894.953251210161
 31
0.0
  0
LINE
  5
1330
  8
FUTO
 10
15237.554669787471
 20
23244.953251210161
 30
0.0
 11
17397.554669787471
 21
23244.953251210161
 31
0.0
  0
LINE
  5
1336
  8
SL
 10
15337.554669787471
 20
23044.953251210161
 30
0.0
 11
17317.554669787471
 21
23044.953251210161
 31
0.0
  0
LINE
  5
1337
  8
SL
 10
15337.554669787471
 20
23214.953251210161
 30
0.0
 11
17317.554669787471
 21
23214.953251210161
 31
0.0
  0
LINE
  5
1338
  8
CT
 10
15617.554669787471
 20
22843.027129525381
 30
0.0
 11
15617.554669787471
 21
26338.94855438239
 31
0.0
  0
LINE
  5
1342
  8
FUTO
 10
15513.554669787471
 20
23317.453251210161
 30
0.0
 11
15513.554669787471
 21
23328.953251210161
 31
0.0
  0
LINE
  5
1343
  8
FUTO
 10
15721.554669787471
 20
23450.453251210161
 30
0.0
 11
15721.554669787471
 21
23317.453251210161
 31
0.0
  0
ARC
  5
1344
  8
FUTO
 10
15715.554669787471
 20
23317.453251210161
 30
0.0
 40
6.0
 50
270.0
 51
0.000000000000007
  0
LINE
  5
1345
  8
SL
 10
15897.554669787471
 20
23044.953251210161
 30
0.0
 11
15897.554669787471
 21
23214.953251210161
 31
0.0
  0
LINE
  5
1346
  8
FUTO
 10
15665.054669787471
 20
23214.953251210161
 30
0.0
 11
15665.054669787471
 21
23306.453251210161
 31
0.0
  0
LINE
  5
1347
  8
FUTO
 10
15570.054669787471
 20
23214.953251210161
 30
0.0
 11
15570.054669787471
 21
23306.453251210161
 31
0.0
  0
LINE
  5
1348
  8
FUTO
 10
15707.554669787471
 20
23306.453251210161
 30
0.0
 11
15527.554669787471
 21
23306.453251210161
 31
0.0
  0
LINE
  5
1349
  8
FUTO
 10
15715.554669787471
 20
23311.453251210161
 30
0.0
 11
15519.554669787471
 21
23311.453251210161
 31
0.0
  0
LINE
  5
134A
  8
FUTO
 10
15527.554669787471
 20
23306.453251210161
 30
0.0
 11
15527.554669787471
 21
23311.453251210161
 31
0.0
  0
ARC
  5
134B
  8
FUTO
 10
15519.554669787471
 20
23317.453251210161
 30
0.0
 40
6.0
 50
180.0
 51
270.0
  0
LINE
  5
134C
  8
FUTO
 10
15707.554669787471
 20
23311.453251210161
 30
0.0
 11
15707.554669787471
 21
23306.453251210161
 31
0.0
  0
LINE
  5
1353
  8
FUTO
 10
15670.054669787471
 20
23461.453251210161
 30
0.0
 11
15670.054669787471
 21
24291.453251210161
 31
0.0
  0
LINE
  5
1354
  8
FUTO
 10
15565.05466978746
 20
23461.453251210161
 30
0.0
 11
15565.05466978746
 21
24291.453251210161
 31
0.0
  0
LINE
  5
1357
  8
CT
 10
15741.32342895217
 20
23383.953251210161
 30
0.0
 11
15487.73094588534
 21
23383.953251210161
 31
0.0
  0
LINE
  5
1358
  8
FUTO
 10
15721.554669787471
 20
23328.953251210161
 30
0.0
 11
15513.554669787471
 21
23328.953251210161
 31
0.0
  0
LINE
  5
1359
  8
FUTO
 10
15721.554669787471
 20
23438.953251210161
 30
0.0
 11
15513.554669787471
 21
23438.953251210161
 31
0.0
  0
ARC
  5
135A
  8
FUTO
 10
15715.554669787471
 20
23450.453251210161
 30
0.0
 40
6.0
 50
0.000000000000007
 51
90.0
  0
LINE
  5
135B
  8
CT
 10
15798.62058420709
 20
23383.953251210161
 30
0.0
 11
15408.62041626168
 21
23383.953251210161
 31
0.0
  0
LINE
  5
135F
  8
FUTO
 10
15715.554669787471
 20
23456.453251210161
 30
0.0
 11
15519.554669787471
 21
23456.453251210161
 31
0.0
  0
LINE
  5
1360
  8
FUTO
 10
15707.554669787471
 20
23461.453251210161
 30
0.0
 11
15527.554669787471
 21
23461.453251210161
 31
0.0
  0
LINE
  5
1362
  8
FUTO
 10
15513.554669787471
 20
23450.453251210161
 30
0.0
 11
15513.554669787471
 21
23438.953251210161
 31
0.0
  0
ARC
  5
1363
  8
FUTO
 10
15519.554669787471
 20
23450.453251210161
 30
0.0
 40
6.0
 50
90.0
 51
180.0
  0
LINE
  5
1364
  8
FUTO
 10
15527.554669787471
 20
23461.453251210161
 30
0.0
 11
15527.554669787471
 21
23456.453251210161
 31
0.0
  0
LINE
  5
1365
  8
FUTO
 10
15707.554669787471
 20
23456.453251210161
 30
0.0
 11
15707.554669787471
 21
23461.453251210161
 31
0.0
  0
LINE
  5
136A
  8
FUTO
 10
15747.554669787471
 20
24306.453251210161
 30
0.0
 11
15487.554669787471
 21
24306.453251210161
 31
0.0
  0
LINE
  5
136B
  8
CT
 10
15781.71624945367
 20
24384.953251210161
 30
0.0
 11
15439.84662660958
 21
24384.953251210161
 31
0.0
  0
LINE
  5
136C
  8
FUTO
 10
15747.554669787471
 20
24318.453251210161
 30
0.0
 11
15487.554669787471
 21
24318.453251210161
 31
0.0
  0
LINE
  5
136D
  8
FUTO
 10
15701.554669787471
 20
24291.453251210161
 30
0.0
 11
15725.054669787471
 21
24306.453251210161
 31
0.0
  0
LINE
  5
136E
  8
FUTO
 10
15487.554669787471
 20
24463.453251210161
 30
0.0
 11
15747.554669787471
 21
24463.453251210161
 31
0.0
  0
LINE
  5
136F
  8
FUTO
 10
15487.55466978746
 20
24451.453251210161
 30
0.0
 11
15747.554606593079
 21
24451.453251210161
 31
0.0
  0
LINE
  5
1370
  8
FUTO
 10
15747.554669787471
 20
24451.453251210161
 30
0.0
 11
15532.554669787471
 21
24451.453251210161
 31
0.0
  0
LINE
  5
1371
  8
FUTO
 10
15725.054669787471
 20
24463.453251210161
 30
0.0
 11
15701.554669787471
 21
24478.453251210161
 31
0.0
  0
LINE
  5
1372
  8
CT
 10
15826.325497867711
 20
24384.953251210161
 30
0.0
 11
15376.653194100119
 21
24384.953251210161
 31
0.0
  0
LINE
  5
137E
  8
FUTO
 10
15510.054669787471
 20
24306.453251210161
 30
0.0
 11
15533.554669787471
 21
24291.453251210161
 31
0.0
  0
LINE
  5
1381
  8
FUTO
 10
15487.554669787471
 20
24306.453251210161
 30
0.0
 11
15487.554669787471
 21
24309.953251210161
 31
0.0
  0
LINE
  5
1382
  8
FUTO
 10
15533.554669787471
 20
24291.453251210161
 30
0.0
 11
15701.554669787471
 21
24291.453251210161
 31
0.0
  0
LINE
  5
1384
  8
FUTO
 10
15533.554669787471
 20
24478.453251210161
 30
0.0
 11
15510.054669787471
 21
24463.453251210161
 31
0.0
  0
LINE
  5
1386
  8
FUTO
 10
15487.554669787471
 20
24459.953251210161
 30
0.0
 11
15487.554669787471
 21
24463.453251210161
 31
0.0
  0
LINE
  5
1387
  8
FUTO
 10
15701.554669787471
 20
24478.453251210161
 30
0.0
 11
15533.554669787471
 21
24478.453251210161
 31
0.0
  0
LINE
  5
13A3
  8
CT
 10
15617.554669787471
 20
24496.343589446489
 30
0.0
 11
15617.554669787471
 21
24605.686211322402
 31
0.0
  0
LINE
  5
13B2
  8
FUTO
 10
15565.05466978746
 20
24478.453251210161
 30
0.0
 11
15565.05466978746
 21
24630.953251210161
 31
0.0
  0
LINE
  5
13B4
  8
FUTO
 10
15670.054669787471
 20
24478.453251210161
 30
0.0
 11
15670.054669787471
 21
24630.953251210161
 31
0.0
  0
LINE
  5
13BE
  8
FUTO
 10
15765.554669787471
 20
24446.453251210161
 30
0.0
 11
15765.554669787471
 21
24323.453251210161
 31
0.0
  0
LINE
  5
13BF
  8
FUTO
 10
15747.554669787471
 20
24323.453251210161
 30
0.0
 11
15747.554669787471
 21
24306.453251210161
 31
0.0
  0
LINE
  5
13C0
  8
FUTO
 10
15765.554669787471
 20
24323.453251210161
 30
0.0
 11
15747.554669787471
 21
24323.453251210161
 31
0.0
  0
LINE
  5
13C1
  8
FUTO
 10
15747.554669787471
 20
24446.453251210161
 30
0.0
 11
15765.554669787471
 21
24446.453251210161
 31
0.0
  0
LINE
  5
13C2
  8
FUTO
 10
15747.554669787471
 20
24463.453251210161
 30
0.0
 11
15747.554669787471
 21
24446.453251210161
 31
0.0
  0
LINE
  5
13E1
  8
FUTO
 10
15237.554669787471
 20
22894.953251210161
 30
0.0
 11
15237.554669787471
 21
23244.953251210161
 31
0.0
  0
LINE
  5
13E2
  8
SL
 10
15337.554669787471
 20
23044.953251210161
 30
0.0
 11
15337.554669787471
 21
23214.953251210161
 31
0.0
  0
DIMENSION
  5
1417
  8
SP
  2
*D3
 10
20802.517586723261
 20
22263.267589895899
 30
0.0
 11
19577.517586723261
 21
22374.696161324478
 31
0.0
 70
     0
  1
(<>)
 13
18352.517586723261
 23
21130.089536587289
 33
0.0
 14
20802.517586723261
 24
21983.311411073279
 34
0.0
1001
ACAD
1000
DSTYLE
1002
{
1070
    40
1040
40.0
1002
}
  0
LINE
  5
1453
  8
FUTO
 10
15513.554669787471
 20
23450.453251210161
 30
0.0
 11
15513.554669787471
 21
23317.453251210161
 31
0.0
  0
LINE
  5
1454
  8
FUTO
 10
15469.554669787471
 20
24446.453251210161
 30
0.0
 11
15469.554669787471
 21
24323.453251210161
 31
0.0
  0
LINE
  5
1455
  8
FUTO
 10
15469.554669787471
 20
24323.453251210161
 30
0.0
 11
15487.554669787471
 21
24323.453251210161
 31
0.0
  0
LINE
  5
1456
  8
FUTO
 10
15487.554669787471
 20
24323.453251210161
 30
0.0
 11
15487.554669787471
 21
24306.453251210161
 31
0.0
  0
LINE
  5
1457
  8
FUTO
 10
15487.554669787471
 20
24463.453251210161
 30
0.0
 11
15487.554669787471
 21
24446.453251210161
 31
0.0
  0
LINE
  5
1458
  8
FUTO
 10
15487.554669787471
 20
24446.453251210161
 30
0.0
 11
15469.554669787471
 21
24446.453251210161
 31
0.0
  0
LINE
  5
1698
  8
FUTO
 10
18741.017586723268
 20
19380.0895365873
 30
0.0
 11
18741.017586723261
 21
19310.089536589159
 31
0.0
  0
LINE
  5
1699
  8
FUTO
 10
19441.017586723268
 20
19380.0895365873
 30
0.0
 11
19441.017586723261
 21
19310.089536589188
 31
0.0
  0
LINE
  5
169A
  8
FUTO
 10
19236.017586723261
 20
19380.0895365873
 30
0.0
 11
18741.017586723268
 21
19380.0895365873
 31
0.0
  0
LINE
  5
169B
  8
FUTO
 10
18741.017586723261
 20
19380.0895365873
 30
0.0
 11
19441.017586723268
 21
19380.0895365873
 31
0.0
  0
LINE
  5
16AB
  8
FUTO
 10
18677.517586723261
 20
19760.0895365873
 30
0.0
 11
18677.517586723261
 21
19560.0895365873
 31
0.0
  0
LINE
  5
16AC
  8
FUTO
 10
19911.517586723261
 20
19920.0895365873
 30
0.0
 11
19911.517586723261
 21
19441.940598505211
 31
0.0
  0
LINE
  5
16AD
  8
FUTO
 10
18697.517586723261
 20
19970.0895365873
 30
0.0
 11
18697.517586723261
 21
19393.86281311512
 31
0.0
  0
LINE
  5
16AE
  8
FUTO
 10
18776.517586723261
 20
19970.0895365873
 30
0.0
 11
18776.517586723261
 21
19393.86281311512
 31
0.0
  0
LINE
  5
16AF
  8
FUTO
 10
19661.517586723261
 20
19970.0895365873
 30
0.0
 11
19661.517586723261
 21
19391.940598505211
 31
0.0
  0
LINE
  5
16B0
  8
CT
 10
19091.017586723261
 20
20006.728904573931
 30
0.0
 11
19091.017586723261
 21
19288.141009570209
 31
0.0
  0
LINE
  5
16B1
  8
FUTO
 10
19236.017586723261
 20
19380.0895365873
 30
0.0
 11
19356.017586723261
 21
19380.0895365873
 31
0.0
  0
LINE
  5
16B2
  8
FUTO
 10
18826.017586723261
 20
19410.0895365873
 30
0.0
 11
19356.017586723261
 21
19410.0895365873
 31
0.0
  0
LINE
  5
16B3
  8
FUTO
 10
19661.517586723261
 20
19391.940598505211
 30
0.0
 11
19861.517586723261
 21
19391.940598505211
 31
0.0
  0
ARC
  5
16B4
  8
FUTO
 10
19861.517586723261
 20
19441.940598505211
 30
0.0
 40
50.0
 50
270.0
 51
0.0
  0
LINE
  5
16B5
  8
FUTO
 10
19356.017586723261
 20
19391.940598505211
 30
0.0
 11
19641.1923687251
 21
19391.940598505211
 31
0.0
  0
LINE
  5
16B6
  8
FUTO
 10
19661.517586723261
 20
19403.473886164658
 30
0.0
 11
19641.1923687251
 21
19391.940598505211
 31
0.0
  0
LINE
  5
16B7
  8
CT
 10
19319.517586723261
 20
19434.080288346231
 30
0.0
 11
19319.517586723261
 21
19363.60724626376
 31
0.0
  0
LINE
  5
16B8
  8
FUTO
 10
19356.017586723261
 20
19410.0895365873
 30
0.0
 11
19356.017586723261
 21
19380.0895365873
 31
0.0
  0
LINE
  5
16B9
  8
FUTO
 10
19236.017586723261
 20
19391.940598505211
 30
0.0
 11
18946.017586723261
 21
19391.940598505211
 31
0.0
  0
LINE
  5
16BA
  8
FUTO
 10
19236.017586723261
 20
19391.940598505211
 30
0.0
 11
19236.017586723261
 21
19380.089536587289
 31
0.0
  0
LINE
  5
16BB
  8
FUTO
 10
18826.017586723261
 20
19410.0895365873
 30
0.0
 11
18826.017586723261
 21
19380.0895365873
 31
0.0
  0
LINE
  5
16BC
  8
CT
 10
18862.517586723261
 20
19434.080288346231
 30
0.0
 11
18862.517586723261
 21
19363.60724626376
 31
0.0
  0
LINE
  5
16BD
  8
FUTO
 10
18826.017586723261
 20
19393.86281311512
 30
0.0
 11
18697.517586723261
 21
19393.86281311512
 31
0.0
  0
LINE
  5
16BE
  8
FUTO
 10
18946.017586723261
 20
19391.940598505211
 30
0.0
 11
18946.017586723261
 21
19380.0895365873
 31
0.0
  0
LINE
  5
16BF
  8
FUTO
 10
18826.017586723261
 20
19380.0895365873
 30
0.0
 11
18946.017586723261
 21
19380.0895365873
 31
0.0
  0
LINE
  5
16C0
  8
FUTO
 10
18697.517586723261
 20
19560.0895365873
 30
0.0
 11
18677.517586723261
 21
19560.0895365873
 31
0.0
  0
LINE
  5
16C1
  8
FUTO
 10
19640.12276055769
 20
19970.0895365873
 30
0.0
 11
18697.517586723261
 21
19970.0895365873
 31
0.0
  0
LINE
  5
16C2
  8
CT
 10
19948.1603521877
 20
19660.0895365873
 30
0.0
 11
18476.368755883868
 21
19660.0895365873
 31
0.0
  0
LINE
  5
16C3
  8
FUTO
 10
19861.517586723261
 20
19970.0895365873
 30
0.0
 11
19661.517586723261
 21
19970.0895365873
 31
0.0
  0
ARC
  5
16C4
  8
FUTO
 10
19861.517586723261
 20
19920.0895365873
 30
0.0
 40
50.0
 50
0.0
 51
90.0
  0
LINE
  5
16C5
  8
FUTO
 10
19661.517586723261
 20
19945.53840615855
 30
0.0
 11
19640.12276055769
 21
19970.0895365873
 31
0.0
  0
LINE
  5
16C6
  8
FUTO
 10
18677.517586723261
 20
19702.5895365873
 30
0.0
 11
18502.517586723261
 21
19702.5895365873
 31
0.0
  0
LINE
  5
16C7
  8
FUTO
 10
18677.517586723261
 20
19617.5895365873
 30
0.0
 11
18502.517586723261
 21
19617.5895365873
 31
0.0
  0
LINE
  5
16C8
  8
CT
 10
18886.517586723261
 20
20293.45925055179
 30
0.0
 11
18886.517586723261
 21
19894.599718996
 31
0.0
  0
LINE
  5
16C9
  8
FUTO
 10
18697.517586723261
 20
19760.0895365873
 30
0.0
 11
18677.517586723261
 21
19760.0895365873
 31
0.0
  0
LINE
  5
16CA
  8
FUTO
 10
18986.517586723261
 20
20250.089536587289
 30
0.0
 11
18786.517586723261
 21
20250.089536587289
 31
0.0
  0
LINE
  5
16CB
  8
FUTO
 10
18986.517586723261
 20
19985.0895365873
 30
0.0
 11
18786.517586723261
 21
19985.0895365873
 31
0.0
  0
LINE
  5
16CC
  8
CT
 10
19050.383513909641
 20
20110.0895365873
 30
0.0
 11
18748.24732452512
 21
20110.0895365873
 31
0.0
  0
LINE
  5
16CD
  8
FUTO
 10
19006.517586723261
 20
20230.0895365873
 30
0.0
 11
19006.517586723261
 21
20005.0895365873
 31
0.0
  0
ARC
  5
16CE
  8
FUTO
 10
18986.517586723261
 20
20005.0895365873
 30
0.0
 40
20.0
 50
270.0
 51
0.0
  0
ARC
  5
16CF
  8
FUTO
 10
18986.517586723261
 20
20230.0895365873
 30
0.0
 40
20.0
 50
0.0
 51
90.0
  0
LINE
  5
16D0
  8
FUTO
 10
18766.517586723261
 20
20230.0895365873
 30
0.0
 11
18766.517586723261
 21
20005.0895365873
 31
0.0
  0
ARC
  5
16D1
  8
FUTO
 10
18786.517586723261
 20
20005.0895365873
 30
0.0
 40
20.0
 50
180.0
 51
270.0
  0
ARC
  5
16D2
  8
FUTO
 10
18786.517586723261
 20
20230.0895365873
 30
0.0
 40
20.0
 50
90.0
 51
180.0
  0
LINE
  5
16D3
  8
FUTO
 10
18672.517586723261
 20
19702.5895365873
 30
0.0
 11
18672.517586723261
 21
19617.5895365873
 31
0.0
  0
LINE
  5
16D4
  8
FUTO
 10
18502.517586723261
 20
19702.5895365873
 30
0.0
 11
18502.517586723261
 21
19617.5895365873
 31
0.0
  0
LINE
  5
17EE
  8
FUTO
 10
16807.554669787511
 20
24182.558425044612
 30
0.0
 11
16807.554669787471
 21
23239.95325121018
 31
0.0
  0
LINE
  5
17EF
  8
CT
 10
17117.554669787522
 20
24490.596016674601
 30
0.0
 11
17117.554669787471
 21
23018.80442037078
 31
0.0
  0
LINE
  5
17F0
  8
FUTO
 10
17427.554669787511
 20
24182.558425044579
 30
0.0
 11
17427.554669787471
 21
23239.953251210161
 31
0.0
  0
LINE
  5
17F1
  8
FUTO
 10
16907.554669787482
 20
23308.95325121018
 30
0.0
 11
17297.554669787482
 21
23308.953251210161
 31
0.0
  0
LINE
  5
17F2
  8
CT
 10
17325.867529164789
 20
23428.953251210161
 30
0.0
 11
16862.884890150279
 21
23428.95325121018
 31
0.0
  0
LINE
  5
17F3
  8
CT
 10
17464.194037774119
 20
23633.45325121015
 30
0.0
 11
16745.606142770401
 21
23633.45325121018
 31
0.0
  0
LINE
  5
17F4
  8
FUTO
 10
17427.554669787471
 20
23239.953251210161
 30
0.0
 11
16807.554669787471
 21
23239.95325121018
 31
0.0
  0
LINE
  5
17F5
  8
FUTO
 10
17217.554669787471
 20
23219.953251210169
 30
0.0
 11
17017.554669787471
 21
23219.953251210169
 31
0.0
  0
LINE
  5
17F6
  8
FUTO
 10
16907.554669787489
 20
23548.95325121018
 30
0.0
 11
17297.554669787489
 21
23548.953251210161
 31
0.0
  0
LINE
  5
17F7
  8
FUTO
 10
17486.899058630392
 20
23283.45325121015
 30
0.0
 11
17486.89905863041
 21
23983.45325121015
 31
0.0
  0
LINE
  5
17F8
  8
FUTO
 10
17317.554669787489
 20
23528.953251210161
 30
0.0
 11
17317.554669787482
 21
23428.953251210161
 31
0.0
  0
LINE
  5
17F9
  8
CT
 10
17117.554669787391
 20
22873.502295040082
 30
0.0
 11
17117.554669787969
 21
24131.908691156252
 31
0.0
  0
LINE
  5
17FA
  8
FUTO
 10
17427.554669787482
 20
23283.45325121015
 30
0.0
 11
17486.899058630392
 21
23283.45325121015
 31
0.0
  0
LINE
  5
17FE
  8
FUTO
 10
17075.054669787471
 20
23219.953251210169
 30
0.0
 11
17075.054669787471
 21
23044.953251210169
 31
0.0
  0
LINE
  5
17FF
  8
FUTO
 10
17160.054669787471
 20
23219.953251210169
 30
0.0
 11
17160.054669787471
 21
23044.953251210161
 31
0.0
  0
LINE
  5
1802
  8
FUTO
 10
17160.054669787471
 20
23044.953251210161
 30
0.0
 11
17075.054669787471
 21
23044.953251210169
 31
0.0
  0
ARC
  5
1804
  8
FUTO
 10
17297.554669787482
 20
23328.953251210161
 30
0.0
 40
20.0
 50
270.0
 51
0.000000000000007
  0
LINE
  5
1805
  8
FUTO
 10
17317.554669787482
 20
23328.953251210161
 30
0.0
 11
17317.554669787482
 21
23428.953251210161
 31
0.0
  0
LINE
  5
1806
  8
FUTO
 10
17427.554669787482
 20
23318.95325121015
 30
0.0
 11
17314.87517786317
 21
23318.953251210161
 31
0.0
  0
LINE
  5
1807
  8
FUTO
 10
17160.054669787471
 20
23214.953251210161
 30
0.0
 11
17075.054669787471
 21
23214.953251210169
 31
0.0
  0
LINE
  5
1808
  8
FUTO
 10
17217.554669787471
 20
23239.953251210169
 30
0.0
 11
17217.554669787471
 21
23219.953251210161
 31
0.0
  0
LINE
  5
1809
  8
FUTO
 10
17427.5546697875
 20
23983.45325121015
 30
0.0
 11
17486.89905863041
 21
23983.45325121015
 31
0.0
  0
ARC
  5
180A
  8
FUTO
 10
17297.554669787489
 20
23528.953251210161
 30
0.0
 40
20.0
 50
0.000000000000007
 51
90.0
  0
LINE
  5
180B
  8
FUTO
 10
16748.210280944571
 20
23283.45325121018
 30
0.0
 11
16748.21028094459
 21
23983.45325121018
 31
0.0
  0
LINE
  5
180C
  8
FUTO
 10
16887.554669787489
 20
23528.95325121018
 30
0.0
 11
16887.554669787471
 21
23428.95325121018
 31
0.0
  0
LINE
  5
180F
  8
FUTO
 10
16890.234161711789
 20
23318.953251210169
 30
0.0
 11
16807.554669787482
 21
23318.953251210169
 31
0.0
  0
LINE
  5
1810
  8
CT
 10
16842.983114833271
 20
23404.953251210169
 30
0.0
 11
16772.5100727508
 21
23404.95325121018
 31
0.0
  0
ARC
  5
1811
  8
FUTO
 10
16907.554669787482
 20
23328.95325121018
 30
0.0
 40
20.0
 50
180.0
 51
270.0
  0
LINE
  5
1812
  8
FUTO
 10
16887.554669787482
 20
23328.95325121018
 30
0.0
 11
16887.554669787471
 21
23428.95325121018
 31
0.0
  0
LINE
  5
1813
  8
FUTO
 10
17017.554669787471
 20
23239.953251210169
 30
0.0
 11
17017.554669787471
 21
23219.953251210169
 31
0.0
  0
LINE
  5
1814
  8
FUTO
 10
16807.554669787482
 20
23283.45325121018
 30
0.0
 11
16748.210280944571
 21
23283.45325121018
 31
0.0
  0
ARC
  5
1815
  8
FUTO
 10
16907.554669787489
 20
23528.95325121018
 30
0.0
 40
20.0
 50
90.0
 51
180.0
  0
LINE
  5
1816
  8
CT
 10
16842.9831148333
 20
23861.953251210169
 30
0.0
 11
16772.510072750822
 21
23861.95325121018
 31
0.0
  0
LINE
  5
1817
  8
FUTO
 10
16807.5546697875
 20
23983.45325121018
 30
0.0
 11
16748.21028094459
 21
23983.45325121018
 31
0.0
  0
LINE
  5
181A
  8
FUTO
 10
17427.554669787511
 20
24203.95325121015
 30
0.0
 11
16807.554669787511
 21
24203.95325121018
 31
0.0
  0
LINE
  5
181B
  8
FUTO
 10
17377.554669787522
 20
24453.953251210161
 30
0.0
 11
16857.554669787522
 21
24453.95325121018
 31
0.0
  0
LINE
  5
181F
  8
FUTO
 10
17403.00353935876
 20
24203.95325121015
 30
0.0
 11
17427.554669787511
 21
24182.558425044579
 31
0.0
  0
ARC
  5
1820
  8
FUTO
 10
17377.554669787522
 20
24403.953251210161
 30
0.0
 40
50.0
 50
0.000000000000007
 51
90.0
  0
LINE
  5
1821
  8
FUTO
 10
17427.554669787522
 20
24403.95325121015
 30
0.0
 11
17427.554669787511
 21
24203.95325121015
 31
0.0
  0
ARC
  5
1824
  8
FUTO
 10
16857.554669787522
 20
24403.95325121018
 30
0.0
 40
50.0
 50
90.0
 51
180.0
  0
LINE
  5
1825
  8
FUTO
 10
16832.105800216261
 20
24203.95325121018
 30
0.0
 11
16807.554669787511
 21
24182.558425044612
 31
0.0
  0
LINE
  5
1826
  8
FUTO
 10
16807.554669787522
 20
24403.95325121018
 30
0.0
 11
16807.554669787511
 21
24203.95325121018
 31
0.0
  0
LINE
  5
1827
  8
FUTO
 10
17557.554669787471
 20
23308.953251210161
 30
0.0
 11
17557.554669787471
 21
23233.953251210161
 31
0.0
  0
LINE
  5
1828
  8
FUTO
 10
17381.434584232309
 20
24605.953251210161
 30
0.0
 11
17381.434584232309
 21
24453.802486549339
 31
0.0
  0
LINE
  5
1829
  8
FUTO
 10
16853.67475534281
 20
24605.953251210281
 30
0.0
 11
16853.674755342741
 21
24453.802486549459
 31
0.0
  0
LINE
  5
182A
  8
FUTO
 10
16928.67475534281
 20
24605.953251210249
 30
0.0
 11
16928.674755342741
 21
24453.953251210249
 31
0.0
  0
LINE
  5
182B
  8
SL
 10
17317.554669787471
 20
23044.953251210161
 30
0.0
 11
17317.554669787471
 21
23214.953251210161
 31
0.0
  0
LINE
  5
182D
  8
FUTO
 10
17397.554669787471
 20
22894.953251210161
 30
0.0
 11
17397.554669787471
 21
23244.953251210161
 31
0.0
  0
LINE
  5
182F
  8
FUTO
 10
15275.50624396342
 20
23308.953251210161
 30
0.0
 11
15275.50624396342
 21
24630.953251210161
 31
0.0
  0
LINE
  5
1830
  8
FUTO
 10
15959.60309561151
 20
23308.953251210161
 30
0.0
 11
15959.60309561151
 21
24630.953251210161
 31
0.0
  0
LINE
  5
1832
  8
FUTO
 10
16582.55466978746
 20
26139.953251210161
 30
0.0
 11
14652.554669787471
 21
26139.953251210161
 31
0.0
  0
LINE
  5
1833
  8
FUTO
 10
16582.55466978746
 20
26133.953251210161
 30
0.0
 11
14652.554669787471
 21
26133.953251210161
 31
0.0
  0
LINE
  5
1834
  8
KL
 10
16582.55466978746
 20
26014.153251210158
 30
0.0
 11
14652.554669787471
 21
26014.153251210169
 31
0.0
  0
LINE
  5
1839
  8
KL
 10
14717.554669787471
 20
26008.153251210169
 30
0.0
 11
14717.554669787471
 21
26139.953251210161
 31
0.0
  0
LINE
  5
183A
  8
KL
 10
14711.554669787471
 20
26008.153251210169
 30
0.0
 11
14711.554669787471
 21
26098.153251210158
 31
0.0
  0
LINE
  5
183B
  8
KL
 10
14652.554669787471
 20
26008.153251210169
 30
0.0
 11
14652.554669787471
 21
26014.153251210169
 31
0.0
  0
LINE
  5
183C
  8
HOSO
 10
14677.554669787471
 20
25965.619241599241
 30
0.0
 11
14677.554669787471
 21
26039.726856747511
 31
0.0
  0
LINE
  5
183D
  8
HOSO
 10
14677.554669787471
 20
26106.470705024141
 30
0.0
 11
14677.554669787471
 21
26180.578320172401
 31
0.0
  0
LINE
  5
183E
  8
FUTO
 10
14652.554669787471
 20
26133.953251210161
 30
0.0
 11
14652.554669787471
 21
26139.953251210161
 31
0.0
  0
LINE
  5
183F
  8
FUTO
 10
14711.554669787471
 20
26098.153251210158
 30
0.0
 11
14711.554669787471
 21
26139.953251210161
 31
0.0
  0
INSERT
  5
185B
  8
FUTO
  2
まっすぐの矢印
 10
16103.100972636579
 20
26335.426403780672
 30
0.0
 41
-2.0
 42
2.0
 43
2.0
 50
180.0
  0
LINE
  5
185D
  8
KL
 10
16517.554669787471
 20
26008.153251210169
 30
0.0
 11
16517.554669787471
 21
26139.953251210161
 31
0.0
  0
LINE
  5
185E
  8
FUTO
 10
16523.554669787471
 20
26073.153251210169
 30
0.0
 11
16523.554669787471
 21
26139.953251210161
 31
0.0
  0
LINE
  5
185F
  8
KL
 10
16523.554669787471
 20
26008.153251210169
 30
0.0
 11
16523.554669787471
 21
26073.153251210169
 31
0.0
  0
LINE
  5
1860
  8
KL
 10
16582.55466978746
 20
26014.153251210158
 30
0.0
 11
16582.55466978746
 21
26008.153251210169
 31
0.0
  0
LINE
  5
1861
  8
HOSO
 10
16557.554669787471
 20
25979.215281402161
 30
0.0
 11
16557.554669787471
 21
26039.045630232238
 31
0.0
  0
LINE
  5
1862
  8
HOSO
 10
16557.554669787471
 20
26107.285474650482
 30
0.0
 11
16557.554669787471
 21
26167.115823480552
 31
0.0
  0
LINE
  5
1863
  8
FUTO
 10
16582.55466978746
 20
26133.953251210161
 30
0.0
 11
16582.55466978746
 21
26139.953251210161
 31
0.0
  0
LINE
  5
1891
  8
KL
 10
16428.437359050491
 20
20760.715736587299
 30
0.0
 11
15817.554669787471
 21
20760.715736587299
 31
0.0
  0
LINE
  5
1892
  8
KL
 10
16453.526870091609
 20
20742.715736587292
 30
0.0
 11
15817.554669787471
 21
20742.715736587292
 31
0.0
  0
LINE
  5
1893
  8
FUTO
 10
16667.554669787471
 20
19803.34289777818
 30
0.0
 11
16667.55466978746
 21
19311.715736587299
 31
0.0
  0
LINE
  5
1894
  8
FUTO
 10
16658.554669787471
 20
19807.02628775885
 30
0.0
 11
16658.554669787471
 21
19311.715736587299
 31
0.0
  0
LINE
  5
1895
  8
KL
 10
16676.554669787471
 20
20439.49294582284
 30
0.0
 11
16676.554669787471
 21
19591.69870834722
 31
0.0
  0
LINE
  5
1896
  8
KL
 10
16667.554669787471
 20
20447.652723423442
 30
0.0
 11
16667.554669787471
 21
19803.34289777818
 31
0.0
  0
LINE
  5
1897
  8
KL
 10
16658.554669787471
 20
20455.812501024029
 30
0.0
 11
16658.554669787471
 21
19807.02628775885
 31
0.0
  0
DIMENSION
  5
18AD
  8
SP
  2
*D4
 10
17607.55466978746
 20
22262.154078738469
 30
0.0
 11
16612.55466978746
 21
22342.154078738469
 31
0.0
 70
     0
 13
15617.554669787471
 23
22098.098988576981
 33
0.0
 14
17607.55466978746
 24
21916.715736587299
 34
0.0
1001
ACAD
1000
DSTYLE
1002
{
1070
    40
1040
40.0
1002
}
  0
DIMENSION
  5
1923
  8
SP
  2
*D5
 10
13910.241912831671
 20
25344.953251210161
 30
0.0
 11
13910.241912831671
 21
25732.403139963979
 31
0.0
 70
   128
 13
14652.554669787471
 23
26139.953251210161
 33
0.0
 14
13965.320226078549
 24
25344.953251210161
 34
0.0
 50
90.0
1001
ACAD
1000
DSTYLE
1002
{
1070
    40
1040
40.0
1002
}
  0
DIMENSION
  5
1930
  8
SP
  2
*D6
 10
13910.24191283168
 20
22894.953251210161
 30
0.0
 11
13910.241912831671
 21
24042.536445182519
 31
0.0
 70
   128
 13
14032.56840429735
 23
25344.953251210161
 33
0.0
 14
15237.554669787471
 24
22894.953251210161
 34
0.0
 50
90.0
1001
ACAD
1000
DSTYLE
1002
{
1070
    40
1040
40.0
1002
}
  0
LINE
  5
19B8
  8
KL
 10
18751.517586723261
 20
19970.0895365873
 30
0.0
 11
18751.517586723261
 21
19311.715719981308
 31
0.0
  0
LINE
  5
1AEA
  8
FUTO
 10
14279.92256165346
 20
20760.715736587299
 30
0.0
 11
15137.63905220454
 21
20760.715736587299
 31
0.0
  0
LINE
  5
1AEB
  8
FUTO
 10
14279.92256165346
 20
20742.715736587292
 30
0.0
 11
15137.63905220454
 21
20742.715736587292
 31
0.0
  0
LINE
  5
1AEC
  8
KL
 10
15137.63905220454
 20
20760.715736587299
 30
0.0
 11
15417.554669787471
 21
20760.715736587299
 31
0.0
  0
LINE
  5
1AED
  8
KL
 10
15137.63905220454
 20
20742.715736587292
 30
0.0
 11
15417.554669787471
 21
20742.715736587292
 31
0.0
  0
LINE
  5
1AEE
  8
KL
 10
15417.554669787471
 20
20760.715736587299
 30
0.0
 11
15417.554669787471
 21
20742.715736587292
 31
0.0
  0
LINE
  5
1AF1
  8
FUTO
 10
14279.92256165346
 20
20742.715736587292
 30
0.0
 11
14279.92256165346
 21
20760.715736587299
 31
0.0
  0
LINE
  5
1AF2
  8
KL
 10
15275.50624396342
 20
20629.715736587292
 30
0.0
 11
15231.26052678073
 21
20466.800248979671
 31
0.0
  0
LINE
  5
1AF3
  8
KL
 10
15959.60309561151
 20
20629.715736587292
 30
0.0
 11
16161.337814019909
 21
19886.915933361492
 31
0.0
  0
LINE
  5
1AF4
  8
FUTO
 10
14576.554669787471
 20
20760.715736587299
 30
0.0
 11
14576.554669787471
 21
21401.328886059138
 31
0.0
  0
LINE
  5
1AF5
  8
FUTO
 10
14567.554669787471
 20
20760.715736587299
 30
0.0
 11
14567.554669787471
 21
21390.176349703899
 31
0.0
  0
LINE
  5
1AF6
  8
FUTO
 10
15939.960515037719
 20
21107.320110784902
 30
0.0
 11
17305.62474618345
 21
19869.151621535901
 31
0.0
  0
LINE
  5
1AF7
  8
SL
 10
17248.238274756972
 20
19813.115192967351
 30
0.0
 11
15849.518068608329
 21
21020.449771661879
 31
0.0
  0
LINE
  5
1AF8
  8
SL
 10
17013.920888848679
 20
19490.660074744919
 30
0.0
 11
15433.604708621109
 21
20448.091936817091
 31
0.0
  0
LINE
  5
1AF9
  8
FUTO
 10
15378.91602153555
 20
20335.240532570901
 30
0.0
 11
16978.348791640521
 21
19418.771867577729
 31
0.0
  0
LINE
  5
1AFA
  8
FUTO
 10
16676.554669787471
 20
19591.69870834722
 30
0.0
 11
16676.554669787471
 21
19473.685939852119
 31
0.0
  0
LINE
  5
1AFC
  8
FUTO
 10
20074.31758672326
 20
21915.089536587289
 30
0.0
 11
21530.717586723651
 21
21915.089536587289
 31
0.0
  0
LINE
  5
1AFD
  8
FUTO
 10
20074.31758672326
 20
21850.0895365873
 30
0.0
 11
21530.71758672364
 21
21850.0895365873
 31
0.0
  0
LINE
  5
1AFE
  8
FUTO
 10
20074.31758672326
 20
21909.0895365873
 30
0.0
 11
21530.717586723651
 21
21909.0895365873
 31
0.0
  0
LINE
  5
1B50
  8
FUTO
 10
15688.554669787471
 20
24680.953251210161
 30
0.0
 11
15688.554669787471
 21
26014.153251210158
 31
0.0
  0
LINE
  5
1B51
  8
FUTO
 10
15619.554669787471
 20
24615.953251210161
 30
0.0
 11
15619.554669787471
 21
26073.95325121015
 31
0.0
  0
LINE
  5
1B53
  8
FUTO
 10
17542.55466978746
 20
24680.953251210169
 30
0.0
 11
17542.55466978746
 21
26008.953251210161
 31
0.0
  0
LINE
  5
1B5E
  8
FUTO
 10
15231.26052678073
 20
20466.800248979671
 30
0.0
 11
14917.554669787471
 21
19311.715736587299
 31
0.0
  0
LINE
  5
1B5F
  8
FUTO
 10
16161.337814019909
 20
19886.915933361492
 30
0.0
 11
16317.554669787471
 21
19311.715736587299
 31
0.0
  0
ARC
  5
1B60
  8
FUTO
 10
15748.554669787471
 20
20882.715736587299
 30
0.0
 40
1705.0
 50
327.76533956188922
 51
355.59345949274302
  0
DIMENSION
  5
1B6B
  8
SP
  2
*D14
 10
13908.14558058188
 20
20751.715736587292
 30
0.0
 11
13828.14558058187
 21
19956.715736587299
 31
0.0
 70
     0
 13
14557.554669787471
 23
19161.715736587292
 33
0.0
 14
14072.20067074337
 24
20751.715736587292
 34
0.0
 50
90.0
1001
ACAD
1000
DSTYLE
1002
{
1070
    40
1040
40.0
1002
}
  0
DIMENSION
  5
1B78
  8
SP
  2
*D15
 10
13908.14558058188
 20
21916.715736587299
 30
0.0
 11
13828.14558058187
 21
21334.215736587299
 31
0.0
 70
     0
 13
14072.20067074337
 23
20751.715736587292
 33
0.0
 14
15619.554669787471
 24
21916.715736587299
 34
0.0
 50
90.0
1001
ACAD
1000
DSTYLE
1002
{
1070
    40
1040
40.0
1002
}
  0
DIMENSION
  5
1BA9
  8
SP
  2
*D16
 10
14275.554669787471
 20
26611.940889139289
 30
0.0
 11
14946.554669787471
 21
26691.940889139289
 31
0.0
 70
     0
 13
15617.554669787471
 23
26338.94855438239
 33
0.0
 14
14275.554669787471
 24
26058.95325121015
 34
0.0
1001
ACAD
1000
DSTYLE
1002
{
1070
    40
1040
40.0
1002
}
  0
DIMENSION
  5
1BB6
  8
SP
  2
*D17
 10
17607.55466978746
 20
26611.940889139289
 30
0.0
 11
16612.55466978746
 21
26691.940889139289
 31
0.0
 70
     0
 13
15617.554669787471
 23
26338.94855438239
 33
0.0
 14
17607.55466978746
 24
26073.953251210161
 34
0.0
1001
ACAD
1000
DSTYLE
1002
{
1070
    40
1040
40.0
1002
}
  0
LINE
  5
1BD5
  8
SL
 10
15688.554669787471
 20
26008.953251210161
 30
0.0
 11
17542.55466978746
 21
24680.953251210169
 31
0.0
  0
LINE
  5
1BD6
  8
SL
 10
17542.55466978746
 20
26008.953251210161
 30
0.0
 11
15688.554669787471
 21
24680.953251210161
 31
0.0
  0
TEXT
  5
22DC
  8
SP
 10
38222.820199926391
 20
26097.253082411258
 30
0.0
 40
100.0
  1
 
  0
LINE
  5
22DD
  8
4
 10
22604.12705044651
 20
16523.232868072631
 30
0.0
 11
22604.12705044651
 21
15323.23286807262
 31
0.0
  0
LINE
  5
22DE
  8
4
 10
18404.127050446499
 20
16523.232868072631
 30
0.0
 11
18404.127050446499
 21
15323.23286807262
 31
0.0
  0
LINE
  5
22DF
  8
4
 10
15404.127050446499
 20
16523.232868072631
 30
0.0
 11
15404.127050446499
 21
15323.23286807262
 31
0.0
  0
LINE
  5
22E2
  8
4
 10
15404.127050446499
 20
15323.23286807263
 30
0.0
 11
22604.12705044651
 21
15323.23286807263
 31
0.0
  0
LINE
  5
22E3
  8
4
 10
15404.127050446499
 20
15923.23286807263
 30
0.0
 11
22604.12705044651
 21
15923.23286807263
 31
0.0
  0
TEXT
  5
22E4
  8
4
 10
15635.13953552792
 20
16112.4910232723
 30
0.0
 40
300.0
  1
機器名称
  0
TEXT
  5
22E5
  8
4
 10
15621.67568659529
 20
15453.10380846469
 30
0.0
 40
300.0
  1
機器型番
  0
TEXT
  5
22E6
  8
4
 10
18432.885420652761
 20
16056.356682214309
 30
0.0
 40
270.0
  1
ミツヤリミットロードファン
  0
TEXT
  5
22E7
  8
4
 10
18624.054023959401
 20
15426.19037375229
 30
0.0
 40
300.0
  1
LL#11-1
  0
TEXT
  5
22E9
  8
4
 10
13401.132610423179
 20
28726.518725268419
 30
0.0
 40
432.0
  1
遠心式片吸込片持リミットロードファン
  0
LINE
  5
22EA
  8
4
 10
13004.12705044651
 20
28339.685393661461
 30
0.0
 11
22604.12705044651
 21
28339.685393661461
 31
0.0
  0
LINE
  5
22EB
  8
4
 10
13004.12705044651
 20
29539.685393661461
 30
0.0
 11
22604.12705044651
 21
29539.685393661461
 31
0.0
  0
LINE
  5
22EC
  8
4
 10
15404.127050446499
 20
16523.232868072631
 30
0.0
 11
22604.12705044651
 21
16523.232868072631
 31
0.0
  0
LINE
  5
22ED
  8
4
 10
13004.12705044651
 20
29539.685393661461
 30
0.0
 11
13004.12705044651
 21
28339.685393661461
 31
0.0
  0
TEXT
  5
22EE
  8
4
 10
13539.16814735295
 20
27817.149733350689
 30
0.0
 40
323.99999999999989
  1
左回転上向
  0
TEXT
  5
22EF
  8
4
 10
20317.944405942249
 20
29759.599357044481
 30
0.0
 40
336.00000000000011
  1
No.
  0
TEXT
  5
22F0
  8
4
 10
20282.273509168339
 20
26964.635746587021
 30
0.0
 40
323.99999999999989
  1
縮尺：1/60
  0
LINE
  5
22F1
  8
4
 10
22604.12705044651
 20
29539.685393661461
 30
0.0
 11
22604.12705044651
 21
28339.685393661461
 31
0.0
  0
LINE
  5
22F2
  8
4
 10
24104.12705044651
 20
31223.232868072631
 30
0.0
 11
24104.12705044651
 21
31223.232868072631
 31
0.0
  0
LINE
  5
22F3
  8
4
 10
20147.83158460569
 20
29610.81436682503
 30
0.0
 11
20147.83158460569
 21
30243.146437371139
 31
0.0
  0
LINE
  5
22F4
  8
4
 10
20147.83158460569
 20
30243.146437371139
 30
0.0
 11
22604.12705044651
 21
30243.146437371139
 31
0.0
  0
LINE
  5
22F5
  8
4
 10
22604.12705044651
 20
30243.146437371139
 30
0.0
 11
22604.12705044651
 21
29610.81436682503
 31
0.0
  0
LINE
  5
22F6
  8
4
 10
22604.12705044651
 20
29610.81436682503
 30
0.0
 11
20147.83158460569
 21
29610.81436682503
 31
0.0
  0
LINE
  5
22F7
  8
4
 10
11504.12705044651
 20
13523.23286807263
 30
0.0
 11
11504.12705044651
 21
31223.232868072631
 31
0.0
  0
LINE
  5
22F8
  8
4
 10
11504.12705044651
 20
31223.232868072631
 30
0.0
 11
24104.12705044651
 21
31223.232868072631
 31
0.0
  0
LINE
  5
22F9
  8
4
 10
24104.12705044651
 20
31223.232868072631
 30
0.0
 11
24104.12705044651
 21
13523.23286807263
 31
0.0
  0
LINE
  5
22FA
  8
4
 10
24104.12705044651
 20
13523.23286807263
 30
0.0
 11
11504.12705044651
 21
13523.23286807263
 31
0.0
  0
TEXT
  5
22FB
  8
4
 10
16615.90393453966
 20
27817.21965799907
 30
0.0
 40
323.99999999999989
  1
床置ベット
  0
ENDSEC
  0
EOF
