  0
SECTION
  2
HEADER
  9
$ACADVER
  1
AC1009
  9
$INSBASE
 10
0.0
 20
0.0
 30
0.0
  9
$EXTMIN
 10
14874.392906608929
 20
16764.87896589662
 30
0.0
  9
$EXTMAX
 10
27474.392906608929
 20
34464.87896589662
 30
0.0
  9
$LIMMIN
 10
0.0
 20
0.0
  9
$LIMMAX
 10
297.0
 20
210.0
  9
$ORTHOMODE
 70
     0
  9
$REGENMODE
 70
     1
  9
$FILLMODE
 70
     1
  9
$QTEXTMODE
 70
     0
  9
$MIRRTEXT
 70
     0
  9
$DRAGMODE
 70
     2
  9
$LTSCALE
 40
200.0
  9
$OSMODE
 70
    37
  9
$ATTMODE
 70
     1
  9
$TEXTSIZE
 40
150.0
  9
$TRACEWID
 40
0.05
  9
$TEXTSTYLE
  7
STANDARD
  9
$CLAYER
  8
SP
  9
$CELTYPE
  6
BYLAYER
  9
$CECOLOR
 62
   256
  9
$DIMSCALE
 40
40.0
  9
$DIMASZ
 40
2.0
  9
$DIMEXO
 40
1.0
  9
$DIMDLI
 40
10.0
  9
$DIMRND
 40
0.0
  9
$DIMDLE
 40
0.0
  9
$DIMEXE
 40
1.0
  9
$DIMTP
 40
0.0
  9
$DIMTM
 40
0.0
  9
$DIMTXT
 40
3.0
  9
$DIMCEN
 40
0.0
  9
$DIMTSZ
 40
0.0
  9
$DIMTOL
 70
     0
  9
$DIMLIM
 70
     0
  9
$DIMTIH
 70
     0
  9
$DIMTOH
 70
     0
  9
$DIMSE1
 70
     0
  9
$DIMSE2
 70
     0
  9
$DIMTAD
 70
     1
  9
$DIMZIN
 70
     8
  9
$DIMBLK
  1

  9
$DIMASO
 70
     1
  9
$DIMSHO
 70
     1
  9
$DIMPOST
  1

  9
$DIMAPOST
  1

  9
$DIMALT
 70
     0
  9
$DIMALTD
 70
     2
  9
$DIMALTF
 40
0.03937
  9
$DIMLFAC
 40
1.0
  9
$DIMTOFL
 70
     1
  9
$DIMTVP
 40
0.0
  9
$DIMTIX
 70
     0
  9
$DIMSOXD
 70
     0
  9
$DIMSAH
 70
     1
  9
$DIMBLK1
  1
OPEN
  9
$DIMBLK2
  1
OPEN
  9
$DIMSTYLE
  2
MATSU
  9
$DIMCLRD
 70
   256
  9
$DIMCLRE
 70
   256
  9
$DIMCLRT
 70
   256
  9
$DIMTFAC
 40
1.0
  9
$DIMGAP
 40
0.5
  9
$LUNITS
 70
     2
  9
$LUPREC
 70
     3
  9
$SKETCHINC
 40
0.1
  9
$FILLETRAD
 40
7.0
  9
$AUNITS
 70
     0
  9
$AUPREC
 70
     2
  9
$MENU
  1
acad
  9
$ELEVATION
 40
0.0
  9
$PELEVATION
 40
0.0
  9
$THICKNESS
 40
0.0
  9
$LIMCHECK
 70
     0
  9
$BLIPMODE
 70
     0
  9
$CHAMFERA
 40
0.0
  9
$CHAMFERB
 40
0.0
  9
$SKPOLY
 70
     0
  9
$TDCREATE
 40
2451593.4082031241
  9
$TDUPDATE
 40
2454953.650190243
  9
$TDINDWG
 40
0.5468906829
  9
$TDUSRTIMER
 40
0.5468906829
  9
$USRTIMER
 70
     1
  9
$ANGBASE
 50
0.0
  9
$ANGDIR
 70
     0
  9
$PDMODE
 70
     0
  9
$PDSIZE
 40
1.0
  9
$PLINEWID
 40
0.0
  9
$COORDS
 70
     1
  9
$SPLFRAME
 70
     0
  9
$SPLINETYPE
 70
     6
  9
$SPLINESEGS
 70
     8
  9
$ATTDIA
 70
     0
  9
$ATTREQ
 70
     1
  9
$HANDLING
 70
 10241
  9
$HANDSEED
  5
22DF
  9
$SURFTAB1
 70
     6
  9
$SURFTAB2
 70
     6
  9
$SURFTYPE
 70
     6
  9
$SURFU
 70
     6
  9
$SURFV
 70
     6
  9
$UCSNAME
  2

  9
$UCSORG
 10
0.0
 20
0.0
 30
0.0
  9
$UCSXDIR
 10
1.0
 20
0.0
 30
0.0
  9
$UCSYDIR
 10
0.0
 20
1.0
 30
0.0
  9
$PUCSNAME
  2

  9
$PUCSORG
 10
0.0
 20
0.0
 30
0.0
  9
$PUCSXDIR
 10
1.0
 20
0.0
 30
0.0
  9
$PUCSYDIR
 10
0.0
 20
1.0
 30
0.0
  9
$USERI1
 70
     0
  9
$USERI2
 70
     0
  9
$USERI3
 70
     0
  9
$USERI4
 70
     0
  9
$USERI5
 70
     0
  9
$USERR1
 40
0.0
  9
$USERR2
 40
0.0
  9
$USERR3
 40
0.0
  9
$USERR4
 40
0.0
  9
$USERR5
 40
0.0
  9
$WORLDVIEW
 70
     1
  9
$SHADEDGE
 70
     3
  9
$SHADEDIF
 70
    70
  9
$TILEMODE
 70
     1
  9
$MAXACTVP
 70
    16
  9
$PLIMCHECK
 70
     0
  9
$PEXTMIN
 10
1.0000000000000000E+020
 20
1.0000000000000000E+020
 30
1.0000000000000000E+020
  9
$PEXTMAX
 10
-1.0000000000000000E+020
 20
-1.0000000000000000E+020
 30
-1.0000000000000000E+020
  9
$PLIMMIN
 10
0.0
 20
0.0
  9
$PLIMMAX
 10
12.0
 20
9.0
  9
$UNITMODE
 70
     0
  9
$VISRETAIN
 70
     0
  9
$PLINEGEN
 70
     0
  9
$PSLTSCALE
 70
     0
  0
ENDSEC
  0
SECTION
  2
TABLES
  0
TABLE
  2
VPORT
 70
     2
  0
VPORT
  2
*ACTIVE
 70
     0
 10
0.0
 20
0.0
 11
1.0
 21
1.0
 12
26804.8378841538
 22
18842.125509749389
 13
0.0
 23
0.0
 14
5.0
 24
5.0
 15
0.0
 25
0.0
 16
0.0
 26
0.0
 36
1.0
 17
0.0
 27
0.0
 37
0.0
 40
5346.3221672447962
 41
3.1666666666666661
 42
50.0
 43
0.0
 44
0.0
 50
0.0
 51
0.0
 71
     0
 72
   100
 73
     1
 74
     0
 75
     0
 76
     0
 77
     0
 78
     0
  0
ENDTAB
  0
TABLE
  2
LTYPE
 70
     4
  0
LTYPE
  2
CONTINUOUS
 70
     0
  3
Solid line
 72
    65
 73
     0
 40
0.0
  0
LTYPE
  2
CENTER
 70
     0
  3
____ _ ____ _ ____ _ ____ _ ____ _ ____ _ ____ 
 72
    65
 73
     4
 40
2.0
 49
1.25
 49
-0.25
 49
0.25
 49
-0.25
  0
LTYPE
  2
HIDDEN
 70
     0
  3
__ __ __ __ __ __ __ __ __ __ __ __ __ __ __ __
 72
    65
 73
     2
 40
0.375
 49
0.25
 49
-0.125
  0
LTYPE
  2
PHANTOM
 70
     0
  3
______  __  __  ______  __  __  ______  __  __ 
 72
    65
 73
     6
 40
2.5
 49
1.25
 49
-0.25
 49
0.25
 49
-0.25
 49
0.25
 49
-0.25
  0
ENDTAB
  0
TABLE
  2
LAYER
 70
    10
  0
LAYER
  2
0
 70
     0
 62
     7
  6
CONTINUOUS
  0
LAYER
  2
CT
 70
     0
 62
     3
  6
CENTER
  0
LAYER
  2
FUTO
 70
     0
 62
     4
  6
CONTINUOUS
  0
LAYER
  2
HOSO
 70
     0
 62
     7
  6
CONTINUOUS
  0
LAYER
  2
KL
 70
     0
 62
     7
  6
HIDDEN
  0
LAYER
  2
SL
 70
     0
 62
     1
  6
PHANTOM
  0
LAYER
  2
SP
 70
     0
 62
     2
  6
CONTINUOUS
  0
LAYER
  2
1
 70
     0
 62
     7
  6
CONTINUOUS
  0
LAYER
  2
DEFPOINTS
 70
     0
 62
     7
  6
CONTINUOUS
  0
LAYER
  2
4
 70
     0
 62
     7
  6
CONTINUOUS
  0
ENDTAB
  0
TABLE
  2
STYLE
 70
     1
  0
STYLE
  2
STANDARD
 70
     0
 40
0.0
 41
1.0
 50
15.0
 71
     0
 42
150.0
  3
C:\Program Files\AutoCAD LT\simplex.shx
  4
bigfont.shx
  0
ENDTAB
  0
TABLE
  2
VIEW
 70
     0
  0
ENDTAB
  0
TABLE
  2
UCS
 70
     0
  0
ENDTAB
  0
TABLE
  2
APPID
 70
     2
  0
APPID
  2
ACAD
 70
     0
  0
APPID
  2
CONTENTBLOCKICON
 70
     0
  0
ENDTAB
  0
TABLE
  2
DIMSTYLE
 70
     2
  0
DIMSTYLE
  2
MATSU
 70
     0
  3

  4

  5

  6
OPEN
  7
OPEN
 40
1.0
 41
2.0
 42
1.0
 43
10.0
 44
1.0
 45
0.0
 46
0.0
 47
0.0
 48
0.0
140
3.0
141
0.0
142
0.0
143
0.03937
144
1.0
145
0.0
146
1.0
147
0.5
 71
     0
 72
     0
 73
     0
 74
     0
 75
     0
 76
     0
 77
     1
 78
     8
170
     0
171
     2
172
     1
173
     1
174
     0
175
     0
176
   256
177
   256
178
   256
  0
DIMSTYLE
  2
STANDARD
 70
     0
  3

  4

  5

  6

  7

 40
1.0
 41
0.18
 42
0.0625
 43
0.38
 44
0.18
 45
0.0
 46
0.0
 47
0.0
 48
0.0
140
0.18
141
0.09
142
0.0
143
25.399999999999999
144
1.0
145
0.0
146
1.0
147
0.09
 71
     0
 72
     0
 73
     1
 74
     1
 75
     0
 76
     0
 77
     0
 78
     0
170
     0
171
     2
172
     0
173
     0
174
     0
175
     0
176
     0
177
     0
178
     0
  0
ENDTAB
  0
ENDSEC
  0
SECTION
  2
BLOCKS
  0
BLOCK
  8
0
  2
$MODEL_SPACE
 70
     0
 10
0.0
 20
0.0
 30
0.0
  3
$MODEL_SPACE
  1

  0
ENDBLK
  5
7
  8
0
  0
BLOCK
 67
     1
  8
0
  2
$PAPER_SPACE
 70
     0
 10
0.0
 20
0.0
 30
0.0
  3
$PAPER_SPACE
  1

  0
ENDBLK
  5
A
 67
     1
  8
0
  0
BLOCK
  8
0
  2
_OPEN
 70
     0
 10
0.0
 20
0.0
 30
0.0
  3
_OPEN
  1

  0
LINE
  5
27
  8
0
  6
BYBLOCK
 62
     0
 10
-1.0
 20
0.1666666666666666
 30
0.0
 11
0.0
 21
0.0
 31
0.0
  0
LINE
  5
28
  8
0
  6
BYBLOCK
 62
     0
 10
0.0
 20
0.0
 30
0.0
 11
-1.0
 21
-0.1666666666666666
 31
0.0
  0
LINE
  5
29
  8
0
  6
BYBLOCK
 62
     0
 10
0.0
 20
0.0
 30
0.0
 11
-1.0
 21
0.0
 31
0.0
  0
ENDBLK
  5
2B
  8
0
  0
BLOCK
  8
0
  2
まっすぐの矢印
 70
     0
 10
0.0
 20
0.0
 30
0.0
  3
まっすぐの矢印
  1

  0
LINE
  5
8C
  8
SP
 10
13.01863531255526
 20
-41.453946163708451
 30
0.0
 11
13.01863531255526
 21
-93.495696758840026
 31
0.0
  0
LINE
  5
8D
  8
SP
 10
13.01863531255526
 20
-93.495696758840026
 30
0.0
 11
-13.01863531255526
 21
-93.495696758840026
 31
0.0
  0
LINE
  5
8E
  8
SP
 10
-13.01863531255526
 20
-93.495696758840026
 30
0.0
 11
-13.01863531255526
 21
-41.453946163708451
 31
0.0
  0
LINE
  5
8F
  8
SP
 10
-13.01863531255526
 20
-41.453946163708451
 30
0.0
 11
-32.06015471115802
 21
-41.453946163708451
 31
0.0
  0
LINE
  5
90
  8
SP
 10
-32.06015471115802
 20
-41.453946163708451
 30
0.0
 11
0.0
 21
0.0
 31
0.0
  0
LINE
  5
91
  8
SP
 10
0.0
 20
0.0
 30
0.0
 11
32.06015471115802
 21
-41.453946163708451
 31
0.0
  0
LINE
  5
92
  8
SP
 10
32.06015471115802
 20
-41.453946163708451
 30
0.0
 11
13.01863531255526
 21
-41.453946163708451
 31
0.0
  0
ENDBLK
  5
94
  8
0
  0
BLOCK
  8
0
  2
左回転矢印
 70
     0
 10
0.0
 20
0.0
 30
0.0
  3
左回転矢印
  1

  0
LINE
  5
2C7
  8
SP
 10
43.930449171819873
 20
24.859487323637271
 30
0.0
 11
38.511878498580238
 21
44.478978865188871
 31
0.0
  0
LINE
  5
2C8
  8
SP
 10
38.511878498580238
 20
44.478978865188871
 30
0.0
 11
0.0
 21
0.0
 31
0.0
  0
LINE
  5
2C9
  8
SP
 10
0.0
 20
0.0
 30
0.0
 11
52.57968174421967
 21
-6.4575435924972453
 31
0.0
  0
LINE
  5
2CA
  8
SP
 10
52.57968174421967
 20
-6.4575435924972453
 30
0.0
 11
48.189912989015284
 21
9.436875093862227
 31
0.0
  0
ARC
  5
2CB
  8
SP
 10
93.893649146691985
 20
-156.0466295121104
 30
0.0
 40
171.67883327727239
 50
67.881388989212894
 51
105.4392492786835
  0
LINE
  5
2CC
  8
SP
 10
158.53505643637521
 20
2.997736182040398
 30
0.0
 11
164.55945966006539
 21
17.820238190756751
 31
0.0
  0
ARC
  5
2CD
  8
SP
 10
93.893649146692198
 20
-156.04662951211091
 30
0.0
 40
187.67883327727299
 50
67.881388989212994
 51
105.4392492786836
  0
ENDBLK
  5
2CF
  8
0
  0
BLOCK
  8
0
  2
*D3
 70
     1
 10
0.0
 20
0.0
 30
0.0
  3
*D3
  1

  0
LINE
  5
2220
  8
SP
 10
21789.288715425781
 20
23639.408024501641
 30
0.0
 11
21789.288715425781
 21
25711.78383120634
 31
0.0
  0
LINE
  5
2221
  8
SP
 10
24239.288715425781
 20
25240.40802450163
 30
0.0
 11
24239.288715425781
 21
25711.78383120634
 31
0.0
  0
LINE
  5
2222
  8
SP
 10
21869.288715425781
 20
25671.78383120634
 30
0.0
 11
24159.288715425781
 21
25671.78383120634
 31
0.0
  0
INSERT
  5
2223
  8
SP
  2
_OPEN
 10
21789.288715425781
 20
25671.78383120634
 30
0.0
 41
80.0
 42
80.0
 43
80.0
 50
180.0
  0
INSERT
  5
2224
  8
SP
  2
_OPEN
 10
24239.288715425781
 20
25671.78383120634
 30
0.0
 41
80.0
 42
80.0
 43
80.0
  0
TEXT
  5
2225
  8
SP
 10
22717.296026520809
 20
25743.212402634919
 30
0.0
 40
120.0
  1
(2450)
 51
15.0
  0
POINT
  5
2226
  8
DEFPOINTS
 62
     0
 10
21789.288715425781
 20
23599.408024501641
 30
0.0
  0
POINT
  5
2227
  8
DEFPOINTS
 62
     0
 10
24239.288715425781
 20
25200.40802450163
 30
0.0
  0
POINT
  5
2228
  8
DEFPOINTS
 62
     0
 10
24239.288715425781
 20
25671.78383120634
 30
0.0
  0
ENDBLK
  5
1423
  8
0
  0
BLOCK
  8
0
  2
*D4
 70
     1
 10
0.0
 20
0.0
 30
0.0
  3
*D4
  1

  0
LINE
  5
2268
  8
SP
 10
17613.35927142149
 20
23221.034224501629
 30
0.0
 11
17449.304181259999
 21
23221.034224501629
 31
0.0
  0
LINE
  5
2269
  8
SP
 10
17993.713270465589
 20
25211.034224501629
 30
0.0
 11
17449.304181259999
 21
25211.034224501629
 31
0.0
  0
LINE
  5
226A
  8
SP
 10
17489.304181259999
 20
23301.034224501629
 30
0.0
 11
17489.304181259999
 21
25131.034224501629
 31
0.0
  0
INSERT
  5
226B
  8
SP
  2
_OPEN
 10
17489.304181259999
 20
23221.034224501629
 30
0.0
 41
80.0
 42
80.0
 43
80.0
 50
270.0
  0
INSERT
  5
226C
  8
SP
  2
_OPEN
 10
17489.304181259999
 20
25211.034224501629
 30
0.0
 41
80.0
 42
80.0
 43
80.0
 50
90.0
  0
TEXT
  5
226D
  8
SP
 10
17469.304181259991
 20
23992.862017236901
 30
0.0
 40
120.0
  1
1990
 50
90.0
 51
15.0
  0
POINT
  5
226E
  8
DEFPOINTS
 62
     0
 10
17653.35927142149
 20
23221.034224501629
 30
0.0
  0
POINT
  5
226F
  8
DEFPOINTS
 62
     0
 10
18033.713270465589
 20
25211.034224501629
 30
0.0
  0
POINT
  5
2270
  8
DEFPOINTS
 62
     0
 10
17489.304181259999
 20
25211.034224501629
 30
0.0
  0
ENDBLK
  5
18B9
  8
0
  0
BLOCK
  8
0
  2
*D5
 70
     1
 10
0.0
 20
0.0
 30
0.0
  3
*D5
  1

  0
LINE
  5
225F
  8
SP
 10
17635.959581824951
 20
23221.034224501629
 30
0.0
 11
17449.304181259999
 21
23221.034224501629
 31
0.0
  0
LINE
  5
2260
  8
SP
 10
18133.60005813311
 20
21891.034224501629
 30
0.0
 11
17449.304181259999
 21
21891.034224501629
 31
0.0
  0
LINE
  5
2261
  8
SP
 10
17489.304181259999
 20
23141.034224501629
 30
0.0
 11
17489.304181259999
 21
21971.034224501629
 31
0.0
  0
INSERT
  5
2262
  8
SP
  2
_OPEN
 10
17489.304181259999
 20
23221.034224501629
 30
0.0
 41
80.0
 42
80.0
 43
80.0
 50
90.0
  0
INSERT
  5
2263
  8
SP
  2
_OPEN
 10
17489.304181259999
 20
21891.034224501629
 30
0.0
 41
80.0
 42
80.0
 43
80.0
 50
270.0
  0
TEXT
  5
2264
  8
SP
 10
17469.304181259999
 20
22332.862017236901
 30
0.0
 40
120.0
  1
1330
 50
90.0
 51
15.0
  0
POINT
  5
2265
  8
DEFPOINTS
 62
     0
 10
17675.959581824951
 20
23221.034224501629
 30
0.0
  0
POINT
  5
2266
  8
DEFPOINTS
 62
     0
 10
18173.60005813311
 20
21891.034224501629
 30
0.0
  0
POINT
  5
2267
  8
DEFPOINTS
 62
     0
 10
17489.304181259999
 20
21891.034224501629
 30
0.0
  0
ENDBLK
  5
18ED
  8
0
  0
BLOCK
  8
0
  2
*D6
 70
     1
 10
0.0
 20
0.0
 30
0.0
  3
*D6
  1

  0
LINE
  5
223B
  8
SP
 10
19198.713270465589
 20
29621.467252463481
 30
0.0
 11
19198.713270465589
 21
29880.345880774199
 31
0.0
  0
LINE
  5
223C
  8
SP
 10
18033.713270465589
 20
29356.471949291252
 30
0.0
 11
18033.713270465589
 21
29880.345880774199
 31
0.0
  0
LINE
  5
223D
  8
SP
 10
19118.713270465589
 20
29840.345880774199
 30
0.0
 11
18113.713270465589
 21
29840.345880774199
 31
0.0
  0
INSERT
  5
223E
  8
SP
  2
_OPEN
 10
19198.713270465589
 20
29840.345880774199
 30
0.0
 41
80.0
 42
80.0
 43
80.0
  0
INSERT
  5
223F
  8
SP
  2
_OPEN
 10
18033.713270465589
 20
29840.345880774199
 30
0.0
 41
80.0
 42
80.0
 43
80.0
 50
180.0
  0
TEXT
  5
2240
  8
SP
 10
18404.264501001639
 20
29860.345880774199
 30
0.0
 40
120.0
  1
1165
 51
15.0
  0
POINT
  5
2241
  8
DEFPOINTS
 62
     0
 10
19198.713270465589
 20
29581.467252463492
 30
0.0
  0
POINT
  5
2242
  8
DEFPOINTS
 62
     0
 10
18033.713270465589
 20
29316.471949291252
 30
0.0
  0
POINT
  5
2243
  8
DEFPOINTS
 62
     0
 10
18033.713270465589
 20
29840.345880774199
 30
0.0
  0
ENDBLK
  5
1915
  8
0
  0
BLOCK
  8
0
  2
*D7
 70
     1
 10
0.0
 20
0.0
 30
0.0
  3
*D7
  1

  0
LINE
  5
228A
  8
SP
 10
21138.713270465589
 20
27963.471949291259
 30
0.0
 11
21138.713270465589
 21
29880.345880774199
 31
0.0
  0
LINE
  5
228B
  8
SP
 10
19278.713270465589
 20
29840.345880774199
 30
0.0
 11
21058.713270465589
 21
29840.345880774199
 31
0.0
  0
INSERT
  5
228C
  8
SP
  2
_OPEN
 10
19198.713270465589
 20
29840.345880774199
 30
0.0
 41
80.0
 42
80.0
 43
80.0
 50
180.0
  0
INSERT
  5
228D
  8
SP
  2
_OPEN
 10
21138.713270465589
 20
29840.345880774199
 30
0.0
 41
80.0
 42
80.0
 43
80.0
  0
TEXT
  5
228E
  8
SP
 10
19945.54106320085
 20
29860.345880774199
 30
0.0
 40
120.0
  1
1940
 51
15.0
  0
POINT
  5
228F
  8
DEFPOINTS
 62
     0
 10
19198.713270465589
 20
29840.345880774199
 30
0.0
  0
POINT
  5
2290
  8
DEFPOINTS
 62
     0
 10
21138.713270465589
 20
27923.471949291259
 30
0.0
  0
POINT
  5
2291
  8
DEFPOINTS
 62
     0
 10
21138.713270465589
 20
29840.345880774199
 30
0.0
  0
ENDBLK
  5
1921
  8
0
  0
BLOCK
  8
0
  2
*D8
 70
     1
 10
0.0
 20
0.0
 30
0.0
  3
*D8
  1

  0
LINE
  5
2279
  8
SP
 10
18193.713270465589
 20
29382.471949291259
 30
0.0
 11
17573.727004975481
 21
29382.471949291259
 31
0.0
  0
LINE
  5
227A
  8
SP
 10
17586.478826756669
 20
28587.471949291252
 30
0.0
 11
17653.727004975481
 21
28587.471949291252
 31
0.0
  0
LINE
  5
227B
  8
SP
 10
17613.727004975481
 20
29302.471949291259
 30
0.0
 11
17613.727004975481
 21
28667.471949291252
 31
0.0
  0
INSERT
  5
227C
  8
SP
  2
_OPEN
 10
17613.727004975481
 20
29382.471949291259
 30
0.0
 41
80.0
 42
80.0
 43
80.0
 50
90.0
  0
INSERT
  5
227D
  8
SP
  2
_OPEN
 10
17613.727004975481
 20
28587.471949291252
 30
0.0
 41
80.0
 42
80.0
 43
80.0
 50
270.0
  0
TEXT
  5
227E
  8
SP
 10
17593.72700497547
 20
28808.894997745389
 30
0.0
 40
120.0
  1
795
 50
90.0
 51
15.0
  0
POINT
  5
227F
  8
DEFPOINTS
 62
     0
 10
18233.713270465589
 20
29382.471949291259
 30
0.0
  0
POINT
  5
2280
  8
DEFPOINTS
 62
     0
 10
17546.478826756669
 20
28587.471949291252
 30
0.0
  0
POINT
  5
2281
  8
DEFPOINTS
 62
     0
 10
17613.727004975481
 20
28587.471949291252
 30
0.0
  0
ENDBLK
  5
192F
  8
0
  0
BLOCK
  8
0
  2
*D9
 70
     1
 10
0.0
 20
0.0
 30
0.0
  3
*D9
  1

  0
LINE
  5
2271
  8
SP
 10
18778.713270465589
 20
26137.471949291259
 30
0.0
 11
17573.727004975481
 21
26137.471949291259
 31
0.0
  0
LINE
  5
2272
  8
SP
 10
17613.727004975481
 20
28507.471949291252
 30
0.0
 11
17613.727004975481
 21
26217.471949291259
 31
0.0
  0
INSERT
  5
2273
  8
SP
  2
_OPEN
 10
17613.727004975481
 20
28587.471949291252
 30
0.0
 41
80.0
 42
80.0
 43
80.0
 50
90.0
  0
INSERT
  5
2274
  8
SP
  2
_OPEN
 10
17613.727004975481
 20
26137.471949291259
 30
0.0
 41
80.0
 42
80.0
 43
80.0
 50
270.0
  0
TEXT
  5
2275
  8
SP
 10
17593.72700497547
 20
27140.88584565889
 30
0.0
 40
120.0
  1
2450
 50
90.0
 51
15.0
  0
POINT
  5
2276
  8
DEFPOINTS
 62
     0
 10
17613.727004975481
 20
28587.471949291252
 30
0.0
  0
POINT
  5
2277
  8
DEFPOINTS
 62
     0
 10
18818.713270465589
 20
26137.471949291259
 30
0.0
  0
POINT
  5
2278
  8
DEFPOINTS
 62
     0
 10
17613.727004975481
 20
26137.471949291259
 30
0.0
  0
ENDBLK
  5
193B
  8
0
  0
BLOCK
  8
0
  2
*D10
 70
     1
 10
0.0
 20
0.0
 30
0.0
  3
*D10
  1

  0
LINE
  5
2256
  8
SP
 10
18138.713270465589
 20
21851.034224501629
 30
0.0
 11
18138.713270465589
 21
21097.1122951627
 31
0.0
  0
LINE
  5
2257
  8
SP
 10
21138.713270465589
 20
21851.034224501629
 30
0.0
 11
21138.713270465589
 21
21097.1122951627
 31
0.0
  0
LINE
  5
2258
  8
SP
 10
18218.713270465589
 20
21137.1122951627
 30
0.0
 11
21058.713270465589
 21
21137.1122951627
 31
0.0
  0
INSERT
  5
2259
  8
SP
  2
_OPEN
 10
18138.713270465589
 20
21137.1122951627
 30
0.0
 41
80.0
 42
80.0
 43
80.0
 50
180.0
  0
INSERT
  5
225A
  8
SP
  2
_OPEN
 10
21138.713270465589
 20
21137.1122951627
 30
0.0
 41
80.0
 42
80.0
 43
80.0
  0
TEXT
  5
225B
  8
SP
 10
19414.064890348302
 20
21157.1122951627
 30
0.0
 40
120.0
  1
3000
 51
15.0
  0
POINT
  5
225C
  8
DEFPOINTS
 62
     0
 10
18138.713270465589
 20
21891.034224501629
 30
0.0
  0
POINT
  5
225D
  8
DEFPOINTS
 62
     0
 10
21138.713270465589
 20
21891.034224501629
 30
0.0
  0
POINT
  5
225E
  8
DEFPOINTS
 62
     0
 10
21138.713270465589
 20
21137.1122951627
 30
0.0
  0
ENDBLK
  5
1983
  8
0
  0
BLOCK
  8
0
  2
*D11
 70
     1
 10
0.0
 20
0.0
 30
0.0
  3
*D11
  1

  0
LINE
  5
22C8
  8
SP
 10
21138.713270465589
 20
21851.034224501629
 30
0.0
 11
21138.713270465589
 21
21415.826845783329
 31
0.0
  0
LINE
  5
22C9
  8
SP
 10
19278.713270465589
 20
21455.826845783329
 30
0.0
 11
21058.713270465589
 21
21455.826845783329
 31
0.0
  0
INSERT
  5
22CA
  8
SP
  2
_OPEN
 10
19198.713270465589
 20
21455.826845783329
 30
0.0
 41
80.0
 42
80.0
 43
80.0
 50
180.0
  0
INSERT
  5
22CB
  8
SP
  2
_OPEN
 10
21138.713270465589
 20
21455.826845783329
 30
0.0
 41
80.0
 42
80.0
 43
80.0
  0
TEXT
  8
0
  40
120
  5
22DD
  72
0
  71
0
 10
19928.7
 20
21323.4
 30
0.000000
  1
1940
  0
POINT
  5
22CD
  8
DEFPOINTS
 62
     0
 10
19198.713270465589
 20
21810.380049491421
 30
0.0
  0
POINT
  5
22CE
  8
DEFPOINTS
 62
     0
 10
21138.713270465589
 20
21891.034224501629
 30
0.0
  0
POINT
  5
22CF
  8
DEFPOINTS
 62
     0
 10
21138.713270465589
 20
21455.826845783329
 30
0.0
  0
ENDBLK
  5
198E
  8
0
  0
BLOCK
  8
0
  2
*D12
 70
     1
 10
0.0
 20
0.0
 30
0.0
  3
*D12
  1

  0
LINE
  5
224D
  8
SP
 10
18138.713270465589
 20
21851.034224501629
 30
0.0
 11
18138.713270465589
 21
21415.826845783329
 31
0.0
  0
LINE
  5
224E
  8
SP
 10
19198.713270465589
 20
21770.380049491421
 30
0.0
 11
19198.713270465589
 21
21415.826845783329
 31
0.0
  0
LINE
  5
224F
  8
SP
 10
18218.713270465589
 20
21455.826845783329
 30
0.0
 11
19118.713270465589
 21
21455.826845783329
 31
0.0
  0
INSERT
  5
2250
  8
SP
  2
_OPEN
 10
18138.713270465589
 20
21455.826845783329
 30
0.0
 41
80.0
 42
80.0
 43
80.0
 50
180.0
  0
INSERT
  5
2251
  8
SP
  2
_OPEN
 10
19198.713270465589
 20
21455.826845783329
 30
0.0
 41
80.0
 42
80.0
 43
80.0
  0
TEXT
  5
2252
  8
SP
 10
18445.54106320085
 20
21475.826845783329
 30
0.0
 40
120.0
  1
1060
 51
15.0
  0
POINT
  5
2253
  8
DEFPOINTS
 62
     0
 10
18138.713270465589
 20
21891.034224501629
 30
0.0
  0
POINT
  5
2254
  8
DEFPOINTS
 62
     0
 10
19198.713270465589
 20
21810.380049491421
 30
0.0
  0
POINT
  5
2255
  8
DEFPOINTS
 62
     0
 10
19198.713270465589
 20
21455.826845783329
 30
0.0
  0
ENDBLK
  5
199A
  8
0
  0
BLOCK
  8
0
  2
*D13
 70
     1
 10
0.0
 20
0.0
 30
0.0
  3
*D13
  1

  0
LINE
  5
2244
  8
SP
 10
18033.713270465589
 20
25251.034224501629
 30
0.0
 11
18033.713270465589
 21
25722.832240664229
 31
0.0
  0
LINE
  5
2245
  8
SP
 10
19198.713270465589
 20
25251.299763065999
 30
0.0
 11
19198.713270465589
 21
25722.832240664229
 31
0.0
  0
LINE
  5
2246
  8
SP
 10
18113.713270465589
 20
25682.832240664229
 30
0.0
 11
19118.713270465589
 21
25682.832240664229
 31
0.0
  0
INSERT
  5
2247
  8
SP
  2
_OPEN
 10
18033.713270465589
 20
25682.832240664229
 30
0.0
 41
80.0
 42
80.0
 43
80.0
 50
180.0
  0
INSERT
  5
2248
  8
SP
  2
_OPEN
 10
19198.713270465589
 20
25682.832240664229
 30
0.0
 41
80.0
 42
80.0
 43
80.0
  0
TEXT
  5
2249
  8
SP
 10
18404.264501001639
 20
25702.832240664229
 30
0.0
 40
120.0
  1
1165
 51
15.0
  0
POINT
  5
224A
  8
DEFPOINTS
 62
     0
 10
18033.713270465589
 20
25211.034224501629
 30
0.0
  0
POINT
  5
224B
  8
DEFPOINTS
 62
     0
 10
19198.713270465589
 20
25211.299763065999
 30
0.0
  0
POINT
  5
224C
  8
DEFPOINTS
 62
     0
 10
19198.713270465589
 20
25682.832240664229
 30
0.0
  0
ENDBLK
  5
19AE
  8
0
  0
BLOCK
  8
0
  2
*D14
 70
     1
 10
0.0
 20
0.0
 30
0.0
  3
*D14
  1

  0
LINE
  5
2229
  8
SP
 10
22128.288715425781
 20
21851.034207895649
 30
0.0
 11
22128.288715425781
 21
21111.51605016641
 31
0.0
  0
LINE
  5
222A
  8
SP
 10
24978.288715425781
 20
21851.034207895649
 30
0.0
 11
24978.288715425781
 21
21111.51605016641
 31
0.0
  0
LINE
  5
222B
  8
SP
 10
22208.288715425781
 20
21151.51605016641
 30
0.0
 11
24898.288715425781
 21
21151.51605016641
 31
0.0
  0
INSERT
  5
222C
  8
SP
  2
_OPEN
 10
22128.288715425781
 20
21151.51605016641
 30
0.0
 41
80.0
 42
80.0
 43
80.0
 50
180.0
  0
INSERT
  5
222D
  8
SP
  2
_OPEN
 10
24978.288715425781
 20
21151.51605016641
 30
0.0
 41
80.0
 42
80.0
 43
80.0
  0
TEXT
  5
222E
  8
SP
 10
23331.702611793411
 20
21171.51605016641
 30
0.0
 40
120.0
  1
2850
 51
15.0
  0
POINT
  5
222F
  8
DEFPOINTS
 62
     0
 10
22128.288715425781
 20
21891.034207895649
 30
0.0
  0
POINT
  5
2230
  8
DEFPOINTS
 62
     0
 10
24978.288715425781
 20
21891.034207895649
 30
0.0
  0
POINT
  5
2231
  8
DEFPOINTS
 62
     0
 10
24978.288715425781
 20
21151.51605016641
 30
0.0
  0
ENDBLK
  5
1A43
  8
0
  0
BLOCK
  8
0
  2
*D15
 70
     1
 10
0.0
 20
0.0
 30
0.0
  3
*D15
  1

  0
LINE
  5
2232
  8
SP
 10
22128.288715425781
 20
21851.034207895649
 30
0.0
 11
22128.288715425781
 21
21411.553595131329
 31
0.0
  0
LINE
  5
2233
  8
SP
 10
24239.288715425781
 20
21830.107155901711
 30
0.0
 11
24239.288715425781
 21
21411.553595131329
 31
0.0
  0
LINE
  5
2234
  8
SP
 10
22208.288715425781
 20
21451.553595131329
 30
0.0
 11
24159.288715425781
 21
21451.553595131329
 31
0.0
  0
INSERT
  5
2235
  8
SP
  2
_OPEN
 10
22128.288715425781
 20
21451.553595131329
 30
0.0
 41
80.0
 42
80.0
 43
80.0
 50
180.0
  0
INSERT
  5
2236
  8
SP
  2
_OPEN
 10
24239.288715425781
 20
21451.553595131329
 30
0.0
 41
80.0
 42
80.0
 43
80.0
  0
TEXT
  5
2237
  8
SP
 10
23004.854621022769
 20
21471.553595131329
 30
0.0
 40
120.0
  1
2111
 51
15.0
  0
POINT
  5
2238
  8
DEFPOINTS
 62
     0
 10
22128.288715425781
 20
21891.034207895649
 30
0.0
  0
POINT
  5
2239
  8
DEFPOINTS
 62
     0
 10
24239.288715425781
 20
21870.107155901711
 30
0.0
  0
POINT
  5
223A
  8
DEFPOINTS
 62
     0
 10
24239.288715425781
 20
21451.553595131329
 30
0.0
  0
ENDBLK
  5
1A4F
  8
0
  0
BLOCK
  8
0
  2
*D16
 70
     1
 10
0.0
 20
0.0
 30
0.0
  3
*D16
  1

  0
LINE
  5
22D0
  8
SP
 10
24978.288715425781
 20
21851.034207895649
 30
0.0
 11
24978.288715425781
 21
21411.553595131329
 31
0.0
  0
LINE
  5
22D1
  8
SP
 10
24319.288715425781
 20
21451.553595131329
 30
0.0
 11
24898.288715425781
 21
21451.553595131329
 31
0.0
  0
INSERT
  5
22D2
  8
SP
  2
_OPEN
 10
24239.288715425781
 20
21451.553595131329
 30
0.0
 41
80.0
 42
80.0
 43
80.0
 50
180.0
  0
INSERT
  5
22D3
  8
SP
  2
_OPEN
 10
24978.288715425781
 20
21451.553595131329
 30
0.0
 41
80.0
 42
80.0
 43
80.0
  0
TEXT
  8
0
  40
120
  5
22DE
  72
0
  71
0
 10
24368.8
 20
21319.2
 30
0.000000
  1
739
  0
POINT
  5
22D5
  8
DEFPOINTS
 62
     0
 10
24239.288715425781
 20
21870.107155901711
 30
0.0
  0
POINT
  5
22D6
  8
DEFPOINTS
 62
     0
 10
24978.288715425781
 20
21891.034207895649
 30
0.0
  0
POINT
  5
22D7
  8
DEFPOINTS
 62
     0
 10
24978.288715425781
 20
21451.553595131329
 30
0.0
  0
ENDBLK
  5
1A5A
  8
0
  0
BLOCK
  8
0
  2
*D17
 70
     1
 10
0.0
 20
0.0
 30
0.0
  3
*D17
  1

  0
LINE
  5
2293
  8
SP
 10
24239.288715425781
 20
25663.726170570721
 30
0.0
 11
24239.288715425781
 21
25631.78383120634
 31
0.0
  0
LINE
  5
2294
  8
SP
 10
25034.288715425781
 20
24224.408024501641
 30
0.0
 11
25034.288715425781
 21
25711.78383120634
 31
0.0
  0
LINE
  5
2295
  8
SP
 10
24319.288715425781
 20
25671.78383120634
 30
0.0
 11
24954.288715425781
 21
25671.78383120634
 31
0.0
  0
INSERT
  5
2296
  8
SP
  2
_OPEN
 10
24239.288715425781
 20
25671.78383120634
 30
0.0
 41
80.0
 42
80.0
 43
80.0
 50
180.0
  0
INSERT
  5
2297
  8
SP
  2
_OPEN
 10
25034.288715425781
 20
25671.78383120634
 30
0.0
 41
80.0
 42
80.0
 43
80.0
  0
TEXT
  5
2298
  8
SP
 10
24392.074138924021
 20
25691.78383120634
 30
0.0
 40
120.0
  1
795
 51
15.0
  0
POINT
  5
2299
  8
DEFPOINTS
 62
     0
 10
24239.288715425781
 20
25703.726170570721
 30
0.0
  0
POINT
  5
229A
  8
DEFPOINTS
 62
     0
 10
25034.288715425781
 20
24184.408024501641
 30
0.0
  0
POINT
  5
229B
  8
DEFPOINTS
 62
     0
 10
25034.288715425781
 20
25671.78383120634
 30
0.0
  0
ENDBLK
  5
229D
  8
0
  0
BLOCK
  8
0
  2
*D18
 70
     1
 10
0.0
 20
0.0
 30
0.0
  3
*D18
  1

  0
LINE
  5
229F
  8
SP
 10
25074.288715425781
 20
24119.408024501641
 30
0.0
 11
25654.29685763751
 21
24119.408024501641
 31
0.0
  0
LINE
  5
22A0
  8
SP
 10
25074.288715425781
 20
22319.40802450163
 30
0.0
 11
25654.29685763751
 21
22319.40802450163
 31
0.0
  0
LINE
  5
22A1
  8
SP
 10
25614.29685763751
 20
24039.408024501641
 30
0.0
 11
25614.29685763751
 21
22399.40802450163
 31
0.0
  0
INSERT
  5
22A2
  8
SP
  2
_OPEN
 10
25614.29685763751
 20
24119.408024501641
 30
0.0
 41
80.0
 42
80.0
 43
80.0
 50
90.0
  0
INSERT
  5
22A3
  8
SP
  2
_OPEN
 10
25614.29685763751
 20
22319.40802450163
 30
0.0
 41
80.0
 42
80.0
 43
80.0
 50
270.0
  0
INSERT
  5
22A4
  8
SP
  2
*U19
 10
0.0
 20
0.0
 30
0.0
  0
POINT
  5
22A5
  8
DEFPOINTS
 62
     0
 10
25034.288715425781
 20
24119.408024501641
 30
0.0
  0
POINT
  5
22A6
  8
DEFPOINTS
 62
     0
 10
25034.288715425781
 20
22319.40802450163
 30
0.0
  0
POINT
  5
22A7
  8
DEFPOINTS
 62
     0
 10
25614.29685763751
 20
22319.40802450163
 30
0.0
  0
ENDBLK
  5
22A9
  8
0
  0
BLOCK
  8
0
  2
*U19
 70
     1
 10
0.0
 20
0.0
 30
0.0
  3
*U19
  1

  0
TEXT
  5
22D9
  8
SP
 10
25594.29685763751
 20
22922.400607664829
 30
0.0
 40
120.0
  1
\U+2205
 50
90.0
 51
15.0
  0
TEXT
  5
22DA
  8
SP
 10
25594.29685763751
 20
23030.97203623626
 30
0.0
 40
120.0
  1
1800
 50
90.0
 51
15.0
  0
ENDBLK
  5
22DC
  8
0
  0
ENDSEC
  0
SECTION
  2
ENTITIES
  0
INSERT
  5
89
  8
FUTO
  2
まっすぐの矢印
 10
17748.051659800451
 20
24787.476521161971
 30
0.0
 41
2.0
 42
2.0
 43
2.0
 50
90.0
  0
LINE
  5
AF
  8
CT
 10
19198.713270465589
 20
23221.034224501629
 30
0.0
 11
17978.132792285891
 21
23112.76685195927
 31
0.0
  0
LINE
  5
B2
  8
CT
 10
17653.35927142149
 20
23221.034224501629
 30
0.0
 11
21113.341376975692
 21
23221.034224501629
 31
0.0
  0
DIMENSION
  5
F5
  8
SP
  2
*D5
 10
17489.304181259999
 20
21891.034224501629
 30
0.0
 11
17409.304181259999
 21
22556.034224501629
 31
0.0
 70
     0
 13
17675.959581824951
 23
23221.034224501629
 33
0.0
 14
18173.60005813311
 24
21891.034224501629
 34
0.0
 50
90.0
1001
ACAD
1000
DSTYLE
1002
{
1070
    40
1040
40.0
1002
}
  0
LINE
  5
104
  8
CT
 10
19198.713270465589
 20
25211.299763065999
 30
0.0
 11
19198.713270465589
 21
21640.380049491421
 31
0.0
  0
LINE
  5
10B
  8
FUTO
 10
20592.657306146732
 20
22131.896939588019
 30
0.0
 11
19016.903045918971
 21
22776.798878935439
 31
0.0
  0
ARC
  5
10E
  8
FUTO
 10
20698.713270465589
 20
22391.034224501629
 30
0.0
 40
280.0
 50
247.74240502844651
 51
54.343159773977042
  0
LINE
  5
10F
  8
SL
 10
19055.626199603041
 20
22896.14795185846
 30
0.0
 11
20618.100836176829
 21
22207.999704702659
 31
0.0
  0
LINE
  5
110
  8
SL
 10
20810.970197591811
 20
22556.55879159721
 30
0.0
 11
19397.969316114632
 21
23514.840331096279
 31
0.0
  0
ARC
  5
111
  8
FUTO
 10
20698.713270465589
 20
22391.034224501629
 30
0.0
 40
310.0
 50
300.10230806831191
 51
239.897691931688
  0
LINE
  5
112
  8
CT
 10
20698.713270465589
 20
23055.80011042795
 30
0.0
 11
20698.713270465589
 21
22068.742908240489
 31
0.0
  0
LINE
  5
113
  8
FUTO
 10
20257.713270465589
 20
23212.034224501629
 30
0.0
 11
20257.713270465589
 21
23052.027104875138
 31
0.0
  0
LINE
  5
114
  8
FUTO
 10
19754.826553839281
 20
22474.792206093531
 30
0.0
 11
19898.713270465589
 21
22055.199119040051
 31
0.0
  0
LINE
  5
115
  8
FUTO
 10
18157.713270465589
 20
23212.034224501629
 30
0.0
 11
18157.713270465589
 21
22041.034224501629
 31
0.0
  0
LINE
  5
116
  8
FUTO
 10
18148.713270465589
 20
23212.034224501629
 30
0.0
 11
18148.713270465589
 21
22041.034224501629
 31
0.0
  0
LINE
  5
117
  8
FUTO
 10
20248.713270465589
 20
23230.034224501629
 30
0.0
 11
20248.713270465589
 21
23058.48398638767
 31
0.0
  0
LINE
  5
118
  8
FUTO
 10
20239.713270465589
 20
23230.034224501629
 30
0.0
 11
20239.713270465589
 21
23064.940867900212
 31
0.0
  0
LINE
  5
119
  8
CT
 10
20698.713270465589
 20
22104.532961501631
 30
0.0
 11
20698.713270465589
 21
22688.804640501628
 31
0.0
  0
LINE
  5
11D
  8
KL
 10
18856.664844641549
 20
23099.034224501629
 30
0.0
 11
18804.561061227829
 21
22947.092559264322
 31
0.0
  0
ARC
  5
122
  8
FUTO
 10
19309.213270465589
 20
23110.534224501629
 30
0.0
 40
1201.5
 50
172.27518828965921
 51
230.39010528819949
  0
ARC
  5
123
  8
KL
 10
19309.213270465589
 20
23110.534224501629
 30
0.0
 40
1181.4999999999991
 50
180.0
 51
270.99417894367201
  0
ARC
  5
124
  8
KL
 10
19329.713270465589
 20
23352.034224501629
 30
0.0
 40
1423.0
 50
270.0
 51
354.73663459410341
  0
DIMENSION
  5
13A
  8
SP
  2
*D11
 10
21138.713270465589
 20
21455.826845783329
 30
0.0
 11
20168.713270465589
 21
21535.826845783329
 31
0.0
 70
     0
 13
19198.713270465589
 23
21810.380049491421
 33
0.0
 14
21138.713270465589
 24
21891.034224501629
 34
0.0
 50
180.0
1001
ACAD
1000
DSTYLE
1002
{
1070
   287
1070
     4
1070
    40
1040
40.0
1070
    75
1070
     1
1070
   279
1070
     1
1070
   289
1070
     3
1002
}
  0
DIMENSION
  5
14A
  8
SP
  2
*D10
 10
21138.713270465589
 20
21137.1122951627
 30
0.0
 11
19638.713270465589
 21
21217.1122951627
 31
0.0
 70
     0
 13
18138.713270465589
 23
21891.034224501629
 33
0.0
 14
21138.713270465589
 24
21891.034224501629
 34
0.0
 50
180.0
1001
ACAD
1000
DSTYLE
1002
{
1070
    40
1040
40.0
1002
}
  0
LINE
  5
157
  8
FUTO
 10
18138.713270465589
 20
22029.034224501629
 30
0.0
 11
21138.713270465589
 21
22029.034224501629
 31
0.0
  0
LINE
  5
158
  8
FUTO
 10
18138.713270465589
 20
21903.034224501629
 30
0.0
 11
21138.713270465589
 21
21903.034224501629
 31
0.0
  0
LINE
  5
159
  8
FUTO
 10
18138.713270465589
 20
22041.034224501629
 30
0.0
 11
21138.713270465589
 21
22041.034224501629
 31
0.0
  0
LINE
  5
15A
  8
FUTO
 10
18138.713270465589
 20
21891.034224501629
 30
0.0
 11
21138.713270465589
 21
21891.034224501629
 31
0.0
1001
ACAD
1000
ASC_BOUNDS
1002
{
1070
    19
1005
0
1002
}
  0
LINE
  5
15B
  8
FUTO
 10
20418.713270465589
 20
22141.034224501629
 30
0.0
 11
20515.41024266736
 21
22141.034224501629
 31
0.0
  0
LINE
  5
15C
  8
FUTO
 10
20418.713270465589
 20
22111.034224501629
 30
0.0
 11
20528.713270465589
 21
22111.034224501629
 31
0.0
  0
LINE
  5
15D
  8
FUTO
 10
20598.713270465589
 20
22111.034224501629
 30
0.0
 11
20383.713270465589
 21
22111.034224501629
 31
0.0
  0
LINE
  5
15E
  8
FUTO
 10
20373.713270465589
 20
22041.034224501629
 30
0.0
 11
20598.713270465589
 21
22041.034224501629
 31
0.0
  0
LINE
  5
15F
  8
CT
 10
20361.25430627583
 20
22391.034224501629
 30
0.0
 11
21041.99049265862
 21
22391.034224501629
 31
0.0
  0
LINE
  5
175
  8
FUTO
 10
21013.713270465589
 20
22111.034224501629
 30
0.0
 11
20798.713270465589
 21
22111.034224501629
 31
0.0
  0
LINE
  5
176
  8
FUTO
 10
20798.713270465589
 20
22041.034224501629
 30
0.0
 11
21023.713270465589
 21
22041.034224501629
 31
0.0
  0
CIRCLE
  5
177
  8
SL
 10
20698.713270465589
 20
22391.034224501629
 30
0.0
 40
200.0
  0
LINE
  5
178
  8
FUTO
 10
20978.713270465589
 20
22257.992877545079
 30
0.0
 11
20978.713270465589
 21
22111.034224501629
 31
0.0
  0
LINE
  5
179
  8
FUTO
 10
21138.713270465589
 20
22041.034224501629
 30
0.0
 11
21138.713270465589
 21
21891.034224501629
 31
0.0
  0
LINE
  5
17B
  8
CT
 10
20927.213270465589
 20
22156.203672991269
 30
0.0
 11
20927.213270465589
 21
22068.742908240489
 31
0.0
  0
LINE
  5
17C
  8
FUTO
 10
20882.016298263821
 20
22141.034224501629
 30
0.0
 11
20978.713270465589
 21
22141.034224501629
 31
0.0
  0
LINE
  5
17D
  8
FUTO
 10
20868.713270465589
 20
22131.804596565318
 30
0.0
 11
20868.713270465589
 21
22111.034224501629
 31
0.0
  0
LINE
  5
17E
  8
FUTO
 10
20868.713270465589
 20
22111.034224501629
 30
0.0
 11
20978.713270465589
 21
22111.034224501629
 31
0.0
  0
LINE
  5
17F
  8
FUTO
 10
21023.713270465589
 20
22041.034224501629
 30
0.0
 11
21013.713270465589
 21
22111.034224501629
 31
0.0
  0
LINE
  5
180
  8
CT
 10
20698.713270465589
 20
21899.61583931317
 30
0.0
 11
20698.713270465589
 21
22565.132238698228
 31
0.0
  0
LINE
  5
181
  8
FUTO
 10
20543.23413818999
 20
22122.843547134162
 30
0.0
 11
20854.192402741199
 21
22122.843547134162
 31
0.0
  0
LINE
  5
182
  8
FUTO
 10
20798.713270465589
 20
22101.034224501629
 30
0.0
 11
20598.713270465589
 21
22101.034224501629
 31
0.0
  0
LINE
  5
183
  8
FUTO
 10
20798.713270465589
 20
22051.034224501629
 30
0.0
 11
20598.713270465589
 21
22051.034224501629
 31
0.0
  0
LINE
  5
184
  8
FUTO
 10
20798.713270465589
 20
22101.034224501629
 30
0.0
 11
20798.713270465589
 21
22111.034224501629
 31
0.0
  0
LINE
  5
185
  8
FUTO
 10
20798.713270465589
 20
22041.034224501629
 30
0.0
 11
20798.713270465589
 21
22051.034224501629
 31
0.0
  0
LINE
  5
186
  8
CT
 10
20470.213270465589
 20
22156.203672991269
 30
0.0
 11
20470.213270465589
 21
22064.578109919021
 31
0.0
  0
LINE
  5
187
  8
FUTO
 10
20528.713270465589
 20
22131.804596565318
 30
0.0
 11
20528.713270465589
 21
22111.034224501629
 31
0.0
  0
LINE
  5
188
  8
FUTO
 10
20598.713270465589
 20
22101.034224501629
 30
0.0
 11
20598.713270465589
 21
22111.034224501629
 31
0.0
  0
LINE
  5
189
  8
FUTO
 10
20455.713270465589
 20
22111.034224501629
 30
0.0
 11
20555.713270465589
 21
22111.034224501629
 31
0.0
  0
LINE
  5
18A
  8
FUTO
 10
20598.713270465589
 20
22041.034224501629
 30
0.0
 11
20598.713270465589
 21
22051.034224501629
 31
0.0
  0
ARC
  5
1A4
  8
FUTO
 10
19329.713270465589
 20
23352.034224501629
 30
0.0
 40
1443.0
 50
294.69784295846279
 51
310.93164026379389
  0
LINE
  5
1A7
  8
FUTO
 10
20418.713270465589
 20
22257.992877545101
 30
0.0
 11
20418.713270465589
 21
22111.034224501629
 31
0.0
  0
LINE
  5
1A8
  8
FUTO
 10
20241.82347235355
 20
22259.796164547701
 30
0.0
 11
20283.82006822047
 21
22210.147532015049
 31
0.0
  0
LINE
  5
1A9
  8
FUTO
 10
20255.56630692109
 20
22271.420901019941
 30
0.0
 11
20297.56290278802
 21
22221.772268487301
 31
0.0
  0
LINE
  5
1AA
  8
FUTO
 10
20248.713270465589
 20
22265.5868028562
 30
0.0
 11
20290.691485504249
 21
22215.959900251171
 31
0.0
  0
LINE
  5
1AB
  8
FUTO
 10
20383.713270465589
 20
22111.034224501629
 30
0.0
 11
20373.713270465589
 21
22041.034224501629
 31
0.0
  0
LINE
  5
1AC
  8
FUTO
 10
20283.820068220459
 20
22210.147532015038
 30
0.0
 11
20297.56290278802
 21
22221.772268487301
 31
0.0
  0
LINE
  5
1AE
  8
KL
 10
19823.713270465589
 20
22041.034224501629
 30
0.0
 11
19823.713270465589
 21
21891.034224501629
 31
0.0
  0
LINE
  5
1AF
  8
FUTO
 10
19889.713270465589
 20
22041.034224501629
 30
0.0
 11
19889.713270465589
 21
21891.034224501629
 31
0.0
  0
LINE
  5
1B0
  8
FUTO
 10
19907.713270465589
 20
22041.034224501629
 30
0.0
 11
19907.713270465589
 21
21891.034224501629
 31
0.0
  0
LINE
  5
1B1
  8
FUTO
 10
19898.713270465589
 20
22041.034224501629
 30
0.0
 11
19898.713270465589
 21
21891.034224501629
 31
0.0
  0
LINE
  5
1B2
  8
KL
 10
19898.713270465589
 20
22055.199119040051
 30
0.0
 11
19898.713270465589
 21
21891.034224501629
 31
0.0
  0
DIMENSION
  5
1B3
  8
SP
  2
*D12
 10
19198.713270465589
 20
21455.826845783329
 30
0.0
 11
18668.713270465589
 21
21535.826845783329
 31
0.0
 70
     0
 13
18138.713270465589
 23
21891.034224501629
 33
0.0
 14
19198.713270465589
 24
21810.380049491421
 34
0.0
 50
180.0
1001
ACAD
1000
DSTYLE
1002
{
1070
    40
1040
40.0
1002
}
  0
LINE
  5
1EC
  8
KL
 10
18573.713270465589
 20
22041.034224501629
 30
0.0
 11
18573.713270465589
 21
21891.034224501629
 31
0.0
  0
LINE
  5
1ED
  8
FUTO
 10
18498.713270465589
 20
22041.034224501629
 30
0.0
 11
18498.713270465589
 21
21891.034224501629
 31
0.0
  0
LINE
  5
1EE
  8
KL
 10
18498.713270465589
 20
22055.199119040051
 30
0.0
 11
18498.713270465589
 21
21891.034224501629
 31
0.0
  0
LINE
  5
1EF
  8
FUTO
 10
18138.713270465589
 20
22041.034224501629
 30
0.0
 11
18138.713270465589
 21
21891.034224501629
 31
0.0
  0
LINE
  5
1F0
  8
FUTO
 10
20887.593184910431
 20
27848.471949291259
 30
0.0
 11
20887.593184910431
 21
27696.471949291259
 31
0.0
  0
LINE
  5
1F1
  8
FUTO
 10
21138.713270465589
 20
27923.471949291259
 30
0.0
 11
21138.713270465589
 21
27848.471949291259
 31
0.0
  0
LINE
  5
1F2
  8
CT
 10
20698.713270465589
 20
27773.843837849381
 30
0.0
 11
20698.713270465589
 21
26230.377126244599
 31
0.0
  0
LINE
  5
1F3
  8
FUTO
 10
19898.713270465589
 20
27848.471949291252
 30
0.0
 11
19898.713270465589
 21
26476.471949291252
 31
0.0
  0
LINE
  5
1F4
  8
FUTO
 10
19823.713270465589
 20
27848.471949291252
 30
0.0
 11
19823.713270465589
 21
26551.471949291259
 31
0.0
  0
LINE
  5
1F5
  8
FUTO
 10
18573.713270465589
 20
27848.471949291252
 30
0.0
 11
18573.713270465589
 21
26551.471949291252
 31
0.0
  0
LINE
  5
1F6
  8
FUTO
 10
18498.713270465589
 20
27848.471949291252
 30
0.0
 11
18498.713270465589
 21
26476.471949291252
 31
0.0
  0
DIMENSION
  5
253
  8
SP
  2
*D13
 10
19198.713270465589
 20
25682.832240664229
 30
0.0
 11
18616.213270465589
 21
25762.832240664229
 31
0.0
 70
     0
 13
18033.713270465589
 23
25211.034224501629
 33
0.0
 14
19198.713270465589
 24
25211.299763065999
 34
0.0
 50
180.0
1001
ACAD
1000
DSTYLE
1002
{
1070
    40
1040
40.0
1002
}
  0
LINE
  5
262
  8
KL
 10
19540.761696289632
 20
23099.034224501629
 30
0.0
 11
19754.826553839281
 21
22474.792206093542
 31
0.0
  0
ARC
  5
263
  8
FUTO
 10
19198.713270465589
 20
23221.034224501629
 30
0.0
 40
480.0
 50
54.343159773977021
 51
247.74240502844651
  0
LINE
  5
264
  8
FUTO
 10
20861.933479910182
 20
22618.540627112339
 30
0.0
 11
19478.519343799169
 21
23611.045200405701
 31
0.0
  0
LINE
  5
265
  8
FUTO
 10
19498.713270465589
 20
23099.034224501629
 30
0.0
 11
19540.761696289632
 21
23099.034224501629
 31
0.0
  0
LINE
  5
267
  8
FUTO
 10
20796.713270465589
 20
23212.034224501629
 30
0.0
 11
20034.685470769731
 21
23212.034224501629
 31
0.0
  0
LINE
  5
268
  8
FUTO
 10
20796.713270465589
 20
23230.034224501629
 30
0.0
 11
20009.59595972862
 21
23230.034224501629
 31
0.0
  0
ARC
  5
269
  8
FUTO
 10
19067.713270465589
 20
23352.034224501629
 30
0.0
 40
1705.0
 50
355.89673679108768
 51
85.593459492743051
  0
ARC
  5
26A
  8
KL
 10
19067.713270465589
 20
23352.034224501629
 30
0.0
 40
1685.0
 50
4.8366232341939783
 51
84.612059138996784
  0
LINE
  5
26D
  8
FUTO
 10
20239.713270465589
 20
24590.356072810871
 30
0.0
 11
20239.713270465589
 21
23221.034224501629
 31
0.0
  0
LINE
  5
26E
  8
FUTO
 10
20248.713270465589
 20
24581.775660739338
 30
0.0
 11
20248.713270465589
 21
23221.034224501629
 31
0.0
  0
LINE
  5
26F
  8
KL
 10
20746.713270465589
 20
23221.496873524979
 30
0.0
 11
20746.713270465589
 21
23494.10462958306
 31
0.0
  0
LINE
  5
272
  8
CT
 10
20800.419685089859
 20
22841.034224501629
 30
0.0
 11
20954.716622609551
 21
22841.034224501629
 31
0.0
  0
LINE
  5
273
  8
FUTO
 10
20488.713270465589
 20
22981.034224501629
 30
0.0
 11
20878.713270465589
 21
22981.034224501629
 31
0.0
  0
LINE
  5
274
  8
FUTO
 10
20488.713270465589
 20
22716.034224501629
 30
0.0
 11
20878.713270465589
 21
22716.034224501629
 31
0.0
  0
ARC
  5
275
  8
FUTO
 10
20878.713270465589
 20
22961.034224501629
 30
0.0
 40
20.0
 50
0.000000000000007
 51
90.0
  0
ARC
  5
276
  8
FUTO
 10
20878.713270465589
 20
22736.034224501629
 30
0.0
 40
20.0
 50
270.0
 51
0.000000000000007
  0
LINE
  5
277
  8
FUTO
 10
20898.713270465589
 20
22961.034224501629
 30
0.0
 11
20898.713270465589
 21
22736.034224501629
 31
0.0
  0
ARC
  5
279
  8
FUTO
 10
20488.713270465589
 20
22961.034224501629
 30
0.0
 40
20.0
 50
90.0
 51
180.0
  0
LINE
  5
27A
  8
KL
 10
20645.066913267819
 20
22810.394312413431
 30
0.0
 11
20681.380151234491
 21
22793.46117145718
 31
0.0
  0
LINE
  5
27B
  8
CT
 10
20582.034066610111
 20
22768.06744679268
 30
0.0
 11
20688.98034984617
 21
22718.197575908489
 31
0.0
  0
LINE
  5
27C
  8
KL
 10
20694.669411722269
 20
22798.298066710129
 30
0.0
 11
20631.276672461161
 21
22662.351898654641
 31
0.0
  0
LINE
  5
27D
  8
KL
 10
20681.380151234491
 20
22793.46117145718
 30
0.0
 11
20626.439777208201
 21
22675.641159142411
 31
0.0
  0
LINE
  5
27E
  8
KL
 10
20649.29309588523
 20
22819.457390283809
 30
0.0
 11
20694.669411722269
 21
22798.298066710129
 31
0.0
  0
LINE
  5
27F
  8
KL
 10
20585.90035662413
 20
22683.51122222831
 30
0.0
 11
20631.276672461161
 21
22662.351898654641
 31
0.0
  0
LINE
  5
280
  8
KL
 10
20590.126539241541
 20
22692.57430009868
 30
0.0
 11
20626.439777208201
 21
22675.641159142411
 31
0.0
  0
ARC
  5
281
  8
FUTO
 10
20488.713270465589
 20
22736.034224501629
 30
0.0
 40
20.0
 50
180.0
 51
270.0
  0
LINE
  5
282
  8
FUTO
 10
20468.713270465589
 20
22961.034224501629
 30
0.0
 11
20468.713270465589
 21
22736.034224501629
 31
0.0
  0
LINE
  5
283
  8
FUTO
 10
20796.713270465589
 20
23230.034224501629
 30
0.0
 11
20796.713270465589
 21
23212.034224501629
 31
0.0
  0
ARC
  5
284
  8
FUTO
 10
19329.713270465589
 20
23352.034224501629
 30
0.0
 40
1443.0
 50
345.1017511652517
 51
354.43239996147793
  0
LINE
  5
285
  8
FUTO
 10
18098.713270465589
 20
23223.034224501629
 30
0.0
 11
18098.713270465589
 21
25211.034224501629
 31
0.0
  0
LINE
  5
286
  8
FUTO
 10
18033.713270465589
 20
23435.593996533971
 30
0.0
 11
18033.713270465589
 21
24462.996165278761
 31
0.0
  0
LINE
  5
287
  8
FUTO
 10
18033.713270465589
 20
23435.593996533971
 30
0.0
 11
18033.713270465589
 21
25211.034224501629
 31
0.0
  0
LINE
  5
288
  8
FUTO
 10
18039.713270465589
 20
23434.536034649718
 30
0.0
 11
18039.713270465589
 21
24468.996165278761
 31
0.0
  0
LINE
  5
289
  8
FUTO
 10
18157.7132704656
 20
25150.427861761229
 30
0.0
 11
18157.713270465589
 21
23230.034224501629
 31
0.0
  0
LINE
  5
28A
  8
FUTO
 10
18148.713270465589
 20
25151.276701108662
 30
0.0
 11
18148.713270465589
 21
23230.034224501629
 31
0.0
  0
LINE
  5
291
  8
KL
 10
19000.49245622829
 20
23194.4163958317
 30
0.0
 11
18721.469755630489
 21
23169.666651580141
 31
0.0
  0
LINE
  5
292
  8
KL
 10
18998.902072724472
 20
23212.345999293881
 30
0.0
 11
18719.879372126681
 21
23187.596255042321
 31
0.0
  0
CIRCLE
  5
295
  8
SL
 10
19198.713270465589
 20
23221.034224501629
 30
0.0
 40
355.0
  0
ARC
  5
296
  8
FUTO
 10
19146.713270465589
 20
23311.100866495221
 30
0.0
 40
15.000000000000099
 50
25.864502996822029
 51
214.135497003171
  0
ARC
  5
297
  8
FUTO
 10
19198.713270465589
 20
23221.034224501629
 30
0.0
 40
103.9999999999995
 50
68.270994006339393
 51
111.7290059936601
  0
LINE
  5
298
  8
CT
 10
19198.713270465589
 20
23344.802983666341
 30
0.0
 11
19198.713270465589
 21
23091.210500599511
 31
0.0
  0
ARC
  5
299
  8
FUTO
 10
19250.713270465589
 20
23311.100866495221
 30
0.0
 40
15.000000000000201
 50
325.8645029968294
 51
154.13549700317759
  0
ARC
  5
29E
  8
FUTO
 10
19146.713270465589
 20
23130.967582508049
 30
0.0
 40
14.99999999999998
 50
145.86450299682841
 51
334.13549700317782
  0
CIRCLE
  5
29F
  8
FUTO
 10
19198.713270465589
 20
23221.034224501629
 30
0.0
 40
41.5
  0
LINE
  5
2A0
  8
FUTO
 10
19283.713270465589
 20
23114.034224501629
 30
0.0
 11
19113.713270465589
 21
23114.034224501629
 31
0.0
  0
LINE
  5
2A2
  8
KL
 10
18856.664844641549
 20
23099.034224501629
 30
0.0
 11
19198.713270465589
 21
23099.034224501629
 31
0.0
  0
LINE
  5
2A4
  8
FUTO
 10
19322.713270465589
 20
23145.034224501629
 30
0.0
 11
19390.713270465589
 21
23145.034224501629
 31
0.0
  0
LINE
  5
2A5
  8
FUTO
 10
19403.713270465589
 20
23109.034224501629
 30
0.0
 11
19283.713270465589
 21
23109.034224501629
 31
0.0
  0
LINE
  5
2A6
  8
KL
 10
19540.761696289632
 20
23099.034224501629
 30
0.0
 11
19198.713270465589
 21
23099.034224501629
 31
0.0
  0
LINE
  5
2A7
  8
FUTO
 10
19403.713270465589
 20
23109.034224501629
 30
0.0
 11
19403.713270465589
 21
23099.034224501629
 31
0.0
  0
ARC
  5
2A8
  8
FUTO
 10
19390.713270465589
 20
23142.034224501629
 30
0.0
 40
3.0
 50
0.000000000000007
 51
90.0
  0
LINE
  5
2A9
  8
FUTO
 10
19393.713270465589
 20
23142.034224501629
 30
0.0
 11
19393.713270465589
 21
23109.034224501629
 31
0.0
  0
LINE
  5
2AA
  8
KL
 10
19398.713270465589
 20
23230.034224501629
 30
0.0
 11
19398.713270465589
 21
23212.034224501629
 31
0.0
  0
ARC
  5
2AD
  8
FUTO
 10
19198.713270465589
 20
23221.034224501629
 30
0.0
 40
104.0000000000007
 50
248.27099400633949
 51
291.72900599365971
  0
ARC
  5
2AE
  8
FUTO
 10
19302.713270465589
 20
23221.034224501629
 30
0.0
 40
15.0
 50
265.86450299682951
 51
94.135497003170499
  0
ARC
  5
2AF
  8
FUTO
 10
19322.713270465589
 20
23165.034224501629
 30
0.0
 40
20.0
 50
180.0
 51
270.0
  0
LINE
  5
2B0
  8
FUTO
 10
19283.713270465589
 20
23109.034224501629
 30
0.0
 11
19283.713270465589
 21
23114.034224501629
 31
0.0
  0
LINE
  5
2B1
  8
CT
 10
19358.713270465589
 20
23099.034224501629
 30
0.0
 11
19358.713270465589
 21
23155.034224501629
 31
0.0
  0
LINE
  5
2B2
  8
FUTO
 10
19302.713270465589
 20
23206.034224501629
 30
0.0
 11
19302.713270465589
 21
23165.034224501629
 31
0.0
  0
ARC
  5
2B3
  8
FUTO
 10
19250.713270465589
 20
23130.967582508049
 30
0.0
 40
14.999999999999719
 50
205.86450299682281
 51
34.135497003170862
  0
ARC
  5
2B4
  8
FUTO
 10
19198.713270465589
 20
23221.034224501629
 30
0.0
 40
104.0000000000002
 50
308.27099400633909
 51
351.72900599365983
  0
ARC
  5
2B5
  8
FUTO
 10
19198.713270465589
 20
23221.034224501629
 30
0.0
 40
103.9999999999998
 50
8.2709940063395706
 51
51.729005993660287
  0
LINE
  5
2B6
  8
KL
 10
18998.902072724472
 20
23212.345999293881
 30
0.0
 11
19000.49245622829
 21
23194.4163958317
 31
0.0
  0
LINE
  5
2B7
  8
FUTO
 10
18993.713270465589
 20
23099.034224501629
 30
0.0
 11
18993.713270465589
 21
23109.034224501629
 31
0.0
  0
ARC
  5
2B8
  8
FUTO
 10
19006.713270465589
 20
23142.034224501629
 30
0.0
 40
3.0
 50
90.0
 51
180.0
  0
LINE
  5
2B9
  8
FUTO
 10
19003.713270465589
 20
23109.034224501629
 30
0.0
 11
19003.713270465589
 21
23142.034224501629
 31
0.0
  0
LINE
  5
2BA
  8
CT
 10
19038.713270465589
 20
23099.034224501629
 30
0.0
 11
19038.713270465589
 21
23155.034224501629
 31
0.0
  0
LINE
  5
2BB
  8
FUTO
 10
19006.713270465589
 20
23145.034224501629
 30
0.0
 11
19074.713270465589
 21
23145.034224501629
 31
0.0
  0
LINE
  5
2BC
  8
FUTO
 10
19094.713270465589
 20
23165.034224501629
 30
0.0
 11
19094.713270465589
 21
23206.034224501629
 31
0.0
  0
ARC
  5
2BD
  8
FUTO
 10
19074.713270465589
 20
23165.034224501629
 30
0.0
 40
20.0
 50
270.0
 51
0.000000000000007
  0
LINE
  5
2BE
  8
FUTO
 10
19113.713270465589
 20
23114.034224501629
 30
0.0
 11
19113.713270465589
 21
23109.034224501629
 31
0.0
  0
LINE
  5
2BF
  8
FUTO
 10
19113.713270465589
 20
23109.034224501629
 30
0.0
 11
18993.713270465589
 21
23109.034224501629
 31
0.0
  0
ARC
  5
2C0
  8
FUTO
 10
19094.713270465589
 20
23221.034224501629
 30
0.0
 40
15.0
 50
85.864502996829515
 51
270.0
  0
ARC
  5
2C1
  8
FUTO
 10
19198.713270465589
 20
23221.034224501629
 30
0.0
 40
103.9999999999998
 50
188.27099400633949
 51
231.72900599366031
  0
ARC
  5
2C2
  8
FUTO
 10
19198.713270465589
 20
23221.034224501629
 30
0.0
 40
103.9999999999994
 50
128.27099400633961
 51
171.72900599366019
  0
INSERT
  5
2C5
  8
FUTO
  2
左回転矢印
 10
19011.278663913341
 20
23919.473297850571
 30
0.0
 41
2.0
 42
2.0
 43
2.0
  0
LINE
  5
2D0
  8
FUTO
 10
19171.658767948491
 20
23321.453614529411
 30
0.0
 11
19171.658767948491
 21
23325.034224501629
 31
0.0
  0
LINE
  5
2D1
  8
FUTO
 10
19225.767772982701
 20
23321.453614529411
 30
0.0
 11
19225.767772982701
 21
23325.034224501629
 31
0.0
  0
LINE
  5
2D2
  8
FUTO
 10
19225.767772982701
 20
23325.034224501629
 30
0.0
 11
19171.658767948491
 21
23325.034224501629
 31
0.0
  0
LINE
  5
2D3
  8
FUTO
 10
18039.713270465589
 20
23223.034224501629
 30
0.0
 11
18039.713270465589
 21
23470.382615441758
 31
0.0
  0
LINE
  5
2D4
  8
FUTO
 10
18033.713270465589
 20
23223.034224501629
 30
0.0
 11
18033.713270465589
 21
23471.721198600721
 31
0.0
  0
LINE
  5
2D5
  8
FUTO
 10
18033.713270465589
 20
23223.034224501629
 30
0.0
 11
18033.713270465589
 21
23417.316317520021
 31
0.0
  0
ARC
  5
2D6
  8
KL
 10
19088.213270465589
 20
23110.534224501629
 30
0.0
 40
960.5
 50
144.2993633955663
 51
180.0
  0
LINE
  5
2D8
  8
FUTO
 10
18118.616781305642
 20
23272.034224501629
 30
0.0
 11
18033.713270465589
 21
23272.034224501629
 31
0.0
  0
LINE
  5
2D9
  8
FUTO
 10
18098.713270465589
 20
23223.034224501629
 30
0.0
 11
18033.713270465589
 21
23223.034224501629
 31
0.0
  0
LINE
  5
2DA
  8
FUTO
 10
18098.713270465589
 20
23223.034224501629
 30
0.0
 11
18033.713270465589
 21
23223.034224501629
 31
0.0
  0
LINE
  5
2DB
  8
KL
 10
18145.017638584271
 20
23292.034224501629
 30
0.0
 11
18033.713270465589
 21
23292.034224501629
 31
0.0
  0
LINE
  5
2DC
  8
FUTO
 10
18010.945980058561
 20
23124.712768833178
 30
0.0
 11
18008.536319355491
 21
23106.42835527526
 31
0.0
  0
LINE
  5
2DD
  8
FUTO
 10
18033.713270465589
 20
25162.122981659231
 30
0.0
 11
19227.8106795149
 21
25049.501107717821
 31
0.0
  0
LINE
  5
2DE
  8
KL
 10
18033.713270465589
 20
25142.034224501629
 30
0.0
 11
19225.932704042181
 21
25029.589472724081
 31
0.0
  0
LINE
  5
2E3
  8
FUTO
 10
18039.713270465589
 20
24468.996165278761
 30
0.0
 11
18039.713270465589
 21
25211.034224501629
 31
0.0
  0
LINE
  5
2E4
  8
FUTO
 10
18098.713270465589
 20
25211.034224501629
 30
0.0
 11
18033.713270465589
 21
25211.034224501629
 31
0.0
  0
LINE
  5
2FF
  8
FUTO
 10
21138.713270465589
 20
26551.471949291259
 30
0.0
 11
18498.713270465589
 21
26551.471949291252
 31
0.0
  0
LINE
  5
300
  8
FUTO
 10
21138.713270465589
 20
26476.471949291259
 30
0.0
 11
18498.713270465589
 21
26476.471949291252
 31
0.0
  0
LINE
  5
3C8
  8
FUTO
 10
20752.713270465589
 20
29251.471949291252
 30
0.0
 11
18033.713270465589
 21
29251.471949291252
 31
0.0
  0
LINE
  5
3C9
  8
FUTO
 10
20258.713270465589
 20
27923.471949291259
 30
0.0
 11
18033.713270465589
 21
27923.471949291252
 31
0.0
  0
LINE
  5
3CA
  8
FUTO
 10
20258.713270465589
 20
27848.471949291259
 30
0.0
 11
18138.713270465589
 21
27848.471949291252
 31
0.0
  0
LINE
  5
3CB
  8
FUTO
 10
20258.713270465589
 20
29326.471949291259
 30
0.0
 11
18138.713270465589
 21
29326.471949291252
 31
0.0
  0
LINE
  5
3DA
  8
FUTO
 10
21138.713270465589
 20
27848.471949291259
 30
0.0
 11
19898.713270465589
 21
27848.471949291259
 31
0.0
  0
LINE
  5
3DB
  8
FUTO
 10
21138.713270465589
 20
27923.471949291259
 30
0.0
 11
20802.713270465589
 21
27923.471949291259
 31
0.0
  0
LINE
  5
406
  8
FUTO
 10
18138.713270465589
 20
27848.471949291252
 30
0.0
 11
18138.7132704656
 21
27873.471949291252
 31
0.0
  0
LINE
  5
438
  8
SL
 10
22109.288715425781
 20
23499.40802450163
 30
0.0
 11
22109.288715425781
 21
22499.40802450163
 31
0.0
  0
LINE
  5
439
  8
SL
 10
21939.288715425781
 20
23499.40802450163
 30
0.0
 11
21939.288715425781
 21
22499.40802450163
 31
0.0
  0
LINE
  5
43A
  8
CT
 10
24239.288715425781
 20
25402.776620833381
 30
0.0
 11
24239.288715425781
 21
21700.107155901711
 31
0.0
  0
LINE
  5
43C
  8
FUTO
 10
24902.488715425781
 20
22041.034207895649
 30
0.0
 11
24902.488715425781
 21
23288.108024501631
 31
0.0
  0
LINE
  5
43D
  8
FUTO
 10
24899.288715425781
 20
22041.034207895649
 30
0.0
 11
24899.288715425781
 21
23288.108024501631
 31
0.0
  0
LINE
  5
43E
  8
FUTO
 10
23579.288715425781
 20
22041.034207895649
 30
0.0
 11
23579.288715425781
 21
23288.108024501631
 31
0.0
  0
LINE
  5
43F
  8
FUTO
 10
23576.08871542578
 20
22041.034207895649
 30
0.0
 11
23576.08871542578
 21
23288.108024501631
 31
0.0
  0
LINE
  5
441
  8
FUTO
 10
22139.288715425781
 20
23599.408024501641
 30
0.0
 11
22139.288715425781
 21
22139.40802450163
 31
0.0
  0
LINE
  5
442
  8
FUTO
 10
21789.288715425781
 20
23599.408024501641
 30
0.0
 11
21789.288715425781
 21
22139.40802450163
 31
0.0
  0
LINE
  5
445
  8
FUTO
 10
23189.288715425781
 20
23069.408024501641
 30
0.0
 11
23189.28871542577
 21
23059.40802450163
 31
0.0
  0
LINE
  5
446
  8
FUTO
 10
23369.288715425781
 20
23069.408024501641
 30
0.0
 11
23369.288715425781
 21
22041.034207895649
 31
0.0
  0
LINE
  5
449
  8
FUTO
 10
22368.288715425781
 20
23097.40802450163
 30
0.0
 11
22368.288715425781
 21
23059.408024501641
 31
0.0
  0
LINE
  5
44A
  8
FUTO
 10
22188.288715425781
 20
23097.40802450163
 30
0.0
 11
22188.288715425781
 21
22699.40802450163
 31
0.0
  0
DIMENSION
  5
44B
  8
SP
  2
*D18
 10
25614.29685763751
 20
22319.40802450163
 30
0.0
 11
25534.29685763751
 21
23219.408024501641
 31
0.0
 70
     0
  1
%%C<>
 13
25034.288715425781
 23
24119.408024501641
 33
0.0
 14
25034.288715425781
 24
22319.40802450163
 34
0.0
 50
90.0
1001
ACAD
1000
DSTYLE
1002
{
1070
    40
1040
40.0
1002
}
  0
LINE
  5
461
  8
KL
 10
24908.488715425781
 20
24184.408024501641
 30
0.0
 11
24908.488715425781
 21
22254.40802450163
 31
0.0
  0
LINE
  5
462
  8
FUTO
 10
25028.288715425781
 20
24184.408024501641
 30
0.0
 11
25028.288715425781
 21
22254.40802450163
 31
0.0
  0
LINE
  5
463
  8
FUTO
 10
25034.288715425781
 20
24184.408024501641
 30
0.0
 11
25034.288715425781
 21
22254.40802450163
 31
0.0
  0
LINE
  5
464
  8
FUTO
 10
23486.08871542578
 20
23194.388869195889
 30
0.0
 11
23486.08871542578
 21
22041.034207895649
 31
0.0
  0
LINE
  5
465
  8
FUTO
 10
24992.488715425781
 20
23194.388869195889
 30
0.0
 11
24992.488715425781
 21
22041.034207895649
 31
0.0
  0
LINE
  5
46D
  8
FUTO
 10
23500.288715425781
 20
21903.034207895649
 30
0.0
 11
24903.28471542578
 21
21903.034207895649
 31
0.0
  0
LINE
  5
46E
  8
FUTO
 10
23500.288715425781
 20
22029.034207895649
 30
0.0
 11
24903.28471542578
 21
22029.034207895649
 31
0.0
  0
LINE
  5
46F
  8
KL
 10
23579.288715425781
 20
21927.40802450163
 30
0.0
 11
24899.288715425781
 21
21927.40802450163
 31
0.0
  0
LINE
  5
471
  8
FUTO
 10
22128.288715425781
 20
21891.034207895649
 30
0.0
 11
24978.288715425781
 21
21891.034207895649
 31
0.0
1001
ACAD
1000
ASC_BOUNDS
1002
{
1070
    19
1005
0
1005
0
1005
0
1002
}
  0
DIMENSION
  5
472
  8
SP
  2
*D15
 10
24239.288715425781
 20
21451.553595131329
 30
0.0
 11
23183.788715425781
 21
21531.553595131329
 31
0.0
 70
     0
 13
22128.288715425781
 23
21891.034207895649
 33
0.0
 14
24239.288715425781
 24
21870.107155901711
 34
0.0
1001
ACAD
1000
DSTYLE
1002
{
1070
    40
1040
40.0
1002
}
  0
DIMENSION
  5
47F
  8
SP
  2
*D14
 10
24978.288715425781
 20
21151.51605016641
 30
0.0
 11
23553.288715425781
 21
21231.51605016641
 31
0.0
 70
     0
 13
22128.288715425781
 23
21891.034207895649
 33
0.0
 14
24978.288715425781
 24
21891.034207895649
 34
0.0
1001
ACAD
1000
DSTYLE
1002
{
1070
    40
1040
40.0
1002
}
  0
LINE
  5
48D
  8
FUTO
 10
22128.288715425781
 20
22041.034207895649
 30
0.0
 11
24992.488715425781
 21
22041.034207895649
 31
0.0
  0
LINE
  5
48E
  8
CT
 10
21730.979443876869
 20
22389.408024501641
 30
0.0
 11
22311.48197673299
 21
22389.408024501641
 31
0.0
  0
LINE
  5
493
  8
FUTO
 10
22203.292715425781
 20
22029.034207895649
 30
0.0
 11
23482.3988200313
 21
22029.034207895649
 31
0.0
  0
LINE
  5
494
  8
FUTO
 10
22203.292715425781
 20
21903.034207895649
 30
0.0
 11
23482.3988200313
 21
21903.034207895649
 31
0.0
  0
LINE
  5
495
  8
CT
 10
22163.292715425781
 20
21903.936007708839
 30
0.0
 11
22163.292715425781
 21
21849.72923280469
 31
0.0
  0
LINE
  5
4BB
  8
SL
 10
22109.288715425781
 20
22499.40802450163
 30
0.0
 11
22109.288715425781
 21
22249.40802450163
 31
0.0
  0
LINE
  5
4BC
  8
SL
 10
21939.288715425781
 20
22499.40802450163
 30
0.0
 11
21939.288715425781
 21
22249.40802450163
 31
0.0
  0
LINE
  5
4BD
  8
SL
 10
21939.288715425781
 20
22249.40802450163
 30
0.0
 11
22109.288715425781
 21
22249.40802450163
 31
0.0
  0
LINE
  5
4BE
  8
FUTO
 10
21789.288715425781
 20
22139.40802450163
 30
0.0
 11
22139.288715425781
 21
22139.40802450163
 31
0.0
  0
LINE
  5
4C1
  8
FUTO
 10
22128.288715425781
 20
21891.034207895649
 30
0.0
 11
22203.288715425781
 21
21891.034207895649
 31
0.0
  0
LINE
  5
4C2
  8
FUTO
 10
22128.288715425781
 20
21891.034207895649
 30
0.0
 11
22128.288715425781
 21
21893.456207895651
 31
0.0
  0
LINE
  5
4C3
  8
FUTO
 10
22132.85571542578
 20
21898.437207895651
 30
0.0
 11
22187.65971542578
 21
21903.23420789565
 31
0.0
  0
ARC
  5
4C4
  8
FUTO
 10
22132.292715425781
 20
22037.696019317478
 30
0.0
 40
4.0
 50
180.0
 51
264.99999999999977
  0
LINE
  5
4C5
  8
FUTO
 10
22128.292715425781
 20
22041.034207895649
 30
0.0
 11
22128.292715425781
 21
22037.696019317478
 31
0.0
  0
LINE
  5
4C6
  8
FUTO
 10
22128.292715425781
 20
21891.034207895649
 30
0.0
 11
22128.292715425781
 21
21894.372396473809
 31
0.0
  0
ARC
  5
4C7
  8
FUTO
 10
22132.292715425781
 20
21894.372396473809
 30
0.0
 40
4.0
 50
95.000000000000185
 51
180.0
  0
ARC
  5
4C8
  8
FUTO
 10
22192.792715425781
 20
22024.372396473809
 30
0.0
 40
4.0
 50
0.0
 51
85.000000000000256
  0
LINE
  5
4C9
  8
FUTO
 10
22203.292715425781
 20
22041.034207895649
 30
0.0
 11
22203.292715425781
 21
21891.034207895649
 31
0.0
  0
ARC
  5
4CA
  8
FUTO
 10
22192.792715425781
 20
21907.696019317478
 30
0.0
 40
4.0
 50
274.99999999999972
 51
0.0
  0
LINE
  5
4CB
  8
FUTO
 10
22196.792715425781
 20
22024.372396473809
 30
0.0
 11
22196.792715425781
 21
21907.696019317478
 31
0.0
  0
LINE
  5
4CC
  8
FUTO
 10
22193.14133839677
 20
22028.357175266181
 30
0.0
 11
22131.944092454789
 21
22033.711240525121
 31
0.0
  0
LINE
  5
4CD
  8
FUTO
 10
22203.292715425781
 20
22041.034207895649
 30
0.0
 11
22128.292715425781
 21
22041.034207895649
 31
0.0
  0
LINE
  5
4CE
  8
FUTO
 10
22193.14133839677
 20
21903.71124052511
 30
0.0
 11
22131.944092454789
 21
21898.357175266181
 31
0.0
  0
LINE
  5
4CF
  8
FUTO
 10
22203.292715425781
 20
21891.034207895649
 30
0.0
 11
22128.292715425781
 21
21891.034207895649
 31
0.0
  0
LINE
  5
4D0
  8
FUTO
 10
22203.292715425781
 20
22041.034207895649
 30
0.0
 11
22203.292715425781
 21
21891.034207895649
 31
0.0
  0
LINE
  5
4D1
  8
SL
 10
21939.288715425781
 20
22529.40802450163
 30
0.0
 11
22109.288715425781
 21
22529.40802450163
 31
0.0
  0
LINE
  5
4D5
  8
CT
 10
23460.288715425781
 20
21903.936007708839
 30
0.0
 11
23460.288715425781
 21
21849.72923280469
 31
0.0
  0
LINE
  5
4FF
  8
1
 10
23426.08971542578
 20
21891.034207895649
 30
0.0
 11
23501.08971542578
 21
21891.034207895649
 31
0.0
  0
LINE
  5
501
  8
FUTO
 10
23500.288715425781
 20
22041.034207895649
 30
0.0
 11
23425.288715425781
 21
22041.034207895649
 31
0.0
  0
LINE
  5
502
  8
FUTO
 10
23490.137338396769
 20
22028.357175266181
 30
0.0
 11
23428.940092454792
 21
22033.711240525121
 31
0.0
  0
ARC
  5
503
  8
FUTO
 10
23489.788715425781
 20
22024.372396473809
 30
0.0
 40
4.0
 50
0.0
 51
84.999999999999957
  0
LINE
  5
504
  8
FUTO
 10
23425.288715425781
 20
22041.034207895649
 30
0.0
 11
23425.288715425781
 21
22037.696019317478
 31
0.0
  0
ARC
  5
505
  8
FUTO
 10
23429.288715425781
 20
22037.696019317478
 30
0.0
 40
4.0
 50
180.0
 51
264.99999999999972
  0
LINE
  5
506
  8
FUTO
 10
23500.288715425781
 20
21891.034207895649
 30
0.0
 11
23425.288715425781
 21
21891.034207895649
 31
0.0
  0
LINE
  5
507
  8
FUTO
 10
23490.137338396769
 20
21903.71124052511
 30
0.0
 11
23428.940092454792
 21
21898.357175266181
 31
0.0
  0
ARC
  5
508
  8
FUTO
 10
23489.788715425781
 20
21907.696019317478
 30
0.0
 40
4.0
 50
275.0
 51
0.0
  0
ARC
  5
509
  8
FUTO
 10
23429.288715425781
 20
21894.372396473809
 30
0.0
 40
4.0
 50
95.000000000000185
 51
180.0
  0
LINE
  5
50A
  8
FUTO
 10
23425.288715425781
 20
21891.034207895649
 30
0.0
 11
23425.288715425781
 21
21894.372396473809
 31
0.0
  0
LINE
  5
50B
  8
FUTO
 10
23425.28471542578
 20
21891.034207895649
 30
0.0
 11
23425.28471542578
 21
21893.456207895651
 31
0.0
  0
LINE
  5
50C
  8
FUTO
 10
23429.851715425779
 20
21898.437207895651
 30
0.0
 11
23484.655715425779
 21
21903.23420789565
 31
0.0
  0
LINE
  5
50D
  8
FUTO
 10
23425.28471542578
 20
21891.034207895649
 30
0.0
 11
23500.28471542578
 21
21891.034207895649
 31
0.0
  0
LINE
  5
50E
  8
FUTO
 10
23500.288715425781
 20
22041.034207895649
 30
0.0
 11
23500.288715425781
 21
21891.034207895649
 31
0.0
  0
LINE
  5
50F
  8
FUTO
 10
23493.788715425781
 20
22024.372396473809
 30
0.0
 11
23493.788715425781
 21
21907.696019317478
 31
0.0
  0
LINE
  5
510
  8
FUTO
 10
23500.288715425781
 20
22041.034207895649
 30
0.0
 11
23500.288715425781
 21
21891.034207895649
 31
0.0
  0
LINE
  5
511
  8
FUTO
 10
23576.08871542578
 20
21912.40802450163
 30
0.0
 11
23579.288715425781
 21
21912.40802450163
 31
0.0
  0
LINE
  5
512
  8
KL
 10
23576.08871542578
 20
21912.40802450163
 30
0.0
 11
23576.08871542578
 21
22041.034207895649
 31
0.0
  0
LINE
  5
513
  8
KL
 10
23579.288715425781
 20
21912.40802450163
 30
0.0
 11
23579.288715425781
 21
22041.034207895649
 31
0.0
  0
DIMENSION
  5
517
  8
SP
  2
*D16
 10
24978.288715425781
 20
21451.553595131329
 30
0.0
 11
24608.788715425781
 21
21531.553595131329
 31
0.0
 70
     0
 13
24239.288715425781
 23
21870.107155901711
 33
0.0
 14
24978.288715425781
 24
21891.034207895649
 34
0.0
1001
ACAD
1000
DSTYLE
1002
{
1070
   287
1070
     4
1070
    40
1040
40.0
1070
    75
1070
     1
1070
   279
1070
     1
1070
   289
1070
     3
1002
}
  0
LINE
  5
529
  8
CT
 10
24943.288715425781
 20
21903.936007708839
 30
0.0
 11
24943.288715425781
 21
21849.72923280469
 31
0.0
  0
LINE
  5
54E
  8
FUTO
 10
24899.288715425781
 20
21927.40802450163
 30
0.0
 11
25049.288715425791
 21
21927.40802450163
 31
0.0
  0
LINE
  5
54F
  8
FUTO
 10
25049.288715425791
 20
21961.40802450163
 30
0.0
 11
24899.288715425781
 21
21961.40802450163
 31
0.0
  0
LINE
  5
550
  8
CT
 10
24864.376029942709
 20
21944.40802450163
 30
0.0
 11
25100.874208419911
 21
21944.40802450163
 31
0.0
  0
LINE
  5
553
  8
KL
 10
24899.288715425781
 20
21912.40802450163
 30
0.0
 11
24902.488715425781
 21
21912.40802450163
 31
0.0
  0
LINE
  5
554
  8
FUTO
 10
24978.288715425781
 20
21891.034207895649
 30
0.0
 11
24903.288715425781
 21
21891.034207895649
 31
0.0
  0
LINE
  5
555
  8
FUTO
 10
24973.721715425781
 20
21898.437207895651
 30
0.0
 11
24918.917715425781
 21
21903.23420789565
 31
0.0
  0
LINE
  5
556
  8
FUTO
 10
24978.288715425781
 20
21891.034207895649
 30
0.0
 11
24978.288715425781
 21
21893.456207895651
 31
0.0
  0
LINE
  5
557
  8
1
 10
24977.48371542578
 20
21891.034207895649
 30
0.0
 11
24902.48371542578
 21
21891.034207895649
 31
0.0
  0
ARC
  5
558
  8
FUTO
 10
24974.28471542578
 20
22037.696019317478
 30
0.0
 40
4.0
 50
275.00000000000011
 51
0.0
  0
LINE
  5
559
  8
FUTO
 10
24978.28471542578
 20
22041.034207895649
 30
0.0
 11
24978.28471542578
 21
22037.696019317478
 31
0.0
  0
LINE
  5
55A
  8
FUTO
 10
24978.28471542578
 20
21891.034207895649
 30
0.0
 11
24978.28471542578
 21
21894.372396473809
 31
0.0
  0
ARC
  5
55B
  8
FUTO
 10
24974.28471542578
 20
21894.372396473809
 30
0.0
 40
4.0
 50
0.0
 51
84.999999999999801
  0
ARC
  5
55C
  8
FUTO
 10
24913.78471542578
 20
22024.372396473809
 30
0.0
 40
4.0
 50
95.000000000000057
 51
180.0
  0
LINE
  5
55D
  8
FUTO
 10
24903.28471542578
 20
22041.034207895649
 30
0.0
 11
24903.28471542578
 21
21891.034207895649
 31
0.0
  0
ARC
  5
55E
  8
FUTO
 10
24913.78471542578
 20
21907.696019317478
 30
0.0
 40
4.0
 50
180.0
 51
264.99999999999989
  0
LINE
  5
55F
  8
FUTO
 10
24909.78471542578
 20
22024.372396473809
 30
0.0
 11
24909.78471542578
 21
21907.696019317478
 31
0.0
  0
LINE
  5
560
  8
FUTO
 10
24913.436092454791
 20
22028.357175266181
 30
0.0
 11
24974.633338396769
 21
22033.711240525121
 31
0.0
  0
LINE
  5
561
  8
FUTO
 10
24903.28471542578
 20
22041.034207895649
 30
0.0
 11
24978.28471542578
 21
22041.034207895649
 31
0.0
  0
LINE
  5
562
  8
FUTO
 10
24913.436092454791
 20
21903.71124052511
 30
0.0
 11
24974.633338396769
 21
21898.357175266181
 31
0.0
  0
LINE
  5
563
  8
FUTO
 10
24903.28471542578
 20
21891.034207895649
 30
0.0
 11
24978.28471542578
 21
21891.034207895649
 31
0.0
  0
LINE
  5
564
  8
FUTO
 10
24903.28471542578
 20
22041.034207895649
 30
0.0
 11
24903.28471542578
 21
21891.034207895649
 31
0.0
  0
LINE
  5
565
  8
KL
 10
24902.488715425781
 20
21912.40802450163
 30
0.0
 11
24902.488715425781
 21
22041.034207895649
 31
0.0
  0
LINE
  5
566
  8
KL
 10
24899.288715425781
 20
21912.40802450163
 30
0.0
 11
24899.288715425781
 21
22041.034207895649
 31
0.0
  0
LINE
  5
567
  8
FUTO
 10
25090.392880571329
 20
21923.579807827799
 30
0.0
 11
25090.392880571329
 21
21965.236241175469
 31
0.0
  0
LINE
  5
568
  8
FUTO
 10
25049.288715425781
 20
21923.579807827799
 30
0.0
 11
25049.288715425781
 21
21965.236241175469
 31
0.0
  0
LINE
  5
569
  8
FUTO
 10
25049.288715425791
 20
21923.579807827799
 30
0.0
 11
25090.392880571329
 21
21923.579807827799
 31
0.0
  0
LINE
  5
56A
  8
FUTO
 10
25049.288715425791
 20
21965.236241175469
 30
0.0
 11
25090.392880571329
 21
21965.236241175469
 31
0.0
  0
LINE
  5
56B
  8
KL
 10
24902.488715425781
 20
22313.40802450163
 30
0.0
 11
24992.488715425781
 21
22313.40802450163
 31
0.0
  0
LINE
  5
56C
  8
KL
 10
24902.488715425781
 20
22319.40802450163
 30
0.0
 11
25034.288715425781
 21
22319.40802450163
 31
0.0
  0
LINE
  5
56D
  8
HOSO
 10
24859.954705814871
 20
22279.40802450163
 30
0.0
 11
24934.06232096313
 21
22279.40802450163
 31
0.0
  0
LINE
  5
56E
  8
KL
 10
24902.488715425781
 20
22254.40802450163
 30
0.0
 11
24908.488715425781
 21
22254.40802450163
 31
0.0
  0
LINE
  5
56F
  8
FUTO
 10
24992.488715425781
 20
22313.40802450163
 30
0.0
 11
25034.288715425781
 21
22313.40802450163
 31
0.0
  0
LINE
  5
570
  8
FUTO
 10
25028.288715425781
 20
22254.40802450163
 30
0.0
 11
25034.288715425781
 21
22254.40802450163
 31
0.0
  0
LINE
  5
571
  8
HOSO
 10
25000.80616923975
 20
22279.40802450163
 30
0.0
 11
25074.91378438802
 21
22279.40802450163
 31
0.0
  0
LINE
  5
5F7
  8
FUTO
 10
23516.08871542578
 20
25200.40802450163
 30
0.0
 11
24962.488715425789
 21
25200.40802450163
 31
0.0
  0
LINE
  5
5F8
  8
FUTO
 10
23576.08871542578
 20
25140.40802450163
 30
0.0
 11
24902.488715425781
 21
25140.40802450163
 31
0.0
  0
LINE
  5
600
  8
FUTO
 10
23511.08871542578
 20
23210.408024501641
 30
0.0
 11
24967.488715425781
 21
23210.408024501641
 31
0.0
  0
LINE
  5
601
  8
FUTO
 10
23511.08871542578
 20
23228.40802450163
 30
0.0
 11
24967.488715425781
 21
23228.40802450163
 31
0.0
  0
LINE
  5
61E
  8
CT
 10
21737.362593741
 20
23219.40802450163
 30
0.0
 11
25233.284018598009
 21
23219.40802450163
 31
0.0
  0
LINE
  5
623
  8
FUTO
 10
22344.788715425781
 20
23323.40802450163
 30
0.0
 11
22211.788715425781
 21
23323.40802450163
 31
0.0
  0
LINE
  5
624
  8
FUTO
 10
22211.788715425781
 20
23115.408024501641
 30
0.0
 11
22223.288715425781
 21
23115.408024501641
 31
0.0
  0
ARC
  5
625
  8
FUTO
 10
22229.288715425781
 20
23137.40802450163
 30
0.0
 40
6.0
 50
90.0
 51
180.0
  0
LINE
  5
626
  8
FUTO
 10
22188.288715425781
 20
23097.40802450163
 30
0.0
 11
22368.288715425781
 21
23097.40802450163
 31
0.0
  0
ARC
  5
628
  8
FUTO
 10
22211.788715425781
 20
23317.408024501641
 30
0.0
 40
6.0
 50
90.0
 51
180.0
  0
LINE
  5
629
  8
SL
 10
21939.288715425781
 20
22939.40802450163
 30
0.0
 11
22109.288715425781
 21
22939.40802450163
 31
0.0
  0
LINE
  5
62A
  8
FUTO
 10
22205.788715425781
 20
23309.40802450163
 30
0.0
 11
22200.788715425781
 21
23309.40802450163
 31
0.0
  0
ARC
  5
62B
  8
FUTO
 10
22211.788715425781
 20
23121.40802450163
 30
0.0
 40
6.0
 50
180.0
 51
270.0
  0
LINE
  5
62C
  8
FUTO
 10
22200.788715425781
 20
23129.40802450163
 30
0.0
 11
22205.788715425781
 21
23129.40802450163
 31
0.0
  0
LINE
  5
62D
  8
FUTO
 10
22205.788715425781
 20
23317.408024501641
 30
0.0
 11
22205.788715425781
 21
23121.40802450163
 31
0.0
  0
LINE
  5
62E
  8
FUTO
 10
22200.788715425781
 20
23309.40802450163
 30
0.0
 11
22200.788715425781
 21
23129.40802450163
 31
0.0
  0
LINE
  5
62F
  8
FUTO
 10
22109.288715425781
 20
23171.90802450163
 30
0.0
 11
22200.788715425781
 21
23171.90802450163
 31
0.0
  0
LINE
  5
630
  8
FUTO
 10
22109.288715425781
 20
23266.90802450163
 30
0.0
 11
22200.788715425781
 21
23266.90802450163
 31
0.0
  0
LINE
  5
631
  8
SL
 10
21939.288715425781
 20
23499.40802450163
 30
0.0
 11
22109.288715425781
 21
23499.40802450163
 31
0.0
  0
LINE
  5
632
  8
FUTO
 10
21789.288715425781
 20
23599.408024501641
 30
0.0
 11
22139.288715425781
 21
23599.408024501641
 31
0.0
  0
LINE
  5
633
  8
FUTO
 10
23516.08871542578
 20
25079.762728169739
 30
0.0
 11
23516.08871542578
 21
25200.40802450163
 31
0.0
  0
LINE
  5
636
  8
FUTO
 10
23576.08871542578
 20
23288.108024501631
 30
0.0
 11
23576.08871542578
 21
25119.40802450163
 31
0.0
  0
LINE
  5
637
  8
FUTO
 10
23579.288715425781
 20
23288.108024501631
 30
0.0
 11
23579.288715425781
 21
25119.40802450163
 31
0.0
  0
LINE
  5
638
  8
FUTO
 10
23511.08871542578
 20
25079.762728169739
 30
0.0
 11
23511.08871542578
 21
23210.40802450163
 31
0.0
  0
LINE
  5
63B
  8
SL
 10
23158.800336751861
 20
23435.48269431189
 30
0.0
 11
22393.422379954169
 21
23435.48269431189
 31
0.0
  0
LINE
  5
63D
  8
FUTO
 10
23189.288715425781
 20
23059.40802450163
 30
0.0
 11
22368.288715425781
 21
23059.408024501641
 31
0.0
  0
LINE
  5
63E
  8
FUTO
 10
22355.788715425781
 20
23166.908024501641
 30
0.0
 11
23185.788715425781
 21
23166.908024501641
 31
0.0
  0
LINE
  5
63F
  8
FUTO
 10
22355.788715425781
 20
23271.90802450163
 30
0.0
 11
23185.788715425781
 21
23271.90802450163
 31
0.0
  0
LINE
  5
640
  8
SL
 10
22393.422379954169
 20
23435.48269431189
 30
0.0
 11
22393.422379954169
 21
23059.408024501641
 31
0.0
  0
LINE
  5
641
  8
CT
 10
22278.288715425781
 20
23400.473938921259
 30
0.0
 11
22278.288715425781
 21
23010.473770975841
 31
0.0
  0
ARC
  5
642
  8
FUTO
 10
22344.788715425781
 20
23317.408024501641
 30
0.0
 40
6.0
 50
0.0
 51
90.0
  0
LINE
  5
643
  8
FUTO
 10
22333.288715425781
 20
23323.40802450163
 30
0.0
 11
22333.288715425781
 21
23097.40802450163
 31
0.0
  0
LINE
  5
644
  8
FUTO
 10
22223.288715425781
 20
23323.40802450163
 30
0.0
 11
22223.288715425781
 21
23097.40802450163
 31
0.0
  0
LINE
  5
645
  8
CT
 10
22278.288715425781
 20
23343.176783666338
 30
0.0
 11
22278.288715425781
 21
23089.584300599508
 31
0.0
  0
LINE
  5
646
  8
FUTO
 10
22350.788715425781
 20
23309.40802450163
 30
0.0
 11
22355.788715425781
 21
23309.40802450163
 31
0.0
  0
LINE
  5
647
  8
FUTO
 10
22355.788715425781
 20
23129.40802450163
 30
0.0
 11
22350.788715425781
 21
23129.40802450163
 31
0.0
  0
ARC
  5
648
  8
FUTO
 10
22344.788715425781
 20
23121.40802450163
 30
0.0
 40
6.0
 50
270.0
 51
0.0
  0
LINE
  5
649
  8
FUTO
 10
22344.788715425781
 20
23115.408024501641
 30
0.0
 11
22333.288715425781
 21
23115.408024501641
 31
0.0
  0
ARC
  5
64A
  8
FUTO
 10
22327.288715425781
 20
23137.40802450163
 30
0.0
 40
6.0
 50
0.0
 51
90.0
  0
LINE
  5
64B
  8
FUTO
 10
22355.788715425781
 20
23309.40802450163
 30
0.0
 11
22355.788715425781
 21
23129.40802450163
 31
0.0
  0
LINE
  5
64C
  8
FUTO
 10
22350.788715425781
 20
23317.408024501641
 30
0.0
 11
22350.788715425781
 21
23121.40802450163
 31
0.0
  0
LINE
  5
64D
  8
FUTO
 10
22223.288715425781
 20
23107.40802450163
 30
0.0
 11
22333.288715425781
 21
23107.40802450163
 31
0.0
  0
LINE
  5
64E
  8
FUTO
 10
22327.288715425781
 20
23143.40802450163
 30
0.0
 11
22229.288715425781
 21
23143.40802450163
 31
0.0
  0
LINE
  5
653
  8
SL
 10
23158.800336751861
 20
23435.48269431189
 30
0.0
 11
23158.800336751861
 21
23059.40802450163
 31
0.0
  0
LINE
  5
654
  8
CT
 10
23279.288715425781
 20
23428.17885258187
 30
0.0
 11
23279.288715425781
 21
22978.506548814279
 31
0.0
  0
LINE
  5
655
  8
FUTO
 10
23357.788715425781
 20
23326.908024501641
 30
0.0
 11
23372.788715425781
 21
23303.40802450163
 31
0.0
  0
LINE
  5
656
  8
FUTO
 10
23345.788715425781
 20
23349.40802450163
 30
0.0
 11
23345.788715425781
 21
23134.408024501641
 31
0.0
  0
LINE
  5
657
  8
FUTO
 10
23345.788715425781
 20
23124.40802450163
 30
0.0
 11
23345.788715425781
 21
23349.40796130725
 31
0.0
  0
LINE
  5
658
  8
FUTO
 10
23357.788715425781
 20
23089.40802450163
 30
0.0
 11
23357.788715425781
 21
23349.40802450163
 31
0.0
  0
LINE
  5
659
  8
FUTO
 10
23185.788715425781
 20
23303.40802450163
 30
0.0
 11
23200.788715425781
 21
23326.908024501641
 31
0.0
  0
LINE
  5
65A
  8
FUTO
 10
23212.788715425781
 20
23349.40802450163
 30
0.0
 11
23212.788715425781
 21
23134.408024501641
 31
0.0
  0
LINE
  5
65B
  8
CT
 10
23279.288715425781
 20
23383.569604167838
 30
0.0
 11
23279.288715425781
 21
23041.699981323742
 31
0.0
  0
LINE
  5
65C
  8
FUTO
 10
23200.788715425781
 20
23349.40802450163
 30
0.0
 11
23200.788715425781
 21
23089.40802450163
 31
0.0
  0
LINE
  5
662
  8
FUTO
 10
23511.08871542578
 20
23210.40802450163
 30
0.0
 11
23486.08871542578
 21
23194.388869195889
 31
0.0
  0
LINE
  5
664
  8
FUTO
 10
23369.288715425781
 20
23069.408024501641
 30
0.0
 11
23189.288715425781
 21
23069.408024501641
 31
0.0
  0
LINE
  5
665
  8
FUTO
 10
23354.288715425781
 20
23079.40802450163
 30
0.0
 11
23204.288715425781
 21
23079.40802450163
 31
0.0
  0
LINE
  5
666
  8
FUTO
 10
23204.288715425781
 20
23134.408024501641
 30
0.0
 11
23354.288715425781
 21
23134.408024501641
 31
0.0
  0
LINE
  5
667
  8
FUTO
 10
23185.788715425781
 20
23135.40802450163
 30
0.0
 11
23185.788715425781
 21
23303.40802450163
 31
0.0
  0
LINE
  5
668
  8
FUTO
 10
23200.788715425781
 20
23089.40802450163
 30
0.0
 11
23204.288715425781
 21
23089.40802450163
 31
0.0
  0
LINE
  5
669
  8
CT
 10
23229.288715425781
 20
23044.45293215038
 30
0.0
 11
23229.288715425781
 21
23165.22545727215
 31
0.0
  0
LINE
  5
66A
  8
FUTO
 10
23204.288715425781
 20
23069.408024501641
 30
0.0
 11
23204.288715425781
 21
23134.408024501641
 31
0.0
  0
LINE
  5
66B
  8
FUTO
 10
23200.788715425781
 20
23111.90802450163
 30
0.0
 11
23185.788715425781
 21
23135.40802450163
 31
0.0
  0
LINE
  5
66C
  8
FUTO
 10
23372.788715425781
 20
23271.90802450163
 30
0.0
 11
23511.08871542578
 21
23271.90802450163
 31
0.0
  0
LINE
  5
66E
  8
FUTO
 10
23372.788715425781
 20
23166.908024501641
 30
0.0
 11
23486.08871542578
 21
23166.908024501641
 31
0.0
  0
LINE
  5
67F
  8
CT
 10
23390.679053662108
 20
23219.40802450163
 30
0.0
 11
23500.021675538021
 21
23219.40802450163
 31
0.0
  0
LINE
  5
69D
  8
FUTO
 10
23372.788715425781
 20
23303.40802450163
 30
0.0
 11
23372.788715425781
 21
23135.40802450163
 31
0.0
  0
LINE
  5
69E
  8
FUTO
 10
23354.288715425781
 20
23089.40802450163
 30
0.0
 11
23357.788715425781
 21
23089.40802450163
 31
0.0
  0
LINE
  5
69F
  8
FUTO
 10
23354.288715425781
 20
23134.408024501641
 30
0.0
 11
23354.288715425781
 21
23069.408024501641
 31
0.0
  0
LINE
  5
6A0
  8
FUTO
 10
23372.788715425781
 20
23135.40802450163
 30
0.0
 11
23357.788715425781
 21
23111.90802450163
 31
0.0
  0
LINE
  5
6A1
  8
CT
 10
23329.288715425781
 20
23044.45293215038
 30
0.0
 11
23329.288715425781
 21
23165.22545727215
 31
0.0
  0
LINE
  5
6AC
  8
FUTO
 10
23340.788715425781
 20
23367.40802450163
 30
0.0
 11
23217.788715425781
 21
23367.40802450163
 31
0.0
  0
LINE
  5
6AD
  8
FUTO
 10
23217.788715425781
 20
23367.40802450163
 30
0.0
 11
23217.788715425781
 21
23349.40802450163
 31
0.0
  0
LINE
  5
6AE
  8
FUTO
 10
23217.788715425781
 20
23349.40802450163
 30
0.0
 11
23200.788715425781
 21
23349.40802450163
 31
0.0
  0
LINE
  5
6B7
  8
FUTO
 10
23357.788715425781
 20
23349.40802450163
 30
0.0
 11
23340.788715425781
 21
23349.40802450163
 31
0.0
  0
LINE
  5
6B8
  8
FUTO
 10
23340.788715425781
 20
23349.40802450163
 30
0.0
 11
23340.788715425781
 21
23367.40802450163
 31
0.0
  0
LINE
  5
6BC
  8
FUTO
 10
23576.08871542578
 20
24164.608024501631
 30
0.0
 11
23576.08871542578
 21
25119.40802450163
 31
0.0
  0
LINE
  5
6BE
  8
FUTO
 10
23511.08871542578
 20
25079.762728169739
 30
0.0
 11
23516.08871542578
 21
25079.762728169739
 31
0.0
  0
LINE
  5
6BF
  8
FUTO
 10
23576.08871542578
 20
25119.40802450163
 30
0.0
 11
23576.08871542578
 21
25140.40802450163
 31
0.0
  0
LINE
  5
6C0
  8
FUTO
 10
23579.288715425781
 20
25119.40802450163
 30
0.0
 11
23579.288715425781
 21
25140.40802450163
 31
0.0
  0
DIMENSION
  5
6CD
  8
SP
  2
*D17
 10
25034.288715425781
 20
25671.78383120634
 30
0.0
 11
24568.151090469881
 21
25671.78383120634
 31
0.0
 70
   128
 13
24239.288715425781
 23
25703.726170570721
 33
0.0
 14
25034.288715425781
 24
24184.408024501641
 34
0.0
1001
ACAD
1000
DSTYLE
1002
{
1070
    40
1040
40.0
1002
}
  0
LINE
  5
6DB
  8
FUTO
 10
24962.488715425789
 20
25079.762728169739
 30
0.0
 11
24962.488715425789
 21
25200.40802450163
 31
0.0
  0
LINE
  5
6E1
  8
FUTO
 10
24899.288715425781
 20
23288.108024501631
 30
0.0
 11
24899.288715425781
 21
25119.40802450163
 31
0.0
  0
LINE
  5
6E2
  8
FUTO
 10
24902.488715425781
 20
23288.108024501631
 30
0.0
 11
24902.488715425781
 21
25119.40802450163
 31
0.0
  0
LINE
  5
6E3
  8
FUTO
 10
24967.488715426422
 20
25079.762728169739
 30
0.0
 11
24967.48871542577
 21
23210.408024501641
 31
0.0
  0
LINE
  5
701
  8
FUTO
 10
24967.48871542581
 20
23210.408024501608
 30
0.0
 11
24992.48871542581
 21
23194.38886919586
 31
0.0
  0
INSERT
  5
702
  8
FUTO
  2
まっすぐの矢印
 10
25229.76186799628
 20
23704.954327350741
 30
0.0
 41
2.0
 42
2.0
 43
2.0
 50
90.0
  0
LINE
  5
704
  8
FUTO
 10
24967.488715425781
 20
24125.408024501641
 30
0.0
 11
25034.288715425781
 21
24125.408024501641
 31
0.0
  0
LINE
  5
705
  8
KL
 10
24902.488715425781
 20
24119.408024501641
 30
0.0
 11
25034.288715425781
 21
24119.408024501641
 31
0.0
  0
LINE
  5
706
  8
HOSO
 10
24873.55074561778
 20
24159.408024501641
 30
0.0
 11
24933.381094447861
 21
24159.408024501641
 31
0.0
  0
LINE
  5
707
  8
KL
 10
24908.488715425781
 20
24184.408024501641
 30
0.0
 11
24902.488715425781
 21
24184.408024501641
 31
0.0
  0
LINE
  5
708
  8
KL
 10
24902.488715425781
 20
24125.408024501641
 30
0.0
 11
24967.488715425781
 21
24125.408024501641
 31
0.0
  0
LINE
  5
709
  8
FUTO
 10
25028.288715425781
 20
24184.408024501641
 30
0.0
 11
25034.288715425781
 21
24184.408024501641
 31
0.0
  0
LINE
  5
70A
  8
HOSO
 10
25001.620938866101
 20
24159.408024501641
 30
0.0
 11
25061.451287696171
 21
24159.408024501641
 31
0.0
  0
LINE
  5
70B
  8
FUTO
 10
24962.488715425789
 20
25079.762728169739
 30
0.0
 11
24967.488715426422
 21
25079.762728169739
 31
0.0
  0
LINE
  5
70C
  8
FUTO
 10
24899.288715425781
 20
25119.40802450163
 30
0.0
 11
24899.288715425781
 21
25140.40802450163
 31
0.0
  0
LINE
  5
70D
  8
FUTO
 10
24902.488715425781
 20
25119.40802450163
 30
0.0
 11
24902.488715425781
 21
25140.40802450163
 31
0.0
  0
LINE
  5
88D
  8
CT
 10
20878.74842980388
 20
28587.471949291259
 30
0.0
 11
17546.478826756669
 21
28587.471949291252
 31
0.0
  0
LINE
  5
88E
  8
FUTO
 10
18033.713270465589
 20
27858.471949291252
 30
0.0
 11
18033.713270465589
 21
29316.471949291252
 31
0.0
  0
LINE
  5
89C
  8
FUTO
 10
18098.713270465589
 20
27858.471949291252
 30
0.0
 11
18033.713270465589
 21
27858.471949291252
 31
0.0
  0
LINE
  5
89D
  8
FUTO
 10
18098.713270465589
 20
27858.471949291252
 30
0.0
 11
18098.713270465589
 21
29316.471949291252
 31
0.0
  0
LINE
  5
89E
  8
FUTO
 10
18098.713270465589
 20
29316.471949291252
 30
0.0
 11
18033.713270465589
 21
29316.471949291252
 31
0.0
  0
LINE
  5
89F
  8
FUTO
 10
20752.713270465589
 20
29251.471949291252
 30
0.0
 11
20752.713270465589
 21
27923.471949291259
 31
0.0
  0
LINE
  5
8A0
  8
FUTO
 10
20802.713270465589
 20
29301.471949291252
 30
0.0
 11
18098.713270465589
 21
29301.471949291252
 31
0.0
  0
LINE
  5
8A1
  8
FUTO
 10
20802.713270465589
 20
29301.471949291259
 30
0.0
 11
20802.713270465589
 21
27873.471949291259
 31
0.0
  0
LINE
  5
8A2
  8
FUTO
 10
20802.713270465589
 20
27873.471949291259
 30
0.0
 11
18098.713270465589
 21
27873.471949291252
 31
0.0
  0
LINE
  5
8A3
  8
FUTO
 10
20752.713270465589
 20
27923.471949291259
 30
0.0
 11
19898.713270465589
 21
27923.471949291259
 31
0.0
  0
LINE
  5
8A4
  8
FUTO
 10
20258.713270465589
 20
29301.471949291252
 30
0.0
 11
20258.713270465589
 21
29326.471949291259
 31
0.0
  0
LINE
  5
8A5
  8
FUTO
 10
18138.713270465589
 20
29301.471949291252
 30
0.0
 11
18138.713270465589
 21
29326.471949291252
 31
0.0
  0
LINE
  5
132F
  8
FUTO
 10
18818.713270465589
 20
26137.471949291259
 30
0.0
 11
20978.713270465589
 21
26137.471949291259
 31
0.0
  0
LINE
  5
1330
  8
FUTO
 10
18818.713270465589
 20
26487.471949291259
 30
0.0
 11
20978.713270465589
 21
26487.471949291252
 31
0.0
  0
LINE
  5
1336
  8
SL
 10
18918.713270465589
 20
26287.471949291252
 30
0.0
 11
20898.713270465589
 21
26287.471949291259
 31
0.0
  0
LINE
  5
1337
  8
SL
 10
18918.713270465589
 20
26457.471949291259
 30
0.0
 11
20898.713270465589
 21
26457.471949291259
 31
0.0
  0
LINE
  5
1338
  8
CT
 10
19198.713270465589
 20
26085.545827606478
 30
0.0
 11
19198.713270465589
 21
29581.467252463492
 31
0.0
  0
LINE
  5
1342
  8
FUTO
 10
19094.713270465589
 20
26559.971949291259
 30
0.0
 11
19094.713270465589
 21
26571.471949291259
 31
0.0
  0
LINE
  5
1343
  8
FUTO
 10
19302.713270465589
 20
26692.971949291259
 30
0.0
 11
19302.713270465589
 21
26559.971949291259
 31
0.0
  0
ARC
  5
1344
  8
FUTO
 10
19296.713270465589
 20
26559.971949291259
 30
0.0
 40
6.0
 50
270.0
 51
0.000000000000007
  0
LINE
  5
1345
  8
SL
 10
19478.713270465589
 20
26287.471949291259
 30
0.0
 11
19478.713270465589
 21
26457.471949291259
 31
0.0
  0
LINE
  5
1346
  8
FUTO
 10
19246.213270465589
 20
26457.471949291259
 30
0.0
 11
19246.213270465589
 21
26548.971949291259
 31
0.0
  0
LINE
  5
1347
  8
FUTO
 10
19151.213270465589
 20
26457.471949291259
 30
0.0
 11
19151.213270465589
 21
26548.971949291259
 31
0.0
  0
LINE
  5
1348
  8
FUTO
 10
19288.713270465589
 20
26548.971949291259
 30
0.0
 11
19108.713270465589
 21
26548.971949291259
 31
0.0
  0
LINE
  5
1349
  8
FUTO
 10
19296.713270465589
 20
26553.971949291259
 30
0.0
 11
19100.713270465589
 21
26553.971949291259
 31
0.0
  0
LINE
  5
134A
  8
FUTO
 10
19108.713270465589
 20
26548.971949291259
 30
0.0
 11
19108.713270465589
 21
26553.971949291259
 31
0.0
  0
ARC
  5
134B
  8
FUTO
 10
19100.713270465589
 20
26559.971949291259
 30
0.0
 40
6.0
 50
180.0
 51
270.0
  0
LINE
  5
134C
  8
FUTO
 10
19288.713270465589
 20
26553.971949291259
 30
0.0
 11
19288.713270465589
 21
26548.971949291259
 31
0.0
  0
LINE
  5
1353
  8
FUTO
 10
19251.213270465589
 20
26703.971949291259
 30
0.0
 11
19251.213270465589
 21
27533.971949291259
 31
0.0
  0
LINE
  5
1354
  8
FUTO
 10
19146.213270465589
 20
26703.971949291259
 30
0.0
 11
19146.213270465589
 21
27533.971949291259
 31
0.0
  0
LINE
  5
1357
  8
CT
 10
19322.482029630301
 20
26626.471949291259
 30
0.0
 11
19068.889546563471
 21
26626.471949291259
 31
0.0
  0
LINE
  5
1358
  8
FUTO
 10
19302.713270465589
 20
26571.471949291259
 30
0.0
 11
19094.713270465589
 21
26571.471949291259
 31
0.0
  0
LINE
  5
1359
  8
FUTO
 10
19302.713270465589
 20
26681.471949291259
 30
0.0
 11
19094.713270465589
 21
26681.471949291259
 31
0.0
  0
ARC
  5
135A
  8
FUTO
 10
19296.713270465589
 20
26692.971949291259
 30
0.0
 40
6.0
 50
0.000000000000007
 51
90.0
  0
LINE
  5
135B
  8
CT
 10
19379.779184885221
 20
26626.471949291259
 30
0.0
 11
18989.779016939799
 21
26626.471949291259
 31
0.0
  0
LINE
  5
135F
  8
FUTO
 10
19296.713270465589
 20
26698.971949291259
 30
0.0
 11
19100.713270465589
 21
26698.971949291259
 31
0.0
  0
LINE
  5
1360
  8
FUTO
 10
19288.713270465589
 20
26703.971949291259
 30
0.0
 11
19108.713270465589
 21
26703.971949291259
 31
0.0
  0
LINE
  5
1362
  8
FUTO
 10
19094.713270465589
 20
26692.971949291259
 30
0.0
 11
19094.713270465589
 21
26681.471949291259
 31
0.0
  0
ARC
  5
1363
  8
FUTO
 10
19100.713270465589
 20
26692.971949291259
 30
0.0
 40
6.0
 50
90.0
 51
180.0
  0
LINE
  5
1364
  8
FUTO
 10
19108.713270465589
 20
26703.971949291259
 30
0.0
 11
19108.713270465589
 21
26698.971949291259
 31
0.0
  0
LINE
  5
1365
  8
FUTO
 10
19288.713270465589
 20
26698.971949291259
 30
0.0
 11
19288.713270465589
 21
26703.971949291259
 31
0.0
  0
LINE
  5
136A
  8
FUTO
 10
19328.713270465589
 20
27548.971949291259
 30
0.0
 11
19068.713270465589
 21
27548.971949291252
 31
0.0
  0
LINE
  5
136B
  8
CT
 10
19362.8748501318
 20
27627.471949291259
 30
0.0
 11
19021.0052272877
 21
27627.471949291259
 31
0.0
  0
LINE
  5
136C
  8
FUTO
 10
19328.713270465589
 20
27560.971949291259
 30
0.0
 11
19068.713270465589
 21
27560.971949291259
 31
0.0
  0
LINE
  5
136D
  8
FUTO
 10
19282.713270465589
 20
27533.971949291259
 30
0.0
 11
19306.213270465589
 21
27548.971949291259
 31
0.0
  0
LINE
  5
136E
  8
FUTO
 10
19068.713270465589
 20
27705.971949291259
 30
0.0
 11
19328.713270465589
 21
27705.971949291259
 31
0.0
  0
LINE
  5
136F
  8
FUTO
 10
19068.713270465589
 20
27693.971949291259
 30
0.0
 11
19328.713207271208
 21
27693.971949291259
 31
0.0
  0
LINE
  5
1370
  8
FUTO
 10
19328.713270465589
 20
27693.971949291259
 30
0.0
 11
19113.713270465589
 21
27693.971949291259
 31
0.0
  0
LINE
  5
1371
  8
FUTO
 10
19306.213270465589
 20
27705.971949291259
 30
0.0
 11
19282.713270465589
 21
27720.971949291259
 31
0.0
  0
LINE
  5
1372
  8
CT
 10
19407.484098545829
 20
27627.471949291259
 30
0.0
 11
18957.811794778241
 21
27627.471949291259
 31
0.0
  0
LINE
  5
137E
  8
FUTO
 10
19091.213270465589
 20
27548.971949291259
 30
0.0
 11
19114.713270465589
 21
27533.971949291259
 31
0.0
  0
LINE
  5
1381
  8
FUTO
 10
19068.713270465589
 20
27548.971949291259
 30
0.0
 11
19068.713270465589
 21
27552.471949291259
 31
0.0
  0
LINE
  5
1382
  8
FUTO
 10
19114.713270465589
 20
27533.971949291259
 30
0.0
 11
19282.713270465589
 21
27533.971949291259
 31
0.0
  0
LINE
  5
1384
  8
FUTO
 10
19114.713270465589
 20
27720.971949291259
 30
0.0
 11
19091.213270465589
 21
27705.971949291259
 31
0.0
  0
LINE
  5
1386
  8
FUTO
 10
19068.713270465589
 20
27702.471949291259
 30
0.0
 11
19068.713270465589
 21
27705.971949291259
 31
0.0
  0
LINE
  5
1387
  8
FUTO
 10
19282.713270465589
 20
27720.971949291259
 30
0.0
 11
19114.713270465589
 21
27720.971949291259
 31
0.0
  0
LINE
  5
13A3
  8
CT
 10
19198.713270465589
 20
27738.862287527591
 30
0.0
 11
19198.713270465589
 21
27848.204909403488
 31
0.0
  0
LINE
  5
13B2
  8
FUTO
 10
19146.213270465589
 20
27720.971949291259
 30
0.0
 11
19146.213270465589
 21
27873.471949291252
 31
0.0
  0
LINE
  5
13B4
  8
FUTO
 10
19251.213270465589
 20
27720.971949291259
 30
0.0
 11
19251.213270465589
 21
27873.471949291259
 31
0.0
  0
LINE
  5
13BE
  8
FUTO
 10
19346.713270465589
 20
27688.971949291259
 30
0.0
 11
19346.713270465589
 21
27565.971949291259
 31
0.0
  0
LINE
  5
13BF
  8
FUTO
 10
19328.713270465589
 20
27565.971949291259
 30
0.0
 11
19328.713270465589
 21
27548.971949291259
 31
0.0
  0
LINE
  5
13C0
  8
FUTO
 10
19346.713270465589
 20
27565.971949291259
 30
0.0
 11
19328.713270465589
 21
27565.971949291259
 31
0.0
  0
LINE
  5
13C1
  8
FUTO
 10
19328.713270465589
 20
27688.971949291259
 30
0.0
 11
19346.713270465589
 21
27688.971949291259
 31
0.0
  0
LINE
  5
13C2
  8
FUTO
 10
19328.713270465589
 20
27705.971949291259
 30
0.0
 11
19328.713270465589
 21
27688.971949291259
 31
0.0
  0
LINE
  5
13E1
  8
FUTO
 10
18818.713270465589
 20
26137.471949291259
 30
0.0
 11
18818.713270465589
 21
26487.471949291259
 31
0.0
  0
LINE
  5
13E2
  8
SL
 10
18918.713270465589
 20
26287.471949291259
 30
0.0
 11
18918.713270465589
 21
26457.471949291259
 31
0.0
  0
DIMENSION
  5
1417
  8
SP
  2
*D3
 10
24239.288715425781
 20
25671.78383120634
 30
0.0
 11
23014.288715425781
 21
25783.212402634919
 31
0.0
 70
     0
  1
(<>)
 13
21789.288715425781
 23
23599.408024501641
 33
0.0
 14
24239.288715425781
 24
25200.40802450163
 34
0.0
1001
ACAD
1000
DSTYLE
1002
{
1070
    40
1040
40.0
1002
}
  0
LINE
  5
1453
  8
FUTO
 10
19094.713270465589
 20
26692.971949291259
 30
0.0
 11
19094.713270465589
 21
26559.971949291259
 31
0.0
  0
LINE
  5
1454
  8
FUTO
 10
19050.713270465589
 20
27688.971949291259
 30
0.0
 11
19050.713270465589
 21
27565.971949291259
 31
0.0
  0
LINE
  5
1455
  8
FUTO
 10
19050.713270465589
 20
27565.971949291259
 30
0.0
 11
19068.713270465589
 21
27565.971949291259
 31
0.0
  0
LINE
  5
1456
  8
FUTO
 10
19068.713270465589
 20
27565.971949291259
 30
0.0
 11
19068.713270465589
 21
27548.971949291259
 31
0.0
  0
LINE
  5
1457
  8
FUTO
 10
19068.713270465589
 20
27705.971949291259
 30
0.0
 11
19068.713270465589
 21
27688.971949291259
 31
0.0
  0
LINE
  5
1458
  8
FUTO
 10
19068.713270465589
 20
27688.971949291259
 30
0.0
 11
19050.713270465589
 21
27688.971949291259
 31
0.0
  0
LINE
  5
1698
  8
FUTO
 10
22177.788715425791
 20
22109.40802450163
 30
0.0
 11
22177.788715425781
 21
22039.408024503489
 31
0.0
  0
LINE
  5
1699
  8
FUTO
 10
22877.788715425791
 20
22109.40802450163
 30
0.0
 11
22877.788715425781
 21
22039.408024503529
 31
0.0
  0
LINE
  5
169A
  8
FUTO
 10
22672.788715425781
 20
22109.40802450163
 30
0.0
 11
22177.788715425791
 21
22109.40802450163
 31
0.0
  0
LINE
  5
169B
  8
FUTO
 10
22177.788715425781
 20
22109.40802450163
 30
0.0
 11
22877.788715425791
 21
22109.40802450163
 31
0.0
  0
LINE
  5
16AB
  8
FUTO
 10
22114.288715425781
 20
22489.40802450163
 30
0.0
 11
22114.288715425781
 21
22289.40802450163
 31
0.0
  0
LINE
  5
16AC
  8
FUTO
 10
23348.288715425781
 20
22649.40802450163
 30
0.0
 11
23348.288715425781
 21
22171.259086419552
 31
0.0
  0
LINE
  5
16AD
  8
FUTO
 10
22134.288715425781
 20
22699.40802450163
 30
0.0
 11
22134.288715425781
 21
22123.18130102945
 31
0.0
  0
LINE
  5
16AE
  8
FUTO
 10
22213.288715425781
 20
22699.40802450163
 30
0.0
 11
22213.288715425781
 21
22123.18130102945
 31
0.0
  0
LINE
  5
16AF
  8
FUTO
 10
23098.288715425781
 20
22699.40802450163
 30
0.0
 11
23098.288715425781
 21
22121.259086419552
 31
0.0
  0
LINE
  5
16B0
  8
CT
 10
22527.788715425781
 20
22736.047392488272
 30
0.0
 11
22527.788715425781
 21
22017.45949748455
 31
0.0
  0
LINE
  5
16B1
  8
FUTO
 10
22672.788715425781
 20
22109.40802450163
 30
0.0
 11
22792.788715425781
 21
22109.40802450163
 31
0.0
  0
LINE
  5
16B2
  8
FUTO
 10
22262.788715425781
 20
22139.40802450163
 30
0.0
 11
22792.788715425781
 21
22139.40802450163
 31
0.0
  0
LINE
  5
16B3
  8
FUTO
 10
23098.288715425781
 20
22121.259086419552
 30
0.0
 11
23298.288715425781
 21
22121.259086419552
 31
0.0
  0
ARC
  5
16B4
  8
FUTO
 10
23298.288715425781
 20
22171.259086419552
 30
0.0
 40
50.0
 50
270.0
 51
0.0
  0
LINE
  5
16B5
  8
FUTO
 10
22792.788715425781
 20
22121.259086419552
 30
0.0
 11
23077.96349742762
 21
22121.259086419552
 31
0.0
  0
LINE
  5
16B6
  8
FUTO
 10
23098.288715425781
 20
22132.792374078999
 30
0.0
 11
23077.96349742762
 21
22121.259086419552
 31
0.0
  0
LINE
  5
16B7
  8
CT
 10
22756.288715425781
 20
22163.398776260568
 30
0.0
 11
22756.288715425781
 21
22092.925734178101
 31
0.0
  0
LINE
  5
16B8
  8
FUTO
 10
22792.788715425781
 20
22139.40802450163
 30
0.0
 11
22792.788715425781
 21
22109.40802450163
 31
0.0
  0
LINE
  5
16B9
  8
FUTO
 10
22672.788715425781
 20
22121.259086419552
 30
0.0
 11
22382.788715425781
 21
22121.259086419552
 31
0.0
  0
LINE
  5
16BA
  8
FUTO
 10
22672.788715425781
 20
22121.259086419552
 30
0.0
 11
22672.788715425781
 21
22109.40802450163
 31
0.0
  0
LINE
  5
16BB
  8
FUTO
 10
22262.788715425781
 20
22139.40802450163
 30
0.0
 11
22262.788715425781
 21
22109.40802450163
 31
0.0
  0
LINE
  5
16BC
  8
CT
 10
22299.288715425781
 20
22163.398776260568
 30
0.0
 11
22299.288715425781
 21
22092.925734178101
 31
0.0
  0
LINE
  5
16BD
  8
FUTO
 10
22262.788715425781
 20
22123.18130102945
 30
0.0
 11
22134.288715425781
 21
22123.18130102945
 31
0.0
  0
LINE
  5
16BE
  8
FUTO
 10
22382.788715425781
 20
22121.259086419552
 30
0.0
 11
22382.788715425781
 21
22109.40802450163
 31
0.0
  0
LINE
  5
16BF
  8
FUTO
 10
22262.788715425781
 20
22109.40802450163
 30
0.0
 11
22382.788715425781
 21
22109.40802450163
 31
0.0
  0
LINE
  5
16C0
  8
FUTO
 10
22134.288715425781
 20
22289.40802450163
 30
0.0
 11
22114.288715425781
 21
22289.40802450163
 31
0.0
  0
LINE
  5
16C1
  8
FUTO
 10
23076.893889260209
 20
22699.40802450163
 30
0.0
 11
22134.288715425781
 21
22699.40802450163
 31
0.0
  0
LINE
  5
16C2
  8
CT
 10
23384.93148089022
 20
22389.408024501641
 30
0.0
 11
21913.139884586391
 21
22389.408024501641
 31
0.0
  0
LINE
  5
16C3
  8
FUTO
 10
23298.288715425781
 20
22699.40802450163
 30
0.0
 11
23098.288715425781
 21
22699.40802450163
 31
0.0
  0
ARC
  5
16C4
  8
FUTO
 10
23298.288715425781
 20
22649.40802450163
 30
0.0
 40
50.0
 50
0.0
 51
90.0
  0
LINE
  5
16C5
  8
FUTO
 10
23098.288715425781
 20
22674.85689407288
 30
0.0
 11
23076.893889260209
 21
22699.40802450163
 31
0.0
  0
LINE
  5
16C6
  8
FUTO
 10
22114.288715425781
 20
22431.90802450163
 30
0.0
 11
21939.288715425781
 21
22431.90802450163
 31
0.0
  0
LINE
  5
16C7
  8
FUTO
 10
22114.288715425781
 20
22346.90802450163
 30
0.0
 11
21939.288715425781
 21
22346.90802450163
 31
0.0
  0
LINE
  5
16C8
  8
CT
 10
22323.288715425781
 20
23022.777738466131
 30
0.0
 11
22323.288715425781
 21
22623.918206910341
 31
0.0
  0
LINE
  5
16C9
  8
FUTO
 10
22134.288715425781
 20
22489.40802450163
 30
0.0
 11
22114.288715425781
 21
22489.40802450163
 31
0.0
  0
LINE
  5
16CA
  8
FUTO
 10
22423.288715425781
 20
22979.40802450163
 30
0.0
 11
22223.288715425781
 21
22979.40802450163
 31
0.0
  0
LINE
  5
16CB
  8
FUTO
 10
22423.288715425781
 20
22714.40802450163
 30
0.0
 11
22223.288715425781
 21
22714.40802450163
 31
0.0
  0
LINE
  5
16CC
  8
CT
 10
22487.15464261216
 20
22839.40802450163
 30
0.0
 11
22185.01845322764
 21
22839.40802450163
 31
0.0
  0
LINE
  5
16CD
  8
FUTO
 10
22443.288715425781
 20
22959.40802450163
 30
0.0
 11
22443.288715425781
 21
22734.40802450163
 31
0.0
  0
ARC
  5
16CE
  8
FUTO
 10
22423.288715425781
 20
22734.40802450163
 30
0.0
 40
20.0
 50
270.0
 51
0.0
  0
ARC
  5
16CF
  8
FUTO
 10
22423.288715425781
 20
22959.40802450163
 30
0.0
 40
20.0
 50
0.0
 51
90.0
  0
LINE
  5
16D0
  8
FUTO
 10
22203.288715425781
 20
22959.40802450163
 30
0.0
 11
22203.288715425781
 21
22734.40802450163
 31
0.0
  0
ARC
  5
16D1
  8
FUTO
 10
22223.288715425781
 20
22734.40802450163
 30
0.0
 40
20.0
 50
180.0
 51
270.0
  0
ARC
  5
16D2
  8
FUTO
 10
22223.288715425781
 20
22959.40802450163
 30
0.0
 40
20.0
 50
90.0
 51
180.0
  0
LINE
  5
16D3
  8
FUTO
 10
22109.288715425781
 20
22431.90802450163
 30
0.0
 11
22109.288715425781
 21
22346.90802450163
 31
0.0
  0
LINE
  5
16D4
  8
FUTO
 10
21939.288715425781
 20
22431.90802450163
 30
0.0
 11
21939.288715425781
 21
22346.90802450163
 31
0.0
  0
LINE
  5
17EE
  8
FUTO
 10
20388.713270465629
 20
27425.077123125699
 30
0.0
 11
20388.7132704656
 21
26482.47194929127
 31
0.0
  0
LINE
  5
17EF
  8
CT
 10
20698.713270465651
 20
27733.114714755691
 30
0.0
 11
20698.713270465589
 21
26261.32311845187
 31
0.0
  0
LINE
  5
17F0
  8
FUTO
 10
21008.71327046564
 20
27425.07712312568
 30
0.0
 11
21008.7132704656
 21
26482.471949291252
 31
0.0
  0
LINE
  5
17F1
  8
FUTO
 10
20488.713270465611
 20
26551.47194929127
 30
0.0
 11
20878.713270465611
 21
26551.471949291259
 31
0.0
  0
LINE
  5
17F2
  8
CT
 10
20907.026129842921
 20
26671.471949291252
 30
0.0
 11
20444.043490828401
 21
26671.47194929127
 31
0.0
  0
LINE
  5
17F3
  8
CT
 10
21045.352638452248
 20
26875.971949291252
 30
0.0
 11
20326.76474344853
 21
26875.97194929127
 31
0.0
  0
LINE
  5
17F4
  8
FUTO
 10
21008.7132704656
 20
26482.471949291252
 30
0.0
 11
20388.7132704656
 21
26482.47194929127
 31
0.0
  0
LINE
  5
17F5
  8
FUTO
 10
20798.7132704656
 20
26462.471949291259
 30
0.0
 11
20598.7132704656
 21
26462.47194929127
 31
0.0
  0
LINE
  5
17F6
  8
FUTO
 10
20488.713270465611
 20
26791.47194929127
 30
0.0
 11
20878.713270465621
 21
26791.471949291259
 31
0.0
  0
LINE
  5
17F7
  8
FUTO
 10
21068.057659308521
 20
26525.971949291252
 30
0.0
 11
21068.057659308539
 21
27225.971949291252
 31
0.0
  0
LINE
  5
17F8
  8
FUTO
 10
20898.713270465611
 20
26771.471949291252
 30
0.0
 11
20898.7132704656
 21
26671.471949291252
 31
0.0
  0
LINE
  5
17F9
  8
CT
 10
20698.713270465509
 20
26116.020993121179
 30
0.0
 11
20698.713270466102
 21
27374.427389237349
 31
0.0
  0
LINE
  5
17FA
  8
FUTO
 10
21008.713270465611
 20
26525.971949291252
 30
0.0
 11
21068.057659308521
 21
26525.971949291252
 31
0.0
  0
LINE
  5
17FE
  8
FUTO
 10
20656.2132704656
 20
26462.471949291259
 30
0.0
 11
20656.213270465589
 21
26287.471949291259
 31
0.0
  0
LINE
  5
17FF
  8
FUTO
 10
20741.2132704656
 20
26462.471949291259
 30
0.0
 11
20741.213270465589
 21
26287.471949291259
 31
0.0
  0
LINE
  5
1802
  8
FUTO
 10
20741.213270465589
 20
26287.471949291259
 30
0.0
 11
20656.213270465589
 21
26287.471949291259
 31
0.0
  0
ARC
  5
1804
  8
FUTO
 10
20878.713270465611
 20
26571.471949291252
 30
0.0
 40
20.0
 50
270.0
 51
0.000000000000007
  0
LINE
  5
1805
  8
FUTO
 10
20898.7132704656
 20
26571.471949291252
 30
0.0
 11
20898.7132704656
 21
26671.471949291252
 31
0.0
  0
LINE
  5
1806
  8
FUTO
 10
21008.713270465611
 20
26561.471949291252
 30
0.0
 11
20896.033778541299
 21
26561.471949291252
 31
0.0
  0
LINE
  5
1807
  8
FUTO
 10
20741.2132704656
 20
26457.471949291259
 30
0.0
 11
20656.2132704656
 21
26457.471949291259
 31
0.0
  0
LINE
  5
1808
  8
FUTO
 10
20798.7132704656
 20
26482.471949291259
 30
0.0
 11
20798.7132704656
 21
26462.471949291259
 31
0.0
  0
LINE
  5
1809
  8
FUTO
 10
21008.713270465629
 20
27225.971949291252
 30
0.0
 11
21068.057659308539
 21
27225.971949291252
 31
0.0
  0
ARC
  5
180A
  8
FUTO
 10
20878.713270465621
 20
26771.471949291252
 30
0.0
 40
20.0
 50
0.000000000000007
 51
90.0
  0
LINE
  5
180B
  8
FUTO
 10
20329.3688816227
 20
26525.971949291281
 30
0.0
 11
20329.368881622719
 21
27225.97194929127
 31
0.0
  0
LINE
  5
180C
  8
FUTO
 10
20468.713270465611
 20
26771.47194929127
 30
0.0
 11
20468.7132704656
 21
26671.47194929127
 31
0.0
  0
LINE
  5
180F
  8
FUTO
 10
20471.392762389922
 20
26561.47194929127
 30
0.0
 11
20388.713270465611
 21
26561.47194929127
 31
0.0
  0
LINE
  5
1810
  8
CT
 10
20424.1417155114
 20
26647.47194929127
 30
0.0
 11
20353.668673428929
 21
26647.47194929127
 31
0.0
  0
ARC
  5
1811
  8
FUTO
 10
20488.713270465611
 20
26571.47194929127
 30
0.0
 40
20.0
 50
180.0
 51
270.0
  0
LINE
  5
1812
  8
FUTO
 10
20468.713270465611
 20
26571.47194929127
 30
0.0
 11
20468.7132704656
 21
26671.47194929127
 31
0.0
  0
LINE
  5
1813
  8
FUTO
 10
20598.7132704656
 20
26482.47194929127
 30
0.0
 11
20598.7132704656
 21
26462.47194929127
 31
0.0
  0
LINE
  5
1814
  8
FUTO
 10
20388.713270465611
 20
26525.971949291281
 30
0.0
 11
20329.3688816227
 21
26525.971949291281
 31
0.0
  0
ARC
  5
1815
  8
FUTO
 10
20488.713270465611
 20
26771.47194929127
 30
0.0
 40
20.0
 50
90.0
 51
180.0
  0
LINE
  5
1816
  8
CT
 10
20424.141715511421
 20
27104.47194929127
 30
0.0
 11
20353.668673428951
 21
27104.47194929127
 31
0.0
  0
LINE
  5
1817
  8
FUTO
 10
20388.713270465629
 20
27225.97194929127
 30
0.0
 11
20329.368881622719
 21
27225.97194929127
 31
0.0
  0
LINE
  5
181A
  8
FUTO
 10
21008.71327046564
 20
27446.471949291252
 30
0.0
 11
20388.713270465629
 21
27446.471949291281
 31
0.0
  0
LINE
  5
181B
  8
FUTO
 10
20958.713270465651
 20
27696.471949291252
 30
0.0
 11
20438.713270465651
 21
27696.47194929127
 31
0.0
  0
LINE
  5
181F
  8
FUTO
 10
20984.162140036879
 20
27446.471949291252
 30
0.0
 11
21008.71327046564
 21
27425.07712312568
 31
0.0
  0
ARC
  5
1820
  8
FUTO
 10
20958.71327046564
 20
27646.471949291252
 30
0.0
 40
50.0
 50
0.000000000000007
 51
90.0
  0
LINE
  5
1821
  8
FUTO
 10
21008.71327046564
 20
27646.471949291252
 30
0.0
 11
21008.71327046564
 21
27446.471949291252
 31
0.0
  0
ARC
  5
1824
  8
FUTO
 10
20438.71327046564
 20
27646.47194929127
 30
0.0
 40
50.0
 50
90.0
 51
180.0
  0
LINE
  5
1825
  8
FUTO
 10
20413.264400894379
 20
27446.471949291281
 30
0.0
 11
20388.713270465629
 21
27425.077123125699
 31
0.0
  0
LINE
  5
1826
  8
FUTO
 10
20388.71327046564
 20
27646.471949291281
 30
0.0
 11
20388.713270465629
 21
27446.471949291281
 31
0.0
  0
LINE
  5
1827
  8
FUTO
 10
21138.713270465589
 20
26551.471949291259
 30
0.0
 11
21138.713270465589
 21
26476.471949291252
 31
0.0
  0
LINE
  5
1828
  8
FUTO
 10
20962.593184910442
 20
27848.471949291259
 30
0.0
 11
20962.593184910442
 21
27696.321184630429
 31
0.0
  0
LINE
  5
1829
  8
FUTO
 10
20434.833356020928
 20
27848.471949291379
 30
0.0
 11
20434.83335602087
 21
27696.321184630549
 31
0.0
  0
LINE
  5
182A
  8
FUTO
 10
20509.833356020928
 20
27848.47194929135
 30
0.0
 11
20509.833356020859
 21
27696.471949291339
 31
0.0
  0
LINE
  5
182B
  8
SL
 10
20898.713270465589
 20
26287.471949291259
 30
0.0
 11
20898.713270465589
 21
26457.471949291259
 31
0.0
  0
LINE
  5
182D
  8
FUTO
 10
20978.713270465589
 20
26137.471949291259
 30
0.0
 11
20978.713270465589
 21
26487.471949291252
 31
0.0
  0
LINE
  5
182F
  8
FUTO
 10
18856.664844641549
 20
26551.471949291252
 30
0.0
 11
18856.664844641549
 21
27873.471949291259
 31
0.0
  0
LINE
  5
1830
  8
FUTO
 10
19540.761696289632
 20
26551.471949291252
 30
0.0
 11
19540.761696289632
 21
27873.471949291259
 31
0.0
  0
LINE
  5
1832
  8
FUTO
 10
20163.713270465589
 20
29382.471949291252
 30
0.0
 11
18233.713270465589
 21
29382.471949291259
 31
0.0
  0
LINE
  5
1833
  8
FUTO
 10
20163.713270465589
 20
29376.471949291259
 30
0.0
 11
18233.713270465589
 21
29376.471949291259
 31
0.0
  0
LINE
  5
1834
  8
KL
 10
20163.713270465589
 20
29256.671949291249
 30
0.0
 11
18233.713270465589
 21
29256.671949291249
 31
0.0
  0
LINE
  5
1839
  8
KL
 10
18298.713270465589
 20
29250.671949291249
 30
0.0
 11
18298.713270465589
 21
29382.471949291259
 31
0.0
  0
LINE
  5
183A
  8
KL
 10
18292.713270465589
 20
29250.671949291249
 30
0.0
 11
18292.713270465589
 21
29340.671949291249
 31
0.0
  0
LINE
  5
183B
  8
KL
 10
18233.713270465589
 20
29250.671949291249
 30
0.0
 11
18233.713270465589
 21
29256.671949291249
 31
0.0
  0
LINE
  5
183C
  8
HOSO
 10
18258.713270465589
 20
29208.137939680339
 30
0.0
 11
18258.713270465589
 21
29282.245554828609
 31
0.0
  0
LINE
  5
183D
  8
HOSO
 10
18258.713270465589
 20
29348.989403105239
 30
0.0
 11
18258.713270465589
 21
29423.097018253498
 31
0.0
  0
LINE
  5
183E
  8
FUTO
 10
18233.713270465589
 20
29376.471949291259
 30
0.0
 11
18233.713270465589
 21
29382.471949291259
 31
0.0
  0
LINE
  5
183F
  8
FUTO
 10
18292.713270465589
 20
29340.671949291249
 30
0.0
 11
18292.713270465589
 21
29382.471949291259
 31
0.0
  0
INSERT
  5
185B
  8
FUTO
  2
まっすぐの矢印
 10
19684.259573314699
 20
29577.945101861769
 30
0.0
 41
-2.0
 42
2.0
 43
2.0
 50
180.0
  0
LINE
  5
185D
  8
KL
 10
20098.713270465589
 20
29250.671949291249
 30
0.0
 11
20098.713270465589
 21
29382.471949291259
 31
0.0
  0
LINE
  5
185E
  8
FUTO
 10
20104.713270465589
 20
29315.67194929126
 30
0.0
 11
20104.713270465589
 21
29382.471949291259
 31
0.0
  0
LINE
  5
185F
  8
KL
 10
20104.713270465589
 20
29250.671949291249
 30
0.0
 11
20104.713270465589
 21
29315.67194929126
 31
0.0
  0
LINE
  5
1860
  8
KL
 10
20163.713270465589
 20
29256.671949291249
 30
0.0
 11
20163.713270465589
 21
29250.671949291249
 31
0.0
  0
LINE
  5
1861
  8
HOSO
 10
20138.713270465589
 20
29221.733979483259
 30
0.0
 11
20138.713270465589
 21
29281.56432831334
 31
0.0
  0
LINE
  5
1862
  8
HOSO
 10
20138.713270465589
 20
29349.804172731579
 30
0.0
 11
20138.713270465589
 21
29409.634521561649
 31
0.0
  0
LINE
  5
1863
  8
FUTO
 10
20163.713270465589
 20
29376.471949291259
 30
0.0
 11
20163.713270465589
 21
29382.471949291259
 31
0.0
  0
LINE
  5
188E
  8
FUTO
 10
18804.561061227829
 20
22947.092559264322
 30
0.0
 11
18498.713270465589
 21
22055.199119040051
 31
0.0
  0
LINE
  5
188F
  8
FUTO
 10
18719.879372126681
 20
23187.596255042321
 30
0.0
 11
18010.945980058561
 21
23124.712768833178
 31
0.0
  0
LINE
  5
1890
  8
FUTO
 10
18721.469755630489
 20
23169.666651580141
 30
0.0
 11
18008.536319355491
 21
23106.42835527526
 31
0.0
  0
LINE
  5
1891
  8
KL
 10
20009.59595972862
 20
23230.034224501629
 30
0.0
 11
19398.713270465589
 21
23230.034224501629
 31
0.0
  0
LINE
  5
1892
  8
KL
 10
20034.685470769731
 20
23212.034224501629
 30
0.0
 11
19398.713270465589
 21
23212.034224501629
 31
0.0
  0
LINE
  5
1893
  8
FUTO
 10
20248.713270465589
 20
22272.661385692511
 30
0.0
 11
20248.713270465589
 21
22041.034224501629
 31
0.0
  0
LINE
  5
1894
  8
FUTO
 10
20239.713270465589
 20
22276.344775673191
 30
0.0
 11
20239.713270465589
 21
22041.034224501629
 31
0.0
  0
LINE
  5
1895
  8
KL
 10
20257.713270465589
 20
23052.027104875138
 30
0.0
 11
20257.713270465589
 21
22268.882747584368
 31
0.0
  0
LINE
  5
1896
  8
KL
 10
20248.713270465589
 20
23058.48398638767
 30
0.0
 11
20248.713270465589
 21
22272.661385692511
 31
0.0
  0
LINE
  5
1897
  8
KL
 10
20239.713270465589
 20
23064.940867900212
 30
0.0
 11
20239.713270465589
 21
22276.344775673191
 31
0.0
  0
DIMENSION
  5
18AD
  8
SP
  2
*D4
 10
17489.304181259999
 20
25211.034224501629
 30
0.0
 11
17409.304181259991
 21
24216.034224501629
 31
0.0
 70
     0
 13
17653.35927142149
 23
23221.034224501629
 33
0.0
 14
18033.713270465589
 24
25211.034224501629
 34
0.0
 50
90.0
1001
ACAD
1000
DSTYLE
1002
{
1070
    40
1040
40.0
1002
}
  0
DIMENSION
  5
1909
  8
SP
  2
*D6
 10
18033.713270465589
 20
29840.345880774199
 30
0.0
 11
18616.213270465589
 21
29920.345880774199
 31
0.0
 70
     0
 13
19198.713270465589
 23
29581.467252463492
 33
0.0
 14
18033.713270465589
 24
29316.471949291252
 34
0.0
 50
180.0
1001
ACAD
1000
DSTYLE
1002
{
1070
    40
1040
40.0
1002
}
  0
DIMENSION
  5
1916
  8
SP
  2
*D7
 10
21138.713270465589
 20
29840.345880774199
 30
0.0
 11
20168.713270465589
 21
29920.345880774199
 31
0.0
 70
     0
 13
19198.713270465589
 23
29840.345880774199
 33
0.0
 14
21138.713270465589
 24
27923.471949291259
 34
0.0
 50
180.0
1001
ACAD
1000
DSTYLE
1002
{
1070
    40
1040
40.0
1002
}
  0
DIMENSION
  5
1923
  8
SP
  2
*D8
 10
17613.727004975481
 20
28587.471949291252
 30
0.0
 11
17533.72700497547
 21
28984.971949291259
 31
0.0
 70
     0
 13
18233.713270465589
 23
29382.471949291259
 33
0.0
 14
17546.478826756669
 24
28587.471949291252
 34
0.0
 50
90.0
1001
ACAD
1000
DSTYLE
1002
{
1070
    40
1040
40.0
1002
}
  0
DIMENSION
  5
1930
  8
SP
  2
*D9
 10
17613.727004975481
 20
26137.471949291259
 30
0.0
 11
17533.72700497547
 21
27362.471949291259
 31
0.0
 70
     0
 13
17613.727004975481
 23
28587.471949291252
 33
0.0
 14
18818.713270465589
 24
26137.471949291259
 34
0.0
 50
90.0
1001
ACAD
1000
DSTYLE
1002
{
1070
    40
1040
40.0
1002
}
  0
LINE
  5
19B8
  8
KL
 10
22188.288715425781
 20
22699.40802450163
 30
0.0
 11
22188.288715425781
 21
22041.034207895649
 31
0.0
  0
TEXT
  5
20B4
  8
SP
 10
41593.086056088818
 20
29338.89918023525
 30
0.0
 40
100.0
  1
 
  0
LINE
  5
20B5
  8
4
 10
25974.392906608929
 20
19764.87896589662
 30
0.0
 11
25974.392906608929
 21
18564.87896589662
 31
0.0
  0
LINE
  5
20B6
  8
4
 10
21774.392906608929
 20
19764.87896589662
 30
0.0
 11
21774.392906608929
 21
18564.87896589662
 31
0.0
  0
LINE
  5
20B7
  8
4
 10
18774.392906608929
 20
19764.87896589662
 30
0.0
 11
18774.392906608929
 21
18564.87896589662
 31
0.0
  0
LINE
  5
20BA
  8
4
 10
18774.392906608929
 20
18564.87896589662
 30
0.0
 11
25974.392906608929
 21
18564.87896589662
 31
0.0
  0
LINE
  5
20BB
  8
4
 10
18774.392906608929
 20
19164.87896589662
 30
0.0
 11
25974.392906608929
 21
19164.87896589662
 31
0.0
  0
TEXT
  5
20BC
  8
4
 10
19005.40539169035
 20
19354.137121096301
 30
0.0
 40
300.0
  1
機器名称
  0
TEXT
  5
20BD
  8
4
 10
18991.941542757719
 20
18694.749906288689
 30
0.0
 40
300.0
  1
機器型番
  0
TEXT
  5
20BE
  8
4
 10
21803.151276815181
 20
19298.0027800383
 30
0.0
 40
270.0
  1
ミツヤリミットロードファン
  0
TEXT
  5
20BF
  8
4
 10
21994.31988012182
 20
18667.83647157628
 30
0.0
 40
300.0
  1
LL#11-1
  0
TEXT
  5
20C1
  8
4
 10
16771.398466585611
 20
31968.164823092411
 30
0.0
 40
432.0
  1
遠心式片吸込片持リミットロードファン
  0
LINE
  5
20C2
  8
4
 10
16374.392906608929
 20
31581.331491485449
 30
0.0
 11
25974.392906608929
 21
31581.331491485449
 31
0.0
  0
LINE
  5
20C3
  8
4
 10
16374.392906608929
 20
32781.331491485449
 30
0.0
 11
25974.392906608929
 21
32781.331491485449
 31
0.0
  0
LINE
  5
20C4
  8
4
 10
18774.392906608929
 20
19764.87896589662
 30
0.0
 11
25974.392906608929
 21
19764.87896589662
 31
0.0
  0
LINE
  5
20C5
  8
4
 10
16374.392906608929
 20
32781.331491485449
 30
0.0
 11
16374.392906608929
 21
31581.331491485449
 31
0.0
  0
TEXT
  5
20C6
  8
4
 10
16909.434003515369
 20
31058.795831174692
 30
0.0
 40
323.99999999999989
  1
左回転左横向
  0
TEXT
  5
20C7
  8
4
 10
23688.21026210468
 20
33001.245454868476
 30
0.0
 40
336.00000000000011
  1
No.
  0
TEXT
  5
20C8
  8
4
 10
23652.539365330758
 20
30206.28184441102
 30
0.0
 40
323.99999999999989
  1
縮尺：1/60
  0
LINE
  5
20C9
  8
4
 10
25974.392906608929
 20
32781.331491485449
 30
0.0
 11
25974.392906608929
 21
31581.331491485449
 31
0.0
  0
LINE
  5
20CA
  8
4
 10
27474.392906608929
 20
34464.87896589662
 30
0.0
 11
27474.392906608929
 21
34464.87896589662
 31
0.0
  0
LINE
  5
20CB
  8
4
 10
23518.09744076811
 20
32852.460464649033
 30
0.0
 11
23518.09744076811
 21
33484.792535195142
 31
0.0
  0
LINE
  5
20CC
  8
4
 10
23518.09744076811
 20
33484.792535195142
 30
0.0
 11
25974.392906608929
 21
33484.792535195142
 31
0.0
  0
LINE
  5
20CD
  8
4
 10
25974.392906608929
 20
33484.792535195142
 30
0.0
 11
25974.392906608929
 21
32852.460464649033
 31
0.0
  0
LINE
  5
20CE
  8
4
 10
25974.392906608929
 20
32852.460464649033
 30
0.0
 11
23518.09744076811
 21
32852.460464649033
 31
0.0
  0
LINE
  5
20CF
  8
4
 10
14874.392906608929
 20
16764.87896589662
 30
0.0
 11
14874.392906608929
 21
34464.87896589662
 31
0.0
  0
LINE
  5
20D0
  8
4
 10
14874.392906608929
 20
34464.87896589662
 30
0.0
 11
27474.392906608929
 21
34464.87896589662
 31
0.0
  0
LINE
  5
20D1
  8
4
 10
27474.392906608929
 20
34464.87896589662
 30
0.0
 11
27474.392906608929
 21
16764.87896589662
 31
0.0
  0
LINE
  5
20D2
  8
4
 10
27474.392906608929
 20
16764.87896589662
 30
0.0
 11
14874.392906608929
 21
16764.87896589662
 31
0.0
  0
TEXT
  5
20D3
  8
4
 10
19986.169790702079
 20
31058.86575582307
 30
0.0
 40
323.99999999999989
  1
床置ベット
  0
ENDSEC
  0
EOF
