  0
SECTION
  2
HEADER
  9
$ACADVER
  1
AC1027
  9
$ACADMAINTVER
 70
   125
  9
$DWGCODEPAGE
  3
ANSI_932
  9
$LASTSAVEDBY
  1
yasukiyo.ogawa
  9
$REQUIREDVERSIONS
160
                 0
  9
$INSBASE
 10
0.0
 20
0.0
 30
0.0
  9
$EXTMIN
 10
0.0
 20
0.0
 30
0.0
  9
$EXTMAX
 10
10500.0
 20
14750.0
 30
0.0
  9
$LIMMIN
 10
0.0
 20
0.0
  9
$LIMMAX
 10
297.0
 20
210.0
  9
$ORTHOMODE
 70
     1
  9
$REGENMODE
 70
     1
  9
$FILLMODE
 70
     0
  9
$QTEXTMODE
 70
     0
  9
$MIRRTEXT
 70
     1
  9
$LTSCALE
 40
100.0
  9
$ATTMODE
 70
     1
  9
$TEXTSIZE
 40
180.0
  9
$TRACEWID
 40
0.05
  9
$TEXTSTYLE
  7
STANDARD
  9
$CLAYER
  8
3
  9
$CELTYPE
  6
BYLAYER
  9
$CECOLOR
 62
   256
  9
$CELTSCALE
 40
1.0
  9
$DISPSILH
 70
     0
  9
$DIMSCALE
 40
50.0
  9
$DIMASZ
 40
2.0
  9
$DIMEXO
 40
0.5
  9
$DIMDLI
 40
10.0
  9
$DIMRND
 40
0.0
  9
$DIMDLE
 40
0.0
  9
$DIMEXE
 40
1.0
  9
$DIMTP
 40
1.0
  9
$DIMTM
 40
1.0
  9
$DIMTXT
 40
3.0
  9
$DIMCEN
 40
0.0
  9
$DIMTSZ
 40
0.0
  9
$DIMTOL
 70
     0
  9
$DIMLIM
 70
     0
  9
$DIMTIH
 70
     0
  9
$DIMTOH
 70
     0
  9
$DIMSE1
 70
     0
  9
$DIMSE2
 70
     0
  9
$DIMTAD
 70
     1
  9
$DIMZIN
 70
     8
  9
$DIMBLK
  1

  9
$DIMASO
 70
     1
  9
$DIMSHO
 70
     1
  9
$DIMPOST
  1
(<>)
  9
$DIMAPOST
  1

  9
$DIMALT
 70
     0
  9
$DIMALTD
 70
     2
  9
$DIMALTF
 40
0.039
  9
$DIMLFAC
 40
1.0
  9
$DIMTOFL
 70
     1
  9
$DIMTVP
 40
0.0
  9
$DIMTIX
 70
     0
  9
$DIMSOXD
 70
     0
  9
$DIMSAH
 70
     1
  9
$DIMBLK1
  1
OPEN
  9
$DIMBLK2
  1
OPEN
  9
$DIMSTYLE
  2
IGA
  9
$DIMCLRD
 70
     0
  9
$DIMCLRE
 70
     0
  9
$DIMCLRT
 70
     0
  9
$DIMTFAC
 40
10.0
  9
$DIMGAP
 40
1.0
  9
$DIMJUST
 70
     0
  9
$DIMSD1
 70
     0
  9
$DIMSD2
 70
     0
  9
$DIMTOLJ
 70
     1
  9
$DIMTZIN
 70
     8
  9
$DIMALTZ
 70
     0
  9
$DIMALTTZ
 70
     0
  9
$DIMUPT
 70
     0
  9
$DIMDEC
 70
     0
  9
$DIMTDEC
 70
     0
  9
$DIMALTU
 70
     2
  9
$DIMALTTD
 70
     2
  9
$DIMTXSTY
  7
STANDARD
  9
$DIMAUNIT
 70
     0
  9
$DIMADEC
 70
     0
  9
$DIMALTRND
 40
0.0
  9
$DIMAZIN
 70
     0
  9
$DIMDSEP
 70
    46
  9
$DIMATFIT
 70
     3
  9
$DIMFRAC
 70
     0
  9
$DIMLDRBLK
  1
OPEN
  9
$DIMLUNIT
 70
     2
  9
$DIMLWD
 70
    -2
  9
$DIMLWE
 70
    -2
  9
$DIMTMOVE
 70
     2
  9
$DIMFXL
 40
1.0
  9
$DIMFXLON
 70
     0
  9
$DIMJOGANG
 40
0.7853981633974483
  9
$DIMTFILL
 70
     0
  9
$DIMTFILLCLR
 70
     0
  9
$DIMARCSYM
 70
     0
  9
$DIMLTYPE
  6

  9
$DIMLTEX1
  6

  9
$DIMLTEX2
  6

  9
$DIMTXTDIRECTION
 70
     0
  9
$LUNITS
 70
     2
  9
$LUPREC
 70
     3
  9
$SKETCHINC
 40
0.1
  9
$FILLETRAD
 40
50.0
  9
$AUNITS
 70
     0
  9
$AUPREC
 70
     0
  9
$MENU
  1
acad
  9
$ELEVATION
 40
0.0
  9
$PELEVATION
 40
0.0
  9
$THICKNESS
 40
0.0
  9
$LIMCHECK
 70
     0
  9
$CHAMFERA
 40
0.0
  9
$CHAMFERB
 40
0.0
  9
$CHAMFERC
 40
20.0
  9
$CHAMFERD
 40
0.0
  9
$SKPOLY
 70
     0
  9
$TDCREATE
 40
2452326.445474537
  9
$TDUCREATE
 40
2452326.070481250
  9
$TDUPDATE
 40
2460245.597824074
  9
$TDUUPDATE
 40
2460245.222827095
  9
$TDINDWG
 40
0.0682215278
  9
$TDUSRTIMER
 40
0.0682215278
  9
$USRTIMER
 70
     1
  9
$ANGBASE
 50
0.0
  9
$ANGDIR
 70
     0
  9
$PDMODE
 70
     0
  9
$PDSIZE
 40
0.0
  9
$PLINEWID
 40
0.0
  9
$SPLFRAME
 70
     0
  9
$SPLINETYPE
 70
     6
  9
$SPLINESEGS
 70
     8
  9
$HANDSEED
  5
83C8
  9
$SURFTAB1
 70
     6
  9
$SURFTAB2
 70
     6
  9
$SURFTYPE
 70
     6
  9
$SURFU
 70
     6
  9
$SURFV
 70
     6
  9
$UCSBASE
  2

  9
$UCSNAME
  2

  9
$UCSORG
 10
0.0
 20
0.0
 30
0.0
  9
$UCSXDIR
 10
1.0
 20
0.0
 30
0.0
  9
$UCSYDIR
 10
0.0
 20
1.0
 30
0.0
  9
$UCSORTHOREF
  2

  9
$UCSORTHOVIEW
 70
     0
  9
$UCSORGTOP
 10
0.0
 20
0.0
 30
0.0
  9
$UCSORGBOTTOM
 10
0.0
 20
0.0
 30
0.0
  9
$UCSORGLEFT
 10
0.0
 20
0.0
 30
0.0
  9
$UCSORGRIGHT
 10
0.0
 20
0.0
 30
0.0
  9
$UCSORGFRONT
 10
0.0
 20
0.0
 30
0.0
  9
$UCSORGBACK
 10
0.0
 20
0.0
 30
0.0
  9
$PUCSBASE
  2

  9
$PUCSNAME
  2

  9
$PUCSORG
 10
0.0
 20
0.0
 30
0.0
  9
$PUCSXDIR
 10
1.0
 20
0.0
 30
0.0
  9
$PUCSYDIR
 10
0.0
 20
1.0
 30
0.0
  9
$PUCSORTHOREF
  2

  9
$PUCSORTHOVIEW
 70
     0
  9
$PUCSORGTOP
 10
0.0
 20
0.0
 30
0.0
  9
$PUCSORGBOTTOM
 10
0.0
 20
0.0
 30
0.0
  9
$PUCSORGLEFT
 10
0.0
 20
0.0
 30
0.0
  9
$PUCSORGRIGHT
 10
0.0
 20
0.0
 30
0.0
  9
$PUCSORGFRONT
 10
0.0
 20
0.0
 30
0.0
  9
$PUCSORGBACK
 10
0.0
 20
0.0
 30
0.0
  9
$USERI1
 70
     0
  9
$USERI2
 70
     0
  9
$USERI3
 70
     0
  9
$USERI4
 70
     0
  9
$USERI5
 70
     0
  9
$USERR1
 40
0.0
  9
$USERR2
 40
0.0
  9
$USERR3
 40
0.0
  9
$USERR4
 40
0.0
  9
$USERR5
 40
0.0
  9
$WORLDVIEW
 70
     1
  9
$SHADEDGE
 70
     3
  9
$SHADEDIF
 70
    70
  9
$TILEMODE
 70
     1
  9
$MAXACTVP
 70
    16
  9
$PINSBASE
 10
0.0
 20
0.0
 30
0.0
  9
$PLIMCHECK
 70
     0
  9
$PEXTMIN
 10
1.000000000000000E+20
 20
1.000000000000000E+20
 30
1.000000000000000E+20
  9
$PEXTMAX
 10
-1.000000000000000E+20
 20
-1.000000000000000E+20
 30
-1.000000000000000E+20
  9
$PLIMMIN
 10
0.0
 20
0.0
  9
$PLIMMAX
 10
12.0
 20
9.0
  9
$UNITMODE
 70
     0
  9
$VISRETAIN
 70
     0
  9
$PLINEGEN
 70
     0
  9
$PSLTSCALE
 70
     1
  9
$TREEDEPTH
 70
  3020
  9
$CMLSTYLE
  2
STANDARD
  9
$CMLJUST
 70
     0
  9
$CMLSCALE
 40
20.0
  9
$PROXYGRAPHICS
 70
     1
  9
$MEASUREMENT
 70
     1
  9
$CELWEIGHT
370
    -1
  9
$ENDCAPS
280
     0
  9
$JOINSTYLE
280
     0
  9
$LWDISPLAY
290
     0
  9
$INSUNITS
 70
     0
  9
$HYPERLINKBASE
  1

  9
$STYLESHEET
  1

  9
$XEDIT
290
     1
  9
$CEPSNTYPE
380
     0
  9
$PSTYLEMODE
290
     1
  9
$FINGERPRINTGUID
  2
{204E7C9F-0BFE-43F3-AD87-3738DC7F27F7}
  9
$VERSIONGUID
  2
{8BC99FBD-7C9A-4AB3-9413-376E60C5937B}
  9
$EXTNAMES
290
     1
  9
$PSVPSCALE
 40
0.0
  9
$OLESTARTUP
290
     0
  9
$SORTENTS
280
   127
  9
$INDEXCTL
280
     0
  9
$HIDETEXT
280
     0
  9
$XCLIPFRAME
280
     2
  9
$HALOGAP
280
     0
  9
$OBSCOLOR
 70
   257
  9
$OBSLTYPE
280
     0
  9
$INTERSECTIONDISPLAY
280
     0
  9
$INTERSECTIONCOLOR
 70
   257
  9
$DIMASSOC
280
     1
  9
$PROJECTNAME
  1

  9
$CAMERADISPLAY
290
     0
  9
$LENSLENGTH
 40
50.0
  9
$CAMERAHEIGHT
 40
0.0
  9
$STEPSPERSEC
 40
2.0
  9
$STEPSIZE
 40
6.0
  9
$3DDWFPREC
 40
2.0
  9
$PSOLWIDTH
 40
0.25
  9
$PSOLHEIGHT
 40
4.0
  9
$LOFTANG1
 40
1.570796326794896
  9
$LOFTANG2
 40
1.570796326794896
  9
$LOFTMAG1
 40
0.0
  9
$LOFTMAG2
 40
0.0
  9
$LOFTPARAM
 70
     7
  9
$LOFTNORMALS
280
     1
  9
$LATITUDE
 40
37.795
  9
$LONGITUDE
 40
-122.394
  9
$NORTHDIRECTION
 40
0.0
  9
$TIMEZONE
 70
 -8000
  9
$LIGHTGLYPHDISPLAY
280
     1
  9
$TILEMODELIGHTSYNCH
280
     1
  9
$CMATERIAL
347
82B9
  9
$SOLIDHIST
280
     0
  9
$SHOWHIST
280
     1
  9
$DWFFRAME
280
     2
  9
$DGNFRAME
280
     0
  9
$REALWORLDSCALE
290
     1
  9
$INTERFERECOLOR
 62
     1
  9
$INTERFEREOBJVS
345
82DB
  9
$INTERFEREVPVS
346
82D8
  9
$CSHADOW
280
     0
  9
$SHADOWPLANELOCATION
 40
0.0
  0
ENDSEC
  0
SECTION
  2
CLASSES
  0
CLASS
  1
ACDBDICTIONARYWDFLT
  2
AcDbDictionaryWithDefault
  3
ObjectDBX Classes
 90
        0
 91
        1
280
     0
281
     0
  0
CLASS
  1
DICTIONARYVAR
  2
AcDbDictionaryVar
  3
ObjectDBX Classes
 90
        0
 91
       11
280
     0
281
     0
  0
CLASS
  1
MATERIAL
  2
AcDbMaterial
  3
ObjectDBX Classes
 90
     1153
 91
        3
280
     0
281
     0
  0
CLASS
  1
VISUALSTYLE
  2
AcDbVisualStyle
  3
ObjectDBX Classes
 90
     4095
 91
       24
280
     0
281
     0
  0
CLASS
  1
TABLESTYLE
  2
AcDbTableStyle
  3
ObjectDBX Classes
 90
     4095
 91
        1
280
     0
281
     0
  0
CLASS
  1
SCALE
  2
AcDbScale
  3
ObjectDBX Classes
 90
     1153
 91
       17
280
     0
281
     0
  0
CLASS
  1
MLEADERSTYLE
  2
AcDbMLeaderStyle
  3
ACDB_MLEADERSTYLE_CLASS
 90
     4095
 91
        1
280
     0
281
     0
  0
CLASS
  1
ACDBSECTIONVIEWSTYLE
  2
AcDbSectionViewStyle
  3
ObjectDBX Classes
 90
     1025
 91
        1
280
     0
281
     0
  0
CLASS
  1
ACDBDETAILVIEWSTYLE
  2
AcDbDetailViewStyle
  3
ObjectDBX Classes
 90
     1025
 91
        1
280
     0
281
     0
  0
CLASS
  1
CELLSTYLEMAP
  2
AcDbCellStyleMap
  3
ObjectDBX Classes
 90
     1152
 91
        1
280
     0
281
     0
  0
ENDSEC
  0
SECTION
  2
TABLES
  0
TABLE
  2
VPORT
  5
8
330
0
100
AcDbSymbolTable
 70
     1
1001
ACAD
1000
DbSaveVer
1071
      278
  0
VPORT
  5
82B6
330
8
100
AcDbSymbolTableRecord
100
AcDbViewportTableRecord
  2
*Active
 70
     0
 10
0.0
 20
0.0
 11
1.0
 21
1.0
 12
6735.28379831989
 22
7375.000034342519
 13
0.0
 23
0.0
 14
10.0
 24
10.0
 15
10.0
 25
10.0
 16
0.0
 26
0.0
 36
1.0
 17
0.0
 27
0.0
 37
0.0
 40
14845.3564068816
 41
2.250314465408805
 42
50.0
 43
0.0
 44
0.0
 50
0.0
 51
0.0
 71
     0
 72
   100
 73
     1
 74
     0
 75
     0
 76
     0
 77
     0
 78
     0
281
     0
 65
     1
110
0.0
120
0.0
130
0.0
111
1.0
121
0.0
131
0.0
112
0.0
122
1.0
132
0.0
 79
     0
146
0.0
348
82D7
 60
     3
 61
     5
292
     1
282
     1
141
0.0
142
0.0
 63
   250
421
  3355443
1001
ACAD_NAV_VCDISPLAY
1070
     3
  0
ENDTAB
  0
TABLE
  2
LTYPE
  5
5
330
0
100
AcDbSymbolTable
 70
     2
  0
LTYPE
  5
13
330
5
100
AcDbSymbolTableRecord
100
AcDbLinetypeTableRecord
  2
BYBLOCK
 70
     0
  3

 72
    65
 73
     0
 40
0.0
  0
LTYPE
  5
14
330
5
100
AcDbSymbolTableRecord
100
AcDbLinetypeTableRecord
  2
BYLAYER
 70
     0
  3

 72
    65
 73
     0
 40
0.0
  0
LTYPE
  5
15
330
5
100
AcDbSymbolTableRecord
100
AcDbLinetypeTableRecord
  2
CONTINUOUS
 70
     0
  3
Solid line
 72
    65
 73
     0
 40
0.0
  0
LTYPE
  5
1F
330
5
100
AcDbSymbolTableRecord
100
AcDbLinetypeTableRecord
  2
CENTER
 70
     0
  3
____ _ ____ _ ____ _ ____ _ ____ _ ____ _ ____ 
 72
    65
 73
     4
 40
2.0
 49
1.25
 74
     0
 49
-0.25
 74
     0
 49
0.25
 74
     0
 49
-0.25
 74
     0
  0
ENDTAB
  0
TABLE
  2
LAYER
  5
2
102
{ACAD_XDICTIONARY
360
839F
102
}
330
0
100
AcDbSymbolTable
 70
     6
  0
LAYER
  5
F
102
{ACAD_XDICTIONARY
360
8392
102
}
330
2
100
AcDbSymbolTableRecord
100
AcDbLayerTableRecord
  2
0
 70
     0
 62
     7
  6
CONTINUOUS
370
    -3
390
81DF
347
82C9
348
0
  0
LAYER
  5
31
102
{ACAD_XDICTIONARY
360
8394
102
}
330
2
100
AcDbSymbolTableRecord
100
AcDbLayerTableRecord
  2
3
 70
     0
 62
     2
  6
CONTINUOUS
370
    -3
390
81DF
347
82C9
348
0
  0
LAYER
  5
76D0
102
{ACAD_XDICTIONARY
360
8396
102
}
330
2
100
AcDbSymbolTableRecord
100
AcDbLayerTableRecord
  2
2
 70
     0
 62
     3
  6
CENTER
370
    -3
390
81DF
347
82C9
348
0
  0
LAYER
  5
76D1
102
{ACAD_XDICTIONARY
360
8398
102
}
330
2
100
AcDbSymbolTableRecord
100
AcDbLayerTableRecord
  2
1
 70
     0
 62
     4
  6
CONTINUOUS
370
    -3
390
81DF
347
82C9
348
0
  0
LAYER
  5
76D2
102
{ACAD_XDICTIONARY
360
839A
102
}
330
2
100
AcDbSymbolTableRecord
100
AcDbLayerTableRecord
  2
4
 70
     0
 62
     7
  6
CONTINUOUS
370
    -3
390
81DF
347
82C9
348
0
  0
LAYER
  5
7A01
330
2
100
AcDbSymbolTableRecord
100
AcDbLayerTableRecord
  2
DEFPOINTS
 70
     0
 62
     7
  6
CONTINUOUS
290
     0
370
    -3
390
81DF
347
82C9
348
0
  0
ENDTAB
  0
TABLE
  2
STYLE
  5
3
330
0
100
AcDbSymbolTable
 70
     1
  0
STYLE
  5
10
330
3
100
AcDbSymbolTableRecord
100
AcDbTextStyleTableRecord
  2
STANDARD
 70
     0
 40
0.0
 41
1.0
 50
0.0
 71
     0
 42
180.0
  3
simplex.shx
  4
extfont.shx
  0
ENDTAB
  0
TABLE
  2
VIEW
  5
6
330
0
100
AcDbSymbolTable
 70
     0
  0
ENDTAB
  0
TABLE
  2
UCS
  5
7
330
0
100
AcDbSymbolTable
 70
     0
  0
ENDTAB
  0
TABLE
  2
APPID
  5
9
330
0
100
AcDbSymbolTable
 70
     4
  0
APPID
  5
11
330
9
100
AcDbSymbolTableRecord
100
AcDbRegAppTableRecord
  2
ACAD
 70
     0
  0
APPID
  5
8308
330
9
100
AcDbSymbolTableRecord
100
AcDbRegAppTableRecord
  2
AcadAnnoMonitorAlertIconDisabled
 70
     0
  0
APPID
  5
8309
330
9
100
AcDbSymbolTableRecord
100
AcDbRegAppTableRecord
  2
ACAD_EXEMPT_FROM_CAD_STANDARDS
 70
     0
  0
APPID
  5
83A5
330
9
100
AcDbSymbolTableRecord
100
AcDbRegAppTableRecord
  2
ACAD_NAV_VCDISPLAY
 70
     0
  0
ENDTAB
  0
TABLE
  2
DIMSTYLE
  5
A
330
0
100
AcDbSymbolTable
 70
     1
100
AcDbDimStyleTable
 71
     1
340
1D
  0
DIMSTYLE
105
1D
102
{ACAD_REACTORS
330
7B9E
330
7BAA
330
7BB7
330
7BC4
330
7BD1
330
7CBF
330
7CCB
330
7CD8
330
7CF2
330
7CFE
330
7D1E
330
7DB8
330
7DC4
330
7DFC
330
7E17
330
7FD1
330
802D
330
814C
330
8159
330
8166
330
8173
330
81B5
330
81D7
102
}
330
A
100
AcDbSymbolTableRecord
100
AcDbDimStyleTableRecord
  2
IGA
 70
     0
 40
2.0
 41
2.0
 42
0.5
 43
10.0
 44
1.0
 47
1.0
 48
1.0
 73
     0
 74
     0
 77
     1
 78
     8
140
3.0
141
0.0
143
0.03937
146
10.0
147
1.0
173
     1
271
     1
272
     0
279
     2
284
     8
340
10
341
7B8C
343
7B8C
344
7B8C
  0
ENDTAB
  0
TABLE
  2
BLOCK_RECORD
  5
1
330
0
100
AcDbSymbolTable
 70
    26
  0
BLOCK_RECORD
  5
19
102
{ACAD_XDICTIONARY
360
820D
102
}
330
1
100
AcDbSymbolTableRecord
100
AcDbBlockTableRecord
  2
*MODEL_SPACE
340
81E2
 70
     0
280
     1
281
     0
  0
BLOCK_RECORD
  5
16
102
{ACAD_XDICTIONARY
360
820B
102
}
330
1
100
AcDbSymbolTableRecord
100
AcDbBlockTableRecord
  2
*PAPER_SPACE
340
81E3
 70
     0
280
     1
281
     0
  0
BLOCK_RECORD
  5
7B8C
330
1
100
AcDbSymbolTableRecord
100
AcDbBlockTableRecord
  2
_OPEN
340
0
102
{BLKREFS
331
832F
331
8330
331
8338
331
8339
331
8341
331
8342
331
834A
331
834B
331
8353
331
8354
331
835C
331
835D
331
8365
331
8366
331
836E
331
836F
331
837A
331
8387
331
8388
331
825C
331
825D
331
8265
331
8266
331
8293
331
8294
331
829E
331
829F
331
82A7
331
82A8
331
8216
331
8217
331
821E
331
821F
331
8227
331
8228
331
8239
331
823A
331
8242
331
8243
331
824A
331
824B
331
8253
331
8254
102
}
 70
     0
280
     1
281
     0
  0
BLOCK_RECORD
  5
7B92
330
1
100
AcDbSymbolTableRecord
100
AcDbBlockTableRecord
  2
*D1
340
0
 70
     0
280
     1
281
     0
  0
BLOCK_RECORD
  5
7B9F
330
1
100
AcDbSymbolTableRecord
100
AcDbBlockTableRecord
  2
*D2
340
0
 70
     0
280
     1
281
     0
  0
BLOCK_RECORD
  5
7BAB
330
1
100
AcDbSymbolTableRecord
100
AcDbBlockTableRecord
  2
*D3
340
0
 70
     0
280
     1
281
     0
  0
BLOCK_RECORD
  5
7BB8
330
1
100
AcDbSymbolTableRecord
100
AcDbBlockTableRecord
  2
*D4
340
0
 70
     0
280
     1
281
     0
  0
BLOCK_RECORD
  5
7BC5
330
1
100
AcDbSymbolTableRecord
100
AcDbBlockTableRecord
  2
*D5
340
0
 70
     0
280
     1
281
     0
  0
BLOCK_RECORD
  5
7CB3
330
1
100
AcDbSymbolTableRecord
100
AcDbBlockTableRecord
  2
*D6
340
0
 70
     0
280
     1
281
     0
  0
BLOCK_RECORD
  5
7CC0
330
1
100
AcDbSymbolTableRecord
100
AcDbBlockTableRecord
  2
*D7
340
0
 70
     0
280
     1
281
     0
  0
BLOCK_RECORD
  5
7CCC
330
1
100
AcDbSymbolTableRecord
100
AcDbBlockTableRecord
  2
*D8
340
0
 70
     0
280
     1
281
     0
  0
BLOCK_RECORD
  5
7CE6
330
1
100
AcDbSymbolTableRecord
100
AcDbBlockTableRecord
  2
*D9
340
0
 70
     0
280
     1
281
     0
  0
BLOCK_RECORD
  5
7CF3
330
1
100
AcDbSymbolTableRecord
100
AcDbBlockTableRecord
  2
*D10
340
0
 70
     0
280
     1
281
     0
  0
BLOCK_RECORD
  5
7D0F
330
1
100
AcDbSymbolTableRecord
100
AcDbBlockTableRecord
  2
*D11
340
0
 70
     0
280
     1
281
     0
  0
BLOCK_RECORD
  5
7D2C
330
1
100
AcDbSymbolTableRecord
100
AcDbBlockTableRecord
  2
_DOT
340
0
102
{BLKREFS
331
8379
102
}
 70
     0
280
     1
281
     0
  0
BLOCK_RECORD
  5
7DAC
330
1
100
AcDbSymbolTableRecord
100
AcDbBlockTableRecord
  2
*D13
340
0
 70
     0
280
     1
281
     0
  0
BLOCK_RECORD
  5
7DB9
330
1
100
AcDbSymbolTableRecord
100
AcDbBlockTableRecord
  2
*D14
340
0
 70
     0
280
     1
281
     0
  0
BLOCK_RECORD
  5
7DF0
330
1
100
AcDbSymbolTableRecord
100
AcDbBlockTableRecord
  2
*D15
340
0
 70
     0
280
     1
281
     0
  0
BLOCK_RECORD
  5
7E0B
330
1
100
AcDbSymbolTableRecord
100
AcDbBlockTableRecord
  2
*D16
340
0
 70
     0
280
     1
281
     0
  0
BLOCK_RECORD
  5
7FC6
330
1
100
AcDbSymbolTableRecord
100
AcDbBlockTableRecord
  2
*D17
340
0
 70
     0
280
     1
281
     0
  0
BLOCK_RECORD
  5
8021
330
1
100
AcDbSymbolTableRecord
100
AcDbBlockTableRecord
  2
*D18
340
0
 70
     0
280
     1
281
     0
  0
BLOCK_RECORD
  5
8140
330
1
100
AcDbSymbolTableRecord
100
AcDbBlockTableRecord
  2
*D19
340
0
 70
     0
280
     1
281
     0
  0
BLOCK_RECORD
  5
814D
330
1
100
AcDbSymbolTableRecord
100
AcDbBlockTableRecord
  2
*D20
340
0
 70
     0
280
     1
281
     0
  0
BLOCK_RECORD
  5
815A
330
1
100
AcDbSymbolTableRecord
100
AcDbBlockTableRecord
  2
*D21
340
0
 70
     0
280
     1
281
     0
  0
BLOCK_RECORD
  5
8167
330
1
100
AcDbSymbolTableRecord
100
AcDbBlockTableRecord
  2
*D22
340
0
 70
     0
280
     1
281
     0
  0
BLOCK_RECORD
  5
8174
330
1
100
AcDbSymbolTableRecord
100
AcDbBlockTableRecord
  2
_NONE
340
0
 70
     0
280
     1
281
     0
  0
BLOCK_RECORD
  5
81AD
330
1
100
AcDbSymbolTableRecord
100
AcDbBlockTableRecord
  2
*D24
340
0
 70
     0
280
     1
281
     0
  0
BLOCK_RECORD
  5
81CB
330
1
100
AcDbSymbolTableRecord
100
AcDbBlockTableRecord
  2
*D25
340
0
 70
     0
280
     1
281
     0
  0
ENDTAB
  0
ENDSEC
  0
SECTION
  2
BLOCKS
  0
BLOCK
  5
1A
330
19
100
AcDbEntity
  8
0
100
AcDbBlockBegin
  2
*MODEL_SPACE
 70
     0
 10
0.0
 20
0.0
 30
0.0
  3
*MODEL_SPACE
  1

  0
ENDBLK
  5
1B
330
19
100
AcDbEntity
  8
0
100
AcDbBlockEnd
  0
BLOCK
  5
17
330
16
100
AcDbEntity
 67
     1
  8
0
100
AcDbBlockBegin
  2
*PAPER_SPACE
 70
     0
 10
0.0
 20
0.0
 30
0.0
  3
*PAPER_SPACE
  1

  0
ENDBLK
  5
18
330
16
100
AcDbEntity
 67
     1
  8
0
100
AcDbBlockEnd
  0
BLOCK
  5
7B8D
330
7B8C
100
AcDbEntity
  8
0
100
AcDbBlockBegin
  2
_OPEN
 70
     0
 10
0.0
 20
0.0
 30
0.0
  3
_OPEN
  1

  0
LINE
  5
7B8E
330
7B8C
100
AcDbEntity
  8
0
  6
ByBlock
 62
     0
100
AcDbLine
 10
-1.0
 20
0.1666666666666666
 30
0.0
 11
0.0
 21
0.0
 31
0.0
  0
LINE
  5
7B8F
330
7B8C
100
AcDbEntity
  8
0
  6
ByBlock
 62
     0
100
AcDbLine
 10
0.0
 20
0.0
 30
0.0
 11
-1.0
 21
-0.1666666666666666
 31
0.0
  0
LINE
  5
7B90
330
7B8C
100
AcDbEntity
  8
0
  6
ByBlock
 62
     0
100
AcDbLine
 10
0.0
 20
0.0
 30
0.0
 11
-1.0
 21
0.0
 31
0.0
  0
ENDBLK
  5
7B91
330
7B8C
100
AcDbEntity
  8
0
100
AcDbBlockEnd
  0
BLOCK
  5
80EC
330
7B92
100
AcDbEntity
  8
0
100
AcDbBlockBegin
  2
*D1
 70
     1
 10
0.0
 20
0.0
 30
0.0
  3
*D1
  1

  0
LINE
  5
8213
330
7B92
100
AcDbEntity
  8
3
 62
     0
440
 16777216
100
AcDbLine
 10
4535.782620196657
 20
10796.94172203366
 30
0.0
 11
4535.782620196657
 21
11323.42210295275
 31
0.0
  0
LINE
  5
8214
330
7B92
100
AcDbEntity
  8
3
 62
     0
440
 16777216
100
AcDbLine
 10
2635.782620196639
 20
10796.94172203301
 30
0.0
 11
2635.782620196639
 21
11323.42210295275
 31
0.0
  0
LINE
  5
8215
330
7B92
100
AcDbEntity
  8
3
 62
     0
440
 16777216
100
AcDbLine
 10
4435.782620196657
 20
11273.42210295275
 30
0.0
 11
2735.782620196639
 21
11273.42210295275
 31
0.0
  0
INSERT
  5
8216
330
7B92
100
AcDbEntity
  8
3
 62
     0
440
 16777216
100
AcDbBlockReference
  2
_OPEN
 10
4535.782620196657
 20
11273.42210295275
 30
0.0
 41
100.0
 42
100.0
 43
100.0
  0
INSERT
  5
8217
330
7B92
100
AcDbEntity
  8
3
 62
     0
440
 16777216
100
AcDbBlockReference
  2
_OPEN
 10
2635.782620196639
 20
11273.42210295275
 30
0.0
 41
100.0
 42
100.0
 43
100.0
 50
180.0
  0
MTEXT
  5
8218
330
7B92
100
AcDbEntity
  8
3
 62
     0
440
 16777216
100
AcDbMText
 10
3594.600710674153
 20
11398.42210295275
 30
0.0
 40
150.0
 41
0.0
 46
0.0
 71
     5
 72
     5
  1
\A1;1900
 73
     1
 44
1.0
  0
POINT
  5
8219
330
7B92
100
AcDbEntity
  8
DEFPOINTS
 62
     0
440
 16777216
100
AcDbPoint
 10
4535.782620196657
 20
10771.94172203366
 30
0.0
  0
POINT
  5
821A
330
7B92
100
AcDbEntity
  8
DEFPOINTS
 62
     0
440
 16777216
100
AcDbPoint
 10
2635.782620196639
 20
10771.94172203301
 30
0.0
  0
POINT
  5
821B
330
7B92
100
AcDbEntity
  8
DEFPOINTS
 62
     0
440
 16777216
100
AcDbPoint
 10
2635.782620196639
 20
11273.42210295275
 30
0.0
  0
ENDBLK
  5
80F6
330
7B92
100
AcDbEntity
  8
0
100
AcDbBlockEnd
  0
BLOCK
  5
810D
330
7B9F
100
AcDbEntity
  8
0
100
AcDbBlockBegin
  2
*D2
 70
     1
 10
0.0
 20
0.0
 30
0.0
  3
*D2
  1

  0
LINE
  5
821C
330
7B9F
100
AcDbEntity
  8
3
 62
     0
440
 16777216
100
AcDbLine
 10
1235.782620197133
 20
9396.941722032462
 30
0.0
 11
1235.782620197133
 21
11323.42210295109
 31
0.0
  0
LINE
  5
821D
330
7B9F
100
AcDbEntity
  8
3
 62
     0
440
 16777216
100
AcDbLine
 10
2535.782620196639
 20
11273.42210295109
 30
0.0
 11
1335.782620197133
 21
11273.42210295109
 31
0.0
  0
INSERT
  5
821E
330
7B9F
100
AcDbEntity
  8
3
 62
     0
440
 16777216
100
AcDbBlockReference
  2
_OPEN
 10
2635.782620196639
 20
11273.42210295109
 30
0.0
 41
100.0
 42
100.0
 43
100.0
  0
INSERT
  5
821F
330
7B9F
100
AcDbEntity
  8
3
 62
     0
440
 16777216
100
AcDbBlockReference
  2
_OPEN
 10
1235.782620197133
 20
11273.42210295109
 30
0.0
 41
100.0
 42
100.0
 43
100.0
 50
180.0
  0
MTEXT
  5
8220
330
7B9F
100
AcDbEntity
  8
3
 62
     0
440
 16777216
100
AcDbMText
 10
1935.782620196886
 20
11398.42210295109
 30
0.0
 40
150.0
 41
0.0
 46
0.0
 71
     5
 72
     5
  1
\A1;1400
 73
     1
 44
1.0
  0
POINT
  5
8221
330
7B9F
100
AcDbEntity
  8
DEFPOINTS
 62
     0
440
 16777216
100
AcDbPoint
 10
2635.782620196639
 20
10771.94172203301
 30
0.0
  0
POINT
  5
8222
330
7B9F
100
AcDbEntity
  8
DEFPOINTS
 62
     0
440
 16777216
100
AcDbPoint
 10
1235.782620197133
 20
9371.941722032461
 30
0.0
  0
POINT
  5
8223
330
7B9F
100
AcDbEntity
  8
DEFPOINTS
 62
     0
440
 16777216
100
AcDbPoint
 10
1235.782620197133
 20
11273.42210295109
 30
0.0
  0
ENDBLK
  5
8116
330
7B9F
100
AcDbEntity
  8
0
100
AcDbBlockEnd
  0
BLOCK
  5
8117
330
7BAB
100
AcDbEntity
  8
0
100
AcDbBlockBegin
  2
*D3
 70
     1
 10
0.0
 20
0.0
 30
0.0
  3
*D3
  1

  0
LINE
  5
8224
330
7BAB
100
AcDbEntity
  8
3
 62
     0
440
 16777216
100
AcDbLine
 10
1210.782620197133
 20
9371.941722032461
 30
0.0
 11
865.8615341761212
 21
9371.941722032461
 31
0.0
  0
LINE
  5
8225
330
7BAB
100
AcDbEntity
  8
3
 62
     0
440
 16777216
100
AcDbLine
 10
1210.782620197544
 20
8171.94172203246
 30
0.0
 11
865.8615341761208
 21
8171.94172203246
 31
0.0
  0
LINE
  5
8226
330
7BAB
100
AcDbEntity
  8
3
 62
     0
440
 16777216
100
AcDbLine
 10
915.8615341761212
 20
9271.941722032462
 30
0.0
 11
915.8615341761208
 21
8271.941722032462
 31
0.0
  0
INSERT
  5
8227
330
7BAB
100
AcDbEntity
  8
3
 62
     0
440
 16777216
100
AcDbBlockReference
  2
_OPEN
 10
915.8615341761212
 20
9371.941722032461
 30
0.0
 41
100.0
 42
100.0
 43
100.0
 50
90.0
  0
INSERT
  5
8228
330
7BAB
100
AcDbEntity
  8
3
 62
     0
440
 16777216
100
AcDbBlockReference
  2
_OPEN
 10
915.8615341761208
 20
8171.94172203246
 30
0.0
 41
100.0
 42
100.0
 43
100.0
 50
270.0
  0
MTEXT
  5
8229
330
7BAB
100
AcDbEntity
  8
3
 62
     0
440
 16777216
100
AcDbMText
 10
790.8615341761197
 20
8887.820524583167
 30
0.0
 40
150.0
 41
0.0
 46
0.0
 71
     5
 72
     5
  1
\A1;1200
 11
0.0000000000000001
 21
1.0
 31
0.0
 73
     1
 44
1.0
  0
POINT
  5
822A
330
7BAB
100
AcDbEntity
  8
DEFPOINTS
 62
     0
440
 16777216
100
AcDbPoint
 10
1235.782620197133
 20
9371.941722032461
 30
0.0
  0
POINT
  5
822B
330
7BAB
100
AcDbEntity
  8
DEFPOINTS
 62
     0
440
 16777216
100
AcDbPoint
 10
1235.782620197544
 20
8171.94172203246
 30
0.0
  0
POINT
  5
822C
330
7BAB
100
AcDbEntity
  8
DEFPOINTS
 62
     0
440
 16777216
100
AcDbPoint
 10
915.8615341761208
 20
8171.94172203246
 30
0.0
  0
ENDBLK
  5
8121
330
7BAB
100
AcDbEntity
  8
0
100
AcDbBlockEnd
  0
BLOCK
  5
80F7
330
7BB8
100
AcDbEntity
  8
0
100
AcDbBlockBegin
  2
*D4
 70
     1
 10
0.0
 20
0.0
 30
0.0
  3
*D4
  1

  0
LINE
  5
8347
330
7BB8
100
AcDbEntity
  8
3
 62
     0
440
 16777216
370
    -2
100
AcDbLine
 10
4535.781620197554
 20
8146.941722033664
 30
0.0
 11
4535.781620197554
 21
7626.542350786198
 31
0.0
  0
LINE
  5
8348
330
7BB8
100
AcDbEntity
  8
3
 62
     0
440
 16777216
370
    -2
100
AcDbLine
 10
1235.782620197544
 20
8146.94172203246
 30
0.0
 11
1235.782620197544
 21
7626.542350786198
 31
0.0
  0
LINE
  5
8349
330
7BB8
100
AcDbEntity
  8
3
 62
     0
440
 16777216
370
    -2
100
AcDbLine
 10
4435.781620197555
 20
7676.542350786198
 30
0.0
 11
1335.782620197544
 21
7676.542350786198
 31
0.0
  0
INSERT
  5
834A
330
7BB8
100
AcDbEntity
  8
3
 62
     0
440
 16777216
370
    -2
100
AcDbBlockReference
  2
_OPEN
 10
4535.781620197554
 20
7676.542350786198
 30
0.0
 41
100.0
 42
100.0
 43
100.0
  0
INSERT
  5
834B
330
7BB8
100
AcDbEntity
  8
3
 62
     0
440
 16777216
370
    -2
100
AcDbBlockReference
  2
_OPEN
 10
1235.782620197544
 20
7676.542350786198
 30
0.0
 41
100.0
 42
100.0
 43
100.0
 50
180.0
  0
MTEXT
  5
834C
330
7BB8
100
AcDbEntity
  8
3
 62
     0
440
 16777216
100
AcDbMText
 10
3077.477235115433
 20
7801.542350786198
 30
0.0
 40
150.0
 41
0.0
 46
0.0
 71
     5
 72
     1
  1
\A1;3300
 73
     1
 44
1.0
  0
POINT
  5
834D
330
7BB8
100
AcDbEntity
  8
DEFPOINTS
 62
     0
440
 16777216
100
AcDbPoint
 10
4535.781620197554
 20
8171.941722033665
 30
0.0
  0
POINT
  5
834E
330
7BB8
100
AcDbEntity
  8
DEFPOINTS
 62
     0
440
 16777216
100
AcDbPoint
 10
1235.782620197544
 20
8171.94172203246
 30
0.0
  0
POINT
  5
834F
330
7BB8
100
AcDbEntity
  8
DEFPOINTS
 62
     0
440
 16777216
100
AcDbPoint
 10
1235.782620197544
 20
7676.542350786198
 30
0.0
  0
ENDBLK
  5
8101
330
7BB8
100
AcDbEntity
  8
0
100
AcDbBlockEnd
  0
BLOCK
  5
8122
330
7BC5
100
AcDbEntity
  8
0
100
AcDbBlockBegin
  2
*D5
 70
     1
 10
0.0
 20
0.0
 30
0.0
  3
*D5
  1

  0
LINE
  5
8236
330
7BC5
100
AcDbEntity
  8
3
 62
     0
440
 16777216
100
AcDbLine
 10
4560.782620196657
 20
10771.94172203366
 30
0.0
 11
5211.56316526964
 21
10771.94172203366
 31
0.0
  0
LINE
  5
8237
330
7BC5
100
AcDbEntity
  8
3
 62
     0
440
 16777216
100
AcDbLine
 10
4560.781620197555
 20
8171.941722033665
 30
0.0
 11
5211.563165269639
 21
8171.941722033665
 31
0.0
  0
LINE
  5
8238
330
7BC5
100
AcDbEntity
  8
3
 62
     0
440
 16777216
100
AcDbLine
 10
5161.56316526964
 20
10671.94172203366
 30
0.0
 11
5161.563165269639
 21
8271.941722033664
 31
0.0
  0
INSERT
  5
8239
330
7BC5
100
AcDbEntity
  8
3
 62
     0
440
 16777216
100
AcDbBlockReference
  2
_OPEN
 10
5161.56316526964
 20
10771.94172203366
 30
0.0
 41
100.0
 42
100.0
 43
100.0
 50
90.0
  0
INSERT
  5
823A
330
7BC5
100
AcDbEntity
  8
3
 62
     0
440
 16777216
100
AcDbBlockReference
  2
_OPEN
 10
5161.563165269639
 20
8171.941722033665
 30
0.0
 41
100.0
 42
100.0
 43
100.0
 50
270.0
  0
MTEXT
  5
823B
330
7BC5
100
AcDbEntity
  8
3
 62
     0
440
 16777216
100
AcDbMText
 10
5036.563165269638
 20
9634.418469074631
 30
0.0
 40
150.0
 41
0.0
 46
0.0
 71
     5
 72
     5
  1
\A1;2600
 11
0.0000000000000001
 21
1.0
 31
0.0
 73
     1
 44
1.0
  0
POINT
  5
823C
330
7BC5
100
AcDbEntity
  8
DEFPOINTS
 62
     0
440
 16777216
100
AcDbPoint
 10
4535.782620196657
 20
10771.94172203366
 30
0.0
  0
POINT
  5
823D
330
7BC5
100
AcDbEntity
  8
DEFPOINTS
 62
     0
440
 16777216
100
AcDbPoint
 10
4535.781620197554
 20
8171.941722033665
 30
0.0
  0
POINT
  5
823E
330
7BC5
100
AcDbEntity
  8
DEFPOINTS
 62
     0
440
 16777216
100
AcDbPoint
 10
5161.563165269639
 20
8171.941722033665
 30
0.0
  0
ENDBLK
  5
812C
330
7BC5
100
AcDbEntity
  8
0
100
AcDbBlockEnd
  0
BLOCK
  5
8073
330
7CB3
100
AcDbEntity
  8
0
100
AcDbBlockBegin
  2
*D6
 70
     1
 10
0.0
 20
0.0
 30
0.0
  3
*D6
  1

  0
LINE
  5
823F
330
7CB3
100
AcDbEntity
  8
3
 62
     0
440
 16777216
100
AcDbLine
 10
4630.781620198013
 20
5410.93662310052
 30
0.0
 11
4630.781620198013
 21
6935.376602531263
 31
0.0
  0
LINE
  5
8240
330
7CB3
100
AcDbEntity
  8
3
 62
     0
440
 16777216
100
AcDbLine
 10
3585.782620197818
 20
6601.507214658463
 30
0.0
 11
3585.782620197818
 21
6935.376602531263
 31
0.0
  0
LINE
  5
8241
330
7CB3
100
AcDbEntity
  8
3
 62
     0
440
 16777216
100
AcDbLine
 10
4530.781620198013
 20
6885.376602531263
 30
0.0
 11
3685.782620197818
 21
6885.376602531263
 31
0.0
  0
INSERT
  5
8242
330
7CB3
100
AcDbEntity
  8
3
 62
     0
440
 16777216
100
AcDbBlockReference
  2
_OPEN
 10
4630.781620198013
 20
6885.376602531263
 30
0.0
 41
100.0
 42
100.0
 43
100.0
  0
INSERT
  5
8243
330
7CB3
100
AcDbEntity
  8
3
 62
     0
440
 16777216
100
AcDbBlockReference
  2
_OPEN
 10
3585.782620197818
 20
6885.376602531263
 30
0.0
 41
100.0
 42
100.0
 43
100.0
 50
180.0
  0
MTEXT
  5
8244
330
7CB3
100
AcDbEntity
  8
3
 62
     0
440
 16777216
100
AcDbMText
 10
4160.510516029529
 20
7010.376602531263
 30
0.0
 40
150.0
 41
0.0
 46
0.0
 71
     5
 72
     5
  1
\A1;1045
 73
     1
 44
1.0
  0
POINT
  5
8245
330
7CB3
100
AcDbEntity
  8
DEFPOINTS
 62
     0
440
 16777216
100
AcDbPoint
 10
4630.781620198013
 20
5385.93662310052
 30
0.0
  0
POINT
  5
8246
330
7CB3
100
AcDbEntity
  8
DEFPOINTS
 62
     0
440
 16777216
100
AcDbPoint
 10
3585.782620197818
 20
6576.507214658462
 30
0.0
  0
POINT
  5
8247
330
7CB3
100
AcDbEntity
  8
DEFPOINTS
 62
     0
440
 16777216
100
AcDbPoint
 10
3585.782620197818
 20
6885.376602531263
 30
0.0
  0
ENDBLK
  5
807D
330
7CB3
100
AcDbEntity
  8
0
100
AcDbBlockEnd
  0
BLOCK
  5
80D8
330
7CC0
100
AcDbEntity
  8
0
100
AcDbBlockBegin
  2
*D7
 70
     1
 10
0.0
 20
0.0
 30
0.0
  3
*D7
  1

  0
LINE
  5
8248
330
7CC0
100
AcDbEntity
  8
3
 62
     0
440
 16777216
100
AcDbLine
 10
2214.782620197962
 20
5531.936623099152
 30
0.0
 11
2214.782620197962
 21
6935.376602529892
 31
0.0
  0
LINE
  5
8249
330
7CC0
100
AcDbEntity
  8
3
 62
     0
440
 16777216
100
AcDbLine
 10
3485.782620197818
 20
6885.376602529892
 30
0.0
 11
2314.782620197962
 21
6885.376602529892
 31
0.0
  0
INSERT
  5
824A
330
7CC0
100
AcDbEntity
  8
3
 62
     0
440
 16777216
100
AcDbBlockReference
  2
_OPEN
 10
3585.782620197818
 20
6885.376602529892
 30
0.0
 41
100.0
 42
100.0
 43
100.0
  0
INSERT
  5
824B
330
7CC0
100
AcDbEntity
  8
3
 62
     0
440
 16777216
100
AcDbBlockReference
  2
_OPEN
 10
2214.782620197962
 20
6885.376602529892
 30
0.0
 41
100.0
 42
100.0
 43
100.0
 50
180.0
  0
MTEXT
  5
824C
330
7CC0
100
AcDbEntity
  8
3
 62
     0
440
 16777216
100
AcDbMText
 10
2900.28262019789
 20
7010.376602529892
 30
0.0
 40
150.0
 41
0.0
 46
0.0
 71
     5
 72
     5
  1
\A1;1371
 73
     1
 44
1.0
  0
POINT
  5
824D
330
7CC0
100
AcDbEntity
  8
DEFPOINTS
 62
     0
440
 16777216
100
AcDbPoint
 10
3585.782620197818
 20
6576.507214658462
 30
0.0
  0
POINT
  5
824E
330
7CC0
100
AcDbEntity
  8
DEFPOINTS
 62
     0
440
 16777216
100
AcDbPoint
 10
2214.782620197962
 20
5506.936623099153
 30
0.0
  0
POINT
  5
824F
330
7CC0
100
AcDbEntity
  8
DEFPOINTS
 62
     0
440
 16777216
100
AcDbPoint
 10
2214.782620197962
 20
6885.376602529892
 30
0.0
  0
ENDBLK
  5
80E1
330
7CC0
100
AcDbEntity
  8
0
100
AcDbBlockEnd
  0
BLOCK
  5
80C2
330
7CCC
100
AcDbEntity
  8
0
100
AcDbBlockBegin
  2
*D8
 70
     1
 10
0.0
 20
0.0
 30
0.0
  3
*D8
  1

  0
LINE
  5
8250
330
7CCC
100
AcDbEntity
  8
3
 62
     0
440
 16777216
100
AcDbLine
 10
4655.781620198581
 20
3695.936623100521
 30
0.0
 11
4954.566442468392
 21
3695.936623100521
 31
0.0
  0
LINE
  5
8251
330
7CCC
100
AcDbEntity
  8
3
 62
     0
440
 16777216
100
AcDbLine
 10
4655.781620198015
 20
5345.936623100519
 30
0.0
 11
4954.566442468392
 21
5345.936623100519
 31
0.0
  0
LINE
  5
8252
330
7CCC
100
AcDbEntity
  8
3
 62
     0
440
 16777216
100
AcDbLine
 10
4904.566442468392
 20
3795.936623100521
 30
0.0
 11
4904.566442468392
 21
5245.936623100519
 31
0.0
  0
INSERT
  5
8253
330
7CCC
100
AcDbEntity
  8
3
 62
     0
440
 16777216
100
AcDbBlockReference
  2
_OPEN
 10
4904.566442468392
 20
3695.936623100521
 30
0.0
 41
100.0
 42
100.0
 43
100.0
 50
270.0
  0
INSERT
  5
8254
330
7CCC
100
AcDbEntity
  8
3
 62
     0
440
 16777216
100
AcDbBlockReference
  2
_OPEN
 10
4904.566442468392
 20
5345.936623100519
 30
0.0
 41
100.0
 42
100.0
 43
100.0
 50
90.0
  0
MTEXT
  5
8255
330
7CCC
100
AcDbEntity
  8
3
 62
     0
440
 16777216
100
AcDbMText
 10
4779.566442468391
 20
4505.452684525409
 30
0.0
 40
150.0
 41
0.0
 46
0.0
 71
     5
 72
     5
  1
\A1;1650
 11
0.0000000000000001
 21
1.0
 31
0.0
 73
     1
 44
1.0
  0
POINT
  5
8256
330
7CCC
100
AcDbEntity
  8
DEFPOINTS
 62
     0
440
 16777216
100
AcDbPoint
 10
4630.781620198582
 20
3695.936623100521
 30
0.0
  0
POINT
  5
8257
330
7CCC
100
AcDbEntity
  8
DEFPOINTS
 62
     0
440
 16777216
100
AcDbPoint
 10
4630.781620198016
 20
5345.936623100519
 30
0.0
  0
POINT
  5
8258
330
7CCC
100
AcDbEntity
  8
DEFPOINTS
 62
     0
440
 16777216
100
AcDbPoint
 10
4904.566442468392
 20
5345.936623100519
 30
0.0
  0
ENDBLK
  5
80CC
330
7CCC
100
AcDbEntity
  8
0
100
AcDbBlockEnd
  0
BLOCK
  5
80CD
330
7CE6
100
AcDbEntity
  8
0
100
AcDbBlockBegin
  2
*D9
 70
     1
 10
0.0
 20
0.0
 30
0.0
  3
*D9
  1

  0
LINE
  5
8259
330
7CE6
100
AcDbEntity
  8
3
 62
     0
440
 16777216
100
AcDbLine
 10
4655.781620198581
 20
3695.936623100521
 30
0.0
 11
5237.119325059531
 21
3695.936623100521
 31
0.0
  0
LINE
  5
825A
330
7CE6
100
AcDbEntity
  8
3
 62
     0
440
 16777216
100
AcDbLine
 10
4717.829003625655
 20
5390.93662310054
 30
0.0
 11
5237.119325059531
 21
5390.93662310054
 31
0.0
  0
LINE
  5
825B
330
7CE6
100
AcDbEntity
  8
3
 62
     0
440
 16777216
100
AcDbLine
 10
5187.11932505953
 20
3795.936623100521
 30
0.0
 11
5187.11932505953
 21
5290.936623100541
 31
0.0
  0
INSERT
  5
825C
330
7CE6
100
AcDbEntity
  8
3
 62
     0
440
 16777216
100
AcDbBlockReference
  2
_OPEN
 10
5187.11932505953
 20
3695.936623100521
 30
0.0
 41
100.0
 42
100.0
 43
100.0
 50
270.0
  0
INSERT
  5
825D
330
7CE6
100
AcDbEntity
  8
3
 62
     0
440
 16777216
100
AcDbBlockReference
  2
_OPEN
 10
5187.11932505953
 20
5390.93662310054
 30
0.0
 41
100.0
 42
100.0
 43
100.0
 50
90.0
  0
MTEXT
  5
825E
330
7CE6
100
AcDbEntity
  8
3
 62
     0
440
 16777216
100
AcDbMText
 10
5062.11932505953
 20
4505.452684525404
 30
0.0
 40
150.0
 41
0.0
 46
0.0
 71
     5
 72
     5
  1
\A1;1695
 11
0.0000000000000001
 21
1.0
 31
0.0
 73
     1
 44
1.0
  0
POINT
  5
825F
330
7CE6
100
AcDbEntity
  8
DEFPOINTS
 62
     0
440
 16777216
100
AcDbPoint
 10
4630.781620198582
 20
3695.936623100521
 30
0.0
  0
POINT
  5
8260
330
7CE6
100
AcDbEntity
  8
DEFPOINTS
 62
     0
440
 16777216
100
AcDbPoint
 10
4692.829003625655
 20
5390.93662310054
 30
0.0
  0
POINT
  5
8261
330
7CE6
100
AcDbEntity
  8
DEFPOINTS
 62
     0
440
 16777216
100
AcDbPoint
 10
5187.11932505953
 20
5390.93662310054
 30
0.0
  0
ENDBLK
  5
80D7
330
7CE6
100
AcDbEntity
  8
0
100
AcDbBlockEnd
  0
BLOCK
  5
809E
330
7CF3
100
AcDbEntity
  8
0
100
AcDbBlockBegin
  2
*D10
 70
     1
 10
0.0
 20
0.0
 30
0.0
  3
*D10
  1

  0
LINE
  5
8262
330
7CF3
100
AcDbEntity
  8
3
 62
     0
440
 16777216
100
AcDbLine
 10
4717.829003625655
 20
5390.936623100543
 30
0.0
 11
5591.890606517917
 21
5390.936623100543
 31
0.0
  0
LINE
  5
8263
330
7CF3
100
AcDbEntity
  8
3
 62
     0
440
 16777216
100
AcDbLine
 10
4560.782620198604
 20
3490.936623100488
 30
0.0
 11
5591.890606517917
 21
3490.936623100488
 31
0.0
  0
LINE
  5
8264
330
7CF3
100
AcDbEntity
  8
3
 62
     0
440
 16777216
100
AcDbLine
 10
5541.890606517917
 20
5290.936623100543
 30
0.0
 11
5541.890606517917
 21
3590.936623100488
 31
0.0
  0
INSERT
  5
8265
330
7CF3
100
AcDbEntity
  8
3
 62
     0
440
 16777216
100
AcDbBlockReference
  2
_OPEN
 10
5541.890606517917
 20
5390.936623100543
 30
0.0
 41
100.0
 42
100.0
 43
100.0
 50
90.0
  0
INSERT
  5
8266
330
7CF3
100
AcDbEntity
  8
3
 62
     0
440
 16777216
100
AcDbBlockReference
  2
_OPEN
 10
5541.890606517917
 20
3490.936623100488
 30
0.0
 41
100.0
 42
100.0
 43
100.0
 50
270.0
  0
MTEXT
  5
8267
330
7CF3
100
AcDbEntity
  8
3
 62
     0
440
 16777216
100
AcDbMText
 10
5416.890606517916
 20
4440.936623100515
 30
0.0
 40
150.0
 41
0.0
 46
0.0
 71
     5
 72
     5
  1
\A1;1900
 11
0.0000000000000001
 21
1.0
 31
0.0
 73
     1
 44
1.0
  0
POINT
  5
8268
330
7CF3
100
AcDbEntity
  8
DEFPOINTS
 62
     0
440
 16777216
100
AcDbPoint
 10
4692.829003625655
 20
5390.936623100543
 30
0.0
  0
POINT
  5
8269
330
7CF3
100
AcDbEntity
  8
DEFPOINTS
 62
     0
440
 16777216
100
AcDbPoint
 10
4535.782620198604
 20
3490.936623100488
 30
0.0
  0
POINT
  5
826A
330
7CF3
100
AcDbEntity
  8
DEFPOINTS
 62
     0
440
 16777216
100
AcDbPoint
 10
5541.890606517917
 20
3490.936623100488
 30
0.0
  0
ENDBLK
  5
80A8
330
7CF3
100
AcDbEntity
  8
0
100
AcDbBlockEnd
  0
BLOCK
  5
80B5
330
7D0F
100
AcDbEntity
  8
0
100
AcDbBlockBegin
  2
*D11
 70
     1
 10
0.0
 20
0.0
 30
0.0
  3
*D11
  1

  0
LINE
  5
8374
330
7D0F
100
AcDbEntity
  8
3
 62
     0
440
 16777216
370
    -2
100
AcDbLine
 10
4560.782620198613
 20
3385.936623100488
 30
0.0
 11
5591.890606517984
 21
3385.936623100488
 31
0.0
  0
LINE
  5
8375
330
7D0F
100
AcDbEntity
  8
3
 62
     0
440
 16777216
370
    -2
100
AcDbLine
 10
4560.782620198639
 20
3310.936623100488
 30
0.0
 11
5591.890606517984
 21
3310.936623100488
 31
0.0
  0
LINE
  5
8376
330
7D0F
100
AcDbEntity
  8
3
 62
     0
440
 16777216
370
    -2
100
AcDbLine
 10
5541.890606517984
 20
3485.936623100488
 30
0.0
 11
5541.890606517984
 21
3585.936623100488
 31
0.0
  0
LINE
  5
8377
330
7D0F
100
AcDbEntity
  8
3
 62
     0
440
 16777216
370
    -2
100
AcDbLine
 10
5541.890606517984
 20
3210.936623100488
 30
0.0
 11
5541.890606517984
 21
2768.079480243345
 31
0.0
  0
LINE
  5
8378
330
7D0F
100
AcDbEntity
  8
3
 62
     0
440
 16777216
370
    -2
100
AcDbLine
 10
5541.890606517984
 20
3385.936623100488
 30
0.0
 11
5541.890606517984
 21
3310.936623100488
 31
0.0
  0
INSERT
  5
8379
330
7D0F
100
AcDbEntity
  8
3
 62
     0
440
 16777216
370
    -2
100
AcDbBlockReference
  2
_DOT
 10
5541.890606517984
 20
3385.936623100488
 30
0.0
 41
100.0
 42
100.0
 43
100.0
 50
270.0
  0
INSERT
  5
837A
330
7D0F
100
AcDbEntity
  8
3
 62
     0
440
 16777216
370
    -2
100
AcDbBlockReference
  2
_OPEN
 10
5541.890606517984
 20
3310.936623100488
 30
0.0
 41
100.0
 42
100.0
 43
100.0
 50
90.0
  0
MTEXT
  5
837B
330
7D0F
100
AcDbEntity
  8
3
 62
     0
440
 16777216
100
AcDbMText
 10
5416.890606517982
 20
2939.508051671917
 30
0.0
 40
150.0
 41
0.0
 46
0.0
 71
     5
 72
     1
  1
\A1;75
 11
0.0000000000000001
 21
1.0
 31
0.0
 73
     1
 44
1.0
  0
POINT
  5
837C
330
7D0F
100
AcDbEntity
  8
DEFPOINTS
 62
     0
440
 16777216
100
AcDbPoint
 10
4535.782620198613
 20
3385.936623100488
 30
0.0
  0
POINT
  5
837D
330
7D0F
100
AcDbEntity
  8
DEFPOINTS
 62
     0
440
 16777216
100
AcDbPoint
 10
4535.782620198639
 20
3310.936623100488
 30
0.0
  0
POINT
  5
837E
330
7D0F
100
AcDbEntity
  8
DEFPOINTS
 62
     0
440
 16777216
100
AcDbPoint
 10
5541.890606517984
 20
3310.936623100488
 30
0.0
  0
ENDBLK
  5
80C1
330
7D0F
100
AcDbEntity
  8
0
100
AcDbBlockEnd
  0
BLOCK
  5
7D2D
330
7D2C
100
AcDbEntity
  8
0
100
AcDbBlockBegin
  2
_DOT
 70
     0
 10
0.0
 20
0.0
 30
0.0
  3
_DOT
  1

  0
LINE
  5
7F05
330
7D2C
100
AcDbEntity
  8
0
  6
ByBlock
 62
     0
100
AcDbLine
 10
0.0
 20
0.0
 30
0.0
 11
-1.0
 21
-0.0000000000000284
 31
0.0
  0
LWPOLYLINE
  5
7F06
330
7D2C
100
AcDbEntity
  8
0
  6
ByBlock
 62
     0
100
AcDbPolyline
 90
        2
 70
     1
 43
0.1666666666666666
 10
-0.0833333333333286
 20
-0.0000000000000284
 42
1.0
 10
0.0833333333333286
 20
-0.0000000000000284
 42
1.0
  0
ENDBLK
  5
7D33
330
7D2C
100
AcDbEntity
  8
0
100
AcDbBlockEnd
  0
BLOCK
  5
8043
330
7DAC
100
AcDbEntity
  8
0
100
AcDbBlockBegin
  2
*D13
 70
     1
 10
0.0
 20
0.0
 30
0.0
  3
*D13
  1

  0
LINE
  5
8335
330
7DAC
100
AcDbEntity
  8
3
 62
     0
440
 16777216
370
    -2
100
AcDbLine
 10
9389.581525394618
 20
5355.936623100531
 30
0.0
 11
9389.581525394618
 21
7153.858060591265
 31
0.0
  0
LINE
  5
8336
330
7DAC
100
AcDbEntity
  8
3
 62
     0
440
 16777216
370
    -2
100
AcDbLine
 10
8089.375071392096
 20
7013.850619248778
 30
0.0
 11
8089.375071392096
 21
7153.858060591265
 31
0.0
  0
LINE
  5
8337
330
7DAC
100
AcDbEntity
  8
3
 62
     0
440
 16777216
370
    -2
100
AcDbLine
 10
9289.581525394618
 20
7103.858060591266
 30
0.0
 11
8189.375071392097
 21
7103.858060591266
 31
0.0
  0
INSERT
  5
8338
330
7DAC
100
AcDbEntity
  8
3
 62
     0
440
 16777216
370
    -2
100
AcDbBlockReference
  2
_OPEN
 10
9389.581525394618
 20
7103.858060591266
 30
0.0
 41
100.0
 42
100.0
 43
100.0
  0
INSERT
  5
8339
330
7DAC
100
AcDbEntity
  8
3
 62
     0
440
 16777216
370
    -2
100
AcDbBlockReference
  2
_OPEN
 10
8089.375071392096
 20
7103.858060591266
 30
0.0
 41
100.0
 42
100.0
 43
100.0
 50
180.0
  0
MTEXT
  5
833A
330
7DAC
100
AcDbEntity
  8
3
 62
     0
440
 16777216
100
AcDbMText
 10
8585.803642820668
 20
7268.143774876979
 30
0.0
 40
150.0
 41
0.0
 46
0.0
 71
     5
 72
     1
  1
\A1;(1300)
 73
     1
 44
1.0
  0
POINT
  5
833B
330
7DAC
100
AcDbEntity
  8
DEFPOINTS
 62
     0
440
 16777216
100
AcDbPoint
 10
9389.581525394618
 20
5330.936623100531
 30
0.0
  0
POINT
  5
833C
330
7DAC
100
AcDbEntity
  8
DEFPOINTS
 62
     0
440
 16777216
100
AcDbPoint
 10
8089.375071392096
 20
6988.850619248778
 30
0.0
  0
POINT
  5
833D
330
7DAC
100
AcDbEntity
  8
DEFPOINTS
 62
     0
440
 16777216
100
AcDbPoint
 10
8089.375071392096
 20
7103.858060591266
 30
0.0
  0
ENDBLK
  5
804D
330
7DAC
100
AcDbEntity
  8
0
100
AcDbBlockEnd
  0
BLOCK
  5
802E
330
7DB9
100
AcDbEntity
  8
0
100
AcDbBlockBegin
  2
*D14
 70
     1
 10
0.0
 20
0.0
 30
0.0
  3
*D14
  1

  0
LINE
  5
832D
330
7DB9
100
AcDbEntity
  8
3
 62
     0
440
 16777216
370
    -2
100
AcDbLine
 10
6469.180525394548
 20
5965.936623100219
 30
0.0
 11
6469.180525394548
 21
7153.858060591265
 31
0.0
  0
LINE
  5
832E
330
7DB9
100
AcDbEntity
  8
3
 62
     0
440
 16777216
370
    -2
100
AcDbLine
 10
7989.375071392096
 20
7103.858060591266
 30
0.0
 11
6569.180525394549
 21
7103.858060591266
 31
0.0
  0
INSERT
  5
832F
330
7DB9
100
AcDbEntity
  8
3
 62
     0
440
 16777216
370
    -2
100
AcDbBlockReference
  2
_OPEN
 10
8089.375071392096
 20
7103.858060591266
 30
0.0
 41
100.0
 42
100.0
 43
100.0
  0
INSERT
  5
8330
330
7DB9
100
AcDbEntity
  8
3
 62
     0
440
 16777216
370
    -2
100
AcDbBlockReference
  2
_OPEN
 10
6469.180525394548
 20
7103.858060591266
 30
0.0
 41
100.0
 42
100.0
 43
100.0
 50
180.0
  0
MTEXT
  5
8331
330
7DB9
100
AcDbEntity
  8
3
 62
     0
440
 16777216
100
AcDbMText
 10
7279.277798393323
 20
7268.143774876979
 30
0.0
 40
150.0
 41
0.0
 46
0.0
 71
     5
 72
     1
  1
\A1;(1620)
 73
     1
 44
1.0
  0
POINT
  5
8332
330
7DB9
100
AcDbEntity
  8
DEFPOINTS
 62
     0
440
 16777216
100
AcDbPoint
 10
8089.375071392096
 20
6988.850619248778
 30
0.0
  0
POINT
  5
8333
330
7DB9
100
AcDbEntity
  8
DEFPOINTS
 62
     0
440
 16777216
100
AcDbPoint
 10
6469.180525394548
 20
5940.93662310022
 30
0.0
  0
POINT
  5
8334
330
7DB9
100
AcDbEntity
  8
DEFPOINTS
 62
     0
440
 16777216
100
AcDbPoint
 10
6469.180525394548
 20
7103.858060591266
 30
0.0
  0
ENDBLK
  5
8037
330
7DB9
100
AcDbEntity
  8
0
100
AcDbBlockEnd
  0
BLOCK
  5
7DFD
330
7DF0
100
AcDbEntity
  8
0
100
AcDbBlockBegin
  2
*D15
 70
     1
 10
0.0
 20
0.0
 30
0.0
  3
*D15
  1

  0
LINE
  5
833E
330
7DF0
100
AcDbEntity
  8
3
 62
     0
440
 16777216
370
    -2
100
AcDbLine
 10
9186.581525394522
 20
6190.93662310051
 30
0.0
 11
9757.079600728891
 21
6190.93662310051
 31
0.0
  0
LINE
  5
833F
330
7DF0
100
AcDbEntity
  8
3
 62
     0
440
 16777216
370
    -2
100
AcDbLine
 10
9186.581525394705
 20
4590.936623100509
 30
0.0
 11
9757.079600728891
 21
4590.936623100509
 31
0.0
  0
LINE
  5
8340
330
7DF0
100
AcDbEntity
  8
3
 62
     0
440
 16777216
370
    -2
100
AcDbLine
 10
9707.07960072889
 20
6090.936623100509
 30
0.0
 11
9707.07960072889
 21
4690.936623100509
 31
0.0
  0
INSERT
  5
8341
330
7DF0
100
AcDbEntity
  8
3
 62
     0
440
 16777216
370
    -2
100
AcDbBlockReference
  2
_OPEN
 10
9707.07960072889
 20
6190.93662310051
 30
0.0
 41
100.0
 42
100.0
 43
100.0
 50
90.0
  0
INSERT
  5
8342
330
7DF0
100
AcDbEntity
  8
3
 62
     0
440
 16777216
370
    -2
100
AcDbBlockReference
  2
_OPEN
 10
9707.07960072889
 20
4590.936623100509
 30
0.0
 41
100.0
 42
100.0
 43
100.0
 50
270.0
  0
MTEXT
  5
8343
330
7DF0
100
AcDbEntity
  8
3
 62
     0
440
 16777216
100
AcDbMText
 10
9582.079600728889
 20
5354.176211675338
 30
0.0
 40
150.0
 41
0.0
 46
0.0
 71
     5
 72
     1
  1
\A1;φ1600
 11
0.0000000000000001
 21
1.0
 31
0.0
 73
     1
 44
1.0
  0
POINT
  5
8344
330
7DF0
100
AcDbEntity
  8
DEFPOINTS
 62
     0
440
 16777216
100
AcDbPoint
 10
9161.581525394522
 20
6190.93662310051
 30
0.0
  0
POINT
  5
8345
330
7DF0
100
AcDbEntity
  8
DEFPOINTS
 62
     0
440
 16777216
100
AcDbPoint
 10
9161.581525394705
 20
4590.936623100509
 30
0.0
  0
POINT
  5
8346
330
7DF0
100
AcDbEntity
  8
DEFPOINTS
 62
     0
440
 16777216
100
AcDbPoint
 10
9707.07960072889
 20
4590.936623100509
 30
0.0
  0
ENDBLK
  5
7E07
330
7DF0
100
AcDbEntity
  8
0
100
AcDbBlockEnd
  0
BLOCK
  5
8068
330
7E0B
100
AcDbEntity
  8
0
100
AcDbBlockBegin
  2
*D16
 70
     1
 10
0.0
 20
0.0
 30
0.0
  3
*D16
  1

  0
LINE
  5
8290
330
7E0B
100
AcDbEntity
  8
3
 62
     0
440
 16777216
100
AcDbLine
 10
4630.781620198013
 20
5410.93662310052
 30
0.0
 11
4630.781620198013
 21
7245.928330424104
 31
0.0
  0
LINE
  5
8291
330
7E0B
100
AcDbEntity
  8
3
 62
     0
440
 16777216
100
AcDbLine
 10
1235.782620198554
 20
3665.936623099355
 30
0.0
 11
1235.782620198555
 21
7245.928330424104
 31
0.0
  0
LINE
  5
8292
330
7E0B
100
AcDbEntity
  8
3
 62
     0
440
 16777216
100
AcDbLine
 10
4530.781620198013
 20
7195.928330424104
 30
0.0
 11
1335.782620198554
 21
7195.928330424104
 31
0.0
  0
INSERT
  5
8293
330
7E0B
100
AcDbEntity
  8
3
 62
     0
440
 16777216
100
AcDbBlockReference
  2
_OPEN
 10
4630.781620198013
 20
7195.928330424104
 30
0.0
 41
100.0
 42
100.0
 43
100.0
  0
INSERT
  5
8294
330
7E0B
100
AcDbEntity
  8
3
 62
     0
440
 16777216
100
AcDbBlockReference
  2
_OPEN
 10
1235.782620198555
 20
7195.928330424104
 30
0.0
 41
100.0
 42
100.0
 43
100.0
 50
180.0
  0
MTEXT
  5
8295
330
7E0B
100
AcDbEntity
  8
3
 62
     0
440
 16777216
100
AcDbMText
 10
2812.733196109171
 20
7320.928330424104
 30
0.0
 40
150.0
 41
0.0
 46
0.0
 71
     5
 72
     5
  1
\A1;3395
 73
     1
 44
1.0
  0
POINT
  5
8296
330
7E0B
100
AcDbEntity
  8
DEFPOINTS
 62
     0
440
 16777216
100
AcDbPoint
 10
4630.781620198013
 20
5385.93662310052
 30
0.0
  0
POINT
  5
8297
330
7E0B
100
AcDbEntity
  8
DEFPOINTS
 62
     0
440
 16777216
100
AcDbPoint
 10
1235.782620198554
 20
3640.936623099355
 30
0.0
  0
POINT
  5
8298
330
7E0B
100
AcDbEntity
  8
DEFPOINTS
 62
     0
440
 16777216
100
AcDbPoint
 10
1235.782620198555
 20
7195.928330424104
 30
0.0
  0
ENDBLK
  5
8072
330
7E0B
100
AcDbEntity
  8
0
100
AcDbBlockEnd
  0
BLOCK
  5
8089
330
7FC6
100
AcDbEntity
  8
0
100
AcDbBlockBegin
  2
*D17
 70
     1
 10
0.0
 20
0.0
 30
0.0
  3
*D17
  1

  0
LINE
  5
829C
330
7FC6
100
AcDbEntity
  8
3
 62
     0
440
 16777216
100
AcDbLine
 10
3494.782620197157
 20
6529.93662310012
 30
0.0
 11
5591.890606515774
 21
6529.93662310012
 31
0.0
  0
LINE
  5
829D
330
7FC6
100
AcDbEntity
  8
3
 62
     0
440
 16777216
100
AcDbLine
 10
5541.890606515774
 20
5490.936623100543
 30
0.0
 11
5541.890606515774
 21
6429.93662310012
 31
0.0
  0
INSERT
  5
829E
330
7FC6
100
AcDbEntity
  8
3
 62
     0
440
 16777216
100
AcDbBlockReference
  2
_OPEN
 10
5541.890606515774
 20
5390.936623100543
 30
0.0
 41
100.0
 42
100.0
 43
100.0
 50
270.0
  0
INSERT
  5
829F
330
7FC6
100
AcDbEntity
  8
3
 62
     0
440
 16777216
100
AcDbBlockReference
  2
_OPEN
 10
5541.890606515774
 20
6529.93662310012
 30
0.0
 41
100.0
 42
100.0
 43
100.0
 50
90.0
  0
MTEXT
  5
82A0
330
7FC6
100
AcDbEntity
  8
3
 62
     0
440
 16777216
100
AcDbMText
 10
5416.890606515773
 20
5960.436623100331
 30
0.0
 40
150.0
 41
0.0
 46
0.0
 71
     5
 72
     5
  1
\A1;1139
 11
0.0000000000000001
 21
1.0
 31
0.0
 73
     1
 44
1.0
  0
POINT
  5
82A1
330
7FC6
100
AcDbEntity
  8
DEFPOINTS
 62
     0
440
 16777216
100
AcDbPoint
 10
4692.829003625655
 20
5390.936623100543
 30
0.0
  0
POINT
  5
82A2
330
7FC6
100
AcDbEntity
  8
DEFPOINTS
 62
     0
440
 16777216
100
AcDbPoint
 10
3469.782620197157
 20
6529.93662310012
 30
0.0
  0
POINT
  5
82A3
330
7FC6
100
AcDbEntity
  8
DEFPOINTS
 62
     0
440
 16777216
100
AcDbPoint
 10
5541.890606515774
 20
6529.93662310012
 30
0.0
  0
ENDBLK
  5
8092
330
7FC6
100
AcDbEntity
  8
0
100
AcDbBlockEnd
  0
BLOCK
  5
8038
330
8021
100
AcDbEntity
  8
0
100
AcDbBlockBegin
  2
*D18
 70
     1
 10
0.0
 20
0.0
 30
0.0
  3
*D18
  1

  0
LINE
  5
82A4
330
8021
100
AcDbEntity
  8
3
 62
     0
440
 16777216
100
AcDbLine
 10
7029.380525394462
 20
6554.936623100267
 30
0.0
 11
7029.380525394462
 21
6796.804718681895
 31
0.0
  0
LINE
  5
82A5
330
8021
100
AcDbEntity
  8
3
 62
     0
440
 16777216
100
AcDbLine
 10
9149.37507139229
 20
6554.936623100509
 30
0.0
 11
9149.37507139229
 21
6796.804718681895
 31
0.0
  0
LINE
  5
82A6
330
8021
100
AcDbEntity
  8
3
 62
     0
440
 16777216
100
AcDbLine
 10
7129.380525394463
 20
6746.804718681895
 30
0.0
 11
9049.37507139229
 21
6746.804718681895
 31
0.0
  0
INSERT
  5
82A7
330
8021
100
AcDbEntity
  8
3
 62
     0
440
 16777216
100
AcDbBlockReference
  2
_OPEN
 10
7029.380525394462
 20
6746.804718681895
 30
0.0
 41
100.0
 42
100.0
 43
100.0
 50
180.0
  0
INSERT
  5
82A8
330
8021
100
AcDbEntity
  8
3
 62
     0
440
 16777216
100
AcDbBlockReference
  2
_OPEN
 10
9149.37507139229
 20
6746.804718681895
 30
0.0
 41
100.0
 42
100.0
 43
100.0
  0
MTEXT
  5
82A9
330
8021
100
AcDbEntity
  8
3
 62
     0
440
 16777216
100
AcDbMText
 10
8090.890310740796
 20
6871.804718681895
 30
0.0
 40
150.0
 41
0.0
 46
0.0
 71
     5
 72
     5
  1
\A1;2120
 73
     1
 44
1.0
  0
POINT
  5
82AA
330
8021
100
AcDbEntity
  8
DEFPOINTS
 62
     0
440
 16777216
100
AcDbPoint
 10
7029.380525394462
 20
6529.936623100268
 30
0.0
  0
POINT
  5
82AB
330
8021
100
AcDbEntity
  8
DEFPOINTS
 62
     0
440
 16777216
100
AcDbPoint
 10
9149.37507139229
 20
6529.93662310051
 30
0.0
  0
POINT
  5
82AC
330
8021
100
AcDbEntity
  8
DEFPOINTS
 62
     0
440
 16777216
100
AcDbPoint
 10
9149.37507139229
 20
6746.804718681895
 30
0.0
  0
ENDBLK
  5
8042
330
8021
100
AcDbEntity
  8
0
100
AcDbBlockEnd
  0
BLOCK
  5
8141
330
8140
100
AcDbEntity
  8
0
100
AcDbBlockBegin
  2
*D19
 70
     1
 10
0.0
 20
0.0
 30
0.0
  3
*D19
  1

  0
LINE
  5
8350
330
8140
100
AcDbEntity
  8
3
 62
     0
440
 16777216
370
    -2
100
AcDbLine
 10
1235.782620198633
 20
3285.936623099355
 30
0.0
 11
1235.782620198633
 21
2922.002303418223
 31
0.0
  0
LINE
  5
8351
330
8140
100
AcDbEntity
  8
3
 62
     0
440
 16777216
370
    -2
100
AcDbLine
 10
3585.782620198637
 20
3285.936623100163
 30
0.0
 11
3585.782620198637
 21
2922.002303418223
 31
0.0
  0
LINE
  5
8352
330
8140
100
AcDbEntity
  8
3
 62
     0
440
 16777216
370
    -2
100
AcDbLine
 10
1335.782620198634
 20
2972.002303418224
 30
0.0
 11
3485.782620198637
 21
2972.002303418224
 31
0.0
  0
INSERT
  5
8353
330
8140
100
AcDbEntity
  8
3
 62
     0
440
 16777216
370
    -2
100
AcDbBlockReference
  2
_OPEN
 10
1235.782620198633
 20
2972.002303418224
 30
0.0
 41
100.0
 42
100.0
 43
100.0
 50
180.0
  0
INSERT
  5
8354
330
8140
100
AcDbEntity
  8
3
 62
     0
440
 16777216
370
    -2
100
AcDbBlockReference
  2
_OPEN
 10
3585.782620198637
 20
2972.002303418224
 30
0.0
 41
100.0
 42
100.0
 43
100.0
  0
MTEXT
  5
8355
330
8140
100
AcDbEntity
  8
3
 62
     0
440
 16777216
100
AcDbMText
 10
2410.782620198636
 20
3097.002303418224
 30
0.0
 40
150.0
 41
0.0
 46
0.0
 71
     5
 72
     1
  1
\A1;2350
 73
     1
 44
1.0
  0
POINT
  5
8356
330
8140
100
AcDbEntity
  8
DEFPOINTS
 62
     0
440
 16777216
100
AcDbPoint
 10
1235.782620198633
 20
3310.936623099355
 30
0.0
  0
POINT
  5
8357
330
8140
100
AcDbEntity
  8
DEFPOINTS
 62
     0
440
 16777216
100
AcDbPoint
 10
3585.782620198637
 20
3310.936623100163
 30
0.0
  0
POINT
  5
8358
330
8140
100
AcDbEntity
  8
DEFPOINTS
 62
     0
440
 16777216
100
AcDbPoint
 10
3585.782620198637
 20
2972.002303418224
 30
0.0
  0
ENDBLK
  5
814B
330
8140
100
AcDbEntity
  8
0
100
AcDbBlockEnd
  0
BLOCK
  5
814E
330
814D
100
AcDbEntity
  8
0
100
AcDbBlockBegin
  2
*D20
 70
     1
 10
0.0
 20
0.0
 30
0.0
  3
*D20
  1

  0
LINE
  5
8359
330
814D
100
AcDbEntity
  8
3
 62
     0
440
 16777216
370
    -2
100
AcDbLine
 10
3585.782620198637
 20
3285.936623100163
 30
0.0
 11
3585.782620198637
 21
2922.002303418223
 31
0.0
  0
LINE
  5
835A
330
814D
100
AcDbEntity
  8
3
 62
     0
440
 16777216
370
    -2
100
AcDbLine
 10
4535.782620198639
 20
3285.936623100488
 30
0.0
 11
4535.782620198639
 21
2922.002303418223
 31
0.0
  0
LINE
  5
835B
330
814D
100
AcDbEntity
  8
3
 62
     0
440
 16777216
370
    -2
100
AcDbLine
 10
3685.782620198637
 20
2972.002303418224
 30
0.0
 11
4435.782620198639
 21
2972.002303418224
 31
0.0
  0
INSERT
  5
835C
330
814D
100
AcDbEntity
  8
3
 62
     0
440
 16777216
370
    -2
100
AcDbBlockReference
  2
_OPEN
 10
3585.782620198637
 20
2972.002303418224
 30
0.0
 41
100.0
 42
100.0
 43
100.0
 50
180.0
  0
INSERT
  5
835D
330
814D
100
AcDbEntity
  8
3
 62
     0
440
 16777216
370
    -2
100
AcDbBlockReference
  2
_OPEN
 10
4535.782620198639
 20
2972.002303418224
 30
0.0
 41
100.0
 42
100.0
 43
100.0
  0
MTEXT
  5
835E
330
814D
100
AcDbEntity
  8
3
 62
     0
440
 16777216
100
AcDbMText
 10
4060.782620198638
 20
3097.002303418224
 30
0.0
 40
150.0
 41
0.0
 46
0.0
 71
     5
 72
     1
  1
\A1;950
 73
     1
 44
1.0
  0
POINT
  5
835F
330
814D
100
AcDbEntity
  8
DEFPOINTS
 62
     0
440
 16777216
100
AcDbPoint
 10
3585.782620198637
 20
3310.936623100163
 30
0.0
  0
POINT
  5
8360
330
814D
100
AcDbEntity
  8
DEFPOINTS
 62
     0
440
 16777216
100
AcDbPoint
 10
4535.782620198639
 20
3310.936623100488
 30
0.0
  0
POINT
  5
8361
330
814D
100
AcDbEntity
  8
DEFPOINTS
 62
     0
440
 16777216
100
AcDbPoint
 10
4535.782620198639
 20
2972.002303418224
 30
0.0
  0
ENDBLK
  5
8158
330
814D
100
AcDbEntity
  8
0
100
AcDbBlockEnd
  0
BLOCK
  5
815B
330
815A
100
AcDbEntity
  8
0
100
AcDbBlockBegin
  2
*D21
 70
     1
 10
0.0
 20
0.0
 30
0.0
  3
*D21
  1

  0
LINE
  5
8362
330
815A
100
AcDbEntity
  8
3
 62
     0
440
 16777216
370
    -2
100
AcDbLine
 10
6628.375071392837
 20
3285.936623100223
 30
0.0
 11
6628.375071392837
 21
2922.002303418223
 31
0.0
  0
LINE
  5
8363
330
815A
100
AcDbEntity
  8
3
 62
     0
440
 16777216
370
    -2
100
AcDbLine
 10
8089.375071392865
 20
3285.936623100388
 30
0.0
 11
8089.375071392865
 21
2922.002303418223
 31
0.0
  0
LINE
  5
8364
330
815A
100
AcDbEntity
  8
3
 62
     0
440
 16777216
370
    -2
100
AcDbLine
 10
6728.375071392837
 20
2972.002303418224
 30
0.0
 11
7989.375071392865
 21
2972.002303418224
 31
0.0
  0
INSERT
  5
8365
330
815A
100
AcDbEntity
  8
3
 62
     0
440
 16777216
370
    -2
100
AcDbBlockReference
  2
_OPEN
 10
6628.375071392837
 20
2972.002303418224
 30
0.0
 41
100.0
 42
100.0
 43
100.0
 50
180.0
  0
INSERT
  5
8366
330
815A
100
AcDbEntity
  8
3
 62
     0
440
 16777216
370
    -2
100
AcDbBlockReference
  2
_OPEN
 10
8089.375071392865
 20
2972.002303418224
 30
0.0
 41
100.0
 42
100.0
 43
100.0
  0
MTEXT
  5
8367
330
815A
100
AcDbEntity
  8
3
 62
     0
440
 16777216
100
AcDbMText
 10
7358.875071392851
 20
3097.002303418224
 30
0.0
 40
150.0
 41
0.0
 46
0.0
 71
     5
 72
     1
  1
\A1;1461
 73
     1
 44
1.0
  0
POINT
  5
8368
330
815A
100
AcDbEntity
  8
DEFPOINTS
 62
     0
440
 16777216
100
AcDbPoint
 10
6628.375071392837
 20
3310.936623100223
 30
0.0
  0
POINT
  5
8369
330
815A
100
AcDbEntity
  8
DEFPOINTS
 62
     0
440
 16777216
100
AcDbPoint
 10
8089.375071392865
 20
3310.936623100388
 30
0.0
  0
POINT
  5
836A
330
815A
100
AcDbEntity
  8
DEFPOINTS
 62
     0
440
 16777216
100
AcDbPoint
 10
8089.375071392865
 20
2972.002303418224
 30
0.0
  0
ENDBLK
  5
8165
330
815A
100
AcDbEntity
  8
0
100
AcDbBlockEnd
  0
BLOCK
  5
8168
330
8167
100
AcDbEntity
  8
0
100
AcDbBlockBegin
  2
*D22
 70
     1
 10
0.0
 20
0.0
 30
0.0
  3
*D22
  1

  0
LINE
  5
836B
330
8167
100
AcDbEntity
  8
3
 62
     0
440
 16777216
370
    -2
100
AcDbLine
 10
8089.375071392865
 20
3285.936623100388
 30
0.0
 11
8089.375071392865
 21
2922.002303418223
 31
0.0
  0
LINE
  5
836C
330
8167
100
AcDbEntity
  8
3
 62
     0
440
 16777216
370
    -2
100
AcDbLine
 10
9228.375071392838
 20
3285.936623100517
 30
0.0
 11
9228.375071392838
 21
2922.002303418223
 31
0.0
  0
LINE
  5
836D
330
8167
100
AcDbEntity
  8
3
 62
     0
440
 16777216
370
    -2
100
AcDbLine
 10
8189.375071392865
 20
2972.002303418224
 30
0.0
 11
9128.375071392836
 21
2972.002303418224
 31
0.0
  0
INSERT
  5
836E
330
8167
100
AcDbEntity
  8
3
 62
     0
440
 16777216
370
    -2
100
AcDbBlockReference
  2
_OPEN
 10
8089.375071392865
 20
2972.002303418224
 30
0.0
 41
100.0
 42
100.0
 43
100.0
 50
180.0
  0
INSERT
  5
836F
330
8167
100
AcDbEntity
  8
3
 62
     0
440
 16777216
370
    -2
100
AcDbBlockReference
  2
_OPEN
 10
9228.375071392838
 20
2972.002303418224
 30
0.0
 41
100.0
 42
100.0
 43
100.0
  0
MTEXT
  5
8370
330
8167
100
AcDbEntity
  8
3
 62
     0
440
 16777216
100
AcDbMText
 10
8658.875071392852
 20
3097.002303418224
 30
0.0
 40
150.0
 41
0.0
 46
0.0
 71
     5
 72
     1
  1
\A1;1139
 73
     1
 44
1.0
  0
POINT
  5
8371
330
8167
100
AcDbEntity
  8
DEFPOINTS
 62
     0
440
 16777216
100
AcDbPoint
 10
8089.375071392865
 20
3310.936623100388
 30
0.0
  0
POINT
  5
8372
330
8167
100
AcDbEntity
  8
DEFPOINTS
 62
     0
440
 16777216
100
AcDbPoint
 10
9228.375071392838
 20
3310.936623100517
 30
0.0
  0
POINT
  5
8373
330
8167
100
AcDbEntity
  8
DEFPOINTS
 62
     0
440
 16777216
100
AcDbPoint
 10
9228.375071392838
 20
2972.002303418224
 30
0.0
  0
ENDBLK
  5
8172
330
8167
100
AcDbEntity
  8
0
100
AcDbBlockEnd
  0
BLOCK
  5
8175
330
8174
100
AcDbEntity
  8
0
100
AcDbBlockBegin
  2
_NONE
 70
     0
 10
0.0
 20
0.0
 30
0.0
  3
_NONE
  1

  0
CIRCLE
  5
8176
330
8174
100
AcDbEntity
  8
0
  6
ByBlock
 62
     0
100
AcDbCircle
 10
0.0
 20
0.0
 30
0.0
 40
0.25
  0
ENDBLK
  5
8177
330
8174
100
AcDbEntity
  8
0
100
AcDbBlockEnd
  0
BLOCK
  5
81C4
330
81AD
100
AcDbEntity
  8
0
100
AcDbBlockBegin
  2
*D24
 70
     1
 10
0.0
 20
0.0
 30
0.0
  3
*D24
  1

  0
LINE
  5
838D
330
81AD
100
AcDbEntity
  8
3
 62
     0
440
 16777216
370
    -2
100
AcDbLine
 10
5547.128093198153
 20
3385.936623100488
 30
0.0
 11
5547.128093198153
 21
3490.936623100488
 31
0.0
  0
MTEXT
  5
838E
330
81AD
100
AcDbEntity
  8
3
 62
     0
440
 16777216
100
AcDbMText
 10
5741.551295887751
 20
3438.436623100488
 30
0.0
 40
150.0
 41
0.0
 46
0.0
 71
     5
 72
     1
  1
\A1;   (105)
 11
0.0000000000000001
 21
1.0
 31
0.0
 73
     1
 44
1.0
  0
POINT
  5
838F
330
81AD
100
AcDbEntity
  8
DEFPOINTS
 62
     0
440
 16777216
100
AcDbPoint
 10
4535.782620198613
 20
3385.936623100488
 30
0.0
  0
POINT
  5
8390
330
81AD
100
AcDbEntity
  8
DEFPOINTS
 62
     0
440
 16777216
100
AcDbPoint
 10
4535.782620198604
 20
3490.936623100488
 30
0.0
  0
POINT
  5
8391
330
81AD
100
AcDbEntity
  8
DEFPOINTS
 62
     0
440
 16777216
100
AcDbPoint
 10
5547.128093198153
 20
3490.936623100488
 30
0.0
  0
ENDBLK
  5
81CA
330
81AD
100
AcDbEntity
  8
0
100
AcDbBlockEnd
  0
BLOCK
  5
81CC
330
81CB
100
AcDbEntity
  8
0
100
AcDbBlockBegin
  2
*D25
 70
     1
 10
0.0
 20
0.0
 30
0.0
  3
*D25
  1

  0
LINE
  5
8384
330
81CB
100
AcDbEntity
  8
3
 62
     0
440
 16777216
370
    -2
100
AcDbLine
 10
3519.782620197157
 20
6529.93662310012
 30
0.0
 11
5999.93379112913
 21
6529.93662310012
 31
0.0
  0
LINE
  5
8385
330
81CB
100
AcDbEntity
  8
3
 62
     0
440
 16777216
370
    -2
100
AcDbLine
 10
4560.782620198639
 20
3310.936623100488
 30
0.0
 11
5999.93379112913
 21
3310.936623100488
 31
0.0
  0
LINE
  5
8386
330
81CB
100
AcDbEntity
  8
3
 62
     0
440
 16777216
370
    -2
100
AcDbLine
 10
5949.93379112913
 20
6429.93662310012
 30
0.0
 11
5949.933791129129
 21
3410.936623100488
 31
0.0
  0
INSERT
  5
8387
330
81CB
100
AcDbEntity
  8
3
 62
     0
440
 16777216
370
    -2
100
AcDbBlockReference
  2
_OPEN
 10
5949.93379112913
 20
6529.93662310012
 30
0.0
 41
100.0
 42
100.0
 43
100.0
 50
90.0
  0
INSERT
  5
8388
330
81CB
100
AcDbEntity
  8
3
 62
     0
440
 16777216
370
    -2
100
AcDbBlockReference
  2
_OPEN
 10
5949.933791129129
 20
3310.936623100488
 30
0.0
 41
100.0
 42
100.0
 43
100.0
 50
270.0
  0
MTEXT
  5
8389
330
81CB
100
AcDbEntity
  8
3
 62
     0
440
 16777216
100
AcDbMText
 10
5785.648076843414
 20
4920.436623100304
 30
0.0
 40
150.0
 41
0.0
 46
0.0
 71
     5
 72
     1
  1
\A1;(3219)
 11
0.0000000000000001
 21
1.0
 31
0.0
 73
     1
 44
1.0
  0
POINT
  5
838A
330
81CB
100
AcDbEntity
  8
DEFPOINTS
 62
     0
440
 16777216
100
AcDbPoint
 10
3494.782620197157
 20
6529.93662310012
 30
0.0
  0
POINT
  5
838B
330
81CB
100
AcDbEntity
  8
DEFPOINTS
 62
     0
440
 16777216
100
AcDbPoint
 10
4535.782620198639
 20
3310.936623100488
 30
0.0
  0
POINT
  5
838C
330
81CB
100
AcDbEntity
  8
DEFPOINTS
 62
     0
440
 16777216
100
AcDbPoint
 10
5949.933791129129
 20
3310.936623100488
 30
0.0
  0
ENDBLK
  5
81D6
330
81CB
100
AcDbEntity
  8
0
100
AcDbBlockEnd
  0
ENDSEC
  0
SECTION
  2
ENTITIES
  0
ARC
  5
7ACA
330
19
100
AcDbEntity
  8
1
100
AcDbCircle
 10
1799.312628793688
 20
3988.621433303251
 30
0.0
 40
280.0
100
AcDbArc
 50
134.9583676783505
 51
301.3029294059267
  0
LINE
  5
7ACC
330
19
100
AcDbEntity
  8
1
100
AcDbLine
 10
1235.782620198633
 20
3310.936623099355
 30
0.0
 11
4535.782620198639
 21
3310.936623100488
 31
0.0
  0
LINE
  5
7ACD
330
19
100
AcDbEntity
  8
1
100
AcDbLine
 10
1235.782620198611
 20
3385.936623099354
 30
0.0
 11
4535.782620198613
 21
3385.936623100488
 31
0.0
  0
CIRCLE
  5
7ACE
330
19
100
AcDbEntity
  8
1
100
AcDbCircle
 10
1799.312628793688
 20
3988.621433303251
 30
0.0
 40
125.0
  0
LINE
  5
7ACF
330
19
100
AcDbEntity
  8
2
100
AcDbLine
 10
2168.359668741685
 20
3988.621433303379
 30
0.0
 11
1448.685458464642
 21
3988.621433303131
 31
0.0
  0
LINE
  5
7AD0
330
19
100
AcDbEntity
  8
1
100
AcDbLine
 10
1643.833496518175
 20
3720.430755935726
 30
0.0
 11
1954.791761069389
 21
3720.430755935832
 31
0.0
  0
LINE
  5
7AD1
330
19
100
AcDbEntity
  8
1
100
AcDbLine
 10
1799.31262879379
 20
3693.530250869164
 30
0.0
 11
1653.565820083638
 21
3693.530250869113
 31
0.0
  0
ARC
  5
7AD2
330
19
100
AcDbEntity
  8
1
100
AcDbCircle
 10
1799.312628793688
 20
3988.621433303251
 30
0.0
 40
310.0
100
AcDbArc
 50
300.1023080683316
 51
239.8976919317078
  0
LINE
  5
7AD3
330
19
100
AcDbEntity
  8
1
100
AcDbLine
 10
1235.782620198603
 20
3490.936623099355
 30
0.0
 11
4535.782620198606
 21
3490.936623100488
 31
0.0
  0
LINE
  5
7AD4
330
19
100
AcDbEntity
  8
1
100
AcDbLine
 10
1235.782620198554
 20
3640.936623099355
 30
0.0
 11
4535.782620198554
 21
3640.936623100488
 31
0.0
  0
POINT
  5
7AD6
330
19
100
AcDbEntity
  8
1
100
AcDbPoint
 10
1435.782620198687
 20
3310.936623099424
 30
0.0
 50
0.0000000000065138
  0
LINE
  5
7AD7
330
19
100
AcDbEntity
  8
1
100
AcDbLine
 10
1519.312628793727
 20
3855.580086346623
 30
0.0
 11
1519.312628793787
 21
3708.621433303155
 31
0.0
  0
LINE
  5
7AD8
330
19
100
AcDbEntity
  8
1
100
AcDbLine
 10
1519.312628793787
 20
3708.621433303155
 30
0.0
 11
1629.312628793786
 21
3708.621433303193
 31
0.0
  0
LINE
  5
7AD9
330
19
100
AcDbEntity
  8
1
100
AcDbLine
 10
1519.312628793774
 20
3738.621433303153
 30
0.0
 11
1616.009600995541
 21
3738.621433303188
 31
0.0
  0
LINE
  5
7ADA
330
19
100
AcDbEntity
  8
1
100
AcDbLine
 10
1653.565820083633
 20
3708.6214333032
 30
0.0
 11
1460.418136235032
 21
3708.621433303135
 31
0.0
  0
LINE
  5
7AE5
330
19
100
AcDbEntity
  8
1
100
AcDbLine
 10
1460.418136235032
 20
3708.621433303135
 30
0.0
 11
1449.679933901103
 21
3640.936623099428
 31
0.0
  0
LINE
  5
7AE6
330
19
100
AcDbEntity
  8
1
100
AcDbLine
 10
1629.312628793777
 20
3729.391805366879
 30
0.0
 11
1629.312628793785
 21
3708.621433303193
 31
0.0
  0
LINE
  5
7AE8
330
19
100
AcDbEntity
  8
1
100
AcDbLine
 10
1653.565820083638
 20
3693.530250869113
 30
0.0
 11
1653.565820083633
 21
3708.6214333032
 31
0.0
  0
CIRCLE
  5
7AE9
330
19
100
AcDbEntity
  8
1
100
AcDbCircle
 10
3585.78262019797
 20
5390.936623100163
 30
0.0
 40
865.0
  0
CIRCLE
  5
7AEA
330
19
100
AcDbEntity
  8
1
100
AcDbCircle
 10
3585.78262019797
 20
5390.936623100163
 30
0.0
 40
800.0
  0
ARC
  5
7AEB
330
19
100
AcDbEntity
  8
1
100
AcDbCircle
 10
3585.782620197988
 20
5390.936623100163
 30
0.0
 40
550.0
100
AcDbArc
 50
301.3029294059267
 51
134.9583676783505
  0
CIRCLE
  5
7AEC
330
19
100
AcDbEntity
  8
1
100
AcDbCircle
 10
3585.782620198003
 20
5390.936623100163
 30
0.0
 40
400.0
  0
LINE
  5
7AED
330
19
100
AcDbEntity
  8
2
100
AcDbLine
 10
3585.782620198661
 20
3310.936623100162
 30
0.0
 11
3585.782620197818
 21
6576.507214658462
 31
0.0
  0
LINE
  5
7AEE
330
19
100
AcDbEntity
  8
1
100
AcDbLine
 10
4565.781620198015
 20
5345.936623100497
 30
0.0
 11
4565.78162019858
 21
3701.940949420427
 31
0.0
  0
LINE
  5
7AEF
330
19
100
AcDbEntity
  8
1
100
AcDbLine
 10
4624.781620197995
 20
5410.936623100516
 30
0.0
 11
4624.781620198606
 21
3630.936623100517
 31
0.0
  0
LINE
  5
7AF0
330
19
100
AcDbEntity
  8
1
100
AcDbLine
 10
4630.781620198582
 20
3695.936623100521
 30
0.0
 11
4630.781620198016
 21
5345.936623100519
 31
0.0
  0
ARC
  5
7AF1
330
19
100
AcDbEntity
  8
1
100
AcDbCircle
 10
3701.782620198042
 20
5274.936623100201
 30
0.0
 40
1487.0
100
AcDbArc
 50
175.5260000000197
 51
265.5250000000196
  0
LINE
  5
7AF4
330
19
100
AcDbEntity
  8
2
100
AcDbLine
 10
4692.829003625655
 20
5390.93662310054
 30
0.0
 11
2075.831951290811
 21
5390.936623099642
 31
0.0
  0
ARC
  5
7AF5
330
19
100
AcDbEntity
  8
1
100
AcDbCircle
 10
3488.782620197968
 20
5487.936623100127
 30
0.0
 40
1042.0
100
AcDbArc
 50
354.6590000000197
 51
84.65900000001967
  0
ARC
  5
7AF6
330
19
100
AcDbEntity
  8
1
100
AcDbCircle
 10
3469.782620198041
 20
5274.936623100121
 30
0.0
 40
1255.0
100
AcDbArc
 50
84.69700000001969
 51
174.6970000000196
  0
LINE
  5
7AF7
330
19
100
AcDbEntity
  8
2
100
AcDbLine
 10
1799.312628793688
 20
4372.253672949838
 30
0.0
 11
1799.312628793691
 21
3310.936623099549
 31
0.0
  0
LINE
  5
7AF8
330
19
100
AcDbEntity
  8
1
100
AcDbLine
 10
2079.312628793734
 20
3855.5800863468
 30
0.0
 11
2079.312628793785
 21
3708.621433303346
 31
0.0
  0
LINE
  5
7AF9
330
19
100
AcDbEntity
  8
1
100
AcDbLine
 10
1945.059437503936
 20
3708.621433303301
 30
0.0
 11
2138.207121352538
 21
3708.621433303366
 31
0.0
  0
LINE
  5
7AFA
330
19
100
AcDbEntity
  8
1
100
AcDbLine
 10
1982.615656592006
 20
3738.621433303313
 30
0.0
 11
2079.312628793774
 21
3738.621433303346
 31
0.0
  0
LINE
  5
7AFB
330
19
100
AcDbEntity
  8
1
100
AcDbLine
 10
1799.31262879379
 20
3693.530250869164
 30
0.0
 11
1945.059437503942
 21
3693.530250869213
 31
0.0
  0
LINE
  5
7AFD
330
19
100
AcDbEntity
  8
1
100
AcDbLine
 10
1969.312628793777
 20
3729.391805366995
 30
0.0
 11
1969.312628793785
 21
3708.62143330331
 31
0.0
  0
LINE
  5
7AFE
330
19
100
AcDbEntity
  8
1
100
AcDbLine
 10
1945.059437503942
 20
3693.530250869213
 30
0.0
 11
1945.059437503936
 21
3708.621433303301
 31
0.0
  0
LINE
  5
7B01
330
19
100
AcDbEntity
  8
1
100
AcDbLine
 10
2138.207121352538
 20
3708.621433303366
 30
0.0
 11
2148.945323686513
 21
3640.936623099668
 31
0.0
  0
LINE
  5
7B09
330
19
100
AcDbEntity
  8
1
100
AcDbLine
 10
4535.782620198613
 20
3385.936623100488
 30
0.0
 11
4535.782620198639
 21
3310.936623100488
 31
0.0
  0
POINT
  5
7B0A
330
19
100
AcDbEntity
  8
1
100
AcDbPoint
 10
4535.782620198639
 20
3310.936623100488
 30
0.0
 50
0.0000000000065138
  0
LINE
  5
7B0B
330
19
100
AcDbEntity
  8
1
100
AcDbLine
 10
4630.781620198016
 20
5345.936623100519
 30
0.0
 11
4565.781620198015
 21
5345.936623100497
 31
0.0
  0
LINE
  5
7B0C
330
19
100
AcDbEntity
  8
1
100
AcDbLine
 10
4518.808620198018
 20
5345.936623100481
 30
0.0
 11
4630.781620198016
 21
5345.936623100519
 31
0.0
  0
LINE
  5
7B0D
330
19
100
AcDbEntity
  8
1
100
AcDbLine
 10
4535.782620198554
 20
3640.936623100488
 30
0.0
 11
4535.782620198604
 21
3490.936623100488
 31
0.0
  0
POINT
  5
7B0E
330
19
100
AcDbEntity
  8
1
100
AcDbPoint
 10
4535.782620198613
 20
3385.936623100488
 30
0.0
 50
0.0000000000065138
  0
POINT
  5
7B0F
330
19
100
AcDbEntity
  8
1
100
AcDbPoint
 10
4535.782620198606
 20
3490.936623100488
 30
0.0
 50
0.0000000000065138
  0
POINT
  5
7B10
330
19
100
AcDbEntity
  8
1
100
AcDbPoint
 10
4535.782620198613
 20
3385.936623100488
 30
0.0
 50
0.0000000000065138
  0
ARC
  5
7B11
330
19
100
AcDbEntity
  8
1
100
AcDbCircle
 10
3682.78262019797
 20
5487.936623100194
 30
0.0
 40
848.0
100
AcDbArc
 50
350.3602458859301
 51
353.4320000000197
  0
LINE
  5
7B12
330
19
100
AcDbEntity
  8
1
100
AcDbLine
 10
4630.781620197995
 20
5410.93662310052
 30
0.0
 11
4630.781620198016
 21
5345.936623100519
 31
0.0
  0
LINE
  5
7B13
330
19
100
AcDbEntity
  8
1
100
AcDbLine
 10
4630.781620197995
 20
5410.93662310052
 30
0.0
 11
4624.781620197995
 21
5410.936623100516
 31
0.0
  0
LINE
  5
7B14
330
19
100
AcDbEntity
  8
1
100
AcDbLine
 10
4630.781620198582
 20
3695.936623100521
 30
0.0
 11
3585.782620198551
 21
3792.467623100161
 31
0.0
  0
LINE
  5
7B15
330
19
100
AcDbEntity
  8
1
100
AcDbLine
 10
4630.781620198606
 20
3630.936623100521
 30
0.0
 11
4624.781620198606
 21
3630.936623100517
 31
0.0
  0
LINE
  5
7B16
330
19
100
AcDbEntity
  8
1
100
AcDbLine
 10
4630.781620198582
 20
3695.936623100521
 30
0.0
 11
4630.781620198606
 21
3630.936623100521
 31
0.0
  0
LINE
  5
7B17
330
19
100
AcDbEntity
  8
1
100
AcDbLine
 10
1701.736961973587
 20
8429.747176034998
 30
0.0
 11
1872.736961973587
 21
8429.747176034998
 31
0.0
  0
LINE
  5
7B18
330
19
100
AcDbEntity
  8
1
100
AcDbLine
 10
1744.736961973587
 20
8249.747176034999
 30
0.0
 11
1829.736961973587
 21
8249.747176034999
 31
0.0
  0
LINE
  5
7B19
330
19
100
AcDbEntity
  8
1
100
AcDbLine
 10
1737.236961973587
 20
8419.747176034999
 30
0.0
 11
1837.236961973587
 21
8419.747176034999
 31
0.0
  0
LINE
  5
7B1A
330
19
100
AcDbEntity
  8
1
100
AcDbLine
 10
2074.736961973588
 20
8436.247176034997
 30
0.0
 11
1507.236961973587
 21
8436.247176034997
 31
0.0
  0
LINE
  5
7B1B
330
19
100
AcDbEntity
  8
1
100
AcDbLine
 10
1507.236961973586
 20
9288.747176034998
 30
0.0
 11
2074.736961973586
 21
9288.747176034998
 31
0.0
  0
LINE
  5
7B1C
330
19
100
AcDbEntity
  8
1
100
AcDbLine
 10
1507.23696197358
 20
8012.747176034947
 30
0.0
 11
4135.782620197213
 21
8012.74717603551
 31
0.0
  0
LINE
  5
7B1D
330
19
100
AcDbEntity
  8
1
100
AcDbLine
 10
1662.236961973574
 20
8189.747176034966
 30
0.0
 11
3985.782620197209
 21
8189.747176035494
 31
0.0
  0
LINE
  5
7B1E
330
19
100
AcDbEntity
  8
1
100
AcDbLine
 10
1662.236961973562
 20
8309.747176034965
 30
0.0
 11
3985.782620197195
 21
8309.747176035497
 31
0.0
  0
LINE
  5
7B1F
330
19
100
AcDbEntity
  8
1
100
AcDbLine
 10
1235.782620197131
 20
9371.941722032461
 30
0.0
 11
2214.782620197131
 21
9371.941722032916
 31
0.0
  0
LINE
  5
7B20
330
19
100
AcDbEntity
  8
1
100
AcDbLine
 10
1235.782620197544
 20
8171.94172203246
 30
0.0
 11
4535.782620197557
 21
8171.941722033666
 31
0.0
  0
LINE
  5
7B21
330
19
100
AcDbEntity
  8
2
100
AcDbLine
 10
1787.236961973589
 20
8012.747176035007
 30
0.0
 11
1787.236961973586
 21
9288.747176034998
 31
0.0
  0
LINE
  5
7B22
330
19
100
AcDbEntity
  8
1
100
AcDbLine
 10
1662.236961973562
 20
8309.747176034951
 30
0.0
 11
1662.236961973574
 21
8189.747176034952
 31
0.0
  0
LINE
  5
7B23
330
19
100
AcDbEntity
  8
1
100
AcDbLine
 10
1507.236961973556
 20
8356.237096352339
 30
0.0
 11
1507.23696197358
 21
8012.747176034933
 31
0.0
  0
LINE
  5
7B24
330
19
100
AcDbEntity
  8
1
100
AcDbLine
 10
1507.236961973586
 20
9288.747176034998
 30
0.0
 11
1507.236961973587
 21
8436.247176034997
 31
0.0
  0
LINE
  5
7B25
330
19
100
AcDbEntity
  8
1
100
AcDbLine
 10
1235.782620197133
 20
9371.941722032461
 30
0.0
 11
1235.782620197544
 21
8171.94172203246
 31
0.0
  0
LINE
  5
7B26
330
19
100
AcDbEntity
  8
1
100
AcDbLine
 10
1507.236961973603
 20
8356.237096352339
 30
0.0
 11
1651.772540711923
 21
8356.237096352353
 31
0.0
  0
LINE
  5
7B27
330
19
100
AcDbEntity
  8
1
100
AcDbLine
 10
1737.236961973587
 20
8419.747176034999
 30
0.0
 11
1737.236961973587
 21
8429.747176034998
 31
0.0
  0
LINE
  5
7B28
330
19
100
AcDbEntity
  8
1
100
AcDbLine
 10
1744.736961973587
 20
8249.747176034999
 30
0.0
 11
1744.736961973587
 21
8419.747176034999
 31
0.0
  0
ARC
  5
7B29
330
19
100
AcDbEntity
  8
1
100
AcDbCircle
 10
1701.736961973588
 20
8431.747176034999
 30
0.0
 40
2.0
100
AcDbArc
 50
180.0000000000001
 51
270.0000000000002
  0
LINE
  5
7B2A
330
19
100
AcDbEntity
  8
1
100
AcDbLine
 10
1699.736961973587
 20
8436.595551034999
 30
0.0
 11
1699.736961973588
 21
8431.747176034999
 31
0.0
  0
LINE
  5
7B2B
330
19
100
AcDbEntity
  8
2
100
AcDbLine
 10
3585.782620196667
 20
10696.94172203334
 30
0.0
 11
3585.782620197564
 21
8012.747176035393
 31
0.0
  0
LINE
  5
7B2C
330
19
100
AcDbEntity
  8
1
100
AcDbLine
 10
4535.782620197557
 20
8171.941722033663
 30
0.0
 11
4535.782620197417
 21
8572.941722033666
 31
0.0
  0
LINE
  5
7B2D
330
19
100
AcDbEntity
  8
1
100
AcDbLine
 10
2635.782620196666
 20
10692.94172203301
 30
0.0
 11
2635.782620196639
 21
10771.94172203301
 31
0.0
  0
LINE
  5
7B2E
330
19
100
AcDbEntity
  8
2
100
AcDbLine
 10
2214.782620197041
 20
9632.941722032869
 30
0.0
 11
4736.120418574279
 21
9632.94172203374
 31
0.0
  0
LINE
  5
7B2F
330
19
100
AcDbEntity
  8
1
100
AcDbLine
 10
1912.236961973562
 20
8309.74717603498
 30
0.0
 11
1912.236961973574
 21
8189.747176034982
 31
0.0
  0
LINE
  5
7B30
330
19
100
AcDbEntity
  8
1
100
AcDbLine
 10
3185.782620197195
 20
8309.747176035402
 30
0.0
 11
3185.782620197208
 21
8189.747176035401
 31
0.0
  0
LINE
  5
7B31
330
19
100
AcDbEntity
  8
1
100
AcDbLine
 10
2074.736961973588
 20
8436.247176034997
 30
0.0
 11
2074.736961973586
 21
9288.747176034998
 31
0.0
  0
LINE
  5
7B32
330
19
100
AcDbEntity
  8
1
100
AcDbLine
 10
1837.236961973587
 20
8419.747176034999
 30
0.0
 11
1837.236961973587
 21
8429.747176034998
 31
0.0
  0
LINE
  5
7B35
330
19
100
AcDbEntity
  8
1
100
AcDbLine
 10
1829.736961973587
 20
8249.747176034999
 30
0.0
 11
1829.736961973587
 21
8419.747176034999
 31
0.0
  0
ARC
  5
7B36
330
19
100
AcDbEntity
  8
1
100
AcDbCircle
 10
1872.736961973588
 20
8431.747176034999
 30
0.0
 40
2.0
100
AcDbArc
 50
270.0000000000002
 51
0.0000000000001347
  0
LINE
  5
7B37
330
19
100
AcDbEntity
  8
1
100
AcDbLine
 10
1874.736961973587
 20
8436.247176034997
 30
0.0
 11
1874.736961973588
 21
8431.747176034999
 31
0.0
  0
LINE
  5
7B38
330
19
100
AcDbEntity
  8
1
100
AcDbLine
 10
3985.782620197195
 20
8309.747176035497
 30
0.0
 11
3985.782620197209
 21
8189.747176035494
 31
0.0
  0
LINE
  5
7B39
330
19
100
AcDbEntity
  8
1
100
AcDbLine
 10
4135.782620197189
 20
8356.237096352918
 30
0.0
 11
4135.782620197213
 21
8012.747176035514
 31
0.0
  0
LINE
  5
7B3A
330
19
100
AcDbEntity
  8
1
100
AcDbLine
 10
3901.663601186154
 20
8356.23709635289
 30
0.0
 11
4135.782620197189
 21
8356.237096352918
 31
0.0
  0
LINE
  5
7B3B
330
19
100
AcDbEntity
  8
1
100
AcDbLine
 10
2635.782620196639
 20
10771.94172203301
 30
0.0
 11
4535.782620196657
 21
10771.94172203366
 31
0.0
  0
LINE
  5
7B3C
330
19
100
AcDbEntity
  8
2
100
AcDbLine
 10
9439.429812578884
 20
5390.936623100537
 30
0.0
 11
6469.180525394612
 21
5390.93662310022
 31
0.0
  0
LINE
  5
7B3D
330
19
100
AcDbEntity
  8
1
100
AcDbLine
 10
9149.375071392512
 20
5330.93662310051
 30
0.0
 11
9389.581525394618
 21
5330.936623100531
 31
0.0
  0
LINE
  5
7B3E
330
19
100
AcDbEntity
  8
1
100
AcDbLine
 10
9149.375071392558
 20
5089.813177470143
 30
0.0
 11
9389.581525394637
 21
5160.936623100532
 31
0.0
  0
LINE
  5
7B3F
330
19
100
AcDbEntity
  8
2
100
AcDbLine
 10
8089.37507139214
 20
6767.962527070629
 30
0.0
 11
8089.375071392884
 21
3310.936623100388
 31
0.0
  0
LINE
  5
7B42
330
19
100
AcDbEntity
  8
1
100
AcDbLine
 10
6766.180525394784
 20
3866.042623101345
 30
0.0
 11
6766.180525394566
 21
5790.936623100238
 31
0.0
  0
LINE
  5
7B43
330
19
100
AcDbEntity
  8
1
100
AcDbLine
 10
6646.180525394784
 20
3866.04262310133
 30
0.0
 11
6646.180525394566
 21
5790.936623100225
 31
0.0
  0
LINE
  5
7B45
330
19
100
AcDbEntity
  8
1
100
AcDbLine
 10
6469.180525394802
 20
3711.042623101326
 30
0.0
 11
6469.180525394548
 21
5940.93662310022
 31
0.0
  0
LINE
  5
7B48
330
19
100
AcDbEntity
  8
1
100
AcDbLine
 10
7029.380525394635
 20
4271.042623101337
 30
0.0
 11
6892.680525394769
 21
4271.042623101337
 31
0.0
  0
LINE
  5
7B4A
330
19
100
AcDbEntity
  8
1
100
AcDbLine
 10
6892.680525394769
 20
3703.542623101338
 30
0.0
 11
7029.380525394666
 21
3703.542623101337
 31
0.0
  0
LINE
  5
7B4F
330
19
100
AcDbEntity
  8
1
100
AcDbLine
 10
9149.375071392508
 20
5345.936623100509
 30
0.0
 11
7029.380525394572
 21
5345.936623100268
 31
0.0
  0
LINE
  5
7B53
330
19
100
AcDbEntity
  8
1
100
AcDbLine
 10
6892.680525394772
 20
3703.542623101338
 30
0.0
 11
6892.680525394769
 21
4271.042623101337
 31
0.0
  0
LINE
  5
7B55
330
19
100
AcDbEntity
  8
1
100
AcDbLine
 10
6812.670445712192
 20
3711.042623101395
 30
0.0
 11
6812.670445712176
 21
3855.578201839717
 31
0.0
  0
LINE
  5
7B56
330
19
100
AcDbEntity
  8
1
100
AcDbLine
 10
6812.670445712192
 20
3711.04262310135
 30
0.0
 11
6469.180525394787
 21
3711.042623101326
 31
0.0
  0
LINE
  5
7B58
330
19
100
AcDbEntity
  8
1
100
AcDbLine
 10
6766.180525394769
 20
3866.042623101345
 30
0.0
 11
6646.18052539477
 21
3866.04262310133
 31
0.0
  0
LINE
  5
7B59
330
19
100
AcDbEntity
  8
1
100
AcDbLine
 10
6766.180525394741
 20
4116.042623101344
 30
0.0
 11
6646.18052539474
 21
4116.042623101329
 31
0.0
  0
LINE
  5
7B5A
330
19
100
AcDbEntity
  8
2
100
AcDbLine
 10
7029.380525394692
 20
3991.042623101375
 30
0.0
 11
6469.18052539477
 21
3991.042623101327
 31
0.0
  0
LINE
  5
7B5B
330
19
100
AcDbEntity
  8
1
100
AcDbLine
 10
6876.180525394771
 20
4041.042623101337
 30
0.0
 11
6876.18052539477
 21
3941.042623101338
 31
0.0
  0
LINE
  5
7B5C
330
19
100
AcDbEntity
  8
1
100
AcDbLine
 10
6706.180525394771
 20
4033.542623101337
 30
0.0
 11
6706.180525394772
 21
3948.542623101338
 31
0.0
  0
LINE
  5
7B5D
330
19
100
AcDbEntity
  8
1
100
AcDbLine
 10
6886.180525394769
 20
4076.542623101337
 30
0.0
 11
6886.18052539477
 21
3905.542623101337
 31
0.0
  0
LINE
  5
7B5E
330
19
100
AcDbEntity
  8
1
100
AcDbLine
 10
6706.18052539477
 20
3948.542623101337
 30
0.0
 11
6876.180525394769
 21
3948.542623101338
 31
0.0
  0
LINE
  5
7B61
330
19
100
AcDbEntity
  8
1
100
AcDbLine
 10
6892.680525394769
 20
3903.542623101337
 30
0.0
 11
6888.18052539477
 21
3903.542623101337
 31
0.0
  0
ARC
  5
7B62
330
19
100
AcDbEntity
  8
1
100
AcDbCircle
 10
6888.18052539477
 20
3905.542623101337
 30
0.0
 40
2.0
100
AcDbArc
 50
180.0
 51
270.0
  0
LINE
  5
7B63
330
19
100
AcDbEntity
  8
1
100
AcDbLine
 10
6876.18052539477
 20
3941.042623101338
 30
0.0
 11
6886.180525394769
 21
3941.042623101338
 31
0.0
  0
LINE
  5
7B64
330
19
100
AcDbEntity
  8
1
100
AcDbLine
 10
6706.180525394771
 20
4033.542623101337
 30
0.0
 11
6876.180525394771
 21
4033.542623101337
 31
0.0
  0
LINE
  5
7B65
330
19
100
AcDbEntity
  8
1
100
AcDbLine
 10
6893.028900394771
 20
4078.542623101337
 30
0.0
 11
6888.18052539477
 21
4078.542623101337
 31
0.0
  0
ARC
  5
7B66
330
19
100
AcDbEntity
  8
1
100
AcDbCircle
 10
6888.18052539477
 20
4076.542623101337
 30
0.0
 40
2.0
100
AcDbArc
 50
90.00000000000005
 51
180.0
  0
LINE
  5
7B67
330
19
100
AcDbEntity
  8
1
100
AcDbLine
 10
6876.180525394771
 20
4041.042623101337
 30
0.0
 11
6886.18052539477
 21
4041.042623101337
 31
0.0
  0
LINE
  5
7B68
330
19
100
AcDbEntity
  8
1
100
AcDbLine
 10
6796.180525394621
 20
5310.93662310024
 30
0.0
 11
7029.380525394573
 21
5310.936623100265
 31
0.0
  0
LINE
  5
7B69
330
19
100
AcDbEntity
  8
1
100
AcDbLine
 10
6796.180525394641
 20
5130.93662310024
 30
0.0
 11
7029.380525394589
 21
5059.963297100806
 31
0.0
  0
LINE
  5
7B6A
330
19
100
AcDbEntity
  8
1
100
AcDbLine
 10
6766.180525394606
 20
5445.936623100237
 30
0.0
 11
7029.380525394559
 21
5445.936623100267
 31
0.0
  0
LINE
  5
7B6B
330
19
100
AcDbEntity
  8
1
100
AcDbLine
 10
6766.180525394617
 20
5335.936623100237
 30
0.0
 11
7029.380525394572
 21
5335.936623100266
 31
0.0
  0
LINE
  5
7B6C
330
19
100
AcDbEntity
  8
1
100
AcDbLine
 10
6796.180525394621
 20
5310.93662310024
 30
0.0
 11
6796.180525394641
 21
5130.93662310024
 31
0.0
  0
LINE
  5
7B6D
330
19
100
AcDbEntity
  8
1
100
AcDbLine
 10
6766.180525394656
 20
4990.936623100236
 30
0.0
 11
6646.180525394656
 21
4990.936623100225
 31
0.0
  0
LINE
  5
7B78
330
19
100
AcDbEntity
  8
1
100
AcDbLine
 10
9149.548261210307
 20
3695.936623100509
 30
0.0
 11
7029.380525394667
 21
3695.936623100269
 31
0.0
  0
LINE
  5
7B79
330
19
100
AcDbEntity
  8
1
100
AcDbLine
 10
6812.670445711953
 20
5940.936623100242
 30
0.0
 11
6469.180525394548
 21
5940.93662310022
 31
0.0
  0
LINE
  5
7B7A
330
19
100
AcDbEntity
  8
1
100
AcDbLine
 10
6766.180525394564
 20
5790.936623100238
 30
0.0
 11
6646.180525394566
 21
5790.936623100225
 31
0.0
  0
LINE
  5
7B7B
330
19
100
AcDbEntity
  8
1
100
AcDbLine
 10
6812.670445711979
 20
5706.817604089208
 30
0.0
 11
6812.670445711953
 21
5940.936623100242
 31
0.0
  0
LINE
  5
7B7F
330
19
100
AcDbEntity
  8
1
100
AcDbLine
 10
9389.581525394618
 20
5330.936623100531
 30
0.0
 11
9389.581525394637
 21
5160.936623100532
 31
0.0
  0
LINE
  5
7B80
330
19
100
AcDbEntity
  8
1
100
AcDbLine
 10
4630.782620196642
 20
10757.9417220337
 30
0.0
 11
4630.782620197439
 21
8507.941722033697
 31
0.0
  0
LINE
  5
7B81
330
19
100
AcDbEntity
  8
1
100
AcDbLine
 10
2214.782620196666
 20
10692.94172203286
 30
0.0
 11
2214.782620197417
 21
8572.941722032865
 31
0.0
  0
LINE
  5
7B82
330
19
100
AcDbEntity
  8
1
100
AcDbLine
 10
2214.782620196666
 20
10692.94172203286
 30
0.0
 11
4630.782620196665
 21
10692.9417220337
 31
0.0
  0
LINE
  5
7B83
330
19
100
AcDbEntity
  8
1
100
AcDbLine
 10
2214.782620197415
 20
8572.941722032869
 30
0.0
 11
4630.782620197415
 21
8572.941722033698
 31
0.0
  0
LINE
  5
7B84
330
19
100
AcDbEntity
  8
1
100
AcDbLine
 10
4565.782620196666
 20
10692.94172203367
 30
0.0
 11
4565.782620197415
 21
8572.941722033677
 31
0.0
  0
LINE
  5
7B85
330
19
100
AcDbEntity
  8
1
100
AcDbLine
 10
4624.782620196642
 20
10757.94172203369
 30
0.0
 11
4630.782620196645
 21
10757.9417220337
 31
0.0
  0
LINE
  5
7B86
330
19
100
AcDbEntity
  8
1
100
AcDbLine
 10
4624.782620197438
 20
8507.941722033695
 30
0.0
 11
4630.782620197439
 21
8507.941722033697
 31
0.0
  0
LINE
  5
7B87
330
19
100
AcDbEntity
  8
1
100
AcDbLine
 10
4624.782620196642
 20
10757.94172203369
 30
0.0
 11
4624.782620197438
 21
8507.941722033695
 31
0.0
  0
LINE
  5
7B88
330
19
100
AcDbEntity
  8
1
100
AcDbLine
 10
4535.782620196683
 20
10692.94172203366
 30
0.0
 11
4535.782620196657
 21
10771.94172203366
 31
0.0
  0
LINE
  5
7B89
330
19
100
AcDbEntity
  8
1
100
AcDbLine
 10
3640.782620197417
 20
8572.941722033355
 30
0.0
 11
3640.78262019751
 21
8309.747176035417
 31
0.0
  0
LINE
  5
7B8A
330
19
100
AcDbEntity
  8
1
100
AcDbLine
 10
3530.782620197417
 20
8572.94172203332
 30
0.0
 11
3530.78262019751
 21
8309.747176035392
 31
0.0
  0
DIMENSION
  5
7B9E
330
19
100
AcDbEntity
  8
3
100
AcDbDimension
280
     0
  2
*D1
 10
2635.782620196639
 20
11273.42210295275
 30
0.0
 11
3594.600710674153
 21
11273.42210295275
 31
0.0
 70
   160
 71
     5
 42
-1.0
 73
     0
 74
     0
 75
     0
  3
IGA
100
AcDbAlignedDimension
 13
4535.782620196657
 23
10771.94172203366
 33
0.0
 14
2635.782620196639
 24
10771.94172203301
 34
0.0
 50
0.0000000000403677
100
AcDbRotatedDimension
1001
ACAD
1000
DSTYLE
1002
{
1070
   287
1070
     3
1070
    40
1040
50.0
1070
   143
1040
0.039
1070
   172
1070
     1
1070
   271
1070
     0
1070
   279
1070
     0
1070
   288
1070
     1
1002
}
  0
DIMENSION
  5
7BAA
330
19
100
AcDbEntity
  8
3
100
AcDbDimension
280
     0
  2
*D2
 10
1235.782620197133
 20
11273.42210295109
 30
0.0
 11
1935.782620196886
 21
11398.42210295109
 31
0.0
 70
    32
 71
     5
 42
-1.0
 73
     0
 74
     0
 75
     0
  3
IGA
100
AcDbAlignedDimension
 13
2635.782620196639
 23
10771.94172203301
 33
0.0
 14
1235.782620197133
 24
9371.941722032461
 34
0.0
 50
0.0000000000403677
100
AcDbRotatedDimension
1001
ACAD
1000
DSTYLE
1002
{
1070
   287
1070
     4
1070
    40
1040
50.0
1070
    75
1070
     1
1070
   143
1040
0.039
1070
   172
1070
     1
1070
   271
1070
     0
1070
   279
1070
     1
1070
   288
1070
     1
1002
}
  0
DIMENSION
  5
7BB7
330
19
100
AcDbEntity
  8
3
100
AcDbDimension
280
     0
  2
*D3
 10
915.8615341761208
 20
8171.94172203246
 30
0.0
 11
915.8615341761196
 21
8887.820524583167
 31
0.0
 70
   160
 71
     5
 42
-1.0
 73
     0
 74
     0
 75
     0
  3
IGA
100
AcDbAlignedDimension
 13
1235.782620197133
 23
9371.941722032461
 33
0.0
 14
1235.782620197544
 24
8171.94172203246
 34
0.0
 50
270.0000000000404
100
AcDbRotatedDimension
1001
ACAD
1000
DSTYLE
1002
{
1070
   287
1070
     3
1070
    40
1040
50.0
1070
   143
1040
0.039
1070
   172
1070
     1
1070
   271
1070
     0
1070
   279
1070
     0
1070
   288
1070
     1
1002
}
  0
DIMENSION
  5
7BC4
330
19
100
AcDbEntity
  8
3
100
AcDbDimension
280
     0
  2
*D4
 10
1235.782620197544
 20
7676.542350786198
 30
0.0
 11
3077.477235115433
 21
7676.542350786198
 31
0.0
 70
   160
 71
     5
 42
3299.999000000011
 73
     0
 74
     0
 75
     0
  3
IGA
100
AcDbAlignedDimension
 13
4535.781620197554
 23
8171.941722033665
 33
0.0
 14
1235.782620197544
 24
8171.94172203246
 34
0.0
 50
0.0000000000403677
100
AcDbRotatedDimension
1001
ACAD
1000
DSTYLE
1002
{
1070
   287
1070
     3
1070
    40
1040
50.0
1070
   143
1040
0.039
1070
   172
1070
     1
1070
   271
1070
     0
1070
   279
1070
     0
1070
   288
1070
     1
1002
}
  0
DIMENSION
  5
7BD1
330
19
100
AcDbEntity
  8
3
100
AcDbDimension
280
     0
  2
*D5
 10
5161.563165269639
 20
8171.941722033665
 30
0.0
 11
5161.563165269638
 21
9634.418469074631
 31
0.0
 70
   160
 71
     5
 42
-1.0
 73
     0
 74
     0
 75
     0
  3
IGA
100
AcDbAlignedDimension
 13
4535.782620196657
 23
10771.94172203366
 33
0.0
 14
4535.781620197554
 24
8171.941722033665
 34
0.0
 50
270.0000000000404
100
AcDbRotatedDimension
1001
ACAD
1000
DSTYLE
1002
{
1070
   287
1070
     3
1070
    40
1040
50.0
1070
   143
1040
0.039
1070
   172
1070
     1
1070
   271
1070
     0
1070
   279
1070
     0
1070
   288
1070
     1
1002
}
  0
LINE
  5
7CB0
330
19
100
AcDbEntity
  8
1
100
AcDbLine
 10
1235.782620198633
 20
3310.936623099355
 30
0.0
 11
1235.782620198609
 21
3385.936623099354
 31
0.0
  0
LINE
  5
7CB1
330
19
100
AcDbEntity
  8
1
100
AcDbLine
 10
1235.782620198603
 20
3490.936623099355
 30
0.0
 11
1235.782620198554
 21
3640.936623099355
 31
0.0
  0
DIMENSION
  5
7CBF
330
19
100
AcDbEntity
  8
3
100
AcDbDimension
280
     0
  2
*D6
 10
3585.782620197818
 20
6885.376602531263
 30
0.0
 11
4160.510516029529
 21
6885.376602531263
 31
0.0
 70
   160
 71
     5
 42
-1.0
 73
     0
 74
     0
 75
     0
  3
IGA
100
AcDbAlignedDimension
 13
4630.781620198013
 23
5385.93662310052
 33
0.0
 14
3585.782620197818
 24
6576.507214658462
 34
0.0
 50
0.0000000000403677
100
AcDbRotatedDimension
1001
ACAD
1000
DSTYLE
1002
{
1070
   287
1070
     3
1070
    40
1040
50.0
1070
   143
1040
0.039
1070
   172
1070
     1
1070
   271
1070
     0
1070
   279
1070
     0
1070
   288
1070
     1
1002
}
  0
DIMENSION
  5
7CCB
330
19
100
AcDbEntity
  8
3
100
AcDbDimension
280
     0
  2
*D7
 10
2214.782620197962
 20
6885.376602529892
 30
0.0
 11
2900.28262019789
 21
7010.376602529892
 31
0.0
 70
    32
 71
     5
 42
-1.0
 73
     0
 74
     0
 75
     0
  3
IGA
100
AcDbAlignedDimension
 13
3585.782620197818
 23
6576.507214658462
 33
0.0
 14
2214.782620197962
 24
5506.936623099153
 34
0.0
 50
0.0000000000403677
100
AcDbRotatedDimension
1001
ACAD
1000
DSTYLE
1002
{
1070
   287
1070
     4
1070
    40
1040
50.0
1070
    75
1070
     1
1070
   143
1040
0.039
1070
   172
1070
     1
1070
   271
1070
     0
1070
   279
1070
     1
1070
   288
1070
     1
1002
}
  0
DIMENSION
  5
7CD8
330
19
100
AcDbEntity
  8
3
100
AcDbDimension
280
     0
  2
*D8
 10
4904.566442468392
 20
5345.936623100519
 30
0.0
 11
4904.566442468391
 21
4505.452684525409
 31
0.0
 70
   160
 71
     5
 42
-1.0
 73
     0
 74
     0
 75
     0
  3
IGA
100
AcDbAlignedDimension
 13
4630.781620198582
 23
3695.936623100521
 33
0.0
 14
4630.781620198016
 24
5345.936623100519
 34
0.0
 50
269.999999999999
100
AcDbRotatedDimension
1001
ACAD
1000
DSTYLE
1002
{
1070
   287
1070
     3
1070
    40
1040
50.0
1070
   143
1040
0.039
1070
   172
1070
     1
1070
   271
1070
     0
1070
   279
1070
     0
1070
   288
1070
     1
1002
}
  0
DIMENSION
  5
7CF2
330
19
100
AcDbEntity
  8
3
100
AcDbDimension
280
     0
  2
*D9
 10
5187.11932505953
 20
5390.93662310054
 30
0.0
 11
5187.11932505953
 21
4505.452684525404
 31
0.0
 70
   160
 71
     5
 42
-1.0
 73
     0
 74
     0
 75
     0
  3
IGA
100
AcDbAlignedDimension
 13
4630.781620198582
 23
3695.936623100521
 33
0.0
 14
4692.829003625655
 24
5390.93662310054
 34
0.0
 50
269.999999999999
100
AcDbRotatedDimension
1001
ACAD
1000
DSTYLE
1002
{
1070
   287
1070
     3
1070
    40
1040
50.0
1070
   143
1040
0.039
1070
   172
1070
     1
1070
   271
1070
     0
1070
   279
1070
     0
1070
   288
1070
     1
1002
}
  0
DIMENSION
  5
7CFE
330
19
100
AcDbEntity
  8
3
100
AcDbDimension
280
     0
  2
*D10
 10
5541.890606517917
 20
3490.936623100488
 30
0.0
 11
5416.890606517916
 21
4440.936623100515
 31
0.0
 70
    32
 71
     5
 42
-1.0
 73
     0
 74
     0
 75
     0
  3
IGA
100
AcDbAlignedDimension
 13
4692.829003625655
 23
5390.936623100543
 33
0.0
 14
4535.782620198604
 24
3490.936623100488
 34
0.0
 50
270.0000000000404
100
AcDbRotatedDimension
1001
ACAD
1000
DSTYLE
1002
{
1070
   287
1070
     3
1070
    40
1040
50.0
1070
   143
1040
0.039
1070
   172
1070
     1
1070
   271
1070
     0
1070
   279
1070
     0
1070
   288
1070
     1
1002
}
  0
DIMENSION
  5
7D1E
330
19
100
AcDbEntity
  8
3
100
AcDbDimension
280
     0
  2
*D11
 10
5541.890606517984
 20
3310.936623100488
 30
0.0
 11
5416.890606517982
 21
2939.508051671917
 31
0.0
 70
    32
 71
     5
 42
75.0
 73
     0
 74
     0
 75
     0
  3
IGA
100
AcDbAlignedDimension
 13
4535.782620198613
 23
3385.936623100488
 33
0.0
 14
4535.782620198639
 24
3310.936623100488
 34
0.0
 50
270.0000000000404
100
AcDbRotatedDimension
1001
ACAD
1000
DSTYLE
1002
{
1070
   287
1070
     3
1070
    40
1040
50.0
1070
   143
1040
0.039
1070
   172
1070
     1
1070
   271
1070
     0
1070
   279
1070
     0
1070
   288
1070
     1
1070
     6
1000
DOT
1002
}
  0
LINE
  5
7D6C
330
19
100
AcDbEntity
  8
1
100
AcDbLine
 10
7029.380525394462
 20
6529.936623100269
 30
0.0
 11
7029.380525394723
 21
3640.936623100269
 31
0.0
  0
DIMENSION
  5
7DB8
330
19
100
AcDbEntity
  8
3
100
AcDbDimension
280
     0
  2
*D13
 10
8089.375071392096
 20
7103.858060591266
 30
0.0
 11
8585.803642820668
 21
7103.858060591266
 31
0.0
 70
   160
  1
(<>)
 71
     5
 42
1300.206454002522
 73
     0
 74
     0
 75
     0
  3
IGA
100
AcDbAlignedDimension
 13
9389.581525394618
 23
5330.936623100531
 33
0.0
 14
8089.375071392096
 24
6988.850619248778
 34
0.0
100
AcDbRotatedDimension
1001
ACAD
1000
DSTYLE
1002
{
1070
   287
1070
     3
1070
    40
1040
50.0
1070
   143
1040
0.039
1070
   172
1070
     1
1070
   271
1070
     0
1070
   279
1070
     0
1070
   288
1070
     1
1002
}
  0
DIMENSION
  5
7DC4
330
19
100
AcDbEntity
  8
3
100
AcDbDimension
280
     0
  2
*D14
 10
6469.180525394548
 20
7103.858060591266
 30
0.0
 11
7279.277798393323
 21
7268.143774876979
 31
0.0
 70
    32
  1
(<>)
 71
     5
 42
1620.194545997548
 73
     0
 74
     0
 75
     0
  3
IGA
100
AcDbAlignedDimension
 13
8089.375071392096
 23
6988.850619248778
 33
0.0
 14
6469.180525394548
 24
5940.93662310022
 34
0.0
100
AcDbRotatedDimension
1001
ACAD
1000
DSTYLE
1002
{
1070
   287
1070
     4
1070
    40
1040
50.0
1070
    75
1070
     1
1070
   143
1040
0.039
1070
   172
1070
     1
1070
   271
1070
     0
1070
   279
1070
     1
1070
   288
1070
     1
1002
}
  0
DIMENSION
  5
7DFC
330
19
100
AcDbEntity
  8
3
100
AcDbDimension
280
     0
  2
*D15
 10
9707.07960072889
 20
4590.936623100509
 30
0.0
 11
9707.079600728889
 21
5354.176211675338
 31
0.0
 70
   160
 71
     5
 42
1600.0
 73
     0
 74
     0
 75
     0
  3
IGA
100
AcDbAlignedDimension
 13
9161.581525394522
 23
6190.93662310051
 33
0.0
 14
9161.581525394705
 24
4590.936623100509
 34
0.0
 50
90.0
100
AcDbRotatedDimension
1001
ACAD
1000
DSTYLE
1002
{
1070
   287
1070
     3
1070
     3
1000
φ<>
1070
    40
1040
50.0
1070
   143
1040
0.039
1070
   172
1070
     1
1070
   271
1070
     0
1070
   279
1070
     0
1070
   288
1070
     1
1002
}
  0
LINE
  5
7E08
330
19
100
AcDbEntity
  8
1
100
AcDbLine
 10
9149.548261210307
 20
3695.936623100509
 30
0.0
 11
7029.380525394571
 21
5345.936623100268
 31
0.0
  0
LINE
  5
7E09
330
19
100
AcDbEntity
  8
1
100
AcDbLine
 10
7029.380525394667
 20
3695.936623100268
 30
0.0
 11
9149.375071392508
 21
5345.936623100509
 31
0.0
  0
DIMENSION
  5
7E17
330
19
100
AcDbEntity
  8
3
100
AcDbDimension
280
     0
  2
*D16
 10
1235.782620198555
 20
7195.928330424104
 30
0.0
 11
2812.733196109171
 21
7195.928330424104
 31
0.0
 70
   160
 71
     5
 42
-1.0
 73
     0
 74
     0
 75
     0
  3
IGA
100
AcDbAlignedDimension
 13
4630.781620198013
 23
5385.93662310052
 33
0.0
 14
1235.782620198554
 24
3640.936623099355
 34
0.0
 50
0.0000000000403677
100
AcDbRotatedDimension
1001
ACAD
1000
DSTYLE
1002
{
1070
   287
1070
     3
1070
    40
1040
50.0
1070
   143
1040
0.039
1070
   172
1070
     1
1070
   271
1070
     0
1070
   279
1070
     0
1070
   288
1070
     1
1002
}
  0
LINE
  5
7EAD
330
19
100
AcDbEntity
  8
1
100
AcDbLine
 10
6628.375071392799
 20
3640.936623100222
 30
0.0
 11
6628.375071392826
 21
3490.936623100223
 31
0.0
  0
LINE
  5
7EAE
330
19
100
AcDbEntity
  8
1
100
AcDbLine
 10
9228.375071392799
 20
3640.936623100517
 30
0.0
 11
9228.37507139283
 21
3490.936623100517
 31
0.0
  0
LINE
  5
7EAF
330
19
100
AcDbEntity
  8
1
100
AcDbLine
 10
9228.375071392825
 20
3490.936623100517
 30
0.0
 11
6628.375071392827
 21
3490.936623100223
 31
0.0
  0
LINE
  5
7EB2
330
19
100
AcDbEntity
  8
1
100
AcDbLine
 10
9228.375071392827
 20
3385.936623100517
 30
0.0
 11
6628.375071392828
 21
3385.936623100223
 31
0.0
  0
LINE
  5
7EB3
330
19
100
AcDbEntity
  8
1
100
AcDbLine
 10
9228.375071392838
 20
3310.936623100517
 30
0.0
 11
6628.375071392837
 21
3310.936623100223
 31
0.0
  0
LINE
  5
7EB4
330
19
100
AcDbEntity
  8
1
100
AcDbLine
 10
6628.37507139283
 20
3385.936623100223
 30
0.0
 11
6628.375071392844
 21
3310.936623100223
 31
0.0
  0
LINE
  5
7EB5
330
19
100
AcDbEntity
  8
1
100
AcDbLine
 10
9228.375071392832
 20
3385.936623100517
 30
0.0
 11
9228.375071392845
 21
3310.936623100517
 31
0.0
  0
LINE
  5
7EE0
330
19
100
AcDbEntity
  8
4
100
AcDbLine
 10
9250.0
 20
2016.859332348089
 30
0.0
 11
9250.0
 21
1016.859332348089
 31
0.0
  0
LINE
  5
7EE1
330
19
100
AcDbEntity
  8
4
100
AcDbLine
 10
5750.0
 20
2016.859332348089
 30
0.0
 11
5750.0
 21
1016.859332348089
 31
0.0
  0
LINE
  5
7EE2
330
19
100
AcDbEntity
  8
4
100
AcDbLine
 10
3250.0
 20
2016.859332348089
 30
0.0
 11
3250.0
 21
1016.859332348089
 31
0.0
  0
LINE
  5
7EE5
330
19
100
AcDbEntity
  8
4
100
AcDbLine
 10
3250.0
 20
1016.859332348089
 30
0.0
 11
9250.0
 21
1016.859332348089
 31
0.0
  0
LINE
  5
7EE6
330
19
100
AcDbEntity
  8
4
100
AcDbLine
 10
3250.0
 20
1516.859332348089
 30
0.0
 11
9250.0
 21
1516.859332348089
 31
0.0
  0
TEXT
  5
7EE7
330
19
100
AcDbEntity
  8
4
100
AcDbText
 10
3442.510404234508
 20
1674.574461681153
 30
0.0
 40
250.0
  1
機器名称
100
AcDbText
  0
TEXT
  5
7EE8
330
19
100
AcDbEntity
  8
4
100
AcDbText
 10
3431.290530123988
 20
1125.085116008144
 30
0.0
 40
250.0
  1
機器型番
100
AcDbText
  0
TEXT
  5
7EE9
330
19
100
AcDbEntity
  8
4
100
AcDbText
 10
5898.290360144589
 20
1637.900296038548
 30
0.0
 40
212.5
  1
ミツヤリミットロードファン
100
AcDbText
  0
TEXT
  5
7EEA
330
19
100
AcDbEntity
  8
4
100
AcDbText
 10
5933.272477927403
 20
1102.657253747806
 30
0.0
 40
250.0
  1
LL#10-5
100
AcDbText
  0
TEXT
  5
7EEC
330
19
100
AcDbEntity
  8
4
100
AcDbText
 10
3999.827685028839
 20
11917.14420666258
 30
0.0
 40
270.0
  1
床置防振ベット
100
AcDbText
  0
TEXT
  5
7EED
330
19
100
AcDbEntity
  8
4
100
AcDbText
 10
1493.487766422462
 20
12669.40488099649
 30
0.0
 40
360.0
  1
遠心式両吸込両持リミットロードファン
100
AcDbText
  0
LINE
  5
7EEE
330
19
100
AcDbEntity
  8
4
100
AcDbLine
 10
1250.0
 20
12347.04377132402
 30
0.0
 11
9250.0
 21
12347.04377132402
 31
0.0
  0
LINE
  5
7EEF
330
19
100
AcDbEntity
  8
4
100
AcDbLine
 10
1250.0
 20
13347.04377132402
 30
0.0
 11
9250.0
 21
13347.04377132402
 31
0.0
  0
LINE
  5
7EF0
330
19
100
AcDbEntity
  8
4
100
AcDbLine
 10
3250.0
 20
2016.859332348089
 30
0.0
 11
9250.0
 21
2016.859332348089
 31
0.0
  0
LINE
  5
7EF1
330
19
100
AcDbEntity
  8
4
100
AcDbLine
 10
1250.0
 20
13347.04377132402
 30
0.0
 11
1250.0
 21
12347.04377132402
 31
0.0
  0
TEXT
  5
7EF2
330
19
100
AcDbEntity
  8
4
100
AcDbText
 10
1820.533523815327
 20
11911.59738773172
 30
0.0
 40
270.0
  1
左回転右横向
100
AcDbText
  0
TEXT
  5
7EF3
330
19
100
AcDbEntity
  8
4
100
AcDbText
 10
7344.847796246449
 20
13530.30540747654
 30
0.0
 40
280.0
  1
No.
100
AcDbText
  0
TEXT
  5
7EF4
330
19
100
AcDbEntity
  8
4
100
AcDbText
 10
6556.480313000065
 20
11917.14420666258
 30
0.0
 40
270.0
  1
縮尺：1/50
100
AcDbText
  0
LINE
  5
7EF5
330
19
100
AcDbEntity
  8
4
100
AcDbLine
 10
9250.0
 20
13347.04377132402
 30
0.0
 11
9250.0
 21
12347.04377132402
 31
0.0
  0
LINE
  5
7EF6
330
19
100
AcDbEntity
  8
4
100
AcDbLine
 10
10500.0
 20
14750.0
 30
0.0
 11
10500.0
 21
14750.0
 31
0.0
  0
LINE
  5
7EF7
330
19
100
AcDbEntity
  8
4
100
AcDbLine
 10
7203.087111799323
 20
13406.317915627
 30
0.0
 11
7203.087111799323
 21
13933.26130774876
 31
0.0
  0
LINE
  5
7EF8
330
19
100
AcDbEntity
  8
4
100
AcDbLine
 10
7203.087111799323
 20
13933.26130774876
 30
0.0
 11
9250.0
 21
13933.26130774876
 31
0.0
  0
LINE
  5
7EF9
330
19
100
AcDbEntity
  8
4
100
AcDbLine
 10
9250.0
 20
13933.26130774876
 30
0.0
 11
9250.0
 21
13406.317915627
 31
0.0
  0
LINE
  5
7EFA
330
19
100
AcDbEntity
  8
4
100
AcDbLine
 10
9250.0
 20
13406.317915627
 30
0.0
 11
7203.087111799323
 21
13406.317915627
 31
0.0
  0
LINE
  5
7EFB
330
19
100
AcDbEntity
  8
4
100
AcDbLine
 10
0.0
 20
0.0
 30
0.0
 11
0.0
 21
14750.0
 31
0.0
  0
LINE
  5
7EFC
330
19
100
AcDbEntity
  8
4
100
AcDbLine
 10
0.0
 20
14750.0
 30
0.0
 11
10500.0
 21
14750.0
 31
0.0
  0
LINE
  5
7EFD
330
19
100
AcDbEntity
  8
4
100
AcDbLine
 10
10500.0
 20
14750.0
 30
0.0
 11
10500.0
 21
0.0
 31
0.0
  0
LINE
  5
7EFE
330
19
100
AcDbEntity
  8
4
100
AcDbLine
 10
10500.0
 20
0.0
 30
0.0
 11
0.0
 21
0.0
 31
0.0
  0
LINE
  5
7F22
330
19
100
AcDbEntity
  8
1
100
AcDbLine
 10
1601.466645951606
 20
4186.755143391287
 30
0.0
 11
3197.156582472468
 21
5780.12783934452
 31
0.0
  0
LINE
  5
7F23
330
19
100
AcDbEntity
  8
1
100
AcDbLine
 10
3871.542158978258
 20
4920.998876163308
 30
0.0
 11
1944.790212172737
 21
3749.380398499034
 31
0.0
  0
LINE
  5
7F24
330
19
100
AcDbEntity
  8
1
100
AcDbLine
 10
1710.792595789376
 20
4076.877899111233
 30
0.0
 11
3302.518514584202
 21
5673.357313685702
 31
0.0
  0
LINE
  5
7F25
330
19
100
AcDbEntity
  8
1
100
AcDbLine
 10
1864.020972227343
 20
3881.673640946081
 30
0.0
 11
3792.849319185692
 21
5048.703687557217
 31
0.0
  0
DIMENSION
  5
7FD1
330
19
100
AcDbEntity
  8
3
100
AcDbDimension
280
     0
  2
*D17
 10
5541.890606515774
 20
6529.93662310012
 30
0.0
 11
5416.890606515773
 21
5960.436623100331
 31
0.0
 70
    32
 71
     5
 42
-1.0
 73
     0
 74
     0
 75
     0
  3
IGA
100
AcDbAlignedDimension
 13
4692.829003625655
 23
5390.936623100543
 33
0.0
 14
3469.782620197157
 24
6529.93662310012
 34
0.0
 50
270.0000000000404
100
AcDbRotatedDimension
1001
ACAD
1000
DSTYLE
1002
{
1070
   287
1070
     4
1070
    40
1040
50.0
1070
    75
1070
     1
1070
   143
1040
0.039
1070
   172
1070
     1
1070
   271
1070
     0
1070
   279
1070
     1
1070
   288
1070
     1
1002
}
  0
LINE
  5
8005
330
19
100
AcDbEntity
  8
1
100
AcDbLine
 10
7029.380525394667
 20
3703.542623101336
 30
0.0
 11
7029.380525394667
 21
3695.936623100269
 31
0.0
  0
LINE
  5
8008
330
19
100
AcDbEntity
  8
1
100
AcDbLine
 10
9149.37507139229
 20
6529.93662310051
 30
0.0
 11
9149.375071392826
 21
3640.936623100509
 31
0.0
  0
LINE
  5
800A
330
19
100
AcDbEntity
  8
1
100
AcDbLine
 10
9149.37507139229
 20
6529.93662310051
 30
0.0
 11
7029.380525394462
 21
6529.936623100268
 31
0.0
  0
DIMENSION
  5
802D
330
19
100
AcDbEntity
  8
3
100
AcDbDimension
280
     0
  2
*D18
 10
9149.37507139229
 20
6746.804718681895
 30
0.0
 11
8090.890310740796
 21
6746.804718681895
 31
0.0
 70
   160
 71
     5
 42
-1.0
 73
     0
 74
     0
 75
     0
  3
IGA
100
AcDbAlignedDimension
 13
7029.380525394462
 23
6529.936623100268
 33
0.0
 14
9149.37507139229
 24
6529.93662310051
 34
0.0
100
AcDbRotatedDimension
1001
ACAD
1000
DSTYLE
1002
{
1070
   287
1070
     3
1070
    40
1040
50.0
1070
   143
1040
0.039
1070
   172
1070
     1
1070
   271
1070
     0
1070
   279
1070
     0
1070
   288
1070
     1
1002
}
  0
LINE
  5
812F
330
19
100
AcDbEntity
  8
1
100
AcDbLine
 10
9228.375071392799
 20
3640.936623100517
 30
0.0
 11
6628.37507139281
 21
3640.936623100222
 31
0.0
  0
DIMENSION
  5
814C
330
19
100
AcDbEntity
  8
3
100
AcDbDimension
280
     0
  2
*D19
 10
3585.782620198637
 20
2972.002303418224
 30
0.0
 11
2410.782620198636
 21
3097.002303418224
 31
0.0
 70
    32
 71
     5
 42
2350.000000000004
 73
     0
 74
     0
 75
     0
  3
IGA
100
AcDbAlignedDimension
 13
1235.782620198633
 23
3310.936623099355
 33
0.0
 14
3585.782620198637
 24
3310.936623100163
 34
0.0
100
AcDbRotatedDimension
1001
ACAD
1000
DSTYLE
1002
{
1070
   172
1070
     1
1070
    40
1040
50.0
1070
   271
1070
     0
1070
   143
1040
0.039
1002
}
  0
DIMENSION
  5
8159
330
19
100
AcDbEntity
  8
3
100
AcDbDimension
280
     0
  2
*D20
 10
4535.782620198639
 20
2972.002303418224
 30
0.0
 11
4060.782620198638
 21
3097.002303418224
 31
0.0
 70
    32
 71
     5
 42
950.0000000000017
 73
     0
 74
     0
 75
     0
  3
IGA
100
AcDbAlignedDimension
 13
3585.782620198637
 23
3310.936623100163
 33
0.0
 14
4535.782620198639
 24
3310.936623100488
 34
0.0
100
AcDbRotatedDimension
1001
ACAD
1000
DSTYLE
1002
{
1070
   172
1070
     1
1070
    40
1040
50.0
1070
   271
1070
     0
1070
   143
1040
0.039
1002
}
  0
DIMENSION
  5
8166
330
19
100
AcDbEntity
  8
3
100
AcDbDimension
280
     0
  2
*D21
 10
8089.375071392865
 20
2972.002303418224
 30
0.0
 11
7358.875071392851
 21
3097.002303418224
 31
0.0
 70
    32
 71
     5
 42
1461.000000000028
 73
     0
 74
     0
 75
     0
  3
IGA
100
AcDbAlignedDimension
 13
6628.375071392837
 23
3310.936623100223
 33
0.0
 14
8089.375071392865
 24
3310.936623100388
 34
0.0
100
AcDbRotatedDimension
1001
ACAD
1000
DSTYLE
1002
{
1070
   172
1070
     1
1070
    40
1040
50.0
1070
   271
1070
     0
1070
   143
1040
0.039
1002
}
  0
DIMENSION
  5
8173
330
19
100
AcDbEntity
  8
3
100
AcDbDimension
280
     0
  2
*D22
 10
9228.375071392838
 20
2972.002303418224
 30
0.0
 11
8658.875071392852
 21
3097.002303418224
 31
0.0
 70
    32
 71
     5
 42
1138.999999999972
 73
     0
 74
     0
 75
     0
  3
IGA
100
AcDbAlignedDimension
 13
8089.375071392865
 23
3310.936623100388
 33
0.0
 14
9228.375071392838
 24
3310.936623100517
 34
0.0
100
AcDbRotatedDimension
1001
ACAD
1000
DSTYLE
1002
{
1070
   172
1070
     1
1070
    40
1040
50.0
1070
   271
1070
     0
1070
   143
1040
0.039
1002
}
  0
DIMENSION
  5
81B5
330
19
100
AcDbEntity
  8
3
100
AcDbDimension
280
     0
  2
*D24
 10
5547.128093198153
 20
3490.936623100488
 30
0.0
 11
5741.551295887751
 21
3438.436623100488
 31
0.0
 70
   160
  1
   <>
 71
     5
 42
105.0
 73
     0
 74
     0
 75
     0
  3
IGA
100
AcDbAlignedDimension
 13
4535.782620198613
 23
3385.936623100488
 33
0.0
 14
4535.782620198604
 24
3490.936623100488
 34
0.0
 50
90.0
100
AcDbRotatedDimension
1001
ACAD
1000
DSTYLE
1002
{
1070
     3
1000
(<>)
1070
    40
1040
50.0
1070
    75
1070
     1
1070
    76
1070
     1
1070
   143
1040
0.039
1070
   172
1070
     1
1070
   271
1070
     0
1070
   343
1005
8174
1070
   344
1005
8174
1002
}
  0
DIMENSION
  5
81D7
330
19
100
AcDbEntity
  8
3
100
AcDbDimension
280
     0
  2
*D25
 10
5949.933791129129
 20
3310.936623100488
 30
0.0
 11
5785.648076843414
 21
4920.436623100304
 31
0.0
 70
    32
 71
     5
 42
3218.999999999632
 73
     0
 74
     0
 75
     0
  3
IGA
100
AcDbAlignedDimension
 13
3494.782620197157
 23
6529.93662310012
 33
0.0
 14
4535.782620198639
 24
3310.936623100488
 34
0.0
 50
90.0
100
AcDbRotatedDimension
1001
ACAD
1000
DSTYLE
1002
{
1070
   172
1070
     1
1070
    40
1040
50.0
1070
     3
1000
(<>)
1070
   271
1070
     0
1070
   143
1040
0.039
1002
}
  0
ENDSEC
  0
SECTION
  2
OBJECTS
  0
DICTIONARY
  5
C
330
0
100
AcDbDictionary
281
     1
  3
ACAD_CIP_PREVIOUS_PRODUCT_INFO
350
8307
  3
ACAD_COLOR
350
82EA
  3
ACAD_DETAILVIEWSTYLE
350
8303
  3
ACAD_GROUP
350
D
  3
ACAD_LAYOUT
350
81E0
  3
ACAD_MATERIAL
350
82B8
  3
ACAD_MLEADERSTYLE
350
82FF
  3
ACAD_MLINESTYLE
350
E
  3
ACAD_PLOTSETTINGS
350
81E1
  3
ACAD_PLOTSTYLENAME
350
81DE
  3
ACAD_SCALELIST
350
82ED
  3
ACAD_SECTIONVIEWSTYLE
350
8301
  3
ACAD_TABLESTYLE
350
82EB
  3
ACAD_VISUALSTYLE
350
82D1
  3
ACDB_RECOMPOSE_DATA
350
83BB
  3
AcDbVariableDictionary
350
82AF
  3
AcDsDecomposeData
350
83C1
  0
DICTIONARY
  5
839F
330
2
100
AcDbDictionary
280
     1
281
     1
  3
ACAD_LAYERSTATES
360
83A0
  0
DICTIONARY
  5
8392
330
F
100
AcDbDictionary
280
     1
281
     1
  3
ADSK_XREC_LAYER_RECONCILED
360
8393
  0
DICTIONARY
  5
8394
330
31
100
AcDbDictionary
280
     1
281
     1
  3
ADSK_XREC_LAYER_RECONCILED
360
8395
  0
DICTIONARY
  5
8396
330
76D0
100
AcDbDictionary
280
     1
281
     1
  3
ADSK_XREC_LAYER_RECONCILED
360
8397
  0
DICTIONARY
  5
8398
330
76D1
100
AcDbDictionary
280
     1
281
     1
  3
ADSK_XREC_LAYER_RECONCILED
360
8399
  0
DICTIONARY
  5
839A
330
76D2
100
AcDbDictionary
280
     1
281
     1
  3
ADSK_XREC_LAYER_RECONCILED
360
839B
  0
DICTIONARY
  5
820D
330
19
100
AcDbDictionary
280
     1
281
     1
  3
ACAD_LAYOUTSELFREF
360
820E
  0
DICTIONARY
  5
820B
330
16
100
AcDbDictionary
280
     1
281
     1
  3
ACAD_LAYOUTSELFREF
360
820C
  0
XRECORD
  5
8307
102
{ACAD_REACTORS
330
C
102
}
330
C
100
AcDbXrecord
280
     1
300
ACDLT
300
2023
300

  0
DICTIONARY
  5
82EA
102
{ACAD_REACTORS
330
C
102
}
330
C
100
AcDbDictionary
281
     1
  0
DICTIONARY
  5
8303
102
{ACAD_REACTORS
330
C
102
}
330
C
100
AcDbDictionary
281
     1
  3
Metric50
350
8304
  0
DICTIONARY
  5
D
102
{ACAD_REACTORS
330
C
102
}
330
C
100
AcDbDictionary
281
     1
  0
DICTIONARY
  5
81E0
102
{ACAD_REACTORS
330
C
102
}
330
C
100
AcDbDictionary
281
     1
  3
Model
350
81E2
  3
ﾚｲｱｳﾄ1
350
81E3
  0
DICTIONARY
  5
82B8
102
{ACAD_REACTORS
330
C
102
}
330
C
100
AcDbDictionary
281
     1
  3
ByBlock
350
82C1
  3
ByLayer
350
82B9
  3
Global
350
82C9
  0
DICTIONARY
  5
82FF
102
{ACAD_REACTORS
330
C
102
}
330
C
100
AcDbDictionary
281
     1
  3
Standard
350
8300
  0
DICTIONARY
  5
E
102
{ACAD_REACTORS
330
C
102
}
330
C
100
AcDbDictionary
281
     1
  3
STANDARD
350
1C
  0
DICTIONARY
  5
81E1
102
{ACAD_REACTORS
330
C
102
}
330
C
100
AcDbDictionary
281
     1
  0
ACDBDICTIONARYWDFLT
  5
81DE
102
{ACAD_REACTORS
330
C
102
}
330
C
100
AcDbDictionary
281
     1
  3
Normal
350
81DF
100
AcDbDictionaryWithDefault
340
81DF
  0
DICTIONARY
  5
82ED
102
{ACAD_REACTORS
330
C
102
}
330
C
100
AcDbDictionary
281
     1
  3
A0
350
82EE
  3
A1
350
82EF
  3
A2
350
82F0
  3
A3
350
82F1
  3
A4
350
82F2
  3
A5
350
82F3
  3
A6
350
82F4
  3
A7
350
82F5
  3
A8
350
82F6
  3
A9
350
82F7
  3
B0
350
82F8
  3
B1
350
82F9
  3
B2
350
82FA
  3
B3
350
82FB
  3
B4
350
82FC
  3
B5
350
82FD
  3
B6
350
82FE
  0
DICTIONARY
  5
8301
102
{ACAD_REACTORS
330
C
102
}
330
C
100
AcDbDictionary
281
     1
  3
Metric50
350
8302
  0
DICTIONARY
  5
82EB
102
{ACAD_REACTORS
330
C
102
}
330
C
100
AcDbDictionary
281
     1
  3
Standard
350
82EC
  0
DICTIONARY
  5
82D1
102
{ACAD_REACTORS
330
C
102
}
330
C
100
AcDbDictionary
281
     1
  3
2dWireframe
350
82D7
  3
Basic
350
82D6
  3
Brighten
350
82DD
  3
ColorChange
350
82E1
  3
Conceptual
350
82DA
  3
Dim
350
82DC
  3
EdgeColorOff
350
82E9
  3
Facepattern
350
82E0
  3
Flat
350
82D2
  3
FlatWithEdges
350
82D3
  3
Gouraud
350
82D4
  3
GouraudWithEdges
350
82D5
  3
Hidden
350
82D9
  3
JitterOff
350
82E7
  3
Linepattern
350
82DF
  3
OverhangOff
350
82E8
  3
Realistic
350
82DB
  3
Shaded
350
82E6
  3
Shaded with edges
350
82E5
  3
Shades of Gray
350
82E2
  3
Sketchy
350
82E3
  3
Thicken
350
82DE
  3
Wireframe
350
82D8
  3
X-Ray
350
82E4
  0
XRECORD
  5
83BB
102
{ACAD_REACTORS
330
C
102
}
330
C
100
AcDbXrecord
280
     1
 90
        1
330
82EC
  0
DICTIONARY
  5
82AF
102
{ACAD_REACTORS
330
C
102
}
330
C
100
AcDbDictionary
281
     1
  3
CANNOSCALE
350
83B0
  3
CMLEADERSTYLE
350
83AC
  3
CTABLESTYLE
350
83AB
  3
CVIEWDETAILSTYLE
350
83AD
  3
CVIEWSECTIONSTYLE
350
83AE
  3
DIMASSOC
350
82B0
  3
LAYEREVAL
350
83B2
  3
LAYERNOTIFY
350
83B3
  3
LIGHTINGUNITS
350
83B1
  3
MARKUPASSISTMODE
350
83B8
  3
MSLTSCALE
350
83AF
  0
DICTIONARY
  5
83C1
102
{ACAD_REACTORS
330
C
102
}
330
C
100
AcDbDictionary
281
     1
  3
AcDsRecords
350
83C3
  3
AcDsSchemas
350
83C2
1001
ACAD
1070
     2
  0
DICTIONARY
  5
83A0
102
{ACAD_REACTORS
330
839F
102
}
330
839F
100
AcDbDictionary
281
     1
  0
XRECORD
  5
8393
102
{ACAD_REACTORS
330
8392
102
}
330
8392
100
AcDbXrecord
280
     1
290
     1
  0
XRECORD
  5
8395
102
{ACAD_REACTORS
330
8394
102
}
330
8394
100
AcDbXrecord
280
     1
290
     1
  0
XRECORD
  5
8397
102
{ACAD_REACTORS
330
8396
102
}
330
8396
100
AcDbXrecord
280
     1
290
     1
  0
XRECORD
  5
8399
102
{ACAD_REACTORS
330
8398
102
}
330
8398
100
AcDbXrecord
280
     1
290
     1
  0
XRECORD
  5
839B
102
{ACAD_REACTORS
330
839A
102
}
330
839A
100
AcDbXrecord
280
     1
290
     1
  0
XRECORD
  5
820E
102
{ACAD_REACTORS
330
820D
102
}
330
820D
100
AcDbXrecord
280
     1
340
19
  0
XRECORD
  5
820C
102
{ACAD_REACTORS
330
820B
102
}
330
820B
100
AcDbXrecord
280
     1
340
16
  0
ACDBDETAILVIEWSTYLE
  5
8304
102
{ACAD_XDICTIONARY
360
83C6
102
}
102
{ACAD_REACTORS
330
8303
102
}
330
8303
100
AcDbModelDocViewStyle
 70
     0
  3
Metric50
290
     0
100
AcDbDetailViewStyle
 70
     0
 71
     0
 90
        3
 71
     1
340
10
 62
   256
 40
5.0
340
0
 62
   256
 40
5.0
300

 40
0.0
280
     1
 71
     2
340
15
 90
       25
 62
   256
 71
     3
340
10
 62
   256
 40
5.0
 90
        0
 40
15.0
 90
        1
300
%<\AcVar ViewDetailId>% (%<\AcVar ViewScale \f "%sn">%)
 71
     4
340
15
 90
       25
 62
   256
340
15
 90
       25
 62
   256
280
     0
  0
LAYOUT
  5
81E2
102
{ACAD_REACTORS
330
81E0
102
}
330
81E0
100
AcDbPlotSettings
  1

  2
\\Txbo34x8944cqyd\EPSON LP-6100
  4

  6

 40
0.0
 41
0.0
 42
0.0
 43
0.0
 44
0.0
 45
0.0
 46
0.0
 47
0.0
 48
0.0
 49
0.0
140
0.0
141
0.0
142
1.0
143
1.0
 70
  1712
 72
     0
 73
     0
 74
     0
  7
GOD2000TABLE.ctb
 75
     0
147
1.0
 76
     0
 77
     2
 78
   300
148
0.0
149
0.0
100
AcDbLayout
  1
Model
 70
     1
 71
     0
 10
0.0
 20
0.0
 11
12.0
 21
9.0
 12
0.0
 22
0.0
 32
0.0
 14
0.0
 24
0.0
 34
0.0
 15
0.0
 25
0.0
 35
0.0
146
0.0
 13
0.0
 23
0.0
 33
0.0
 16
1.0
 26
0.0
 36
0.0
 17
0.0
 27
1.0
 37
0.0
 76
     0
330
19
331
82B6
  0
LAYOUT
  5
81E3
102
{ACAD_REACTORS
330
81E0
102
}
330
81E0
100
AcDbPlotSettings
  1

  2
\\Txbo34x8944cqyd\EPSON LP-6100
  4

  6

 40
0.0
 41
0.0
 42
0.0
 43
0.0
 44
0.0
 45
0.0
 46
0.0
 47
0.0
 48
0.0
 49
0.0
140
0.0
141
0.0
142
1.0
143
1.0
 70
   688
 72
     0
 73
     0
 74
     5
  7
GOD2000TABLE.ctb
 75
    16
147
1.0
 76
     0
 77
     2
 78
   300
148
0.0
149
0.0
100
AcDbLayout
  1
ﾚｲｱｳﾄ1
 70
     1
 71
     1
 10
0.0
 20
0.0
 11
12.0
 21
9.0
 12
0.0
 22
0.0
 32
0.0
 14
1.000000000000000E+20
 24
1.000000000000000E+20
 34
1.000000000000000E+20
 15
-1.000000000000000E+20
 25
-1.000000000000000E+20
 35
-1.000000000000000E+20
146
0.0
 13
0.0
 23
0.0
 33
0.0
 16
1.0
 26
0.0
 36
0.0
 17
0.0
 27
1.0
 37
0.0
 76
     0
330
16
  0
MATERIAL
  5
82C1
102
{ACAD_XDICTIONARY
360
82C2
102
}
102
{ACAD_REACTORS
330
82B8
102
}
330
82B8
100
AcDbMaterial
  1
ByBlock
 72
     0
 43
0.0208333333333333
 43
0.0
 43
0.0
 43
0.0
 43
0.0
 43
0.0208333333333333
 43
0.0
 43
0.0
 43
0.0
 43
0.0
 43
1.0
 43
0.0
 43
0.0
 43
0.0
 43
0.0
 43
1.0
 77
     0
 47
0.0208333333333333
 47
0.0
 47
0.0
 47
0.0
 47
0.0
 47
0.0208333333333333
 47
0.0
 47
0.0
 47
0.0
 47
0.0
 47
1.0
 47
0.0
 47
0.0
 47
0.0
 47
0.0
 47
1.0
171
     0
 49
0.0208333333333333
 49
0.0
 49
0.0
 49
0.0
 49
0.0
 49
0.0208333333333333
 49
0.0
 49
0.0
 49
0.0
 49
0.0
 49
1.0
 49
0.0
 49
0.0
 49
0.0
 49
0.0
 49
1.0
175
     0
142
0.0208333333333333
142
0.0
142
0.0
142
0.0
142
0.0
142
0.0208333333333333
142
0.0
142
0.0
142
0.0
142
0.0
142
1.0
142
0.0
142
0.0
142
0.0
142
0.0
142
1.0
179
     0
144
0.0208333333333333
144
0.0
144
0.0
144
0.0
144
0.0
144
0.0208333333333333
144
0.0
144
0.0
144
0.0
144
0.0
144
1.0
144
0.0
144
0.0
144
0.0
144
0.0
144
1.0
147
0.0208333333333333
147
0.0
147
0.0
147
0.0
147
0.0
147
0.0208333333333333
147
0.0
147
0.0
147
0.0
147
0.0
147
1.0
147
0.0
147
0.0
147
0.0
147
0.0
147
1.0
  0
MATERIAL
  5
82B9
102
{ACAD_XDICTIONARY
360
82BA
102
}
102
{ACAD_REACTORS
330
82B8
102
}
330
82B8
100
AcDbMaterial
  1
ByLayer
 72
     0
 43
0.0208333333333333
 43
0.0
 43
0.0
 43
0.0
 43
0.0
 43
0.0208333333333333
 43
0.0
 43
0.0
 43
0.0
 43
0.0
 43
1.0
 43
0.0
 43
0.0
 43
0.0
 43
0.0
 43
1.0
 77
     0
 47
0.0208333333333333
 47
0.0
 47
0.0
 47
0.0
 47
0.0
 47
0.0208333333333333
 47
0.0
 47
0.0
 47
0.0
 47
0.0
 47
1.0
 47
0.0
 47
0.0
 47
0.0
 47
0.0
 47
1.0
171
     0
 49
0.0208333333333333
 49
0.0
 49
0.0
 49
0.0
 49
0.0
 49
0.0208333333333333
 49
0.0
 49
0.0
 49
0.0
 49
0.0
 49
1.0
 49
0.0
 49
0.0
 49
0.0
 49
0.0
 49
1.0
175
     0
142
0.0208333333333333
142
0.0
142
0.0
142
0.0
142
0.0
142
0.0208333333333333
142
0.0
142
0.0
142
0.0
142
0.0
142
1.0
142
0.0
142
0.0
142
0.0
142
0.0
142
1.0
179
     0
144
0.0208333333333333
144
0.0
144
0.0
144
0.0
144
0.0
144
0.0208333333333333
144
0.0
144
0.0
144
0.0
144
0.0
144
1.0
144
0.0
144
0.0
144
0.0
144
0.0
144
1.0
147
0.0208333333333333
147
0.0
147
0.0
147
0.0
147
0.0
147
0.0208333333333333
147
0.0
147
0.0
147
0.0
147
0.0
147
1.0
147
0.0
147
0.0
147
0.0
147
0.0
147
1.0
  0
MATERIAL
  5
82C9
102
{ACAD_XDICTIONARY
360
82CA
102
}
102
{ACAD_REACTORS
330
82B8
102
}
330
82B8
100
AcDbMaterial
  1
Global
 72
     0
 43
0.0208333333333333
 43
0.0
 43
0.0
 43
0.0
 43
0.0
 43
0.0208333333333333
 43
0.0
 43
0.0
 43
0.0
 43
0.0
 43
1.0
 43
0.0
 43
0.0
 43
0.0
 43
0.0
 43
1.0
 77
     0
 47
0.0208333333333333
 47
0.0
 47
0.0
 47
0.0
 47
0.0
 47
0.0208333333333333
 47
0.0
 47
0.0
 47
0.0
 47
0.0
 47
1.0
 47
0.0
 47
0.0
 47
0.0
 47
0.0
 47
1.0
171
     0
 49
0.0208333333333333
 49
0.0
 49
0.0
 49
0.0
 49
0.0
 49
0.0208333333333333
 49
0.0
 49
0.0
 49
0.0
 49
0.0
 49
1.0
 49
0.0
 49
0.0
 49
0.0
 49
0.0
 49
1.0
175
     0
142
0.0208333333333333
142
0.0
142
0.0
142
0.0
142
0.0
142
0.0208333333333333
142
0.0
142
0.0
142
0.0
142
0.0
142
1.0
142
0.0
142
0.0
142
0.0
142
0.0
142
1.0
179
     0
144
0.0208333333333333
144
0.0
144
0.0
144
0.0
144
0.0
144
0.0208333333333333
144
0.0
144
0.0
144
0.0
144
0.0
144
1.0
144
0.0
144
0.0
144
0.0
144
0.0
144
1.0
147
0.0208333333333333
147
0.0
147
0.0
147
0.0
147
0.0
147
0.0208333333333333
147
0.0
147
0.0
147
0.0
147
0.0
147
1.0
147
0.0
147
0.0
147
0.0
147
0.0
147
1.0
  0
MLEADERSTYLE
  5
8300
102
{ACAD_REACTORS
330
82FF
102
}
330
82FF
100
AcDbMLeaderStyle
179
     2
170
     2
171
     1
172
     0
 90
        2
 40
0.0
 41
0.0
173
     1
 91
-1056964608
340
13
 92
       -2
290
     1
 42
2.0
291
     1
 43
0.36
  3
Standard
 44
4.0
300

342
10
174
     1
178
     6
175
     1
176
     0
 93
-1056964608
 45
4.0
292
     0
297
     0
 46
4.0
 94
-1056964608
 47
1.0
 49
1.0
140
1.0
293
     1
141
0.0
294
     1
177
     0
142
1.0
295
     0
296
     0
143
0.125
271
     0
272
     9
273
     9
298
     1
  0
MLINESTYLE
  5
1C
102
{ACAD_REACTORS
330
E
102
}
330
E
100
AcDbMlineStyle
  2
STANDARD
 70
     0
  3

 62
     0
 51
90.0
 52
90.0
 71
     2
 49
0.5
 62
   256
  6
BYLAYER
 49
-0.5
 62
   256
  6
BYLAYER
  0
ACDBPLACEHOLDER
  5
81DF
102
{ACAD_REACTORS
330
81DE
102
}
330
81DE
  0
SCALE
  5
82EE
102
{ACAD_REACTORS
330
82ED
102
}
330
82ED
100
AcDbScale
 70
     0
300
1:1
140
1.0
141
1.0
290
     1
  0
SCALE
  5
82EF
102
{ACAD_REACTORS
330
82ED
102
}
330
82ED
100
AcDbScale
 70
     0
300
1:2
140
1.0
141
2.0
290
     0
  0
SCALE
  5
82F0
102
{ACAD_REACTORS
330
82ED
102
}
330
82ED
100
AcDbScale
 70
     0
300
1:4
140
1.0
141
4.0
290
     0
  0
SCALE
  5
82F1
102
{ACAD_REACTORS
330
82ED
102
}
330
82ED
100
AcDbScale
 70
     0
300
1:5
140
1.0
141
5.0
290
     0
  0
SCALE
  5
82F2
102
{ACAD_REACTORS
330
82ED
102
}
330
82ED
100
AcDbScale
 70
     0
300
1:8
140
1.0
141
8.0
290
     0
  0
SCALE
  5
82F3
102
{ACAD_REACTORS
330
82ED
102
}
330
82ED
100
AcDbScale
 70
     0
300
1:10
140
1.0
141
10.0
290
     0
  0
SCALE
  5
82F4
102
{ACAD_REACTORS
330
82ED
102
}
330
82ED
100
AcDbScale
 70
     0
300
1:16
140
1.0
141
16.0
290
     0
  0
SCALE
  5
82F5
102
{ACAD_REACTORS
330
82ED
102
}
330
82ED
100
AcDbScale
 70
     0
300
1:20
140
1.0
141
20.0
290
     0
  0
SCALE
  5
82F6
102
{ACAD_REACTORS
330
82ED
102
}
330
82ED
100
AcDbScale
 70
     0
300
1:30
140
1.0
141
30.0
290
     0
  0
SCALE
  5
82F7
102
{ACAD_REACTORS
330
82ED
102
}
330
82ED
100
AcDbScale
 70
     0
300
1:40
140
1.0
141
40.0
290
     0
  0
SCALE
  5
82F8
102
{ACAD_REACTORS
330
82ED
102
}
330
82ED
100
AcDbScale
 70
     0
300
1:50
140
1.0
141
50.0
290
     0
  0
SCALE
  5
82F9
102
{ACAD_REACTORS
330
82ED
102
}
330
82ED
100
AcDbScale
 70
     0
300
1:100
140
1.0
141
100.0
290
     0
  0
SCALE
  5
82FA
102
{ACAD_REACTORS
330
82ED
102
}
330
82ED
100
AcDbScale
 70
     0
300
2:1
140
2.0
141
1.0
290
     0
  0
SCALE
  5
82FB
102
{ACAD_REACTORS
330
82ED
102
}
330
82ED
100
AcDbScale
 70
     0
300
4:1
140
4.0
141
1.0
290
     0
  0
SCALE
  5
82FC
102
{ACAD_REACTORS
330
82ED
102
}
330
82ED
100
AcDbScale
 70
     0
300
8:1
140
8.0
141
1.0
290
     0
  0
SCALE
  5
82FD
102
{ACAD_REACTORS
330
82ED
102
}
330
82ED
100
AcDbScale
 70
     0
300
10:1
140
10.0
141
1.0
290
     0
  0
SCALE
  5
82FE
102
{ACAD_REACTORS
330
82ED
102
}
330
82ED
100
AcDbScale
 70
     0
300
100:1
140
100.0
141
1.0
290
     0
  0
ACDBSECTIONVIEWSTYLE
  5
8302
102
{ACAD_XDICTIONARY
360
83C4
102
}
102
{ACAD_REACTORS
330
8301
102
}
330
8301
100
AcDbModelDocViewStyle
 70
     0
  3
Metric50
290
     0
100
AcDbSectionViewStyle
 70
     0
 71
     0
 90
      102
 71
     1
340
10
 62
   256
 40
5.0
340
0
340
0
 62
   256
 40
5.0
300
I, O, Q, S, X, Z
 40
10.0
 90
        0
 40
2.5
 90
        0
 71
     2
340
15
 90
       25
 62
   256
340
15
 90
       50
 62
   256
 40
5.0
 40
2.5
 40
5.0
 71
     3
340
10
 62
   256
 40
5.0
 90
        0
 40
15.0
 90
        1
300
%<\AcVar ViewSectionStartId>%-%<\AcVar ViewSectionEndId>% (%<\AcVar ViewScale \f "%sn">%)
 71
     4
 62
   256
 62
   257
300
ANSI31
 40
1.0
 90
        0
290
     0
290
     0
 90
        6
 40
0.0
 40
1.570796326794896
 40
0.2617993877991494
 40
1.308996938995747
 40
-0.2617993877991494
 40
1.832595714594046
  0
TABLESTYLE
  5
82EC
102
{ACAD_XDICTIONARY
360
83B9
102
}
102
{ACAD_REACTORS
330
82EB
102
}
330
82EB
100
AcDbTableStyle
280
     0
  3
Standard
 70
     0
 71
     0
 40
1.5
 41
1.5
280
     0
281
     0
  7
STANDARD
140
4.5
170
     2
 62
     0
 63
     7
283
     0
 90
      512
 91
        0
  1

274
    -2
284
     1
 64
     0
275
    -2
285
     1
 65
     0
276
    -2
286
     1
 66
     0
277
    -2
287
     1
 67
     0
278
    -2
288
     1
 68
     0
279
    -2
289
     1
 69
     0
  7
STANDARD
140
6.0
170
     5
 62
     0
 63
     7
283
     0
 90
      512
 91
        0
  1

274
    -2
284
     1
 64
     0
275
    -2
285
     1
 65
     0
276
    -2
286
     1
 66
     0
277
    -2
287
     1
 67
     0
278
    -2
288
     1
 68
     0
279
    -2
289
     1
 69
     0
  7
STANDARD
140
4.5
170
     5
 62
     0
 63
     7
283
     0
 90
      512
 91
        0
  1

274
    -2
284
     1
 64
     0
275
    -2
285
     1
 65
     0
276
    -2
286
     1
 66
     0
277
    -2
287
     1
 67
     0
278
    -2
288
     1
 68
     0
279
    -2
289
     1
 69
     0
  0
VISUALSTYLE
  5
82D7
102
{ACAD_REACTORS
330
82D1
102
}
330
82D1
100
AcDbVisualStyle
  2
2dWireframe
 70
     4
177
     3
291
     0
 70
    58
 90
        0
176
     1
 90
        2
176
     1
 90
        0
176
     1
 90
        0
176
     1
 40
0.6
176
     1
 40
30.0
176
     1
 62
     7
420
 16777215
176
     1
 90
        1
176
     1
 90
        4
176
     1
 62
     7
176
     1
 62
   257
176
     1
 90
        1
176
     1
 90
        1
176
     1
 40
1.0
176
     1
 90
        0
176
     1
 62
   257
176
     1
 40
1.0
176
     1
 90
        1
176
     1
 90
        6
176
     1
 90
        2
176
     1
 62
     7
176
     1
 90
        5
176
     1
 90
        0
176
     1
 90
        0
176
     1
290
     0
176
     1
 90
        1
176
     1
 40
0.0
176
     1
 90
        0
176
     1
290
     1
176
     1
290
     1
176
     1
290
     0
176
     1
290
     0
176
     1
290
     0
176
     1
290
     0
176
     1
290
     0
176
     1
290
     0
176
     1
290
     0
176
     1
 90
       50
176
     1
 40
0.0
176
     1
 40
1.0
176
     1
 90
        0
176
     1
 62
    18
420
        0
176
     1
 90
       50
176
     1
 90
        3
176
     1
 62
     5
420
      255
176
     1
290
     0
176
     1
 90
       50
176
     1
 90
       50
176
     1
 90
       50
176
     1
290
     0
176
     1
 90
       50
176
     1
 62
   256
176
     0
 40
1.0
176
     0
 90
        2
176
     1
  1
strokes_ogs.tif
176
     1
290
     0
176
     1
 40
1.0
176
     1
 40
1.0
176
     1
1001
ACAD
1000
AcDbSavedByObjectVersion
1070
     0
  0
VISUALSTYLE
  5
82D6
102
{ACAD_REACTORS
330
82D1
102
}
330
82D1
100
AcDbVisualStyle
  2
Basic
 70
     7
177
     3
291
     1
 70
    58
 90
        1
176
     1
 90
        0
176
     1
 90
        1
176
     1
 90
        0
176
     1
 40
0.6
176
     1
 40
30.0
176
     1
 62
     7
420
 16777215
176
     1
 90
        0
176
     1
 90
        4
176
     1
 62
     7
176
     1
 62
   257
176
     1
 90
        1
176
     1
 90
        1
176
     1
 40
1.0
176
     1
 90
        8
176
     1
 62
     7
176
     1
 40
1.0
176
     1
 90
        1
176
     1
 90
        6
176
     1
 90
        2
176
     1
 62
     7
176
     1
 90
        5
176
     1
 90
        0
176
     1
 90
        0
176
     1
290
     0
176
     1
 90
        1
176
     1
 40
0.0
176
     1
 90
        0
176
     1
290
     0
176
     1
290
     1
176
     1
290
     1
176
     1
290
     0
176
     1
290
     0
176
     1
290
     0
176
     1
290
     0
176
     1
290
     0
176
     1
290
     0
176
     1
 90
       50
176
     1
 40
0.0
176
     1
 40
1.0
176
     1
 90
        0
176
     1
 62
    18
420
        0
176
     1
 90
       50
176
     1
 90
        3
176
     1
 62
     5
420
      255
176
     1
290
     0
176
     1
 90
       50
176
     1
 90
       50
176
     1
 90
       50
176
     1
290
     0
176
     1
 90
       50
176
     1
 62
   256
176
     0
 40
1.0
176
     0
 90
        2
176
     1
  1
strokes_ogs.tif
176
     1
290
     0
176
     1
 40
1.0
176
     1
 40
1.0
176
     1
1001
ACAD
1000
AcDbSavedByObjectVersion
1070
     0
  0
VISUALSTYLE
  5
82DD
102
{ACAD_REACTORS
330
82D1
102
}
330
82D1
100
AcDbVisualStyle
  2
Brighten
 70
    12
177
     3
291
     1
 70
    58
 90
        2
176
     1
 90
        2
176
     1
 90
        0
176
     1
 90
        0
176
     1
 40
0.6
176
     1
 40
30.0
176
     1
 62
     7
420
 16777215
176
     1
 90
        1
176
     1
 90
        4
176
     1
 62
     7
176
     1
 62
   257
176
     1
 90
        1
176
     1
 90
        1
176
     1
 40
1.0
176
     1
 90
        8
176
     1
 62
     7
176
     1
 40
1.0
176
     1
 90
        1
176
     1
 90
        6
176
     1
 90
        2
176
     1
 62
     7
176
     1
 90
        5
176
     1
 90
        0
176
     1
 90
        0
176
     1
290
     0
176
     1
 90
        1
176
     1
 40
50.0
176
     1
 90
        0
176
     1
290
     0
176
     1
290
     1
176
     1
290
     1
176
     1
290
     0
176
     1
290
     0
176
     1
290
     0
176
     1
290
     0
176
     1
290
     0
176
     1
290
     0
176
     1
 90
       50
176
     1
 40
0.0
176
     1
 40
1.0
176
     1
 90
        0
176
     1
 62
    18
420
        0
176
     1
 90
       50
176
     1
 90
        3
176
     1
 62
     5
420
      255
176
     1
290
     0
176
     1
 90
       50
176
     1
 90
       50
176
     1
 90
       50
176
     1
290
     0
176
     1
 90
       50
176
     1
 62
   256
176
     0
 40
1.0
176
     0
 90
        2
176
     1
  1
strokes_ogs.tif
176
     1
290
     0
176
     1
 40
1.0
176
     1
 40
1.0
176
     1
1001
ACAD
1000
AcDbSavedByObjectVersion
1070
     0
  0
VISUALSTYLE
  5
82E1
102
{ACAD_REACTORS
330
82D1
102
}
330
82D1
100
AcDbVisualStyle
  2
ColorChange
 70
    16
177
     3
291
     1
 70
    58
 90
        2
176
     1
 90
        2
176
     1
 90
        3
176
     1
 90
        0
176
     1
 40
0.6
176
     1
 40
30.0
176
     1
 62
     8
420
  8421504
176
     1
 90
        1
176
     1
 90
        4
176
     1
 62
     7
176
     1
 62
   257
176
     1
 90
        1
176
     1
 90
        1
176
     1
 40
1.0
176
     1
 90
        8
176
     1
 62
     8
420
  8421504
176
     1
 40
1.0
176
     1
 90
        1
176
     1
 90
        6
176
     1
 90
        2
176
     1
 62
     7
176
     1
 90
        5
176
     1
 90
        0
176
     1
 90
        0
176
     1
290
     0
176
     1
 90
        1
176
     1
 40
0.0
176
     1
 90
        0
176
     1
290
     0
176
     1
290
     1
176
     1
290
     1
176
     1
290
     0
176
     1
290
     0
176
     1
290
     0
176
     1
290
     0
176
     1
290
     0
176
     1
290
     0
176
     1
 90
       50
176
     1
 40
0.0
176
     1
 40
1.0
176
     1
 90
        0
176
     1
 62
    18
420
        0
176
     1
 90
       50
176
     1
 90
        3
176
     1
 62
     5
420
      255
176
     1
290
     0
176
     1
 90
       50
176
     1
 90
       50
176
     1
 90
       50
176
     1
290
     0
176
     1
 90
       50
176
     1
 62
   256
176
     0
 40
1.0
176
     0
 90
        2
176
     1
  1
strokes_ogs.tif
176
     1
290
     0
176
     1
 40
1.0
176
     1
 40
1.0
176
     1
1001
ACAD
1000
AcDbSavedByObjectVersion
1070
     0
  0
VISUALSTYLE
  5
82DA
102
{ACAD_REACTORS
330
82D1
102
}
330
82D1
100
AcDbVisualStyle
  2
Conceptual
 70
     9
177
     3
291
     0
 70
    58
 90
        3
176
     1
 90
        2
176
     1
 90
        0
176
     1
 90
        0
176
     1
 40
0.6
176
     1
 40
30.0
176
     1
 62
     7
420
 16777215
176
     1
 90
        2
176
     1
 90
        2
176
     1
 62
     7
176
     1
 62
   257
176
     1
 90
        1
176
     1
 90
        1
176
     1
 40
179.0
176
     1
 90
        8
176
     1
 62
     7
176
     1
 40
1.0
176
     1
 90
        1
176
     1
 90
        6
176
     1
 90
        2
176
     1
 62
     7
176
     1
 90
        3
176
     1
 90
        0
176
     1
 90
        0
176
     1
290
     0
176
     1
 90
        1
176
     1
 40
0.0
176
     1
 90
        0
176
     1
290
     0
176
     1
290
     1
176
     1
290
     1
176
     1
290
     0
176
     1
290
     0
176
     1
290
     0
176
     1
290
     0
176
     1
290
     0
176
     1
290
     0
176
     1
 90
       50
176
     1
 40
0.0
176
     1
 40
1.0
176
     1
 90
        0
176
     1
 62
    18
420
        0
176
     1
 90
       50
176
     1
 90
        3
176
     1
 62
     5
420
      255
176
     1
290
     0
176
     1
 90
       50
176
     1
 90
       50
176
     1
 90
       50
176
     1
290
     0
176
     1
 90
       50
176
     1
 62
   256
176
     0
 40
1.0
176
     0
 90
        2
176
     1
  1
strokes_ogs.tif
176
     1
290
     0
176
     1
 40
1.0
176
     1
 40
1.0
176
     1
1001
ACAD
1000
AcDbSavedByObjectVersion
1070
     0
  0
VISUALSTYLE
  5
82DC
102
{ACAD_REACTORS
330
82D1
102
}
330
82D1
100
AcDbVisualStyle
  2
Dim
 70
    11
177
     3
291
     1
 70
    58
 90
        2
176
     1
 90
        2
176
     1
 90
        0
176
     1
 90
        0
176
     1
 40
0.6
176
     1
 40
30.0
176
     1
 62
     7
420
 16777215
176
     1
 90
        1
176
     1
 90
        4
176
     1
 62
     7
176
     1
 62
   257
176
     1
 90
        1
176
     1
 90
        1
176
     1
 40
1.0
176
     1
 90
        8
176
     1
 62
     7
176
     1
 40
1.0
176
     1
 90
        1
176
     1
 90
        6
176
     1
 90
        2
176
     1
 62
     7
176
     1
 90
        5
176
     1
 90
        0
176
     1
 90
        0
176
     1
290
     0
176
     1
 90
        1
176
     1
 40
-50.0
176
     1
 90
        0
176
     1
290
     0
176
     1
290
     1
176
     1
290
     1
176
     1
290
     0
176
     1
290
     0
176
     1
290
     0
176
     1
290
     0
176
     1
290
     0
176
     1
290
     0
176
     1
 90
       50
176
     1
 40
0.0
176
     1
 40
1.0
176
     1
 90
        0
176
     1
 62
    18
420
        0
176
     1
 90
       50
176
     1
 90
        3
176
     1
 62
     5
420
      255
176
     1
290
     0
176
     1
 90
       50
176
     1
 90
       50
176
     1
 90
       50
176
     1
290
     0
176
     1
 90
       50
176
     1
 62
   256
176
     0
 40
1.0
176
     0
 90
        2
176
     1
  1
strokes_ogs.tif
176
     1
290
     0
176
     1
 40
1.0
176
     1
 40
1.0
176
     1
1001
ACAD
1000
AcDbSavedByObjectVersion
1070
     0
  0
VISUALSTYLE
  5
82E9
102
{ACAD_REACTORS
330
82D1
102
}
330
82D1
100
AcDbVisualStyle
  2
EdgeColorOff
 70
    22
177
     3
291
     1
 70
    58
 90
        2
176
     0
 90
        2
176
     0
 90
        0
176
     0
 90
        0
176
     0
 40
0.6
176
     0
 40
30.0
176
     0
 62
     7
420
 16777215
176
     0
 90
        1
176
     0
 90
        4
176
     0
 62
     7
176
     0
 62
   257
176
     0
 90
        1
176
     0
 90
        1
176
     0
 40
1.0
176
     0
 90
        8
176
     2
 62
     7
176
     0
 40
1.0
176
     0
 90
        1
176
     0
 90
        6
176
     0
 90
        2
176
     0
 62
     7
176
     0
 90
        5
176
     0
 90
        0
176
     0
 90
        0
176
     0
290
     0
176
     0
 90
        1
176
     0
 40
0.0
176
     0
 90
        0
176
     0
290
     0
176
     0
290
     1
176
     0
290
     1
176
     0
290
     0
176
     0
290
     0
176
     0
290
     0
176
     0
290
     0
176
     0
290
     0
176
     0
290
     0
176
     0
 90
       50
176
     0
 40
0.0
176
     0
 40
1.0
176
     0
 90
        0
176
     0
 62
    18
420
        0
176
     0
 90
       50
176
     0
 90
        3
176
     0
 62
     5
420
      255
176
     0
290
     0
176
     0
 90
       50
176
     0
 90
       50
176
     0
 90
       50
176
     0
290
     0
176
     0
 90
       50
176
     0
 62
   256
176
     0
 40
1.0
176
     0
 90
        2
176
     0
  1
strokes_ogs.tif
176
     0
290
     0
176
     0
 40
1.0
176
     0
 40
1.0
176
     0
1001
ACAD
1000
AcDbSavedByObjectVersion
1070
     0
  0
VISUALSTYLE
  5
82E0
102
{ACAD_REACTORS
330
82D1
102
}
330
82D1
100
AcDbVisualStyle
  2
Facepattern
 70
    15
177
     3
291
     1
 70
    58
 90
        2
176
     1
 90
        2
176
     1
 90
        0
176
     1
 90
        0
176
     1
 40
0.6
176
     1
 40
30.0
176
     1
 62
     7
420
 16777215
176
     1
 90
        1
176
     1
 90
        4
176
     1
 62
     7
176
     1
 62
   257
176
     1
 90
        1
176
     1
 90
        1
176
     1
 40
1.0
176
     1
 90
        8
176
     1
 62
     7
176
     1
 40
1.0
176
     1
 90
        1
176
     1
 90
        6
176
     1
 90
        2
176
     1
 62
     7
176
     1
 90
        5
176
     1
 90
        0
176
     1
 90
        0
176
     1
290
     0
176
     1
 90
        1
176
     1
 40
0.0
176
     1
 90
        0
176
     1
290
     0
176
     1
290
     1
176
     1
290
     1
176
     1
290
     0
176
     1
290
     0
176
     1
290
     0
176
     1
290
     0
176
     1
290
     0
176
     1
290
     0
176
     1
 90
       50
176
     1
 40
0.0
176
     1
 40
1.0
176
     1
 90
        0
176
     1
 62
    18
420
        0
176
     1
 90
       50
176
     1
 90
        3
176
     1
 62
     5
420
      255
176
     1
290
     0
176
     1
 90
       50
176
     1
 90
       50
176
     1
 90
       50
176
     1
290
     0
176
     1
 90
       50
176
     1
 62
   256
176
     0
 40
1.0
176
     0
 90
        2
176
     1
  1
strokes_ogs.tif
176
     1
290
     0
176
     1
 40
1.0
176
     1
 40
1.0
176
     1
1001
ACAD
1000
AcDbSavedByObjectVersion
1070
     0
  0
VISUALSTYLE
  5
82D2
102
{ACAD_REACTORS
330
82D1
102
}
330
82D1
100
AcDbVisualStyle
  2
Flat
 70
     0
177
     3
291
     1
 70
    58
 90
        2
176
     1
 90
        1
176
     1
 90
        1
176
     1
 90
        2
176
     1
 40
0.6
176
     1
 40
30.0
176
     1
 62
     7
420
 16777215
176
     1
 90
        0
176
     1
 90
        0
176
     1
 62
     7
176
     1
 62
   257
176
     1
 90
        1
176
     1
 90
        1
176
     1
 40
1.0
176
     1
 90
        8
176
     1
 62
     7
176
     1
 40
1.0
176
     1
 90
        1
176
     1
 90
        6
176
     1
 90
        2
176
     1
 62
     7
176
     1
 90
        5
176
     1
 90
        0
176
     1
 90
        0
176
     1
290
     0
176
     1
 90
       13
176
     1
 40
0.0
176
     1
 90
        0
176
     1
290
     0
176
     1
290
     1
176
     1
290
     1
176
     1
290
     0
176
     1
290
     0
176
     1
290
     0
176
     1
290
     0
176
     1
290
     0
176
     1
290
     0
176
     1
 90
       50
176
     1
 40
0.0
176
     1
 40
1.0
176
     1
 90
        0
176
     1
 62
    18
420
        0
176
     1
 90
       50
176
     1
 90
        3
176
     1
 62
     5
420
      255
176
     1
290
     0
176
     1
 90
       50
176
     1
 90
       50
176
     1
 90
       50
176
     1
290
     0
176
     1
 90
       50
176
     1
 62
   256
176
     0
 40
1.0
176
     0
 90
        2
176
     1
  1
strokes_ogs.tif
176
     1
290
     0
176
     1
 40
1.0
176
     1
 40
1.0
176
     1
1001
ACAD
1000
AcDbSavedByObjectVersion
1070
     0
  0
VISUALSTYLE
  5
82D3
102
{ACAD_REACTORS
330
82D1
102
}
330
82D1
100
AcDbVisualStyle
  2
FlatWithEdges
 70
     1
177
     3
291
     1
 70
    58
 90
        2
176
     1
 90
        1
176
     1
 90
        1
176
     1
 90
        2
176
     1
 40
0.6
176
     1
 40
30.0
176
     1
 62
     7
420
 16777215
176
     1
 90
        1
176
     1
 90
        0
176
     1
 62
     7
176
     1
 62
   257
176
     1
 90
        1
176
     1
 90
        1
176
     1
 40
1.0
176
     1
 90
        0
176
     1
 62
   257
176
     1
 40
1.0
176
     1
 90
        1
176
     1
 90
        6
176
     1
 90
        2
176
     1
 62
     7
176
     1
 90
        5
176
     1
 90
        0
176
     1
 90
        0
176
     1
290
     0
176
     1
 90
       13
176
     1
 40
0.0
176
     1
 90
        0
176
     1
290
     0
176
     1
290
     1
176
     1
290
     1
176
     1
290
     0
176
     1
290
     0
176
     1
290
     0
176
     1
290
     0
176
     1
290
     0
176
     1
290
     0
176
     1
 90
       50
176
     1
 40
0.0
176
     1
 40
1.0
176
     1
 90
        0
176
     1
 62
    18
420
        0
176
     1
 90
       50
176
     1
 90
        3
176
     1
 62
     5
420
      255
176
     1
290
     0
176
     1
 90
       50
176
     1
 90
       50
176
     1
 90
       50
176
     1
290
     0
176
     1
 90
       50
176
     1
 62
   256
176
     0
 40
1.0
176
     0
 90
        2
176
     1
  1
strokes_ogs.tif
176
     1
290
     0
176
     1
 40
1.0
176
     1
 40
1.0
176
     1
1001
ACAD
1000
AcDbSavedByObjectVersion
1070
     0
  0
VISUALSTYLE
  5
82D4
102
{ACAD_REACTORS
330
82D1
102
}
330
82D1
100
AcDbVisualStyle
  2
Gouraud
 70
     2
177
     3
291
     1
 70
    58
 90
        2
176
     1
 90
        2
176
     1
 90
        1
176
     1
 90
        2
176
     1
 40
0.6
176
     1
 40
30.0
176
     1
 62
     7
420
 16777215
176
     1
 90
        0
176
     1
 90
        0
176
     1
 62
     7
176
     1
 62
   257
176
     1
 90
        1
176
     1
 90
        1
176
     1
 40
1.0
176
     1
 90
        0
176
     1
 62
     7
176
     1
 40
1.0
176
     1
 90
        1
176
     1
 90
        6
176
     1
 90
        2
176
     1
 62
     7
176
     1
 90
        5
176
     1
 90
        0
176
     1
 90
        0
176
     1
290
     0
176
     1
 90
       13
176
     1
 40
0.0
176
     1
 90
        0
176
     1
290
     0
176
     1
290
     1
176
     1
290
     1
176
     1
290
     0
176
     1
290
     0
176
     1
290
     0
176
     1
290
     0
176
     1
290
     0
176
     1
290
     0
176
     1
 90
       50
176
     1
 40
0.0
176
     1
 40
1.0
176
     1
 90
        0
176
     1
 62
    18
420
        0
176
     1
 90
       50
176
     1
 90
        3
176
     1
 62
     5
420
      255
176
     1
290
     0
176
     1
 90
       50
176
     1
 90
       50
176
     1
 90
       50
176
     1
290
     0
176
     1
 90
       50
176
     1
 62
   256
176
     0
 40
1.0
176
     0
 90
        2
176
     1
  1
strokes_ogs.tif
176
     1
290
     0
176
     1
 40
1.0
176
     1
 40
1.0
176
     1
1001
ACAD
1000
AcDbSavedByObjectVersion
1070
     0
  0
VISUALSTYLE
  5
82D5
102
{ACAD_REACTORS
330
82D1
102
}
330
82D1
100
AcDbVisualStyle
  2
GouraudWithEdges
 70
     3
177
     3
291
     1
 70
    58
 90
        2
176
     1
 90
        2
176
     1
 90
        1
176
     1
 90
        2
176
     1
 40
0.6
176
     1
 40
30.0
176
     1
 62
     7
420
 16777215
176
     1
 90
        1
176
     1
 90
        0
176
     1
 62
     7
176
     1
 62
   257
176
     1
 90
        1
176
     1
 90
        1
176
     1
 40
1.0
176
     1
 90
        0
176
     1
 62
   257
176
     1
 40
1.0
176
     1
 90
        1
176
     1
 90
        6
176
     1
 90
        2
176
     1
 62
     7
176
     1
 90
        5
176
     1
 90
        0
176
     1
 90
        0
176
     1
290
     0
176
     1
 90
       13
176
     1
 40
0.0
176
     1
 90
        0
176
     1
290
     0
176
     1
290
     1
176
     1
290
     1
176
     1
290
     0
176
     1
290
     0
176
     1
290
     0
176
     1
290
     0
176
     1
290
     0
176
     1
290
     0
176
     1
 90
       50
176
     1
 40
0.0
176
     1
 40
1.0
176
     1
 90
        0
176
     1
 62
    18
420
        0
176
     1
 90
       50
176
     1
 90
        3
176
     1
 62
     5
420
      255
176
     1
290
     0
176
     1
 90
       50
176
     1
 90
       50
176
     1
 90
       50
176
     1
290
     0
176
     1
 90
       50
176
     1
 62
   256
176
     0
 40
1.0
176
     0
 90
        2
176
     1
  1
strokes_ogs.tif
176
     1
290
     0
176
     1
 40
1.0
176
     1
 40
1.0
176
     1
1001
ACAD
1000
AcDbSavedByObjectVersion
1070
     0
  0
VISUALSTYLE
  5
82D9
102
{ACAD_REACTORS
330
82D1
102
}
330
82D1
100
AcDbVisualStyle
  2
Hidden
 70
     6
177
     3
291
     0
 70
    58
 90
        1
176
     1
 90
        2
176
     1
 90
        2
176
     1
 90
        0
176
     1
 40
0.6
176
     1
 40
30.0
176
     1
 62
     7
420
 16777215
176
     1
 90
        2
176
     1
 90
        2
176
     1
 62
     7
176
     1
 62
   257
176
     1
 90
        2
176
     1
 90
        1
176
     1
 40
40.0
176
     1
 90
        0
176
     1
 62
   257
176
     1
 40
1.0
176
     1
 90
        1
176
     1
 90
        6
176
     1
 90
        2
176
     1
 62
     7
176
     1
 90
        3
176
     1
 90
        0
176
     1
 90
        0
176
     1
290
     0
176
     1
 90
        1
176
     1
 40
0.0
176
     1
 90
        0
176
     1
290
     0
176
     1
290
     1
176
     1
290
     1
176
     1
290
     0
176
     1
290
     0
176
     1
290
     0
176
     1
290
     0
176
     1
290
     0
176
     1
290
     0
176
     1
 90
       50
176
     1
 40
0.0
176
     1
 40
1.0
176
     1
 90
        0
176
     1
 62
    18
420
        0
176
     1
 90
       50
176
     1
 90
        3
176
     1
 62
     5
420
      255
176
     1
290
     0
176
     1
 90
       50
176
     1
 90
       50
176
     1
 90
       50
176
     1
290
     0
176
     1
 90
       50
176
     1
 62
   256
176
     0
 40
1.0
176
     0
 90
        2
176
     1
  1
strokes_ogs.tif
176
     1
290
     0
176
     1
 40
1.0
176
     1
 40
1.0
176
     1
1001
ACAD
1000
AcDbSavedByObjectVersion
1070
     0
  0
VISUALSTYLE
  5
82E7
102
{ACAD_REACTORS
330
82D1
102
}
330
82D1
100
AcDbVisualStyle
  2
JitterOff
 70
    20
177
     3
291
     1
 70
    58
 90
        2
176
     0
 90
        2
176
     0
 90
        0
176
     0
 90
        0
176
     0
 40
0.6
176
     0
 40
30.0
176
     0
 62
     7
420
 16777215
176
     0
 90
        1
176
     0
 90
        4
176
     0
 62
     7
176
     0
 62
   257
176
     0
 90
        1
176
     0
 90
        1
176
     0
 40
1.0
176
     0
 90
       10
176
     2
 62
     7
176
     0
 40
1.0
176
     0
 90
        1
176
     0
 90
        6
176
     0
 90
        2
176
     0
 62
     7
176
     0
 90
        5
176
     0
 90
        0
176
     0
 90
        0
176
     0
290
     0
176
     0
 90
        1
176
     0
 40
0.0
176
     0
 90
        0
176
     0
290
     0
176
     0
290
     1
176
     0
290
     1
176
     0
290
     0
176
     0
290
     0
176
     0
290
     0
176
     0
290
     0
176
     0
290
     0
176
     0
290
     0
176
     0
 90
       50
176
     0
 40
0.0
176
     0
 40
1.0
176
     0
 90
        0
176
     0
 62
    18
420
        0
176
     0
 90
       50
176
     0
 90
        3
176
     0
 62
     5
420
      255
176
     0
290
     0
176
     0
 90
       50
176
     0
 90
       50
176
     0
 90
       50
176
     0
290
     0
176
     0
 90
       50
176
     0
 62
   256
176
     0
 40
1.0
176
     0
 90
        2
176
     0
  1
strokes_ogs.tif
176
     0
290
     0
176
     0
 40
1.0
176
     0
 40
1.0
176
     0
1001
ACAD
1000
AcDbSavedByObjectVersion
1070
     0
  0
VISUALSTYLE
  5
82DF
102
{ACAD_REACTORS
330
82D1
102
}
330
82D1
100
AcDbVisualStyle
  2
Linepattern
 70
    14
177
     3
291
     1
 70
    58
 90
        2
176
     1
 90
        2
176
     1
 90
        0
176
     1
 90
        0
176
     1
 40
0.6
176
     1
 40
30.0
176
     1
 62
     7
420
 16777215
176
     1
 90
        1
176
     1
 90
        4
176
     1
 62
     7
176
     1
 62
   257
176
     1
 90
        7
176
     1
 90
        7
176
     1
 40
1.0
176
     1
 90
        8
176
     1
 62
     7
176
     1
 40
1.0
176
     1
 90
        1
176
     1
 90
        6
176
     1
 90
        2
176
     1
 62
     7
176
     1
 90
        5
176
     1
 90
        0
176
     1
 90
        0
176
     1
290
     0
176
     1
 90
        1
176
     1
 40
0.0
176
     1
 90
        0
176
     1
290
     0
176
     1
290
     1
176
     1
290
     1
176
     1
290
     0
176
     1
290
     0
176
     1
290
     0
176
     1
290
     0
176
     1
290
     0
176
     1
290
     0
176
     1
 90
       50
176
     1
 40
0.0
176
     1
 40
1.0
176
     1
 90
        0
176
     1
 62
    18
420
        0
176
     1
 90
       50
176
     1
 90
        3
176
     1
 62
     5
420
      255
176
     1
290
     0
176
     1
 90
       50
176
     1
 90
       50
176
     1
 90
       50
176
     1
290
     0
176
     1
 90
       50
176
     1
 62
   256
176
     0
 40
1.0
176
     0
 90
        2
176
     1
  1
strokes_ogs.tif
176
     1
290
     0
176
     1
 40
1.0
176
     1
 40
1.0
176
     1
1001
ACAD
1000
AcDbSavedByObjectVersion
1070
     0
  0
VISUALSTYLE
  5
82E8
102
{ACAD_REACTORS
330
82D1
102
}
330
82D1
100
AcDbVisualStyle
  2
OverhangOff
 70
    21
177
     3
291
     1
 70
    58
 90
        2
176
     0
 90
        2
176
     0
 90
        0
176
     0
 90
        0
176
     0
 40
0.6
176
     0
 40
30.0
176
     0
 62
     7
420
 16777215
176
     0
 90
        1
176
     0
 90
        4
176
     0
 62
     7
176
     0
 62
   257
176
     0
 90
        1
176
     0
 90
        1
176
     0
 40
1.0
176
     0
 90
        9
176
     2
 62
     7
176
     0
 40
1.0
176
     0
 90
        1
176
     0
 90
        6
176
     0
 90
        2
176
     0
 62
     7
176
     0
 90
        5
176
     0
 90
        0
176
     0
 90
        0
176
     0
290
     0
176
     0
 90
        1
176
     0
 40
0.0
176
     0
 90
        0
176
     0
290
     0
176
     0
290
     1
176
     0
290
     1
176
     0
290
     0
176
     0
290
     0
176
     0
290
     0
176
     0
290
     0
176
     0
290
     0
176
     0
290
     0
176
     0
 90
       50
176
     0
 40
0.0
176
     0
 40
1.0
176
     0
 90
        0
176
     0
 62
    18
420
        0
176
     0
 90
       50
176
     0
 90
        3
176
     0
 62
     5
420
      255
176
     0
290
     0
176
     0
 90
       50
176
     0
 90
       50
176
     0
 90
       50
176
     0
290
     0
176
     0
 90
       50
176
     0
 62
   256
176
     0
 40
1.0
176
     0
 90
        2
176
     0
  1
strokes_ogs.tif
176
     0
290
     0
176
     0
 40
1.0
176
     0
 40
1.0
176
     0
1001
ACAD
1000
AcDbSavedByObjectVersion
1070
     0
  0
VISUALSTYLE
  5
82DB
102
{ACAD_REACTORS
330
82D1
102
}
330
82D1
100
AcDbVisualStyle
  2
Realistic
 70
     8
177
     3
291
     0
 70
    58
 90
        2
176
     1
 90
        3
176
     1
 90
        0
176
     1
 90
        2
176
     1
 40
0.6
176
     1
 40
30.0
176
     1
 62
     7
420
 16777215
176
     1
 90
        0
176
     1
 90
        0
176
     1
 62
     7
176
     1
 62
   257
176
     1
 90
        1
176
     1
 90
        1
176
     1
 40
1.0
176
     1
 90
        8
176
     1
 62
   257
176
     1
 40
1.0
176
     1
 90
        1
176
     1
 90
        6
176
     1
 90
        2
176
     1
 62
     7
176
     1
 90
        3
176
     1
 90
        0
176
     1
 90
        0
176
     1
290
     0
176
     1
 90
       13
176
     1
 40
0.0
176
     1
 90
        0
176
     1
290
     0
176
     1
290
     1
176
     1
290
     1
176
     1
290
     0
176
     1
290
     0
176
     1
290
     0
176
     1
290
     0
176
     1
290
     0
176
     1
290
     0
176
     1
 90
       50
176
     1
 40
0.0
176
     1
 40
1.0
176
     1
 90
        0
176
     1
 62
    18
420
        0
176
     1
 90
       50
176
     1
 90
        3
176
     1
 62
     5
420
      255
176
     1
290
     0
176
     1
 90
       50
176
     1
 90
       50
176
     1
 90
       50
176
     1
290
     0
176
     1
 90
       50
176
     1
 62
   256
176
     0
 40
1.0
176
     0
 90
        2
176
     1
  1
strokes_ogs.tif
176
     1
290
     0
176
     1
 40
1.0
176
     1
 40
1.0
176
     1
1001
ACAD
1000
AcDbSavedByObjectVersion
1070
     0
  0
VISUALSTYLE
  5
82E6
102
{ACAD_REACTORS
330
82D1
102
}
330
82D1
100
AcDbVisualStyle
  2
Shaded
 70
    27
177
     3
291
     0
 70
    58
 90
        2
176
     1
 90
        2
176
     1
 90
        1
176
     1
 90
        2
176
     1
 40
0.6
176
     1
 40
30.0
176
     1
 62
     7
420
 16777215
176
     1
 90
        0
176
     1
 90
        4
176
     1
 62
     7
176
     1
 62
   257
176
     1
 90
        1
176
     1
 90
        1
176
     1
 40
1.0
176
     1
 90
        8
176
     1
 62
   257
176
     1
 40
1.0
176
     1
 90
        1
176
     1
 90
        6
176
     1
 90
        2
176
     1
 62
     8
420
  7895160
176
     1
 90
        3
176
     1
 90
        0
176
     1
 90
        0
176
     1
290
     0
176
     1
 90
        5
176
     1
 40
0.0
176
     1
 90
        0
176
     1
290
     0
176
     1
290
     1
176
     1
290
     1
176
     1
290
     0
176
     1
290
     0
176
     1
290
     0
176
     1
290
     0
176
     1
290
     0
176
     1
290
     0
176
     1
 90
       50
176
     1
 40
0.0
176
     1
 40
1.0
176
     1
 90
        0
176
     1
 62
    18
420
        0
176
     1
 90
       50
176
     1
 90
        3
176
     1
 62
     5
420
      255
176
     1
290
     0
176
     1
 90
       50
176
     1
 90
       50
176
     1
 90
       50
176
     1
290
     0
176
     1
 90
       50
176
     1
 62
   256
176
     0
 40
1.0
176
     0
 90
        2
176
     1
  1
strokes_ogs.tif
176
     1
290
     0
176
     1
 40
1.0
176
     1
 40
1.0
176
     1
1001
ACAD
1000
AcDbSavedByObjectVersion
1070
     0
  0
VISUALSTYLE
  5
82E5
102
{ACAD_REACTORS
330
82D1
102
}
330
82D1
100
AcDbVisualStyle
  2
Shaded with edges
 70
    26
177
     3
291
     0
 70
    58
 90
        2
176
     1
 90
        2
176
     1
 90
        1
176
     1
 90
        2
176
     1
 40
0.6
176
     1
 40
30.0
176
     1
 62
     7
420
 16777215
176
     1
 90
        1
176
     1
 90
        2
176
     1
 62
     7
176
     1
 62
   257
176
     1
 90
        2
176
     1
 90
        1
176
     1
 40
1.0
176
     1
 90
        8
176
     1
 62
   257
176
     1
 40
1.0
176
     1
 90
        1
176
     1
 90
        6
176
     1
 90
        2
176
     1
 62
     7
176
     1
 90
        3
176
     1
 90
        0
176
     1
 90
        0
176
     1
290
     0
176
     1
 90
        5
176
     1
 40
0.0
176
     1
 90
        0
176
     1
290
     0
176
     1
290
     1
176
     1
290
     1
176
     1
290
     0
176
     1
290
     0
176
     1
290
     0
176
     1
290
     0
176
     1
290
     0
176
     1
290
     0
176
     1
 90
       50
176
     1
 40
0.0
176
     1
 40
1.0
176
     1
 90
        0
176
     1
 62
    18
420
        0
176
     1
 90
       50
176
     1
 90
        3
176
     1
 62
     5
420
      255
176
     1
290
     0
176
     1
 90
       50
176
     1
 90
       50
176
     1
 90
       50
176
     1
290
     0
176
     1
 90
       50
176
     1
 62
   256
176
     0
 40
1.0
176
     0
 90
        2
176
     1
  1
strokes_ogs.tif
176
     1
290
     0
176
     1
 40
1.0
176
     1
 40
1.0
176
     1
1001
ACAD
1000
AcDbSavedByObjectVersion
1070
     0
  0
VISUALSTYLE
  5
82E2
102
{ACAD_REACTORS
330
82D1
102
}
330
82D1
100
AcDbVisualStyle
  2
Shades of Gray
 70
    23
177
     3
291
     0
 70
    58
 90
        2
176
     1
 90
        2
176
     1
 90
        3
176
     1
 90
        0
176
     1
 40
0.6
176
     1
 40
30.0
176
     1
 62
     7
420
 16777215
176
     1
 90
        2
176
     1
 90
        2
176
     1
 62
     7
176
     1
 62
     7
176
     1
 90
        1
176
     1
 90
        1
176
     1
 40
40.0
176
     1
 90
        8
176
     1
 62
     7
176
     1
 40
1.0
176
     1
 90
        1
176
     1
 90
        6
176
     1
 90
        2
176
     1
 62
     7
176
     1
 90
        3
176
     1
 90
        0
176
     1
 90
        0
176
     1
290
     0
176
     1
 90
        1
176
     1
 40
0.0
176
     1
 90
        0
176
     1
290
     0
176
     1
290
     1
176
     1
290
     1
176
     1
290
     0
176
     1
290
     0
176
     1
290
     0
176
     1
290
     0
176
     1
290
     0
176
     1
290
     0
176
     1
 90
       50
176
     1
 40
0.0
176
     1
 40
1.0
176
     1
 90
        0
176
     1
 62
    18
420
        0
176
     1
 90
       50
176
     1
 90
        3
176
     1
 62
     5
420
      255
176
     1
290
     0
176
     1
 90
       50
176
     1
 90
       50
176
     1
 90
       50
176
     1
290
     0
176
     1
 90
       50
176
     1
 62
   256
176
     0
 40
1.0
176
     0
 90
        2
176
     1
  1
strokes_ogs.tif
176
     1
290
     0
176
     1
 40
1.0
176
     1
 40
1.0
176
     1
1001
ACAD
1000
AcDbSavedByObjectVersion
1070
     0
  0
VISUALSTYLE
  5
82E3
102
{ACAD_REACTORS
330
82D1
102
}
330
82D1
100
AcDbVisualStyle
  2
Sketchy
 70
    24
177
     3
291
     0
 70
    58
 90
        1
176
     1
 90
        2
176
     1
 90
        2
176
     1
 90
        0
176
     1
 40
0.6
176
     1
 40
30.0
176
     1
 62
     7
420
 16777215
176
     1
 90
        2
176
     1
 90
        2
176
     1
 62
     7
176
     1
 62
     7
176
     1
 90
        1
176
     1
 90
        1
176
     1
 40
40.0
176
     1
 90
       11
176
     1
 62
     7
176
     1
 40
1.0
176
     1
 90
        1
176
     1
 90
        6
176
     1
 90
        2
176
     1
 62
     7
176
     1
 90
        6
176
     1
 90
        0
176
     1
 90
        0
176
     1
290
     0
176
     1
 90
        1
176
     1
 40
0.0
176
     1
 90
        0
176
     1
290
     0
176
     1
290
     1
176
     1
290
     1
176
     1
290
     0
176
     1
290
     0
176
     1
290
     0
176
     1
290
     0
176
     1
290
     0
176
     1
290
     0
176
     1
 90
       50
176
     1
 40
0.0
176
     1
 40
1.0
176
     1
 90
        0
176
     1
 62
    18
420
        0
176
     1
 90
       50
176
     1
 90
        3
176
     1
 62
     5
420
      255
176
     1
290
     0
176
     1
 90
       50
176
     1
 90
       50
176
     1
 90
       50
176
     1
290
     0
176
     1
 90
       50
176
     1
 62
   256
176
     0
 40
1.0
176
     0
 90
        2
176
     1
  1
strokes_ogs.tif
176
     1
290
     0
176
     1
 40
1.0
176
     1
 40
1.0
176
     1
1001
ACAD
1000
AcDbSavedByObjectVersion
1070
     0
  0
VISUALSTYLE
  5
82DE
102
{ACAD_REACTORS
330
82D1
102
}
330
82D1
100
AcDbVisualStyle
  2
Thicken
 70
    13
177
     3
291
     1
 70
    58
 90
        2
176
     1
 90
        2
176
     1
 90
        0
176
     1
 90
        0
176
     1
 40
0.6
176
     1
 40
30.0
176
     1
 62
     7
420
 16777215
176
     1
 90
        1
176
     1
 90
        4
176
     1
 62
     7
176
     1
 62
   257
176
     1
 90
        1
176
     1
 90
        1
176
     1
 40
1.0
176
     1
 90
       12
176
     1
 62
     7
176
     1
 40
1.0
176
     1
 90
        1
176
     1
 90
        6
176
     1
 90
        2
176
     1
 62
     7
176
     1
 90
        5
176
     1
 90
        0
176
     1
 90
        0
176
     1
290
     0
176
     1
 90
        1
176
     1
 40
0.0
176
     1
 90
        0
176
     1
290
     0
176
     1
290
     1
176
     1
290
     1
176
     1
290
     0
176
     1
290
     0
176
     1
290
     0
176
     1
290
     0
176
     1
290
     0
176
     1
290
     0
176
     1
 90
       50
176
     1
 40
0.0
176
     1
 40
1.0
176
     1
 90
        0
176
     1
 62
    18
420
        0
176
     1
 90
       50
176
     1
 90
        3
176
     1
 62
     5
420
      255
176
     1
290
     0
176
     1
 90
       50
176
     1
 90
       50
176
     1
 90
       50
176
     1
290
     0
176
     1
 90
       50
176
     1
 62
   256
176
     0
 40
1.0
176
     0
 90
        2
176
     1
  1
strokes_ogs.tif
176
     1
290
     0
176
     1
 40
1.0
176
     1
 40
1.0
176
     1
1001
ACAD
1000
AcDbSavedByObjectVersion
1070
     0
  0
VISUALSTYLE
  5
82D8
102
{ACAD_REACTORS
330
82D1
102
}
330
82D1
100
AcDbVisualStyle
  2
Wireframe
 70
     5
177
     3
291
     0
 70
    58
 90
        0
176
     1
 90
        2
176
     1
 90
        0
176
     1
 90
        0
176
     1
 40
0.6
176
     1
 40
30.0
176
     1
 62
     7
420
 16777215
176
     1
 90
        1
176
     1
 90
        4
176
     1
 62
     7
176
     1
 62
   257
176
     1
 90
        1
176
     1
 90
        1
176
     1
 40
1.0
176
     1
 90
        0
176
     1
 62
   257
176
     1
 40
1.0
176
     1
 90
        1
176
     1
 90
        6
176
     1
 90
        2
176
     1
 62
     7
176
     1
 90
        3
176
     1
 90
        0
176
     1
 90
        0
176
     1
290
     0
176
     1
 90
        1
176
     1
 40
0.0
176
     1
 90
        0
176
     1
290
     0
176
     1
290
     1
176
     1
290
     1
176
     1
290
     0
176
     1
290
     0
176
     1
290
     0
176
     1
290
     0
176
     1
290
     0
176
     1
290
     0
176
     1
 90
       50
176
     1
 40
0.0
176
     1
 40
1.0
176
     1
 90
        0
176
     1
 62
    18
420
        0
176
     1
 90
       50
176
     1
 90
        3
176
     1
 62
     5
420
      255
176
     1
290
     0
176
     1
 90
       50
176
     1
 90
       50
176
     1
 90
       50
176
     1
290
     0
176
     1
 90
       50
176
     1
 62
   256
176
     0
 40
1.0
176
     0
 90
        2
176
     1
  1
strokes_ogs.tif
176
     1
290
     0
176
     1
 40
1.0
176
     1
 40
1.0
176
     1
1001
ACAD
1000
AcDbSavedByObjectVersion
1070
     0
  0
VISUALSTYLE
  5
82E4
102
{ACAD_REACTORS
330
82D1
102
}
330
82D1
100
AcDbVisualStyle
  2
X-Ray
 70
    25
177
     3
291
     0
 70
    58
 90
        2
176
     1
 90
        2
176
     1
 90
        1
176
     1
 90
        1
176
     1
 40
0.5
176
     1
 40
30.0
176
     1
 62
     7
420
 16777215
176
     1
 90
        1
176
     1
 90
        0
176
     1
 62
     7
176
     1
 62
   257
176
     1
 90
        1
176
     1
 90
        1
176
     1
 40
1.0
176
     1
 90
        8
176
     1
 62
     7
176
     1
 40
1.0
176
     1
 90
        1
176
     1
 90
        6
176
     1
 90
        2
176
     1
 62
     7
176
     1
 90
        3
176
     1
 90
        0
176
     1
 90
        0
176
     1
290
     0
176
     1
 90
       13
176
     1
 40
0.0
176
     1
 90
        0
176
     1
290
     0
176
     1
290
     1
176
     1
290
     1
176
     1
290
     0
176
     1
290
     0
176
     1
290
     0
176
     1
290
     0
176
     1
290
     0
176
     1
290
     0
176
     1
 90
       50
176
     1
 40
0.0
176
     1
 40
1.0
176
     1
 90
        0
176
     1
 62
    18
420
        0
176
     1
 90
       50
176
     1
 90
        3
176
     1
 62
     5
420
      255
176
     1
290
     0
176
     1
 90
       50
176
     1
 90
       50
176
     1
 90
       50
176
     1
290
     0
176
     1
 90
       50
176
     1
 62
   256
176
     0
 40
1.0
176
     0
 90
        2
176
     1
  1
strokes_ogs.tif
176
     1
290
     0
176
     1
 40
1.0
176
     1
 40
1.0
176
     1
1001
ACAD
1000
AcDbSavedByObjectVersion
1070
     0
  0
DICTIONARYVAR
  5
83B0
102
{ACAD_REACTORS
330
82AF
102
}
330
82AF
100
DictionaryVariables
280
     0
  1
1:1
  0
DICTIONARYVAR
  5
83AC
102
{ACAD_REACTORS
330
82AF
102
}
330
82AF
100
DictionaryVariables
280
     0
  1
STANDARD
  0
DICTIONARYVAR
  5
83AB
102
{ACAD_REACTORS
330
82AF
102
}
330
82AF
100
DictionaryVariables
280
     0
  1
STANDARD
  0
DICTIONARYVAR
  5
83AD
102
{ACAD_REACTORS
330
82AF
102
}
330
82AF
100
DictionaryVariables
280
     0
  1
Metric50
  0
DICTIONARYVAR
  5
83AE
102
{ACAD_REACTORS
330
82AF
102
}
330
82AF
100
DictionaryVariables
280
     0
  1
Metric50
  0
DICTIONARYVAR
  5
82B0
102
{ACAD_REACTORS
330
82AF
102
}
330
82AF
100
DictionaryVariables
280
     0
  1
1
  0
DICTIONARYVAR
  5
83B2
102
{ACAD_REACTORS
330
82AF
102
}
330
82AF
100
DictionaryVariables
280
     0
  1
1
  0
DICTIONARYVAR
  5
83B3
102
{ACAD_REACTORS
330
82AF
102
}
330
82AF
100
DictionaryVariables
280
     0
  1
15
  0
DICTIONARYVAR
  5
83B1
102
{ACAD_REACTORS
330
82AF
102
}
330
82AF
100
DictionaryVariables
280
     0
  1
0
  0
DICTIONARYVAR
  5
83B8
102
{ACAD_REACTORS
330
82AF
102
}
330
82AF
100
DictionaryVariables
280
     0
  1
0
  0
DICTIONARYVAR
  5
83AF
102
{ACAD_REACTORS
330
82AF
102
}
330
82AF
100
DictionaryVariables
280
     0
  1
0
  0
DICTIONARY
  5
83C3
102
{ACAD_REACTORS
330
83C1
102
}
330
83C1
100
AcDbDictionary
281
     1
  0
DICTIONARY
  5
83C2
102
{ACAD_REACTORS
330
83C1
102
}
330
83C1
100
AcDbDictionary
281
     1
  3
2050047028160
350
83BC
  3
2050047028176
350
83BD
  3
2050047028192
350
83BE
  3
2050047028208
350
83BF
  3
2050047028224
350
83C0
  0
DICTIONARY
  5
83C6
330
8304
100
AcDbDictionary
280
     1
281
     1
  3
ACAD_XREC_ROUNDTRIP
360
83C7
  0
DICTIONARY
  5
82C2
330
82C1
100
AcDbDictionary
280
     1
281
     1
  3
BUMPTILE
360
82C4
  3
DIFFUSETILE
360
82C3
  3
OPACITYTILE
360
82C7
  3
REFLECTIONTILE
360
82C6
  3
REFRACTIONTILE
360
82C8
  3
SPECULARTILE
360
82C5
  0
DICTIONARY
  5
82BA
330
82B9
100
AcDbDictionary
280
     1
281
     1
  3
BUMPTILE
360
82BC
  3
DIFFUSETILE
360
82BB
  3
OPACITYTILE
360
82BF
  3
REFLECTIONTILE
360
82BE
  3
REFRACTIONTILE
360
82C0
  3
SPECULARTILE
360
82BD
  0
DICTIONARY
  5
82CA
330
82C9
100
AcDbDictionary
280
     1
281
     1
  3
BUMPTILE
360
82CC
  3
DIFFUSETILE
360
82CB
  3
OPACITYTILE
360
82CF
  3
REFLECTIONTILE
360
82CE
  3
REFRACTIONTILE
360
82D0
  3
SPECULARTILE
360
82CD
  0
DICTIONARY
  5
83C4
330
8302
100
AcDbDictionary
280
     1
281
     1
  3
ACAD_XREC_ROUNDTRIP
360
83C5
  0
DICTIONARY
  5
83B9
330
82EC
100
AcDbDictionary
280
     1
281
     1
  3
ACAD_ROUNDTRIP_2008_TABLESTYLE_CELLSTYLEMAP
360
83BA
  0
XRECORD
  5
83BC
102
{ACAD_REACTORS
330
83C2
102
}
330
83C2
100
AcDbXrecord
280
     1
  1
AcDb_Thumbnail_Schema
102
{ATTRRECORD
341
83BD
  2
AcDbDs::TreatedAsObjectData
280
     1
291
     1
102
ATTRRECORD}
102
{ATTRRECORD
341
83BE
  2
AcDbDs::Legacy
280
     1
291
     1
102
ATTRRECORD}
  2
AcDbDs::ID
280
    10
 91
        8
102
{ATTRRECORD
341
83BF
  2
AcDs:Indexable
280
     1
291
     1
102
ATTRRECORD}
102
{ATTRRECORD
341
83C0
  2
AcDbDs::HandleAttribute
280
     7
282
     1
102
ATTRRECORD}
  2
Thumbnail_Data
280
    15
 91
        0
  0
XRECORD
  5
83BD
102
{ACAD_REACTORS
330
83C2
102
}
330
83C2
100
AcDbXrecord
280
     1
  1
AcDbDs::TreatedAsObjectDataSchema
  2
AcDbDs::TreatedAsObjectData
280
     1
 91
        0
  0
XRECORD
  5
83BE
102
{ACAD_REACTORS
330
83C2
102
}
330
83C2
100
AcDbXrecord
280
     1
  1
AcDbDs::LegacySchema
  2
AcDbDs::Legacy
280
     1
 91
        0
  0
XRECORD
  5
83BF
102
{ACAD_REACTORS
330
83C2
102
}
330
83C2
100
AcDbXrecord
280
     1
  1
AcDbDs::IndexedPropertySchema
  2
AcDs:Indexable
280
     1
 91
        0
  0
XRECORD
  5
83C0
102
{ACAD_REACTORS
330
83C2
102
}
330
83C2
100
AcDbXrecord
280
     1
  1
AcDbDs::HandleAttributeSchema
  2
AcDbDs::HandleAttribute
280
     7
 91
        1
284
     1
  0
XRECORD
  5
83C7
102
{ACAD_REACTORS
330
83C6
102
}
330
83C6
100
AcDbXrecord
280
     1
102
DISPLAYNAME
  1
Metric50
102
FLAGS
 90
        0
  0
XRECORD
  5
82C4
102
{ACAD_REACTORS
330
82C2
102
}
330
82C2
100
AcDbXrecord
280
     1
270
     1
271
     1
  0
XRECORD
  5
82C3
102
{ACAD_REACTORS
330
82C2
102
}
330
82C2
100
AcDbXrecord
280
     1
270
     1
271
     1
  0
XRECORD
  5
82C7
102
{ACAD_REACTORS
330
82C2
102
}
330
82C2
100
AcDbXrecord
280
     1
270
     1
271
     1
  0
XRECORD
  5
82C6
102
{ACAD_REACTORS
330
82C2
102
}
330
82C2
100
AcDbXrecord
280
     1
270
     1
271
     1
  0
XRECORD
  5
82C8
102
{ACAD_REACTORS
330
82C2
102
}
330
82C2
100
AcDbXrecord
280
     1
270
     1
271
     1
  0
XRECORD
  5
82C5
102
{ACAD_REACTORS
330
82C2
102
}
330
82C2
100
AcDbXrecord
280
     1
270
     1
271
     1
  0
XRECORD
  5
82BC
102
{ACAD_REACTORS
330
82BA
102
}
330
82BA
100
AcDbXrecord
280
     1
270
     1
271
     1
  0
XRECORD
  5
82BB
102
{ACAD_REACTORS
330
82BA
102
}
330
82BA
100
AcDbXrecord
280
     1
270
     1
271
     1
  0
XRECORD
  5
82BF
102
{ACAD_REACTORS
330
82BA
102
}
330
82BA
100
AcDbXrecord
280
     1
270
     1
271
     1
  0
XRECORD
  5
82BE
102
{ACAD_REACTORS
330
82BA
102
}
330
82BA
100
AcDbXrecord
280
     1
270
     1
271
     1
  0
XRECORD
  5
82C0
102
{ACAD_REACTORS
330
82BA
102
}
330
82BA
100
AcDbXrecord
280
     1
270
     1
271
     1
  0
XRECORD
  5
82BD
102
{ACAD_REACTORS
330
82BA
102
}
330
82BA
100
AcDbXrecord
280
     1
270
     1
271
     1
  0
XRECORD
  5
82CC
102
{ACAD_REACTORS
330
82CA
102
}
330
82CA
100
AcDbXrecord
280
     1
270
     1
271
     1
  0
XRECORD
  5
82CB
102
{ACAD_REACTORS
330
82CA
102
}
330
82CA
100
AcDbXrecord
280
     1
270
     1
271
     1
  0
XRECORD
  5
82CF
102
{ACAD_REACTORS
330
82CA
102
}
330
82CA
100
AcDbXrecord
280
     1
270
     1
271
     1
  0
XRECORD
  5
82CE
102
{ACAD_REACTORS
330
82CA
102
}
330
82CA
100
AcDbXrecord
280
     1
270
     1
271
     1
  0
XRECORD
  5
82D0
102
{ACAD_REACTORS
330
82CA
102
}
330
82CA
100
AcDbXrecord
280
     1
270
     1
271
     1
  0
XRECORD
  5
82CD
102
{ACAD_REACTORS
330
82CA
102
}
330
82CA
100
AcDbXrecord
280
     1
270
     1
271
     1
  0
XRECORD
  5
83C5
102
{ACAD_REACTORS
330
83C4
102
}
330
83C4
100
AcDbXrecord
280
     1
102
DISPLAYNAME
  1
Metric50
102
FLAGS
 90
        0
  0
CELLSTYLEMAP
  5
83BA
102
{ACAD_REACTORS
330
83B9
102
}
330
83B9
100
AcDbCellStyleMap
 90
        3
300
CELLSTYLE
  1
TABLEFORMAT_BEGIN
 90
        5
170
     1
 91
        0
 92
    32768
 62
   257
 93
        1
300
CONTENTFORMAT
  1
CONTENTFORMAT_BEGIN
 90
        0
 91
        0
 92
      512
 93
        0
300

 40
0.0
140
1.0
 94
        5
 62
     0
340
10
144
6.0
309
CONTENTFORMAT_END
171
     1
301
MARGIN
  1
CELLMARGIN_BEGIN
 40
1.5
 40
1.5
 40
1.5
 40
1.5
 40
4.5
 40
4.5
309
CELLMARGIN_END
 94
        6
 95
        1
302
GRIDFORMAT
  1
GRIDFORMAT_BEGIN
 90
        0
 91
        1
 62
     0
 92
       -2
340
0
 93
        0
 40
1.125
309
GRIDFORMAT_END
 95
        2
302
GRIDFORMAT
  1
GRIDFORMAT_BEGIN
 90
        0
 91
        1
 62
     0
 92
       -2
340
0
 93
        0
 40
1.125
309
GRIDFORMAT_END
 95
        4
302
GRIDFORMAT
  1
GRIDFORMAT_BEGIN
 90
        0
 91
        1
 62
     0
 92
       -2
340
0
 93
        0
 40
1.125
309
GRIDFORMAT_END
 95
        8
302
GRIDFORMAT
  1
GRIDFORMAT_BEGIN
 90
        0
 91
        1
 62
     0
 92
       -2
340
0
 93
        0
 40
1.125
309
GRIDFORMAT_END
 95
       16
302
GRIDFORMAT
  1
GRIDFORMAT_BEGIN
 90
        0
 91
        1
 62
     0
 92
       -2
340
0
 93
        0
 40
1.125
309
GRIDFORMAT_END
 95
       32
302
GRIDFORMAT
  1
GRIDFORMAT_BEGIN
 90
        0
 91
        1
 62
     0
 92
       -2
340
0
 93
        0
 40
1.125
309
GRIDFORMAT_END
309
TABLEFORMAT_END
  1
CELLSTYLE_BEGIN
 90
        1
 91
        1
300
_TITLE
309
CELLSTYLE_END
300
CELLSTYLE
  1
TABLEFORMAT_BEGIN
 90
        5
170
     1
 91
        0
 92
        0
 62
   257
 93
        1
300
CONTENTFORMAT
  1
CONTENTFORMAT_BEGIN
 90
        0
 91
        0
 92
      512
 93
        0
300

 40
0.0
140
1.0
 94
        5
 62
     0
340
10
144
4.5
309
CONTENTFORMAT_END
171
     1
301
MARGIN
  1
CELLMARGIN_BEGIN
 40
1.5
 40
1.5
 40
1.5
 40
1.5
 40
4.5
 40
4.5
309
CELLMARGIN_END
 94
        6
 95
        1
302
GRIDFORMAT
  1
GRIDFORMAT_BEGIN
 90
        0
 91
        1
 62
     0
 92
       -2
340
0
 93
        0
 40
1.125
309
GRIDFORMAT_END
 95
        2
302
GRIDFORMAT
  1
GRIDFORMAT_BEGIN
 90
        0
 91
        1
 62
     0
 92
       -2
340
0
 93
        0
 40
1.125
309
GRIDFORMAT_END
 95
        4
302
GRIDFORMAT
  1
GRIDFORMAT_BEGIN
 90
        0
 91
        1
 62
     0
 92
       -2
340
0
 93
        0
 40
1.125
309
GRIDFORMAT_END
 95
        8
302
GRIDFORMAT
  1
GRIDFORMAT_BEGIN
 90
        0
 91
        1
 62
     0
 92
       -2
340
0
 93
        0
 40
1.125
309
GRIDFORMAT_END
 95
       16
302
GRIDFORMAT
  1
GRIDFORMAT_BEGIN
 90
        0
 91
        1
 62
     0
 92
       -2
340
0
 93
        0
 40
1.125
309
GRIDFORMAT_END
 95
       32
302
GRIDFORMAT
  1
GRIDFORMAT_BEGIN
 90
        0
 91
        1
 62
     0
 92
       -2
340
0
 93
        0
 40
1.125
309
GRIDFORMAT_END
309
TABLEFORMAT_END
  1
CELLSTYLE_BEGIN
 90
        2
 91
        1
300
_HEADER
309
CELLSTYLE_END
300
CELLSTYLE
  1
TABLEFORMAT_BEGIN
 90
        5
170
     1
 91
        0
 92
        0
 62
   257
 93
        1
300
CONTENTFORMAT
  1
CONTENTFORMAT_BEGIN
 90
        0
 91
        0
 92
      512
 93
        0
300

 40
0.0
140
1.0
 94
        2
 62
     0
340
10
144
4.5
309
CONTENTFORMAT_END
171
     1
301
MARGIN
  1
CELLMARGIN_BEGIN
 40
1.5
 40
1.5
 40
1.5
 40
1.5
 40
4.5
 40
4.5
309
CELLMARGIN_END
 94
        6
 95
        1
302
GRIDFORMAT
  1
GRIDFORMAT_BEGIN
 90
        0
 91
        1
 62
     0
 92
       -2
340
0
 93
        0
 40
1.125
309
GRIDFORMAT_END
 95
        2
302
GRIDFORMAT
  1
GRIDFORMAT_BEGIN
 90
        0
 91
        1
 62
     0
 92
       -2
340
0
 93
        0
 40
1.125
309
GRIDFORMAT_END
 95
        4
302
GRIDFORMAT
  1
GRIDFORMAT_BEGIN
 90
        0
 91
        1
 62
     0
 92
       -2
340
0
 93
        0
 40
1.125
309
GRIDFORMAT_END
 95
        8
302
GRIDFORMAT
  1
GRIDFORMAT_BEGIN
 90
        0
 91
        1
 62
     0
 92
       -2
340
0
 93
        0
 40
1.125
309
GRIDFORMAT_END
 95
       16
302
GRIDFORMAT
  1
GRIDFORMAT_BEGIN
 90
        0
 91
        1
 62
     0
 92
       -2
340
0
 93
        0
 40
1.125
309
GRIDFORMAT_END
 95
       32
302
GRIDFORMAT
  1
GRIDFORMAT_BEGIN
 90
        0
 91
        1
 62
     0
 92
       -2
340
0
 93
        0
 40
1.125
309
GRIDFORMAT_END
309
TABLEFORMAT_END
  1
CELLSTYLE_BEGIN
 90
        3
 91
        2
300
_DATA
309
CELLSTYLE_END
  0
ENDSEC
  0
SECTION
  2
ACDSDATA
 70
     2
 71
     8
  0
ACDSSCHEMA
 90
        0
  1
AcDb_Thumbnail_Schema
  2
AcDbDs::ID
280
    10
 91
        8
  2
Thumbnail_Data
280
    15
 91
        0
101
ACDSRECORD
 95
        0
 90
        1
  2
AcDbDs::TreatedAsObjectData
280
     1
291
     1
101
ACDSRECORD
 95
        0
 90
        2
  2
AcDbDs::Legacy
280
     1
291
     1
101
ACDSRECORD
  1
AcDbDs::ID
 90
        3
  2
AcDs:Indexable
280
     1
291
     1
101
ACDSRECORD
  1
AcDbDs::ID
 90
        4
  2
AcDbDs::HandleAttribute
280
     7
282
     1
  0
ACDSSCHEMA
 90
        1
  1
AcDbDs::TreatedAsObjectDataSchema
  2
AcDbDs::TreatedAsObjectData
280
     1
 91
        0
  0
ACDSSCHEMA
 90
        2
  1
AcDbDs::LegacySchema
  2
AcDbDs::Legacy
280
     1
 91
        0
  0
ACDSSCHEMA
 90
        3
  1
AcDbDs::IndexedPropertySchema
  2
AcDs:Indexable
280
     1
 91
        0
  0
ACDSSCHEMA
 90
        4
  1
AcDbDs::HandleAttributeSchema
  2
AcDbDs::HandleAttribute
280
     7
 91
        1
284
     1
  0
ACDSRECORD
 90
        0
  2
AcDbDs::ID
280
    10
320
81E2
  2
Thumbnail_Data
280
    15
 94
     1761
310
89504E470D0A1A0A0000000D49484452000001000000007C0803000000B13B9E5A00000300504C5445000000000000C8C8C80000000000000000000000000000000000000000000000000000330000660000990000CC0000FF0033000033330033660033990033CC0033FF0066000066330066660066990066CC0066FF0099
310
000099330099660099990099CC0099FF00CC0000CC3300CC6600CC9900CCCC00CCFF00FF0000FF3300FF6600FF9900FFCC00FFFF3300003300333300663300993300CC3300FF3333003333333333663333993333CC3333FF3366003366333366663366993366CC3366FF3399003399333399663399993399CC3399FF33CC00
310
33CC3333CC6633CC9933CCCC33CCFF33FF0033FF3333FF6633FF9933FFCC33FFFF6600006600336600666600996600CC6600FF6633006633336633666633996633CC6633FF6666006666336666666666996666CC6666FF6699006699336699666699996699CC6699FF66CC0066CC3366CC6666CC9966CCCC66CCFF66FF0066
310
FF3366FF6666FF9966FFCC66FFFF9900009900339900669900999900CC9900FF9933009933339933669933999933CC9933FF9966009966339966669966999966CC9966FF9999009999339999669999999999CC9999FF99CC0099CC3399CC6699CC9999CCCC99CCFF99FF0099FF3399FF6699FF9999FFCC99FFFFCC0000CC00
310
33CC0066CC0099CC00CCCC00FFCC3300CC3333CC3366CC3399CC33CCCC33FFCC6600CC6633CC6666CC6699CC66CCCC66FFCC9900CC9933CC9966CC9999CC99CCCC99FFCCCC00CCCC33CCCC66CCCC99CCCCCCCCCCFFCCFF00CCFF33CCFF66CCFF99CCFFCCCCFFFFFF0000FF0033FF0066FF0099FF00CCFF00FFFF3300FF3333
310
FF3366FF3399FF33CCFF33FFFF6600FF6633FF6666FF6699FF66CCFF66FFFF9900FF9933FF9966FF9999FF99CCFF99FFFFCC00FFCC33FFCC66FFCC99FFCCCCFFCCFFFFFF00FFFF33FFFF66FFFF99FFFFCCFFFFFF0000000D0D0D1A1A1A2828283535354343435050505D5D5D6B6B6B787878868686939393A1A1A1AEAEAEBB
310
BBBBC9C9C9D6D6D6E4E4E4F1F1F1FFFFFF00000000000000000000000000000000000000000000000000000000000008F1915C0000039C4944415478DAED9D5B72EB200C86B51C5EB4FFCDB00DBF9F8311201038EE4CDBA92E7492380EF6848F1F495C4A007E205D3F94404BBA54DD3600048000100002C0DFF9A60FCECF0B
310
80E5F2CBA502DC03B83C03585A816E00DFDA035009E08FDD2C00FC3E0092F1A2EAF17AB77ABAA8E99D3EA0EBF503200C304A0EE34125A700A0B6F97A960E4D280078D5C3A484990313437BB100A0EAB857F1D555F15CB42B8C60C4010E3B430F77500B4056A9A8E2ABE7830B5A0637007A3CD001347F680C40AF6210D57F51
310
363009E0BBAE8F31C100A013402EE9F0CE3C80FC945C00E04A5872058000E00D00CEE9CB86403300DCA5AFCA403500F669E2E70240000800012000F805E0280E700F20C9842914601C4009F579D8EB0F402924623A03B0ED057205500A1C0002400008000E43610EC0E58810B9C1C50BE27DCE91028EB5EF00408D04D352F6
310
E46B54F800001CCE0BACF3A24E01646700BCCF0E6BB8ED6F7DD357959E47DBC8A299B8003072C96662DD06645EEACC0F8D7881A572E57A814FA0340328A5A042D3E15E01BBE66204C0CB26200064230036357DB60133265F00D651135B0A609DC04D73B81FA2DF6C0900F6CA9D7A8399053D28148076002069A07487EF69A1
310
66EF9E010C83A81C401D04C2324688F7DF4B005D21CA0160350265A2B80A4102E083873601E08D20DD18FE6B7B01807CF8DC1C802A009A2CAD6515004C2B005BF9A1D9005CBD00D94609C08811A41981E606B700D02A8084754D0C5F29832C081A0036C98402280600600A28750BD4351C001605949C46006073042D0E400A
310
F42700CD11A45E7C3402001B81E6057600A04F99A5AE1B1A4DD00E00BB9BC7EA03E008E07E4A8D049B4154FE0F134DE5446044F90200C5CB0876008C92B1B9415C0687781C50DA09D801D0AAFC7E606A75FB00801D18E80D0EA387C83D9C8C034E0A503D1E80B53064F69E01E0C106680640469F75F5F85259D801905E4035
310
00A0468FB00520FB02320ED00DA0F6015A08F00020A56D2468A009A431D0312F927AD717D00D60D3BB5B1749CD00F6CB09D50298340FC206B431A1BC1A7C768D720028D7C9CD0A982321730AC81B00F904206F328D812303B3C3FD1C73FE2C0F0D8EF779B23C67B30A60590890AD01F8B8448603F8B092C6E632B9FC7EC1A4
310
D57582EE0140000800012000B801E07E57D987925DFBB73E00C89DD7C726DCC600C0E6A7D3D876B263437576226C807D05C090FBBA9DAE0B1B30F69DF704E0D82EDC282076978F5038000480001000024000300840D14F6FFF03B73DA3B5927116900000000049454E44AE426082
  0
ENDSEC
  0
EOF
