  0
SECTION
  2
HEADER
  9
$ACADVER
  1
AC1027
  9
$ACADMAINTVER
 70
   125
  9
$DWGCODEPAGE
  3
ANSI_932
  9
$LASTSAVEDBY
  1
yasukiyo.ogawa
  9
$REQUIREDVERSIONS
160
                 0
  9
$INSBASE
 10
0.0
 20
0.0
 30
0.0
  9
$EXTMIN
 10
0.0
 20
0.0
 30
0.0
  9
$EXTMAX
 10
10500.0
 20
14750.0
 30
0.0
  9
$LIMMIN
 10
0.0
 20
0.0
  9
$LIMMAX
 10
297.0
 20
210.0
  9
$ORTHOMODE
 70
     1
  9
$REGENMODE
 70
     1
  9
$FILLMODE
 70
     0
  9
$QTEXTMODE
 70
     0
  9
$MIRRTEXT
 70
     1
  9
$LTSCALE
 40
100.0
  9
$ATTMODE
 70
     1
  9
$TEXTSIZE
 40
180.0
  9
$TRACEWID
 40
0.05
  9
$TEXTSTYLE
  7
STANDARD
  9
$CLAYER
  8
3
  9
$CELTYPE
  6
BYLAYER
  9
$CECOLOR
 62
   256
  9
$CELTSCALE
 40
1.0
  9
$DISPSILH
 70
     0
  9
$DIMSCALE
 40
50.0
  9
$DIMASZ
 40
2.0
  9
$DIMEXO
 40
0.5
  9
$DIMDLI
 40
10.0
  9
$DIMRND
 40
0.0
  9
$DIMDLE
 40
0.0
  9
$DIMEXE
 40
1.0
  9
$DIMTP
 40
1.0
  9
$DIMTM
 40
1.0
  9
$DIMTXT
 40
3.0
  9
$DIMCEN
 40
0.0
  9
$DIMTSZ
 40
0.0
  9
$DIMTOL
 70
     0
  9
$DIMLIM
 70
     0
  9
$DIMTIH
 70
     0
  9
$DIMTOH
 70
     0
  9
$DIMSE1
 70
     0
  9
$DIMSE2
 70
     0
  9
$DIMTAD
 70
     1
  9
$DIMZIN
 70
     8
  9
$DIMBLK
  1

  9
$DIMASO
 70
     1
  9
$DIMSHO
 70
     1
  9
$DIMPOST
  1
(<>)
  9
$DIMAPOST
  1

  9
$DIMALT
 70
     0
  9
$DIMALTD
 70
     2
  9
$DIMALTF
 40
0.039
  9
$DIMLFAC
 40
1.0
  9
$DIMTOFL
 70
     1
  9
$DIMTVP
 40
0.0
  9
$DIMTIX
 70
     0
  9
$DIMSOXD
 70
     0
  9
$DIMSAH
 70
     1
  9
$DIMBLK1
  1
OPEN
  9
$DIMBLK2
  1
OPEN
  9
$DIMSTYLE
  2
IGA
  9
$DIMCLRD
 70
     0
  9
$DIMCLRE
 70
     0
  9
$DIMCLRT
 70
     0
  9
$DIMTFAC
 40
10.0
  9
$DIMGAP
 40
1.0
  9
$DIMJUST
 70
     0
  9
$DIMSD1
 70
     0
  9
$DIMSD2
 70
     0
  9
$DIMTOLJ
 70
     1
  9
$DIMTZIN
 70
     8
  9
$DIMALTZ
 70
     0
  9
$DIMALTTZ
 70
     0
  9
$DIMUPT
 70
     0
  9
$DIMDEC
 70
     0
  9
$DIMTDEC
 70
     0
  9
$DIMALTU
 70
     2
  9
$DIMALTTD
 70
     2
  9
$DIMTXSTY
  7
STANDARD
  9
$DIMAUNIT
 70
     0
  9
$DIMADEC
 70
     0
  9
$DIMALTRND
 40
0.0
  9
$DIMAZIN
 70
     0
  9
$DIMDSEP
 70
    46
  9
$DIMATFIT
 70
     3
  9
$DIMFRAC
 70
     0
  9
$DIMLDRBLK
  1
OPEN
  9
$DIMLUNIT
 70
     2
  9
$DIMLWD
 70
    -2
  9
$DIMLWE
 70
    -2
  9
$DIMTMOVE
 70
     2
  9
$DIMFXL
 40
1.0
  9
$DIMFXLON
 70
     0
  9
$DIMJOGANG
 40
0.7853981633974483
  9
$DIMTFILL
 70
     0
  9
$DIMTFILLCLR
 70
     0
  9
$DIMARCSYM
 70
     0
  9
$DIMLTYPE
  6

  9
$DIMLTEX1
  6

  9
$DIMLTEX2
  6

  9
$DIMTXTDIRECTION
 70
     0
  9
$LUNITS
 70
     2
  9
$LUPREC
 70
     3
  9
$SKETCHINC
 40
0.1
  9
$FILLETRAD
 40
50.0
  9
$AUNITS
 70
     0
  9
$AUPREC
 70
     0
  9
$MENU
  1
acad
  9
$ELEVATION
 40
0.0
  9
$PELEVATION
 40
0.0
  9
$THICKNESS
 40
0.0
  9
$LIMCHECK
 70
     0
  9
$CHAMFERA
 40
0.5
  9
$CHAMFERB
 40
0.5
  9
$CHAMFERC
 40
20.0
  9
$CHAMFERD
 40
0.0
  9
$SKPOLY
 70
     0
  9
$TDCREATE
 40
2452326.445474537
  9
$TDUCREATE
 40
2452326.070481250
  9
$TDUPDATE
 40
2460245.589328704
  9
$TDUUPDATE
 40
2460245.214331100
  9
$TDINDWG
 40
0.0468558796
  9
$TDUSRTIMER
 40
0.0468558796
  9
$USRTIMER
 70
     1
  9
$ANGBASE
 50
0.0
  9
$ANGDIR
 70
     0
  9
$PDMODE
 70
     0
  9
$PDSIZE
 40
0.0
  9
$PLINEWID
 40
0.0
  9
$SPLFRAME
 70
     0
  9
$SPLINETYPE
 70
     6
  9
$SPLINESEGS
 70
     8
  9
$HANDSEED
  5
8145
  9
$SURFTAB1
 70
     6
  9
$SURFTAB2
 70
     6
  9
$SURFTYPE
 70
     6
  9
$SURFU
 70
     6
  9
$SURFV
 70
     6
  9
$UCSBASE
  2

  9
$UCSNAME
  2

  9
$UCSORG
 10
0.0
 20
0.0
 30
0.0
  9
$UCSXDIR
 10
1.0
 20
0.0
 30
0.0
  9
$UCSYDIR
 10
0.0
 20
1.0
 30
0.0
  9
$UCSORTHOREF
  2

  9
$UCSORTHOVIEW
 70
     0
  9
$UCSORGTOP
 10
0.0
 20
0.0
 30
0.0
  9
$UCSORGBOTTOM
 10
0.0
 20
0.0
 30
0.0
  9
$UCSORGLEFT
 10
0.0
 20
0.0
 30
0.0
  9
$UCSORGRIGHT
 10
0.0
 20
0.0
 30
0.0
  9
$UCSORGFRONT
 10
0.0
 20
0.0
 30
0.0
  9
$UCSORGBACK
 10
0.0
 20
0.0
 30
0.0
  9
$PUCSBASE
  2

  9
$PUCSNAME
  2

  9
$PUCSORG
 10
0.0
 20
0.0
 30
0.0
  9
$PUCSXDIR
 10
1.0
 20
0.0
 30
0.0
  9
$PUCSYDIR
 10
0.0
 20
1.0
 30
0.0
  9
$PUCSORTHOREF
  2

  9
$PUCSORTHOVIEW
 70
     0
  9
$PUCSORGTOP
 10
0.0
 20
0.0
 30
0.0
  9
$PUCSORGBOTTOM
 10
0.0
 20
0.0
 30
0.0
  9
$PUCSORGLEFT
 10
0.0
 20
0.0
 30
0.0
  9
$PUCSORGRIGHT
 10
0.0
 20
0.0
 30
0.0
  9
$PUCSORGFRONT
 10
0.0
 20
0.0
 30
0.0
  9
$PUCSORGBACK
 10
0.0
 20
0.0
 30
0.0
  9
$USERI1
 70
     0
  9
$USERI2
 70
     0
  9
$USERI3
 70
     0
  9
$USERI4
 70
     0
  9
$USERI5
 70
     0
  9
$USERR1
 40
0.0
  9
$USERR2
 40
0.0
  9
$USERR3
 40
0.0
  9
$USERR4
 40
0.0
  9
$USERR5
 40
0.0
  9
$WORLDVIEW
 70
     1
  9
$SHADEDGE
 70
     3
  9
$SHADEDIF
 70
    70
  9
$TILEMODE
 70
     1
  9
$MAXACTVP
 70
    16
  9
$PINSBASE
 10
0.0
 20
0.0
 30
0.0
  9
$PLIMCHECK
 70
     0
  9
$PEXTMIN
 10
1.000000000000000E+20
 20
1.000000000000000E+20
 30
1.000000000000000E+20
  9
$PEXTMAX
 10
-1.000000000000000E+20
 20
-1.000000000000000E+20
 30
-1.000000000000000E+20
  9
$PLIMMIN
 10
0.0
 20
0.0
  9
$PLIMMAX
 10
12.0
 20
9.0
  9
$UNITMODE
 70
     0
  9
$VISRETAIN
 70
     0
  9
$PLINEGEN
 70
     0
  9
$PSLTSCALE
 70
     1
  9
$TREEDEPTH
 70
  3020
  9
$CMLSTYLE
  2
STANDARD
  9
$CMLJUST
 70
     0
  9
$CMLSCALE
 40
20.0
  9
$PROXYGRAPHICS
 70
     1
  9
$MEASUREMENT
 70
     1
  9
$CELWEIGHT
370
    -1
  9
$ENDCAPS
280
     0
  9
$JOINSTYLE
280
     0
  9
$LWDISPLAY
290
     0
  9
$INSUNITS
 70
     0
  9
$HYPERLINKBASE
  1

  9
$STYLESHEET
  1

  9
$XEDIT
290
     1
  9
$CEPSNTYPE
380
     0
  9
$PSTYLEMODE
290
     1
  9
$FINGERPRINTGUID
  2
{AE8C4454-4292-403B-B536-33E7B3967624}
  9
$VERSIONGUID
  2
{08938674-53EF-42C5-B9AB-3845857EA378}
  9
$EXTNAMES
290
     1
  9
$PSVPSCALE
 40
0.0
  9
$OLESTARTUP
290
     0
  9
$SORTENTS
280
   127
  9
$INDEXCTL
280
     0
  9
$HIDETEXT
280
     0
  9
$XCLIPFRAME
280
     2
  9
$HALOGAP
280
     0
  9
$OBSCOLOR
 70
   257
  9
$OBSLTYPE
280
     0
  9
$INTERSECTIONDISPLAY
280
     0
  9
$INTERSECTIONCOLOR
 70
   257
  9
$DIMASSOC
280
     1
  9
$PROJECTNAME
  1

  9
$CAMERADISPLAY
290
     0
  9
$LENSLENGTH
 40
50.0
  9
$CAMERAHEIGHT
 40
0.0
  9
$STEPSPERSEC
 40
2.0
  9
$STEPSIZE
 40
6.0
  9
$3DDWFPREC
 40
2.0
  9
$PSOLWIDTH
 40
0.25
  9
$PSOLHEIGHT
 40
4.0
  9
$LOFTANG1
 40
1.570796326794896
  9
$LOFTANG2
 40
1.570796326794896
  9
$LOFTMAG1
 40
0.0
  9
$LOFTMAG2
 40
0.0
  9
$LOFTPARAM
 70
     7
  9
$LOFTNORMALS
280
     1
  9
$LATITUDE
 40
37.795
  9
$LONGITUDE
 40
-122.394
  9
$NORTHDIRECTION
 40
0.0
  9
$TIMEZONE
 70
 -8000
  9
$LIGHTGLYPHDISPLAY
280
     1
  9
$TILEMODELIGHTSYNCH
280
     1
  9
$CMATERIAL
347
8078
  9
$SOLIDHIST
280
     0
  9
$SHOWHIST
280
     1
  9
$DWFFRAME
280
     2
  9
$DGNFRAME
280
     0
  9
$REALWORLDSCALE
290
     1
  9
$INTERFERECOLOR
 62
     1
  9
$INTERFEREOBJVS
345
809A
  9
$INTERFEREVPVS
346
8097
  9
$CSHADOW
280
     0
  9
$SHADOWPLANELOCATION
 40
0.0
  0
ENDSEC
  0
SECTION
  2
CLASSES
  0
CLASS
  1
ACDBDICTIONARYWDFLT
  2
AcDbDictionaryWithDefault
  3
ObjectDBX Classes
 90
        0
 91
        1
280
     0
281
     0
  0
CLASS
  1
DICTIONARYVAR
  2
AcDbDictionaryVar
  3
ObjectDBX Classes
 90
        0
 91
       11
280
     0
281
     0
  0
CLASS
  1
MATERIAL
  2
AcDbMaterial
  3
ObjectDBX Classes
 90
     1153
 91
        3
280
     0
281
     0
  0
CLASS
  1
VISUALSTYLE
  2
AcDbVisualStyle
  3
ObjectDBX Classes
 90
     4095
 91
       24
280
     0
281
     0
  0
CLASS
  1
TABLESTYLE
  2
AcDbTableStyle
  3
ObjectDBX Classes
 90
     4095
 91
        1
280
     0
281
     0
  0
CLASS
  1
SCALE
  2
AcDbScale
  3
ObjectDBX Classes
 90
     1153
 91
       17
280
     0
281
     0
  0
CLASS
  1
MLEADERSTYLE
  2
AcDbMLeaderStyle
  3
ACDB_MLEADERSTYLE_CLASS
 90
     4095
 91
        1
280
     0
281
     0
  0
CLASS
  1
ACDBSECTIONVIEWSTYLE
  2
AcDbSectionViewStyle
  3
ObjectDBX Classes
 90
     1025
 91
        1
280
     0
281
     0
  0
CLASS
  1
ACDBDETAILVIEWSTYLE
  2
AcDbDetailViewStyle
  3
ObjectDBX Classes
 90
     1025
 91
        1
280
     0
281
     0
  0
CLASS
  1
CELLSTYLEMAP
  2
AcDbCellStyleMap
  3
ObjectDBX Classes
 90
     1152
 91
        1
280
     0
281
     0
  0
ENDSEC
  0
SECTION
  2
TABLES
  0
TABLE
  2
VPORT
  5
8
330
0
100
AcDbSymbolTable
 70
     1
1001
ACAD
1000
DbSaveVer
1071
      278
  0
VPORT
  5
8075
330
8
100
AcDbSymbolTableRecord
100
AcDbViewportTableRecord
  2
*Active
 70
     0
 10
0.0
 20
0.0
 11
1.0
 21
1.0
 12
6735.28379831989
 22
7375.000034342519
 13
0.0
 23
0.0
 14
10.0
 24
10.0
 15
10.0
 25
10.0
 16
0.0
 26
0.0
 36
1.0
 17
0.0
 27
0.0
 37
0.0
 40
14845.3564068816
 41
2.250314465408805
 42
50.0
 43
0.0
 44
0.0
 50
0.0
 51
0.0
 71
     0
 72
   100
 73
     1
 74
     0
 75
     0
 76
     0
 77
     0
 78
     0
281
     0
 65
     1
110
0.0
120
0.0
130
0.0
111
1.0
121
0.0
131
0.0
112
0.0
122
1.0
132
0.0
 79
     0
146
0.0
348
8096
 60
     3
 61
     5
292
     1
282
     1
141
0.0
142
0.0
 63
   250
421
  3355443
1001
ACAD_NAV_VCDISPLAY
1070
     3
  0
ENDTAB
  0
TABLE
  2
LTYPE
  5
5
330
0
100
AcDbSymbolTable
 70
     2
  0
LTYPE
  5
13
330
5
100
AcDbSymbolTableRecord
100
AcDbLinetypeTableRecord
  2
BYBLOCK
 70
     0
  3

 72
    65
 73
     0
 40
0.0
  0
LTYPE
  5
14
330
5
100
AcDbSymbolTableRecord
100
AcDbLinetypeTableRecord
  2
BYLAYER
 70
     0
  3

 72
    65
 73
     0
 40
0.0
  0
LTYPE
  5
15
330
5
100
AcDbSymbolTableRecord
100
AcDbLinetypeTableRecord
  2
CONTINUOUS
 70
     0
  3
Solid line
 72
    65
 73
     0
 40
0.0
  0
LTYPE
  5
1F
330
5
100
AcDbSymbolTableRecord
100
AcDbLinetypeTableRecord
  2
CENTER
 70
     0
  3
____ _ ____ _ ____ _ ____ _ ____ _ ____ _ ____ 
 72
    65
 73
     4
 40
2.0
 49
1.25
 74
     0
 49
-0.25
 74
     0
 49
0.25
 74
     0
 49
-0.25
 74
     0
  0
ENDTAB
  0
TABLE
  2
LAYER
  5
2
102
{ACAD_XDICTIONARY
360
811C
102
}
330
0
100
AcDbSymbolTable
 70
     6
  0
LAYER
  5
F
102
{ACAD_XDICTIONARY
360
810F
102
}
330
2
100
AcDbSymbolTableRecord
100
AcDbLayerTableRecord
  2
0
 70
     0
 62
     7
  6
CONTINUOUS
370
    -3
390
7FA7
347
8088
348
0
  0
LAYER
  5
31
102
{ACAD_XDICTIONARY
360
8111
102
}
330
2
100
AcDbSymbolTableRecord
100
AcDbLayerTableRecord
  2
3
 70
     0
 62
     2
  6
CONTINUOUS
370
    -3
390
7FA7
347
8088
348
0
  0
LAYER
  5
76D0
102
{ACAD_XDICTIONARY
360
8113
102
}
330
2
100
AcDbSymbolTableRecord
100
AcDbLayerTableRecord
  2
2
 70
     0
 62
     3
  6
CENTER
370
    -3
390
7FA7
347
8088
348
0
  0
LAYER
  5
76D1
102
{ACAD_XDICTIONARY
360
8115
102
}
330
2
100
AcDbSymbolTableRecord
100
AcDbLayerTableRecord
  2
1
 70
     0
 62
     4
  6
CONTINUOUS
370
    -3
390
7FA7
347
8088
348
0
  0
LAYER
  5
76D2
102
{ACAD_XDICTIONARY
360
8117
102
}
330
2
100
AcDbSymbolTableRecord
100
AcDbLayerTableRecord
  2
4
 70
     0
 62
     7
  6
CONTINUOUS
370
    -3
390
7FA7
347
8088
348
0
  0
LAYER
  5
7A01
330
2
100
AcDbSymbolTableRecord
100
AcDbLayerTableRecord
  2
DEFPOINTS
 70
     0
 62
     7
  6
CONTINUOUS
290
     0
370
    -3
390
7FA7
347
8088
348
0
  0
ENDTAB
  0
TABLE
  2
STYLE
  5
3
330
0
100
AcDbSymbolTable
 70
     1
  0
STYLE
  5
10
330
3
100
AcDbSymbolTableRecord
100
AcDbTextStyleTableRecord
  2
STANDARD
 70
     0
 40
0.0
 41
1.0
 50
0.0
 71
     0
 42
180.0
  3
simplex.shx
  4
extfont.shx
  0
ENDTAB
  0
TABLE
  2
VIEW
  5
6
330
0
100
AcDbSymbolTable
 70
     0
  0
ENDTAB
  0
TABLE
  2
UCS
  5
7
330
0
100
AcDbSymbolTable
 70
     0
  0
ENDTAB
  0
TABLE
  2
APPID
  5
9
330
0
100
AcDbSymbolTable
 70
     4
  0
APPID
  5
11
330
9
100
AcDbSymbolTableRecord
100
AcDbRegAppTableRecord
  2
ACAD
 70
     0
  0
APPID
  5
80C7
330
9
100
AcDbSymbolTableRecord
100
AcDbRegAppTableRecord
  2
AcadAnnoMonitorAlertIconDisabled
 70
     0
  0
APPID
  5
80C8
330
9
100
AcDbSymbolTableRecord
100
AcDbRegAppTableRecord
  2
ACAD_EXEMPT_FROM_CAD_STANDARDS
 70
     0
  0
APPID
  5
8122
330
9
100
AcDbSymbolTableRecord
100
AcDbRegAppTableRecord
  2
ACAD_NAV_VCDISPLAY
 70
     0
  0
ENDTAB
  0
TABLE
  2
DIMSTYLE
  5
A
330
0
100
AcDbSymbolTable
 70
     1
100
AcDbDimStyleTable
 71
     1
340
1D
  0
DIMSTYLE
105
1D
102
{ACAD_REACTORS
330
7B9E
330
7BAA
330
7BB7
330
7BC4
330
7BD1
330
7CBF
330
7CCB
330
7CD8
330
7CF2
330
7CFE
330
7D1E
330
7DAB
330
7DB8
330
7DC4
330
7DFC
330
7E17
330
7F3C
330
7F49
330
7F56
330
7F63
330
7F72
330
7F9A
102
}
330
A
100
AcDbSymbolTableRecord
100
AcDbDimStyleTableRecord
  2
IGA
 70
     0
 40
2.0
 41
2.0
 42
0.5
 43
10.0
 44
1.0
 47
1.0
 48
1.0
 73
     0
 74
     0
 77
     1
 78
     8
140
3.0
141
0.0
143
0.03937
146
10.0
147
1.0
173
     1
271
     1
272
     0
279
     2
284
     8
340
10
341
7B8C
343
7B8C
344
7B8C
  0
ENDTAB
  0
TABLE
  2
BLOCK_RECORD
  5
1
330
0
100
AcDbSymbolTable
 70
    25
  0
BLOCK_RECORD
  5
19
102
{ACAD_XDICTIONARY
360
7FD5
102
}
330
1
100
AcDbSymbolTableRecord
100
AcDbBlockTableRecord
  2
*MODEL_SPACE
340
7FAA
 70
     0
280
     1
281
     0
  0
BLOCK_RECORD
  5
16
102
{ACAD_XDICTIONARY
360
7FD3
102
}
330
1
100
AcDbSymbolTableRecord
100
AcDbBlockTableRecord
  2
*PAPER_SPACE
340
7FAB
 70
     0
280
     1
281
     0
  0
BLOCK_RECORD
  5
7B8C
330
1
100
AcDbSymbolTableRecord
100
AcDbBlockTableRecord
  2
_OPEN
340
0
102
{BLKREFS
331
7F35
331
7F36
331
7F42
331
7F43
331
7F4F
331
7F50
331
7F5C
331
7F5D
331
7F93
331
7F94
331
7FDE
331
7FDF
331
7FE6
331
7FE7
331
7FEF
331
7FF0
331
8001
331
8002
331
80EE
331
80EF
331
80F7
331
80F8
331
8100
331
8101
331
8109
331
810A
331
800A
331
800B
331
8012
331
8013
331
801B
331
801C
331
8024
331
8025
331
802C
331
802D
331
8038
331
8040
331
8041
331
8063
331
8064
102
}
 70
     0
280
     1
281
     0
  0
BLOCK_RECORD
  5
7B92
330
1
100
AcDbSymbolTableRecord
100
AcDbBlockTableRecord
  2
*D1
340
0
 70
     0
280
     1
281
     0
  0
BLOCK_RECORD
  5
7B9F
330
1
100
AcDbSymbolTableRecord
100
AcDbBlockTableRecord
  2
*D2
340
0
 70
     0
280
     1
281
     0
  0
BLOCK_RECORD
  5
7BAB
330
1
100
AcDbSymbolTableRecord
100
AcDbBlockTableRecord
  2
*D3
340
0
 70
     0
280
     1
281
     0
  0
BLOCK_RECORD
  5
7BB8
330
1
100
AcDbSymbolTableRecord
100
AcDbBlockTableRecord
  2
*D4
340
0
 70
     0
280
     1
281
     0
  0
BLOCK_RECORD
  5
7BC5
330
1
100
AcDbSymbolTableRecord
100
AcDbBlockTableRecord
  2
*D5
340
0
 70
     0
280
     1
281
     0
  0
BLOCK_RECORD
  5
7CB3
330
1
100
AcDbSymbolTableRecord
100
AcDbBlockTableRecord
  2
*D6
340
0
 70
     0
280
     1
281
     0
  0
BLOCK_RECORD
  5
7CC0
330
1
100
AcDbSymbolTableRecord
100
AcDbBlockTableRecord
  2
*D7
340
0
 70
     0
280
     1
281
     0
  0
BLOCK_RECORD
  5
7CCC
330
1
100
AcDbSymbolTableRecord
100
AcDbBlockTableRecord
  2
*D8
340
0
 70
     0
280
     1
281
     0
  0
BLOCK_RECORD
  5
7CE6
330
1
100
AcDbSymbolTableRecord
100
AcDbBlockTableRecord
  2
*D9
340
0
 70
     0
280
     1
281
     0
  0
BLOCK_RECORD
  5
7CF3
330
1
100
AcDbSymbolTableRecord
100
AcDbBlockTableRecord
  2
*D10
340
0
 70
     0
280
     1
281
     0
  0
BLOCK_RECORD
  5
7D0F
330
1
100
AcDbSymbolTableRecord
100
AcDbBlockTableRecord
  2
*D11
340
0
 70
     0
280
     1
281
     0
  0
BLOCK_RECORD
  5
7D2C
330
1
100
AcDbSymbolTableRecord
100
AcDbBlockTableRecord
  2
_DOT
340
0
102
{BLKREFS
331
8037
102
}
 70
     0
280
     1
281
     0
  0
BLOCK_RECORD
  5
7D9F
330
1
100
AcDbSymbolTableRecord
100
AcDbBlockTableRecord
  2
*D13
340
0
 70
     0
280
     1
281
     0
  0
BLOCK_RECORD
  5
7DAC
330
1
100
AcDbSymbolTableRecord
100
AcDbBlockTableRecord
  2
*D14
340
0
 70
     0
280
     1
281
     0
  0
BLOCK_RECORD
  5
7DB9
330
1
100
AcDbSymbolTableRecord
100
AcDbBlockTableRecord
  2
*D15
340
0
 70
     0
280
     1
281
     0
  0
BLOCK_RECORD
  5
7DF0
330
1
100
AcDbSymbolTableRecord
100
AcDbBlockTableRecord
  2
*D16
340
0
 70
     0
280
     1
281
     0
  0
BLOCK_RECORD
  5
7E0B
330
1
100
AcDbSymbolTableRecord
100
AcDbBlockTableRecord
  2
*D17
340
0
 70
     0
280
     1
281
     0
  0
BLOCK_RECORD
  5
7F30
330
1
100
AcDbSymbolTableRecord
100
AcDbBlockTableRecord
  2
*D18
340
0
 70
     0
280
     1
281
     0
  0
BLOCK_RECORD
  5
7F3D
330
1
100
AcDbSymbolTableRecord
100
AcDbBlockTableRecord
  2
*D19
340
0
 70
     0
280
     1
281
     0
  0
BLOCK_RECORD
  5
7F4A
330
1
100
AcDbSymbolTableRecord
100
AcDbBlockTableRecord
  2
*D20
340
0
 70
     0
280
     1
281
     0
  0
BLOCK_RECORD
  5
7F57
330
1
100
AcDbSymbolTableRecord
100
AcDbBlockTableRecord
  2
*D21
340
0
 70
     0
280
     1
281
     0
  0
BLOCK_RECORD
  5
7F64
330
1
100
AcDbSymbolTableRecord
100
AcDbBlockTableRecord
  2
_NONE
340
0
 70
     0
280
     1
281
     0
  0
BLOCK_RECORD
  5
7F68
330
1
100
AcDbSymbolTableRecord
100
AcDbBlockTableRecord
  2
*D23
340
0
 70
     0
280
     1
281
     0
  0
BLOCK_RECORD
  5
7F8E
330
1
100
AcDbSymbolTableRecord
100
AcDbBlockTableRecord
  2
*D24
340
0
 70
     0
280
     1
281
     0
  0
ENDTAB
  0
ENDSEC
  0
SECTION
  2
BLOCKS
  0
BLOCK
  5
1A
330
19
100
AcDbEntity
  8
0
100
AcDbBlockBegin
  2
*MODEL_SPACE
 70
     0
 10
0.0
 20
0.0
 30
0.0
  3
*MODEL_SPACE
  1

  0
ENDBLK
  5
1B
330
19
100
AcDbEntity
  8
0
100
AcDbBlockEnd
  0
BLOCK
  5
17
330
16
100
AcDbEntity
 67
     1
  8
0
100
AcDbBlockBegin
  2
*PAPER_SPACE
 70
     0
 10
0.0
 20
0.0
 30
0.0
  3
*PAPER_SPACE
  1

  0
ENDBLK
  5
18
330
16
100
AcDbEntity
 67
     1
  8
0
100
AcDbBlockEnd
  0
BLOCK
  5
7B8D
330
7B8C
100
AcDbEntity
  8
0
100
AcDbBlockBegin
  2
_OPEN
 70
     0
 10
0.0
 20
0.0
 30
0.0
  3
_OPEN
  1

  0
LINE
  5
7B8E
330
7B8C
100
AcDbEntity
  8
0
  6
ByBlock
 62
     0
100
AcDbLine
 10
-1.0
 20
0.1666666666666666
 30
0.0
 11
0.0
 21
0.0
 31
0.0
  0
LINE
  5
7B8F
330
7B8C
100
AcDbEntity
  8
0
  6
ByBlock
 62
     0
100
AcDbLine
 10
0.0
 20
0.0
 30
0.0
 11
-1.0
 21
-0.1666666666666666
 31
0.0
  0
LINE
  5
7B90
330
7B8C
100
AcDbEntity
  8
0
  6
ByBlock
 62
     0
100
AcDbLine
 10
0.0
 20
0.0
 30
0.0
 11
-1.0
 21
0.0
 31
0.0
  0
ENDBLK
  5
7B91
330
7B8C
100
AcDbEntity
  8
0
100
AcDbBlockEnd
  0
BLOCK
  5
7EA2
330
7B92
100
AcDbEntity
  8
0
100
AcDbBlockBegin
  2
*D1
 70
     1
 10
0.0
 20
0.0
 30
0.0
  3
*D1
  1

  0
LINE
  5
7FDB
330
7B92
100
AcDbEntity
  8
3
 62
     0
440
 16777216
100
AcDbLine
 10
2421.800394985818
 20
10796.94172203299
 30
0.0
 11
2421.800394985818
 21
11323.42210295274
 31
0.0
  0
LINE
  5
7FDC
330
7B92
100
AcDbEntity
  8
3
 62
     0
440
 16777216
100
AcDbLine
 10
4321.800394985835
 20
10796.94172203368
 30
0.0
 11
4321.800394985835
 21
11323.42210295274
 31
0.0
  0
LINE
  5
7FDD
330
7B92
100
AcDbEntity
  8
3
 62
     0
440
 16777216
100
AcDbLine
 10
2521.800394985818
 20
11273.42210295275
 30
0.0
 11
4221.800394985836
 21
11273.42210295275
 31
0.0
  0
INSERT
  5
7FDE
330
7B92
100
AcDbEntity
  8
3
 62
     0
440
 16777216
100
AcDbBlockReference
  2
_OPEN
 10
2421.800394985818
 20
11273.42210295275
 30
0.0
 41
100.0
 42
100.0
 43
100.0
 50
180.0
  0
INSERT
  5
7FDF
330
7B92
100
AcDbEntity
  8
3
 62
     0
440
 16777216
100
AcDbBlockReference
  2
_OPEN
 10
4321.800394985835
 20
11273.42210295275
 30
0.0
 41
100.0
 42
100.0
 43
100.0
  0
MTEXT
  5
7FE0
330
7B92
100
AcDbEntity
  8
3
 62
     0
440
 16777216
100
AcDbMText
 10
3362.982304507968
 20
11398.42210295274
 30
0.0
 40
150.0
 41
0.0
 46
0.0
 71
     5
 72
     5
  1
\A1;1900
 73
     1
 44
1.0
  0
POINT
  5
7FE1
330
7B92
100
AcDbEntity
  8
DEFPOINTS
 62
     0
440
 16777216
100
AcDbPoint
 10
2421.800394985818
 20
10771.94172203299
 30
0.0
  0
POINT
  5
7FE2
330
7B92
100
AcDbEntity
  8
DEFPOINTS
 62
     0
440
 16777216
100
AcDbPoint
 10
4321.800394985835
 20
10771.94172203368
 30
0.0
  0
POINT
  5
7FE3
330
7B92
100
AcDbEntity
  8
DEFPOINTS
 62
     0
440
 16777216
100
AcDbPoint
 10
4321.800394985835
 20
11273.42210295275
 30
0.0
  0
ENDBLK
  5
7EAC
330
7B92
100
AcDbEntity
  8
0
100
AcDbBlockEnd
  0
BLOCK
  5
7C90
330
7B9F
100
AcDbEntity
  8
0
100
AcDbBlockBegin
  2
*D2
 70
     1
 10
0.0
 20
0.0
 30
0.0
  3
*D2
  1

  0
LINE
  5
7FE4
330
7B9F
100
AcDbEntity
  8
3
 62
     0
440
 16777216
100
AcDbLine
 10
5721.800394986328
 20
9396.941722034117
 30
0.0
 11
5721.800394986328
 21
11323.42210295274
 31
0.0
  0
LINE
  5
7FE5
330
7B9F
100
AcDbEntity
  8
3
 62
     0
440
 16777216
100
AcDbLine
 10
4421.800394985836
 20
11273.42210295275
 30
0.0
 11
5621.800394986329
 21
11273.42210295275
 31
0.0
  0
INSERT
  5
7FE6
330
7B9F
100
AcDbEntity
  8
3
 62
     0
440
 16777216
100
AcDbBlockReference
  2
_OPEN
 10
4321.800394985835
 20
11273.42210295275
 30
0.0
 41
100.0
 42
100.0
 43
100.0
 50
180.0
  0
INSERT
  5
7FE7
330
7B9F
100
AcDbEntity
  8
3
 62
     0
440
 16777216
100
AcDbBlockReference
  2
_OPEN
 10
5721.800394986328
 20
11273.42210295275
 30
0.0
 41
100.0
 42
100.0
 43
100.0
  0
MTEXT
  5
7FE8
330
7B9F
100
AcDbEntity
  8
3
 62
     0
440
 16777216
100
AcDbMText
 10
5021.800394986082
 20
11398.42210295274
 30
0.0
 40
150.0
 41
0.0
 46
0.0
 71
     5
 72
     5
  1
\A1;1400
 73
     1
 44
1.0
  0
POINT
  5
7FE9
330
7B9F
100
AcDbEntity
  8
DEFPOINTS
 62
     0
440
 16777216
100
AcDbPoint
 10
4321.800394985835
 20
10771.94172203368
 30
0.0
  0
POINT
  5
7FEA
330
7B9F
100
AcDbEntity
  8
DEFPOINTS
 62
     0
440
 16777216
100
AcDbPoint
 10
5721.800394986328
 20
9371.941722034117
 30
0.0
  0
POINT
  5
7FEB
330
7B9F
100
AcDbEntity
  8
DEFPOINTS
 62
     0
440
 16777216
100
AcDbPoint
 10
5721.800394986328
 20
11273.42210295275
 30
0.0
  0
ENDBLK
  5
7C99
330
7B9F
100
AcDbEntity
  8
0
100
AcDbBlockEnd
  0
BLOCK
  5
7CA5
330
7BAB
100
AcDbEntity
  8
0
100
AcDbBlockBegin
  2
*D3
 70
     1
 10
0.0
 20
0.0
 30
0.0
  3
*D3
  1

  0
LINE
  5
7FEC
330
7BAB
100
AcDbEntity
  8
3
 62
     0
440
 16777216
100
AcDbLine
 10
5746.800394986329
 20
9371.941722034117
 30
0.0
 11
6091.721481007684
 21
9371.941722034117
 31
0.0
  0
LINE
  5
7FED
330
7BAB
100
AcDbEntity
  8
3
 62
     0
440
 16777216
100
AcDbLine
 10
5746.800394986763
 20
8171.941722034118
 30
0.0
 11
6091.721481007684
 21
8171.941722034118
 31
0.0
  0
LINE
  5
7FEE
330
7BAB
100
AcDbEntity
  8
3
 62
     0
440
 16777216
100
AcDbLine
 10
6041.721481007685
 20
9271.941722034117
 30
0.0
 11
6041.721481007685
 21
8271.941722034114
 31
0.0
  0
INSERT
  5
7FEF
330
7BAB
100
AcDbEntity
  8
3
 62
     0
440
 16777216
100
AcDbBlockReference
  2
_OPEN
 10
6041.721481007685
 20
9371.941722034117
 30
0.0
 41
100.0
 42
100.0
 43
100.0
 50
90.0
  0
INSERT
  5
7FF0
330
7BAB
100
AcDbEntity
  8
3
 62
     0
440
 16777216
100
AcDbBlockReference
  2
_OPEN
 10
6041.721481007685
 20
8171.941722034118
 30
0.0
 41
100.0
 42
100.0
 43
100.0
 50
270.0
  0
MTEXT
  5
7FF1
330
7BAB
100
AcDbEntity
  8
3
 62
     0
440
 16777216
100
AcDbMText
 10
5916.721481007684
 20
8887.820524585048
 30
0.0
 40
150.0
 41
0.0
 46
0.0
 71
     5
 72
     5
  1
\A1;1200
 11
0.0000000000000001
 21
1.0
 31
0.0
 73
     1
 44
1.0
  0
POINT
  5
7FF2
330
7BAB
100
AcDbEntity
  8
DEFPOINTS
 62
     0
440
 16777216
100
AcDbPoint
 10
5721.800394986328
 20
9371.941722034117
 30
0.0
  0
POINT
  5
7FF3
330
7BAB
100
AcDbEntity
  8
DEFPOINTS
 62
     0
440
 16777216
100
AcDbPoint
 10
5721.800394986764
 20
8171.941722034118
 30
0.0
  0
POINT
  5
7FF4
330
7BAB
100
AcDbEntity
  8
DEFPOINTS
 62
     0
440
 16777216
100
AcDbPoint
 10
6041.721481007685
 20
8171.941722034118
 30
0.0
  0
ENDBLK
  5
7CAF
330
7BAB
100
AcDbEntity
  8
0
100
AcDbBlockEnd
  0
BLOCK
  5
7C9A
330
7BB8
100
AcDbEntity
  8
0
100
AcDbBlockBegin
  2
*D4
 70
     1
 10
0.0
 20
0.0
 30
0.0
  3
*D4
  1

  0
LINE
  5
8106
330
7BB8
100
AcDbEntity
  8
3
 62
     0
440
 16777216
370
    -2
100
AcDbLine
 10
2421.801394986753
 20
8146.941722032996
 30
0.0
 11
2421.801394986753
 21
7626.542350786556
 31
0.0
  0
LINE
  5
8107
330
7BB8
100
AcDbEntity
  8
3
 62
     0
440
 16777216
370
    -2
100
AcDbLine
 10
5721.800394986764
 20
8146.941722034117
 30
0.0
 11
5721.800394986764
 21
7626.542350786556
 31
0.0
  0
LINE
  5
8108
330
7BB8
100
AcDbEntity
  8
3
 62
     0
440
 16777216
370
    -2
100
AcDbLine
 10
2521.801394986753
 20
7676.542350786556
 30
0.0
 11
5621.800394986763
 21
7676.542350786556
 31
0.0
  0
INSERT
  5
8109
330
7BB8
100
AcDbEntity
  8
3
 62
     0
440
 16777216
370
    -2
100
AcDbBlockReference
  2
_OPEN
 10
2421.801394986753
 20
7676.542350786556
 30
0.0
 41
100.0
 42
100.0
 43
100.0
 50
180.0
  0
INSERT
  5
810A
330
7BB8
100
AcDbEntity
  8
3
 62
     0
440
 16777216
370
    -2
100
AcDbBlockReference
  2
_OPEN
 10
5721.800394986764
 20
7676.542350786556
 30
0.0
 41
100.0
 42
100.0
 43
100.0
  0
MTEXT
  5
810B
330
7BB8
100
AcDbEntity
  8
3
 62
     0
440
 16777216
100
AcDbMText
 10
3880.105780069127
 20
7801.542350786556
 30
0.0
 40
150.0
 41
0.0
 46
0.0
 71
     5
 72
     1
  1
\A1;3300
 73
     1
 44
1.0
  0
POINT
  5
810C
330
7BB8
100
AcDbEntity
  8
DEFPOINTS
 62
     0
440
 16777216
100
AcDbPoint
 10
2421.801394986753
 20
8171.941722032995
 30
0.0
  0
POINT
  5
810D
330
7BB8
100
AcDbEntity
  8
DEFPOINTS
 62
     0
440
 16777216
100
AcDbPoint
 10
5721.800394986764
 20
8171.941722034118
 30
0.0
  0
POINT
  5
810E
330
7BB8
100
AcDbEntity
  8
DEFPOINTS
 62
     0
440
 16777216
100
AcDbPoint
 10
5721.800394986764
 20
7676.542350786556
 30
0.0
  0
ENDBLK
  5
7CA4
330
7BB8
100
AcDbEntity
  8
0
100
AcDbBlockEnd
  0
BLOCK
  5
7E97
330
7BC5
100
AcDbEntity
  8
0
100
AcDbBlockBegin
  2
*D5
 70
     1
 10
0.0
 20
0.0
 30
0.0
  3
*D5
  1

  0
LINE
  5
7FFE
330
7BC5
100
AcDbEntity
  8
3
 62
     0
440
 16777216
100
AcDbLine
 10
2396.800394985818
 20
10771.94172203299
 30
0.0
 11
1902.802193955884
 21
10771.94172203299
 31
0.0
  0
LINE
  5
7FFF
330
7BC5
100
AcDbEntity
  8
3
 62
     0
440
 16777216
100
AcDbLine
 10
2396.801394986753
 20
8171.941722032995
 30
0.0
 11
1902.802193955883
 21
8171.941722032997
 31
0.0
  0
LINE
  5
8000
330
7BC5
100
AcDbEntity
  8
3
 62
     0
440
 16777216
100
AcDbLine
 10
1952.802193955884
 20
10671.94172203299
 30
0.0
 11
1952.802193955883
 21
8271.941722032996
 31
0.0
  0
INSERT
  5
8001
330
7BC5
100
AcDbEntity
  8
3
 62
     0
440
 16777216
100
AcDbBlockReference
  2
_OPEN
 10
1952.802193955884
 20
10771.94172203299
 30
0.0
 41
100.0
 42
100.0
 43
100.0
 50
90.0
  0
INSERT
  5
8002
330
7BC5
100
AcDbEntity
  8
3
 62
     0
440
 16777216
100
AcDbBlockReference
  2
_OPEN
 10
1952.802193955883
 20
8171.941722032997
 30
0.0
 41
100.0
 42
100.0
 43
100.0
 50
270.0
  0
MTEXT
  5
8003
330
7BC5
100
AcDbEntity
  8
3
 62
     0
440
 16777216
100
AcDbMText
 10
1827.802193955882
 20
9634.418469073629
 30
0.0
 40
150.0
 41
0.0
 46
0.0
 71
     5
 72
     5
  1
\A1;2600
 11
0.0000000000000001
 21
1.0
 31
0.0
 73
     1
 44
1.0
  0
POINT
  5
8004
330
7BC5
100
AcDbEntity
  8
DEFPOINTS
 62
     0
440
 16777216
100
AcDbPoint
 10
2421.800394985818
 20
10771.94172203299
 30
0.0
  0
POINT
  5
8005
330
7BC5
100
AcDbEntity
  8
DEFPOINTS
 62
     0
440
 16777216
100
AcDbPoint
 10
2421.801394986753
 20
8171.941722032995
 30
0.0
  0
POINT
  5
8006
330
7BC5
100
AcDbEntity
  8
DEFPOINTS
 62
     0
440
 16777216
100
AcDbPoint
 10
1952.802193955883
 20
8171.941722032997
 30
0.0
  0
ENDBLK
  5
7EA1
330
7BC5
100
AcDbEntity
  8
0
100
AcDbBlockEnd
  0
BLOCK
  5
7CB4
330
7CB3
100
AcDbEntity
  8
0
100
AcDbBlockBegin
  2
*D6
 70
     1
 10
0.0
 20
0.0
 30
0.0
  3
*D6
  1

  0
LINE
  5
8007
330
7CB3
100
AcDbEntity
  8
3
 62
     0
440
 16777216
100
AcDbLine
 10
2326.801394987629
 20
6307.287053998472
 30
0.0
 11
2326.801394987629
 21
6681.156441871244
 31
0.0
  0
LINE
  5
8008
330
7CB3
100
AcDbEntity
  8
3
 62
     0
440
 16777216
100
AcDbLine
 10
3371.800394987615
 20
6347.28705399885
 30
0.0
 11
3371.800394987615
 21
6681.156441871244
 31
0.0
  0
LINE
  5
8009
330
7CB3
100
AcDbEntity
  8
3
 62
     0
440
 16777216
100
AcDbLine
 10
2426.801394987629
 20
6631.156441871244
 30
0.0
 11
3271.800394987615
 21
6631.156441871244
 31
0.0
  0
INSERT
  5
800A
330
7CB3
100
AcDbEntity
  8
3
 62
     0
440
 16777216
100
AcDbBlockReference
  2
_OPEN
 10
2326.801394987629
 20
6631.156441871244
 30
0.0
 41
100.0
 42
100.0
 43
100.0
 50
180.0
  0
INSERT
  5
800B
330
7CB3
100
AcDbEntity
  8
3
 62
     0
440
 16777216
100
AcDbBlockReference
  2
_OPEN
 10
3371.800394987615
 20
6631.156441871244
 30
0.0
 41
100.0
 42
100.0
 43
100.0
  0
MTEXT
  5
800C
330
7CB3
100
AcDbEntity
  8
3
 62
     0
440
 16777216
100
AcDbMText
 10
2797.072499155686
 20
6756.156441871244
 30
0.0
 40
150.0
 41
0.0
 46
0.0
 71
     5
 72
     5
  1
\A1;1045
 73
     1
 44
1.0
  0
POINT
  5
800D
330
7CB3
100
AcDbEntity
  8
DEFPOINTS
 62
     0
440
 16777216
100
AcDbPoint
 10
2326.801394987629
 20
6282.287053998471
 30
0.0
  0
POINT
  5
800E
330
7CB3
100
AcDbEntity
  8
DEFPOINTS
 62
     0
440
 16777216
100
AcDbPoint
 10
3371.800394987615
 20
6322.28705399885
 30
0.0
  0
POINT
  5
800F
330
7CB3
100
AcDbEntity
  8
DEFPOINTS
 62
     0
440
 16777216
100
AcDbPoint
 10
3371.800394987615
 20
6631.156441871244
 30
0.0
  0
ENDBLK
  5
7CBE
330
7CB3
100
AcDbEntity
  8
0
100
AcDbBlockEnd
  0
BLOCK
  5
7CC1
330
7CC0
100
AcDbEntity
  8
0
100
AcDbBlockBegin
  2
*D7
 70
     1
 10
0.0
 20
0.0
 30
0.0
  3
*D7
  1

  0
LINE
  5
8010
330
7CC0
100
AcDbEntity
  8
3
 62
     0
440
 16777216
100
AcDbLine
 10
4742.800394988224
 20
4663.287053998808
 30
0.0
 11
4742.800394988224
 21
6681.156441871244
 31
0.0
  0
LINE
  5
8011
330
7CC0
100
AcDbEntity
  8
3
 62
     0
440
 16777216
100
AcDbLine
 10
3471.800394987615
 20
6631.156441871244
 30
0.0
 11
4642.800394988223
 21
6631.156441871244
 31
0.0
  0
INSERT
  5
8012
330
7CC0
100
AcDbEntity
  8
3
 62
     0
440
 16777216
100
AcDbBlockReference
  2
_OPEN
 10
3371.800394987615
 20
6631.156441871244
 30
0.0
 41
100.0
 42
100.0
 43
100.0
 50
180.0
  0
INSERT
  5
8013
330
7CC0
100
AcDbEntity
  8
3
 62
     0
440
 16777216
100
AcDbBlockReference
  2
_OPEN
 10
4742.800394988224
 20
6631.156441871244
 30
0.0
 41
100.0
 42
100.0
 43
100.0
  0
MTEXT
  5
8014
330
7CC0
100
AcDbEntity
  8
3
 62
     0
440
 16777216
100
AcDbMText
 10
4057.300394987919
 20
6756.156441871244
 30
0.0
 40
150.0
 41
0.0
 46
0.0
 71
     5
 72
     5
  1
\A1;1371
 73
     1
 44
1.0
  0
POINT
  5
8015
330
7CC0
100
AcDbEntity
  8
DEFPOINTS
 62
     0
440
 16777216
100
AcDbPoint
 10
3371.800394987615
 20
6322.28705399885
 30
0.0
  0
POINT
  5
8016
330
7CC0
100
AcDbEntity
  8
DEFPOINTS
 62
     0
440
 16777216
100
AcDbPoint
 10
4742.800394988224
 20
4638.287053998808
 30
0.0
  0
POINT
  5
8017
330
7CC0
100
AcDbEntity
  8
DEFPOINTS
 62
     0
440
 16777216
100
AcDbPoint
 10
4742.800394988224
 20
6631.156441871244
 30
0.0
  0
ENDBLK
  5
7CCA
330
7CC0
100
AcDbEntity
  8
0
100
AcDbBlockEnd
  0
BLOCK
  5
7CCD
330
7CCC
100
AcDbEntity
  8
0
100
AcDbBlockBegin
  2
*D8
 70
     1
 10
0.0
 20
0.0
 30
0.0
  3
*D8
  1

  0
LINE
  5
8018
330
7CCC
100
AcDbEntity
  8
3
 62
     0
440
 16777216
100
AcDbLine
 10
2301.801394987655
 20
6217.287053998473
 30
0.0
 11
2003.016572717862
 21
6217.287053998473
 31
0.0
  0
LINE
  5
8019
330
7CCC
100
AcDbEntity
  8
3
 62
     0
440
 16777216
100
AcDbLine
 10
2301.801394988252
 20
4567.287053998473
 30
0.0
 11
2003.016572717862
 21
4567.287053998474
 31
0.0
  0
LINE
  5
801A
330
7CCC
100
AcDbEntity
  8
3
 62
     0
440
 16777216
100
AcDbLine
 10
2053.016572717862
 20
6117.287053998473
 30
0.0
 11
2053.016572717861
 21
4667.287053998474
 31
0.0
  0
INSERT
  5
801B
330
7CCC
100
AcDbEntity
  8
3
 62
     0
440
 16777216
100
AcDbBlockReference
  2
_OPEN
 10
2053.016572717862
 20
6217.287053998473
 30
0.0
 41
100.0
 42
100.0
 43
100.0
 50
90.0
  0
INSERT
  5
801C
330
7CCC
100
AcDbEntity
  8
3
 62
     0
440
 16777216
100
AcDbBlockReference
  2
_OPEN
 10
2053.016572717861
 20
4567.287053998473
 30
0.0
 41
100.0
 42
100.0
 43
100.0
 50
270.0
  0
MTEXT
  5
801D
330
7CCC
100
AcDbEntity
  8
3
 62
     0
440
 16777216
100
AcDbMText
 10
1928.016572717861
 20
5407.770992573576
 30
0.0
 40
150.0
 41
0.0
 46
0.0
 71
     5
 72
     5
  1
\A1;1650
 11
0.0000000000000001
 21
1.0
 31
0.0
 73
     1
 44
1.0
  0
POINT
  5
801E
330
7CCC
100
AcDbEntity
  8
DEFPOINTS
 62
     0
440
 16777216
100
AcDbPoint
 10
2326.801394987655
 20
6217.287053998473
 30
0.0
  0
POINT
  5
801F
330
7CCC
100
AcDbEntity
  8
DEFPOINTS
 62
     0
440
 16777216
100
AcDbPoint
 10
2326.801394988252
 20
4567.287053998473
 30
0.0
  0
POINT
  5
8020
330
7CCC
100
AcDbEntity
  8
DEFPOINTS
 62
     0
440
 16777216
100
AcDbPoint
 10
2053.016572717861
 20
4567.287053998473
 30
0.0
  0
ENDBLK
  5
7CD7
330
7CCC
100
AcDbEntity
  8
0
100
AcDbBlockEnd
  0
BLOCK
  5
7CE7
330
7CE6
100
AcDbEntity
  8
0
100
AcDbBlockBegin
  2
*D9
 70
     1
 10
0.0
 20
0.0
 30
0.0
  3
*D9
  1

  0
LINE
  5
8021
330
7CE6
100
AcDbEntity
  8
3
 62
     0
440
 16777216
100
AcDbLine
 10
2301.801394987655
 20
6217.287053998473
 30
0.0
 11
1720.463690126723
 21
6217.287053998473
 31
0.0
  0
LINE
  5
8022
330
7CE6
100
AcDbEntity
  8
3
 62
     0
440
 16777216
100
AcDbLine
 10
2239.754011560613
 20
4522.287053998449
 30
0.0
 11
1720.463690126723
 21
4522.28705399845
 31
0.0
  0
LINE
  5
8023
330
7CE6
100
AcDbEntity
  8
3
 62
     0
440
 16777216
100
AcDbLine
 10
1770.463690126723
 20
6117.287053998474
 30
0.0
 11
1770.463690126723
 21
4622.287053998451
 31
0.0
  0
INSERT
  5
8024
330
7CE6
100
AcDbEntity
  8
3
 62
     0
440
 16777216
100
AcDbBlockReference
  2
_OPEN
 10
1770.463690126723
 20
6217.287053998473
 30
0.0
 41
100.0
 42
100.0
 43
100.0
 50
90.0
  0
INSERT
  5
8025
330
7CE6
100
AcDbEntity
  8
3
 62
     0
440
 16777216
100
AcDbBlockReference
  2
_OPEN
 10
1770.463690126723
 20
4522.28705399845
 30
0.0
 41
100.0
 42
100.0
 43
100.0
 50
270.0
  0
MTEXT
  5
8026
330
7CE6
100
AcDbEntity
  8
3
 62
     0
440
 16777216
100
AcDbMText
 10
1645.463690126722
 20
5407.770992573576
 30
0.0
 40
150.0
 41
0.0
 46
0.0
 71
     5
 72
     5
  1
\A1;1695
 11
0.0000000000000001
 21
1.0
 31
0.0
 73
     1
 44
1.0
  0
POINT
  5
8027
330
7CE6
100
AcDbEntity
  8
DEFPOINTS
 62
     0
440
 16777216
100
AcDbPoint
 10
2326.801394987655
 20
6217.287053998473
 30
0.0
  0
POINT
  5
8028
330
7CE6
100
AcDbEntity
  8
DEFPOINTS
 62
     0
440
 16777216
100
AcDbPoint
 10
2264.754011560613
 20
4522.287053998449
 30
0.0
  0
POINT
  5
8029
330
7CE6
100
AcDbEntity
  8
DEFPOINTS
 62
     0
440
 16777216
100
AcDbPoint
 10
1770.463690126723
 20
4522.28705399845
 30
0.0
  0
ENDBLK
  5
7CF1
330
7CE6
100
AcDbEntity
  8
0
100
AcDbBlockEnd
  0
BLOCK
  5
7E7F
330
7CF3
100
AcDbEntity
  8
0
100
AcDbBlockBegin
  2
*D10
 70
     1
 10
0.0
 20
0.0
 30
0.0
  3
*D10
  1

  0
LINE
  5
802A
330
7CF3
100
AcDbEntity
  8
3
 62
     0
440
 16777216
100
AcDbLine
 10
2396.800394988739
 20
3352.393053998507
 30
0.0
 11
1720.463690126722
 21
3352.393053998507
 31
0.0
  0
LINE
  5
802B
330
7CF3
100
AcDbEntity
  8
3
 62
     0
440
 16777216
100
AcDbLine
 10
1770.463690126722
 20
4422.28705399845
 30
0.0
 11
1770.463690126722
 21
3452.393053998507
 31
0.0
  0
INSERT
  5
802C
330
7CF3
100
AcDbEntity
  8
3
 62
     0
440
 16777216
100
AcDbBlockReference
  2
_OPEN
 10
1770.463690126722
 20
4522.28705399845
 30
0.0
 41
100.0
 42
100.0
 43
100.0
 50
90.0
  0
INSERT
  5
802D
330
7CF3
100
AcDbEntity
  8
3
 62
     0
440
 16777216
100
AcDbBlockReference
  2
_OPEN
 10
1770.463690126722
 20
3352.393053998507
 30
0.0
 41
100.0
 42
100.0
 43
100.0
 50
270.0
  0
MTEXT
  5
802E
330
7CF3
100
AcDbEntity
  8
3
 62
     0
440
 16777216
100
AcDbMText
 10
1645.463690126722
 20
3937.340053998479
 30
0.0
 40
150.0
 41
0.0
 46
0.0
 71
     5
 72
     5
  1
\A1;1170
 11
0.0000000000000001
 21
1.0
 31
0.0
 73
     1
 44
1.0
  0
POINT
  5
802F
330
7CF3
100
AcDbEntity
  8
DEFPOINTS
 62
     0
440
 16777216
100
AcDbPoint
 10
2264.754011560613
 20
4522.287053998449
 30
0.0
  0
POINT
  5
8030
330
7CF3
100
AcDbEntity
  8
DEFPOINTS
 62
     0
440
 16777216
100
AcDbPoint
 10
2421.800394988739
 20
3352.393053998507
 30
0.0
  0
POINT
  5
8031
330
7CF3
100
AcDbEntity
  8
DEFPOINTS
 62
     0
440
 16777216
100
AcDbPoint
 10
1770.463690126722
 20
3352.393053998507
 30
0.0
  0
ENDBLK
  5
7E88
330
7CF3
100
AcDbEntity
  8
0
100
AcDbBlockEnd
  0
BLOCK
  5
7E67
330
7D0F
100
AcDbEntity
  8
0
100
AcDbBlockBegin
  2
*D11
 70
     1
 10
0.0
 20
0.0
 30
0.0
  3
*D11
  1

  0
LINE
  5
8032
330
7D0F
100
AcDbEntity
  8
3
 62
     0
440
 16777216
100
AcDbLine
 10
2396.800394988744
 20
3332.393053998507
 30
0.0
 11
1720.463690126722
 21
3332.393053998507
 31
0.0
  0
LINE
  5
8033
330
7D0F
100
AcDbEntity
  8
3
 62
     0
440
 16777216
100
AcDbLine
 10
2396.800394988771
 20
3257.393053998507
 30
0.0
 11
1720.463690126722
 21
3257.393053998507
 31
0.0
  0
LINE
  5
8034
330
7D0F
100
AcDbEntity
  8
3
 62
     0
440
 16777216
100
AcDbLine
 10
1770.463690126722
 20
3432.393053998507
 30
0.0
 11
1770.463690126722
 21
3532.393053998507
 31
0.0
  0
LINE
  5
8035
330
7D0F
100
AcDbEntity
  8
3
 62
     0
440
 16777216
100
AcDbLine
 10
1770.463690126722
 20
3157.393053998507
 30
0.0
 11
1770.463690126722
 21
2714.535911141364
 31
0.0
  0
LINE
  5
8036
330
7D0F
100
AcDbEntity
  8
3
 62
     0
440
 16777216
100
AcDbLine
 10
1770.463690126722
 20
3332.393053998507
 30
0.0
 11
1770.463690126722
 21
3257.393053998507
 31
0.0
  0
INSERT
  5
8037
330
7D0F
100
AcDbEntity
  8
3
 62
     0
440
 16777216
100
AcDbBlockReference
  2
_DOT
 10
1770.463690126722
 20
3332.393053998507
 30
0.0
 41
100.0
 42
100.0
 43
100.0
 50
270.0
  0
INSERT
  5
8038
330
7D0F
100
AcDbEntity
  8
3
 62
     0
440
 16777216
100
AcDbBlockReference
  2
_OPEN
 10
1770.463690126722
 20
3257.393053998507
 30
0.0
 41
100.0
 42
100.0
 43
100.0
 50
90.0
  0
MTEXT
  5
8039
330
7D0F
100
AcDbEntity
  8
3
 62
     0
440
 16777216
100
AcDbMText
 10
1645.463690126722
 20
2885.964482569935
 30
0.0
 40
150.0
 41
0.0
 46
0.0
 71
     5
 72
     5
  1
\A1;75
 11
0.0000000000000001
 21
1.0
 31
0.0
 73
     1
 44
1.0
  0
POINT
  5
803A
330
7D0F
100
AcDbEntity
  8
DEFPOINTS
 62
     0
440
 16777216
100
AcDbPoint
 10
2421.800394988744
 20
3332.393053998507
 30
0.0
  0
POINT
  5
803B
330
7D0F
100
AcDbEntity
  8
DEFPOINTS
 62
     0
440
 16777216
100
AcDbPoint
 10
2421.800394988772
 20
3257.393053998507
 30
0.0
  0
POINT
  5
803C
330
7D0F
100
AcDbEntity
  8
DEFPOINTS
 62
     0
440
 16777216
100
AcDbPoint
 10
1770.463690126722
 20
3257.393053998507
 30
0.0
  0
ENDBLK
  5
7E73
330
7D0F
100
AcDbEntity
  8
0
100
AcDbBlockEnd
  0
BLOCK
  5
7D2D
330
7D2C
100
AcDbEntity
  8
0
100
AcDbBlockBegin
  2
_DOT
 70
     0
 10
0.0
 20
0.0
 30
0.0
  3
_DOT
  1

  0
LINE
  5
7F05
330
7D2C
100
AcDbEntity
  8
0
  6
ByBlock
 62
     0
100
AcDbLine
 10
0.0
 20
0.0
 30
0.0
 11
-1.0
 21
-0.0000000000000284
 31
0.0
  0
LWPOLYLINE
  5
7F06
330
7D2C
100
AcDbEntity
  8
0
  6
ByBlock
 62
     0
100
AcDbPolyline
 90
        2
 70
     1
 43
0.1666666666666666
 10
-0.0833333333333286
 20
-0.0000000000000284
 42
1.0
 10
0.0833333333333286
 20
-0.0000000000000284
 42
1.0
  0
ENDBLK
  5
7D33
330
7D2C
100
AcDbEntity
  8
0
100
AcDbBlockEnd
  0
BLOCK
  5
7DA0
330
7D9F
100
AcDbEntity
  8
0
100
AcDbBlockBegin
  2
*D13
 70
     1
 10
0.0
 20
0.0
 30
0.0
  3
*D13
  1

  0
LINE
  5
803D
330
7D9F
100
AcDbEntity
  8
3
 62
     0
440
 16777216
100
AcDbLine
 10
6825.563430901441
 20
6242.287053998955
 30
0.0
 11
6825.563430901441
 21
6513.368414692465
 31
0.0
  0
LINE
  5
803E
330
7D9F
100
AcDbEntity
  8
3
 62
     0
440
 16777216
100
AcDbLine
 10
8945.731166717079
 20
6242.287053999196
 30
0.0
 11
8945.731166717079
 21
6513.368414692465
 31
0.0
  0
LINE
  5
803F
330
7D9F
100
AcDbEntity
  8
3
 62
     0
440
 16777216
100
AcDbLine
 10
6925.563430901441
 20
6463.368414692465
 30
0.0
 11
8845.731166717079
 21
6463.368414692465
 31
0.0
  0
INSERT
  5
8040
330
7D9F
100
AcDbEntity
  8
3
 62
     0
440
 16777216
100
AcDbBlockReference
  2
_OPEN
 10
6825.563430901441
 20
6463.368414692465
 30
0.0
 41
100.0
 42
100.0
 43
100.0
 50
180.0
  0
INSERT
  5
8041
330
7D9F
100
AcDbEntity
  8
3
 62
     0
440
 16777216
100
AcDbBlockReference
  2
_OPEN
 10
8945.731166717079
 20
6463.368414692465
 30
0.0
 41
100.0
 42
100.0
 43
100.0
  0
MTEXT
  5
8042
330
7D9F
100
AcDbEntity
  8
3
 62
     0
440
 16777216
100
AcDbMText
 10
7885.765659921614
 20
6588.368414692465
 30
0.0
 40
150.0
 41
0.0
 46
0.0
 71
     5
 72
     5
  1
\A1;2120
 73
     1
 44
1.0
  0
POINT
  5
8043
330
7D9F
100
AcDbEntity
  8
DEFPOINTS
 62
     0
440
 16777216
100
AcDbPoint
 10
6825.563430901441
 20
6217.287053998955
 30
0.0
  0
POINT
  5
8044
330
7D9F
100
AcDbEntity
  8
DEFPOINTS
 62
     0
440
 16777216
100
AcDbPoint
 10
8945.731166717079
 20
6217.287053999196
 30
0.0
  0
POINT
  5
8045
330
7D9F
100
AcDbEntity
  8
DEFPOINTS
 62
     0
440
 16777216
100
AcDbPoint
 10
8945.731166717079
 20
6463.368414692465
 30
0.0
  0
ENDBLK
  5
7DAA
330
7D9F
100
AcDbEntity
  8
0
100
AcDbBlockEnd
  0
BLOCK
  5
7DE5
330
7DAC
100
AcDbEntity
  8
0
100
AcDbBlockBegin
  2
*D14
 70
     1
 10
0.0
 20
0.0
 30
0.0
  3
*D14
  1

  0
LINE
  5
80F4
330
7DAC
100
AcDbEntity
  8
3
 62
     0
440
 16777216
370
    -2
100
AcDbLine
 10
9185.764430901775
 20
4487.28705399922
 30
0.0
 11
9185.764430901775
 21
6868.439712404222
 31
0.0
  0
LINE
  5
80F5
330
7DAC
100
AcDbEntity
  8
3
 62
     0
440
 16777216
370
    -2
100
AcDbLine
 10
7885.557976899256
 20
6728.432271061736
 30
0.0
 11
7885.557976899256
 21
6868.439712404222
 31
0.0
  0
LINE
  5
80F6
330
7DAC
100
AcDbEntity
  8
3
 62
     0
440
 16777216
370
    -2
100
AcDbLine
 10
9085.764430901775
 20
6818.439712404222
 30
0.0
 11
7985.557976899255
 21
6818.439712404222
 31
0.0
  0
INSERT
  5
80F7
330
7DAC
100
AcDbEntity
  8
3
 62
     0
440
 16777216
370
    -2
100
AcDbBlockReference
  2
_OPEN
 10
9185.764430901775
 20
6818.439712404222
 30
0.0
 41
100.0
 42
100.0
 43
100.0
  0
INSERT
  5
80F8
330
7DAC
100
AcDbEntity
  8
3
 62
     0
440
 16777216
370
    -2
100
AcDbBlockReference
  2
_OPEN
 10
7885.557976899256
 20
6818.439712404222
 30
0.0
 41
100.0
 42
100.0
 43
100.0
 50
180.0
  0
MTEXT
  5
80F9
330
7DAC
100
AcDbEntity
  8
3
 62
     0
440
 16777216
100
AcDbMText
 10
8381.986548327827
 20
6982.725426689937
 30
0.0
 40
150.0
 41
0.0
 46
0.0
 71
     5
 72
     1
  1
\A1;(1300)
 73
     1
 44
1.0
  0
POINT
  5
80FA
330
7DAC
100
AcDbEntity
  8
DEFPOINTS
 62
     0
440
 16777216
100
AcDbPoint
 10
9185.764430901775
 20
4462.28705399922
 30
0.0
  0
POINT
  5
80FB
330
7DAC
100
AcDbEntity
  8
DEFPOINTS
 62
     0
440
 16777216
100
AcDbPoint
 10
7885.557976899256
 20
6703.432271061736
 30
0.0
  0
POINT
  5
80FC
330
7DAC
100
AcDbEntity
  8
DEFPOINTS
 62
     0
440
 16777216
100
AcDbPoint
 10
7885.557976899256
 20
6818.439712404222
 30
0.0
  0
ENDBLK
  5
7DEF
330
7DAC
100
AcDbEntity
  8
0
100
AcDbBlockEnd
  0
BLOCK
  5
7DDB
330
7DB9
100
AcDbEntity
  8
0
100
AcDbBlockBegin
  2
*D15
 70
     1
 10
0.0
 20
0.0
 30
0.0
  3
*D15
  1

  0
LINE
  5
80EC
330
7DB9
100
AcDbEntity
  8
3
 62
     0
440
 16777216
370
    -2
100
AcDbLine
 10
6265.363430901706
 20
5097.287053998908
 30
0.0
 11
6265.363430901706
 21
6868.439712404222
 31
0.0
  0
LINE
  5
80ED
330
7DB9
100
AcDbEntity
  8
3
 62
     0
440
 16777216
370
    -2
100
AcDbLine
 10
7785.557976899255
 20
6818.439712404222
 30
0.0
 11
6365.363430901706
 21
6818.439712404222
 31
0.0
  0
INSERT
  5
80EE
330
7DB9
100
AcDbEntity
  8
3
 62
     0
440
 16777216
370
    -2
100
AcDbBlockReference
  2
_OPEN
 10
7885.557976899256
 20
6818.439712404222
 30
0.0
 41
100.0
 42
100.0
 43
100.0
  0
INSERT
  5
80EF
330
7DB9
100
AcDbEntity
  8
3
 62
     0
440
 16777216
370
    -2
100
AcDbBlockReference
  2
_OPEN
 10
6265.363430901706
 20
6818.439712404222
 30
0.0
 41
100.0
 42
100.0
 43
100.0
 50
180.0
  0
MTEXT
  5
80F0
330
7DB9
100
AcDbEntity
  8
3
 62
     0
440
 16777216
100
AcDbMText
 10
7075.460703900481
 20
6982.725426689937
 30
0.0
 40
150.0
 41
0.0
 46
0.0
 71
     5
 72
     1
  1
\A1;(1620)
 73
     1
 44
1.0
  0
POINT
  5
80F1
330
7DB9
100
AcDbEntity
  8
DEFPOINTS
 62
     0
440
 16777216
100
AcDbPoint
 10
7885.557976899256
 20
6703.432271061736
 30
0.0
  0
POINT
  5
80F2
330
7DB9
100
AcDbEntity
  8
DEFPOINTS
 62
     0
440
 16777216
100
AcDbPoint
 10
6265.363430901706
 20
5072.287053998908
 30
0.0
  0
POINT
  5
80F3
330
7DB9
100
AcDbEntity
  8
DEFPOINTS
 62
     0
440
 16777216
100
AcDbPoint
 10
6265.363430901706
 20
6818.439712404222
 30
0.0
  0
ENDBLK
  5
7DE4
330
7DB9
100
AcDbEntity
  8
0
100
AcDbBlockEnd
  0
BLOCK
  5
7DFD
330
7DF0
100
AcDbEntity
  8
0
100
AcDbBlockBegin
  2
*D16
 70
     1
 10
0.0
 20
0.0
 30
0.0
  3
*D16
  1

  0
LINE
  5
80FD
330
7DF0
100
AcDbEntity
  8
3
 62
     0
440
 16777216
370
    -2
100
AcDbLine
 10
8982.76443090168
 20
5322.287053999198
 30
0.0
 11
9553.262506236048
 21
5322.287053999198
 31
0.0
  0
LINE
  5
80FE
330
7DF0
100
AcDbEntity
  8
3
 62
     0
440
 16777216
370
    -2
100
AcDbLine
 10
8982.764430901863
 20
3722.287053999198
 30
0.0
 11
9553.262506236045
 21
3722.287053999198
 31
0.0
  0
LINE
  5
80FF
330
7DF0
100
AcDbEntity
  8
3
 62
     0
440
 16777216
370
    -2
100
AcDbLine
 10
9503.262506236048
 20
5222.287053999198
 30
0.0
 11
9503.262506236046
 21
3822.287053999198
 31
0.0
  0
INSERT
  5
8100
330
7DF0
100
AcDbEntity
  8
3
 62
     0
440
 16777216
370
    -2
100
AcDbBlockReference
  2
_OPEN
 10
9503.262506236048
 20
5322.287053999198
 30
0.0
 41
100.0
 42
100.0
 43
100.0
 50
90.0
  0
INSERT
  5
8101
330
7DF0
100
AcDbEntity
  8
3
 62
     0
440
 16777216
370
    -2
100
AcDbBlockReference
  2
_OPEN
 10
9503.262506236046
 20
3722.287053999198
 30
0.0
 41
100.0
 42
100.0
 43
100.0
 50
270.0
  0
MTEXT
  5
8102
330
7DF0
100
AcDbEntity
  8
3
 62
     0
440
 16777216
100
AcDbMText
 10
9378.262506236046
 20
4485.526642574027
 30
0.0
 40
150.0
 41
0.0
 46
0.0
 71
     5
 72
     1
  1
\A1;φ1600
 11
0.0000000000000001
 21
1.0
 31
0.0
 73
     1
 44
1.0
  0
POINT
  5
8103
330
7DF0
100
AcDbEntity
  8
DEFPOINTS
 62
     0
440
 16777216
100
AcDbPoint
 10
8957.764430901681
 20
5322.287053999198
 30
0.0
  0
POINT
  5
8104
330
7DF0
100
AcDbEntity
  8
DEFPOINTS
 62
     0
440
 16777216
100
AcDbPoint
 10
8957.764430901862
 20
3722.287053999198
 30
0.0
  0
POINT
  5
8105
330
7DF0
100
AcDbEntity
  8
DEFPOINTS
 62
     0
440
 16777216
100
AcDbPoint
 10
9503.262506236046
 20
3722.287053999198
 30
0.0
  0
ENDBLK
  5
7E07
330
7DF0
100
AcDbEntity
  8
0
100
AcDbBlockEnd
  0
BLOCK
  5
7E0C
330
7E0B
100
AcDbEntity
  8
0
100
AcDbBlockBegin
  2
*D17
 70
     1
 10
0.0
 20
0.0
 30
0.0
  3
*D17
  1

  0
LINE
  5
8060
330
7E0B
100
AcDbEntity
  8
3
 62
     0
440
 16777216
100
AcDbLine
 10
2326.801394987629
 20
6307.287053998472
 30
0.0
 11
2326.801394987629
 21
6991.708169765036
 31
0.0
  0
LINE
  5
8061
330
7E0B
100
AcDbEntity
  8
3
 62
     0
440
 16777216
100
AcDbLine
 10
5721.800394988683
 20
3527.393053999699
 30
0.0
 11
5721.800394988683
 21
6991.708169765036
 31
0.0
  0
LINE
  5
8062
330
7E0B
100
AcDbEntity
  8
3
 62
     0
440
 16777216
100
AcDbLine
 10
2426.801394987629
 20
6941.708169765036
 30
0.0
 11
5621.800394988683
 21
6941.708169765036
 31
0.0
  0
INSERT
  5
8063
330
7E0B
100
AcDbEntity
  8
3
 62
     0
440
 16777216
100
AcDbBlockReference
  2
_OPEN
 10
2326.801394987629
 20
6941.708169765036
 30
0.0
 41
100.0
 42
100.0
 43
100.0
 50
180.0
  0
INSERT
  5
8064
330
7E0B
100
AcDbEntity
  8
3
 62
     0
440
 16777216
100
AcDbBlockReference
  2
_OPEN
 10
5721.800394988683
 20
6941.708169765036
 30
0.0
 41
100.0
 42
100.0
 43
100.0
  0
MTEXT
  5
8065
330
7E0B
100
AcDbEntity
  8
3
 62
     0
440
 16777216
100
AcDbMText
 10
4144.849819075825
 20
7066.708169765036
 30
0.0
 40
150.0
 41
0.0
 46
0.0
 71
     5
 72
     5
  1
\A1;3395
 73
     1
 44
1.0
  0
POINT
  5
8066
330
7E0B
100
AcDbEntity
  8
DEFPOINTS
 62
     0
440
 16777216
100
AcDbPoint
 10
2326.801394987629
 20
6282.287053998471
 30
0.0
  0
POINT
  5
8067
330
7E0B
100
AcDbEntity
  8
DEFPOINTS
 62
     0
440
 16777216
100
AcDbPoint
 10
5721.800394988683
 20
3502.393053999699
 30
0.0
  0
POINT
  5
8068
330
7E0B
100
AcDbEntity
  8
DEFPOINTS
 62
     0
440
 16777216
100
AcDbPoint
 10
5721.800394988683
 20
6941.708169765036
 30
0.0
  0
ENDBLK
  5
7E16
330
7E0B
100
AcDbEntity
  8
0
100
AcDbBlockEnd
  0
BLOCK
  5
7F31
330
7F30
100
AcDbEntity
  8
0
100
AcDbBlockBegin
  2
*D18
 70
     1
 10
0.0
 20
0.0
 30
0.0
  3
*D18
  1

  0
LINE
  5
7F32
330
7F30
100
AcDbEntity
  8
0
  6
ByBlock
 62
     0
440
 16777216
100
AcDbLine
 10
2421.800394988772
 20
3232.393053998507
 30
0.0
 11
2421.800394988772
 21
2865.94218844867
 31
0.0
  0
LINE
  5
7F33
330
7F30
100
AcDbEntity
  8
0
  6
ByBlock
 62
     0
440
 16777216
100
AcDbLine
 10
3371.800394988777
 20
3232.39305399885
 30
0.0
 11
3371.800394988777
 21
2865.94218844867
 31
0.0
  0
LINE
  5
7F34
330
7F30
100
AcDbEntity
  8
0
  6
ByBlock
 62
     0
440
 16777216
100
AcDbLine
 10
2521.800394988771
 20
2915.942188448669
 30
0.0
 11
3271.800394988777
 21
2915.942188448669
 31
0.0
  0
INSERT
  5
7F35
330
7F30
100
AcDbEntity
  8
0
  6
ByBlock
 62
     0
440
 16777216
100
AcDbBlockReference
  2
_OPEN
 10
2421.800394988772
 20
2915.942188448669
 30
0.0
 41
100.0
 42
100.0
 43
100.0
 50
180.0
  0
INSERT
  5
7F36
330
7F30
100
AcDbEntity
  8
0
  6
ByBlock
 62
     0
440
 16777216
100
AcDbBlockReference
  2
_OPEN
 10
3371.800394988777
 20
2915.942188448669
 30
0.0
 41
100.0
 42
100.0
 43
100.0
  0
MTEXT
  5
7F37
330
7F30
100
AcDbEntity
  8
0
  6
ByBlock
 62
     0
440
 16777216
100
AcDbMText
 10
2896.800394988774
 20
3040.942188448669
 30
0.0
 40
150.0
 41
0.0
 46
0.0
 71
     5
 72
     5
  1
\A1;950
 73
     1
 44
1.0
  0
POINT
  5
7F38
330
7F30
100
AcDbEntity
  8
DEFPOINTS
  6
ByBlock
 62
     0
440
 16777216
100
AcDbPoint
 10
2421.800394988772
 20
3257.393053998507
 30
0.0
  0
POINT
  5
7F39
330
7F30
100
AcDbEntity
  8
DEFPOINTS
  6
ByBlock
 62
     0
440
 16777216
100
AcDbPoint
 10
3371.800394988777
 20
3257.39305399885
 30
0.0
  0
POINT
  5
7F3A
330
7F30
100
AcDbEntity
  8
DEFPOINTS
  6
ByBlock
 62
     0
440
 16777216
100
AcDbPoint
 10
3371.800394988777
 20
2915.942188448669
 30
0.0
  0
ENDBLK
  5
7F3B
330
7F30
100
AcDbEntity
  8
0
100
AcDbBlockEnd
  0
BLOCK
  5
7F3E
330
7F3D
100
AcDbEntity
  8
0
100
AcDbBlockBegin
  2
*D19
 70
     1
 10
0.0
 20
0.0
 30
0.0
  3
*D19
  1

  0
LINE
  5
7F3F
330
7F3D
100
AcDbEntity
  8
0
  6
ByBlock
 62
     0
440
 16777216
100
AcDbLine
 10
3371.800394988777
 20
3232.39305399885
 30
0.0
 11
3371.800394988777
 21
2865.94218844867
 31
0.0
  0
LINE
  5
7F40
330
7F3D
100
AcDbEntity
  8
0
  6
ByBlock
 62
     0
440
 16777216
100
AcDbLine
 10
5721.800394988777
 20
3232.3930539997
 30
0.0
 11
5721.800394988777
 21
2865.94218844867
 31
0.0
  0
LINE
  5
7F41
330
7F3D
100
AcDbEntity
  8
0
  6
ByBlock
 62
     0
440
 16777216
100
AcDbLine
 10
3471.800394988777
 20
2915.942188448669
 30
0.0
 11
5621.800394988778
 21
2915.942188448669
 31
0.0
  0
INSERT
  5
7F42
330
7F3D
100
AcDbEntity
  8
0
  6
ByBlock
 62
     0
440
 16777216
100
AcDbBlockReference
  2
_OPEN
 10
3371.800394988777
 20
2915.942188448669
 30
0.0
 41
100.0
 42
100.0
 43
100.0
 50
180.0
  0
INSERT
  5
7F43
330
7F3D
100
AcDbEntity
  8
0
  6
ByBlock
 62
     0
440
 16777216
100
AcDbBlockReference
  2
_OPEN
 10
5721.800394988777
 20
2915.942188448669
 30
0.0
 41
100.0
 42
100.0
 43
100.0
  0
MTEXT
  5
7F44
330
7F3D
100
AcDbEntity
  8
0
  6
ByBlock
 62
     0
440
 16777216
100
AcDbMText
 10
4546.800394988777
 20
3040.942188448669
 30
0.0
 40
150.0
 41
0.0
 46
0.0
 71
     5
 72
     5
  1
\A1;2350
 73
     1
 44
1.0
  0
POINT
  5
7F45
330
7F3D
100
AcDbEntity
  8
DEFPOINTS
  6
ByBlock
 62
     0
440
 16777216
100
AcDbPoint
 10
3371.800394988777
 20
3257.39305399885
 30
0.0
  0
POINT
  5
7F46
330
7F3D
100
AcDbEntity
  8
DEFPOINTS
  6
ByBlock
 62
     0
440
 16777216
100
AcDbPoint
 10
5721.800394988777
 20
3257.3930539997
 30
0.0
  0
POINT
  5
7F47
330
7F3D
100
AcDbEntity
  8
DEFPOINTS
  6
ByBlock
 62
     0
440
 16777216
100
AcDbPoint
 10
5721.800394988777
 20
2915.942188448669
 30
0.0
  0
ENDBLK
  5
7F48
330
7F3D
100
AcDbEntity
  8
0
100
AcDbBlockEnd
  0
BLOCK
  5
7F4B
330
7F4A
100
AcDbEntity
  8
0
100
AcDbBlockBegin
  2
*D20
 70
     1
 10
0.0
 20
0.0
 30
0.0
  3
*D20
  1

  0
LINE
  5
7F4C
330
7F4A
100
AcDbEntity
  8
0
  6
ByBlock
 62
     0
440
 16777216
100
AcDbLine
 10
6424.557976899918
 20
3232.287053998911
 30
0.0
 11
6424.557976899918
 21
2865.94218844867
 31
0.0
  0
LINE
  5
7F4D
330
7F4A
100
AcDbEntity
  8
0
  6
ByBlock
 62
     0
440
 16777216
100
AcDbLine
 10
7885.557976899939
 20
3232.287053999076
 30
0.0
 11
7885.557976899939
 21
2865.94218844867
 31
0.0
  0
LINE
  5
7F4E
330
7F4A
100
AcDbEntity
  8
0
  6
ByBlock
 62
     0
440
 16777216
100
AcDbLine
 10
6524.557976899918
 20
2915.942188448669
 30
0.0
 11
7785.557976899939
 21
2915.942188448669
 31
0.0
  0
INSERT
  5
7F4F
330
7F4A
100
AcDbEntity
  8
0
  6
ByBlock
 62
     0
440
 16777216
100
AcDbBlockReference
  2
_OPEN
 10
6424.557976899918
 20
2915.942188448669
 30
0.0
 41
100.0
 42
100.0
 43
100.0
 50
180.0
  0
INSERT
  5
7F50
330
7F4A
100
AcDbEntity
  8
0
  6
ByBlock
 62
     0
440
 16777216
100
AcDbBlockReference
  2
_OPEN
 10
7885.557976899939
 20
2915.942188448669
 30
0.0
 41
100.0
 42
100.0
 43
100.0
  0
MTEXT
  5
7F51
330
7F4A
100
AcDbEntity
  8
0
  6
ByBlock
 62
     0
440
 16777216
100
AcDbMText
 10
7155.057976899929
 20
3040.942188448669
 30
0.0
 40
150.0
 41
0.0
 46
0.0
 71
     5
 72
     5
  1
\A1;1461
 73
     1
 44
1.0
  0
POINT
  5
7F52
330
7F4A
100
AcDbEntity
  8
DEFPOINTS
  6
ByBlock
 62
     0
440
 16777216
100
AcDbPoint
 10
6424.557976899918
 20
3257.28705399891
 30
0.0
  0
POINT
  5
7F53
330
7F4A
100
AcDbEntity
  8
DEFPOINTS
  6
ByBlock
 62
     0
440
 16777216
100
AcDbPoint
 10
7885.557976899939
 20
3257.287053999076
 30
0.0
  0
POINT
  5
7F54
330
7F4A
100
AcDbEntity
  8
DEFPOINTS
  6
ByBlock
 62
     0
440
 16777216
100
AcDbPoint
 10
7885.557976899939
 20
2915.942188448669
 30
0.0
  0
ENDBLK
  5
7F55
330
7F4A
100
AcDbEntity
  8
0
100
AcDbBlockEnd
  0
BLOCK
  5
7F58
330
7F57
100
AcDbEntity
  8
0
100
AcDbBlockBegin
  2
*D21
 70
     1
 10
0.0
 20
0.0
 30
0.0
  3
*D21
  1

  0
LINE
  5
7F59
330
7F57
100
AcDbEntity
  8
0
  6
ByBlock
 62
     0
440
 16777216
100
AcDbLine
 10
7885.557976899939
 20
3232.287053999076
 30
0.0
 11
7885.557976899939
 21
2865.94218844867
 31
0.0
  0
LINE
  5
7F5A
330
7F57
100
AcDbEntity
  8
0
  6
ByBlock
 62
     0
440
 16777216
100
AcDbLine
 10
9024.557976899918
 20
3232.287053999205
 30
0.0
 11
9024.557976899918
 21
2865.94218844867
 31
0.0
  0
LINE
  5
7F5B
330
7F57
100
AcDbEntity
  8
0
  6
ByBlock
 62
     0
440
 16777216
100
AcDbLine
 10
7985.557976899939
 20
2915.942188448669
 30
0.0
 11
8924.557976899919
 21
2915.942188448669
 31
0.0
  0
INSERT
  5
7F5C
330
7F57
100
AcDbEntity
  8
0
  6
ByBlock
 62
     0
440
 16777216
100
AcDbBlockReference
  2
_OPEN
 10
7885.557976899939
 20
2915.942188448669
 30
0.0
 41
100.0
 42
100.0
 43
100.0
 50
180.0
  0
INSERT
  5
7F5D
330
7F57
100
AcDbEntity
  8
0
  6
ByBlock
 62
     0
440
 16777216
100
AcDbBlockReference
  2
_OPEN
 10
9024.557976899918
 20
2915.942188448669
 30
0.0
 41
100.0
 42
100.0
 43
100.0
  0
MTEXT
  5
7F5E
330
7F57
100
AcDbEntity
  8
0
  6
ByBlock
 62
     0
440
 16777216
100
AcDbMText
 10
8455.057976899928
 20
3040.942188448669
 30
0.0
 40
150.0
 41
0.0
 46
0.0
 71
     5
 72
     5
  1
\A1;1139
 73
     1
 44
1.0
  0
POINT
  5
7F5F
330
7F57
100
AcDbEntity
  8
DEFPOINTS
  6
ByBlock
 62
     0
440
 16777216
100
AcDbPoint
 10
7885.557976899939
 20
3257.287053999076
 30
0.0
  0
POINT
  5
7F60
330
7F57
100
AcDbEntity
  8
DEFPOINTS
  6
ByBlock
 62
     0
440
 16777216
100
AcDbPoint
 10
9024.557976899918
 20
3257.287053999205
 30
0.0
  0
POINT
  5
7F61
330
7F57
100
AcDbEntity
  8
DEFPOINTS
  6
ByBlock
 62
     0
440
 16777216
100
AcDbPoint
 10
9024.557976899918
 20
2915.942188448669
 30
0.0
  0
ENDBLK
  5
7F62
330
7F57
100
AcDbEntity
  8
0
100
AcDbBlockEnd
  0
BLOCK
  5
7F65
330
7F64
100
AcDbEntity
  8
0
100
AcDbBlockBegin
  2
_NONE
 70
     0
 10
0.0
 20
0.0
 30
0.0
  3
_NONE
  1

  0
CIRCLE
  5
7F66
330
7F64
100
AcDbEntity
  8
0
  6
ByBlock
 62
     0
100
AcDbCircle
 10
0.0
 20
0.0
 30
0.0
 40
0.25
  0
ENDBLK
  5
7F67
330
7F64
100
AcDbEntity
  8
0
100
AcDbBlockEnd
  0
BLOCK
  5
7F85
330
7F68
100
AcDbEntity
  8
0
100
AcDbBlockBegin
  2
*D23
 70
     1
 10
0.0
 20
0.0
 30
0.0
  3
*D23
  1

  0
LINE
  5
7F86
330
7F68
100
AcDbEntity
  8
0
  6
ByBlock
 62
     0
440
 16777216
100
AcDbLine
 10
1765.831986657838
 20
3332.393053998507
 30
0.0
 11
1765.831986657838
 21
3332.393053998507
 31
0.0
  0
LINE
  5
7F87
330
7F68
100
AcDbEntity
  8
0
  6
ByBlock
 62
     0
440
 16777216
100
AcDbLine
 10
1765.831986657838
 20
3352.393053998507
 30
0.0
 11
1765.831986657838
 21
3552.393053998507
 31
0.0
  0
MTEXT
  5
7F88
330
7F68
100
AcDbEntity
  8
0
  6
ByBlock
 62
     0
440
 16777216
100
AcDbMText
 10
1526.546272372124
 20
3342.393053998506
 30
0.0
 40
150.0
 41
0.0
 46
0.0
 71
     5
 72
     5
  1
\A1;   (20)
 11
0.0
 21
1.0
 31
0.0
 73
     1
 44
1.0
  0
LINE
  5
7F89
330
7F68
100
AcDbEntity
  8
0
  6
ByBlock
 62
     0
440
 16777216
100
AcDbLine
 10
1765.831986657838
 20
3332.393053998507
 30
0.0
 11
1765.831986657838
 21
3352.393053998507
 31
0.0
  0
POINT
  5
7F8A
330
7F68
100
AcDbEntity
  8
DEFPOINTS
  6
ByBlock
 62
     0
440
 16777216
100
AcDbPoint
 10
2421.800394988744
 20
3332.393053998507
 30
0.0
  0
POINT
  5
7F8B
330
7F68
100
AcDbEntity
  8
DEFPOINTS
  6
ByBlock
 62
     0
440
 16777216
100
AcDbPoint
 10
2421.800394988739
 20
3352.393053998507
 30
0.0
  0
POINT
  5
7F8C
330
7F68
100
AcDbEntity
  8
DEFPOINTS
  6
ByBlock
 62
     0
440
 16777216
100
AcDbPoint
 10
1765.831986657838
 20
3352.393053998507
 30
0.0
  0
ENDBLK
  5
7F8D
330
7F68
100
AcDbEntity
  8
0
100
AcDbBlockEnd
  0
BLOCK
  5
7F8F
330
7F8E
100
AcDbEntity
  8
0
100
AcDbBlockBegin
  2
*D24
 70
     1
 10
0.0
 20
0.0
 30
0.0
  3
*D24
  1

  0
LINE
  5
7F90
330
7F8E
100
AcDbEntity
  8
0
  6
ByBlock
 62
     0
440
 16777216
100
AcDbLine
 10
2396.800394988771
 20
3257.393053998507
 30
0.0
 11
1247.474915423008
 21
3257.393053998507
 31
0.0
  0
LINE
  5
7F91
330
7F8E
100
AcDbEntity
  8
0
  6
ByBlock
 62
     0
440
 16777216
100
AcDbLine
 10
2276.801394987655
 20
6217.287053998473
 30
0.0
 11
1247.474915423008
 21
6217.287053998473
 31
0.0
  0
LINE
  5
7F92
330
7F8E
100
AcDbEntity
  8
0
  6
ByBlock
 62
     0
440
 16777216
100
AcDbLine
 10
1297.474915423008
 20
3357.393053998507
 30
0.0
 11
1297.474915423008
 21
6117.287053998473
 31
0.0
  0
INSERT
  5
7F93
330
7F8E
100
AcDbEntity
  8
0
  6
ByBlock
 62
     0
440
 16777216
100
AcDbBlockReference
  2
_OPEN
 10
1297.474915423008
 20
3257.393053998507
 30
0.0
 41
100.0
 42
100.0
 43
100.0
 50
270.0
  0
INSERT
  5
7F94
330
7F8E
100
AcDbEntity
  8
0
  6
ByBlock
 62
     0
440
 16777216
100
AcDbBlockReference
  2
_OPEN
 10
1297.474915423008
 20
6217.287053998473
 30
0.0
 41
100.0
 42
100.0
 43
100.0
 50
90.0
  0
MTEXT
  5
7F95
330
7F8E
100
AcDbEntity
  8
0
  6
ByBlock
 62
     0
440
 16777216
100
AcDbMText
 10
1133.189201137294
 20
4737.340053998489
 30
0.0
 40
150.0
 41
0.0
 46
0.0
 71
     5
 72
     5
  1
\A1;(2960)
 11
0.0
 21
1.0
 31
0.0
 73
     1
 44
1.0
  0
POINT
  5
7F96
330
7F8E
100
AcDbEntity
  8
DEFPOINTS
  6
ByBlock
 62
     0
440
 16777216
100
AcDbPoint
 10
2421.800394988772
 20
3257.393053998507
 30
0.0
  0
POINT
  5
7F97
330
7F8E
100
AcDbEntity
  8
DEFPOINTS
  6
ByBlock
 62
     0
440
 16777216
100
AcDbPoint
 10
2301.801394987655
 20
6217.287053998473
 30
0.0
  0
POINT
  5
7F98
330
7F8E
100
AcDbEntity
  8
DEFPOINTS
  6
ByBlock
 62
     0
440
 16777216
100
AcDbPoint
 10
1297.474915423008
 20
6217.287053998473
 30
0.0
  0
ENDBLK
  5
7F99
330
7F8E
100
AcDbEntity
  8
0
100
AcDbBlockEnd
  0
ENDSEC
  0
SECTION
  2
ENTITIES
  0
LINE
  5
7AC9
330
19
100
AcDbEntity
  8
1
100
AcDbLine
 10
5292.956566944621
 20
4095.556239561393
 30
0.0
 11
3636.362535356936
 21
5004.476719881017
 31
0.0
  0
ARC
  5
7ACA
330
19
100
AcDbEntity
  8
1
100
AcDbCircle
 10
5158.270386393304
 20
3850.0778642032
 30
0.0
 40
280.0
100
AcDbArc
 50
253.3002697511323
 51
61.24782346562326
  0
LINE
  5
7ACB
330
19
100
AcDbEntity
  8
1
100
AcDbLine
 10
3565.136675427265
 20
4872.459986513648
 30
0.0
 11
5218.687974030491
 21
3959.506905614073
 31
0.0
  0
LINE
  5
7ACC
330
19
100
AcDbEntity
  8
1
100
AcDbLine
 10
5721.800394988777
 20
3257.3930539997
 30
0.0
 11
2421.800394988772
 21
3257.393053998507
 31
0.0
  0
LINE
  5
7ACD
330
19
100
AcDbEntity
  8
1
100
AcDbLine
 10
5721.800394988747
 20
3332.393053999699
 30
0.0
 11
2421.800394988744
 21
3332.393053998507
 31
0.0
  0
CIRCLE
  5
7ACE
330
19
100
AcDbEntity
  8
1
100
AcDbCircle
 10
5158.270386393304
 20
3850.0778642032
 30
0.0
 40
125.0
  0
LINE
  5
7ACF
330
19
100
AcDbEntity
  8
2
100
AcDbLine
 10
4789.223346445307
 20
3850.077864203065
 30
0.0
 11
5508.897556722351
 21
3850.077864203326
 31
0.0
  0
LINE
  5
7AD0
330
19
100
AcDbEntity
  8
1
100
AcDbLine
 10
5313.749518669007
 20
3581.887186835782
 30
0.0
 11
5002.791254117791
 21
3581.88718683567
 31
0.0
  0
LINE
  5
7AD1
330
19
100
AcDbEntity
  8
1
100
AcDbLine
 10
5158.270386393411
 20
3554.986681769111
 30
0.0
 11
5304.017195103563
 21
3554.986681769164
 31
0.0
  0
ARC
  5
7AD2
330
19
100
AcDbEntity
  8
1
100
AcDbCircle
 10
5158.270386393304
 20
3850.0778642032
 30
0.0
 40
310.0
100
AcDbArc
 50
300.1023080683327
 51
239.8976919317088
  0
LINE
  5
7AD3
330
19
100
AcDbEntity
  8
1
100
AcDbLine
 10
5721.80039498874
 20
3352.3930539997
 30
0.0
 11
2421.800394988737
 21
3352.393053998507
 31
0.0
  0
LINE
  5
7AD4
330
19
100
AcDbEntity
  8
1
100
AcDbLine
 10
5721.800394988683
 20
3502.393053999699
 30
0.0
 11
2421.800394988684
 21
3502.393053998507
 31
0.0
  0
POINT
  5
7AD6
330
19
100
AcDbEntity
  8
1
100
AcDbPoint
 10
5521.800394988723
 20
3257.393053999628
 30
0.0
 50
0.0000000000065138
  0
LINE
  5
7AD7
330
19
100
AcDbEntity
  8
1
100
AcDbLine
 10
5438.270386393359
 20
3717.036517246769
 30
0.0
 11
5438.270386393404
 21
3570.0778642033
 31
0.0
  0
LINE
  5
7AD8
330
19
100
AcDbEntity
  8
1
100
AcDbLine
 10
5438.270386393404
 20
3570.0778642033
 30
0.0
 11
5328.270386393404
 21
3570.07786420326
 31
0.0
  0
LINE
  5
7AD9
330
19
100
AcDbEntity
  8
1
100
AcDbLine
 10
5438.270386393394
 20
3600.077864203299
 30
0.0
 11
5341.573414191628
 21
3600.077864203265
 31
0.0
  0
LINE
  5
7ADA
330
19
100
AcDbEntity
  8
1
100
AcDbLine
 10
5304.017195103558
 20
3570.077864203251
 30
0.0
 11
5497.164878952158
 21
3570.07786420332
 31
0.0
  0
LINE
  5
7AE5
330
19
100
AcDbEntity
  8
1
100
AcDbLine
 10
5497.164878952158
 20
3570.07786420332
 30
0.0
 11
5507.903081286134
 21
3502.393053999622
 31
0.0
  0
LINE
  5
7AE6
330
19
100
AcDbEntity
  8
1
100
AcDbLine
 10
5328.270386393398
 20
3590.848236266946
 30
0.0
 11
5328.270386393405
 21
3570.07786420326
 31
0.0
  0
LINE
  5
7AE8
330
19
100
AcDbEntity
  8
1
100
AcDbLine
 10
5304.017195103563
 20
3554.986681769164
 30
0.0
 11
5304.017195103558
 21
3570.077864203251
 31
0.0
  0
CIRCLE
  5
7AE9
330
19
100
AcDbEntity
  8
1
100
AcDbCircle
 10
3371.800394988298
 20
4522.28705399885
 30
0.0
 40
865.0
  0
CIRCLE
  5
7AEA
330
19
100
AcDbEntity
  8
1
100
AcDbCircle
 10
3371.800394988298
 20
4522.28705399885
 30
0.0
 40
800.0
  0
ARC
  5
7AEB
330
19
100
AcDbEntity
  8
1
100
AcDbCircle
 10
3371.800394988281
 20
4522.28705399885
 30
0.0
 40
550.0
100
AcDbArc
 50
61.24782346562326
 51
257.5117566008
  0
CIRCLE
  5
7AEC
330
19
100
AcDbEntity
  8
1
100
AcDbCircle
 10
3371.800394988266
 20
4522.28705399885
 30
0.0
 40
400.0
  0
LINE
  5
7AED
330
19
100
AcDbEntity
  8
2
100
AcDbLine
 10
3371.800394988777
 20
3257.39305399885
 30
0.0
 11
3371.800394987615
 21
6322.28705399885
 31
0.0
  0
LINE
  5
7AEE
330
19
100
AcDbEntity
  8
1
100
AcDbLine
 10
2391.801394988252
 20
4567.287053998496
 30
0.0
 11
2391.801394987657
 21
6211.282727678566
 31
0.0
  0
LINE
  5
7AEF
330
19
100
AcDbEntity
  8
1
100
AcDbLine
 10
2332.801394988273
 20
4502.287053998475
 30
0.0
 11
2332.80139498763
 21
6282.287053998476
 31
0.0
  0
LINE
  5
7AF0
330
19
100
AcDbEntity
  8
1
100
AcDbLine
 10
2326.801394987655
 20
6217.287053998473
 30
0.0
 11
2326.801394988252
 21
4567.287053998473
 31
0.0
  0
ARC
  5
7AF1
330
19
100
AcDbEntity
  8
1
100
AcDbCircle
 10
3255.800394988224
 20
4638.287053998808
 30
0.0
 40
1487.0
100
AcDbArc
 50
355.5260000000207
 51
85.52500000002067
  0
LINE
  5
7AF2
330
19
100
AcDbEntity
  8
1
100
AcDbLine
 10
5097.723387476541
 20
3576.702552731637
 30
0.0
 11
3252.868789973208
 21
3985.299835036854
 31
0.0
  0
LINE
  5
7AF3
330
19
100
AcDbEntity
  8
1
100
AcDbLine
 10
5131.563570828705
 20
3727.964204023846
 30
0.0
 11
3286.338585181551
 21
4131.52334142492
 31
0.0
  0
LINE
  5
7AF4
330
19
100
AcDbEntity
  8
2
100
AcDbLine
 10
2264.754011560613
 20
4522.287053998449
 30
0.0
 11
4881.751063895457
 21
4522.287053999395
 31
0.0
  0
ARC
  5
7AF5
330
19
100
AcDbEntity
  8
1
100
AcDbCircle
 10
3468.800394988303
 20
4425.287053998885
 30
0.0
 40
1042.0
100
AcDbArc
 50
174.6590000000207
 51
242.3371474318263
  0
ARC
  5
7AF6
330
19
100
AcDbEntity
  8
1
100
AcDbCircle
 10
3487.800394988224
 20
4638.287053998893
 30
0.0
 40
1255.0
100
AcDbArc
 50
295.1639431562787
 51
354.6970000000206
  0
LINE
  5
7AF7
330
19
100
AcDbEntity
  8
2
100
AcDbLine
 10
5158.270386393034
 20
4233.710103849786
 30
0.0
 11
5158.27038639372
 21
3257.393053999496
 31
0.0
  0
LINE
  5
7AF8
330
19
100
AcDbEntity
  8
1
100
AcDbLine
 10
4878.270386393353
 20
3717.036517246552
 30
0.0
 11
4878.270386393406
 21
3570.077864203096
 31
0.0
  0
LINE
  5
7AF9
330
19
100
AcDbEntity
  8
1
100
AcDbLine
 10
5012.523577683253
 20
3570.077864203146
 30
0.0
 11
4819.375893834653
 21
3570.077864203076
 31
0.0
  0
LINE
  5
7AFA
330
19
100
AcDbEntity
  8
1
100
AcDbLine
 10
4974.967358595162
 20
3600.077864203132
 30
0.0
 11
4878.270386393395
 21
3600.077864203097
 31
0.0
  0
LINE
  5
7AFB
330
19
100
AcDbEntity
  8
1
100
AcDbLine
 10
5158.270386393411
 20
3554.986681769111
 30
0.0
 11
5012.52357768326
 21
3554.986681769058
 31
0.0
  0
LINE
  5
7AFD
330
19
100
AcDbEntity
  8
1
100
AcDbLine
 10
4988.270386393399
 20
3590.848236266823
 30
0.0
 11
4988.270386393406
 21
3570.077864203137
 31
0.0
  0
LINE
  5
7AFE
330
19
100
AcDbEntity
  8
1
100
AcDbLine
 10
5012.52357768326
 20
3554.986681769058
 30
0.0
 11
5012.523577683253
 21
3570.077864203146
 31
0.0
  0
LINE
  5
7B01
330
19
100
AcDbEntity
  8
1
100
AcDbLine
 10
4819.375893834653
 20
3570.077864203076
 30
0.0
 11
4808.637691500725
 21
3502.393053999369
 31
0.0
  0
LINE
  5
7B09
330
19
100
AcDbEntity
  8
1
100
AcDbLine
 10
2421.800394988744
 20
3332.393053998507
 30
0.0
 11
2421.800394988772
 21
3257.393053998507
 31
0.0
  0
POINT
  5
7B0A
330
19
100
AcDbEntity
  8
1
100
AcDbPoint
 10
2421.800394988772
 20
3257.393053998507
 30
0.0
 50
0.0000000000065138
  0
LINE
  5
7B0B
330
19
100
AcDbEntity
  8
1
100
AcDbLine
 10
2326.801394988252
 20
4567.287053998473
 30
0.0
 11
2391.801394988252
 21
4567.287053998496
 31
0.0
  0
LINE
  5
7B0C
330
19
100
AcDbEntity
  8
1
100
AcDbLine
 10
2438.77439498825
 20
4567.287053998512
 30
0.0
 11
2326.801394988252
 21
4567.287053998473
 31
0.0
  0
LINE
  5
7B0D
330
19
100
AcDbEntity
  8
1
100
AcDbLine
 10
2421.800394988684
 20
3502.393053998507
 30
0.0
 11
2421.800394988739
 21
3352.393053998507
 31
0.0
  0
POINT
  5
7B0E
330
19
100
AcDbEntity
  8
1
100
AcDbPoint
 10
2421.800394988744
 20
3332.393053998507
 30
0.0
 50
0.0000000000065138
  0
POINT
  5
7B0F
330
19
100
AcDbEntity
  8
1
100
AcDbPoint
 10
2421.800394988737
 20
3352.393053998507
 30
0.0
 50
0.0000000000065138
  0
POINT
  5
7B10
330
19
100
AcDbEntity
  8
1
100
AcDbPoint
 10
2421.800394988744
 20
3332.393053998507
 30
0.0
 50
0.0000000000065138
  0
ARC
  5
7B11
330
19
100
AcDbEntity
  8
1
100
AcDbCircle
 10
3274.800394988301
 20
4425.287053998814
 30
0.0
 40
848.0
100
AcDbArc
 50
170.3602458859311
 51
173.4320000000207
  0
LINE
  5
7B12
330
19
100
AcDbEntity
  8
1
100
AcDbLine
 10
2326.801394988274
 20
4502.287053998472
 30
0.0
 11
2326.801394988252
 21
4567.287053998473
 31
0.0
  0
LINE
  5
7B13
330
19
100
AcDbEntity
  8
1
100
AcDbLine
 10
2326.801394988274
 20
4502.287053998472
 30
0.0
 11
2332.801394988273
 21
4502.287053998475
 31
0.0
  0
LINE
  5
7B14
330
19
100
AcDbEntity
  8
1
100
AcDbLine
 10
2326.801394987655
 20
6217.287053998473
 30
0.0
 11
3371.800394987687
 21
6120.756053998849
 31
0.0
  0
LINE
  5
7B15
330
19
100
AcDbEntity
  8
1
100
AcDbLine
 10
2326.801394987629
 20
6282.287053998471
 30
0.0
 11
2332.80139498763
 21
6282.287053998476
 31
0.0
  0
LINE
  5
7B16
330
19
100
AcDbEntity
  8
1
100
AcDbLine
 10
2326.801394987655
 20
6217.287053998473
 30
0.0
 11
2326.801394987629
 21
6282.287053998471
 31
0.0
  0
LINE
  5
7B17
330
19
100
AcDbEntity
  8
1
100
AcDbLine
 10
5255.846053210539
 20
8429.747176036327
 30
0.0
 11
5084.846053210538
 21
8429.747176036206
 31
0.0
  0
LINE
  5
7B18
330
19
100
AcDbEntity
  8
1
100
AcDbLine
 10
5212.846053210665
 20
8249.747176036297
 30
0.0
 11
5127.846053210665
 21
8249.747176036235
 31
0.0
  0
LINE
  5
7B19
330
19
100
AcDbEntity
  8
1
100
AcDbLine
 10
5220.346053210545
 20
8419.747176036301
 30
0.0
 11
5120.346053210545
 21
8419.747176036231
 31
0.0
  0
LINE
  5
7B1A
330
19
100
AcDbEntity
  8
1
100
AcDbLine
 10
4882.846053210535
 20
8436.247176036065
 30
0.0
 11
5450.346053210535
 21
8436.247176036463
 31
0.0
  0
LINE
  5
7B1B
330
19
100
AcDbEntity
  8
1
100
AcDbLine
 10
5450.346053209934
 20
9288.747176036462
 30
0.0
 11
4882.846053209934
 21
9288.747176036064
 31
0.0
  0
LINE
  5
7B1C
330
19
100
AcDbEntity
  8
1
100
AcDbLine
 10
5450.346053210743
 20
8012.747176036413
 30
0.0
 11
2821.800394987111
 21
8012.747176035125
 31
0.0
  0
LINE
  5
7B1D
330
19
100
AcDbEntity
  8
1
100
AcDbLine
 10
5295.34605321072
 20
8189.747176036323
 30
0.0
 11
2971.800394987088
 21
8189.747176035213
 31
0.0
  0
LINE
  5
7B1E
330
19
100
AcDbEntity
  8
1
100
AcDbLine
 10
5295.346053210649
 20
8309.747176036323
 30
0.0
 11
2971.800394987016
 21
8309.747176035214
 31
0.0
  0
LINE
  5
7B1F
330
19
100
AcDbEntity
  8
1
100
AcDbLine
 10
5721.800394986331
 20
9371.941722034117
 30
0.0
 11
4742.80039498633
 21
9371.941722033882
 31
0.0
  0
LINE
  5
7B20
330
19
100
AcDbEntity
  8
1
100
AcDbLine
 10
5721.800394986764
 20
8171.941722034118
 30
0.0
 11
2421.800394986751
 21
8171.941722032997
 31
0.0
  0
LINE
  5
7B21
330
19
100
AcDbEntity
  8
2
100
AcDbLine
 10
5170.346053210735
 20
8012.747176036276
 30
0.0
 11
5170.346053209934
 21
9288.747176036265
 31
0.0
  0
LINE
  5
7B22
330
19
100
AcDbEntity
  8
1
100
AcDbLine
 10
5295.346053210649
 20
8309.747176036308
 30
0.0
 11
5295.34605321072
 21
8189.747176036307
 31
0.0
  0
LINE
  5
7B23
330
19
100
AcDbEntity
  8
1
100
AcDbLine
 10
5450.346053210622
 20
8356.237096353803
 30
0.0
 11
5450.346053210743
 21
8012.747176036398
 31
0.0
  0
LINE
  5
7B24
330
19
100
AcDbEntity
  8
1
100
AcDbLine
 10
5450.346053209934
 20
9288.747176036462
 30
0.0
 11
5450.346053210535
 21
8436.247176036463
 31
0.0
  0
LINE
  5
7B25
330
19
100
AcDbEntity
  8
1
100
AcDbLine
 10
5721.800394986328
 20
9371.941722034119
 30
0.0
 11
5721.800394986764
 21
8171.941722034118
 31
0.0
  0
LINE
  5
7B26
330
19
100
AcDbEntity
  8
1
100
AcDbLine
 10
5450.346053210575
 20
8356.237096353803
 30
0.0
 11
5305.810474472255
 21
8356.237096353718
 31
0.0
  0
LINE
  5
7B27
330
19
100
AcDbEntity
  8
1
100
AcDbLine
 10
5220.346053210545
 20
8419.747176036301
 30
0.0
 11
5220.346053210538
 21
8429.7471760363
 31
0.0
  0
LINE
  5
7B28
330
19
100
AcDbEntity
  8
1
100
AcDbLine
 10
5212.846053210665
 20
8249.747176036297
 30
0.0
 11
5212.846053210546
 21
8419.747176036297
 31
0.0
  0
ARC
  5
7B29
330
19
100
AcDbEntity
  8
1
100
AcDbCircle
 10
5255.846053210536
 20
8431.747176036326
 30
0.0
 40
2.0
100
AcDbArc
 50
270.0000000000402
 51
0.0000000000402492
  0
LINE
  5
7B2A
330
19
100
AcDbEntity
  8
1
100
AcDbLine
 10
5257.846053210535
 20
8436.595551036328
 30
0.0
 11
5257.846053210537
 21
8431.747176036328
 31
0.0
  0
LINE
  5
7B2B
330
19
100
AcDbEntity
  8
2
100
AcDbLine
 10
3371.800394985861
 20
10696.94172203334
 30
0.0
 11
3371.800394986758
 21
8012.747176035393
 31
0.0
  0
LINE
  5
7B2C
330
19
100
AcDbEntity
  8
1
100
AcDbLine
 10
2421.800394986751
 20
8171.941722032995
 30
0.0
 11
2421.800394986609
 21
8572.941722032997
 31
0.0
  0
LINE
  5
7B2D
330
19
100
AcDbEntity
  8
1
100
AcDbLine
 10
4321.800394985864
 20
10692.94172203368
 30
0.0
 11
4321.800394985835
 21
10771.94172203368
 31
0.0
  0
LINE
  5
7B2E
330
19
100
AcDbEntity
  8
2
100
AcDbLine
 10
4742.800394986237
 20
9632.941722033834
 30
0.0
 11
2109.868549797557
 21
9632.941722032883
 31
0.0
  0
LINE
  5
7B2F
330
19
100
AcDbEntity
  8
1
100
AcDbLine
 10
5045.346053210649
 20
8309.747176036159
 30
0.0
 11
5045.34605321072
 21
8189.747176036162
 31
0.0
  0
LINE
  5
7B30
330
19
100
AcDbEntity
  8
1
100
AcDbLine
 10
3771.800394987017
 20
8309.747176035683
 30
0.0
 11
3771.800394987087
 21
8189.747176035684
 31
0.0
  0
LINE
  5
7B31
330
19
100
AcDbEntity
  8
1
100
AcDbLine
 10
4882.846053210535
 20
8436.247176036065
 30
0.0
 11
4882.846053209934
 21
9288.747176036064
 31
0.0
  0
LINE
  5
7B32
330
19
100
AcDbEntity
  8
1
100
AcDbLine
 10
5120.346053210545
 20
8419.747176036231
 30
0.0
 11
5120.346053210538
 21
8429.747176036231
 31
0.0
  0
LINE
  5
7B35
330
19
100
AcDbEntity
  8
1
100
AcDbLine
 10
5127.846053210665
 20
8249.747176036235
 30
0.0
 11
5127.846053210545
 21
8419.747176036235
 31
0.0
  0
ARC
  5
7B36
330
19
100
AcDbEntity
  8
1
100
AcDbCircle
 10
5084.846053210537
 20
8431.747176036207
 30
0.0
 40
2.0
100
AcDbArc
 50
180.0000000000402
 51
270.0000000000402
  0
LINE
  5
7B37
330
19
100
AcDbEntity
  8
1
100
AcDbLine
 10
5082.846053210534
 20
8436.247176036204
 30
0.0
 11
5082.846053210537
 21
8431.747176036203
 31
0.0
  0
LINE
  5
7B38
330
19
100
AcDbEntity
  8
1
100
AcDbLine
 10
2971.800394987016
 20
8309.747176035214
 30
0.0
 11
2971.800394987088
 21
8189.747176035213
 31
0.0
  0
LINE
  5
7B39
330
19
100
AcDbEntity
  8
1
100
AcDbLine
 10
2821.800394986989
 20
8356.237096352527
 30
0.0
 11
2821.800394987111
 21
8012.747176035125
 31
0.0
  0
LINE
  5
7B3A
330
19
100
AcDbEntity
  8
1
100
AcDbLine
 10
3055.919413998025
 20
8356.237096352666
 30
0.0
 11
2821.800394986989
 21
8356.237096352527
 31
0.0
  0
LINE
  5
7B3B
330
19
100
AcDbEntity
  8
1
100
AcDbLine
 10
4321.800394985835
 20
10771.94172203368
 30
0.0
 11
2421.800394985818
 21
10771.94172203299
 31
0.0
  0
LINE
  5
7B3C
330
19
100
AcDbEntity
  8
2
100
AcDbLine
 10
9235.612718086041
 20
4522.287053999225
 30
0.0
 11
6265.363430901768
 21
4522.287053998907
 31
0.0
  0
LINE
  5
7B3D
330
19
100
AcDbEntity
  8
1
100
AcDbLine
 10
8949.450152565917
 20
4462.287053999197
 30
0.0
 11
9185.764430901775
 21
4462.28705399922
 31
0.0
  0
LINE
  5
7B3E
330
19
100
AcDbEntity
  8
1
100
AcDbLine
 10
8949.521174513916
 20
4222.550750678953
 30
0.0
 11
9185.764430901796
 21
4292.28705399922
 31
0.0
  0
LINE
  5
7B3F
330
19
100
AcDbEntity
  8
2
100
AcDbLine
 10
7885.557976899296
 20
6482.544178883587
 30
0.0
 11
7885.557976899939
 21
3257.287053999076
 31
0.0
  0
LINE
  5
7B40
330
19
100
AcDbEntity
  8
1
100
AcDbLine
 10
8946.535163157342
 20
3502.287053999197
 30
0.0
 11
8945.731166717079
 21
6217.287053999196
 31
0.0
  0
LINE
  5
7B41
330
19
100
AcDbEntity
  8
1
100
AcDbLine
 10
6825.563430901718
 20
4567.287053998955
 30
0.0
 11
6825.563430901441
 21
6217.287053998955
 31
0.0
  0
LINE
  5
7B42
330
19
100
AcDbEntity
  8
1
100
AcDbLine
 10
6562.363430901858
 20
3727.393054000033
 30
0.0
 11
6562.363430901723
 21
4922.287053998926
 31
0.0
  0
LINE
  5
7B43
330
19
100
AcDbEntity
  8
1
100
AcDbLine
 10
6442.363430901858
 20
3727.39305400002
 30
0.0
 11
6442.363430901723
 21
4922.287053998912
 31
0.0
  0
LINE
  5
7B45
330
19
100
AcDbEntity
  8
1
100
AcDbLine
 10
6265.363430901876
 20
3572.393054000015
 30
0.0
 11
6265.363430901706
 21
5072.287053998908
 31
0.0
  0
LINE
  5
7B48
330
19
100
AcDbEntity
  8
1
100
AcDbLine
 10
7541.363430901843
 20
4132.393054000027
 30
0.0
 11
6688.863430901844
 21
4132.393054000025
 31
0.0
  0
LINE
  5
7B4A
330
19
100
AcDbEntity
  8
1
100
AcDbLine
 10
6688.863430901844
 20
3564.893054000026
 30
0.0
 11
7541.363430901845
 21
3564.893054000026
 31
0.0
  0
LINE
  5
7B53
330
19
100
AcDbEntity
  8
1
100
AcDbLine
 10
6688.863430901846
 20
3564.893054000026
 30
0.0
 11
6688.863430901844
 21
4132.393054000025
 31
0.0
  0
LINE
  5
7B54
330
19
100
AcDbEntity
  8
1
100
AcDbLine
 10
6825.5634309019
 20
3502.324417185453
 30
0.0
 11
6825.563430901889
 21
3564.893054000026
 31
0.0
  0
LINE
  5
7B55
330
19
100
AcDbEntity
  8
1
100
AcDbLine
 10
6608.853351219266
 20
3572.393054000085
 30
0.0
 11
6608.853351219249
 21
3716.928632738405
 31
0.0
  0
LINE
  5
7B56
330
19
100
AcDbEntity
  8
1
100
AcDbLine
 10
6608.853351219266
 20
3572.393054000038
 30
0.0
 11
6265.363430901862
 21
3572.393054000015
 31
0.0
  0
LINE
  5
7B58
330
19
100
AcDbEntity
  8
1
100
AcDbLine
 10
6562.363430901844
 20
3727.393054000033
 30
0.0
 11
6442.363430901844
 21
3727.39305400002
 31
0.0
  0
LINE
  5
7B59
330
19
100
AcDbEntity
  8
1
100
AcDbLine
 10
6562.363430901815
 20
3977.393054000033
 30
0.0
 11
6442.363430901814
 21
3977.39305400002
 31
0.0
  0
LINE
  5
7B5A
330
19
100
AcDbEntity
  8
2
100
AcDbLine
 10
7541.363430901843
 20
3852.393054000145
 30
0.0
 11
6265.363430901844
 21
3852.393054000016
 31
0.0
  0
LINE
  5
7B5B
330
19
100
AcDbEntity
  8
1
100
AcDbLine
 10
6672.363430901845
 20
3902.393054000026
 30
0.0
 11
6672.363430901843
 21
3802.393054000026
 31
0.0
  0
LINE
  5
7B5C
330
19
100
AcDbEntity
  8
1
100
AcDbLine
 10
6502.363430901844
 20
3894.893054000025
 30
0.0
 11
6502.363430901844
 21
3809.893054000027
 31
0.0
  0
LINE
  5
7B5D
330
19
100
AcDbEntity
  8
1
100
AcDbLine
 10
6682.363430901843
 20
3937.893054000026
 30
0.0
 11
6682.363430901844
 21
3766.893054000026
 31
0.0
  0
LINE
  5
7B5E
330
19
100
AcDbEntity
  8
1
100
AcDbLine
 10
6502.363430901843
 20
3809.893054000026
 30
0.0
 11
6672.363430901845
 21
3809.893054000027
 31
0.0
  0
LINE
  5
7B61
330
19
100
AcDbEntity
  8
1
100
AcDbLine
 10
6688.863430901844
 20
3764.893054000026
 30
0.0
 11
6684.363430901844
 21
3764.893054000026
 31
0.0
  0
ARC
  5
7B62
330
19
100
AcDbEntity
  8
1
100
AcDbCircle
 10
6684.363430901844
 20
3766.893054000026
 30
0.0
 40
2.0
100
AcDbArc
 50
180.0
 51
270.0
  0
LINE
  5
7B63
330
19
100
AcDbEntity
  8
1
100
AcDbLine
 10
6672.363430901843
 20
3802.393054000026
 30
0.0
 11
6682.363430901843
 21
3802.393054000026
 31
0.0
  0
LINE
  5
7B64
330
19
100
AcDbEntity
  8
1
100
AcDbLine
 10
6502.363430901844
 20
3894.893054000025
 30
0.0
 11
6672.363430901845
 21
3894.893054000025
 31
0.0
  0
LINE
  5
7B65
330
19
100
AcDbEntity
  8
1
100
AcDbLine
 10
6689.211805901845
 20
3939.893054000027
 30
0.0
 11
6684.363430901844
 21
3939.893054000026
 31
0.0
  0
ARC
  5
7B66
330
19
100
AcDbEntity
  8
1
100
AcDbCircle
 10
6684.363430901844
 20
3937.893054000026
 30
0.0
 40
2.0
100
AcDbArc
 50
90.00000000000005
 51
180.0
  0
LINE
  5
7B67
330
19
100
AcDbEntity
  8
1
100
AcDbLine
 10
6672.363430901845
 20
3902.393054000026
 30
0.0
 11
6682.363430901844
 21
3902.393054000026
 31
0.0
  0
LINE
  5
7B68
330
19
100
AcDbEntity
  8
1
100
AcDbLine
 10
6592.363430901778
 20
4442.287053998929
 30
0.0
 11
6825.563430901741
 21
4442.287053998955
 31
0.0
  0
LINE
  5
7B69
330
19
100
AcDbEntity
  8
1
100
AcDbLine
 10
6592.363430901798
 20
4262.287053998929
 30
0.0
 11
6822.363430901806
 21
4192.287632987462
 31
0.0
  0
LINE
  5
7B6A
330
19
100
AcDbEntity
  8
1
100
AcDbLine
 10
6562.363430901763
 20
4577.287053998925
 30
0.0
 11
6825.563430901716
 21
4577.287053998955
 31
0.0
  0
LINE
  5
7B6B
330
19
100
AcDbEntity
  8
1
100
AcDbLine
 10
6562.363430901775
 20
4467.287053998926
 30
0.0
 11
6825.563430901737
 21
4467.287053998955
 31
0.0
  0
LINE
  5
7B6C
330
19
100
AcDbEntity
  8
1
100
AcDbLine
 10
6592.363430901778
 20
4442.287053998929
 30
0.0
 11
6592.363430901798
 21
4262.287053998929
 31
0.0
  0
LINE
  5
7B6D
330
19
100
AcDbEntity
  8
1
100
AcDbLine
 10
6562.363430901813
 20
4122.287053998925
 30
0.0
 11
6442.363430901814
 21
4122.287053998912
 31
0.0
  0
LINE
  5
7B6F
330
19
100
AcDbEntity
  8
1
100
AcDbLine
 10
7541.363430901843
 20
4132.393054000027
 30
0.0
 11
7541.363430901845
 21
3564.893054000027
 31
0.0
  0
LINE
  5
7B73
330
19
100
AcDbEntity
  8
1
100
AcDbLine
 10
9024.565430902079
 20
3502.529399657585
 30
0.0
 11
8949.734620873948
 21
3502.529399657577
 31
0.0
  0
LINE
  5
7B78
330
19
100
AcDbEntity
  8
1
100
AcDbLine
 10
8945.731166717079
 20
6217.287053999196
 30
0.0
 11
6825.563430901441
 21
6217.287053998955
 31
0.0
  0
LINE
  5
7B79
330
19
100
AcDbEntity
  8
1
100
AcDbLine
 10
6608.85335121911
 20
5072.28705399893
 30
0.0
 11
6265.363430901707
 21
5072.287053998908
 31
0.0
  0
LINE
  5
7B7A
330
19
100
AcDbEntity
  8
1
100
AcDbLine
 10
6562.363430901722
 20
4922.287053998926
 30
0.0
 11
6442.363430901723
 21
4922.287053998912
 31
0.0
  0
LINE
  5
7B7B
330
19
100
AcDbEntity
  8
1
100
AcDbLine
 10
6608.853351219138
 20
4838.168034987897
 30
0.0
 11
6608.85335121911
 21
5072.28705399893
 31
0.0
  0
LINE
  5
7B7F
330
19
100
AcDbEntity
  8
1
100
AcDbLine
 10
9185.764430901775
 20
4462.28705399922
 30
0.0
 11
9185.764430901796
 21
4292.28705399922
 31
0.0
  0
LINE
  5
7B80
330
19
100
AcDbEntity
  8
1
100
AcDbLine
 10
2326.800394985843
 20
10757.94172203296
 30
0.0
 11
2326.800394986633
 21
8507.94172203296
 31
0.0
  0
LINE
  5
7B81
330
19
100
AcDbEntity
  8
1
100
AcDbLine
 10
4742.800394985865
 20
10692.94172203383
 30
0.0
 11
4742.800394986608
 21
8572.941722033833
 31
0.0
  0
LINE
  5
7B82
330
19
100
AcDbEntity
  8
1
100
AcDbLine
 10
4742.800394985865
 20
10692.94172203383
 30
0.0
 11
2326.800394985865
 21
10692.94172203296
 31
0.0
  0
LINE
  5
7B83
330
19
100
AcDbEntity
  8
1
100
AcDbLine
 10
4742.800394986611
 20
8572.941722033835
 30
0.0
 11
2326.80039498661
 21
8572.941722032963
 31
0.0
  0
LINE
  5
7B84
330
19
100
AcDbEntity
  8
1
100
AcDbLine
 10
2391.800394985865
 20
10692.94172203298
 30
0.0
 11
2391.800394986611
 21
8572.941722032984
 31
0.0
  0
LINE
  5
7B85
330
19
100
AcDbEntity
  8
1
100
AcDbLine
 10
2332.800394985843
 20
10757.94172203296
 30
0.0
 11
2326.80039498584
 21
10757.94172203296
 31
0.0
  0
LINE
  5
7B86
330
19
100
AcDbEntity
  8
1
100
AcDbLine
 10
2332.800394986632
 20
8507.941722032963
 30
0.0
 11
2326.800394986633
 21
8507.941722032962
 31
0.0
  0
LINE
  5
7B87
330
19
100
AcDbEntity
  8
1
100
AcDbLine
 10
2332.800394985843
 20
10757.94172203296
 30
0.0
 11
2332.800394986632
 21
8507.941722032962
 31
0.0
  0
LINE
  5
7B88
330
19
100
AcDbEntity
  8
1
100
AcDbLine
 10
2421.800394985847
 20
10692.94172203299
 30
0.0
 11
2421.800394985818
 21
10771.94172203299
 31
0.0
  0
LINE
  5
7B89
330
19
100
AcDbEntity
  8
1
100
AcDbLine
 10
3316.800394986609
 20
8572.941722033318
 30
0.0
 11
3316.800394986702
 21
8309.747176035378
 31
0.0
  0
LINE
  5
7B8A
330
19
100
AcDbEntity
  8
1
100
AcDbLine
 10
3426.800394986609
 20
8572.941722033359
 30
0.0
 11
3426.800394986702
 21
8309.747176035429
 31
0.0
  0
DIMENSION
  5
7B9E
330
19
100
AcDbEntity
  8
3
100
AcDbDimension
280
     0
  2
*D1
 10
4321.800394985835
 20
11273.42210295275
 30
0.0
 11
3362.982304507968
 21
11273.42210295275
 31
0.0
 70
   160
 71
     5
 42
-1.0
 73
     0
 74
     0
 75
     0
  3
IGA
100
AcDbAlignedDimension
 13
2421.800394985818
 23
10771.94172203299
 33
0.0
 14
4321.800394985835
 24
10771.94172203368
 34
0.0
100
AcDbRotatedDimension
1001
ACAD
1000
DSTYLE
1002
{
1070
   287
1070
     3
1070
    40
1040
50.0
1070
   143
1040
0.039
1070
   172
1070
     1
1070
   271
1070
     0
1070
   279
1070
     0
1070
   288
1070
     1
1002
}
  0
DIMENSION
  5
7BAA
330
19
100
AcDbEntity
  8
3
100
AcDbDimension
280
     0
  2
*D2
 10
5721.800394986328
 20
11273.42210295275
 30
0.0
 11
5021.800394986082
 21
11398.42210295274
 31
0.0
 70
    32
 71
     5
 42
-1.0
 73
     0
 74
     0
 75
     0
  3
IGA
100
AcDbAlignedDimension
 13
4321.800394985835
 23
10771.94172203368
 33
0.0
 14
5721.800394986328
 24
9371.941722034117
 34
0.0
100
AcDbRotatedDimension
1001
ACAD
1000
DSTYLE
1002
{
1070
   287
1070
     4
1070
    40
1040
50.0
1070
    75
1070
     1
1070
   143
1040
0.039
1070
   172
1070
     1
1070
   271
1070
     0
1070
   279
1070
     1
1070
   288
1070
     1
1002
}
  0
DIMENSION
  5
7BB7
330
19
100
AcDbEntity
  8
3
100
AcDbDimension
280
     0
  2
*D3
 10
6041.721481007685
 20
8171.941722034118
 30
0.0
 11
6041.721481007684
 21
8887.820524585048
 31
0.0
 70
   160
 71
     5
 42
-1.0
 73
     0
 74
     0
 75
     0
  3
IGA
100
AcDbAlignedDimension
 13
5721.800394986328
 23
9371.941722034117
 33
0.0
 14
5721.800394986764
 24
8171.941722034118
 34
0.0
 50
90.0
100
AcDbRotatedDimension
1001
ACAD
1000
DSTYLE
1002
{
1070
   287
1070
     3
1070
    40
1040
50.0
1070
   143
1040
0.039
1070
   172
1070
     1
1070
   271
1070
     0
1070
   279
1070
     0
1070
   288
1070
     1
1002
}
  0
DIMENSION
  5
7BC4
330
19
100
AcDbEntity
  8
3
100
AcDbDimension
280
     0
  2
*D4
 10
5721.800394986764
 20
7676.542350786556
 30
0.0
 11
3880.105780069127
 21
7676.542350786556
 31
0.0
 70
   160
 71
     5
 42
3299.999000000011
 73
     0
 74
     0
 75
     0
  3
IGA
100
AcDbAlignedDimension
 13
2421.801394986753
 23
8171.941722032995
 33
0.0
 14
5721.800394986764
 24
8171.941722034118
 34
0.0
100
AcDbRotatedDimension
1001
ACAD
1000
DSTYLE
1002
{
1070
   287
1070
     3
1070
    40
1040
50.0
1070
   143
1040
0.039
1070
   172
1070
     1
1070
   271
1070
     0
1070
   279
1070
     0
1070
   288
1070
     1
1002
}
  0
DIMENSION
  5
7BD1
330
19
100
AcDbEntity
  8
3
100
AcDbDimension
280
     0
  2
*D5
 10
1952.802193955883
 20
8171.941722032997
 30
0.0
 11
1952.802193955882
 21
9634.418469073629
 31
0.0
 70
   160
 71
     5
 42
-1.0
 73
     0
 74
     0
 75
     0
  3
IGA
100
AcDbAlignedDimension
 13
2421.800394985818
 23
10771.94172203299
 33
0.0
 14
2421.801394986753
 24
8171.941722032995
 34
0.0
 50
90.0
100
AcDbRotatedDimension
1001
ACAD
1000
DSTYLE
1002
{
1070
   287
1070
     3
1070
    40
1040
50.0
1070
   143
1040
0.039
1070
   172
1070
     1
1070
   271
1070
     0
1070
   279
1070
     0
1070
   288
1070
     1
1002
}
  0
LINE
  5
7CB0
330
19
100
AcDbEntity
  8
1
100
AcDbLine
 10
5721.800394988777
 20
3257.3930539997
 30
0.0
 11
5721.800394988749
 21
3332.3930539997
 31
0.0
  0
LINE
  5
7CB1
330
19
100
AcDbEntity
  8
1
100
AcDbLine
 10
5721.800394988741
 20
3352.3930539997
 30
0.0
 11
5721.800394988683
 21
3502.393053999699
 31
0.0
  0
DIMENSION
  5
7CBF
330
19
100
AcDbEntity
  8
3
100
AcDbDimension
280
     0
  2
*D6
 10
3371.800394987615
 20
6631.156441871244
 30
0.0
 11
2797.072499155686
 21
6631.156441871244
 31
0.0
 70
   160
 71
     5
 42
-1.0
 73
     0
 74
     0
 75
     0
  3
IGA
100
AcDbAlignedDimension
 13
2326.801394987629
 23
6282.287053998471
 33
0.0
 14
3371.800394987615
 24
6322.28705399885
 34
0.0
100
AcDbRotatedDimension
1001
ACAD
1000
DSTYLE
1002
{
1070
   287
1070
     3
1070
    40
1040
50.0
1070
   143
1040
0.039
1070
   172
1070
     1
1070
   271
1070
     0
1070
   279
1070
     0
1070
   288
1070
     1
1002
}
  0
DIMENSION
  5
7CCB
330
19
100
AcDbEntity
  8
3
100
AcDbDimension
280
     0
  2
*D7
 10
4742.800394988224
 20
6631.156441871244
 30
0.0
 11
4057.300394987919
 21
6756.156441871244
 31
0.0
 70
    32
 71
     5
 42
-1.0
 73
     0
 74
     0
 75
     0
  3
IGA
100
AcDbAlignedDimension
 13
3371.800394987615
 23
6322.28705399885
 33
0.0
 14
4742.800394988224
 24
4638.287053998808
 34
0.0
100
AcDbRotatedDimension
1001
ACAD
1000
DSTYLE
1002
{
1070
   287
1070
     4
1070
    40
1040
50.0
1070
    75
1070
     1
1070
   143
1040
0.039
1070
   172
1070
     1
1070
   271
1070
     0
1070
   279
1070
     1
1070
   288
1070
     1
1002
}
  0
DIMENSION
  5
7CD8
330
19
100
AcDbEntity
  8
3
100
AcDbDimension
280
     0
  2
*D8
 10
2053.016572717861
 20
4567.287053998473
 30
0.0
 11
2053.016572717861
 21
5407.770992573576
 31
0.0
 70
   160
 71
     5
 42
-1.0
 73
     0
 74
     0
 75
     0
  3
IGA
100
AcDbAlignedDimension
 13
2326.801394987655
 23
6217.287053998473
 33
0.0
 14
2326.801394988252
 24
4567.287053998473
 34
0.0
 50
90.0
100
AcDbRotatedDimension
1001
ACAD
1000
DSTYLE
1002
{
1070
   287
1070
     3
1070
    40
1040
50.0
1070
   143
1040
0.039
1070
   172
1070
     1
1070
   271
1070
     0
1070
   279
1070
     0
1070
   288
1070
     1
1002
}
  0
DIMENSION
  5
7CF2
330
19
100
AcDbEntity
  8
3
100
AcDbDimension
280
     0
  2
*D9
 10
1770.463690126723
 20
4522.28705399845
 30
0.0
 11
1770.463690126722
 21
5407.770992573576
 31
0.0
 70
   160
 71
     5
 42
-1.0
 73
     0
 74
     0
 75
     0
  3
IGA
100
AcDbAlignedDimension
 13
2326.801394987655
 23
6217.287053998473
 33
0.0
 14
2264.754011560613
 24
4522.287053998449
 34
0.0
 50
90.0
100
AcDbRotatedDimension
1001
ACAD
1000
DSTYLE
1002
{
1070
   287
1070
     3
1070
    40
1040
50.0
1070
   143
1040
0.039
1070
   172
1070
     1
1070
   271
1070
     0
1070
   279
1070
     0
1070
   288
1070
     1
1002
}
  0
DIMENSION
  5
7CFE
330
19
100
AcDbEntity
  8
3
100
AcDbDimension
280
     0
  2
*D10
 10
1770.463690126722
 20
3352.393053998507
 30
0.0
 11
1645.463690126722
 21
3937.340053998479
 31
0.0
 70
    32
 71
     5
 42
-1.0
 73
     0
 74
     0
 75
     0
  3
IGA
100
AcDbAlignedDimension
 13
2264.754011560613
 23
4522.287053998449
 33
0.0
 14
2421.800394988739
 24
3352.393053998507
 34
0.0
 50
90.0
100
AcDbRotatedDimension
1001
ACAD
1000
DSTYLE
1002
{
1070
   287
1070
     4
1070
    40
1040
50.0
1070
    75
1070
     1
1070
   143
1040
0.039
1070
   172
1070
     1
1070
   271
1070
     0
1070
   279
1070
     1
1070
   288
1070
     1
1002
}
  0
DIMENSION
  5
7D1E
330
19
100
AcDbEntity
  8
3
100
AcDbDimension
280
     0
  2
*D11
 10
1770.463690126722
 20
3257.393053998507
 30
0.0
 11
1645.463690126722
 21
2885.964482569935
 31
0.0
 70
    32
 71
     5
 42
-1.0
 73
     0
 74
     0
 75
     0
  3
IGA
100
AcDbAlignedDimension
 13
2421.800394988744
 23
3332.393053998507
 33
0.0
 14
2421.800394988772
 24
3257.393053998507
 34
0.0
 50
90.0
100
AcDbRotatedDimension
1001
ACAD
1000
DSTYLE
1002
{
1070
   287
1070
     3
1070
    40
1040
50.0
1070
   143
1040
0.039
1070
   172
1070
     1
1070
   271
1070
     0
1070
   279
1070
     0
1070
   288
1070
     1
1070
     6
1000
DOT
1002
}
  0
LINE
  5
7D6C
330
19
100
AcDbEntity
  8
1
100
AcDbLine
 10
6825.563430901794
 20
4132.393054000025
 30
0.0
 11
6825.56343090172
 21
4567.287053998955
 31
0.0
  0
DIMENSION
  5
7DAB
330
19
100
AcDbEntity
  8
3
100
AcDbDimension
280
     0
  2
*D13
 10
8945.731166717079
 20
6463.368414692465
 30
0.0
 11
7885.765659921614
 21
6463.368414692465
 31
0.0
 70
   160
 71
     5
 42
-1.0
 73
     0
 74
     0
 75
     0
  3
IGA
100
AcDbAlignedDimension
 13
6825.563430901441
 23
6217.287053998955
 33
0.0
 14
8945.731166717079
 24
6217.287053999196
 34
0.0
100
AcDbRotatedDimension
1001
ACAD
1000
DSTYLE
1002
{
1070
   287
1070
     3
1070
    40
1040
50.0
1070
   143
1040
0.039
1070
   172
1070
     1
1070
   271
1070
     0
1070
   279
1070
     0
1070
   288
1070
     1
1002
}
  0
DIMENSION
  5
7DB8
330
19
100
AcDbEntity
  8
3
100
AcDbDimension
280
     0
  2
*D14
 10
7885.557976899256
 20
6818.439712404222
 30
0.0
 11
8381.986548327827
 21
6818.439712404222
 31
0.0
 70
   160
  1
(<>)
 71
     5
 42
1300.206454002521
 73
     0
 74
     0
 75
     0
  3
IGA
100
AcDbAlignedDimension
 13
9185.764430901775
 23
4462.28705399922
 33
0.0
 14
7885.557976899256
 24
6703.432271061736
 34
0.0
100
AcDbRotatedDimension
1001
ACAD
1000
DSTYLE
1002
{
1070
   287
1070
     3
1070
    40
1040
50.0
1070
   143
1040
0.039
1070
   172
1070
     1
1070
   271
1070
     0
1070
   279
1070
     0
1070
   288
1070
     1
1002
}
  0
DIMENSION
  5
7DC4
330
19
100
AcDbEntity
  8
3
100
AcDbDimension
280
     0
  2
*D15
 10
6265.363430901706
 20
6818.439712404222
 30
0.0
 11
7075.460703900481
 21
6982.725426689937
 31
0.0
 70
    32
  1
(<>)
 71
     5
 42
1620.194545997549
 73
     0
 74
     0
 75
     0
  3
IGA
100
AcDbAlignedDimension
 13
7885.557976899256
 23
6703.432271061736
 33
0.0
 14
6265.363430901706
 24
5072.287053998908
 34
0.0
100
AcDbRotatedDimension
1001
ACAD
1000
DSTYLE
1002
{
1070
   287
1070
     4
1070
    40
1040
50.0
1070
    75
1070
     1
1070
   143
1040
0.039
1070
   172
1070
     1
1070
   271
1070
     0
1070
   279
1070
     1
1070
   288
1070
     1
1002
}
  0
DIMENSION
  5
7DFC
330
19
100
AcDbEntity
  8
3
100
AcDbDimension
280
     0
  2
*D16
 10
9503.262506236046
 20
3722.287053999198
 30
0.0
 11
9503.262506236046
 21
4485.526642574027
 31
0.0
 70
   160
 71
     5
 42
1600.0
 73
     0
 74
     0
 75
     0
  3
IGA
100
AcDbAlignedDimension
 13
8957.764430901681
 23
5322.287053999198
 33
0.0
 14
8957.764430901862
 24
3722.287053999198
 34
0.0
 50
90.0
100
AcDbRotatedDimension
1001
ACAD
1000
DSTYLE
1002
{
1070
   287
1070
     3
1070
     3
1000
φ<>
1070
    40
1040
50.0
1070
   143
1040
0.039
1070
   172
1070
     1
1070
   271
1070
     0
1070
   279
1070
     0
1070
   288
1070
     1
1002
}
  0
DIMENSION
  5
7E17
330
19
100
AcDbEntity
  8
3
100
AcDbDimension
280
     0
  2
*D17
 10
5721.800394988683
 20
6941.708169765036
 30
0.0
 11
4144.849819075825
 21
6941.708169765036
 31
0.0
 70
   160
 71
     5
 42
-1.0
 73
     0
 74
     0
 75
     0
  3
IGA
100
AcDbAlignedDimension
 13
2326.801394987629
 23
6282.287053998471
 33
0.0
 14
5721.800394988683
 24
3502.393053999699
 34
0.0
100
AcDbRotatedDimension
1001
ACAD
1000
DSTYLE
1002
{
1070
   287
1070
     3
1070
    40
1040
50.0
1070
   143
1040
0.039
1070
   172
1070
     1
1070
   271
1070
     0
1070
   279
1070
     0
1070
   288
1070
     1
1002
}
  0
LINE
  5
7EAD
330
19
100
AcDbEntity
  8
1
100
AcDbLine
 10
6424.557976899873
 20
3502.287053998911
 30
0.0
 11
6424.557976899899
 21
3352.287053998911
 31
0.0
  0
LINE
  5
7EAE
330
19
100
AcDbEntity
  8
1
100
AcDbLine
 10
9024.557976899872
 20
3502.287053999206
 30
0.0
 11
9024.557976899904
 21
3352.287053999206
 31
0.0
  0
LINE
  5
7EAF
330
19
100
AcDbEntity
  8
1
100
AcDbLine
 10
9024.557976899899
 20
3352.287053999206
 30
0.0
 11
6424.557976899901
 21
3352.287053998911
 31
0.0
  0
LINE
  5
7EB0
330
19
100
AcDbEntity
  8
1
100
AcDbLine
 10
9024.557976899872
 20
3502.287053999206
 30
0.0
 11
6424.557976899883
 21
3502.287053998911
 31
0.0
  0
LINE
  5
7EB2
330
19
100
AcDbEntity
  8
1
100
AcDbLine
 10
9024.557976899902
 20
3332.287053999205
 30
0.0
 11
6424.557976899902
 21
3332.287053998911
 31
0.0
  0
LINE
  5
7EB3
330
19
100
AcDbEntity
  8
1
100
AcDbLine
 10
9024.557976899911
 20
3257.287053999205
 30
0.0
 11
6424.557976899911
 21
3257.287053998911
 31
0.0
  0
LINE
  5
7EB4
330
19
100
AcDbEntity
  8
1
100
AcDbLine
 10
6424.557976899904
 20
3332.287053998911
 30
0.0
 11
6424.557976899918
 21
3257.28705399891
 31
0.0
  0
LINE
  5
7EB5
330
19
100
AcDbEntity
  8
1
100
AcDbLine
 10
9024.557976899906
 20
3332.287053999205
 30
0.0
 11
9024.557976899918
 21
3257.287053999205
 31
0.0
  0
LINE
  5
7EE0
330
19
100
AcDbEntity
  8
4
100
AcDbLine
 10
9250.0
 20
2010.088292425578
 30
0.0
 11
9250.0
 21
1010.088292425578
 31
0.0
  0
LINE
  5
7EE1
330
19
100
AcDbEntity
  8
4
100
AcDbLine
 10
5750.0
 20
2010.088292425578
 30
0.0
 11
5750.0
 21
1010.088292425578
 31
0.0
  0
LINE
  5
7EE2
330
19
100
AcDbEntity
  8
4
100
AcDbLine
 10
3250.0
 20
2010.088292425578
 30
0.0
 11
3250.0
 21
1010.088292425578
 31
0.0
  0
LINE
  5
7EE5
330
19
100
AcDbEntity
  8
4
100
AcDbLine
 10
3250.0
 20
1010.088292425578
 30
0.0
 11
9250.0
 21
1010.088292425578
 31
0.0
  0
LINE
  5
7EE6
330
19
100
AcDbEntity
  8
4
100
AcDbLine
 10
3250.0
 20
1510.088292425578
 30
0.0
 11
9250.0
 21
1510.088292425578
 31
0.0
  0
TEXT
  5
7EE7
330
19
100
AcDbEntity
  8
4
100
AcDbText
 10
3442.510404234508
 20
1667.803421758643
 30
0.0
 40
250.0
  1
機器名称
100
AcDbText
  0
TEXT
  5
7EE8
330
19
100
AcDbEntity
  8
4
100
AcDbText
 10
3431.290530123988
 20
1118.314076085633
 30
0.0
 40
250.0
  1
機器型番
100
AcDbText
  0
TEXT
  5
7EE9
330
19
100
AcDbEntity
  8
4
100
AcDbText
 10
5898.290360144589
 20
1631.129256116037
 30
0.0
 40
212.5
  1
ミツヤリミットロードファン
100
AcDbText
  0
TEXT
  5
7EEA
330
19
100
AcDbEntity
  8
4
100
AcDbText
 10
5933.272477927403
 20
1095.886213825295
 30
0.0
 40
250.0
  1
LL#10-5
100
AcDbText
  0
TEXT
  5
7EEC
330
19
100
AcDbEntity
  8
4
100
AcDbText
 10
3999.827685028839
 20
11917.14420666258
 30
0.0
 40
270.0
  1
床置防振ベット
100
AcDbText
  0
TEXT
  5
7EED
330
19
100
AcDbEntity
  8
4
100
AcDbText
 10
1493.487766422462
 20
12669.40488099649
 30
0.0
 40
360.0
  1
遠心式両吸込両持リミットロードファン
100
AcDbText
  0
LINE
  5
7EEE
330
19
100
AcDbEntity
  8
4
100
AcDbLine
 10
1250.0
 20
12347.04377132402
 30
0.0
 11
9250.0
 21
12347.04377132402
 31
0.0
  0
LINE
  5
7EEF
330
19
100
AcDbEntity
  8
4
100
AcDbLine
 10
1250.0
 20
13347.04377132402
 30
0.0
 11
9250.0
 21
13347.04377132402
 31
0.0
  0
LINE
  5
7EF0
330
19
100
AcDbEntity
  8
4
100
AcDbLine
 10
3250.0
 20
2010.088292425578
 30
0.0
 11
9250.0
 21
2010.088292425578
 31
0.0
  0
LINE
  5
7EF1
330
19
100
AcDbEntity
  8
4
100
AcDbLine
 10
1250.0
 20
13347.04377132402
 30
0.0
 11
1250.0
 21
12347.04377132402
 31
0.0
  0
TEXT
  5
7EF2
330
19
100
AcDbEntity
  8
4
100
AcDbText
 10
1820.533523815327
 20
11911.59738773172
 30
0.0
 40
270.0
  1
左回転左横向
100
AcDbText
  0
TEXT
  5
7EF3
330
19
100
AcDbEntity
  8
4
100
AcDbText
 10
7344.847796246449
 20
13530.30540747654
 30
0.0
 40
280.0
  1
No.
100
AcDbText
  0
TEXT
  5
7EF4
330
19
100
AcDbEntity
  8
4
100
AcDbText
 10
6556.480313000065
 20
11917.14420666258
 30
0.0
 40
270.0
  1
縮尺：1/50
100
AcDbText
  0
LINE
  5
7EF5
330
19
100
AcDbEntity
  8
4
100
AcDbLine
 10
9250.0
 20
13347.04377132402
 30
0.0
 11
9250.0
 21
12347.04377132402
 31
0.0
  0
LINE
  5
7EF6
330
19
100
AcDbEntity
  8
4
100
AcDbLine
 10
10500.0
 20
14750.0
 30
0.0
 11
10500.0
 21
14750.0
 31
0.0
  0
LINE
  5
7EF7
330
19
100
AcDbEntity
  8
4
100
AcDbLine
 10
7203.087111799323
 20
13406.317915627
 30
0.0
 11
7203.087111799323
 21
13933.26130774876
 31
0.0
  0
LINE
  5
7EF8
330
19
100
AcDbEntity
  8
4
100
AcDbLine
 10
7203.087111799323
 20
13933.26130774876
 30
0.0
 11
9250.0
 21
13933.26130774876
 31
0.0
  0
LINE
  5
7EF9
330
19
100
AcDbEntity
  8
4
100
AcDbLine
 10
9250.0
 20
13933.26130774876
 30
0.0
 11
9250.0
 21
13406.317915627
 31
0.0
  0
LINE
  5
7EFA
330
19
100
AcDbEntity
  8
4
100
AcDbLine
 10
9250.0
 20
13406.317915627
 30
0.0
 11
7203.087111799323
 21
13406.317915627
 31
0.0
  0
LINE
  5
7EFB
330
19
100
AcDbEntity
  8
4
100
AcDbLine
 10
0.0
 20
0.0
 30
0.0
 11
0.0
 21
14750.0
 31
0.0
  0
LINE
  5
7EFC
330
19
100
AcDbEntity
  8
4
100
AcDbLine
 10
0.0
 20
14750.0
 30
0.0
 11
10500.0
 21
14750.0
 31
0.0
  0
LINE
  5
7EFD
330
19
100
AcDbEntity
  8
4
100
AcDbLine
 10
10500.0
 20
14750.0
 30
0.0
 11
10500.0
 21
0.0
 31
0.0
  0
LINE
  5
7EFE
330
19
100
AcDbEntity
  8
4
100
AcDbLine
 10
10500.0
 20
0.0
 30
0.0
 11
0.0
 21
0.0
 31
0.0
  0
DIMENSION
  5
7F3C
330
19
100
AcDbEntity
  8
3
100
AcDbDimension
280
     0
  2
*D18
 10
3371.800394988777
 20
2915.942188448669
 30
0.0
 11
2896.800394988774
 21
3040.942188448669
 31
0.0
 70
    32
 71
     5
 42
-1.0
 73
     0
 74
     0
 75
     0
  3
IGA
100
AcDbAlignedDimension
 13
2421.800394988772
 23
3257.393053998507
 33
0.0
 14
3371.800394988777
 24
3257.39305399885
 34
0.0
100
AcDbRotatedDimension
1001
ACAD
1000
DSTYLE
1002
{
1070
   172
1070
     1
1070
    40
1040
50.0
1070
   271
1070
     0
1070
   143
1040
0.039
1002
}
  0
DIMENSION
  5
7F49
330
19
100
AcDbEntity
  8
3
100
AcDbDimension
280
     0
  2
*D19
 10
5721.800394988777
 20
2915.942188448669
 30
0.0
 11
4546.800394988777
 21
3040.942188448669
 31
0.0
 70
    32
 71
     5
 42
-1.0
 73
     0
 74
     0
 75
     0
  3
IGA
100
AcDbAlignedDimension
 13
3371.800394988777
 23
3257.39305399885
 33
0.0
 14
5721.800394988777
 24
3257.3930539997
 34
0.0
100
AcDbRotatedDimension
1001
ACAD
1000
DSTYLE
1002
{
1070
   172
1070
     1
1070
    40
1040
50.0
1070
   271
1070
     0
1070
   143
1040
0.039
1002
}
  0
DIMENSION
  5
7F56
330
19
100
AcDbEntity
  8
3
100
AcDbDimension
280
     0
  2
*D20
 10
7885.557976899939
 20
2915.942188448669
 30
0.0
 11
7155.057976899929
 21
3040.942188448669
 31
0.0
 70
    32
 71
     5
 42
-1.0
 73
     0
 74
     0
 75
     0
  3
IGA
100
AcDbAlignedDimension
 13
6424.557976899918
 23
3257.28705399891
 33
0.0
 14
7885.557976899939
 24
3257.287053999076
 34
0.0
100
AcDbRotatedDimension
1001
ACAD
1000
DSTYLE
1002
{
1070
   172
1070
     1
1070
    40
1040
50.0
1070
   271
1070
     0
1070
   143
1040
0.039
1002
}
  0
DIMENSION
  5
7F63
330
19
100
AcDbEntity
  8
3
100
AcDbDimension
280
     0
  2
*D21
 10
9024.557976899918
 20
2915.942188448669
 30
0.0
 11
8455.057976899928
 21
3040.942188448669
 31
0.0
 70
    32
 71
     5
 42
-1.0
 73
     0
 74
     0
 75
     0
  3
IGA
100
AcDbAlignedDimension
 13
7885.557976899939
 23
3257.287053999076
 33
0.0
 14
9024.557976899918
 24
3257.287053999205
 34
0.0
100
AcDbRotatedDimension
1001
ACAD
1000
DSTYLE
1002
{
1070
   172
1070
     1
1070
    40
1040
50.0
1070
   271
1070
     0
1070
   143
1040
0.039
1002
}
  0
DIMENSION
  5
7F72
330
19
100
AcDbEntity
  8
3
100
AcDbDimension
280
     0
  2
*D23
 10
1765.831986657838
 20
3352.393053998507
 30
0.0
 11
1526.546272372124
 21
3342.393053998506
 31
0.0
 70
    32
  1
   <>
 71
     5
 42
-1.0
 73
     0
 74
     0
 75
     0
  3
IGA
100
AcDbAlignedDimension
 13
2421.800394988744
 23
3332.393053998507
 33
0.0
 14
2421.800394988739
 24
3352.393053998507
 34
0.0
 50
90.0
100
AcDbRotatedDimension
1001
ACAD
1000
DSTYLE
1002
{
1070
   172
1070
     1
1070
    76
1070
     1
1070
    75
1070
     1
1070
    40
1040
50.0
1070
     3
1000
(<>)
1070
   271
1070
     0
1070
     7
1000
_NONE
1070
     6
1000
_NONE
1070
   143
1040
0.039
1002
}
  0
DIMENSION
  5
7F9A
330
19
100
AcDbEntity
  8
3
100
AcDbDimension
280
     0
  2
*D24
 10
1297.474915423008
 20
6217.287053998473
 30
0.0
 11
1133.189201137294
 21
4737.340053998489
 31
0.0
 70
    32
 71
     5
 42
-1.0
 73
     0
 74
     0
 75
     0
  3
IGA
100
AcDbAlignedDimension
 13
2421.800394988772
 23
3257.393053998507
 33
0.0
 14
2301.801394987655
 24
6217.287053998473
 34
0.0
 50
90.0
100
AcDbRotatedDimension
1001
ACAD
1000
DSTYLE
1002
{
1070
   172
1070
     1
1070
    40
1040
50.0
1070
     3
1000
(<>)
1070
   271
1070
     0
1070
   143
1040
0.039
1002
}
  0
ENDSEC
  0
SECTION
  2
OBJECTS
  0
DICTIONARY
  5
C
330
0
100
AcDbDictionary
281
     1
  3
ACAD_CIP_PREVIOUS_PRODUCT_INFO
350
80C6
  3
ACAD_COLOR
350
80A9
  3
ACAD_DETAILVIEWSTYLE
350
80C2
  3
ACAD_GROUP
350
D
  3
ACAD_LAYOUT
350
7FA8
  3
ACAD_MATERIAL
350
8077
  3
ACAD_MLEADERSTYLE
350
80BE
  3
ACAD_MLINESTYLE
350
E
  3
ACAD_PLOTSETTINGS
350
7FA9
  3
ACAD_PLOTSTYLENAME
350
7FA6
  3
ACAD_SCALELIST
350
80AC
  3
ACAD_SECTIONVIEWSTYLE
350
80C0
  3
ACAD_TABLESTYLE
350
80AA
  3
ACAD_VISUALSTYLE
350
8090
  3
ACDB_RECOMPOSE_DATA
350
8138
  3
AcDbVariableDictionary
350
806E
  3
AcDsDecomposeData
350
813E
  0
DICTIONARY
  5
811C
330
2
100
AcDbDictionary
280
     1
281
     1
  3
ACAD_LAYERSTATES
360
811D
  0
DICTIONARY
  5
810F
330
F
100
AcDbDictionary
280
     1
281
     1
  3
ADSK_XREC_LAYER_RECONCILED
360
8110
  0
DICTIONARY
  5
8111
330
31
100
AcDbDictionary
280
     1
281
     1
  3
ADSK_XREC_LAYER_RECONCILED
360
8112
  0
DICTIONARY
  5
8113
330
76D0
100
AcDbDictionary
280
     1
281
     1
  3
ADSK_XREC_LAYER_RECONCILED
360
8114
  0
DICTIONARY
  5
8115
330
76D1
100
AcDbDictionary
280
     1
281
     1
  3
ADSK_XREC_LAYER_RECONCILED
360
8116
  0
DICTIONARY
  5
8117
330
76D2
100
AcDbDictionary
280
     1
281
     1
  3
ADSK_XREC_LAYER_RECONCILED
360
8118
  0
DICTIONARY
  5
7FD5
330
19
100
AcDbDictionary
280
     1
281
     1
  3
ACAD_LAYOUTSELFREF
360
7FD6
  0
DICTIONARY
  5
7FD3
330
16
100
AcDbDictionary
280
     1
281
     1
  3
ACAD_LAYOUTSELFREF
360
7FD4
  0
XRECORD
  5
80C6
102
{ACAD_REACTORS
330
C
102
}
330
C
100
AcDbXrecord
280
     1
300
ACDLT
300
2023
300

  0
DICTIONARY
  5
80A9
102
{ACAD_REACTORS
330
C
102
}
330
C
100
AcDbDictionary
281
     1
  0
DICTIONARY
  5
80C2
102
{ACAD_REACTORS
330
C
102
}
330
C
100
AcDbDictionary
281
     1
  3
Metric50
350
80C3
  0
DICTIONARY
  5
D
102
{ACAD_REACTORS
330
C
102
}
330
C
100
AcDbDictionary
281
     1
  0
DICTIONARY
  5
7FA8
102
{ACAD_REACTORS
330
C
102
}
330
C
100
AcDbDictionary
281
     1
  3
Model
350
7FAA
  3
ﾚｲｱｳﾄ1
350
7FAB
  0
DICTIONARY
  5
8077
102
{ACAD_REACTORS
330
C
102
}
330
C
100
AcDbDictionary
281
     1
  3
ByBlock
350
8080
  3
ByLayer
350
8078
  3
Global
350
8088
  0
DICTIONARY
  5
80BE
102
{ACAD_REACTORS
330
C
102
}
330
C
100
AcDbDictionary
281
     1
  3
Standard
350
80BF
  0
DICTIONARY
  5
E
102
{ACAD_REACTORS
330
C
102
}
330
C
100
AcDbDictionary
281
     1
  3
STANDARD
350
1C
  0
DICTIONARY
  5
7FA9
102
{ACAD_REACTORS
330
C
102
}
330
C
100
AcDbDictionary
281
     1
  0
ACDBDICTIONARYWDFLT
  5
7FA6
102
{ACAD_REACTORS
330
C
102
}
330
C
100
AcDbDictionary
281
     1
  3
Normal
350
7FA7
100
AcDbDictionaryWithDefault
340
7FA7
  0
DICTIONARY
  5
80AC
102
{ACAD_REACTORS
330
C
102
}
330
C
100
AcDbDictionary
281
     1
  3
A0
350
80AD
  3
A1
350
80AE
  3
A2
350
80AF
  3
A3
350
80B0
  3
A4
350
80B1
  3
A5
350
80B2
  3
A6
350
80B3
  3
A7
350
80B4
  3
A8
350
80B5
  3
A9
350
80B6
  3
B0
350
80B7
  3
B1
350
80B8
  3
B2
350
80B9
  3
B3
350
80BA
  3
B4
350
80BB
  3
B5
350
80BC
  3
B6
350
80BD
  0
DICTIONARY
  5
80C0
102
{ACAD_REACTORS
330
C
102
}
330
C
100
AcDbDictionary
281
     1
  3
Metric50
350
80C1
  0
DICTIONARY
  5
80AA
102
{ACAD_REACTORS
330
C
102
}
330
C
100
AcDbDictionary
281
     1
  3
Standard
350
80AB
  0
DICTIONARY
  5
8090
102
{ACAD_REACTORS
330
C
102
}
330
C
100
AcDbDictionary
281
     1
  3
2dWireframe
350
8096
  3
Basic
350
8095
  3
Brighten
350
809C
  3
ColorChange
350
80A0
  3
Conceptual
350
8099
  3
Dim
350
809B
  3
EdgeColorOff
350
80A8
  3
Facepattern
350
809F
  3
Flat
350
8091
  3
FlatWithEdges
350
8092
  3
Gouraud
350
8093
  3
GouraudWithEdges
350
8094
  3
Hidden
350
8098
  3
JitterOff
350
80A6
  3
Linepattern
350
809E
  3
OverhangOff
350
80A7
  3
Realistic
350
809A
  3
Shaded
350
80A5
  3
Shaded with edges
350
80A4
  3
Shades of Gray
350
80A1
  3
Sketchy
350
80A2
  3
Thicken
350
809D
  3
Wireframe
350
8097
  3
X-Ray
350
80A3
  0
XRECORD
  5
8138
102
{ACAD_REACTORS
330
C
102
}
330
C
100
AcDbXrecord
280
     1
 90
        1
330
80AB
  0
DICTIONARY
  5
806E
102
{ACAD_REACTORS
330
C
102
}
330
C
100
AcDbDictionary
281
     1
  3
CANNOSCALE
350
812D
  3
CMLEADERSTYLE
350
8129
  3
CTABLESTYLE
350
8128
  3
CVIEWDETAILSTYLE
350
812A
  3
CVIEWSECTIONSTYLE
350
812B
  3
DIMASSOC
350
806F
  3
LAYEREVAL
350
812F
  3
LAYERNOTIFY
350
8130
  3
LIGHTINGUNITS
350
812E
  3
MARKUPASSISTMODE
350
8135
  3
MSLTSCALE
350
812C
  0
DICTIONARY
  5
813E
102
{ACAD_REACTORS
330
C
102
}
330
C
100
AcDbDictionary
281
     1
  3
AcDsRecords
350
8140
  3
AcDsSchemas
350
813F
1001
ACAD
1070
     2
  0
DICTIONARY
  5
811D
102
{ACAD_REACTORS
330
811C
102
}
330
811C
100
AcDbDictionary
281
     1
  0
XRECORD
  5
8110
102
{ACAD_REACTORS
330
810F
102
}
330
810F
100
AcDbXrecord
280
     1
290
     1
  0
XRECORD
  5
8112
102
{ACAD_REACTORS
330
8111
102
}
330
8111
100
AcDbXrecord
280
     1
290
     1
  0
XRECORD
  5
8114
102
{ACAD_REACTORS
330
8113
102
}
330
8113
100
AcDbXrecord
280
     1
290
     1
  0
XRECORD
  5
8116
102
{ACAD_REACTORS
330
8115
102
}
330
8115
100
AcDbXrecord
280
     1
290
     1
  0
XRECORD
  5
8118
102
{ACAD_REACTORS
330
8117
102
}
330
8117
100
AcDbXrecord
280
     1
290
     1
  0
XRECORD
  5
7FD6
102
{ACAD_REACTORS
330
7FD5
102
}
330
7FD5
100
AcDbXrecord
280
     1
340
19
  0
XRECORD
  5
7FD4
102
{ACAD_REACTORS
330
7FD3
102
}
330
7FD3
100
AcDbXrecord
280
     1
340
16
  0
ACDBDETAILVIEWSTYLE
  5
80C3
102
{ACAD_XDICTIONARY
360
8143
102
}
102
{ACAD_REACTORS
330
80C2
102
}
330
80C2
100
AcDbModelDocViewStyle
 70
     0
  3
Metric50
290
     0
100
AcDbDetailViewStyle
 70
     0
 71
     0
 90
        3
 71
     1
340
10
 62
   256
 40
5.0
340
0
 62
   256
 40
5.0
300

 40
0.0
280
     1
 71
     2
340
15
 90
       25
 62
   256
 71
     3
340
10
 62
   256
 40
5.0
 90
        0
 40
15.0
 90
        1
300
%<\AcVar ViewDetailId>% (%<\AcVar ViewScale \f "%sn">%)
 71
     4
340
15
 90
       25
 62
   256
340
15
 90
       25
 62
   256
280
     0
  0
LAYOUT
  5
7FAA
102
{ACAD_REACTORS
330
7FA8
102
}
330
7FA8
100
AcDbPlotSettings
  1

  2
\\Txbo34x8944cqyd\EPSON LP-6100
  4

  6

 40
0.0
 41
0.0
 42
0.0
 43
0.0
 44
0.0
 45
0.0
 46
0.0
 47
0.0
 48
0.0
 49
0.0
140
0.0
141
0.0
142
1.0
143
1.0
 70
  1712
 72
     0
 73
     0
 74
     0
  7
GOD2000TABLE.ctb
 75
     0
147
1.0
 76
     0
 77
     2
 78
   300
148
0.0
149
0.0
100
AcDbLayout
  1
Model
 70
     1
 71
     0
 10
0.0
 20
0.0
 11
12.0
 21
9.0
 12
0.0
 22
0.0
 32
0.0
 14
0.0
 24
0.0
 34
0.0
 15
0.0
 25
0.0
 35
0.0
146
0.0
 13
0.0
 23
0.0
 33
0.0
 16
1.0
 26
0.0
 36
0.0
 17
0.0
 27
1.0
 37
0.0
 76
     0
330
19
331
8075
  0
LAYOUT
  5
7FAB
102
{ACAD_REACTORS
330
7FA8
102
}
330
7FA8
100
AcDbPlotSettings
  1

  2
\\Txbo34x8944cqyd\EPSON LP-6100
  4

  6

 40
0.0
 41
0.0
 42
0.0
 43
0.0
 44
0.0
 45
0.0
 46
0.0
 47
0.0
 48
0.0
 49
0.0
140
0.0
141
0.0
142
1.0
143
1.0
 70
   688
 72
     0
 73
     0
 74
     5
  7
GOD2000TABLE.ctb
 75
    16
147
1.0
 76
     0
 77
     2
 78
   300
148
0.0
149
0.0
100
AcDbLayout
  1
ﾚｲｱｳﾄ1
 70
     1
 71
     1
 10
0.0
 20
0.0
 11
12.0
 21
9.0
 12
0.0
 22
0.0
 32
0.0
 14
1.000000000000000E+20
 24
1.000000000000000E+20
 34
1.000000000000000E+20
 15
-1.000000000000000E+20
 25
-1.000000000000000E+20
 35
-1.000000000000000E+20
146
0.0
 13
0.0
 23
0.0
 33
0.0
 16
1.0
 26
0.0
 36
0.0
 17
0.0
 27
1.0
 37
0.0
 76
     0
330
16
  0
MATERIAL
  5
8080
102
{ACAD_XDICTIONARY
360
8081
102
}
102
{ACAD_REACTORS
330
8077
102
}
330
8077
100
AcDbMaterial
  1
ByBlock
 72
     0
 43
0.0208333333333333
 43
0.0
 43
0.0
 43
0.0
 43
0.0
 43
0.0208333333333333
 43
0.0
 43
0.0
 43
0.0
 43
0.0
 43
1.0
 43
0.0
 43
0.0
 43
0.0
 43
0.0
 43
1.0
 77
     0
 47
0.0208333333333333
 47
0.0
 47
0.0
 47
0.0
 47
0.0
 47
0.0208333333333333
 47
0.0
 47
0.0
 47
0.0
 47
0.0
 47
1.0
 47
0.0
 47
0.0
 47
0.0
 47
0.0
 47
1.0
171
     0
 49
0.0208333333333333
 49
0.0
 49
0.0
 49
0.0
 49
0.0
 49
0.0208333333333333
 49
0.0
 49
0.0
 49
0.0
 49
0.0
 49
1.0
 49
0.0
 49
0.0
 49
0.0
 49
0.0
 49
1.0
175
     0
142
0.0208333333333333
142
0.0
142
0.0
142
0.0
142
0.0
142
0.0208333333333333
142
0.0
142
0.0
142
0.0
142
0.0
142
1.0
142
0.0
142
0.0
142
0.0
142
0.0
142
1.0
179
     0
144
0.0208333333333333
144
0.0
144
0.0
144
0.0
144
0.0
144
0.0208333333333333
144
0.0
144
0.0
144
0.0
144
0.0
144
1.0
144
0.0
144
0.0
144
0.0
144
0.0
144
1.0
147
0.0208333333333333
147
0.0
147
0.0
147
0.0
147
0.0
147
0.0208333333333333
147
0.0
147
0.0
147
0.0
147
0.0
147
1.0
147
0.0
147
0.0
147
0.0
147
0.0
147
1.0
  0
MATERIAL
  5
8078
102
{ACAD_XDICTIONARY
360
8079
102
}
102
{ACAD_REACTORS
330
8077
102
}
330
8077
100
AcDbMaterial
  1
ByLayer
 72
     0
 43
0.0208333333333333
 43
0.0
 43
0.0
 43
0.0
 43
0.0
 43
0.0208333333333333
 43
0.0
 43
0.0
 43
0.0
 43
0.0
 43
1.0
 43
0.0
 43
0.0
 43
0.0
 43
0.0
 43
1.0
 77
     0
 47
0.0208333333333333
 47
0.0
 47
0.0
 47
0.0
 47
0.0
 47
0.0208333333333333
 47
0.0
 47
0.0
 47
0.0
 47
0.0
 47
1.0
 47
0.0
 47
0.0
 47
0.0
 47
0.0
 47
1.0
171
     0
 49
0.0208333333333333
 49
0.0
 49
0.0
 49
0.0
 49
0.0
 49
0.0208333333333333
 49
0.0
 49
0.0
 49
0.0
 49
0.0
 49
1.0
 49
0.0
 49
0.0
 49
0.0
 49
0.0
 49
1.0
175
     0
142
0.0208333333333333
142
0.0
142
0.0
142
0.0
142
0.0
142
0.0208333333333333
142
0.0
142
0.0
142
0.0
142
0.0
142
1.0
142
0.0
142
0.0
142
0.0
142
0.0
142
1.0
179
     0
144
0.0208333333333333
144
0.0
144
0.0
144
0.0
144
0.0
144
0.0208333333333333
144
0.0
144
0.0
144
0.0
144
0.0
144
1.0
144
0.0
144
0.0
144
0.0
144
0.0
144
1.0
147
0.0208333333333333
147
0.0
147
0.0
147
0.0
147
0.0
147
0.0208333333333333
147
0.0
147
0.0
147
0.0
147
0.0
147
1.0
147
0.0
147
0.0
147
0.0
147
0.0
147
1.0
  0
MATERIAL
  5
8088
102
{ACAD_XDICTIONARY
360
8089
102
}
102
{ACAD_REACTORS
330
8077
102
}
330
8077
100
AcDbMaterial
  1
Global
 72
     0
 43
0.0208333333333333
 43
0.0
 43
0.0
 43
0.0
 43
0.0
 43
0.0208333333333333
 43
0.0
 43
0.0
 43
0.0
 43
0.0
 43
1.0
 43
0.0
 43
0.0
 43
0.0
 43
0.0
 43
1.0
 77
     0
 47
0.0208333333333333
 47
0.0
 47
0.0
 47
0.0
 47
0.0
 47
0.0208333333333333
 47
0.0
 47
0.0
 47
0.0
 47
0.0
 47
1.0
 47
0.0
 47
0.0
 47
0.0
 47
0.0
 47
1.0
171
     0
 49
0.0208333333333333
 49
0.0
 49
0.0
 49
0.0
 49
0.0
 49
0.0208333333333333
 49
0.0
 49
0.0
 49
0.0
 49
0.0
 49
1.0
 49
0.0
 49
0.0
 49
0.0
 49
0.0
 49
1.0
175
     0
142
0.0208333333333333
142
0.0
142
0.0
142
0.0
142
0.0
142
0.0208333333333333
142
0.0
142
0.0
142
0.0
142
0.0
142
1.0
142
0.0
142
0.0
142
0.0
142
0.0
142
1.0
179
     0
144
0.0208333333333333
144
0.0
144
0.0
144
0.0
144
0.0
144
0.0208333333333333
144
0.0
144
0.0
144
0.0
144
0.0
144
1.0
144
0.0
144
0.0
144
0.0
144
0.0
144
1.0
147
0.0208333333333333
147
0.0
147
0.0
147
0.0
147
0.0
147
0.0208333333333333
147
0.0
147
0.0
147
0.0
147
0.0
147
1.0
147
0.0
147
0.0
147
0.0
147
0.0
147
1.0
  0
MLEADERSTYLE
  5
80BF
102
{ACAD_REACTORS
330
80BE
102
}
330
80BE
100
AcDbMLeaderStyle
179
     2
170
     2
171
     1
172
     0
 90
        2
 40
0.0
 41
0.0
173
     1
 91
-1056964608
340
13
 92
       -2
290
     1
 42
2.0
291
     1
 43
0.36
  3
Standard
 44
4.0
300

342
10
174
     1
178
     6
175
     1
176
     0
 93
-1056964608
 45
4.0
292
     0
297
     0
 46
4.0
 94
-1056964608
 47
1.0
 49
1.0
140
1.0
293
     1
141
0.0
294
     1
177
     0
142
1.0
295
     0
296
     0
143
0.125
271
     0
272
     9
273
     9
298
     1
  0
MLINESTYLE
  5
1C
102
{ACAD_REACTORS
330
E
102
}
330
E
100
AcDbMlineStyle
  2
STANDARD
 70
     0
  3

 62
     0
 51
90.0
 52
90.0
 71
     2
 49
0.5
 62
   256
  6
BYLAYER
 49
-0.5
 62
   256
  6
BYLAYER
  0
ACDBPLACEHOLDER
  5
7FA7
102
{ACAD_REACTORS
330
7FA6
102
}
330
7FA6
  0
SCALE
  5
80AD
102
{ACAD_REACTORS
330
80AC
102
}
330
80AC
100
AcDbScale
 70
     0
300
1:1
140
1.0
141
1.0
290
     1
  0
SCALE
  5
80AE
102
{ACAD_REACTORS
330
80AC
102
}
330
80AC
100
AcDbScale
 70
     0
300
1:2
140
1.0
141
2.0
290
     0
  0
SCALE
  5
80AF
102
{ACAD_REACTORS
330
80AC
102
}
330
80AC
100
AcDbScale
 70
     0
300
1:4
140
1.0
141
4.0
290
     0
  0
SCALE
  5
80B0
102
{ACAD_REACTORS
330
80AC
102
}
330
80AC
100
AcDbScale
 70
     0
300
1:5
140
1.0
141
5.0
290
     0
  0
SCALE
  5
80B1
102
{ACAD_REACTORS
330
80AC
102
}
330
80AC
100
AcDbScale
 70
     0
300
1:8
140
1.0
141
8.0
290
     0
  0
SCALE
  5
80B2
102
{ACAD_REACTORS
330
80AC
102
}
330
80AC
100
AcDbScale
 70
     0
300
1:10
140
1.0
141
10.0
290
     0
  0
SCALE
  5
80B3
102
{ACAD_REACTORS
330
80AC
102
}
330
80AC
100
AcDbScale
 70
     0
300
1:16
140
1.0
141
16.0
290
     0
  0
SCALE
  5
80B4
102
{ACAD_REACTORS
330
80AC
102
}
330
80AC
100
AcDbScale
 70
     0
300
1:20
140
1.0
141
20.0
290
     0
  0
SCALE
  5
80B5
102
{ACAD_REACTORS
330
80AC
102
}
330
80AC
100
AcDbScale
 70
     0
300
1:30
140
1.0
141
30.0
290
     0
  0
SCALE
  5
80B6
102
{ACAD_REACTORS
330
80AC
102
}
330
80AC
100
AcDbScale
 70
     0
300
1:40
140
1.0
141
40.0
290
     0
  0
SCALE
  5
80B7
102
{ACAD_REACTORS
330
80AC
102
}
330
80AC
100
AcDbScale
 70
     0
300
1:50
140
1.0
141
50.0
290
     0
  0
SCALE
  5
80B8
102
{ACAD_REACTORS
330
80AC
102
}
330
80AC
100
AcDbScale
 70
     0
300
1:100
140
1.0
141
100.0
290
     0
  0
SCALE
  5
80B9
102
{ACAD_REACTORS
330
80AC
102
}
330
80AC
100
AcDbScale
 70
     0
300
2:1
140
2.0
141
1.0
290
     0
  0
SCALE
  5
80BA
102
{ACAD_REACTORS
330
80AC
102
}
330
80AC
100
AcDbScale
 70
     0
300
4:1
140
4.0
141
1.0
290
     0
  0
SCALE
  5
80BB
102
{ACAD_REACTORS
330
80AC
102
}
330
80AC
100
AcDbScale
 70
     0
300
8:1
140
8.0
141
1.0
290
     0
  0
SCALE
  5
80BC
102
{ACAD_REACTORS
330
80AC
102
}
330
80AC
100
AcDbScale
 70
     0
300
10:1
140
10.0
141
1.0
290
     0
  0
SCALE
  5
80BD
102
{ACAD_REACTORS
330
80AC
102
}
330
80AC
100
AcDbScale
 70
     0
300
100:1
140
100.0
141
1.0
290
     0
  0
ACDBSECTIONVIEWSTYLE
  5
80C1
102
{ACAD_XDICTIONARY
360
8141
102
}
102
{ACAD_REACTORS
330
80C0
102
}
330
80C0
100
AcDbModelDocViewStyle
 70
     0
  3
Metric50
290
     0
100
AcDbSectionViewStyle
 70
     0
 71
     0
 90
      102
 71
     1
340
10
 62
   256
 40
5.0
340
0
340
0
 62
   256
 40
5.0
300
I, O, Q, S, X, Z
 40
10.0
 90
        0
 40
2.5
 90
        0
 71
     2
340
15
 90
       25
 62
   256
340
15
 90
       50
 62
   256
 40
5.0
 40
2.5
 40
5.0
 71
     3
340
10
 62
   256
 40
5.0
 90
        0
 40
15.0
 90
        1
300
%<\AcVar ViewSectionStartId>%-%<\AcVar ViewSectionEndId>% (%<\AcVar ViewScale \f "%sn">%)
 71
     4
 62
   256
 62
   257
300
ANSI31
 40
1.0
 90
        0
290
     0
290
     0
 90
        6
 40
0.0
 40
1.570796326794896
 40
0.2617993877991494
 40
1.308996938995747
 40
-0.2617993877991494
 40
1.832595714594046
  0
TABLESTYLE
  5
80AB
102
{ACAD_XDICTIONARY
360
8136
102
}
102
{ACAD_REACTORS
330
80AA
102
}
330
80AA
100
AcDbTableStyle
280
     0
  3
Standard
 70
     0
 71
     0
 40
1.5
 41
1.5
280
     0
281
     0
  7
STANDARD
140
4.5
170
     2
 62
     0
 63
     7
283
     0
 90
      512
 91
        0
  1

274
    -2
284
     1
 64
     0
275
    -2
285
     1
 65
     0
276
    -2
286
     1
 66
     0
277
    -2
287
     1
 67
     0
278
    -2
288
     1
 68
     0
279
    -2
289
     1
 69
     0
  7
STANDARD
140
6.0
170
     5
 62
     0
 63
     7
283
     0
 90
      512
 91
        0
  1

274
    -2
284
     1
 64
     0
275
    -2
285
     1
 65
     0
276
    -2
286
     1
 66
     0
277
    -2
287
     1
 67
     0
278
    -2
288
     1
 68
     0
279
    -2
289
     1
 69
     0
  7
STANDARD
140
4.5
170
     5
 62
     0
 63
     7
283
     0
 90
      512
 91
        0
  1

274
    -2
284
     1
 64
     0
275
    -2
285
     1
 65
     0
276
    -2
286
     1
 66
     0
277
    -2
287
     1
 67
     0
278
    -2
288
     1
 68
     0
279
    -2
289
     1
 69
     0
  0
VISUALSTYLE
  5
8096
102
{ACAD_REACTORS
330
8090
102
}
330
8090
100
AcDbVisualStyle
  2
2dWireframe
 70
     4
177
     3
291
     0
 70
    58
 90
        0
176
     1
 90
        2
176
     1
 90
        0
176
     1
 90
        0
176
     1
 40
0.6
176
     1
 40
30.0
176
     1
 62
     7
420
 16777215
176
     1
 90
        1
176
     1
 90
        4
176
     1
 62
     7
176
     1
 62
   257
176
     1
 90
        1
176
     1
 90
        1
176
     1
 40
1.0
176
     1
 90
        0
176
     1
 62
   257
176
     1
 40
1.0
176
     1
 90
        1
176
     1
 90
        6
176
     1
 90
        2
176
     1
 62
     7
176
     1
 90
        5
176
     1
 90
        0
176
     1
 90
        0
176
     1
290
     0
176
     1
 90
        1
176
     1
 40
0.0
176
     1
 90
        0
176
     1
290
     1
176
     1
290
     1
176
     1
290
     0
176
     1
290
     0
176
     1
290
     0
176
     1
290
     0
176
     1
290
     0
176
     1
290
     0
176
     1
290
     0
176
     1
 90
       50
176
     1
 40
0.0
176
     1
 40
1.0
176
     1
 90
        0
176
     1
 62
    18
420
        0
176
     1
 90
       50
176
     1
 90
        3
176
     1
 62
     5
420
      255
176
     1
290
     0
176
     1
 90
       50
176
     1
 90
       50
176
     1
 90
       50
176
     1
290
     0
176
     1
 90
       50
176
     1
 62
   256
176
     0
 40
1.0
176
     0
 90
        2
176
     1
  1
strokes_ogs.tif
176
     1
290
     0
176
     1
 40
1.0
176
     1
 40
1.0
176
     1
1001
ACAD
1000
AcDbSavedByObjectVersion
1070
     0
  0
VISUALSTYLE
  5
8095
102
{ACAD_REACTORS
330
8090
102
}
330
8090
100
AcDbVisualStyle
  2
Basic
 70
     7
177
     3
291
     1
 70
    58
 90
        1
176
     1
 90
        0
176
     1
 90
        1
176
     1
 90
        0
176
     1
 40
0.6
176
     1
 40
30.0
176
     1
 62
     7
420
 16777215
176
     1
 90
        0
176
     1
 90
        4
176
     1
 62
     7
176
     1
 62
   257
176
     1
 90
        1
176
     1
 90
        1
176
     1
 40
1.0
176
     1
 90
        8
176
     1
 62
     7
176
     1
 40
1.0
176
     1
 90
        1
176
     1
 90
        6
176
     1
 90
        2
176
     1
 62
     7
176
     1
 90
        5
176
     1
 90
        0
176
     1
 90
        0
176
     1
290
     0
176
     1
 90
        1
176
     1
 40
0.0
176
     1
 90
        0
176
     1
290
     0
176
     1
290
     1
176
     1
290
     1
176
     1
290
     0
176
     1
290
     0
176
     1
290
     0
176
     1
290
     0
176
     1
290
     0
176
     1
290
     0
176
     1
 90
       50
176
     1
 40
0.0
176
     1
 40
1.0
176
     1
 90
        0
176
     1
 62
    18
420
        0
176
     1
 90
       50
176
     1
 90
        3
176
     1
 62
     5
420
      255
176
     1
290
     0
176
     1
 90
       50
176
     1
 90
       50
176
     1
 90
       50
176
     1
290
     0
176
     1
 90
       50
176
     1
 62
   256
176
     0
 40
1.0
176
     0
 90
        2
176
     1
  1
strokes_ogs.tif
176
     1
290
     0
176
     1
 40
1.0
176
     1
 40
1.0
176
     1
1001
ACAD
1000
AcDbSavedByObjectVersion
1070
     0
  0
VISUALSTYLE
  5
809C
102
{ACAD_REACTORS
330
8090
102
}
330
8090
100
AcDbVisualStyle
  2
Brighten
 70
    12
177
     3
291
     1
 70
    58
 90
        2
176
     1
 90
        2
176
     1
 90
        0
176
     1
 90
        0
176
     1
 40
0.6
176
     1
 40
30.0
176
     1
 62
     7
420
 16777215
176
     1
 90
        1
176
     1
 90
        4
176
     1
 62
     7
176
     1
 62
   257
176
     1
 90
        1
176
     1
 90
        1
176
     1
 40
1.0
176
     1
 90
        8
176
     1
 62
     7
176
     1
 40
1.0
176
     1
 90
        1
176
     1
 90
        6
176
     1
 90
        2
176
     1
 62
     7
176
     1
 90
        5
176
     1
 90
        0
176
     1
 90
        0
176
     1
290
     0
176
     1
 90
        1
176
     1
 40
50.0
176
     1
 90
        0
176
     1
290
     0
176
     1
290
     1
176
     1
290
     1
176
     1
290
     0
176
     1
290
     0
176
     1
290
     0
176
     1
290
     0
176
     1
290
     0
176
     1
290
     0
176
     1
 90
       50
176
     1
 40
0.0
176
     1
 40
1.0
176
     1
 90
        0
176
     1
 62
    18
420
        0
176
     1
 90
       50
176
     1
 90
        3
176
     1
 62
     5
420
      255
176
     1
290
     0
176
     1
 90
       50
176
     1
 90
       50
176
     1
 90
       50
176
     1
290
     0
176
     1
 90
       50
176
     1
 62
   256
176
     0
 40
1.0
176
     0
 90
        2
176
     1
  1
strokes_ogs.tif
176
     1
290
     0
176
     1
 40
1.0
176
     1
 40
1.0
176
     1
1001
ACAD
1000
AcDbSavedByObjectVersion
1070
     0
  0
VISUALSTYLE
  5
80A0
102
{ACAD_REACTORS
330
8090
102
}
330
8090
100
AcDbVisualStyle
  2
ColorChange
 70
    16
177
     3
291
     1
 70
    58
 90
        2
176
     1
 90
        2
176
     1
 90
        3
176
     1
 90
        0
176
     1
 40
0.6
176
     1
 40
30.0
176
     1
 62
     8
420
  8421504
176
     1
 90
        1
176
     1
 90
        4
176
     1
 62
     7
176
     1
 62
   257
176
     1
 90
        1
176
     1
 90
        1
176
     1
 40
1.0
176
     1
 90
        8
176
     1
 62
     8
420
  8421504
176
     1
 40
1.0
176
     1
 90
        1
176
     1
 90
        6
176
     1
 90
        2
176
     1
 62
     7
176
     1
 90
        5
176
     1
 90
        0
176
     1
 90
        0
176
     1
290
     0
176
     1
 90
        1
176
     1
 40
0.0
176
     1
 90
        0
176
     1
290
     0
176
     1
290
     1
176
     1
290
     1
176
     1
290
     0
176
     1
290
     0
176
     1
290
     0
176
     1
290
     0
176
     1
290
     0
176
     1
290
     0
176
     1
 90
       50
176
     1
 40
0.0
176
     1
 40
1.0
176
     1
 90
        0
176
     1
 62
    18
420
        0
176
     1
 90
       50
176
     1
 90
        3
176
     1
 62
     5
420
      255
176
     1
290
     0
176
     1
 90
       50
176
     1
 90
       50
176
     1
 90
       50
176
     1
290
     0
176
     1
 90
       50
176
     1
 62
   256
176
     0
 40
1.0
176
     0
 90
        2
176
     1
  1
strokes_ogs.tif
176
     1
290
     0
176
     1
 40
1.0
176
     1
 40
1.0
176
     1
1001
ACAD
1000
AcDbSavedByObjectVersion
1070
     0
  0
VISUALSTYLE
  5
8099
102
{ACAD_REACTORS
330
8090
102
}
330
8090
100
AcDbVisualStyle
  2
Conceptual
 70
     9
177
     3
291
     0
 70
    58
 90
        3
176
     1
 90
        2
176
     1
 90
        0
176
     1
 90
        0
176
     1
 40
0.6
176
     1
 40
30.0
176
     1
 62
     7
420
 16777215
176
     1
 90
        2
176
     1
 90
        2
176
     1
 62
     7
176
     1
 62
   257
176
     1
 90
        1
176
     1
 90
        1
176
     1
 40
179.0
176
     1
 90
        8
176
     1
 62
     7
176
     1
 40
1.0
176
     1
 90
        1
176
     1
 90
        6
176
     1
 90
        2
176
     1
 62
     7
176
     1
 90
        3
176
     1
 90
        0
176
     1
 90
        0
176
     1
290
     0
176
     1
 90
        1
176
     1
 40
0.0
176
     1
 90
        0
176
     1
290
     0
176
     1
290
     1
176
     1
290
     1
176
     1
290
     0
176
     1
290
     0
176
     1
290
     0
176
     1
290
     0
176
     1
290
     0
176
     1
290
     0
176
     1
 90
       50
176
     1
 40
0.0
176
     1
 40
1.0
176
     1
 90
        0
176
     1
 62
    18
420
        0
176
     1
 90
       50
176
     1
 90
        3
176
     1
 62
     5
420
      255
176
     1
290
     0
176
     1
 90
       50
176
     1
 90
       50
176
     1
 90
       50
176
     1
290
     0
176
     1
 90
       50
176
     1
 62
   256
176
     0
 40
1.0
176
     0
 90
        2
176
     1
  1
strokes_ogs.tif
176
     1
290
     0
176
     1
 40
1.0
176
     1
 40
1.0
176
     1
1001
ACAD
1000
AcDbSavedByObjectVersion
1070
     0
  0
VISUALSTYLE
  5
809B
102
{ACAD_REACTORS
330
8090
102
}
330
8090
100
AcDbVisualStyle
  2
Dim
 70
    11
177
     3
291
     1
 70
    58
 90
        2
176
     1
 90
        2
176
     1
 90
        0
176
     1
 90
        0
176
     1
 40
0.6
176
     1
 40
30.0
176
     1
 62
     7
420
 16777215
176
     1
 90
        1
176
     1
 90
        4
176
     1
 62
     7
176
     1
 62
   257
176
     1
 90
        1
176
     1
 90
        1
176
     1
 40
1.0
176
     1
 90
        8
176
     1
 62
     7
176
     1
 40
1.0
176
     1
 90
        1
176
     1
 90
        6
176
     1
 90
        2
176
     1
 62
     7
176
     1
 90
        5
176
     1
 90
        0
176
     1
 90
        0
176
     1
290
     0
176
     1
 90
        1
176
     1
 40
-50.0
176
     1
 90
        0
176
     1
290
     0
176
     1
290
     1
176
     1
290
     1
176
     1
290
     0
176
     1
290
     0
176
     1
290
     0
176
     1
290
     0
176
     1
290
     0
176
     1
290
     0
176
     1
 90
       50
176
     1
 40
0.0
176
     1
 40
1.0
176
     1
 90
        0
176
     1
 62
    18
420
        0
176
     1
 90
       50
176
     1
 90
        3
176
     1
 62
     5
420
      255
176
     1
290
     0
176
     1
 90
       50
176
     1
 90
       50
176
     1
 90
       50
176
     1
290
     0
176
     1
 90
       50
176
     1
 62
   256
176
     0
 40
1.0
176
     0
 90
        2
176
     1
  1
strokes_ogs.tif
176
     1
290
     0
176
     1
 40
1.0
176
     1
 40
1.0
176
     1
1001
ACAD
1000
AcDbSavedByObjectVersion
1070
     0
  0
VISUALSTYLE
  5
80A8
102
{ACAD_REACTORS
330
8090
102
}
330
8090
100
AcDbVisualStyle
  2
EdgeColorOff
 70
    22
177
     3
291
     1
 70
    58
 90
        2
176
     0
 90
        2
176
     0
 90
        0
176
     0
 90
        0
176
     0
 40
0.6
176
     0
 40
30.0
176
     0
 62
     7
420
 16777215
176
     0
 90
        1
176
     0
 90
        4
176
     0
 62
     7
176
     0
 62
   257
176
     0
 90
        1
176
     0
 90
        1
176
     0
 40
1.0
176
     0
 90
        8
176
     2
 62
     7
176
     0
 40
1.0
176
     0
 90
        1
176
     0
 90
        6
176
     0
 90
        2
176
     0
 62
     7
176
     0
 90
        5
176
     0
 90
        0
176
     0
 90
        0
176
     0
290
     0
176
     0
 90
        1
176
     0
 40
0.0
176
     0
 90
        0
176
     0
290
     0
176
     0
290
     1
176
     0
290
     1
176
     0
290
     0
176
     0
290
     0
176
     0
290
     0
176
     0
290
     0
176
     0
290
     0
176
     0
290
     0
176
     0
 90
       50
176
     0
 40
0.0
176
     0
 40
1.0
176
     0
 90
        0
176
     0
 62
    18
420
        0
176
     0
 90
       50
176
     0
 90
        3
176
     0
 62
     5
420
      255
176
     0
290
     0
176
     0
 90
       50
176
     0
 90
       50
176
     0
 90
       50
176
     0
290
     0
176
     0
 90
       50
176
     0
 62
   256
176
     0
 40
1.0
176
     0
 90
        2
176
     0
  1
strokes_ogs.tif
176
     0
290
     0
176
     0
 40
1.0
176
     0
 40
1.0
176
     0
1001
ACAD
1000
AcDbSavedByObjectVersion
1070
     0
  0
VISUALSTYLE
  5
809F
102
{ACAD_REACTORS
330
8090
102
}
330
8090
100
AcDbVisualStyle
  2
Facepattern
 70
    15
177
     3
291
     1
 70
    58
 90
        2
176
     1
 90
        2
176
     1
 90
        0
176
     1
 90
        0
176
     1
 40
0.6
176
     1
 40
30.0
176
     1
 62
     7
420
 16777215
176
     1
 90
        1
176
     1
 90
        4
176
     1
 62
     7
176
     1
 62
   257
176
     1
 90
        1
176
     1
 90
        1
176
     1
 40
1.0
176
     1
 90
        8
176
     1
 62
     7
176
     1
 40
1.0
176
     1
 90
        1
176
     1
 90
        6
176
     1
 90
        2
176
     1
 62
     7
176
     1
 90
        5
176
     1
 90
        0
176
     1
 90
        0
176
     1
290
     0
176
     1
 90
        1
176
     1
 40
0.0
176
     1
 90
        0
176
     1
290
     0
176
     1
290
     1
176
     1
290
     1
176
     1
290
     0
176
     1
290
     0
176
     1
290
     0
176
     1
290
     0
176
     1
290
     0
176
     1
290
     0
176
     1
 90
       50
176
     1
 40
0.0
176
     1
 40
1.0
176
     1
 90
        0
176
     1
 62
    18
420
        0
176
     1
 90
       50
176
     1
 90
        3
176
     1
 62
     5
420
      255
176
     1
290
     0
176
     1
 90
       50
176
     1
 90
       50
176
     1
 90
       50
176
     1
290
     0
176
     1
 90
       50
176
     1
 62
   256
176
     0
 40
1.0
176
     0
 90
        2
176
     1
  1
strokes_ogs.tif
176
     1
290
     0
176
     1
 40
1.0
176
     1
 40
1.0
176
     1
1001
ACAD
1000
AcDbSavedByObjectVersion
1070
     0
  0
VISUALSTYLE
  5
8091
102
{ACAD_REACTORS
330
8090
102
}
330
8090
100
AcDbVisualStyle
  2
Flat
 70
     0
177
     3
291
     1
 70
    58
 90
        2
176
     1
 90
        1
176
     1
 90
        1
176
     1
 90
        2
176
     1
 40
0.6
176
     1
 40
30.0
176
     1
 62
     7
420
 16777215
176
     1
 90
        0
176
     1
 90
        0
176
     1
 62
     7
176
     1
 62
   257
176
     1
 90
        1
176
     1
 90
        1
176
     1
 40
1.0
176
     1
 90
        8
176
     1
 62
     7
176
     1
 40
1.0
176
     1
 90
        1
176
     1
 90
        6
176
     1
 90
        2
176
     1
 62
     7
176
     1
 90
        5
176
     1
 90
        0
176
     1
 90
        0
176
     1
290
     0
176
     1
 90
       13
176
     1
 40
0.0
176
     1
 90
        0
176
     1
290
     0
176
     1
290
     1
176
     1
290
     1
176
     1
290
     0
176
     1
290
     0
176
     1
290
     0
176
     1
290
     0
176
     1
290
     0
176
     1
290
     0
176
     1
 90
       50
176
     1
 40
0.0
176
     1
 40
1.0
176
     1
 90
        0
176
     1
 62
    18
420
        0
176
     1
 90
       50
176
     1
 90
        3
176
     1
 62
     5
420
      255
176
     1
290
     0
176
     1
 90
       50
176
     1
 90
       50
176
     1
 90
       50
176
     1
290
     0
176
     1
 90
       50
176
     1
 62
   256
176
     0
 40
1.0
176
     0
 90
        2
176
     1
  1
strokes_ogs.tif
176
     1
290
     0
176
     1
 40
1.0
176
     1
 40
1.0
176
     1
1001
ACAD
1000
AcDbSavedByObjectVersion
1070
     0
  0
VISUALSTYLE
  5
8092
102
{ACAD_REACTORS
330
8090
102
}
330
8090
100
AcDbVisualStyle
  2
FlatWithEdges
 70
     1
177
     3
291
     1
 70
    58
 90
        2
176
     1
 90
        1
176
     1
 90
        1
176
     1
 90
        2
176
     1
 40
0.6
176
     1
 40
30.0
176
     1
 62
     7
420
 16777215
176
     1
 90
        1
176
     1
 90
        0
176
     1
 62
     7
176
     1
 62
   257
176
     1
 90
        1
176
     1
 90
        1
176
     1
 40
1.0
176
     1
 90
        0
176
     1
 62
   257
176
     1
 40
1.0
176
     1
 90
        1
176
     1
 90
        6
176
     1
 90
        2
176
     1
 62
     7
176
     1
 90
        5
176
     1
 90
        0
176
     1
 90
        0
176
     1
290
     0
176
     1
 90
       13
176
     1
 40
0.0
176
     1
 90
        0
176
     1
290
     0
176
     1
290
     1
176
     1
290
     1
176
     1
290
     0
176
     1
290
     0
176
     1
290
     0
176
     1
290
     0
176
     1
290
     0
176
     1
290
     0
176
     1
 90
       50
176
     1
 40
0.0
176
     1
 40
1.0
176
     1
 90
        0
176
     1
 62
    18
420
        0
176
     1
 90
       50
176
     1
 90
        3
176
     1
 62
     5
420
      255
176
     1
290
     0
176
     1
 90
       50
176
     1
 90
       50
176
     1
 90
       50
176
     1
290
     0
176
     1
 90
       50
176
     1
 62
   256
176
     0
 40
1.0
176
     0
 90
        2
176
     1
  1
strokes_ogs.tif
176
     1
290
     0
176
     1
 40
1.0
176
     1
 40
1.0
176
     1
1001
ACAD
1000
AcDbSavedByObjectVersion
1070
     0
  0
VISUALSTYLE
  5
8093
102
{ACAD_REACTORS
330
8090
102
}
330
8090
100
AcDbVisualStyle
  2
Gouraud
 70
     2
177
     3
291
     1
 70
    58
 90
        2
176
     1
 90
        2
176
     1
 90
        1
176
     1
 90
        2
176
     1
 40
0.6
176
     1
 40
30.0
176
     1
 62
     7
420
 16777215
176
     1
 90
        0
176
     1
 90
        0
176
     1
 62
     7
176
     1
 62
   257
176
     1
 90
        1
176
     1
 90
        1
176
     1
 40
1.0
176
     1
 90
        0
176
     1
 62
     7
176
     1
 40
1.0
176
     1
 90
        1
176
     1
 90
        6
176
     1
 90
        2
176
     1
 62
     7
176
     1
 90
        5
176
     1
 90
        0
176
     1
 90
        0
176
     1
290
     0
176
     1
 90
       13
176
     1
 40
0.0
176
     1
 90
        0
176
     1
290
     0
176
     1
290
     1
176
     1
290
     1
176
     1
290
     0
176
     1
290
     0
176
     1
290
     0
176
     1
290
     0
176
     1
290
     0
176
     1
290
     0
176
     1
 90
       50
176
     1
 40
0.0
176
     1
 40
1.0
176
     1
 90
        0
176
     1
 62
    18
420
        0
176
     1
 90
       50
176
     1
 90
        3
176
     1
 62
     5
420
      255
176
     1
290
     0
176
     1
 90
       50
176
     1
 90
       50
176
     1
 90
       50
176
     1
290
     0
176
     1
 90
       50
176
     1
 62
   256
176
     0
 40
1.0
176
     0
 90
        2
176
     1
  1
strokes_ogs.tif
176
     1
290
     0
176
     1
 40
1.0
176
     1
 40
1.0
176
     1
1001
ACAD
1000
AcDbSavedByObjectVersion
1070
     0
  0
VISUALSTYLE
  5
8094
102
{ACAD_REACTORS
330
8090
102
}
330
8090
100
AcDbVisualStyle
  2
GouraudWithEdges
 70
     3
177
     3
291
     1
 70
    58
 90
        2
176
     1
 90
        2
176
     1
 90
        1
176
     1
 90
        2
176
     1
 40
0.6
176
     1
 40
30.0
176
     1
 62
     7
420
 16777215
176
     1
 90
        1
176
     1
 90
        0
176
     1
 62
     7
176
     1
 62
   257
176
     1
 90
        1
176
     1
 90
        1
176
     1
 40
1.0
176
     1
 90
        0
176
     1
 62
   257
176
     1
 40
1.0
176
     1
 90
        1
176
     1
 90
        6
176
     1
 90
        2
176
     1
 62
     7
176
     1
 90
        5
176
     1
 90
        0
176
     1
 90
        0
176
     1
290
     0
176
     1
 90
       13
176
     1
 40
0.0
176
     1
 90
        0
176
     1
290
     0
176
     1
290
     1
176
     1
290
     1
176
     1
290
     0
176
     1
290
     0
176
     1
290
     0
176
     1
290
     0
176
     1
290
     0
176
     1
290
     0
176
     1
 90
       50
176
     1
 40
0.0
176
     1
 40
1.0
176
     1
 90
        0
176
     1
 62
    18
420
        0
176
     1
 90
       50
176
     1
 90
        3
176
     1
 62
     5
420
      255
176
     1
290
     0
176
     1
 90
       50
176
     1
 90
       50
176
     1
 90
       50
176
     1
290
     0
176
     1
 90
       50
176
     1
 62
   256
176
     0
 40
1.0
176
     0
 90
        2
176
     1
  1
strokes_ogs.tif
176
     1
290
     0
176
     1
 40
1.0
176
     1
 40
1.0
176
     1
1001
ACAD
1000
AcDbSavedByObjectVersion
1070
     0
  0
VISUALSTYLE
  5
8098
102
{ACAD_REACTORS
330
8090
102
}
330
8090
100
AcDbVisualStyle
  2
Hidden
 70
     6
177
     3
291
     0
 70
    58
 90
        1
176
     1
 90
        2
176
     1
 90
        2
176
     1
 90
        0
176
     1
 40
0.6
176
     1
 40
30.0
176
     1
 62
     7
420
 16777215
176
     1
 90
        2
176
     1
 90
        2
176
     1
 62
     7
176
     1
 62
   257
176
     1
 90
        2
176
     1
 90
        1
176
     1
 40
40.0
176
     1
 90
        0
176
     1
 62
   257
176
     1
 40
1.0
176
     1
 90
        1
176
     1
 90
        6
176
     1
 90
        2
176
     1
 62
     7
176
     1
 90
        3
176
     1
 90
        0
176
     1
 90
        0
176
     1
290
     0
176
     1
 90
        1
176
     1
 40
0.0
176
     1
 90
        0
176
     1
290
     0
176
     1
290
     1
176
     1
290
     1
176
     1
290
     0
176
     1
290
     0
176
     1
290
     0
176
     1
290
     0
176
     1
290
     0
176
     1
290
     0
176
     1
 90
       50
176
     1
 40
0.0
176
     1
 40
1.0
176
     1
 90
        0
176
     1
 62
    18
420
        0
176
     1
 90
       50
176
     1
 90
        3
176
     1
 62
     5
420
      255
176
     1
290
     0
176
     1
 90
       50
176
     1
 90
       50
176
     1
 90
       50
176
     1
290
     0
176
     1
 90
       50
176
     1
 62
   256
176
     0
 40
1.0
176
     0
 90
        2
176
     1
  1
strokes_ogs.tif
176
     1
290
     0
176
     1
 40
1.0
176
     1
 40
1.0
176
     1
1001
ACAD
1000
AcDbSavedByObjectVersion
1070
     0
  0
VISUALSTYLE
  5
80A6
102
{ACAD_REACTORS
330
8090
102
}
330
8090
100
AcDbVisualStyle
  2
JitterOff
 70
    20
177
     3
291
     1
 70
    58
 90
        2
176
     0
 90
        2
176
     0
 90
        0
176
     0
 90
        0
176
     0
 40
0.6
176
     0
 40
30.0
176
     0
 62
     7
420
 16777215
176
     0
 90
        1
176
     0
 90
        4
176
     0
 62
     7
176
     0
 62
   257
176
     0
 90
        1
176
     0
 90
        1
176
     0
 40
1.0
176
     0
 90
       10
176
     2
 62
     7
176
     0
 40
1.0
176
     0
 90
        1
176
     0
 90
        6
176
     0
 90
        2
176
     0
 62
     7
176
     0
 90
        5
176
     0
 90
        0
176
     0
 90
        0
176
     0
290
     0
176
     0
 90
        1
176
     0
 40
0.0
176
     0
 90
        0
176
     0
290
     0
176
     0
290
     1
176
     0
290
     1
176
     0
290
     0
176
     0
290
     0
176
     0
290
     0
176
     0
290
     0
176
     0
290
     0
176
     0
290
     0
176
     0
 90
       50
176
     0
 40
0.0
176
     0
 40
1.0
176
     0
 90
        0
176
     0
 62
    18
420
        0
176
     0
 90
       50
176
     0
 90
        3
176
     0
 62
     5
420
      255
176
     0
290
     0
176
     0
 90
       50
176
     0
 90
       50
176
     0
 90
       50
176
     0
290
     0
176
     0
 90
       50
176
     0
 62
   256
176
     0
 40
1.0
176
     0
 90
        2
176
     0
  1
strokes_ogs.tif
176
     0
290
     0
176
     0
 40
1.0
176
     0
 40
1.0
176
     0
1001
ACAD
1000
AcDbSavedByObjectVersion
1070
     0
  0
VISUALSTYLE
  5
809E
102
{ACAD_REACTORS
330
8090
102
}
330
8090
100
AcDbVisualStyle
  2
Linepattern
 70
    14
177
     3
291
     1
 70
    58
 90
        2
176
     1
 90
        2
176
     1
 90
        0
176
     1
 90
        0
176
     1
 40
0.6
176
     1
 40
30.0
176
     1
 62
     7
420
 16777215
176
     1
 90
        1
176
     1
 90
        4
176
     1
 62
     7
176
     1
 62
   257
176
     1
 90
        7
176
     1
 90
        7
176
     1
 40
1.0
176
     1
 90
        8
176
     1
 62
     7
176
     1
 40
1.0
176
     1
 90
        1
176
     1
 90
        6
176
     1
 90
        2
176
     1
 62
     7
176
     1
 90
        5
176
     1
 90
        0
176
     1
 90
        0
176
     1
290
     0
176
     1
 90
        1
176
     1
 40
0.0
176
     1
 90
        0
176
     1
290
     0
176
     1
290
     1
176
     1
290
     1
176
     1
290
     0
176
     1
290
     0
176
     1
290
     0
176
     1
290
     0
176
     1
290
     0
176
     1
290
     0
176
     1
 90
       50
176
     1
 40
0.0
176
     1
 40
1.0
176
     1
 90
        0
176
     1
 62
    18
420
        0
176
     1
 90
       50
176
     1
 90
        3
176
     1
 62
     5
420
      255
176
     1
290
     0
176
     1
 90
       50
176
     1
 90
       50
176
     1
 90
       50
176
     1
290
     0
176
     1
 90
       50
176
     1
 62
   256
176
     0
 40
1.0
176
     0
 90
        2
176
     1
  1
strokes_ogs.tif
176
     1
290
     0
176
     1
 40
1.0
176
     1
 40
1.0
176
     1
1001
ACAD
1000
AcDbSavedByObjectVersion
1070
     0
  0
VISUALSTYLE
  5
80A7
102
{ACAD_REACTORS
330
8090
102
}
330
8090
100
AcDbVisualStyle
  2
OverhangOff
 70
    21
177
     3
291
     1
 70
    58
 90
        2
176
     0
 90
        2
176
     0
 90
        0
176
     0
 90
        0
176
     0
 40
0.6
176
     0
 40
30.0
176
     0
 62
     7
420
 16777215
176
     0
 90
        1
176
     0
 90
        4
176
     0
 62
     7
176
     0
 62
   257
176
     0
 90
        1
176
     0
 90
        1
176
     0
 40
1.0
176
     0
 90
        9
176
     2
 62
     7
176
     0
 40
1.0
176
     0
 90
        1
176
     0
 90
        6
176
     0
 90
        2
176
     0
 62
     7
176
     0
 90
        5
176
     0
 90
        0
176
     0
 90
        0
176
     0
290
     0
176
     0
 90
        1
176
     0
 40
0.0
176
     0
 90
        0
176
     0
290
     0
176
     0
290
     1
176
     0
290
     1
176
     0
290
     0
176
     0
290
     0
176
     0
290
     0
176
     0
290
     0
176
     0
290
     0
176
     0
290
     0
176
     0
 90
       50
176
     0
 40
0.0
176
     0
 40
1.0
176
     0
 90
        0
176
     0
 62
    18
420
        0
176
     0
 90
       50
176
     0
 90
        3
176
     0
 62
     5
420
      255
176
     0
290
     0
176
     0
 90
       50
176
     0
 90
       50
176
     0
 90
       50
176
     0
290
     0
176
     0
 90
       50
176
     0
 62
   256
176
     0
 40
1.0
176
     0
 90
        2
176
     0
  1
strokes_ogs.tif
176
     0
290
     0
176
     0
 40
1.0
176
     0
 40
1.0
176
     0
1001
ACAD
1000
AcDbSavedByObjectVersion
1070
     0
  0
VISUALSTYLE
  5
809A
102
{ACAD_REACTORS
330
8090
102
}
330
8090
100
AcDbVisualStyle
  2
Realistic
 70
     8
177
     3
291
     0
 70
    58
 90
        2
176
     1
 90
        3
176
     1
 90
        0
176
     1
 90
        2
176
     1
 40
0.6
176
     1
 40
30.0
176
     1
 62
     7
420
 16777215
176
     1
 90
        0
176
     1
 90
        0
176
     1
 62
     7
176
     1
 62
   257
176
     1
 90
        1
176
     1
 90
        1
176
     1
 40
1.0
176
     1
 90
        8
176
     1
 62
   257
176
     1
 40
1.0
176
     1
 90
        1
176
     1
 90
        6
176
     1
 90
        2
176
     1
 62
     7
176
     1
 90
        3
176
     1
 90
        0
176
     1
 90
        0
176
     1
290
     0
176
     1
 90
       13
176
     1
 40
0.0
176
     1
 90
        0
176
     1
290
     0
176
     1
290
     1
176
     1
290
     1
176
     1
290
     0
176
     1
290
     0
176
     1
290
     0
176
     1
290
     0
176
     1
290
     0
176
     1
290
     0
176
     1
 90
       50
176
     1
 40
0.0
176
     1
 40
1.0
176
     1
 90
        0
176
     1
 62
    18
420
        0
176
     1
 90
       50
176
     1
 90
        3
176
     1
 62
     5
420
      255
176
     1
290
     0
176
     1
 90
       50
176
     1
 90
       50
176
     1
 90
       50
176
     1
290
     0
176
     1
 90
       50
176
     1
 62
   256
176
     0
 40
1.0
176
     0
 90
        2
176
     1
  1
strokes_ogs.tif
176
     1
290
     0
176
     1
 40
1.0
176
     1
 40
1.0
176
     1
1001
ACAD
1000
AcDbSavedByObjectVersion
1070
     0
  0
VISUALSTYLE
  5
80A5
102
{ACAD_REACTORS
330
8090
102
}
330
8090
100
AcDbVisualStyle
  2
Shaded
 70
    27
177
     3
291
     0
 70
    58
 90
        2
176
     1
 90
        2
176
     1
 90
        1
176
     1
 90
        2
176
     1
 40
0.6
176
     1
 40
30.0
176
     1
 62
     7
420
 16777215
176
     1
 90
        0
176
     1
 90
        4
176
     1
 62
     7
176
     1
 62
   257
176
     1
 90
        1
176
     1
 90
        1
176
     1
 40
1.0
176
     1
 90
        8
176
     1
 62
   257
176
     1
 40
1.0
176
     1
 90
        1
176
     1
 90
        6
176
     1
 90
        2
176
     1
 62
     8
420
  7895160
176
     1
 90
        3
176
     1
 90
        0
176
     1
 90
        0
176
     1
290
     0
176
     1
 90
        5
176
     1
 40
0.0
176
     1
 90
        0
176
     1
290
     0
176
     1
290
     1
176
     1
290
     1
176
     1
290
     0
176
     1
290
     0
176
     1
290
     0
176
     1
290
     0
176
     1
290
     0
176
     1
290
     0
176
     1
 90
       50
176
     1
 40
0.0
176
     1
 40
1.0
176
     1
 90
        0
176
     1
 62
    18
420
        0
176
     1
 90
       50
176
     1
 90
        3
176
     1
 62
     5
420
      255
176
     1
290
     0
176
     1
 90
       50
176
     1
 90
       50
176
     1
 90
       50
176
     1
290
     0
176
     1
 90
       50
176
     1
 62
   256
176
     0
 40
1.0
176
     0
 90
        2
176
     1
  1
strokes_ogs.tif
176
     1
290
     0
176
     1
 40
1.0
176
     1
 40
1.0
176
     1
1001
ACAD
1000
AcDbSavedByObjectVersion
1070
     0
  0
VISUALSTYLE
  5
80A4
102
{ACAD_REACTORS
330
8090
102
}
330
8090
100
AcDbVisualStyle
  2
Shaded with edges
 70
    26
177
     3
291
     0
 70
    58
 90
        2
176
     1
 90
        2
176
     1
 90
        1
176
     1
 90
        2
176
     1
 40
0.6
176
     1
 40
30.0
176
     1
 62
     7
420
 16777215
176
     1
 90
        1
176
     1
 90
        2
176
     1
 62
     7
176
     1
 62
   257
176
     1
 90
        2
176
     1
 90
        1
176
     1
 40
1.0
176
     1
 90
        8
176
     1
 62
   257
176
     1
 40
1.0
176
     1
 90
        1
176
     1
 90
        6
176
     1
 90
        2
176
     1
 62
     7
176
     1
 90
        3
176
     1
 90
        0
176
     1
 90
        0
176
     1
290
     0
176
     1
 90
        5
176
     1
 40
0.0
176
     1
 90
        0
176
     1
290
     0
176
     1
290
     1
176
     1
290
     1
176
     1
290
     0
176
     1
290
     0
176
     1
290
     0
176
     1
290
     0
176
     1
290
     0
176
     1
290
     0
176
     1
 90
       50
176
     1
 40
0.0
176
     1
 40
1.0
176
     1
 90
        0
176
     1
 62
    18
420
        0
176
     1
 90
       50
176
     1
 90
        3
176
     1
 62
     5
420
      255
176
     1
290
     0
176
     1
 90
       50
176
     1
 90
       50
176
     1
 90
       50
176
     1
290
     0
176
     1
 90
       50
176
     1
 62
   256
176
     0
 40
1.0
176
     0
 90
        2
176
     1
  1
strokes_ogs.tif
176
     1
290
     0
176
     1
 40
1.0
176
     1
 40
1.0
176
     1
1001
ACAD
1000
AcDbSavedByObjectVersion
1070
     0
  0
VISUALSTYLE
  5
80A1
102
{ACAD_REACTORS
330
8090
102
}
330
8090
100
AcDbVisualStyle
  2
Shades of Gray
 70
    23
177
     3
291
     0
 70
    58
 90
        2
176
     1
 90
        2
176
     1
 90
        3
176
     1
 90
        0
176
     1
 40
0.6
176
     1
 40
30.0
176
     1
 62
     7
420
 16777215
176
     1
 90
        2
176
     1
 90
        2
176
     1
 62
     7
176
     1
 62
     7
176
     1
 90
        1
176
     1
 90
        1
176
     1
 40
40.0
176
     1
 90
        8
176
     1
 62
     7
176
     1
 40
1.0
176
     1
 90
        1
176
     1
 90
        6
176
     1
 90
        2
176
     1
 62
     7
176
     1
 90
        3
176
     1
 90
        0
176
     1
 90
        0
176
     1
290
     0
176
     1
 90
        1
176
     1
 40
0.0
176
     1
 90
        0
176
     1
290
     0
176
     1
290
     1
176
     1
290
     1
176
     1
290
     0
176
     1
290
     0
176
     1
290
     0
176
     1
290
     0
176
     1
290
     0
176
     1
290
     0
176
     1
 90
       50
176
     1
 40
0.0
176
     1
 40
1.0
176
     1
 90
        0
176
     1
 62
    18
420
        0
176
     1
 90
       50
176
     1
 90
        3
176
     1
 62
     5
420
      255
176
     1
290
     0
176
     1
 90
       50
176
     1
 90
       50
176
     1
 90
       50
176
     1
290
     0
176
     1
 90
       50
176
     1
 62
   256
176
     0
 40
1.0
176
     0
 90
        2
176
     1
  1
strokes_ogs.tif
176
     1
290
     0
176
     1
 40
1.0
176
     1
 40
1.0
176
     1
1001
ACAD
1000
AcDbSavedByObjectVersion
1070
     0
  0
VISUALSTYLE
  5
80A2
102
{ACAD_REACTORS
330
8090
102
}
330
8090
100
AcDbVisualStyle
  2
Sketchy
 70
    24
177
     3
291
     0
 70
    58
 90
        1
176
     1
 90
        2
176
     1
 90
        2
176
     1
 90
        0
176
     1
 40
0.6
176
     1
 40
30.0
176
     1
 62
     7
420
 16777215
176
     1
 90
        2
176
     1
 90
        2
176
     1
 62
     7
176
     1
 62
     7
176
     1
 90
        1
176
     1
 90
        1
176
     1
 40
40.0
176
     1
 90
       11
176
     1
 62
     7
176
     1
 40
1.0
176
     1
 90
        1
176
     1
 90
        6
176
     1
 90
        2
176
     1
 62
     7
176
     1
 90
        6
176
     1
 90
        0
176
     1
 90
        0
176
     1
290
     0
176
     1
 90
        1
176
     1
 40
0.0
176
     1
 90
        0
176
     1
290
     0
176
     1
290
     1
176
     1
290
     1
176
     1
290
     0
176
     1
290
     0
176
     1
290
     0
176
     1
290
     0
176
     1
290
     0
176
     1
290
     0
176
     1
 90
       50
176
     1
 40
0.0
176
     1
 40
1.0
176
     1
 90
        0
176
     1
 62
    18
420
        0
176
     1
 90
       50
176
     1
 90
        3
176
     1
 62
     5
420
      255
176
     1
290
     0
176
     1
 90
       50
176
     1
 90
       50
176
     1
 90
       50
176
     1
290
     0
176
     1
 90
       50
176
     1
 62
   256
176
     0
 40
1.0
176
     0
 90
        2
176
     1
  1
strokes_ogs.tif
176
     1
290
     0
176
     1
 40
1.0
176
     1
 40
1.0
176
     1
1001
ACAD
1000
AcDbSavedByObjectVersion
1070
     0
  0
VISUALSTYLE
  5
809D
102
{ACAD_REACTORS
330
8090
102
}
330
8090
100
AcDbVisualStyle
  2
Thicken
 70
    13
177
     3
291
     1
 70
    58
 90
        2
176
     1
 90
        2
176
     1
 90
        0
176
     1
 90
        0
176
     1
 40
0.6
176
     1
 40
30.0
176
     1
 62
     7
420
 16777215
176
     1
 90
        1
176
     1
 90
        4
176
     1
 62
     7
176
     1
 62
   257
176
     1
 90
        1
176
     1
 90
        1
176
     1
 40
1.0
176
     1
 90
       12
176
     1
 62
     7
176
     1
 40
1.0
176
     1
 90
        1
176
     1
 90
        6
176
     1
 90
        2
176
     1
 62
     7
176
     1
 90
        5
176
     1
 90
        0
176
     1
 90
        0
176
     1
290
     0
176
     1
 90
        1
176
     1
 40
0.0
176
     1
 90
        0
176
     1
290
     0
176
     1
290
     1
176
     1
290
     1
176
     1
290
     0
176
     1
290
     0
176
     1
290
     0
176
     1
290
     0
176
     1
290
     0
176
     1
290
     0
176
     1
 90
       50
176
     1
 40
0.0
176
     1
 40
1.0
176
     1
 90
        0
176
     1
 62
    18
420
        0
176
     1
 90
       50
176
     1
 90
        3
176
     1
 62
     5
420
      255
176
     1
290
     0
176
     1
 90
       50
176
     1
 90
       50
176
     1
 90
       50
176
     1
290
     0
176
     1
 90
       50
176
     1
 62
   256
176
     0
 40
1.0
176
     0
 90
        2
176
     1
  1
strokes_ogs.tif
176
     1
290
     0
176
     1
 40
1.0
176
     1
 40
1.0
176
     1
1001
ACAD
1000
AcDbSavedByObjectVersion
1070
     0
  0
VISUALSTYLE
  5
8097
102
{ACAD_REACTORS
330
8090
102
}
330
8090
100
AcDbVisualStyle
  2
Wireframe
 70
     5
177
     3
291
     0
 70
    58
 90
        0
176
     1
 90
        2
176
     1
 90
        0
176
     1
 90
        0
176
     1
 40
0.6
176
     1
 40
30.0
176
     1
 62
     7
420
 16777215
176
     1
 90
        1
176
     1
 90
        4
176
     1
 62
     7
176
     1
 62
   257
176
     1
 90
        1
176
     1
 90
        1
176
     1
 40
1.0
176
     1
 90
        0
176
     1
 62
   257
176
     1
 40
1.0
176
     1
 90
        1
176
     1
 90
        6
176
     1
 90
        2
176
     1
 62
     7
176
     1
 90
        3
176
     1
 90
        0
176
     1
 90
        0
176
     1
290
     0
176
     1
 90
        1
176
     1
 40
0.0
176
     1
 90
        0
176
     1
290
     0
176
     1
290
     1
176
     1
290
     1
176
     1
290
     0
176
     1
290
     0
176
     1
290
     0
176
     1
290
     0
176
     1
290
     0
176
     1
290
     0
176
     1
 90
       50
176
     1
 40
0.0
176
     1
 40
1.0
176
     1
 90
        0
176
     1
 62
    18
420
        0
176
     1
 90
       50
176
     1
 90
        3
176
     1
 62
     5
420
      255
176
     1
290
     0
176
     1
 90
       50
176
     1
 90
       50
176
     1
 90
       50
176
     1
290
     0
176
     1
 90
       50
176
     1
 62
   256
176
     0
 40
1.0
176
     0
 90
        2
176
     1
  1
strokes_ogs.tif
176
     1
290
     0
176
     1
 40
1.0
176
     1
 40
1.0
176
     1
1001
ACAD
1000
AcDbSavedByObjectVersion
1070
     0
  0
VISUALSTYLE
  5
80A3
102
{ACAD_REACTORS
330
8090
102
}
330
8090
100
AcDbVisualStyle
  2
X-Ray
 70
    25
177
     3
291
     0
 70
    58
 90
        2
176
     1
 90
        2
176
     1
 90
        1
176
     1
 90
        1
176
     1
 40
0.5
176
     1
 40
30.0
176
     1
 62
     7
420
 16777215
176
     1
 90
        1
176
     1
 90
        0
176
     1
 62
     7
176
     1
 62
   257
176
     1
 90
        1
176
     1
 90
        1
176
     1
 40
1.0
176
     1
 90
        8
176
     1
 62
     7
176
     1
 40
1.0
176
     1
 90
        1
176
     1
 90
        6
176
     1
 90
        2
176
     1
 62
     7
176
     1
 90
        3
176
     1
 90
        0
176
     1
 90
        0
176
     1
290
     0
176
     1
 90
       13
176
     1
 40
0.0
176
     1
 90
        0
176
     1
290
     0
176
     1
290
     1
176
     1
290
     1
176
     1
290
     0
176
     1
290
     0
176
     1
290
     0
176
     1
290
     0
176
     1
290
     0
176
     1
290
     0
176
     1
 90
       50
176
     1
 40
0.0
176
     1
 40
1.0
176
     1
 90
        0
176
     1
 62
    18
420
        0
176
     1
 90
       50
176
     1
 90
        3
176
     1
 62
     5
420
      255
176
     1
290
     0
176
     1
 90
       50
176
     1
 90
       50
176
     1
 90
       50
176
     1
290
     0
176
     1
 90
       50
176
     1
 62
   256
176
     0
 40
1.0
176
     0
 90
        2
176
     1
  1
strokes_ogs.tif
176
     1
290
     0
176
     1
 40
1.0
176
     1
 40
1.0
176
     1
1001
ACAD
1000
AcDbSavedByObjectVersion
1070
     0
  0
DICTIONARYVAR
  5
812D
102
{ACAD_REACTORS
330
806E
102
}
330
806E
100
DictionaryVariables
280
     0
  1
1:1
  0
DICTIONARYVAR
  5
8129
102
{ACAD_REACTORS
330
806E
102
}
330
806E
100
DictionaryVariables
280
     0
  1
STANDARD
  0
DICTIONARYVAR
  5
8128
102
{ACAD_REACTORS
330
806E
102
}
330
806E
100
DictionaryVariables
280
     0
  1
STANDARD
  0
DICTIONARYVAR
  5
812A
102
{ACAD_REACTORS
330
806E
102
}
330
806E
100
DictionaryVariables
280
     0
  1
Metric50
  0
DICTIONARYVAR
  5
812B
102
{ACAD_REACTORS
330
806E
102
}
330
806E
100
DictionaryVariables
280
     0
  1
Metric50
  0
DICTIONARYVAR
  5
806F
102
{ACAD_REACTORS
330
806E
102
}
330
806E
100
DictionaryVariables
280
     0
  1
1
  0
DICTIONARYVAR
  5
812F
102
{ACAD_REACTORS
330
806E
102
}
330
806E
100
DictionaryVariables
280
     0
  1
1
  0
DICTIONARYVAR
  5
8130
102
{ACAD_REACTORS
330
806E
102
}
330
806E
100
DictionaryVariables
280
     0
  1
15
  0
DICTIONARYVAR
  5
812E
102
{ACAD_REACTORS
330
806E
102
}
330
806E
100
DictionaryVariables
280
     0
  1
0
  0
DICTIONARYVAR
  5
8135
102
{ACAD_REACTORS
330
806E
102
}
330
806E
100
DictionaryVariables
280
     0
  1
0
  0
DICTIONARYVAR
  5
812C
102
{ACAD_REACTORS
330
806E
102
}
330
806E
100
DictionaryVariables
280
     0
  1
0
  0
DICTIONARY
  5
8140
102
{ACAD_REACTORS
330
813E
102
}
330
813E
100
AcDbDictionary
281
     1
  0
DICTIONARY
  5
813F
102
{ACAD_REACTORS
330
813E
102
}
330
813E
100
AcDbDictionary
281
     1
  3
2050789619984
350
8139
  3
2050789620000
350
813A
  3
2050789620016
350
813B
  3
2050789620032
350
813C
  3
2050789620048
350
813D
  0
DICTIONARY
  5
8143
330
80C3
100
AcDbDictionary
280
     1
281
     1
  3
ACAD_XREC_ROUNDTRIP
360
8144
  0
DICTIONARY
  5
8081
330
8080
100
AcDbDictionary
280
     1
281
     1
  3
BUMPTILE
360
8083
  3
DIFFUSETILE
360
8082
  3
OPACITYTILE
360
8086
  3
REFLECTIONTILE
360
8085
  3
REFRACTIONTILE
360
8087
  3
SPECULARTILE
360
8084
  0
DICTIONARY
  5
8079
330
8078
100
AcDbDictionary
280
     1
281
     1
  3
BUMPTILE
360
807B
  3
DIFFUSETILE
360
807A
  3
OPACITYTILE
360
807E
  3
REFLECTIONTILE
360
807D
  3
REFRACTIONTILE
360
807F
  3
SPECULARTILE
360
807C
  0
DICTIONARY
  5
8089
330
8088
100
AcDbDictionary
280
     1
281
     1
  3
BUMPTILE
360
808B
  3
DIFFUSETILE
360
808A
  3
OPACITYTILE
360
808E
  3
REFLECTIONTILE
360
808D
  3
REFRACTIONTILE
360
808F
  3
SPECULARTILE
360
808C
  0
DICTIONARY
  5
8141
330
80C1
100
AcDbDictionary
280
     1
281
     1
  3
ACAD_XREC_ROUNDTRIP
360
8142
  0
DICTIONARY
  5
8136
330
80AB
100
AcDbDictionary
280
     1
281
     1
  3
ACAD_ROUNDTRIP_2008_TABLESTYLE_CELLSTYLEMAP
360
8137
  0
XRECORD
  5
8139
102
{ACAD_REACTORS
330
813F
102
}
330
813F
100
AcDbXrecord
280
     1
  1
AcDb_Thumbnail_Schema
102
{ATTRRECORD
341
813A
  2
AcDbDs::TreatedAsObjectData
280
     1
291
     1
102
ATTRRECORD}
102
{ATTRRECORD
341
813B
  2
AcDbDs::Legacy
280
     1
291
     1
102
ATTRRECORD}
  2
AcDbDs::ID
280
    10
 91
        8
102
{ATTRRECORD
341
813C
  2
AcDs:Indexable
280
     1
291
     1
102
ATTRRECORD}
102
{ATTRRECORD
341
813D
  2
AcDbDs::HandleAttribute
280
     7
282
     1
102
ATTRRECORD}
  2
Thumbnail_Data
280
    15
 91
        0
  0
XRECORD
  5
813A
102
{ACAD_REACTORS
330
813F
102
}
330
813F
100
AcDbXrecord
280
     1
  1
AcDbDs::TreatedAsObjectDataSchema
  2
AcDbDs::TreatedAsObjectData
280
     1
 91
        0
  0
XRECORD
  5
813B
102
{ACAD_REACTORS
330
813F
102
}
330
813F
100
AcDbXrecord
280
     1
  1
AcDbDs::LegacySchema
  2
AcDbDs::Legacy
280
     1
 91
        0
  0
XRECORD
  5
813C
102
{ACAD_REACTORS
330
813F
102
}
330
813F
100
AcDbXrecord
280
     1
  1
AcDbDs::IndexedPropertySchema
  2
AcDs:Indexable
280
     1
 91
        0
  0
XRECORD
  5
813D
102
{ACAD_REACTORS
330
813F
102
}
330
813F
100
AcDbXrecord
280
     1
  1
AcDbDs::HandleAttributeSchema
  2
AcDbDs::HandleAttribute
280
     7
 91
        1
284
     1
  0
XRECORD
  5
8144
102
{ACAD_REACTORS
330
8143
102
}
330
8143
100
AcDbXrecord
280
     1
102
DISPLAYNAME
  1
Metric50
102
FLAGS
 90
        0
  0
XRECORD
  5
8083
102
{ACAD_REACTORS
330
8081
102
}
330
8081
100
AcDbXrecord
280
     1
270
     1
271
     1
  0
XRECORD
  5
8082
102
{ACAD_REACTORS
330
8081
102
}
330
8081
100
AcDbXrecord
280
     1
270
     1
271
     1
  0
XRECORD
  5
8086
102
{ACAD_REACTORS
330
8081
102
}
330
8081
100
AcDbXrecord
280
     1
270
     1
271
     1
  0
XRECORD
  5
8085
102
{ACAD_REACTORS
330
8081
102
}
330
8081
100
AcDbXrecord
280
     1
270
     1
271
     1
  0
XRECORD
  5
8087
102
{ACAD_REACTORS
330
8081
102
}
330
8081
100
AcDbXrecord
280
     1
270
     1
271
     1
  0
XRECORD
  5
8084
102
{ACAD_REACTORS
330
8081
102
}
330
8081
100
AcDbXrecord
280
     1
270
     1
271
     1
  0
XRECORD
  5
807B
102
{ACAD_REACTORS
330
8079
102
}
330
8079
100
AcDbXrecord
280
     1
270
     1
271
     1
  0
XRECORD
  5
807A
102
{ACAD_REACTORS
330
8079
102
}
330
8079
100
AcDbXrecord
280
     1
270
     1
271
     1
  0
XRECORD
  5
807E
102
{ACAD_REACTORS
330
8079
102
}
330
8079
100
AcDbXrecord
280
     1
270
     1
271
     1
  0
XRECORD
  5
807D
102
{ACAD_REACTORS
330
8079
102
}
330
8079
100
AcDbXrecord
280
     1
270
     1
271
     1
  0
XRECORD
  5
807F
102
{ACAD_REACTORS
330
8079
102
}
330
8079
100
AcDbXrecord
280
     1
270
     1
271
     1
  0
XRECORD
  5
807C
102
{ACAD_REACTORS
330
8079
102
}
330
8079
100
AcDbXrecord
280
     1
270
     1
271
     1
  0
XRECORD
  5
808B
102
{ACAD_REACTORS
330
8089
102
}
330
8089
100
AcDbXrecord
280
     1
270
     1
271
     1
  0
XRECORD
  5
808A
102
{ACAD_REACTORS
330
8089
102
}
330
8089
100
AcDbXrecord
280
     1
270
     1
271
     1
  0
XRECORD
  5
808E
102
{ACAD_REACTORS
330
8089
102
}
330
8089
100
AcDbXrecord
280
     1
270
     1
271
     1
  0
XRECORD
  5
808D
102
{ACAD_REACTORS
330
8089
102
}
330
8089
100
AcDbXrecord
280
     1
270
     1
271
     1
  0
XRECORD
  5
808F
102
{ACAD_REACTORS
330
8089
102
}
330
8089
100
AcDbXrecord
280
     1
270
     1
271
     1
  0
XRECORD
  5
808C
102
{ACAD_REACTORS
330
8089
102
}
330
8089
100
AcDbXrecord
280
     1
270
     1
271
     1
  0
XRECORD
  5
8142
102
{ACAD_REACTORS
330
8141
102
}
330
8141
100
AcDbXrecord
280
     1
102
DISPLAYNAME
  1
Metric50
102
FLAGS
 90
        0
  0
CELLSTYLEMAP
  5
8137
102
{ACAD_REACTORS
330
8136
102
}
330
8136
100
AcDbCellStyleMap
 90
        3
300
CELLSTYLE
  1
TABLEFORMAT_BEGIN
 90
        5
170
     1
 91
        0
 92
    32768
 62
   257
 93
        1
300
CONTENTFORMAT
  1
CONTENTFORMAT_BEGIN
 90
        0
 91
        0
 92
      512
 93
        0
300

 40
0.0
140
1.0
 94
        5
 62
     0
340
10
144
6.0
309
CONTENTFORMAT_END
171
     1
301
MARGIN
  1
CELLMARGIN_BEGIN
 40
1.5
 40
1.5
 40
1.5
 40
1.5
 40
4.5
 40
4.5
309
CELLMARGIN_END
 94
        6
 95
        1
302
GRIDFORMAT
  1
GRIDFORMAT_BEGIN
 90
        0
 91
        1
 62
     0
 92
       -2
340
0
 93
        0
 40
1.125
309
GRIDFORMAT_END
 95
        2
302
GRIDFORMAT
  1
GRIDFORMAT_BEGIN
 90
        0
 91
        1
 62
     0
 92
       -2
340
0
 93
        0
 40
1.125
309
GRIDFORMAT_END
 95
        4
302
GRIDFORMAT
  1
GRIDFORMAT_BEGIN
 90
        0
 91
        1
 62
     0
 92
       -2
340
0
 93
        0
 40
1.125
309
GRIDFORMAT_END
 95
        8
302
GRIDFORMAT
  1
GRIDFORMAT_BEGIN
 90
        0
 91
        1
 62
     0
 92
       -2
340
0
 93
        0
 40
1.125
309
GRIDFORMAT_END
 95
       16
302
GRIDFORMAT
  1
GRIDFORMAT_BEGIN
 90
        0
 91
        1
 62
     0
 92
       -2
340
0
 93
        0
 40
1.125
309
GRIDFORMAT_END
 95
       32
302
GRIDFORMAT
  1
GRIDFORMAT_BEGIN
 90
        0
 91
        1
 62
     0
 92
       -2
340
0
 93
        0
 40
1.125
309
GRIDFORMAT_END
309
TABLEFORMAT_END
  1
CELLSTYLE_BEGIN
 90
        1
 91
        1
300
_TITLE
309
CELLSTYLE_END
300
CELLSTYLE
  1
TABLEFORMAT_BEGIN
 90
        5
170
     1
 91
        0
 92
        0
 62
   257
 93
        1
300
CONTENTFORMAT
  1
CONTENTFORMAT_BEGIN
 90
        0
 91
        0
 92
      512
 93
        0
300

 40
0.0
140
1.0
 94
        5
 62
     0
340
10
144
4.5
309
CONTENTFORMAT_END
171
     1
301
MARGIN
  1
CELLMARGIN_BEGIN
 40
1.5
 40
1.5
 40
1.5
 40
1.5
 40
4.5
 40
4.5
309
CELLMARGIN_END
 94
        6
 95
        1
302
GRIDFORMAT
  1
GRIDFORMAT_BEGIN
 90
        0
 91
        1
 62
     0
 92
       -2
340
0
 93
        0
 40
1.125
309
GRIDFORMAT_END
 95
        2
302
GRIDFORMAT
  1
GRIDFORMAT_BEGIN
 90
        0
 91
        1
 62
     0
 92
       -2
340
0
 93
        0
 40
1.125
309
GRIDFORMAT_END
 95
        4
302
GRIDFORMAT
  1
GRIDFORMAT_BEGIN
 90
        0
 91
        1
 62
     0
 92
       -2
340
0
 93
        0
 40
1.125
309
GRIDFORMAT_END
 95
        8
302
GRIDFORMAT
  1
GRIDFORMAT_BEGIN
 90
        0
 91
        1
 62
     0
 92
       -2
340
0
 93
        0
 40
1.125
309
GRIDFORMAT_END
 95
       16
302
GRIDFORMAT
  1
GRIDFORMAT_BEGIN
 90
        0
 91
        1
 62
     0
 92
       -2
340
0
 93
        0
 40
1.125
309
GRIDFORMAT_END
 95
       32
302
GRIDFORMAT
  1
GRIDFORMAT_BEGIN
 90
        0
 91
        1
 62
     0
 92
       -2
340
0
 93
        0
 40
1.125
309
GRIDFORMAT_END
309
TABLEFORMAT_END
  1
CELLSTYLE_BEGIN
 90
        2
 91
        1
300
_HEADER
309
CELLSTYLE_END
300
CELLSTYLE
  1
TABLEFORMAT_BEGIN
 90
        5
170
     1
 91
        0
 92
        0
 62
   257
 93
        1
300
CONTENTFORMAT
  1
CONTENTFORMAT_BEGIN
 90
        0
 91
        0
 92
      512
 93
        0
300

 40
0.0
140
1.0
 94
        2
 62
     0
340
10
144
4.5
309
CONTENTFORMAT_END
171
     1
301
MARGIN
  1
CELLMARGIN_BEGIN
 40
1.5
 40
1.5
 40
1.5
 40
1.5
 40
4.5
 40
4.5
309
CELLMARGIN_END
 94
        6
 95
        1
302
GRIDFORMAT
  1
GRIDFORMAT_BEGIN
 90
        0
 91
        1
 62
     0
 92
       -2
340
0
 93
        0
 40
1.125
309
GRIDFORMAT_END
 95
        2
302
GRIDFORMAT
  1
GRIDFORMAT_BEGIN
 90
        0
 91
        1
 62
     0
 92
       -2
340
0
 93
        0
 40
1.125
309
GRIDFORMAT_END
 95
        4
302
GRIDFORMAT
  1
GRIDFORMAT_BEGIN
 90
        0
 91
        1
 62
     0
 92
       -2
340
0
 93
        0
 40
1.125
309
GRIDFORMAT_END
 95
        8
302
GRIDFORMAT
  1
GRIDFORMAT_BEGIN
 90
        0
 91
        1
 62
     0
 92
       -2
340
0
 93
        0
 40
1.125
309
GRIDFORMAT_END
 95
       16
302
GRIDFORMAT
  1
GRIDFORMAT_BEGIN
 90
        0
 91
        1
 62
     0
 92
       -2
340
0
 93
        0
 40
1.125
309
GRIDFORMAT_END
 95
       32
302
GRIDFORMAT
  1
GRIDFORMAT_BEGIN
 90
        0
 91
        1
 62
     0
 92
       -2
340
0
 93
        0
 40
1.125
309
GRIDFORMAT_END
309
TABLEFORMAT_END
  1
CELLSTYLE_BEGIN
 90
        3
 91
        2
300
_DATA
309
CELLSTYLE_END
  0
ENDSEC
  0
SECTION
  2
ACDSDATA
 70
     2
 71
     8
  0
ACDSSCHEMA
 90
        0
  1
AcDb_Thumbnail_Schema
  2
AcDbDs::ID
280
    10
 91
        8
  2
Thumbnail_Data
280
    15
 91
        0
101
ACDSRECORD
 95
        0
 90
        1
  2
AcDbDs::TreatedAsObjectData
280
     1
291
     1
101
ACDSRECORD
 95
        0
 90
        2
  2
AcDbDs::Legacy
280
     1
291
     1
101
ACDSRECORD
  1
AcDbDs::ID
 90
        3
  2
AcDs:Indexable
280
     1
291
     1
101
ACDSRECORD
  1
AcDbDs::ID
 90
        4
  2
AcDbDs::HandleAttribute
280
     7
282
     1
  0
ACDSSCHEMA
 90
        1
  1
AcDbDs::TreatedAsObjectDataSchema
  2
AcDbDs::TreatedAsObjectData
280
     1
 91
        0
  0
ACDSSCHEMA
 90
        2
  1
AcDbDs::LegacySchema
  2
AcDbDs::Legacy
280
     1
 91
        0
  0
ACDSSCHEMA
 90
        3
  1
AcDbDs::IndexedPropertySchema
  2
AcDs:Indexable
280
     1
 91
        0
  0
ACDSSCHEMA
 90
        4
  1
AcDbDs::HandleAttributeSchema
  2
AcDbDs::HandleAttribute
280
     7
 91
        1
284
     1
  0
ACDSRECORD
 90
        0
  2
AcDbDs::ID
280
    10
320
7FAA
  2
Thumbnail_Data
280
    15
 94
     1688
310
89504E470D0A1A0A0000000D49484452000001000000007C0803000000B13B9E5A00000300504C5445000000000000C8C8C80000000000000000000000000000000000000000000000000000330000660000990000CC0000FF0033000033330033660033990033CC0033FF0066000066330066660066990066CC0066FF0099
310
000099330099660099990099CC0099FF00CC0000CC3300CC6600CC9900CCCC00CCFF00FF0000FF3300FF6600FF9900FFCC00FFFF3300003300333300663300993300CC3300FF3333003333333333663333993333CC3333FF3366003366333366663366993366CC3366FF3399003399333399663399993399CC3399FF33CC00
310
33CC3333CC6633CC9933CCCC33CCFF33FF0033FF3333FF6633FF9933FFCC33FFFF6600006600336600666600996600CC6600FF6633006633336633666633996633CC6633FF6666006666336666666666996666CC6666FF6699006699336699666699996699CC6699FF66CC0066CC3366CC6666CC9966CCCC66CCFF66FF0066
310
FF3366FF6666FF9966FFCC66FFFF9900009900339900669900999900CC9900FF9933009933339933669933999933CC9933FF9966009966339966669966999966CC9966FF9999009999339999669999999999CC9999FF99CC0099CC3399CC6699CC9999CCCC99CCFF99FF0099FF3399FF6699FF9999FFCC99FFFFCC0000CC00
310
33CC0066CC0099CC00CCCC00FFCC3300CC3333CC3366CC3399CC33CCCC33FFCC6600CC6633CC6666CC6699CC66CCCC66FFCC9900CC9933CC9966CC9999CC99CCCC99FFCCCC00CCCC33CCCC66CCCC99CCCCCCCCCCFFCCFF00CCFF33CCFF66CCFF99CCFFCCCCFFFFFF0000FF0033FF0066FF0099FF00CCFF00FFFF3300FF3333
310
FF3366FF3399FF33CCFF33FFFF6600FF6633FF6666FF6699FF66CCFF66FFFF9900FF9933FF9966FF9999FF99CCFF99FFFFCC00FFCC33FFCC66FFCC99FFCCCCFFCCFFFFFF00FFFF33FFFF66FFFF99FFFFCCFFFFFF0000000D0D0D1A1A1A2828283535354343435050505D5D5D6B6B6B787878868686939393A1A1A1AEAEAEBB
310
BBBBC9C9C9D6D6D6E4E4E4F1F1F1FFFFFF00000000000000000000000000000000000000000000000000000000000008F1915C000003534944415478DAED9D5972C3300886398E5EB8FF65740DBFD7D68A9638EE4CDA09F0AB4B6A3BCE844FBF400B5189FEA01C7F54484B3954BD2C000000000000007CCF3BBD097E5E004C
310
B71F2E15E01EC0E119C0D40A7403F8E8084025802F7B3100F87F0045C693AAFB636AF5E5A6AAF772A1DCAF1F40C140DD72EA3FC5F2D201C86D3E9F2D7F9A5000C9AAA7410923072186FA600140D671ABE2A3A9E2DEB4034E10FD008783A19B57500B60ADD2A58A8FF63C3AA83EC10D80D61F68006A3C340980460025EA95A7
310
9149009FBA1F738200A01F40BCCA7010BD008837C50780D7C7000000C601E486CE6371A580D342DE155F00CADFA19F0600000000000000070052671F007C030881392C050A700FA00E0B1ECE09D88B026739DBC6A584483E015C8727808793420000000000008A01ECA78412000F51E0B2F2B2B829A177045C01D8CAC03C80
310
6156388CD607173D41E9075600EE1646960A07001F00BCAF0E7FEFCB020000FCFB3BFD656A8C1F00C227EEDCA36A00F14914300D4056FB645ABC25640D40EC00E2006092CBA69764AF09DC0188D6006C6A7405B061E40C40BD147ACBD10DA057654D8A0AB70078C925530F209916F354D88BECB00E806705B07A00240154D3
310
D83B8072E4184036D509801CCD968511F60E40D8E608409915760BA04D8B67E39E00907D667D00F2E8A7014886871604F8A90222A906D0A200D726B00F836591CC0100AA6BA40300360F805B4200E7A38700FAC8583D80646068ABE20B00B20A208F063799A26152C09A4ECAC18602B2E76F0A98722504804501AC1A401B0B
310
94D0577362A8F88162F02D00560FA0BCFF2C806AA4E817091F205387C498C90C80F41D5AD533C9040911042600640340B677ACE8F32B108B26601B00934891E95EFF74F4A9D58716044C01906B1CC90D86362E4C18DE2940F760685E06E5E6DF993A05165160E704750F871B00BE4993A399C0FAF962D500DEE509B22B00F1
310
9502860B71F3297BBD9F192ABFFBEA308D1BA844312B50D303E462B27200C5CCB70912EF53E8B40310E323DA49242EF78C279503F878CBD2E3030800000000000000EA25EFBBCADE5876EC0FAD01A02D8075E7F5BE09B759054C2769D8849DFAE6AAF001569B80A4D2F6E1279AB7D375E104FBBEF3EE01AC1B2AC307A02708
310
000000000000000000009A0028FAD7DB3FFC496BB1FDA5970F0000000049454E44AE426082
  0
ENDSEC
  0
EOF
