  0
SECTION
  2
HEADER
  9
$ACADVER
  1
AC1027
  9
$ACADMAINTVER
 70
   125
  9
$DWGCODEPAGE
  3
ANSI_932
  9
$LASTSAVEDBY
  1
yasukiyo.ogawa
  9
$REQUIREDVERSIONS
160
                 0
  9
$INSBASE
 10
0.0
 20
0.0
 30
0.0
  9
$EXTMIN
 10
0.0
 20
0.0
 30
0.0
  9
$EXTMAX
 10
10500.0
 20
14750.0
 30
0.0
  9
$LIMMIN
 10
0.0
 20
0.0
  9
$LIMMAX
 10
297.0
 20
210.0
  9
$ORTHOMODE
 70
     1
  9
$REGENMODE
 70
     1
  9
$FILLMODE
 70
     0
  9
$QTEXTMODE
 70
     0
  9
$MIRRTEXT
 70
     1
  9
$LTSCALE
 40
100.0
  9
$ATTMODE
 70
     1
  9
$TEXTSIZE
 40
180.0
  9
$TRACEWID
 40
0.05
  9
$TEXTSTYLE
  7
STANDARD
  9
$CLAYER
  8
3
  9
$CELTYPE
  6
BYLAYER
  9
$CECOLOR
 62
   256
  9
$CELTSCALE
 40
1.0
  9
$DISPSILH
 70
     0
  9
$DIMSCALE
 40
50.0
  9
$DIMASZ
 40
2.0
  9
$DIMEXO
 40
0.5
  9
$DIMDLI
 40
10.0
  9
$DIMRND
 40
0.0
  9
$DIMDLE
 40
0.0
  9
$DIMEXE
 40
1.0
  9
$DIMTP
 40
1.0
  9
$DIMTM
 40
1.0
  9
$DIMTXT
 40
3.0
  9
$DIMCEN
 40
0.0
  9
$DIMTSZ
 40
0.0
  9
$DIMTOL
 70
     0
  9
$DIMLIM
 70
     0
  9
$DIMTIH
 70
     0
  9
$DIMTOH
 70
     0
  9
$DIMSE1
 70
     0
  9
$DIMSE2
 70
     0
  9
$DIMTAD
 70
     1
  9
$DIMZIN
 70
     8
  9
$DIMBLK
  1

  9
$DIMASO
 70
     1
  9
$DIMSHO
 70
     1
  9
$DIMPOST
  1

  9
$DIMAPOST
  1

  9
$DIMALT
 70
     0
  9
$DIMALTD
 70
     2
  9
$DIMALTF
 40
0.039
  9
$DIMLFAC
 40
1.0
  9
$DIMTOFL
 70
     1
  9
$DIMTVP
 40
0.0
  9
$DIMTIX
 70
     0
  9
$DIMSOXD
 70
     0
  9
$DIMSAH
 70
     1
  9
$DIMBLK1
  1
OPEN
  9
$DIMBLK2
  1
OPEN
  9
$DIMSTYLE
  2
IGA
  9
$DIMCLRD
 70
     0
  9
$DIMCLRE
 70
     0
  9
$DIMCLRT
 70
     0
  9
$DIMTFAC
 40
10.0
  9
$DIMGAP
 40
1.0
  9
$DIMJUST
 70
     0
  9
$DIMSD1
 70
     0
  9
$DIMSD2
 70
     0
  9
$DIMTOLJ
 70
     1
  9
$DIMTZIN
 70
     8
  9
$DIMALTZ
 70
     0
  9
$DIMALTTZ
 70
     0
  9
$DIMUPT
 70
     0
  9
$DIMDEC
 70
     0
  9
$DIMTDEC
 70
     0
  9
$DIMALTU
 70
     2
  9
$DIMALTTD
 70
     2
  9
$DIMTXSTY
  7
STANDARD
  9
$DIMAUNIT
 70
     0
  9
$DIMADEC
 70
     0
  9
$DIMALTRND
 40
0.0
  9
$DIMAZIN
 70
     0
  9
$DIMDSEP
 70
    46
  9
$DIMATFIT
 70
     3
  9
$DIMFRAC
 70
     0
  9
$DIMLDRBLK
  1
OPEN
  9
$DIMLUNIT
 70
     2
  9
$DIMLWD
 70
    -2
  9
$DIMLWE
 70
    -2
  9
$DIMTMOVE
 70
     2
  9
$DIMFXL
 40
1.0
  9
$DIMFXLON
 70
     0
  9
$DIMJOGANG
 40
0.7853981633974483
  9
$DIMTFILL
 70
     0
  9
$DIMTFILLCLR
 70
     0
  9
$DIMARCSYM
 70
     0
  9
$DIMLTYPE
  6

  9
$DIMLTEX1
  6

  9
$DIMLTEX2
  6

  9
$DIMTXTDIRECTION
 70
     0
  9
$LUNITS
 70
     2
  9
$LUPREC
 70
     3
  9
$SKETCHINC
 40
0.1
  9
$FILLETRAD
 40
50.0
  9
$AUNITS
 70
     0
  9
$AUPREC
 70
     0
  9
$MENU
  1
acad
  9
$ELEVATION
 40
0.0
  9
$PELEVATION
 40
0.0
  9
$THICKNESS
 40
0.0
  9
$LIMCHECK
 70
     0
  9
$CHAMFERA
 40
0.0
  9
$CHAMFERB
 40
0.0
  9
$CHAMFERC
 40
20.0
  9
$CHAMFERD
 40
0.0
  9
$SKPOLY
 70
     0
  9
$TDCREATE
 40
2452326.445474537
  9
$TDUCREATE
 40
2452326.070481250
  9
$TDUPDATE
 40
2460245.584166667
  9
$TDUUPDATE
 40
2460245.209167720
  9
$TDINDWG
 40
0.0625156597
  9
$TDUSRTIMER
 40
0.0625156597
  9
$USRTIMER
 70
     1
  9
$ANGBASE
 50
0.0
  9
$ANGDIR
 70
     0
  9
$PDMODE
 70
     0
  9
$PDSIZE
 40
0.0
  9
$PLINEWID
 40
0.0
  9
$SPLFRAME
 70
     0
  9
$SPLINETYPE
 70
     6
  9
$SPLINESEGS
 70
     8
  9
$HANDSEED
  5
8270
  9
$SURFTAB1
 70
     6
  9
$SURFTAB2
 70
     6
  9
$SURFTYPE
 70
     6
  9
$SURFU
 70
     6
  9
$SURFV
 70
     6
  9
$UCSBASE
  2

  9
$UCSNAME
  2

  9
$UCSORG
 10
0.0
 20
0.0
 30
0.0
  9
$UCSXDIR
 10
1.0
 20
0.0
 30
0.0
  9
$UCSYDIR
 10
0.0
 20
1.0
 30
0.0
  9
$UCSORTHOREF
  2

  9
$UCSORTHOVIEW
 70
     0
  9
$UCSORGTOP
 10
0.0
 20
0.0
 30
0.0
  9
$UCSORGBOTTOM
 10
0.0
 20
0.0
 30
0.0
  9
$UCSORGLEFT
 10
0.0
 20
0.0
 30
0.0
  9
$UCSORGRIGHT
 10
0.0
 20
0.0
 30
0.0
  9
$UCSORGFRONT
 10
0.0
 20
0.0
 30
0.0
  9
$UCSORGBACK
 10
0.0
 20
0.0
 30
0.0
  9
$PUCSBASE
  2

  9
$PUCSNAME
  2

  9
$PUCSORG
 10
0.0
 20
0.0
 30
0.0
  9
$PUCSXDIR
 10
1.0
 20
0.0
 30
0.0
  9
$PUCSYDIR
 10
0.0
 20
1.0
 30
0.0
  9
$PUCSORTHOREF
  2

  9
$PUCSORTHOVIEW
 70
     0
  9
$PUCSORGTOP
 10
0.0
 20
0.0
 30
0.0
  9
$PUCSORGBOTTOM
 10
0.0
 20
0.0
 30
0.0
  9
$PUCSORGLEFT
 10
0.0
 20
0.0
 30
0.0
  9
$PUCSORGRIGHT
 10
0.0
 20
0.0
 30
0.0
  9
$PUCSORGFRONT
 10
0.0
 20
0.0
 30
0.0
  9
$PUCSORGBACK
 10
0.0
 20
0.0
 30
0.0
  9
$USERI1
 70
     0
  9
$USERI2
 70
     0
  9
$USERI3
 70
     0
  9
$USERI4
 70
     0
  9
$USERI5
 70
     0
  9
$USERR1
 40
0.0
  9
$USERR2
 40
0.0
  9
$USERR3
 40
0.0
  9
$USERR4
 40
0.0
  9
$USERR5
 40
0.0
  9
$WORLDVIEW
 70
     1
  9
$SHADEDGE
 70
     3
  9
$SHADEDIF
 70
    70
  9
$TILEMODE
 70
     1
  9
$MAXACTVP
 70
    16
  9
$PINSBASE
 10
0.0
 20
0.0
 30
0.0
  9
$PLIMCHECK
 70
     0
  9
$PEXTMIN
 10
1.000000000000000E+20
 20
1.000000000000000E+20
 30
1.000000000000000E+20
  9
$PEXTMAX
 10
-1.000000000000000E+20
 20
-1.000000000000000E+20
 30
-1.000000000000000E+20
  9
$PLIMMIN
 10
0.0
 20
0.0
  9
$PLIMMAX
 10
12.0
 20
9.0
  9
$UNITMODE
 70
     0
  9
$VISRETAIN
 70
     0
  9
$PLINEGEN
 70
     0
  9
$PSLTSCALE
 70
     1
  9
$TREEDEPTH
 70
  3020
  9
$CMLSTYLE
  2
STANDARD
  9
$CMLJUST
 70
     0
  9
$CMLSCALE
 40
20.0
  9
$PROXYGRAPHICS
 70
     1
  9
$MEASUREMENT
 70
     1
  9
$CELWEIGHT
370
    -1
  9
$ENDCAPS
280
     0
  9
$JOINSTYLE
280
     0
  9
$LWDISPLAY
290
     0
  9
$INSUNITS
 70
     0
  9
$HYPERLINKBASE
  1

  9
$STYLESHEET
  1

  9
$XEDIT
290
     1
  9
$CEPSNTYPE
380
     0
  9
$PSTYLEMODE
290
     1
  9
$FINGERPRINTGUID
  2
{A591ED81-291E-46B4-A3BE-18B7D0386C64}
  9
$VERSIONGUID
  2
{25CC2466-9ADD-4737-AA71-92D2EAF337A0}
  9
$EXTNAMES
290
     1
  9
$PSVPSCALE
 40
0.0
  9
$OLESTARTUP
290
     0
  9
$SORTENTS
280
   127
  9
$INDEXCTL
280
     0
  9
$HIDETEXT
280
     0
  9
$XCLIPFRAME
280
     2
  9
$HALOGAP
280
     0
  9
$OBSCOLOR
 70
   257
  9
$OBSLTYPE
280
     0
  9
$INTERSECTIONDISPLAY
280
     0
  9
$INTERSECTIONCOLOR
 70
   257
  9
$DIMASSOC
280
     1
  9
$PROJECTNAME
  1

  9
$CAMERADISPLAY
290
     0
  9
$LENSLENGTH
 40
50.0
  9
$CAMERAHEIGHT
 40
0.0
  9
$STEPSPERSEC
 40
2.0
  9
$STEPSIZE
 40
6.0
  9
$3DDWFPREC
 40
2.0
  9
$PSOLWIDTH
 40
0.25
  9
$PSOLHEIGHT
 40
4.0
  9
$LOFTANG1
 40
1.570796326794896
  9
$LOFTANG2
 40
1.570796326794896
  9
$LOFTMAG1
 40
0.0
  9
$LOFTMAG2
 40
0.0
  9
$LOFTPARAM
 70
     7
  9
$LOFTNORMALS
280
     1
  9
$LATITUDE
 40
37.795
  9
$LONGITUDE
 40
-122.394
  9
$NORTHDIRECTION
 40
0.0
  9
$TIMEZONE
 70
 -8000
  9
$LIGHTGLYPHDISPLAY
280
     1
  9
$TILEMODELIGHTSYNCH
280
     1
  9
$CMATERIAL
347
81AC
  9
$SOLIDHIST
280
     0
  9
$SHOWHIST
280
     1
  9
$DWFFRAME
280
     2
  9
$DGNFRAME
280
     0
  9
$REALWORLDSCALE
290
     1
  9
$INTERFERECOLOR
 62
     1
  9
$INTERFEREOBJVS
345
81CE
  9
$INTERFEREVPVS
346
81CB
  9
$CSHADOW
280
     0
  9
$SHADOWPLANELOCATION
 40
0.0
  0
ENDSEC
  0
SECTION
  2
CLASSES
  0
CLASS
  1
ACDBDICTIONARYWDFLT
  2
AcDbDictionaryWithDefault
  3
ObjectDBX Classes
 90
        0
 91
        1
280
     0
281
     0
  0
CLASS
  1
DICTIONARYVAR
  2
AcDbDictionaryVar
  3
ObjectDBX Classes
 90
        0
 91
       11
280
     0
281
     0
  0
CLASS
  1
MATERIAL
  2
AcDbMaterial
  3
ObjectDBX Classes
 90
     1153
 91
        3
280
     0
281
     0
  0
CLASS
  1
VISUALSTYLE
  2
AcDbVisualStyle
  3
ObjectDBX Classes
 90
     4095
 91
       24
280
     0
281
     0
  0
CLASS
  1
TABLESTYLE
  2
AcDbTableStyle
  3
ObjectDBX Classes
 90
     4095
 91
        1
280
     0
281
     0
  0
CLASS
  1
SCALE
  2
AcDbScale
  3
ObjectDBX Classes
 90
     1153
 91
       17
280
     0
281
     0
  0
CLASS
  1
MLEADERSTYLE
  2
AcDbMLeaderStyle
  3
ACDB_MLEADERSTYLE_CLASS
 90
     4095
 91
        1
280
     0
281
     0
  0
CLASS
  1
ACDBSECTIONVIEWSTYLE
  2
AcDbSectionViewStyle
  3
ObjectDBX Classes
 90
     1025
 91
        1
280
     0
281
     0
  0
CLASS
  1
ACDBDETAILVIEWSTYLE
  2
AcDbDetailViewStyle
  3
ObjectDBX Classes
 90
     1025
 91
        1
280
     0
281
     0
  0
CLASS
  1
CELLSTYLEMAP
  2
AcDbCellStyleMap
  3
ObjectDBX Classes
 90
     1152
 91
        1
280
     0
281
     0
  0
ENDSEC
  0
SECTION
  2
TABLES
  0
TABLE
  2
VPORT
  5
8
330
0
100
AcDbSymbolTable
 70
     1
1001
ACAD
1000
DbSaveVer
1071
      278
  0
VPORT
  5
81A9
330
8
100
AcDbSymbolTableRecord
100
AcDbViewportTableRecord
  2
*Active
 70
     0
 10
0.0
 20
0.0
 11
1.0
 21
1.0
 12
6735.28379831989
 22
7375.000034342519
 13
0.0
 23
0.0
 14
10.0
 24
10.0
 15
10.0
 25
10.0
 16
0.0
 26
0.0
 36
1.0
 17
0.0
 27
0.0
 37
0.0
 40
14845.3564068816
 41
2.250314465408805
 42
50.0
 43
0.0
 44
0.0
 50
0.0
 51
0.0
 71
     0
 72
   100
 73
     1
 74
     0
 75
     0
 76
     0
 77
     0
 78
     0
281
     0
 65
     1
110
0.0
120
0.0
130
0.0
111
1.0
121
0.0
131
0.0
112
0.0
122
1.0
132
0.0
 79
     0
146
0.0
348
81CA
 60
     3
 61
     5
292
     1
282
     1
141
0.0
142
0.0
 63
   250
421
  3355443
1001
ACAD_NAV_VCDISPLAY
1070
     3
  0
ENDTAB
  0
TABLE
  2
LTYPE
  5
5
330
0
100
AcDbSymbolTable
 70
     2
  0
LTYPE
  5
13
330
5
100
AcDbSymbolTableRecord
100
AcDbLinetypeTableRecord
  2
BYBLOCK
 70
     0
  3

 72
    65
 73
     0
 40
0.0
  0
LTYPE
  5
14
330
5
100
AcDbSymbolTableRecord
100
AcDbLinetypeTableRecord
  2
BYLAYER
 70
     0
  3

 72
    65
 73
     0
 40
0.0
  0
LTYPE
  5
15
330
5
100
AcDbSymbolTableRecord
100
AcDbLinetypeTableRecord
  2
CONTINUOUS
 70
     0
  3
Solid line
 72
    65
 73
     0
 40
0.0
  0
LTYPE
  5
1F
330
5
100
AcDbSymbolTableRecord
100
AcDbLinetypeTableRecord
  2
CENTER
 70
     0
  3
____ _ ____ _ ____ _ ____ _ ____ _ ____ _ ____ 
 72
    65
 73
     4
 40
2.0
 49
1.25
 74
     0
 49
-0.25
 74
     0
 49
0.25
 74
     0
 49
-0.25
 74
     0
  0
ENDTAB
  0
TABLE
  2
LAYER
  5
2
102
{ACAD_XDICTIONARY
360
8247
102
}
330
0
100
AcDbSymbolTable
 70
     6
  0
LAYER
  5
F
102
{ACAD_XDICTIONARY
360
823A
102
}
330
2
100
AcDbSymbolTableRecord
100
AcDbLayerTableRecord
  2
0
 70
     0
 62
     7
  6
CONTINUOUS
370
    -3
390
80E5
347
81BC
348
0
  0
LAYER
  5
31
102
{ACAD_XDICTIONARY
360
823C
102
}
330
2
100
AcDbSymbolTableRecord
100
AcDbLayerTableRecord
  2
3
 70
     0
 62
     2
  6
CONTINUOUS
370
    -3
390
80E5
347
81BC
348
0
  0
LAYER
  5
76D0
102
{ACAD_XDICTIONARY
360
823E
102
}
330
2
100
AcDbSymbolTableRecord
100
AcDbLayerTableRecord
  2
2
 70
     0
 62
     3
  6
CENTER
370
    -3
390
80E5
347
81BC
348
0
  0
LAYER
  5
76D1
102
{ACAD_XDICTIONARY
360
8240
102
}
330
2
100
AcDbSymbolTableRecord
100
AcDbLayerTableRecord
  2
1
 70
     0
 62
     4
  6
CONTINUOUS
370
    -3
390
80E5
347
81BC
348
0
  0
LAYER
  5
76D2
102
{ACAD_XDICTIONARY
360
8242
102
}
330
2
100
AcDbSymbolTableRecord
100
AcDbLayerTableRecord
  2
4
 70
     0
 62
     7
  6
CONTINUOUS
370
    -3
390
80E5
347
81BC
348
0
  0
LAYER
  5
7A01
330
2
100
AcDbSymbolTableRecord
100
AcDbLayerTableRecord
  2
DEFPOINTS
 70
     0
 62
     7
  6
CONTINUOUS
290
     0
370
    -3
390
80E5
347
81BC
348
0
  0
ENDTAB
  0
TABLE
  2
STYLE
  5
3
330
0
100
AcDbSymbolTable
 70
     1
  0
STYLE
  5
10
330
3
100
AcDbSymbolTableRecord
100
AcDbTextStyleTableRecord
  2
STANDARD
 70
     0
 40
0.0
 41
1.0
 50
0.0
 71
     0
 42
180.0
  3
simplex.shx
  4
extfont.shx
  0
ENDTAB
  0
TABLE
  2
VIEW
  5
6
330
0
100
AcDbSymbolTable
 70
     0
  0
ENDTAB
  0
TABLE
  2
UCS
  5
7
330
0
100
AcDbSymbolTable
 70
     0
  0
ENDTAB
  0
TABLE
  2
APPID
  5
9
330
0
100
AcDbSymbolTable
 70
     4
  0
APPID
  5
11
330
9
100
AcDbSymbolTableRecord
100
AcDbRegAppTableRecord
  2
ACAD
 70
     0
  0
APPID
  5
81FB
330
9
100
AcDbSymbolTableRecord
100
AcDbRegAppTableRecord
  2
AcadAnnoMonitorAlertIconDisabled
 70
     0
  0
APPID
  5
81FC
330
9
100
AcDbSymbolTableRecord
100
AcDbRegAppTableRecord
  2
ACAD_EXEMPT_FROM_CAD_STANDARDS
 70
     0
  0
APPID
  5
824D
330
9
100
AcDbSymbolTableRecord
100
AcDbRegAppTableRecord
  2
ACAD_NAV_VCDISPLAY
 70
     0
  0
ENDTAB
  0
TABLE
  2
DIMSTYLE
  5
A
330
0
100
AcDbSymbolTable
 70
     1
100
AcDbDimStyleTable
 71
     1
340
1D
  0
DIMSTYLE
105
1D
102
{ACAD_REACTORS
330
7B9E
330
7BAA
330
7BB7
330
7BC4
330
7BD1
330
7CD8
330
7CF2
330
7CFE
330
7DAB
330
7DB8
330
7DC4
330
7DFC
330
7F6F
330
7F7B
330
7FA2
330
80A5
330
80B2
330
80BF
330
80CC
330
80D9
102
}
330
A
100
AcDbSymbolTableRecord
100
AcDbDimStyleTableRecord
  2
IGA
 70
     0
 40
2.0
 41
2.0
 42
0.5
 43
10.0
 44
1.0
 47
1.0
 48
1.0
 73
     0
 74
     0
 77
     1
 78
     8
140
3.0
141
0.0
143
0.03937
146
10.0
147
1.0
173
     1
271
     1
272
     0
279
     2
284
     8
340
10
341
7B8C
343
7B8C
344
7B8C
  0
ENDTAB
  0
TABLE
  2
BLOCK_RECORD
  5
1
330
0
100
AcDbSymbolTable
 70
    23
  0
BLOCK_RECORD
  5
19
102
{ACAD_XDICTIONARY
360
8113
102
}
330
1
100
AcDbSymbolTableRecord
100
AcDbBlockTableRecord
  2
*MODEL_SPACE
340
80E8
 70
     0
280
     1
281
     0
  0
BLOCK_RECORD
  5
16
102
{ACAD_XDICTIONARY
360
8111
102
}
330
1
100
AcDbSymbolTableRecord
100
AcDbBlockTableRecord
  2
*PAPER_SPACE
340
80E9
 70
     0
280
     1
281
     0
  0
BLOCK_RECORD
  5
7B8C
330
1
100
AcDbSymbolTableRecord
100
AcDbBlockTableRecord
  2
_OPEN
340
0
102
{BLKREFS
331
809E
331
809F
331
80AB
331
80AC
331
8151
331
8152
331
815A
331
815B
331
8163
331
8164
331
817D
331
817E
331
8188
331
8189
331
8190
331
8191
331
8199
331
819A
331
8222
331
8223
331
822B
331
822C
331
8234
331
8235
331
80B8
331
80B9
331
80C5
331
80C6
331
80D2
331
80D3
331
811C
331
811D
331
8124
331
8125
331
812D
331
812E
331
813F
331
8140
331
8148
331
8149
102
}
 70
     0
280
     1
281
     0
  0
BLOCK_RECORD
  5
7B92
330
1
100
AcDbSymbolTableRecord
100
AcDbBlockTableRecord
  2
*D1
340
0
 70
     0
280
     1
281
     0
  0
BLOCK_RECORD
  5
7B9F
330
1
100
AcDbSymbolTableRecord
100
AcDbBlockTableRecord
  2
*D2
340
0
 70
     0
280
     1
281
     0
  0
BLOCK_RECORD
  5
7BAB
330
1
100
AcDbSymbolTableRecord
100
AcDbBlockTableRecord
  2
*D3
340
0
 70
     0
280
     1
281
     0
  0
BLOCK_RECORD
  5
7BB8
330
1
100
AcDbSymbolTableRecord
100
AcDbBlockTableRecord
  2
*D4
340
0
 70
     0
280
     1
281
     0
  0
BLOCK_RECORD
  5
7BC5
330
1
100
AcDbSymbolTableRecord
100
AcDbBlockTableRecord
  2
*D5
340
0
 70
     0
280
     1
281
     0
  0
BLOCK_RECORD
  5
7CCC
330
1
100
AcDbSymbolTableRecord
100
AcDbBlockTableRecord
  2
*D6
340
0
 70
     0
280
     1
281
     0
  0
BLOCK_RECORD
  5
7CE6
330
1
100
AcDbSymbolTableRecord
100
AcDbBlockTableRecord
  2
*D7
340
0
 70
     0
280
     1
281
     0
  0
BLOCK_RECORD
  5
7CF3
330
1
100
AcDbSymbolTableRecord
100
AcDbBlockTableRecord
  2
*D8
340
0
 70
     0
280
     1
281
     0
  0
BLOCK_RECORD
  5
7D2C
330
1
100
AcDbSymbolTableRecord
100
AcDbBlockTableRecord
  2
_DOT
340
0
 70
     0
280
     1
281
     0
  0
BLOCK_RECORD
  5
7D9F
330
1
100
AcDbSymbolTableRecord
100
AcDbBlockTableRecord
  2
*D10
340
0
 70
     0
280
     1
281
     0
  0
BLOCK_RECORD
  5
7DAC
330
1
100
AcDbSymbolTableRecord
100
AcDbBlockTableRecord
  2
*D11
340
0
 70
     0
280
     1
281
     0
  0
BLOCK_RECORD
  5
7DB9
330
1
100
AcDbSymbolTableRecord
100
AcDbBlockTableRecord
  2
*D12
340
0
 70
     0
280
     1
281
     0
  0
BLOCK_RECORD
  5
7DF0
330
1
100
AcDbSymbolTableRecord
100
AcDbBlockTableRecord
  2
*D13
340
0
 70
     0
280
     1
281
     0
  0
BLOCK_RECORD
  5
7F64
330
1
100
AcDbSymbolTableRecord
100
AcDbBlockTableRecord
  2
*D14
340
0
 70
     0
280
     1
281
     0
  0
BLOCK_RECORD
  5
7F70
330
1
100
AcDbSymbolTableRecord
100
AcDbBlockTableRecord
  2
*D15
340
0
 70
     0
280
     1
281
     0
  0
BLOCK_RECORD
  5
7F96
330
1
100
AcDbSymbolTableRecord
100
AcDbBlockTableRecord
  2
*D16
340
0
 70
     0
280
     1
281
     0
  0
BLOCK_RECORD
  5
8034
330
1
100
AcDbSymbolTableRecord
100
AcDbBlockTableRecord
  2
_NONE
340
0
 70
     0
280
     1
281
     0
  0
BLOCK_RECORD
  5
8099
330
1
100
AcDbSymbolTableRecord
100
AcDbBlockTableRecord
  2
*D18
340
0
 70
     0
280
     1
281
     0
  0
BLOCK_RECORD
  5
80A6
330
1
100
AcDbSymbolTableRecord
100
AcDbBlockTableRecord
  2
*D19
340
0
 70
     0
280
     1
281
     0
  0
BLOCK_RECORD
  5
80B3
330
1
100
AcDbSymbolTableRecord
100
AcDbBlockTableRecord
  2
*D20
340
0
 70
     0
280
     1
281
     0
  0
BLOCK_RECORD
  5
80C0
330
1
100
AcDbSymbolTableRecord
100
AcDbBlockTableRecord
  2
*D21
340
0
 70
     0
280
     1
281
     0
  0
BLOCK_RECORD
  5
80CD
330
1
100
AcDbSymbolTableRecord
100
AcDbBlockTableRecord
  2
*D22
340
0
 70
     0
280
     1
281
     0
  0
ENDTAB
  0
ENDSEC
  0
SECTION
  2
BLOCKS
  0
BLOCK
  5
1A
330
19
100
AcDbEntity
  8
0
100
AcDbBlockBegin
  2
*MODEL_SPACE
 70
     0
 10
0.0
 20
0.0
 30
0.0
  3
*MODEL_SPACE
  1

  0
ENDBLK
  5
1B
330
19
100
AcDbEntity
  8
0
100
AcDbBlockEnd
  0
BLOCK
  5
17
330
16
100
AcDbEntity
 67
     1
  8
0
100
AcDbBlockBegin
  2
*PAPER_SPACE
 70
     0
 10
0.0
 20
0.0
 30
0.0
  3
*PAPER_SPACE
  1

  0
ENDBLK
  5
18
330
16
100
AcDbEntity
 67
     1
  8
0
100
AcDbBlockEnd
  0
BLOCK
  5
7B8D
330
7B8C
100
AcDbEntity
  8
0
100
AcDbBlockBegin
  2
_OPEN
 70
     0
 10
0.0
 20
0.0
 30
0.0
  3
_OPEN
  1

  0
LINE
  5
7B8E
330
7B8C
100
AcDbEntity
  8
0
  6
ByBlock
 62
     0
100
AcDbLine
 10
-1.0
 20
0.1666666666666666
 30
0.0
 11
0.0
 21
0.0
 31
0.0
  0
LINE
  5
7B8F
330
7B8C
100
AcDbEntity
  8
0
  6
ByBlock
 62
     0
100
AcDbLine
 10
0.0
 20
0.0
 30
0.0
 11
-1.0
 21
-0.1666666666666666
 31
0.0
  0
LINE
  5
7B90
330
7B8C
100
AcDbEntity
  8
0
  6
ByBlock
 62
     0
100
AcDbLine
 10
0.0
 20
0.0
 30
0.0
 11
-1.0
 21
0.0
 31
0.0
  0
ENDBLK
  5
7B91
330
7B8C
100
AcDbEntity
  8
0
100
AcDbBlockEnd
  0
BLOCK
  5
7EA2
330
7B92
100
AcDbEntity
  8
0
100
AcDbBlockBegin
  2
*D1
 70
     1
 10
0.0
 20
0.0
 30
0.0
  3
*D1
  1

  0
LINE
  5
8119
330
7B92
100
AcDbEntity
  8
3
 62
     0
440
 16777216
100
AcDbLine
 10
2538.26728925389
 20
10593.29281086917
 30
0.0
 11
2538.26728925389
 21
11119.77319178892
 31
0.0
  0
LINE
  5
811A
330
7B92
100
AcDbEntity
  8
3
 62
     0
440
 16777216
100
AcDbLine
 10
4438.267289253908
 20
10593.29281086986
 30
0.0
 11
4438.267289253908
 21
11119.77319178892
 31
0.0
  0
LINE
  5
811B
330
7B92
100
AcDbEntity
  8
3
 62
     0
440
 16777216
100
AcDbLine
 10
2638.26728925389
 20
11069.77319178892
 30
0.0
 11
4338.267289253908
 21
11069.77319178892
 31
0.0
  0
INSERT
  5
811C
330
7B92
100
AcDbEntity
  8
3
 62
     0
440
 16777216
100
AcDbBlockReference
  2
_OPEN
 10
2538.26728925389
 20
11069.77319178892
 30
0.0
 41
100.0
 42
100.0
 43
100.0
 50
180.0
  0
INSERT
  5
811D
330
7B92
100
AcDbEntity
  8
3
 62
     0
440
 16777216
100
AcDbBlockReference
  2
_OPEN
 10
4438.267289253908
 20
11069.77319178892
 30
0.0
 41
100.0
 42
100.0
 43
100.0
  0
MTEXT
  5
811E
330
7B92
100
AcDbEntity
  8
3
 62
     0
440
 16777216
100
AcDbMText
 10
3479.449198776041
 20
11194.77319178892
 30
0.0
 40
150.0
 41
0.0
 46
0.0
 71
     5
 72
     5
  1
\A1;1900
 73
     1
 44
1.0
  0
POINT
  5
811F
330
7B92
100
AcDbEntity
  8
DEFPOINTS
 62
     0
440
 16777216
100
AcDbPoint
 10
2538.26728925389
 20
10568.29281086917
 30
0.0
  0
POINT
  5
8120
330
7B92
100
AcDbEntity
  8
DEFPOINTS
 62
     0
440
 16777216
100
AcDbPoint
 10
4438.267289253908
 20
10568.29281086986
 30
0.0
  0
POINT
  5
8121
330
7B92
100
AcDbEntity
  8
DEFPOINTS
 62
     0
440
 16777216
100
AcDbPoint
 10
4438.267289253908
 20
11069.77319178892
 30
0.0
  0
ENDBLK
  5
7EAC
330
7B92
100
AcDbEntity
  8
0
100
AcDbBlockEnd
  0
BLOCK
  5
7C90
330
7B9F
100
AcDbEntity
  8
0
100
AcDbBlockBegin
  2
*D2
 70
     1
 10
0.0
 20
0.0
 30
0.0
  3
*D2
  1

  0
LINE
  5
8122
330
7B9F
100
AcDbEntity
  8
3
 62
     0
440
 16777216
100
AcDbLine
 10
5838.267289254401
 20
9193.292810870294
 30
0.0
 11
5838.267289254401
 21
11119.77319178892
 31
0.0
  0
LINE
  5
8123
330
7B9F
100
AcDbEntity
  8
3
 62
     0
440
 16777216
100
AcDbLine
 10
4538.267289253908
 20
11069.77319178892
 30
0.0
 11
5738.267289254402
 21
11069.77319178892
 31
0.0
  0
INSERT
  5
8124
330
7B9F
100
AcDbEntity
  8
3
 62
     0
440
 16777216
100
AcDbBlockReference
  2
_OPEN
 10
4438.267289253908
 20
11069.77319178892
 30
0.0
 41
100.0
 42
100.0
 43
100.0
 50
180.0
  0
INSERT
  5
8125
330
7B9F
100
AcDbEntity
  8
3
 62
     0
440
 16777216
100
AcDbBlockReference
  2
_OPEN
 10
5838.267289254401
 20
11069.77319178892
 30
0.0
 41
100.0
 42
100.0
 43
100.0
  0
MTEXT
  5
8126
330
7B9F
100
AcDbEntity
  8
3
 62
     0
440
 16777216
100
AcDbMText
 10
5138.267289254155
 20
11194.77319178892
 30
0.0
 40
150.0
 41
0.0
 46
0.0
 71
     5
 72
     5
  1
\A1;1400
 73
     1
 44
1.0
  0
POINT
  5
8127
330
7B9F
100
AcDbEntity
  8
DEFPOINTS
 62
     0
440
 16777216
100
AcDbPoint
 10
4438.267289253908
 20
10568.29281086986
 30
0.0
  0
POINT
  5
8128
330
7B9F
100
AcDbEntity
  8
DEFPOINTS
 62
     0
440
 16777216
100
AcDbPoint
 10
5838.267289254401
 20
9168.292810870296
 30
0.0
  0
POINT
  5
8129
330
7B9F
100
AcDbEntity
  8
DEFPOINTS
 62
     0
440
 16777216
100
AcDbPoint
 10
5838.267289254401
 20
11069.77319178892
 30
0.0
  0
ENDBLK
  5
7C99
330
7B9F
100
AcDbEntity
  8
0
100
AcDbBlockEnd
  0
BLOCK
  5
7CA5
330
7BAB
100
AcDbEntity
  8
0
100
AcDbBlockBegin
  2
*D3
 70
     1
 10
0.0
 20
0.0
 30
0.0
  3
*D3
  1

  0
LINE
  5
812A
330
7BAB
100
AcDbEntity
  8
3
 62
     0
440
 16777216
100
AcDbLine
 10
5863.267289254402
 20
9168.292810870296
 30
0.0
 11
6208.188375275757
 21
9168.292810870296
 31
0.0
  0
LINE
  5
812B
330
7BAB
100
AcDbEntity
  8
3
 62
     0
440
 16777216
100
AcDbLine
 10
5863.267289254836
 20
7968.292810870295
 30
0.0
 11
6208.188375275757
 21
7968.292810870294
 31
0.0
  0
LINE
  5
812C
330
7BAB
100
AcDbEntity
  8
3
 62
     0
440
 16777216
100
AcDbLine
 10
6158.188375275758
 20
9068.292810870294
 30
0.0
 11
6158.188375275758
 21
8068.292810870294
 31
0.0
  0
INSERT
  5
812D
330
7BAB
100
AcDbEntity
  8
3
 62
     0
440
 16777216
100
AcDbBlockReference
  2
_OPEN
 10
6158.188375275758
 20
9168.292810870296
 30
0.0
 41
100.0
 42
100.0
 43
100.0
 50
90.0
  0
INSERT
  5
812E
330
7BAB
100
AcDbEntity
  8
3
 62
     0
440
 16777216
100
AcDbBlockReference
  2
_OPEN
 10
6158.188375275758
 20
7968.292810870294
 30
0.0
 41
100.0
 42
100.0
 43
100.0
 50
270.0
  0
MTEXT
  5
812F
330
7BAB
100
AcDbEntity
  8
3
 62
     0
440
 16777216
100
AcDbMText
 10
6033.188375275757
 20
8684.171613421225
 30
0.0
 40
150.0
 41
0.0
 46
0.0
 71
     5
 72
     5
  1
\A1;1200
 11
0.0000000000000001
 21
1.0
 31
0.0
 73
     1
 44
1.0
  0
POINT
  5
8130
330
7BAB
100
AcDbEntity
  8
DEFPOINTS
 62
     0
440
 16777216
100
AcDbPoint
 10
5838.267289254401
 20
9168.292810870296
 30
0.0
  0
POINT
  5
8131
330
7BAB
100
AcDbEntity
  8
DEFPOINTS
 62
     0
440
 16777216
100
AcDbPoint
 10
5838.267289254837
 20
7968.292810870295
 30
0.0
  0
POINT
  5
8132
330
7BAB
100
AcDbEntity
  8
DEFPOINTS
 62
     0
440
 16777216
100
AcDbPoint
 10
6158.188375275758
 20
7968.292810870294
 30
0.0
  0
ENDBLK
  5
7CAF
330
7BAB
100
AcDbEntity
  8
0
100
AcDbBlockEnd
  0
BLOCK
  5
7C9A
330
7BB8
100
AcDbEntity
  8
0
100
AcDbBlockBegin
  2
*D4
 70
     1
 10
0.0
 20
0.0
 30
0.0
  3
*D4
  1

  0
LINE
  5
8231
330
7BB8
100
AcDbEntity
  8
3
 62
     0
440
 16777216
370
    -2
100
AcDbLine
 10
2538.268289254826
 20
7943.292810869174
 30
0.0
 11
2538.268289254826
 21
7454.804356043561
 31
0.0
  0
LINE
  5
8232
330
7BB8
100
AcDbEntity
  8
3
 62
     0
440
 16777216
370
    -2
100
AcDbLine
 10
5838.267289254837
 20
7943.292810870295
 30
0.0
 11
5838.267289254837
 21
7454.804356043561
 31
0.0
  0
LINE
  5
8233
330
7BB8
100
AcDbEntity
  8
3
 62
     0
440
 16777216
370
    -2
100
AcDbLine
 10
2638.268289254826
 20
7504.804356043561
 30
0.0
 11
5738.267289254836
 21
7504.804356043561
 31
0.0
  0
INSERT
  5
8234
330
7BB8
100
AcDbEntity
  8
3
 62
     0
440
 16777216
370
    -2
100
AcDbBlockReference
  2
_OPEN
 10
2538.268289254826
 20
7504.804356043561
 30
0.0
 41
100.0
 42
100.0
 43
100.0
 50
180.0
  0
INSERT
  5
8235
330
7BB8
100
AcDbEntity
  8
3
 62
     0
440
 16777216
370
    -2
100
AcDbBlockReference
  2
_OPEN
 10
5838.267289254837
 20
7504.804356043561
 30
0.0
 41
100.0
 42
100.0
 43
100.0
  0
MTEXT
  5
8236
330
7BB8
100
AcDbEntity
  8
3
 62
     0
440
 16777216
100
AcDbMText
 10
3996.5726743372
 20
7629.804356043561
 30
0.0
 40
150.0
 41
0.0
 46
0.0
 71
     5
 72
     1
  1
\A1;3300
 73
     1
 44
1.0
  0
POINT
  5
8237
330
7BB8
100
AcDbEntity
  8
DEFPOINTS
 62
     0
440
 16777216
100
AcDbPoint
 10
2538.268289254826
 20
7968.292810869174
 30
0.0
  0
POINT
  5
8238
330
7BB8
100
AcDbEntity
  8
DEFPOINTS
 62
     0
440
 16777216
100
AcDbPoint
 10
5838.267289254837
 20
7968.292810870295
 30
0.0
  0
POINT
  5
8239
330
7BB8
100
AcDbEntity
  8
DEFPOINTS
 62
     0
440
 16777216
100
AcDbPoint
 10
5838.267289254837
 20
7504.804356043561
 30
0.0
  0
ENDBLK
  5
7CA4
330
7BB8
100
AcDbEntity
  8
0
100
AcDbBlockEnd
  0
BLOCK
  5
7E97
330
7BC5
100
AcDbEntity
  8
0
100
AcDbBlockBegin
  2
*D5
 70
     1
 10
0.0
 20
0.0
 30
0.0
  3
*D5
  1

  0
LINE
  5
813C
330
7BC5
100
AcDbEntity
  8
3
 62
     0
440
 16777216
100
AcDbLine
 10
2513.26728925389
 20
10568.29281086917
 30
0.0
 11
2019.269088223957
 21
10568.29281086917
 31
0.0
  0
LINE
  5
813D
330
7BC5
100
AcDbEntity
  8
3
 62
     0
440
 16777216
100
AcDbLine
 10
2513.268289254826
 20
7968.292810869174
 30
0.0
 11
2019.269088223957
 21
7968.292810869176
 31
0.0
  0
LINE
  5
813E
330
7BC5
100
AcDbEntity
  8
3
 62
     0
440
 16777216
100
AcDbLine
 10
2069.269088223957
 20
10468.29281086917
 30
0.0
 11
2069.269088223956
 21
8068.292810869174
 31
0.0
  0
INSERT
  5
813F
330
7BC5
100
AcDbEntity
  8
3
 62
     0
440
 16777216
100
AcDbBlockReference
  2
_OPEN
 10
2069.269088223957
 20
10568.29281086917
 30
0.0
 41
100.0
 42
100.0
 43
100.0
 50
90.0
  0
INSERT
  5
8140
330
7BC5
100
AcDbEntity
  8
3
 62
     0
440
 16777216
100
AcDbBlockReference
  2
_OPEN
 10
2069.269088223956
 20
7968.292810869174
 30
0.0
 41
100.0
 42
100.0
 43
100.0
 50
270.0
  0
MTEXT
  5
8141
330
7BC5
100
AcDbEntity
  8
3
 62
     0
440
 16777216
100
AcDbMText
 10
1944.269088223955
 20
9430.769557909808
 30
0.0
 40
150.0
 41
0.0
 46
0.0
 71
     5
 72
     5
  1
\A1;2600
 11
0.0000000000000001
 21
1.0
 31
0.0
 73
     1
 44
1.0
  0
POINT
  5
8142
330
7BC5
100
AcDbEntity
  8
DEFPOINTS
 62
     0
440
 16777216
100
AcDbPoint
 10
2538.26728925389
 20
10568.29281086917
 30
0.0
  0
POINT
  5
8143
330
7BC5
100
AcDbEntity
  8
DEFPOINTS
 62
     0
440
 16777216
100
AcDbPoint
 10
2538.268289254826
 20
7968.292810869174
 30
0.0
  0
POINT
  5
8144
330
7BC5
100
AcDbEntity
  8
DEFPOINTS
 62
     0
440
 16777216
100
AcDbPoint
 10
2069.269088223956
 20
7968.292810869174
 30
0.0
  0
ENDBLK
  5
7EA1
330
7BC5
100
AcDbEntity
  8
0
100
AcDbBlockEnd
  0
BLOCK
  5
7F4E
330
7CCC
100
AcDbEntity
  8
0
100
AcDbBlockBegin
  2
*D6
 70
     1
 10
0.0
 20
0.0
 30
0.0
  3
*D6
  1

  0
LINE
  5
8145
330
7CCC
100
AcDbEntity
  8
3
 62
     0
440
 16777216
100
AcDbLine
 10
5183.26728925599
 20
5912.305761730483
 30
0.0
 11
5183.26728925599
 21
6211.090584000277
 31
0.0
  0
LINE
  5
8146
330
7CCC
100
AcDbEntity
  8
3
 62
     0
440
 16777216
100
AcDbLine
 10
3533.26728925599
 20
5912.305761729886
 30
0.0
 11
3533.26728925599
 21
6211.090584000277
 31
0.0
  0
LINE
  5
8147
330
7CCC
100
AcDbEntity
  8
3
 62
     0
440
 16777216
100
AcDbLine
 10
5083.26728925599
 20
6161.090584000277
 30
0.0
 11
3633.26728925599
 21
6161.090584000277
 31
0.0
  0
INSERT
  5
8148
330
7CCC
100
AcDbEntity
  8
3
 62
     0
440
 16777216
100
AcDbBlockReference
  2
_OPEN
 10
5183.26728925599
 20
6161.090584000277
 30
0.0
 41
100.0
 42
100.0
 43
100.0
  0
INSERT
  5
8149
330
7CCC
100
AcDbEntity
  8
3
 62
     0
440
 16777216
100
AcDbBlockReference
  2
_OPEN
 10
3533.26728925599
 20
6161.090584000277
 30
0.0
 41
100.0
 42
100.0
 43
100.0
 50
180.0
  0
MTEXT
  5
814A
330
7CCC
100
AcDbEntity
  8
3
 62
     0
440
 16777216
100
AcDbMText
 10
4373.751227831093
 20
6286.090584000277
 30
0.0
 40
150.0
 41
0.0
 46
0.0
 71
     5
 72
     5
  1
\A1;1650
 73
     1
 44
1.0
  0
POINT
  5
814B
330
7CCC
100
AcDbEntity
  8
DEFPOINTS
 62
     0
440
 16777216
100
AcDbPoint
 10
5183.26728925599
 20
5887.305761730482
 30
0.0
  0
POINT
  5
814C
330
7CCC
100
AcDbEntity
  8
DEFPOINTS
 62
     0
440
 16777216
100
AcDbPoint
 10
3533.26728925599
 20
5887.305761729885
 30
0.0
  0
POINT
  5
814D
330
7CCC
100
AcDbEntity
  8
DEFPOINTS
 62
     0
440
 16777216
100
AcDbPoint
 10
3533.26728925599
 20
6161.090584000277
 30
0.0
  0
ENDBLK
  5
7F58
330
7CCC
100
AcDbEntity
  8
0
100
AcDbBlockEnd
  0
BLOCK
  5
7F43
330
7CE6
100
AcDbEntity
  8
0
100
AcDbBlockBegin
  2
*D7
 70
     1
 10
0.0
 20
0.0
 30
0.0
  3
*D7
  1

  0
LINE
  5
814E
330
7CE6
100
AcDbEntity
  8
3
 62
     0
440
 16777216
100
AcDbLine
 10
5183.26728925599
 20
5912.305761730483
 30
0.0
 11
5183.26728925599
 21
6493.643466591414
 31
0.0
  0
LINE
  5
814F
330
7CE6
100
AcDbEntity
  8
3
 62
     0
440
 16777216
100
AcDbLine
 10
3488.267289255968
 20
5974.353145157524
 30
0.0
 11
3488.267289255968
 21
6493.643466591414
 31
0.0
  0
LINE
  5
8150
330
7CE6
100
AcDbEntity
  8
3
 62
     0
440
 16777216
100
AcDbLine
 10
5083.26728925599
 20
6443.643466591415
 30
0.0
 11
3588.267289255968
 21
6443.643466591415
 31
0.0
  0
INSERT
  5
8151
330
7CE6
100
AcDbEntity
  8
3
 62
     0
440
 16777216
100
AcDbBlockReference
  2
_OPEN
 10
5183.26728925599
 20
6443.643466591415
 30
0.0
 41
100.0
 42
100.0
 43
100.0
  0
INSERT
  5
8152
330
7CE6
100
AcDbEntity
  8
3
 62
     0
440
 16777216
100
AcDbBlockReference
  2
_OPEN
 10
3488.267289255968
 20
6443.643466591415
 30
0.0
 41
100.0
 42
100.0
 43
100.0
 50
180.0
  0
MTEXT
  5
8153
330
7CE6
100
AcDbEntity
  8
3
 62
     0
440
 16777216
100
AcDbMText
 10
4373.751227831093
 20
6568.643466591415
 30
0.0
 40
150.0
 41
0.0
 46
0.0
 71
     5
 72
     5
  1
\A1;1695
 73
     1
 44
1.0
  0
POINT
  5
8154
330
7CE6
100
AcDbEntity
  8
DEFPOINTS
 62
     0
440
 16777216
100
AcDbPoint
 10
5183.26728925599
 20
5887.305761730482
 30
0.0
  0
POINT
  5
8155
330
7CE6
100
AcDbEntity
  8
DEFPOINTS
 62
     0
440
 16777216
100
AcDbPoint
 10
3488.267289255968
 20
5949.353145157523
 30
0.0
  0
POINT
  5
8156
330
7CE6
100
AcDbEntity
  8
DEFPOINTS
 62
     0
440
 16777216
100
AcDbPoint
 10
3488.267289255968
 20
6443.643466591415
 30
0.0
  0
ENDBLK
  5
7F4D
330
7CE6
100
AcDbEntity
  8
0
100
AcDbBlockEnd
  0
BLOCK
  5
7F59
330
7CF3
100
AcDbEntity
  8
0
100
AcDbBlockBegin
  2
*D8
 70
     1
 10
0.0
 20
0.0
 30
0.0
  3
*D8
  1

  0
LINE
  5
8157
330
7CF3
100
AcDbEntity
  8
3
 62
     0
440
 16777216
100
AcDbLine
 10
2356.220905828687
 20
4842.306761729442
 30
0.0
 11
1836.930584394795
 21
4842.306761729443
 31
0.0
  0
LINE
  5
8158
330
7CF3
100
AcDbEntity
  8
3
 62
     0
440
 16777216
100
AcDbLine
 10
2513.267289256893
 20
3442.3067617295
 30
0.0
 11
1836.930584394795
 21
3442.3067617295
 31
0.0
  0
LINE
  5
8159
330
7CF3
100
AcDbEntity
  8
3
 62
     0
440
 16777216
100
AcDbLine
 10
1886.930584394795
 20
4742.306761729444
 30
0.0
 11
1886.930584394795
 21
3542.3067617295
 31
0.0
  0
INSERT
  5
815A
330
7CF3
100
AcDbEntity
  8
3
 62
     0
440
 16777216
100
AcDbBlockReference
  2
_OPEN
 10
1886.930584394795
 20
4842.306761729443
 30
0.0
 41
100.0
 42
100.0
 43
100.0
 50
90.0
  0
INSERT
  5
815B
330
7CF3
100
AcDbEntity
  8
3
 62
     0
440
 16777216
100
AcDbBlockReference
  2
_OPEN
 10
1886.930584394795
 20
3442.3067617295
 30
0.0
 41
100.0
 42
100.0
 43
100.0
 50
270.0
  0
MTEXT
  5
815C
330
7CF3
100
AcDbEntity
  8
3
 62
     0
440
 16777216
100
AcDbMText
 10
1761.930584394794
 20
4142.306761729471
 30
0.0
 40
150.0
 41
0.0
 46
0.0
 71
     5
 72
     5
  1
\A1;1400
 11
0.0000000000000001
 21
1.0
 31
0.0
 73
     1
 44
1.0
  0
POINT
  5
815D
330
7CF3
100
AcDbEntity
  8
DEFPOINTS
 62
     0
440
 16777216
100
AcDbPoint
 10
2381.220905828687
 20
4842.306761729442
 30
0.0
  0
POINT
  5
815E
330
7CF3
100
AcDbEntity
  8
DEFPOINTS
 62
     0
440
 16777216
100
AcDbPoint
 10
2538.267289256893
 20
3442.3067617295
 30
0.0
  0
POINT
  5
815F
330
7CF3
100
AcDbEntity
  8
DEFPOINTS
 62
     0
440
 16777216
100
AcDbPoint
 10
1886.930584394795
 20
3442.3067617295
 30
0.0
  0
ENDBLK
  5
7F63
330
7CF3
100
AcDbEntity
  8
0
100
AcDbBlockEnd
  0
BLOCK
  5
7D2D
330
7D2C
100
AcDbEntity
  8
0
100
AcDbBlockBegin
  2
_DOT
 70
     0
 10
0.0
 20
0.0
 30
0.0
  3
_DOT
  1

  0
LINE
  5
7F01
330
7D2C
100
AcDbEntity
  8
0
  6
ByBlock
 62
     0
100
AcDbLine
 10
0.0
 20
0.0
 30
0.0
 11
-1.0
 21
-0.0000000000000284
 31
0.0
  0
LWPOLYLINE
  5
7F02
330
7D2C
100
AcDbEntity
  8
0
  6
ByBlock
 62
     0
100
AcDbPolyline
 90
        2
 70
     1
 43
0.1666666666666666
 10
-0.0833333333333286
 20
-0.0000000000000284
 42
1.0
 10
0.0833333333333286
 20
-0.0000000000000284
 42
1.0
  0
ENDBLK
  5
7D33
330
7D2C
100
AcDbEntity
  8
0
100
AcDbBlockEnd
  0
BLOCK
  5
7FBD
330
7D9F
100
AcDbEntity
  8
0
100
AcDbBlockBegin
  2
*D10
 70
     1
 10
0.0
 20
0.0
 30
0.0
  3
*D10
  1

  0
LINE
  5
8160
330
7D9F
100
AcDbEntity
  8
3
 62
     0
440
 16777216
100
AcDbLine
 10
6825.563430901549
 20
5912.305761730507
 30
0.0
 11
6825.563430901549
 21
6229.355465450193
 31
0.0
  0
LINE
  5
8161
330
7D9F
100
AcDbEntity
  8
3
 62
     0
440
 16777216
100
AcDbLine
 10
8945.923652348819
 20
5912.305761730508
 30
0.0
 11
8945.923652348819
 21
6229.355465450193
 31
0.0
  0
LINE
  5
8162
330
7D9F
100
AcDbEntity
  8
3
 62
     0
440
 16777216
100
AcDbLine
 10
6925.563430901549
 20
6179.355465450193
 30
0.0
 11
8845.923652348819
 21
6179.355465450193
 31
0.0
  0
INSERT
  5
8163
330
7D9F
100
AcDbEntity
  8
3
 62
     0
440
 16777216
100
AcDbBlockReference
  2
_OPEN
 10
6825.563430901549
 20
6179.355465450193
 30
0.0
 41
100.0
 42
100.0
 43
100.0
 50
180.0
  0
INSERT
  5
8164
330
7D9F
100
AcDbEntity
  8
3
 62
     0
440
 16777216
100
AcDbBlockReference
  2
_OPEN
 10
8945.923652348819
 20
6179.355465450193
 30
0.0
 41
100.0
 42
100.0
 43
100.0
  0
MTEXT
  5
8165
330
7D9F
100
AcDbEntity
  8
3
 62
     0
440
 16777216
100
AcDbMText
 10
7885.765659921614
 20
6304.355465450193
 30
0.0
 40
150.0
 41
0.0
 46
0.0
 71
     5
 72
     5
  1
\A1;2120
 73
     1
 44
1.0
  0
POINT
  5
8166
330
7D9F
100
AcDbEntity
  8
DEFPOINTS
 62
     0
440
 16777216
100
AcDbPoint
 10
6825.563430901549
 20
5887.305761730508
 30
0.0
  0
POINT
  5
8167
330
7D9F
100
AcDbEntity
  8
DEFPOINTS
 62
     0
440
 16777216
100
AcDbPoint
 10
8945.923652348819
 20
5887.305761730509
 30
0.0
  0
POINT
  5
8168
330
7D9F
100
AcDbEntity
  8
DEFPOINTS
 62
     0
440
 16777216
100
AcDbPoint
 10
8945.923652348819
 20
6179.355465450193
 30
0.0
  0
ENDBLK
  5
7FC7
330
7D9F
100
AcDbEntity
  8
0
100
AcDbBlockEnd
  0
BLOCK
  5
7FD2
330
7DAC
100
AcDbEntity
  8
0
100
AcDbBlockBegin
  2
*D11
 70
     1
 10
0.0
 20
0.0
 30
0.0
  3
*D11
  1

  0
LINE
  5
8228
330
7DAC
100
AcDbEntity
  8
3
 62
     0
440
 16777216
370
    -2
100
AcDbLine
 10
9185.764430901775
 20
4807.306761730213
 30
0.0
 11
9185.764430901775
 21
6584.426763161951
 31
0.0
  0
LINE
  5
8229
330
7DAC
100
AcDbEntity
  8
3
 62
     0
440
 16777216
370
    -2
100
AcDbLine
 10
7885.557976899256
 20
6444.419321819466
 30
0.0
 11
7885.557976899256
 21
6584.426763161951
 31
0.0
  0
LINE
  5
822A
330
7DAC
100
AcDbEntity
  8
3
 62
     0
440
 16777216
370
    -2
100
AcDbLine
 10
9085.764430901775
 20
6534.426763161952
 30
0.0
 11
7985.557976899255
 21
6534.426763161952
 31
0.0
  0
INSERT
  5
822B
330
7DAC
100
AcDbEntity
  8
3
 62
     0
440
 16777216
370
    -2
100
AcDbBlockReference
  2
_OPEN
 10
9185.764430901775
 20
6534.426763161952
 30
0.0
 41
100.0
 42
100.0
 43
100.0
  0
INSERT
  5
822C
330
7DAC
100
AcDbEntity
  8
3
 62
     0
440
 16777216
370
    -2
100
AcDbBlockReference
  2
_OPEN
 10
7885.557976899256
 20
6534.426763161952
 30
0.0
 41
100.0
 42
100.0
 43
100.0
 50
180.0
  0
MTEXT
  5
822D
330
7DAC
100
AcDbEntity
  8
3
 62
     0
440
 16777216
100
AcDbMText
 10
8381.986548327827
 20
6698.712477447665
 30
0.0
 40
150.0
 41
0.0
 46
0.0
 71
     5
 72
     1
  1
\A1;(1300)
 73
     1
 44
1.0
  0
POINT
  5
822E
330
7DAC
100
AcDbEntity
  8
DEFPOINTS
 62
     0
440
 16777216
100
AcDbPoint
 10
9185.764430901775
 20
4782.306761730213
 30
0.0
  0
POINT
  5
822F
330
7DAC
100
AcDbEntity
  8
DEFPOINTS
 62
     0
440
 16777216
100
AcDbPoint
 10
7885.557976899256
 20
6419.419321819465
 30
0.0
  0
POINT
  5
8230
330
7DAC
100
AcDbEntity
  8
DEFPOINTS
 62
     0
440
 16777216
100
AcDbPoint
 10
7885.557976899256
 20
6534.426763161952
 30
0.0
  0
ENDBLK
  5
7FDC
330
7DAC
100
AcDbEntity
  8
0
100
AcDbBlockEnd
  0
BLOCK
  5
7FC8
330
7DB9
100
AcDbEntity
  8
0
100
AcDbBlockBegin
  2
*D12
 70
     1
 10
0.0
 20
0.0
 30
0.0
  3
*D12
  1

  0
LINE
  5
8220
330
7DB9
100
AcDbEntity
  8
3
 62
     0
440
 16777216
370
    -2
100
AcDbLine
 10
6265.363430901706
 20
5417.306761729901
 30
0.0
 11
6265.363430901706
 21
6584.426763161951
 31
0.0
  0
LINE
  5
8221
330
7DB9
100
AcDbEntity
  8
3
 62
     0
440
 16777216
370
    -2
100
AcDbLine
 10
7785.557976899255
 20
6534.426763161952
 30
0.0
 11
6365.363430901706
 21
6534.426763161952
 31
0.0
  0
INSERT
  5
8222
330
7DB9
100
AcDbEntity
  8
3
 62
     0
440
 16777216
370
    -2
100
AcDbBlockReference
  2
_OPEN
 10
7885.557976899256
 20
6534.426763161952
 30
0.0
 41
100.0
 42
100.0
 43
100.0
  0
INSERT
  5
8223
330
7DB9
100
AcDbEntity
  8
3
 62
     0
440
 16777216
370
    -2
100
AcDbBlockReference
  2
_OPEN
 10
6265.363430901706
 20
6534.426763161952
 30
0.0
 41
100.0
 42
100.0
 43
100.0
 50
180.0
  0
MTEXT
  5
8224
330
7DB9
100
AcDbEntity
  8
3
 62
     0
440
 16777216
100
AcDbMText
 10
7075.460703900481
 20
6698.712477447665
 30
0.0
 40
150.0
 41
0.0
 46
0.0
 71
     5
 72
     1
  1
\A1;(1620)
 73
     1
 44
1.0
  0
POINT
  5
8225
330
7DB9
100
AcDbEntity
  8
DEFPOINTS
 62
     0
440
 16777216
100
AcDbPoint
 10
7885.557976899256
 20
6419.419321819465
 30
0.0
  0
POINT
  5
8226
330
7DB9
100
AcDbEntity
  8
DEFPOINTS
 62
     0
440
 16777216
100
AcDbPoint
 10
6265.363430901706
 20
5392.306761729901
 30
0.0
  0
POINT
  5
8227
330
7DB9
100
AcDbEntity
  8
DEFPOINTS
 62
     0
440
 16777216
100
AcDbPoint
 10
6265.363430901706
 20
6534.426763161952
 30
0.0
  0
ENDBLK
  5
7FD1
330
7DB9
100
AcDbEntity
  8
0
100
AcDbBlockEnd
  0
BLOCK
  5
7DFD
330
7DF0
100
AcDbEntity
  8
0
100
AcDbBlockBegin
  2
*D13
 70
     1
 10
0.0
 20
0.0
 30
0.0
  3
*D13
  1

  0
LINE
  5
817A
330
7DF0
100
AcDbEntity
  8
3
 62
     0
440
 16777216
100
AcDbLine
 10
8982.76443090168
 20
5642.306761730191
 30
0.0
 11
9516.262506236047
 21
5642.306761730191
 31
0.0
  0
LINE
  5
817B
330
7DF0
100
AcDbEntity
  8
3
 62
     0
440
 16777216
100
AcDbLine
 10
8982.764430901863
 20
4042.30676173019
 30
0.0
 11
9516.262506236046
 21
4042.30676173019
 31
0.0
  0
LINE
  5
817C
330
7DF0
100
AcDbEntity
  8
3
 62
     0
440
 16777216
100
AcDbLine
 10
9466.262506236047
 20
5542.306761730191
 30
0.0
 11
9466.262506236047
 21
4142.306761730191
 31
0.0
  0
INSERT
  5
817D
330
7DF0
100
AcDbEntity
  8
3
 62
     0
440
 16777216
100
AcDbBlockReference
  2
_OPEN
 10
9466.262506236047
 20
5642.306761730191
 30
0.0
 41
100.0
 42
100.0
 43
100.0
 50
90.0
  0
INSERT
  5
817E
330
7DF0
100
AcDbEntity
  8
3
 62
     0
440
 16777216
100
AcDbBlockReference
  2
_OPEN
 10
9466.262506236047
 20
4042.30676173019
 30
0.0
 41
100.0
 42
100.0
 43
100.0
 50
270.0
  0
MTEXT
  5
817F
330
7DF0
100
AcDbEntity
  8
3
 62
     0
440
 16777216
100
AcDbMText
 10
9341.262506236047
 20
4805.54635030502
 30
0.0
 40
150.0
 41
0.0
 46
0.0
 71
     5
 72
     5
  1
\A1;φ1600
 11
0.0000000000000001
 21
1.0
 31
0.0
 73
     1
 44
1.0
  0
POINT
  5
8180
330
7DF0
100
AcDbEntity
  8
DEFPOINTS
 62
     0
440
 16777216
100
AcDbPoint
 10
8957.764430901681
 20
5642.306761730191
 30
0.0
  0
POINT
  5
8181
330
7DF0
100
AcDbEntity
  8
DEFPOINTS
 62
     0
440
 16777216
100
AcDbPoint
 10
8957.764430901862
 20
4042.30676173019
 30
0.0
  0
POINT
  5
8182
330
7DF0
100
AcDbEntity
  8
DEFPOINTS
 62
     0
440
 16777216
100
AcDbPoint
 10
9466.262506236047
 20
4042.30676173019
 30
0.0
  0
ENDBLK
  5
7E07
330
7DF0
100
AcDbEntity
  8
0
100
AcDbBlockEnd
  0
BLOCK
  5
7F65
330
7F64
100
AcDbEntity
  8
0
100
AcDbBlockBegin
  2
*D14
 70
     1
 10
0.0
 20
0.0
 30
0.0
  3
*D14
  1

  0
LINE
  5
8186
330
7F64
100
AcDbEntity
  8
3
 62
     0
440
 16777216
100
AcDbLine
 10
3443.267289255989
 20
5887.305761729863
 30
0.0
 11
1836.930584394795
 21
5887.305761729865
 31
0.0
  0
LINE
  5
8187
330
7F64
100
AcDbEntity
  8
3
 62
     0
440
 16777216
100
AcDbLine
 10
1886.930584394795
 20
4942.306761729444
 30
0.0
 11
1886.930584394795
 21
5787.305761729864
 31
0.0
  0
INSERT
  5
8188
330
7F64
100
AcDbEntity
  8
3
 62
     0
440
 16777216
100
AcDbBlockReference
  2
_OPEN
 10
1886.930584394795
 20
4842.306761729443
 30
0.0
 41
100.0
 42
100.0
 43
100.0
 50
270.0
  0
INSERT
  5
8189
330
7F64
100
AcDbEntity
  8
3
 62
     0
440
 16777216
100
AcDbBlockReference
  2
_OPEN
 10
1886.930584394795
 20
5887.305761729865
 30
0.0
 41
100.0
 42
100.0
 43
100.0
 50
90.0
  0
MTEXT
  5
818A
330
7F64
100
AcDbEntity
  8
3
 62
     0
440
 16777216
100
AcDbMText
 10
1761.930584394794
 20
5364.806261729654
 30
0.0
 40
150.0
 41
0.0
 46
0.0
 71
     5
 72
     5
  1
\A1;1045
 11
0.0000000000000001
 21
1.0
 31
0.0
 73
     1
 44
1.0
  0
POINT
  5
818B
330
7F64
100
AcDbEntity
  8
DEFPOINTS
 62
     0
440
 16777216
100
AcDbPoint
 10
2381.220905828687
 20
4842.306761729442
 30
0.0
  0
POINT
  5
818C
330
7F64
100
AcDbEntity
  8
DEFPOINTS
 62
     0
440
 16777216
100
AcDbPoint
 10
3468.267289255989
 20
5887.305761729863
 30
0.0
  0
POINT
  5
818D
330
7F64
100
AcDbEntity
  8
DEFPOINTS
 62
     0
440
 16777216
100
AcDbPoint
 10
1886.930584394795
 20
5887.305761729865
 30
0.0
  0
ENDBLK
  5
7F6E
330
7F64
100
AcDbEntity
  8
0
100
AcDbBlockEnd
  0
BLOCK
  5
7F71
330
7F70
100
AcDbEntity
  8
0
100
AcDbBlockBegin
  2
*D15
 70
     1
 10
0.0
 20
0.0
 30
0.0
  3
*D15
  1

  0
LINE
  5
818E
330
7F70
100
AcDbEntity
  8
3
 62
     0
440
 16777216
100
AcDbLine
 10
2349.26728925641
 20
4751.306761729913
 30
0.0
 11
2349.26728925641
 21
6493.643466591414
 31
0.0
  0
LINE
  5
818F
330
7F70
100
AcDbEntity
  8
3
 62
     0
440
 16777216
100
AcDbLine
 10
3388.267289255967
 20
6443.643466591415
 30
0.0
 11
2449.26728925641
 21
6443.643466591415
 31
0.0
  0
INSERT
  5
8190
330
7F70
100
AcDbEntity
  8
3
 62
     0
440
 16777216
100
AcDbBlockReference
  2
_OPEN
 10
3488.267289255968
 20
6443.643466591415
 30
0.0
 41
100.0
 42
100.0
 43
100.0
  0
INSERT
  5
8191
330
7F70
100
AcDbEntity
  8
3
 62
     0
440
 16777216
100
AcDbBlockReference
  2
_OPEN
 10
2349.26728925641
 20
6443.643466591415
 30
0.0
 41
100.0
 42
100.0
 43
100.0
 50
180.0
  0
MTEXT
  5
8192
330
7F70
100
AcDbEntity
  8
3
 62
     0
440
 16777216
100
AcDbMText
 10
2918.767289256189
 20
6568.643466591415
 30
0.0
 40
150.0
 41
0.0
 46
0.0
 71
     5
 72
     5
  1
\A1;1139
 73
     1
 44
1.0
  0
POINT
  5
8193
330
7F70
100
AcDbEntity
  8
DEFPOINTS
 62
     0
440
 16777216
100
AcDbPoint
 10
3488.267289255968
 20
5949.353145157523
 30
0.0
  0
POINT
  5
8194
330
7F70
100
AcDbEntity
  8
DEFPOINTS
 62
     0
440
 16777216
100
AcDbPoint
 10
2349.26728925641
 20
4726.306761729913
 30
0.0
  0
POINT
  5
8195
330
7F70
100
AcDbEntity
  8
DEFPOINTS
 62
     0
440
 16777216
100
AcDbPoint
 10
2349.26728925641
 20
6443.643466591415
 30
0.0
  0
ENDBLK
  5
7F7A
330
7F70
100
AcDbEntity
  8
0
100
AcDbBlockEnd
  0
BLOCK
  5
7F97
330
7F96
100
AcDbEntity
  8
0
100
AcDbBlockBegin
  2
*D16
 70
     1
 10
0.0
 20
0.0
 30
0.0
  3
*D16
  1

  0
LINE
  5
8196
330
7F96
100
AcDbEntity
  8
3
 62
     0
440
 16777216
100
AcDbLine
 10
2349.26728925641
 20
4776.306761729912
 30
0.0
 11
2349.26728925641
 21
6825.759206352064
 31
0.0
  0
LINE
  5
8197
330
7F96
100
AcDbEntity
  8
3
 62
     0
440
 16777216
100
AcDbLine
 10
5838.267289256838
 20
3617.306761730692
 30
0.0
 11
5838.267289256838
 21
6825.759206352064
 31
0.0
  0
LINE
  5
8198
330
7F96
100
AcDbEntity
  8
3
 62
     0
440
 16777216
100
AcDbLine
 10
2449.26728925641
 20
6775.759206352065
 30
0.0
 11
5738.267289256838
 21
6775.759206352065
 31
0.0
  0
INSERT
  5
8199
330
7F96
100
AcDbEntity
  8
3
 62
     0
440
 16777216
100
AcDbBlockReference
  2
_OPEN
 10
2349.26728925641
 20
6775.759206352065
 30
0.0
 41
100.0
 42
100.0
 43
100.0
 50
180.0
  0
INSERT
  5
819A
330
7F96
100
AcDbEntity
  8
3
 62
     0
440
 16777216
100
AcDbBlockReference
  2
_OPEN
 10
5838.267289256838
 20
6775.759206352065
 30
0.0
 41
100.0
 42
100.0
 43
100.0
  0
MTEXT
  5
819B
330
7F96
100
AcDbEntity
  8
3
 62
     0
440
 16777216
100
AcDbMText
 10
4078.668068705447
 20
6900.759206352065
 30
0.0
 40
150.0
 41
0.0
 46
0.0
 71
     5
 72
     5
  1
\A1;3489
 73
     1
 44
1.0
  0
POINT
  5
819C
330
7F96
100
AcDbEntity
  8
DEFPOINTS
 62
     0
440
 16777216
100
AcDbPoint
 10
2349.26728925641
 20
4751.306761729913
 30
0.0
  0
POINT
  5
819D
330
7F96
100
AcDbEntity
  8
DEFPOINTS
 62
     0
440
 16777216
100
AcDbPoint
 10
5838.267289256838
 20
3592.306761730692
 30
0.0
  0
POINT
  5
819E
330
7F96
100
AcDbEntity
  8
DEFPOINTS
 62
     0
440
 16777216
100
AcDbPoint
 10
5838.267289256838
 20
6775.759206352065
 30
0.0
  0
ENDBLK
  5
7FA1
330
7F96
100
AcDbEntity
  8
0
100
AcDbBlockEnd
  0
BLOCK
  5
8035
330
8034
100
AcDbEntity
  8
0
100
AcDbBlockBegin
  2
_NONE
 70
     0
 10
0.0
 20
0.0
 30
0.0
  3
_NONE
  1

  0
CIRCLE
  5
8036
330
8034
100
AcDbEntity
  8
0
  6
ByBlock
 62
     0
100
AcDbCircle
 10
0.0
 20
0.0
 30
0.0
 40
0.25
  0
ENDBLK
  5
8037
330
8034
100
AcDbEntity
  8
0
100
AcDbBlockEnd
  0
BLOCK
  5
809A
330
8099
100
AcDbEntity
  8
0
100
AcDbBlockBegin
  2
*D18
 70
     1
 10
0.0
 20
0.0
 30
0.0
  3
*D18
  1

  0
LINE
  5
809B
330
8099
100
AcDbEntity
  8
0
  6
ByBlock
 62
     0
440
 16777216
100
AcDbLine
 10
2538.267289256893
 20
3417.3067617295
 30
0.0
 11
2538.267289256893
 21
3041.924971579025
 31
0.0
  0
LINE
  5
809C
330
8099
100
AcDbEntity
  8
0
  6
ByBlock
 62
     0
440
 16777216
100
AcDbLine
 10
3488.251721852333
 20
3417.306761729844
 30
0.0
 11
3488.251721852333
 21
3041.924971579025
 31
0.0
  0
LINE
  5
809D
330
8099
100
AcDbEntity
  8
0
  6
ByBlock
 62
     0
440
 16777216
100
AcDbLine
 10
2638.267289256893
 20
3091.924971579025
 30
0.0
 11
3388.251721852332
 21
3091.924971579025
 31
0.0
  0
INSERT
  5
809E
330
8099
100
AcDbEntity
  8
0
  6
ByBlock
 62
     0
440
 16777216
100
AcDbBlockReference
  2
_OPEN
 10
2538.267289256893
 20
3091.924971579025
 30
0.0
 41
100.0
 42
100.0
 43
100.0
 50
180.0
  0
INSERT
  5
809F
330
8099
100
AcDbEntity
  8
0
  6
ByBlock
 62
     0
440
 16777216
100
AcDbBlockReference
  2
_OPEN
 10
3488.251721852333
 20
3091.924971579025
 30
0.0
 41
100.0
 42
100.0
 43
100.0
  0
MTEXT
  5
80A0
330
8099
100
AcDbEntity
  8
0
  6
ByBlock
 62
     0
440
 16777216
100
AcDbMText
 10
3013.259505554613
 20
3216.924971579025
 30
0.0
 40
150.0
 41
0.0
 46
0.0
 71
     5
 72
     5
  1
\A1;950
 73
     1
 44
1.0
  0
POINT
  5
80A1
330
8099
100
AcDbEntity
  8
DEFPOINTS
  6
ByBlock
 62
     0
440
 16777216
100
AcDbPoint
 10
2538.267289256893
 20
3442.3067617295
 30
0.0
  0
POINT
  5
80A2
330
8099
100
AcDbEntity
  8
DEFPOINTS
  6
ByBlock
 62
     0
440
 16777216
100
AcDbPoint
 10
3488.251721852333
 20
3442.306761729844
 30
0.0
  0
POINT
  5
80A3
330
8099
100
AcDbEntity
  8
DEFPOINTS
  6
ByBlock
 62
     0
440
 16777216
100
AcDbPoint
 10
3488.251721852333
 20
3091.924971579025
 30
0.0
  0
ENDBLK
  5
80A4
330
8099
100
AcDbEntity
  8
0
100
AcDbBlockEnd
  0
BLOCK
  5
80A7
330
80A6
100
AcDbEntity
  8
0
100
AcDbBlockBegin
  2
*D19
 70
     1
 10
0.0
 20
0.0
 30
0.0
  3
*D19
  1

  0
LINE
  5
80A8
330
80A6
100
AcDbEntity
  8
0
  6
ByBlock
 62
     0
440
 16777216
100
AcDbLine
 10
3488.251721852333
 20
3417.306761729844
 30
0.0
 11
3488.251721852333
 21
3041.924971579025
 31
0.0
  0
LINE
  5
80A9
330
80A6
100
AcDbEntity
  8
0
  6
ByBlock
 62
     0
440
 16777216
100
AcDbLine
 10
5838.267289256895
 20
3417.306761730693
 30
0.0
 11
5838.267289256895
 21
3041.924971579025
 31
0.0
  0
LINE
  5
80AA
330
80A6
100
AcDbEntity
  8
0
  6
ByBlock
 62
     0
440
 16777216
100
AcDbLine
 10
3588.251721852333
 20
3091.924971579025
 30
0.0
 11
5738.267289256896
 21
3091.924971579025
 31
0.0
  0
INSERT
  5
80AB
330
80A6
100
AcDbEntity
  8
0
  6
ByBlock
 62
     0
440
 16777216
100
AcDbBlockReference
  2
_OPEN
 10
3488.251721852333
 20
3091.924971579025
 30
0.0
 41
100.0
 42
100.0
 43
100.0
 50
180.0
  0
INSERT
  5
80AC
330
80A6
100
AcDbEntity
  8
0
  6
ByBlock
 62
     0
440
 16777216
100
AcDbBlockReference
  2
_OPEN
 10
5838.267289256895
 20
3091.924971579025
 30
0.0
 41
100.0
 42
100.0
 43
100.0
  0
MTEXT
  5
80AD
330
80A6
100
AcDbEntity
  8
0
  6
ByBlock
 62
     0
440
 16777216
100
AcDbMText
 10
4663.259505554613
 20
3216.924971579025
 30
0.0
 40
150.0
 41
0.0
 46
0.0
 71
     5
 72
     5
  1
\A1;2350
 73
     1
 44
1.0
  0
POINT
  5
80AE
330
80A6
100
AcDbEntity
  8
DEFPOINTS
  6
ByBlock
 62
     0
440
 16777216
100
AcDbPoint
 10
3488.251721852333
 20
3442.306761729844
 30
0.0
  0
POINT
  5
80AF
330
80A6
100
AcDbEntity
  8
DEFPOINTS
  6
ByBlock
 62
     0
440
 16777216
100
AcDbPoint
 10
5838.267289256895
 20
3442.306761730693
 30
0.0
  0
POINT
  5
80B0
330
80A6
100
AcDbEntity
  8
DEFPOINTS
  6
ByBlock
 62
     0
440
 16777216
100
AcDbPoint
 10
5838.267289256895
 20
3091.924971579025
 30
0.0
  0
ENDBLK
  5
80B1
330
80A6
100
AcDbEntity
  8
0
100
AcDbBlockEnd
  0
BLOCK
  5
80B4
330
80B3
100
AcDbEntity
  8
0
100
AcDbBlockBegin
  2
*D20
 70
     1
 10
0.0
 20
0.0
 30
0.0
  3
*D20
  1

  0
LINE
  5
80B5
330
80B3
100
AcDbEntity
  8
0
  6
ByBlock
 62
     0
440
 16777216
100
AcDbLine
 10
6424.557976899901
 20
3414.885571933224
 30
0.0
 11
6424.557976899901
 21
3041.924971579025
 31
0.0
  0
LINE
  5
80B6
330
80B3
100
AcDbEntity
  8
0
  6
ByBlock
 62
     0
440
 16777216
100
AcDbLine
 10
7885.557976899919
 20
3414.885571933389
 30
0.0
 11
7885.557976899919
 21
3041.924971579025
 31
0.0
  0
LINE
  5
80B7
330
80B3
100
AcDbEntity
  8
0
  6
ByBlock
 62
     0
440
 16777216
100
AcDbLine
 10
6524.557976899901
 20
3091.924971579025
 30
0.0
 11
7785.557976899919
 21
3091.924971579025
 31
0.0
  0
INSERT
  5
80B8
330
80B3
100
AcDbEntity
  8
0
  6
ByBlock
 62
     0
440
 16777216
100
AcDbBlockReference
  2
_OPEN
 10
6424.557976899901
 20
3091.924971579025
 30
0.0
 41
100.0
 42
100.0
 43
100.0
 50
180.0
  0
INSERT
  5
80B9
330
80B3
100
AcDbEntity
  8
0
  6
ByBlock
 62
     0
440
 16777216
100
AcDbBlockReference
  2
_OPEN
 10
7885.557976899919
 20
3091.924971579025
 30
0.0
 41
100.0
 42
100.0
 43
100.0
  0
MTEXT
  5
80BA
330
80B3
100
AcDbEntity
  8
0
  6
ByBlock
 62
     0
440
 16777216
100
AcDbMText
 10
7155.05797689991
 20
3216.924971579025
 30
0.0
 40
150.0
 41
0.0
 46
0.0
 71
     5
 72
     5
  1
\A1;1461
 73
     1
 44
1.0
  0
POINT
  5
80BB
330
80B3
100
AcDbEntity
  8
DEFPOINTS
  6
ByBlock
 62
     0
440
 16777216
100
AcDbPoint
 10
6424.557976899901
 20
3439.885571933224
 30
0.0
  0
POINT
  5
80BC
330
80B3
100
AcDbEntity
  8
DEFPOINTS
  6
ByBlock
 62
     0
440
 16777216
100
AcDbPoint
 10
7885.557976899919
 20
3439.88557193339
 30
0.0
  0
POINT
  5
80BD
330
80B3
100
AcDbEntity
  8
DEFPOINTS
  6
ByBlock
 62
     0
440
 16777216
100
AcDbPoint
 10
7885.557976899919
 20
3091.924971579025
 30
0.0
  0
ENDBLK
  5
80BE
330
80B3
100
AcDbEntity
  8
0
100
AcDbBlockEnd
  0
BLOCK
  5
80C1
330
80C0
100
AcDbEntity
  8
0
100
AcDbBlockBegin
  2
*D21
 70
     1
 10
0.0
 20
0.0
 30
0.0
  3
*D21
  1

  0
LINE
  5
80C2
330
80C0
100
AcDbEntity
  8
0
  6
ByBlock
 62
     0
440
 16777216
100
AcDbLine
 10
7885.557976899919
 20
3414.885571933389
 30
0.0
 11
7885.557976899919
 21
3041.924971579025
 31
0.0
  0
LINE
  5
80C3
330
80C0
100
AcDbEntity
  8
0
  6
ByBlock
 62
     0
440
 16777216
100
AcDbLine
 10
9024.557976899904
 20
3414.885571933518
 30
0.0
 11
9024.557976899904
 21
3041.924971579025
 31
0.0
  0
LINE
  5
80C4
330
80C0
100
AcDbEntity
  8
0
  6
ByBlock
 62
     0
440
 16777216
100
AcDbLine
 10
7985.557976899919
 20
3091.924971579025
 30
0.0
 11
8924.557976899903
 21
3091.924971579025
 31
0.0
  0
INSERT
  5
80C5
330
80C0
100
AcDbEntity
  8
0
  6
ByBlock
 62
     0
440
 16777216
100
AcDbBlockReference
  2
_OPEN
 10
7885.557976899919
 20
3091.924971579025
 30
0.0
 41
100.0
 42
100.0
 43
100.0
 50
180.0
  0
INSERT
  5
80C6
330
80C0
100
AcDbEntity
  8
0
  6
ByBlock
 62
     0
440
 16777216
100
AcDbBlockReference
  2
_OPEN
 10
9024.557976899904
 20
3091.924971579025
 30
0.0
 41
100.0
 42
100.0
 43
100.0
  0
MTEXT
  5
80C7
330
80C0
100
AcDbEntity
  8
0
  6
ByBlock
 62
     0
440
 16777216
100
AcDbMText
 10
8455.057976899913
 20
3216.924971579025
 30
0.0
 40
150.0
 41
0.0
 46
0.0
 71
     5
 72
     5
  1
\A1;1139
 73
     1
 44
1.0
  0
POINT
  5
80C8
330
80C0
100
AcDbEntity
  8
DEFPOINTS
  6
ByBlock
 62
     0
440
 16777216
100
AcDbPoint
 10
7885.557976899919
 20
3439.88557193339
 30
0.0
  0
POINT
  5
80C9
330
80C0
100
AcDbEntity
  8
DEFPOINTS
  6
ByBlock
 62
     0
440
 16777216
100
AcDbPoint
 10
9024.557976899904
 20
3439.885571933518
 30
0.0
  0
POINT
  5
80CA
330
80C0
100
AcDbEntity
  8
DEFPOINTS
  6
ByBlock
 62
     0
440
 16777216
100
AcDbPoint
 10
9024.557976899904
 20
3091.924971579025
 30
0.0
  0
ENDBLK
  5
80CB
330
80C0
100
AcDbEntity
  8
0
100
AcDbBlockEnd
  0
BLOCK
  5
80CE
330
80CD
100
AcDbEntity
  8
0
100
AcDbBlockBegin
  2
*D22
 70
     1
 10
0.0
 20
0.0
 30
0.0
  3
*D22
  1

  0
LINE
  5
80CF
330
80CD
100
AcDbEntity
  8
0
  6
ByBlock
 62
     0
440
 16777216
100
AcDbLine
 10
2513.267289256893
 20
3442.3067617295
 30
0.0
 11
1492.280091735338
 21
3442.3067617295
 31
0.0
  0
LINE
  5
80D0
330
80CD
100
AcDbEntity
  8
0
  6
ByBlock
 62
     0
440
 16777216
100
AcDbLine
 10
3418.267289255989
 20
5887.305761729863
 30
0.0
 11
1492.280091735338
 21
5887.305761729863
 31
0.0
  0
LINE
  5
80D1
330
80CD
100
AcDbEntity
  8
0
  6
ByBlock
 62
     0
440
 16777216
100
AcDbLine
 10
1542.280091735338
 20
3542.3067617295
 30
0.0
 11
1542.280091735338
 21
5787.305761729863
 31
0.0
  0
INSERT
  5
80D2
330
80CD
100
AcDbEntity
  8
0
  6
ByBlock
 62
     0
440
 16777216
100
AcDbBlockReference
  2
_OPEN
 10
1542.280091735338
 20
3442.3067617295
 30
0.0
 41
100.0
 42
100.0
 43
100.0
 50
270.0
  0
INSERT
  5
80D3
330
80CD
100
AcDbEntity
  8
0
  6
ByBlock
 62
     0
440
 16777216
100
AcDbBlockReference
  2
_OPEN
 10
1542.280091735338
 20
5887.305761729863
 30
0.0
 41
100.0
 42
100.0
 43
100.0
 50
90.0
  0
MTEXT
  5
80D4
330
80CD
100
AcDbEntity
  8
0
  6
ByBlock
 62
     0
440
 16777216
100
AcDbMText
 10
1417.280091735338
 20
4664.806261729682
 30
0.0
 40
150.0
 41
0.0
 46
0.0
 71
     5
 72
     5
  1
\A1;2445
 11
0.0
 21
1.0
 31
0.0
 73
     1
 44
1.0
  0
POINT
  5
80D5
330
80CD
100
AcDbEntity
  8
DEFPOINTS
  6
ByBlock
 62
     0
440
 16777216
100
AcDbPoint
 10
2538.267289256893
 20
3442.3067617295
 30
0.0
  0
POINT
  5
80D6
330
80CD
100
AcDbEntity
  8
DEFPOINTS
  6
ByBlock
 62
     0
440
 16777216
100
AcDbPoint
 10
3443.267289255989
 20
5887.305761729863
 30
0.0
  0
POINT
  5
80D7
330
80CD
100
AcDbEntity
  8
DEFPOINTS
  6
ByBlock
 62
     0
440
 16777216
100
AcDbPoint
 10
1542.280091735338
 20
5887.305761729863
 30
0.0
  0
ENDBLK
  5
80D8
330
80CD
100
AcDbEntity
  8
0
100
AcDbBlockEnd
  0
ENDSEC
  0
SECTION
  2
ENTITIES
  0
LINE
  5
7AC9
330
19
100
AcDbEntity
  8
1
100
AcDbLine
 10
5409.423461212774
 20
4185.469947292386
 30
0.0
 11
3752.829429625008
 21
5324.49642761201
 31
0.0
  0
ARC
  5
7ACA
330
19
100
AcDbEntity
  8
1
100
AcDbCircle
 10
5274.737280661458
 20
3939.991571934192
 30
0.0
 40
280.0
100
AcDbArc
 50
253.3002697511323
 51
61.24782346562326
  0
LINE
  5
7ACB
330
19
100
AcDbEntity
  8
1
100
AcDbLine
 10
3681.603569695337
 20
5192.479694244641
 30
0.0
 11
5335.154868298646
 21
4049.420613345065
 31
0.0
  0
CIRCLE
  5
7ACE
330
19
100
AcDbEntity
  8
1
100
AcDbCircle
 10
5274.737280661458
 20
3939.991571934192
 30
0.0
 40
125.0
  0
LINE
  5
7ACF
330
19
100
AcDbEntity
  8
2
100
AcDbLine
 10
4905.690240713462
 20
3939.991571934058
 30
0.0
 11
5625.364450990506
 21
3939.991571934319
 31
0.0
  0
LINE
  5
7AD0
330
19
100
AcDbEntity
  8
1
100
AcDbLine
 10
5430.216412937163
 20
3671.800894566775
 30
0.0
 11
5119.258148385947
 21
3671.800894566664
 31
0.0
  0
LINE
  5
7AD1
330
19
100
AcDbEntity
  8
1
100
AcDbLine
 10
5274.737280661565
 20
3644.900389500104
 30
0.0
 11
5420.484089371718
 21
3644.900389500157
 31
0.0
  0
ARC
  5
7AD2
330
19
100
AcDbEntity
  8
1
100
AcDbCircle
 10
5274.737280661458
 20
3939.991571934192
 30
0.0
 40
310.0
100
AcDbArc
 50
300.1023080683327
 51
239.8976919317088
  0
LINE
  5
7AD3
330
19
100
AcDbEntity
  8
1
100
AcDbLine
 10
5838.267289256894
 20
3442.306761730693
 30
0.0
 11
2538.267289256892
 21
3442.3067617295
 31
0.0
  0
LINE
  5
7AD4
330
19
100
AcDbEntity
  8
1
100
AcDbLine
 10
5838.267289256838
 20
3592.306761730692
 30
0.0
 11
2538.267289256839
 21
3592.3067617295
 31
0.0
  0
LINE
  5
7AD7
330
19
100
AcDbEntity
  8
1
100
AcDbLine
 10
5554.737280661514
 20
3806.950224977762
 30
0.0
 11
5554.737280661559
 21
3659.991571934293
 31
0.0
  0
LINE
  5
7AD8
330
19
100
AcDbEntity
  8
1
100
AcDbLine
 10
5554.737280661559
 20
3659.991571934293
 30
0.0
 11
5444.737280661559
 21
3659.991571934253
 31
0.0
  0
LINE
  5
7AD9
330
19
100
AcDbEntity
  8
1
100
AcDbLine
 10
5554.73728066155
 20
3689.991571934292
 30
0.0
 11
5458.040308459782
 21
3689.991571934257
 31
0.0
  0
LINE
  5
7ADA
330
19
100
AcDbEntity
  8
1
100
AcDbLine
 10
5420.484089371711
 20
3659.991571934244
 30
0.0
 11
5613.631773220313
 21
3659.991571934313
 31
0.0
  0
LINE
  5
7AE5
330
19
100
AcDbEntity
  8
1
100
AcDbLine
 10
5613.631773220313
 20
3659.991571934313
 30
0.0
 11
5624.369975554288
 21
3592.306761730615
 31
0.0
  0
LINE
  5
7AE6
330
19
100
AcDbEntity
  8
1
100
AcDbLine
 10
5444.737280661553
 20
3680.761943997938
 30
0.0
 11
5444.73728066156
 21
3659.991571934253
 31
0.0
  0
LINE
  5
7AE8
330
19
100
AcDbEntity
  8
1
100
AcDbLine
 10
5420.484089371718
 20
3644.900389500157
 30
0.0
 11
5420.484089371711
 21
3659.991571934244
 31
0.0
  0
CIRCLE
  5
7AE9
330
19
100
AcDbEntity
  8
1
100
AcDbCircle
 10
3488.267289256372
 20
4842.306761729843
 30
0.0
 40
865.0
  0
CIRCLE
  5
7AEA
330
19
100
AcDbEntity
  8
1
100
AcDbCircle
 10
3488.267289256372
 20
4842.306761729843
 30
0.0
 40
800.0
  0
ARC
  5
7AEB
330
19
100
AcDbEntity
  8
1
100
AcDbCircle
 10
3488.267289256353
 20
4842.306761729843
 30
0.0
 40
550.0
100
AcDbArc
 50
61.24782346562326
 51
257.5117566008
  0
CIRCLE
  5
7AEC
330
19
100
AcDbEntity
  8
1
100
AcDbCircle
 10
3488.267289256338
 20
4842.306761729843
 30
0.0
 40
400.0
  0
LINE
  5
7AED
330
19
100
AcDbEntity
  8
2
100
AcDbLine
 10
3488.251721852333
 20
3442.306761729844
 30
0.0
 11
3487.965692840589
 21
5929.745307301397
 31
0.0
  0
LINE
  5
7AEE
330
19
100
AcDbEntity
  8
1
100
AcDbLine
 10
3533.267289256013
 20
5822.305761729886
 30
0.0
 11
5177.262962936083
 21
5822.30576173048
 31
0.0
  0
LINE
  5
7AEF
330
19
100
AcDbEntity
  8
1
100
AcDbLine
 10
3468.267289255993
 20
5881.305761729864
 30
0.0
 11
5248.267289255993
 21
5881.305761730508
 31
0.0
  0
LINE
  5
7AF0
330
19
100
AcDbEntity
  8
1
100
AcDbLine
 10
5183.26728925599
 20
5887.305761730482
 30
0.0
 11
3533.26728925599
 21
5887.305761729885
 31
0.0
  0
ARC
  5
7AF1
330
19
100
AcDbEntity
  8
1
100
AcDbCircle
 10
3604.267289256324
 20
4958.306761729913
 30
0.0
 40
1487.0
100
AcDbArc
 50
293.2736620393889
 51
355.5250000000207
  0
LINE
  5
7AF2
330
19
100
AcDbEntity
  8
1
100
AcDbLine
 10
5214.190281744695
 20
3666.61626046263
 30
0.0
 11
3368.774941283489
 21
4305.0551890559
 31
0.0
  0
LINE
  5
7AF4
330
19
100
AcDbEntity
  8
2
100
AcDbLine
 10
2381.220905828687
 20
4842.306761729442
 30
0.0
 11
5238.513191803093
 21
4842.306761730475
 31
0.0
  0
ARC
  5
7AF5
330
19
100
AcDbEntity
  8
1
100
AcDbCircle
 10
3391.267289256403
 20
4745.306761729835
 30
0.0
 40
1042.0
100
AcDbArc
 50
84.6590000000207
 51
174.6590000000207
  0
ARC
  5
7AF6
330
19
100
AcDbEntity
  8
1
100
AcDbCircle
 10
3604.26728925641
 20
4726.306761729913
 30
0.0
 40
1255.0
100
AcDbArc
 50
174.6970000000207
 51
244.6334634699355
  0
LINE
  5
7AF7
330
19
100
AcDbEntity
  8
2
100
AcDbLine
 10
5274.73728066121
 20
4387.74754696081
 30
0.0
 11
5274.737280661803
 21
3442.30676173049
 31
0.0
  0
LINE
  5
7AF8
330
19
100
AcDbEntity
  8
1
100
AcDbLine
 10
4994.737280661508
 20
3806.950224977544
 30
0.0
 11
4994.73728066156
 21
3659.991571934089
 31
0.0
  0
LINE
  5
7AF9
330
19
100
AcDbEntity
  8
1
100
AcDbLine
 10
5128.990471951409
 20
3659.991571934138
 30
0.0
 11
4935.842788102807
 21
3659.991571934069
 31
0.0
  0
LINE
  5
7AFA
330
19
100
AcDbEntity
  8
1
100
AcDbLine
 10
5091.434252863317
 20
3689.991571934125
 30
0.0
 11
4994.737280661549
 21
3689.99157193409
 31
0.0
  0
LINE
  5
7AFB
330
19
100
AcDbEntity
  8
1
100
AcDbLine
 10
5274.737280661565
 20
3644.900389500104
 30
0.0
 11
5128.990471951414
 21
3644.900389500051
 31
0.0
  0
LINE
  5
7AFD
330
19
100
AcDbEntity
  8
1
100
AcDbLine
 10
5104.737280661553
 20
3680.761943997816
 30
0.0
 11
5104.73728066156
 21
3659.99157193413
 31
0.0
  0
LINE
  5
7AFE
330
19
100
AcDbEntity
  8
1
100
AcDbLine
 10
5128.990471951414
 20
3644.900389500051
 30
0.0
 11
5128.990471951409
 21
3659.991571934138
 31
0.0
  0
LINE
  5
7B01
330
19
100
AcDbEntity
  8
1
100
AcDbLine
 10
4935.842788102807
 20
3659.991571934069
 30
0.0
 11
4925.104585768881
 21
3592.306761730363
 31
0.0
  0
LINE
  5
7B0B
330
19
100
AcDbEntity
  8
1
100
AcDbLine
 10
3533.26728925599
 20
5887.305761729885
 30
0.0
 11
3533.267289256013
 21
5822.305761729886
 31
0.0
  0
LINE
  5
7B0C
330
19
100
AcDbEntity
  8
1
100
AcDbLine
 10
3533.26728925603
 20
5775.332761729887
 30
0.0
 11
3533.26728925599
 21
5887.305761729885
 31
0.0
  0
LINE
  5
7B0D
330
19
100
AcDbEntity
  8
1
100
AcDbLine
 10
2538.267289256839
 20
3592.3067617295
 30
0.0
 11
2538.267289256893
 21
3442.3067617295
 31
0.0
  0
POINT
  5
7B0F
330
19
100
AcDbEntity
  8
1
100
AcDbPoint
 10
2538.267289256892
 20
3442.3067617295
 30
0.0
 50
0.0000000000065138
  0
ARC
  5
7B11
330
19
100
AcDbEntity
  8
1
100
AcDbCircle
 10
3391.267289256332
 20
4939.306761729836
 30
0.0
 40
848.0
100
AcDbArc
 50
80.36024588593111
 51
83.4320000000207
  0
LINE
  5
7B12
330
19
100
AcDbEntity
  8
1
100
AcDbLine
 10
3468.267289255989
 20
5887.305761729863
 30
0.0
 11
3533.26728925599
 21
5887.305761729885
 31
0.0
  0
LINE
  5
7B13
330
19
100
AcDbEntity
  8
1
100
AcDbLine
 10
3468.267289255989
 20
5887.305761729863
 30
0.0
 11
3468.267289255993
 21
5881.305761729864
 31
0.0
  0
LINE
  5
7B14
330
19
100
AcDbEntity
  8
1
100
AcDbLine
 10
5183.26728925599
 20
5887.305761730482
 30
0.0
 11
5086.736289256367
 21
4842.30676173045
 31
0.0
  0
LINE
  5
7B15
330
19
100
AcDbEntity
  8
1
100
AcDbLine
 10
5248.267289255989
 20
5887.305761730508
 30
0.0
 11
5248.267289255993
 21
5881.305761730508
 31
0.0
  0
LINE
  5
7B16
330
19
100
AcDbEntity
  8
1
100
AcDbLine
 10
5183.26728925599
 20
5887.305761730482
 30
0.0
 11
5248.267289255989
 21
5887.305761730508
 31
0.0
  0
LINE
  5
7B17
330
19
100
AcDbEntity
  8
1
100
AcDbLine
 10
5372.312947478611
 20
8226.098264872504
 30
0.0
 11
5201.312947478611
 21
8226.098264872383
 31
0.0
  0
LINE
  5
7B18
330
19
100
AcDbEntity
  8
1
100
AcDbLine
 10
5329.312947478738
 20
8046.098264872474
 30
0.0
 11
5244.312947478738
 21
8046.098264872412
 31
0.0
  0
LINE
  5
7B19
330
19
100
AcDbEntity
  8
1
100
AcDbLine
 10
5336.812947478619
 20
8216.098264872478
 30
0.0
 11
5236.812947478618
 21
8216.09826487241
 31
0.0
  0
LINE
  5
7B1A
330
19
100
AcDbEntity
  8
1
100
AcDbLine
 10
4999.312947478607
 20
8232.598264872242
 30
0.0
 11
5566.812947478608
 21
8232.59826487264
 31
0.0
  0
LINE
  5
7B1B
330
19
100
AcDbEntity
  8
1
100
AcDbLine
 10
5566.812947478007
 20
9085.098264872639
 30
0.0
 11
5183.267289254428
 21
9085.098264872369
 31
0.0
  0
LINE
  5
7B1C
330
19
100
AcDbEntity
  8
1
100
AcDbLine
 10
5566.812947478816
 20
7809.098264872591
 30
0.0
 11
2938.267289255184
 21
7809.098264871302
 31
0.0
  0
LINE
  5
7B1D
330
19
100
AcDbEntity
  8
1
100
AcDbLine
 10
5411.812947478793
 20
7986.0982648725
 30
0.0
 11
3088.26728925516
 21
7986.098264871391
 31
0.0
  0
LINE
  5
7B1E
330
19
100
AcDbEntity
  8
1
100
AcDbLine
 10
5411.812947478722
 20
8106.0982648725
 30
0.0
 11
3088.267289255089
 21
8106.098264871389
 31
0.0
  0
LINE
  5
7B1F
330
19
100
AcDbEntity
  8
1
100
AcDbLine
 10
5838.267289254403
 20
9168.292810870296
 30
0.0
 11
5183.267289254399
 21
9168.292810870138
 31
0.0
  0
LINE
  5
7B20
330
19
100
AcDbEntity
  8
1
100
AcDbLine
 10
5838.267289254837
 20
7968.292810870295
 30
0.0
 11
2538.267289254824
 21
7968.292810869176
 31
0.0
  0
LINE
  5
7B21
330
19
100
AcDbEntity
  8
2
100
AcDbLine
 10
5286.812947478733
 20
7809.098264872455
 30
0.0
 11
5286.812947478006
 21
9085.09826487244
 31
0.0
  0
LINE
  5
7B22
330
19
100
AcDbEntity
  8
1
100
AcDbLine
 10
5411.812947478722
 20
8106.098264872485
 30
0.0
 11
5411.812947478793
 21
7986.098264872485
 31
0.0
  0
LINE
  5
7B23
330
19
100
AcDbEntity
  8
1
100
AcDbLine
 10
5566.812947478695
 20
8152.588185189982
 30
0.0
 11
5566.812947478816
 21
7809.098264872577
 31
0.0
  0
LINE
  5
7B24
330
19
100
AcDbEntity
  8
1
100
AcDbLine
 10
5566.812947478007
 20
9085.098264872639
 30
0.0
 11
5566.812947478608
 21
8232.59826487264
 31
0.0
  0
LINE
  5
7B25
330
19
100
AcDbEntity
  8
1
100
AcDbLine
 10
5838.267289254401
 20
9168.292810870296
 30
0.0
 11
5838.267289254837
 21
7968.292810870295
 31
0.0
  0
LINE
  5
7B26
330
19
100
AcDbEntity
  8
1
100
AcDbLine
 10
5566.812947478648
 20
8152.588185189982
 30
0.0
 11
5422.277368740328
 21
8152.588185189896
 31
0.0
  0
LINE
  5
7B27
330
19
100
AcDbEntity
  8
1
100
AcDbLine
 10
5336.812947478619
 20
8216.098264872478
 30
0.0
 11
5336.812947478611
 21
8226.098264872479
 31
0.0
  0
LINE
  5
7B28
330
19
100
AcDbEntity
  8
1
100
AcDbLine
 10
5329.312947478738
 20
8046.098264872474
 30
0.0
 11
5329.312947478618
 21
8216.098264872476
 31
0.0
  0
ARC
  5
7B29
330
19
100
AcDbEntity
  8
1
100
AcDbCircle
 10
5372.312947478609
 20
8228.098264872505
 30
0.0
 40
2.0
100
AcDbArc
 50
270.0000000000402
 51
0.0000000000402492
  0
LINE
  5
7B2A
330
19
100
AcDbEntity
  8
1
100
AcDbLine
 10
5374.312947478607
 20
8232.946639872507
 30
0.0
 11
5374.312947478609
 21
8228.098264872505
 31
0.0
  0
LINE
  5
7B2B
330
19
100
AcDbEntity
  8
2
100
AcDbLine
 10
3488.267289253883
 20
10636.02226490484
 30
0.0
 11
3488.267289254733
 21
7809.098264871571
 31
0.0
  0
LINE
  5
7B2C
330
19
100
AcDbEntity
  8
1
100
AcDbLine
 10
2538.267289254824
 20
7968.292810869172
 30
0.0
 11
2538.267289254682
 21
8369.292810869174
 31
0.0
  0
LINE
  5
7B2D
330
19
100
AcDbEntity
  8
1
100
AcDbLine
 10
4438.267289253939
 20
10489.29281086986
 30
0.0
 11
4438.267289253908
 21
10568.29281086986
 31
0.0
  0
LINE
  5
7B2E
330
19
100
AcDbEntity
  8
2
100
AcDbLine
 10
5183.267289254307
 20
9429.29281087013
 30
0.0
 11
2226.335444065629
 21
9429.292810869062
 31
0.0
  0
LINE
  5
7B2F
330
19
100
AcDbEntity
  8
1
100
AcDbLine
 10
5161.812947478722
 20
8106.098264872338
 30
0.0
 11
5161.812947478793
 21
7986.098264872338
 31
0.0
  0
LINE
  5
7B30
330
19
100
AcDbEntity
  8
1
100
AcDbLine
 10
3888.26728925509
 20
8106.09826487186
 30
0.0
 11
3888.267289255161
 21
7986.098264871862
 31
0.0
  0
LINE
  5
7B31
330
19
100
AcDbEntity
  8
1
100
AcDbLine
 10
4999.312947478607
 20
8232.598264872242
 30
0.0
 11
4999.312947478511
 21
8369.292810870065
 31
0.0
  0
LINE
  5
7B32
330
19
100
AcDbEntity
  8
1
100
AcDbLine
 10
5236.812947478618
 20
8216.09826487241
 30
0.0
 11
5236.812947478611
 21
8226.09826487241
 31
0.0
  0
LINE
  5
7B35
330
19
100
AcDbEntity
  8
1
100
AcDbLine
 10
5244.312947478738
 20
8046.098264872412
 30
0.0
 11
5244.312947478622
 21
8210.598264872414
 31
0.0
  0
ARC
  5
7B36
330
19
100
AcDbEntity
  8
1
100
AcDbCircle
 10
5201.312947478609
 20
8228.098264872384
 30
0.0
 40
2.0
100
AcDbArc
 50
180.0000000000402
 51
270.0000000000402
  0
LINE
  5
7B37
330
19
100
AcDbEntity
  8
1
100
AcDbLine
 10
5199.312947478607
 20
8232.598264872382
 30
0.0
 11
5199.31294747861
 21
8228.098264872382
 31
0.0
  0
LINE
  5
7B38
330
19
100
AcDbEntity
  8
1
100
AcDbLine
 10
3088.267289255089
 20
8106.098264871389
 30
0.0
 11
3088.26728925516
 21
7986.098264871391
 31
0.0
  0
LINE
  5
7B39
330
19
100
AcDbEntity
  8
1
100
AcDbLine
 10
2938.267289255062
 20
8152.588185188706
 30
0.0
 11
2938.267289255184
 21
7809.098264871304
 31
0.0
  0
LINE
  5
7B3A
330
19
100
AcDbEntity
  8
1
100
AcDbLine
 10
3172.386308266097
 20
8152.588185188845
 30
0.0
 11
2938.267289255062
 21
8152.588185188706
 31
0.0
  0
LINE
  5
7B3B
330
19
100
AcDbEntity
  8
1
100
AcDbLine
 10
4438.267289253908
 20
10568.29281086986
 30
0.0
 11
2538.26728925389
 21
10568.29281086917
 31
0.0
  0
LINE
  5
7B3C
330
19
100
AcDbEntity
  8
2
100
AcDbLine
 10
9235.612718086041
 20
4842.306761730219
 30
0.0
 11
6265.36343090176
 21
4842.306761729901
 31
0.0
  0
LINE
  5
7B3D
330
19
100
AcDbEntity
  8
1
100
AcDbLine
 10
8949.450152565917
 20
4782.30676173019
 30
0.0
 11
9185.764430901775
 21
4782.306761730213
 31
0.0
  0
LINE
  5
7B3E
330
19
100
AcDbEntity
  8
1
100
AcDbLine
 10
8949.521174513916
 20
4542.570458409946
 30
0.0
 11
9185.764430901796
 21
4612.306761730213
 31
0.0
  0
LINE
  5
7B3F
330
19
100
AcDbEntity
  8
2
100
AcDbLine
 10
7885.557976899296
 20
6198.531229641317
 30
0.0
 11
7885.557976899919
 21
3439.88557193339
 31
0.0
  0
LINE
  5
7B40
330
19
100
AcDbEntity
  8
1
100
AcDbLine
 10
8946.219783338234
 20
4887.30676173019
 30
0.0
 11
8945.923652348819
 21
5887.305761730508
 31
0.0
  0
LINE
  5
7B41
330
19
100
AcDbEntity
  8
1
100
AcDbLine
 10
6825.563430901727
 20
4842.30676172995
 30
0.0
 11
6825.563430901549
 21
5887.305761730508
 31
0.0
  0
LINE
  5
7B42
330
19
100
AcDbEntity
  8
1
100
AcDbLine
 10
6562.363430901858
 20
3814.991571934346
 30
0.0
 11
6562.363430901723
 21
5242.30676172992
 31
0.0
  0
LINE
  5
7B43
330
19
100
AcDbEntity
  8
1
100
AcDbLine
 10
6442.363430901858
 20
3814.991571934332
 30
0.0
 11
6442.363430901723
 21
5242.306761729906
 31
0.0
  0
LINE
  5
7B44
330
19
100
AcDbEntity
  8
1
100
AcDbLine
 10
8957.764430901869
 20
3977.306761730191
 30
0.0
 11
8957.764430901672
 21
5707.306761730191
 31
0.0
  0
LINE
  5
7B45
330
19
100
AcDbEntity
  8
1
100
AcDbLine
 10
6265.363430901876
 20
3659.991571934328
 30
0.0
 11
6265.363430901706
 21
5392.306761729901
 31
0.0
  0
LINE
  5
7B46
330
19
100
AcDbEntity
  8
1
100
AcDbLine
 10
6757.36343090165
 20
5887.305761730506
 30
0.0
 11
6757.363430901659
 21
5822.305761730508
 31
0.0
  0
LINE
  5
7B47
330
19
100
AcDbEntity
  8
1
100
AcDbLine
 10
9013.764430901657
 20
5822.305761730507
 30
0.0
 11
9013.76443090165
 21
5887.305761730506
 31
0.0
  0
LINE
  5
7B48
330
19
100
AcDbEntity
  8
1
100
AcDbLine
 10
7541.363430901843
 20
4219.991571934339
 30
0.0
 11
6688.863430901844
 21
4219.991571934339
 31
0.0
  0
LINE
  5
7B4A
330
19
100
AcDbEntity
  8
1
100
AcDbLine
 10
6688.863430901844
 20
3652.491571934338
 30
0.0
 11
7541.363430901845
 21
3652.491571934338
 31
0.0
  0
LINE
  5
7B53
330
19
100
AcDbEntity
  8
1
100
AcDbLine
 10
6688.863430901846
 20
3652.491571934338
 30
0.0
 11
6688.863430901844
 21
4219.991571934339
 31
0.0
  0
LINE
  5
7B54
330
19
100
AcDbEntity
  8
1
100
AcDbLine
 10
6825.5634309019
 20
3589.922935119766
 30
0.0
 11
6825.563430901889
 21
3652.491571934338
 31
0.0
  0
LINE
  5
7B55
330
19
100
AcDbEntity
  8
1
100
AcDbLine
 10
6608.853351219266
 20
3659.991571934398
 30
0.0
 11
6608.853351219249
 21
3804.527150672718
 31
0.0
  0
LINE
  5
7B56
330
19
100
AcDbEntity
  8
1
100
AcDbLine
 10
6608.853351219266
 20
3659.991571934352
 30
0.0
 11
6265.363430901862
 21
3659.991571934328
 31
0.0
  0
LINE
  5
7B58
330
19
100
AcDbEntity
  8
1
100
AcDbLine
 10
6562.363430901844
 20
3814.991571934346
 30
0.0
 11
6442.363430901844
 21
3814.991571934332
 31
0.0
  0
LINE
  5
7B59
330
19
100
AcDbEntity
  8
1
100
AcDbLine
 10
6562.363430901815
 20
4064.991571934346
 30
0.0
 11
6442.363430901814
 21
4064.991571934331
 31
0.0
  0
LINE
  5
7B5A
330
19
100
AcDbEntity
  8
2
100
AcDbLine
 10
7541.363430901843
 20
3939.99157193446
 30
0.0
 11
6265.363430901849
 21
3939.991571934328
 31
0.0
  0
LINE
  5
7B5B
330
19
100
AcDbEntity
  8
1
100
AcDbLine
 10
6672.363430901845
 20
3989.991571934338
 30
0.0
 11
6672.363430901843
 21
3889.991571934339
 31
0.0
  0
LINE
  5
7B5C
330
19
100
AcDbEntity
  8
1
100
AcDbLine
 10
6502.363430901844
 20
3982.491571934339
 30
0.0
 11
6502.363430901846
 21
3897.49157193434
 31
0.0
  0
LINE
  5
7B5D
330
19
100
AcDbEntity
  8
1
100
AcDbLine
 10
6682.363430901843
 20
4025.491571934338
 30
0.0
 11
6682.363430901844
 21
3854.491571934339
 31
0.0
  0
LINE
  5
7B5E
330
19
100
AcDbEntity
  8
1
100
AcDbLine
 10
6502.363430901843
 20
3897.49157193434
 30
0.0
 11
6666.863430901843
 21
3897.49157193434
 31
0.0
  0
LINE
  5
7B61
330
19
100
AcDbEntity
  8
1
100
AcDbLine
 10
6688.863430901844
 20
3852.491571934339
 30
0.0
 11
6684.363430901844
 21
3852.491571934339
 31
0.0
  0
ARC
  5
7B62
330
19
100
AcDbEntity
  8
1
100
AcDbCircle
 10
6684.363430901844
 20
3854.491571934339
 30
0.0
 40
2.0
100
AcDbArc
 50
180.0
 51
270.0
  0
LINE
  5
7B63
330
19
100
AcDbEntity
  8
1
100
AcDbLine
 10
6672.363430901843
 20
3889.991571934339
 30
0.0
 11
6682.363430901843
 21
3889.991571934339
 31
0.0
  0
LINE
  5
7B64
330
19
100
AcDbEntity
  8
1
100
AcDbLine
 10
6502.363430901844
 20
3982.491571934339
 30
0.0
 11
6672.363430901845
 21
3982.491571934339
 31
0.0
  0
LINE
  5
7B65
330
19
100
AcDbEntity
  8
1
100
AcDbLine
 10
6689.211805901845
 20
4027.49157193434
 30
0.0
 11
6684.363430901844
 21
4027.491571934338
 31
0.0
  0
ARC
  5
7B66
330
19
100
AcDbEntity
  8
1
100
AcDbCircle
 10
6684.363430901844
 20
4025.491571934338
 30
0.0
 40
2.0
100
AcDbArc
 50
90.00000000000005
 51
180.0
  0
LINE
  5
7B67
330
19
100
AcDbEntity
  8
1
100
AcDbLine
 10
6672.363430901845
 20
3989.991571934338
 30
0.0
 11
6682.363430901844
 21
3989.991571934338
 31
0.0
  0
LINE
  5
7B68
330
19
100
AcDbEntity
  8
1
100
AcDbLine
 10
6592.363430901778
 20
4762.306761729922
 30
0.0
 11
6825.563430901741
 21
4762.306761729948
 31
0.0
  0
LINE
  5
7B69
330
19
100
AcDbEntity
  8
1
100
AcDbLine
 10
6592.363430901798
 20
4582.306761729922
 30
0.0
 11
6822.363430901806
 21
4512.307340718455
 31
0.0
  0
LINE
  5
7B6A
330
19
100
AcDbEntity
  8
1
100
AcDbLine
 10
6562.363430901763
 20
4897.306761729918
 30
0.0
 11
6825.563430901716
 21
4897.306761729949
 31
0.0
  0
LINE
  5
7B6B
330
19
100
AcDbEntity
  8
1
100
AcDbLine
 10
6562.363430901775
 20
4787.306761729918
 30
0.0
 11
6825.563430901737
 21
4787.306761729948
 31
0.0
  0
LINE
  5
7B6C
330
19
100
AcDbEntity
  8
1
100
AcDbLine
 10
6592.363430901778
 20
4762.306761729922
 30
0.0
 11
6592.363430901798
 21
4582.306761729922
 31
0.0
  0
LINE
  5
7B6D
330
19
100
AcDbEntity
  8
1
100
AcDbLine
 10
6562.363430901813
 20
4442.306761729918
 30
0.0
 11
6442.363430901814
 21
4442.306761729906
 31
0.0
  0
LINE
  5
7B6F
330
19
100
AcDbEntity
  8
1
100
AcDbLine
 10
7541.363430901843
 20
4219.991571934339
 30
0.0
 11
7541.363430901845
 21
3652.49157193434
 31
0.0
  0
LINE
  5
7B73
330
19
100
AcDbEntity
  8
1
100
AcDbLine
 10
9024.565430902079
 20
3590.127917591898
 30
0.0
 11
8949.734620873948
 21
3590.127917591889
 31
0.0
  0
LINE
  5
7B75
330
19
100
AcDbEntity
  8
1
100
AcDbLine
 10
8957.764430901869
 20
3977.306761730191
 30
0.0
 11
8948.764430901869
 21
3977.30676173019
 31
0.0
  0
LINE
  5
7B76
330
19
100
AcDbEntity
  8
1
100
AcDbLine
 10
8957.764430901862
 20
4042.30676173019
 30
0.0
 11
8948.764430901862
 21
4042.30676173019
 31
0.0
  0
LINE
  5
7B79
330
19
100
AcDbEntity
  8
1
100
AcDbLine
 10
6608.85335121911
 20
5392.306761729924
 30
0.0
 11
6265.363430901707
 21
5392.306761729901
 31
0.0
  0
LINE
  5
7B7A
330
19
100
AcDbEntity
  8
1
100
AcDbLine
 10
6562.363430901722
 20
5242.30676172992
 30
0.0
 11
6442.363430901723
 21
5242.306761729906
 31
0.0
  0
LINE
  5
7B7B
330
19
100
AcDbEntity
  8
1
100
AcDbLine
 10
6608.853351219138
 20
5158.18774271889
 30
0.0
 11
6608.85335121911
 21
5392.306761729924
 31
0.0
  0
LINE
  5
7B7D
330
19
100
AcDbEntity
  8
1
100
AcDbLine
 10
8948.764430901674
 20
5707.30676173019
 30
0.0
 11
8957.764430901672
 21
5707.306761730191
 31
0.0
  0
LINE
  5
7B7E
330
19
100
AcDbEntity
  8
1
100
AcDbLine
 10
8957.764430901681
 20
5642.306761730191
 30
0.0
 11
8945.565430901678
 21
5642.306761730189
 31
0.0
  0
LINE
  5
7B7F
330
19
100
AcDbEntity
  8
1
100
AcDbLine
 10
9185.764430901775
 20
4782.306761730213
 30
0.0
 11
9185.764430901796
 21
4612.306761730213
 31
0.0
  0
LINE
  5
7B81
330
19
100
AcDbEntity
  8
1
100
AcDbLine
 10
5183.267289253935
 20
10489.29281087012
 30
0.0
 11
5183.267289254679
 21
8369.292810870126
 31
0.0
  0
LINE
  5
7B82
330
19
100
AcDbEntity
  8
1
100
AcDbLine
 10
5183.267289253935
 20
10489.29281087012
 30
0.0
 11
2349.267289253936
 21
10489.29281086911
 31
0.0
  0
LINE
  5
7B83
330
19
100
AcDbEntity
  8
1
100
AcDbLine
 10
5183.267289254679
 20
8369.292810870131
 30
0.0
 11
2349.267289254683
 21
8369.292810869106
 31
0.0
  0
LINE
  5
7B88
330
19
100
AcDbEntity
  8
1
100
AcDbLine
 10
2538.26728925392
 20
10489.29281086917
 30
0.0
 11
2538.26728925389
 21
10568.29281086917
 31
0.0
  0
LINE
  5
7B89
330
19
100
AcDbEntity
  8
1
100
AcDbLine
 10
3433.267289254682
 20
8369.292810869495
 30
0.0
 11
3433.267289254774
 21
8106.098264871555
 31
0.0
  0
LINE
  5
7B8A
330
19
100
AcDbEntity
  8
1
100
AcDbLine
 10
3543.267289254683
 20
8369.292810869538
 30
0.0
 11
3543.267289254774
 21
8106.098264871608
 31
0.0
  0
DIMENSION
  5
7B9E
330
19
100
AcDbEntity
  8
3
100
AcDbDimension
280
     0
  2
*D1
 10
4438.267289253908
 20
11069.77319178892
 30
0.0
 11
3479.449198776041
 21
11069.77319178892
 31
0.0
 70
   160
 71
     5
 42
-1.0
 73
     0
 74
     0
 75
     0
  3
IGA
100
AcDbAlignedDimension
 13
2538.26728925389
 23
10568.29281086917
 33
0.0
 14
4438.267289253908
 24
10568.29281086986
 34
0.0
100
AcDbRotatedDimension
1001
ACAD
1000
DSTYLE
1002
{
1070
   287
1070
     3
1070
    40
1040
50.0
1070
   143
1040
0.039
1070
   172
1070
     1
1070
   271
1070
     0
1070
   279
1070
     0
1070
   288
1070
     1
1002
}
  0
DIMENSION
  5
7BAA
330
19
100
AcDbEntity
  8
3
100
AcDbDimension
280
     0
  2
*D2
 10
5838.267289254401
 20
11069.77319178892
 30
0.0
 11
5138.267289254155
 21
11194.77319178892
 31
0.0
 70
    32
 71
     5
 42
-1.0
 73
     0
 74
     0
 75
     0
  3
IGA
100
AcDbAlignedDimension
 13
4438.267289253908
 23
10568.29281086986
 33
0.0
 14
5838.267289254401
 24
9168.292810870296
 34
0.0
100
AcDbRotatedDimension
1001
ACAD
1000
DSTYLE
1002
{
1070
   287
1070
     4
1070
    40
1040
50.0
1070
    75
1070
     1
1070
   143
1040
0.039
1070
   172
1070
     1
1070
   271
1070
     0
1070
   279
1070
     1
1070
   288
1070
     1
1002
}
  0
DIMENSION
  5
7BB7
330
19
100
AcDbEntity
  8
3
100
AcDbDimension
280
     0
  2
*D3
 10
6158.188375275758
 20
7968.292810870294
 30
0.0
 11
6158.188375275757
 21
8684.171613421225
 31
0.0
 70
   160
 71
     5
 42
-1.0
 73
     0
 74
     0
 75
     0
  3
IGA
100
AcDbAlignedDimension
 13
5838.267289254401
 23
9168.292810870296
 33
0.0
 14
5838.267289254837
 24
7968.292810870295
 34
0.0
 50
90.0
100
AcDbRotatedDimension
1001
ACAD
1000
DSTYLE
1002
{
1070
   287
1070
     3
1070
    40
1040
50.0
1070
   143
1040
0.039
1070
   172
1070
     1
1070
   271
1070
     0
1070
   279
1070
     0
1070
   288
1070
     1
1002
}
  0
DIMENSION
  5
7BC4
330
19
100
AcDbEntity
  8
3
100
AcDbDimension
280
     0
  2
*D4
 10
5838.267289254837
 20
7504.804356043561
 30
0.0
 11
3996.5726743372
 21
7504.804356043561
 31
0.0
 70
   160
 71
     5
 42
3299.999000000011
 73
     0
 74
     0
 75
     0
  3
IGA
100
AcDbAlignedDimension
 13
2538.268289254826
 23
7968.292810869174
 33
0.0
 14
5838.267289254837
 24
7968.292810870295
 34
0.0
100
AcDbRotatedDimension
1001
ACAD
1000
DSTYLE
1002
{
1070
    40
1040
50.0
1070
   143
1040
0.039
1070
   172
1070
     1
1070
   271
1070
     0
1070
   279
1070
     0
1070
   288
1070
     1
1002
}
  0
DIMENSION
  5
7BD1
330
19
100
AcDbEntity
  8
3
100
AcDbDimension
280
     0
  2
*D5
 10
2069.269088223956
 20
7968.292810869174
 30
0.0
 11
2069.269088223955
 21
9430.769557909808
 31
0.0
 70
   160
 71
     5
 42
-1.0
 73
     0
 74
     0
 75
     0
  3
IGA
100
AcDbAlignedDimension
 13
2538.26728925389
 23
10568.29281086917
 33
0.0
 14
2538.268289254826
 24
7968.292810869174
 34
0.0
 50
90.0
100
AcDbRotatedDimension
1001
ACAD
1000
DSTYLE
1002
{
1070
   287
1070
     3
1070
    40
1040
50.0
1070
   143
1040
0.039
1070
   172
1070
     1
1070
   271
1070
     0
1070
   279
1070
     0
1070
   288
1070
     1
1002
}
  0
LINE
  5
7CB1
330
19
100
AcDbEntity
  8
1
100
AcDbLine
 10
5838.267289256895
 20
3442.306761730693
 30
0.0
 11
5838.267289256838
 21
3592.306761730692
 31
0.0
  0
DIMENSION
  5
7CD8
330
19
100
AcDbEntity
  8
3
100
AcDbDimension
280
     0
  2
*D6
 10
3533.26728925599
 20
6161.090584000277
 30
0.0
 11
4373.751227831093
 21
6161.090584000277
 31
0.0
 70
   160
 71
     5
 42
-1.0
 73
     0
 74
     0
 75
     0
  3
IGA
100
AcDbAlignedDimension
 13
5183.26728925599
 23
5887.305761730482
 33
0.0
 14
3533.26728925599
 24
5887.305761729885
 34
0.0
100
AcDbRotatedDimension
1001
ACAD
1000
DSTYLE
1002
{
1070
   287
1070
     3
1070
    40
1040
50.0
1070
   143
1040
0.039
1070
   172
1070
     1
1070
   271
1070
     0
1070
   279
1070
     0
1070
   288
1070
     1
1002
}
  0
DIMENSION
  5
7CF2
330
19
100
AcDbEntity
  8
3
100
AcDbDimension
280
     0
  2
*D7
 10
3488.267289255968
 20
6443.643466591415
 30
0.0
 11
4373.751227831093
 21
6443.643466591415
 31
0.0
 70
   160
 71
     5
 42
-1.0
 73
     0
 74
     0
 75
     0
  3
IGA
100
AcDbAlignedDimension
 13
5183.26728925599
 23
5887.305761730482
 33
0.0
 14
3488.267289255968
 24
5949.353145157523
 34
0.0
100
AcDbRotatedDimension
1001
ACAD
1000
DSTYLE
1002
{
1070
   287
1070
     3
1070
    40
1040
50.0
1070
   143
1040
0.039
1070
   172
1070
     1
1070
   271
1070
     0
1070
   279
1070
     0
1070
   288
1070
     1
1002
}
  0
DIMENSION
  5
7CFE
330
19
100
AcDbEntity
  8
3
100
AcDbDimension
280
     0
  2
*D8
 10
1886.930584394795
 20
3442.3067617295
 30
0.0
 11
1761.930584394794
 21
4142.306761729471
 31
0.0
 70
    32
 71
     5
 42
-1.0
 73
     0
 74
     0
 75
     0
  3
IGA
100
AcDbAlignedDimension
 13
2381.220905828687
 23
4842.306761729442
 33
0.0
 14
2538.267289256893
 24
3442.3067617295
 34
0.0
 50
90.0
100
AcDbRotatedDimension
1001
ACAD
1000
DSTYLE
1002
{
1070
   287
1070
     3
1070
    40
1040
50.0
1070
   143
1040
0.039
1070
   172
1070
     1
1070
   271
1070
     0
1070
   279
1070
     0
1070
   288
1070
     1
1002
}
  0
LINE
  5
7D6C
330
19
100
AcDbEntity
  8
1
100
AcDbLine
 10
6825.563430901794
 20
4219.991571934339
 30
0.0
 11
6825.563430901728
 21
4842.30676172995
 31
0.0
  0
DIMENSION
  5
7DAB
330
19
100
AcDbEntity
  8
3
100
AcDbDimension
280
     0
  2
*D10
 10
8945.923652348819
 20
6179.355465450193
 30
0.0
 11
7885.765659921614
 21
6179.355465450193
 31
0.0
 70
   160
 71
     5
 42
-1.0
 73
     0
 74
     0
 75
     0
  3
IGA
100
AcDbAlignedDimension
 13
6825.563430901549
 23
5887.305761730508
 33
0.0
 14
8945.923652348819
 24
5887.305761730509
 34
0.0
100
AcDbRotatedDimension
1001
ACAD
1000
DSTYLE
1002
{
1070
   287
1070
     3
1070
    40
1040
50.0
1070
   143
1040
0.039
1070
   172
1070
     1
1070
   271
1070
     0
1070
   279
1070
     0
1070
   288
1070
     1
1002
}
  0
DIMENSION
  5
7DB8
330
19
100
AcDbEntity
  8
3
100
AcDbDimension
280
     0
  2
*D11
 10
7885.557976899256
 20
6534.426763161952
 30
0.0
 11
8381.986548327827
 21
6534.426763161952
 31
0.0
 70
   160
  1
(<>)
 71
     5
 42
1300.206454002521
 73
     0
 74
     0
 75
     0
  3
IGA
100
AcDbAlignedDimension
 13
9185.764430901775
 23
4782.306761730213
 33
0.0
 14
7885.557976899256
 24
6419.419321819465
 34
0.0
100
AcDbRotatedDimension
1001
ACAD
1000
DSTYLE
1002
{
1070
   287
1070
     3
1070
    40
1040
50.0
1070
   143
1040
0.039
1070
   172
1070
     1
1070
   271
1070
     0
1070
   279
1070
     0
1070
   288
1070
     1
1002
}
  0
DIMENSION
  5
7DC4
330
19
100
AcDbEntity
  8
3
100
AcDbDimension
280
     0
  2
*D12
 10
6265.363430901706
 20
6534.426763161952
 30
0.0
 11
7075.460703900481
 21
6698.712477447665
 31
0.0
 70
    32
  1
(<>)
 71
     5
 42
1620.194545997549
 73
     0
 74
     0
 75
     0
  3
IGA
100
AcDbAlignedDimension
 13
7885.557976899256
 23
6419.419321819465
 33
0.0
 14
6265.363430901706
 24
5392.306761729901
 34
0.0
100
AcDbRotatedDimension
1001
ACAD
1000
DSTYLE
1002
{
1070
   287
1070
     4
1070
    40
1040
50.0
1070
    75
1070
     1
1070
   143
1040
0.039
1070
   172
1070
     1
1070
   271
1070
     0
1070
   279
1070
     1
1070
   288
1070
     1
1002
}
  0
DIMENSION
  5
7DFC
330
19
100
AcDbEntity
  8
3
100
AcDbDimension
280
     0
  2
*D13
 10
9466.262506236047
 20
4042.30676173019
 30
0.0
 11
9466.262506236047
 21
4805.54635030502
 31
0.0
 70
   160
 71
     5
 42
-1.0
 73
     0
 74
     0
 75
     0
  3
IGA
100
AcDbAlignedDimension
 13
8957.764430901681
 23
5642.306761730191
 33
0.0
 14
8957.764430901862
 24
4042.30676173019
 34
0.0
 50
90.0
100
AcDbRotatedDimension
1001
ACAD
1000
DSTYLE
1002
{
1070
   287
1070
     3
1070
     3
1000
φ<>
1070
    40
1040
50.0
1070
   143
1040
0.039
1070
   172
1070
     1
1070
   271
1070
     0
1070
   279
1070
     0
1070
   288
1070
     1
1002
}
  0
LINE
  5
7E0A
330
19
100
AcDbEntity
  8
1
100
AcDbLine
 10
8946.219783338234
 20
4887.30676173019
 30
0.0
 11
8946.219783338232
 21
3590.120527336452
 31
0.0
  0
LINE
  5
7EAD
330
19
100
AcDbEntity
  8
1
100
AcDbLine
 10
6424.557976899873
 20
3589.885571933224
 30
0.0
 11
6424.557976899899
 21
3439.885571933224
 31
0.0
  0
LINE
  5
7EAE
330
19
100
AcDbEntity
  8
1
100
AcDbLine
 10
9024.557976899872
 20
3589.885571933519
 30
0.0
 11
9024.557976899904
 21
3439.885571933518
 31
0.0
  0
LINE
  5
7EAF
330
19
100
AcDbEntity
  8
1
100
AcDbLine
 10
9024.557976899899
 20
3439.885571933518
 30
0.0
 11
6424.557976899901
 21
3439.885571933224
 31
0.0
  0
LINE
  5
7EB0
330
19
100
AcDbEntity
  8
1
100
AcDbLine
 10
9024.557976899872
 20
3589.885571933519
 30
0.0
 11
6424.557976899883
 21
3589.885571933224
 31
0.0
  0
LINE
  5
7EE0
330
19
100
AcDbEntity
  8
4
100
AcDbLine
 10
9250.0
 20
2016.859332348089
 30
0.0
 11
9250.0
 21
1016.859332348089
 31
0.0
  0
LINE
  5
7EE1
330
19
100
AcDbEntity
  8
4
100
AcDbLine
 10
5750.0
 20
2016.859332348089
 30
0.0
 11
5750.0
 21
1016.859332348089
 31
0.0
  0
LINE
  5
7EE2
330
19
100
AcDbEntity
  8
4
100
AcDbLine
 10
3250.0
 20
2016.859332348089
 30
0.0
 11
3250.0
 21
1016.859332348089
 31
0.0
  0
LINE
  5
7EE5
330
19
100
AcDbEntity
  8
4
100
AcDbLine
 10
3250.0
 20
1016.859332348089
 30
0.0
 11
9250.0
 21
1016.859332348089
 31
0.0
  0
LINE
  5
7EE6
330
19
100
AcDbEntity
  8
4
100
AcDbLine
 10
3250.0
 20
1516.859332348089
 30
0.0
 11
9250.0
 21
1516.859332348089
 31
0.0
  0
TEXT
  5
7EE7
330
19
100
AcDbEntity
  8
4
100
AcDbText
 10
3442.510404234508
 20
1674.574461681153
 30
0.0
 40
250.0
  1
機器名称
100
AcDbText
  0
TEXT
  5
7EE8
330
19
100
AcDbEntity
  8
4
100
AcDbText
 10
3431.290530123988
 20
1125.085116008144
 30
0.0
 40
250.0
  1
機器型番
100
AcDbText
  0
TEXT
  5
7EE9
330
19
100
AcDbEntity
  8
4
100
AcDbText
 10
5898.290360144589
 20
1637.900296038548
 30
0.0
 40
212.5
  1
ミツヤリミットロードファン
100
AcDbText
  0
TEXT
  5
7EEA
330
19
100
AcDbEntity
  8
4
100
AcDbText
 10
5933.272477927403
 20
1102.657253747806
 30
0.0
 40
250.0
  1
LL#10-5
100
AcDbText
  0
TEXT
  5
7EEC
330
19
100
AcDbEntity
  8
4
100
AcDbText
 10
3999.827685028839
 20
11917.14420666258
 30
0.0
 40
270.0
  1
床置ベット
100
AcDbText
  0
TEXT
  5
7EED
330
19
100
AcDbEntity
  8
4
100
AcDbText
 10
1493.487766422462
 20
12669.40488099649
 30
0.0
 40
360.0
  1
遠心式両吸込両持リミットロードファン
100
AcDbText
  0
LINE
  5
7EEE
330
19
100
AcDbEntity
  8
4
100
AcDbLine
 10
1250.0
 20
12347.04377132402
 30
0.0
 11
9250.0
 21
12347.04377132402
 31
0.0
  0
LINE
  5
7EEF
330
19
100
AcDbEntity
  8
4
100
AcDbLine
 10
1250.0
 20
13347.04377132402
 30
0.0
 11
9250.0
 21
13347.04377132402
 31
0.0
  0
LINE
  5
7EF0
330
19
100
AcDbEntity
  8
4
100
AcDbLine
 10
3250.0
 20
2016.859332348089
 30
0.0
 11
9250.0
 21
2016.859332348089
 31
0.0
  0
LINE
  5
7EF1
330
19
100
AcDbEntity
  8
4
100
AcDbLine
 10
1250.0
 20
13347.04377132402
 30
0.0
 11
1250.0
 21
12347.04377132402
 31
0.0
  0
TEXT
  5
7EF2
330
19
100
AcDbEntity
  8
4
100
AcDbText
 10
1820.533523815327
 20
11911.59738773172
 30
0.0
 40
270.0
  1
左回転上向
100
AcDbText
  0
TEXT
  5
7EF3
330
19
100
AcDbEntity
  8
4
100
AcDbText
 10
7344.847796246449
 20
13530.30540747654
 30
0.0
 40
280.0
  1
No.
100
AcDbText
  0
TEXT
  5
7EF4
330
19
100
AcDbEntity
  8
4
100
AcDbText
 10
6556.480313000065
 20
11917.14420666258
 30
0.0
 40
270.0
  1
縮尺：1/50
100
AcDbText
  0
LINE
  5
7EF5
330
19
100
AcDbEntity
  8
4
100
AcDbLine
 10
9250.0
 20
13347.04377132402
 30
0.0
 11
9250.0
 21
12347.04377132402
 31
0.0
  0
LINE
  5
7EF6
330
19
100
AcDbEntity
  8
4
100
AcDbLine
 10
10500.0
 20
14750.0
 30
0.0
 11
10500.0
 21
14750.0
 31
0.0
  0
LINE
  5
7EF7
330
19
100
AcDbEntity
  8
4
100
AcDbLine
 10
7203.087111799323
 20
13406.317915627
 30
0.0
 11
7203.087111799323
 21
13933.26130774876
 31
0.0
  0
LINE
  5
7EF8
330
19
100
AcDbEntity
  8
4
100
AcDbLine
 10
7203.087111799323
 20
13933.26130774876
 30
0.0
 11
9250.0
 21
13933.26130774876
 31
0.0
  0
LINE
  5
7EF9
330
19
100
AcDbEntity
  8
4
100
AcDbLine
 10
9250.0
 20
13933.26130774876
 30
0.0
 11
9250.0
 21
13406.317915627
 31
0.0
  0
LINE
  5
7EFA
330
19
100
AcDbEntity
  8
4
100
AcDbLine
 10
9250.0
 20
13406.317915627
 30
0.0
 11
7203.087111799323
 21
13406.317915627
 31
0.0
  0
LINE
  5
7EFB
330
19
100
AcDbEntity
  8
4
100
AcDbLine
 10
0.0
 20
0.0
 30
0.0
 11
0.0
 21
14750.0
 31
0.0
  0
LINE
  5
7EFC
330
19
100
AcDbEntity
  8
4
100
AcDbLine
 10
0.0
 20
14750.0
 30
0.0
 11
10500.0
 21
14750.0
 31
0.0
  0
LINE
  5
7EFD
330
19
100
AcDbEntity
  8
4
100
AcDbLine
 10
10500.0
 20
14750.0
 30
0.0
 11
10500.0
 21
0.0
 31
0.0
  0
LINE
  5
7EFE
330
19
100
AcDbEntity
  8
4
100
AcDbLine
 10
10500.0
 20
0.0
 30
0.0
 11
0.0
 21
0.0
 31
0.0
  0
LINE
  5
7F42
330
19
100
AcDbEntity
  8
1
100
AcDbLine
 10
5234.247696280064
 20
3821.73087027628
 30
0.0
 11
3358.700619235877
 21
4463.872516424521
 31
0.0
  0
DIMENSION
  5
7F6F
330
19
100
AcDbEntity
  8
3
100
AcDbDimension
280
     0
  2
*D14
 10
1886.930584394795
 20
5887.305761729865
 30
0.0
 11
1761.930584394794
 21
5364.806261729654
 31
0.0
 70
    32
 71
     5
 42
-1.0
 73
     0
 74
     0
 75
     0
  3
IGA
100
AcDbAlignedDimension
 13
2381.220905828687
 23
4842.306761729442
 33
0.0
 14
3468.267289255989
 24
5887.305761729863
 34
0.0
 50
90.0
100
AcDbRotatedDimension
1001
ACAD
1000
DSTYLE
1002
{
1070
   287
1070
     4
1070
    40
1040
50.0
1070
    75
1070
     1
1070
   143
1040
0.039
1070
   172
1070
     1
1070
   271
1070
     0
1070
   279
1070
     1
1070
   288
1070
     1
1002
}
  0
DIMENSION
  5
7F7B
330
19
100
AcDbEntity
  8
3
100
AcDbDimension
280
     0
  2
*D15
 10
2349.26728925641
 20
6443.643466591415
 30
0.0
 11
2918.767289256189
 21
6568.643466591415
 31
0.0
 70
    32
 71
     5
 42
-1.0
 73
     0
 74
     0
 75
     0
  3
IGA
100
AcDbAlignedDimension
 13
3488.267289255968
 23
5949.353145157523
 33
0.0
 14
2349.26728925641
 24
4726.306761729913
 34
0.0
100
AcDbRotatedDimension
1001
ACAD
1000
DSTYLE
1002
{
1070
   287
1070
     4
1070
    40
1040
50.0
1070
    75
1070
     1
1070
   143
1040
0.039
1070
   172
1070
     1
1070
   271
1070
     0
1070
   279
1070
     1
1070
   288
1070
     1
1002
}
  0
DIMENSION
  5
7FA2
330
19
100
AcDbEntity
  8
3
100
AcDbDimension
280
     0
  2
*D16
 10
5838.267289256838
 20
6775.759206352065
 30
0.0
 11
4078.668068705447
 21
6775.759206352065
 31
0.0
 70
   160
 71
     5
 42
-1.0
 73
     0
 74
     0
 75
     0
  3
IGA
100
AcDbAlignedDimension
 13
2349.26728925641
 23
4751.306761729913
 33
0.0
 14
5838.267289256838
 24
3592.306761730692
 34
0.0
100
AcDbRotatedDimension
1001
ACAD
1000
DSTYLE
1002
{
1070
   287
1070
     3
1070
    40
1040
50.0
1070
   143
1040
0.039
1070
   172
1070
     1
1070
   271
1070
     0
1070
   279
1070
     0
1070
   288
1070
     1
1002
}
  0
LINE
  5
7FA4
330
19
100
AcDbEntity
  8
1
100
AcDbLine
 10
6757.363430901651
 20
5887.305761730508
 30
0.0
 11
9013.76443090165
 21
5887.305761730509
 31
0.0
  0
LINE
  5
7FA5
330
19
100
AcDbEntity
  8
1
100
AcDbLine
 10
6757.363430901659
 20
5822.305761730508
 30
0.0
 11
9013.764430901657
 21
5822.305761730507
 31
0.0
  0
LINE
  5
7FA6
330
19
100
AcDbEntity
  8
1
100
AcDbLine
 10
6757.363430901651
 20
5881.305761730508
 30
0.0
 11
9013.76443090165
 21
5881.305761730509
 31
0.0
  0
LINE
  5
7FDF
330
19
100
AcDbEntity
  8
1
100
AcDbLine
 10
2349.267289253936
 20
10489.29281086911
 30
0.0
 11
2349.267289254683
 21
8369.29281086911
 31
0.0
  0
LINE
  5
7FE1
330
19
100
AcDbEntity
  8
1
100
AcDbLine
 10
3533.267289253935
 20
10489.29281086955
 30
0.0
 11
3533.267289254679
 21
8369.292810869545
 31
0.0
  0
LINE
  5
7FE8
330
19
100
AcDbEntity
  8
1
100
AcDbLine
 10
5183.267289253935
 20
10489.29281087012
 30
0.0
 11
3533.267289254679
 21
8369.292810869534
 31
0.0
  0
LINE
  5
7FE9
330
19
100
AcDbEntity
  8
1
100
AcDbLine
 10
3533.267289253935
 20
10489.29281086953
 30
0.0
 11
5183.267289254679
 21
8369.292810870131
 31
0.0
  0
DIMENSION
  5
80A5
330
19
100
AcDbEntity
  8
3
100
AcDbDimension
280
     0
  2
*D18
 10
3488.251721852333
 20
3091.924971579025
 30
0.0
 11
3013.259505554613
 21
3216.924971579025
 31
0.0
 70
    32
 71
     5
 42
-1.0
 73
     0
 74
     0
 75
     0
  3
IGA
100
AcDbAlignedDimension
 13
2538.267289256893
 23
3442.3067617295
 33
0.0
 14
3488.251721852333
 24
3442.306761729844
 34
0.0
100
AcDbRotatedDimension
1001
ACAD
1000
DSTYLE
1002
{
1070
   172
1070
     1
1070
    40
1040
50.0
1070
   271
1070
     0
1070
   143
1040
0.039
1002
}
  0
DIMENSION
  5
80B2
330
19
100
AcDbEntity
  8
3
100
AcDbDimension
280
     0
  2
*D19
 10
5838.267289256895
 20
3091.924971579025
 30
0.0
 11
4663.259505554613
 21
3216.924971579025
 31
0.0
 70
    32
 71
     5
 42
-1.0
 73
     0
 74
     0
 75
     0
  3
IGA
100
AcDbAlignedDimension
 13
3488.251721852333
 23
3442.306761729844
 33
0.0
 14
5838.267289256895
 24
3442.306761730693
 34
0.0
100
AcDbRotatedDimension
1001
ACAD
1000
DSTYLE
1002
{
1070
   172
1070
     1
1070
    40
1040
50.0
1070
   271
1070
     0
1070
   143
1040
0.039
1002
}
  0
DIMENSION
  5
80BF
330
19
100
AcDbEntity
  8
3
100
AcDbDimension
280
     0
  2
*D20
 10
7885.557976899919
 20
3091.924971579025
 30
0.0
 11
7155.05797689991
 21
3216.924971579025
 31
0.0
 70
    32
 71
     5
 42
-1.0
 73
     0
 74
     0
 75
     0
  3
IGA
100
AcDbAlignedDimension
 13
6424.557976899901
 23
3439.885571933224
 33
0.0
 14
7885.557976899919
 24
3439.88557193339
 34
0.0
100
AcDbRotatedDimension
1001
ACAD
1000
DSTYLE
1002
{
1070
   172
1070
     1
1070
    40
1040
50.0
1070
   271
1070
     0
1070
   143
1040
0.039
1002
}
  0
DIMENSION
  5
80CC
330
19
100
AcDbEntity
  8
3
100
AcDbDimension
280
     0
  2
*D21
 10
9024.557976899904
 20
3091.924971579025
 30
0.0
 11
8455.057976899913
 21
3216.924971579025
 31
0.0
 70
    32
 71
     5
 42
-1.0
 73
     0
 74
     0
 75
     0
  3
IGA
100
AcDbAlignedDimension
 13
7885.557976899919
 23
3439.88557193339
 33
0.0
 14
9024.557976899904
 24
3439.885571933518
 34
0.0
100
AcDbRotatedDimension
1001
ACAD
1000
DSTYLE
1002
{
1070
   172
1070
     1
1070
    40
1040
50.0
1070
   271
1070
     0
1070
   143
1040
0.039
1002
}
  0
DIMENSION
  5
80D9
330
19
100
AcDbEntity
  8
3
100
AcDbDimension
280
     0
  2
*D22
 10
1542.280091735338
 20
5887.305761729863
 30
0.0
 11
1417.280091735338
 21
4664.806261729682
 31
0.0
 70
    32
 71
     5
 42
-1.0
 73
     0
 74
     0
 75
     0
  3
IGA
100
AcDbAlignedDimension
 13
2538.267289256893
 23
3442.3067617295
 33
0.0
 14
3443.267289255989
 24
5887.305761729863
 34
0.0
 50
90.0
100
AcDbRotatedDimension
1001
ACAD
1000
DSTYLE
1002
{
1070
   172
1070
     1
1070
    40
1040
50.0
1070
   271
1070
     0
1070
   143
1040
0.039
1002
}
  0
ENDSEC
  0
SECTION
  2
OBJECTS
  0
DICTIONARY
  5
C
330
0
100
AcDbDictionary
281
     1
  3
ACAD_CIP_PREVIOUS_PRODUCT_INFO
350
81FA
  3
ACAD_COLOR
350
81DD
  3
ACAD_DETAILVIEWSTYLE
350
81F6
  3
ACAD_GROUP
350
D
  3
ACAD_LAYOUT
350
80E6
  3
ACAD_MATERIAL
350
81AB
  3
ACAD_MLEADERSTYLE
350
81F2
  3
ACAD_MLINESTYLE
350
E
  3
ACAD_PLOTSETTINGS
350
80E7
  3
ACAD_PLOTSTYLENAME
350
80E4
  3
ACAD_SCALELIST
350
81E0
  3
ACAD_SECTIONVIEWSTYLE
350
81F4
  3
ACAD_TABLESTYLE
350
81DE
  3
ACAD_VISUALSTYLE
350
81C4
  3
ACDB_RECOMPOSE_DATA
350
8263
  3
AcDbVariableDictionary
350
81A1
  3
AcDsDecomposeData
350
8269
  0
DICTIONARY
  5
8247
330
2
100
AcDbDictionary
280
     1
281
     1
  3
ACAD_LAYERSTATES
360
8248
  0
DICTIONARY
  5
823A
330
F
100
AcDbDictionary
280
     1
281
     1
  3
ADSK_XREC_LAYER_RECONCILED
360
823B
  0
DICTIONARY
  5
823C
330
31
100
AcDbDictionary
280
     1
281
     1
  3
ADSK_XREC_LAYER_RECONCILED
360
823D
  0
DICTIONARY
  5
823E
330
76D0
100
AcDbDictionary
280
     1
281
     1
  3
ADSK_XREC_LAYER_RECONCILED
360
823F
  0
DICTIONARY
  5
8240
330
76D1
100
AcDbDictionary
280
     1
281
     1
  3
ADSK_XREC_LAYER_RECONCILED
360
8241
  0
DICTIONARY
  5
8242
330
76D2
100
AcDbDictionary
280
     1
281
     1
  3
ADSK_XREC_LAYER_RECONCILED
360
8243
  0
DICTIONARY
  5
8113
330
19
100
AcDbDictionary
280
     1
281
     1
  3
ACAD_LAYOUTSELFREF
360
8114
  0
DICTIONARY
  5
8111
330
16
100
AcDbDictionary
280
     1
281
     1
  3
ACAD_LAYOUTSELFREF
360
8112
  0
XRECORD
  5
81FA
102
{ACAD_REACTORS
330
C
102
}
330
C
100
AcDbXrecord
280
     1
300
ACDLT
300
2023
300

  0
DICTIONARY
  5
81DD
102
{ACAD_REACTORS
330
C
102
}
330
C
100
AcDbDictionary
281
     1
  0
DICTIONARY
  5
81F6
102
{ACAD_REACTORS
330
C
102
}
330
C
100
AcDbDictionary
281
     1
  3
Metric50
350
81F7
  0
DICTIONARY
  5
D
102
{ACAD_REACTORS
330
C
102
}
330
C
100
AcDbDictionary
281
     1
  0
DICTIONARY
  5
80E6
102
{ACAD_REACTORS
330
C
102
}
330
C
100
AcDbDictionary
281
     1
  3
Model
350
80E8
  3
ﾚｲｱｳﾄ1
350
80E9
  0
DICTIONARY
  5
81AB
102
{ACAD_REACTORS
330
C
102
}
330
C
100
AcDbDictionary
281
     1
  3
ByBlock
350
81B4
  3
ByLayer
350
81AC
  3
Global
350
81BC
  0
DICTIONARY
  5
81F2
102
{ACAD_REACTORS
330
C
102
}
330
C
100
AcDbDictionary
281
     1
  3
Standard
350
81F3
  0
DICTIONARY
  5
E
102
{ACAD_REACTORS
330
C
102
}
330
C
100
AcDbDictionary
281
     1
  3
STANDARD
350
1C
  0
DICTIONARY
  5
80E7
102
{ACAD_REACTORS
330
C
102
}
330
C
100
AcDbDictionary
281
     1
  0
ACDBDICTIONARYWDFLT
  5
80E4
102
{ACAD_REACTORS
330
C
102
}
330
C
100
AcDbDictionary
281
     1
  3
Normal
350
80E5
100
AcDbDictionaryWithDefault
340
80E5
  0
DICTIONARY
  5
81E0
102
{ACAD_REACTORS
330
C
102
}
330
C
100
AcDbDictionary
281
     1
  3
A0
350
81E1
  3
A1
350
81E2
  3
A2
350
81E3
  3
A3
350
81E4
  3
A4
350
81E5
  3
A5
350
81E6
  3
A6
350
81E7
  3
A7
350
81E8
  3
A8
350
81E9
  3
A9
350
81EA
  3
B0
350
81EB
  3
B1
350
81EC
  3
B2
350
81ED
  3
B3
350
81EE
  3
B4
350
81EF
  3
B5
350
81F0
  3
B6
350
81F1
  0
DICTIONARY
  5
81F4
102
{ACAD_REACTORS
330
C
102
}
330
C
100
AcDbDictionary
281
     1
  3
Metric50
350
81F5
  0
DICTIONARY
  5
81DE
102
{ACAD_REACTORS
330
C
102
}
330
C
100
AcDbDictionary
281
     1
  3
Standard
350
81DF
  0
DICTIONARY
  5
81C4
102
{ACAD_REACTORS
330
C
102
}
330
C
100
AcDbDictionary
281
     1
  3
2dWireframe
350
81CA
  3
Basic
350
81C9
  3
Brighten
350
81D0
  3
ColorChange
350
81D4
  3
Conceptual
350
81CD
  3
Dim
350
81CF
  3
EdgeColorOff
350
81DC
  3
Facepattern
350
81D3
  3
Flat
350
81C5
  3
FlatWithEdges
350
81C6
  3
Gouraud
350
81C7
  3
GouraudWithEdges
350
81C8
  3
Hidden
350
81CC
  3
JitterOff
350
81DA
  3
Linepattern
350
81D2
  3
OverhangOff
350
81DB
  3
Realistic
350
81CE
  3
Shaded
350
81D9
  3
Shaded with edges
350
81D8
  3
Shades of Gray
350
81D5
  3
Sketchy
350
81D6
  3
Thicken
350
81D1
  3
Wireframe
350
81CB
  3
X-Ray
350
81D7
  0
XRECORD
  5
8263
102
{ACAD_REACTORS
330
C
102
}
330
C
100
AcDbXrecord
280
     1
 90
        1
330
81DF
  0
DICTIONARY
  5
81A1
102
{ACAD_REACTORS
330
C
102
}
330
C
100
AcDbDictionary
281
     1
  3
CANNOSCALE
350
8258
  3
CMLEADERSTYLE
350
8254
  3
CTABLESTYLE
350
8253
  3
CVIEWDETAILSTYLE
350
8255
  3
CVIEWSECTIONSTYLE
350
8256
  3
DIMASSOC
350
81A2
  3
LAYEREVAL
350
825A
  3
LAYERNOTIFY
350
825B
  3
LIGHTINGUNITS
350
8259
  3
MARKUPASSISTMODE
350
8260
  3
MSLTSCALE
350
8257
  0
DICTIONARY
  5
8269
102
{ACAD_REACTORS
330
C
102
}
330
C
100
AcDbDictionary
281
     1
  3
AcDsRecords
350
826B
  3
AcDsSchemas
350
826A
1001
ACAD
1070
     2
  0
DICTIONARY
  5
8248
102
{ACAD_REACTORS
330
8247
102
}
330
8247
100
AcDbDictionary
281
     1
  0
XRECORD
  5
823B
102
{ACAD_REACTORS
330
823A
102
}
330
823A
100
AcDbXrecord
280
     1
290
     1
  0
XRECORD
  5
823D
102
{ACAD_REACTORS
330
823C
102
}
330
823C
100
AcDbXrecord
280
     1
290
     1
  0
XRECORD
  5
823F
102
{ACAD_REACTORS
330
823E
102
}
330
823E
100
AcDbXrecord
280
     1
290
     1
  0
XRECORD
  5
8241
102
{ACAD_REACTORS
330
8240
102
}
330
8240
100
AcDbXrecord
280
     1
290
     1
  0
XRECORD
  5
8243
102
{ACAD_REACTORS
330
8242
102
}
330
8242
100
AcDbXrecord
280
     1
290
     1
  0
XRECORD
  5
8114
102
{ACAD_REACTORS
330
8113
102
}
330
8113
100
AcDbXrecord
280
     1
340
19
  0
XRECORD
  5
8112
102
{ACAD_REACTORS
330
8111
102
}
330
8111
100
AcDbXrecord
280
     1
340
16
  0
ACDBDETAILVIEWSTYLE
  5
81F7
102
{ACAD_XDICTIONARY
360
826E
102
}
102
{ACAD_REACTORS
330
81F6
102
}
330
81F6
100
AcDbModelDocViewStyle
 70
     0
  3
Metric50
290
     0
100
AcDbDetailViewStyle
 70
     0
 71
     0
 90
        3
 71
     1
340
10
 62
   256
 40
5.0
340
0
 62
   256
 40
5.0
300

 40
0.0
280
     1
 71
     2
340
15
 90
       25
 62
   256
 71
     3
340
10
 62
   256
 40
5.0
 90
        0
 40
15.0
 90
        1
300
%<\AcVar ViewDetailId>% (%<\AcVar ViewScale \f "%sn">%)
 71
     4
340
15
 90
       25
 62
   256
340
15
 90
       25
 62
   256
280
     0
  0
LAYOUT
  5
80E8
102
{ACAD_REACTORS
330
80E6
102
}
330
80E6
100
AcDbPlotSettings
  1

  2
\\Txbo34x8944cqyd\EPSON LP-6100
  4

  6

 40
0.0
 41
0.0
 42
0.0
 43
0.0
 44
0.0
 45
0.0
 46
0.0
 47
0.0
 48
0.0
 49
0.0
140
0.0
141
0.0
142
1.0
143
1.0
 70
  1712
 72
     0
 73
     0
 74
     0
  7
GOD2000TABLE.ctb
 75
     0
147
1.0
 76
     0
 77
     2
 78
   300
148
0.0
149
0.0
100
AcDbLayout
  1
Model
 70
     1
 71
     0
 10
0.0
 20
0.0
 11
12.0
 21
9.0
 12
0.0
 22
0.0
 32
0.0
 14
0.0
 24
0.0
 34
0.0
 15
0.0
 25
0.0
 35
0.0
146
0.0
 13
0.0
 23
0.0
 33
0.0
 16
1.0
 26
0.0
 36
0.0
 17
0.0
 27
1.0
 37
0.0
 76
     0
330
19
331
81A9
  0
LAYOUT
  5
80E9
102
{ACAD_REACTORS
330
80E6
102
}
330
80E6
100
AcDbPlotSettings
  1

  2
\\Txbo34x8944cqyd\EPSON LP-6100
  4

  6

 40
0.0
 41
0.0
 42
0.0
 43
0.0
 44
0.0
 45
0.0
 46
0.0
 47
0.0
 48
0.0
 49
0.0
140
0.0
141
0.0
142
1.0
143
1.0
 70
   688
 72
     0
 73
     0
 74
     5
  7
GOD2000TABLE.ctb
 75
    16
147
1.0
 76
     0
 77
     2
 78
   300
148
0.0
149
0.0
100
AcDbLayout
  1
ﾚｲｱｳﾄ1
 70
     1
 71
     1
 10
0.0
 20
0.0
 11
12.0
 21
9.0
 12
0.0
 22
0.0
 32
0.0
 14
1.000000000000000E+20
 24
1.000000000000000E+20
 34
1.000000000000000E+20
 15
-1.000000000000000E+20
 25
-1.000000000000000E+20
 35
-1.000000000000000E+20
146
0.0
 13
0.0
 23
0.0
 33
0.0
 16
1.0
 26
0.0
 36
0.0
 17
0.0
 27
1.0
 37
0.0
 76
     0
330
16
  0
MATERIAL
  5
81B4
102
{ACAD_XDICTIONARY
360
81B5
102
}
102
{ACAD_REACTORS
330
81AB
102
}
330
81AB
100
AcDbMaterial
  1
ByBlock
 72
     0
 43
0.0208333333333333
 43
0.0
 43
0.0
 43
0.0
 43
0.0
 43
0.0208333333333333
 43
0.0
 43
0.0
 43
0.0
 43
0.0
 43
1.0
 43
0.0
 43
0.0
 43
0.0
 43
0.0
 43
1.0
 77
     0
 47
0.0208333333333333
 47
0.0
 47
0.0
 47
0.0
 47
0.0
 47
0.0208333333333333
 47
0.0
 47
0.0
 47
0.0
 47
0.0
 47
1.0
 47
0.0
 47
0.0
 47
0.0
 47
0.0
 47
1.0
171
     0
 49
0.0208333333333333
 49
0.0
 49
0.0
 49
0.0
 49
0.0
 49
0.0208333333333333
 49
0.0
 49
0.0
 49
0.0
 49
0.0
 49
1.0
 49
0.0
 49
0.0
 49
0.0
 49
0.0
 49
1.0
175
     0
142
0.0208333333333333
142
0.0
142
0.0
142
0.0
142
0.0
142
0.0208333333333333
142
0.0
142
0.0
142
0.0
142
0.0
142
1.0
142
0.0
142
0.0
142
0.0
142
0.0
142
1.0
179
     0
144
0.0208333333333333
144
0.0
144
0.0
144
0.0
144
0.0
144
0.0208333333333333
144
0.0
144
0.0
144
0.0
144
0.0
144
1.0
144
0.0
144
0.0
144
0.0
144
0.0
144
1.0
147
0.0208333333333333
147
0.0
147
0.0
147
0.0
147
0.0
147
0.0208333333333333
147
0.0
147
0.0
147
0.0
147
0.0
147
1.0
147
0.0
147
0.0
147
0.0
147
0.0
147
1.0
  0
MATERIAL
  5
81AC
102
{ACAD_XDICTIONARY
360
81AD
102
}
102
{ACAD_REACTORS
330
81AB
102
}
330
81AB
100
AcDbMaterial
  1
ByLayer
 72
     0
 43
0.0208333333333333
 43
0.0
 43
0.0
 43
0.0
 43
0.0
 43
0.0208333333333333
 43
0.0
 43
0.0
 43
0.0
 43
0.0
 43
1.0
 43
0.0
 43
0.0
 43
0.0
 43
0.0
 43
1.0
 77
     0
 47
0.0208333333333333
 47
0.0
 47
0.0
 47
0.0
 47
0.0
 47
0.0208333333333333
 47
0.0
 47
0.0
 47
0.0
 47
0.0
 47
1.0
 47
0.0
 47
0.0
 47
0.0
 47
0.0
 47
1.0
171
     0
 49
0.0208333333333333
 49
0.0
 49
0.0
 49
0.0
 49
0.0
 49
0.0208333333333333
 49
0.0
 49
0.0
 49
0.0
 49
0.0
 49
1.0
 49
0.0
 49
0.0
 49
0.0
 49
0.0
 49
1.0
175
     0
142
0.0208333333333333
142
0.0
142
0.0
142
0.0
142
0.0
142
0.0208333333333333
142
0.0
142
0.0
142
0.0
142
0.0
142
1.0
142
0.0
142
0.0
142
0.0
142
0.0
142
1.0
179
     0
144
0.0208333333333333
144
0.0
144
0.0
144
0.0
144
0.0
144
0.0208333333333333
144
0.0
144
0.0
144
0.0
144
0.0
144
1.0
144
0.0
144
0.0
144
0.0
144
0.0
144
1.0
147
0.0208333333333333
147
0.0
147
0.0
147
0.0
147
0.0
147
0.0208333333333333
147
0.0
147
0.0
147
0.0
147
0.0
147
1.0
147
0.0
147
0.0
147
0.0
147
0.0
147
1.0
  0
MATERIAL
  5
81BC
102
{ACAD_XDICTIONARY
360
81BD
102
}
102
{ACAD_REACTORS
330
81AB
102
}
330
81AB
100
AcDbMaterial
  1
Global
 72
     0
 43
0.0208333333333333
 43
0.0
 43
0.0
 43
0.0
 43
0.0
 43
0.0208333333333333
 43
0.0
 43
0.0
 43
0.0
 43
0.0
 43
1.0
 43
0.0
 43
0.0
 43
0.0
 43
0.0
 43
1.0
 77
     0
 47
0.0208333333333333
 47
0.0
 47
0.0
 47
0.0
 47
0.0
 47
0.0208333333333333
 47
0.0
 47
0.0
 47
0.0
 47
0.0
 47
1.0
 47
0.0
 47
0.0
 47
0.0
 47
0.0
 47
1.0
171
     0
 49
0.0208333333333333
 49
0.0
 49
0.0
 49
0.0
 49
0.0
 49
0.0208333333333333
 49
0.0
 49
0.0
 49
0.0
 49
0.0
 49
1.0
 49
0.0
 49
0.0
 49
0.0
 49
0.0
 49
1.0
175
     0
142
0.0208333333333333
142
0.0
142
0.0
142
0.0
142
0.0
142
0.0208333333333333
142
0.0
142
0.0
142
0.0
142
0.0
142
1.0
142
0.0
142
0.0
142
0.0
142
0.0
142
1.0
179
     0
144
0.0208333333333333
144
0.0
144
0.0
144
0.0
144
0.0
144
0.0208333333333333
144
0.0
144
0.0
144
0.0
144
0.0
144
1.0
144
0.0
144
0.0
144
0.0
144
0.0
144
1.0
147
0.0208333333333333
147
0.0
147
0.0
147
0.0
147
0.0
147
0.0208333333333333
147
0.0
147
0.0
147
0.0
147
0.0
147
1.0
147
0.0
147
0.0
147
0.0
147
0.0
147
1.0
  0
MLEADERSTYLE
  5
81F3
102
{ACAD_REACTORS
330
81F2
102
}
330
81F2
100
AcDbMLeaderStyle
179
     2
170
     2
171
     1
172
     0
 90
        2
 40
0.0
 41
0.0
173
     1
 91
-1056964608
340
13
 92
       -2
290
     1
 42
2.0
291
     1
 43
0.36
  3
Standard
 44
4.0
300

342
10
174
     1
178
     6
175
     1
176
     0
 93
-1056964608
 45
4.0
292
     0
297
     0
 46
4.0
 94
-1056964608
 47
1.0
 49
1.0
140
1.0
293
     1
141
0.0
294
     1
177
     0
142
1.0
295
     0
296
     0
143
0.125
271
     0
272
     9
273
     9
298
     1
  0
MLINESTYLE
  5
1C
102
{ACAD_REACTORS
330
E
102
}
330
E
100
AcDbMlineStyle
  2
STANDARD
 70
     0
  3

 62
     0
 51
90.0
 52
90.0
 71
     2
 49
0.5
 62
   256
  6
BYLAYER
 49
-0.5
 62
   256
  6
BYLAYER
  0
ACDBPLACEHOLDER
  5
80E5
102
{ACAD_REACTORS
330
80E4
102
}
330
80E4
  0
SCALE
  5
81E1
102
{ACAD_REACTORS
330
81E0
102
}
330
81E0
100
AcDbScale
 70
     0
300
1:1
140
1.0
141
1.0
290
     1
  0
SCALE
  5
81E2
102
{ACAD_REACTORS
330
81E0
102
}
330
81E0
100
AcDbScale
 70
     0
300
1:2
140
1.0
141
2.0
290
     0
  0
SCALE
  5
81E3
102
{ACAD_REACTORS
330
81E0
102
}
330
81E0
100
AcDbScale
 70
     0
300
1:4
140
1.0
141
4.0
290
     0
  0
SCALE
  5
81E4
102
{ACAD_REACTORS
330
81E0
102
}
330
81E0
100
AcDbScale
 70
     0
300
1:5
140
1.0
141
5.0
290
     0
  0
SCALE
  5
81E5
102
{ACAD_REACTORS
330
81E0
102
}
330
81E0
100
AcDbScale
 70
     0
300
1:8
140
1.0
141
8.0
290
     0
  0
SCALE
  5
81E6
102
{ACAD_REACTORS
330
81E0
102
}
330
81E0
100
AcDbScale
 70
     0
300
1:10
140
1.0
141
10.0
290
     0
  0
SCALE
  5
81E7
102
{ACAD_REACTORS
330
81E0
102
}
330
81E0
100
AcDbScale
 70
     0
300
1:16
140
1.0
141
16.0
290
     0
  0
SCALE
  5
81E8
102
{ACAD_REACTORS
330
81E0
102
}
330
81E0
100
AcDbScale
 70
     0
300
1:20
140
1.0
141
20.0
290
     0
  0
SCALE
  5
81E9
102
{ACAD_REACTORS
330
81E0
102
}
330
81E0
100
AcDbScale
 70
     0
300
1:30
140
1.0
141
30.0
290
     0
  0
SCALE
  5
81EA
102
{ACAD_REACTORS
330
81E0
102
}
330
81E0
100
AcDbScale
 70
     0
300
1:40
140
1.0
141
40.0
290
     0
  0
SCALE
  5
81EB
102
{ACAD_REACTORS
330
81E0
102
}
330
81E0
100
AcDbScale
 70
     0
300
1:50
140
1.0
141
50.0
290
     0
  0
SCALE
  5
81EC
102
{ACAD_REACTORS
330
81E0
102
}
330
81E0
100
AcDbScale
 70
     0
300
1:100
140
1.0
141
100.0
290
     0
  0
SCALE
  5
81ED
102
{ACAD_REACTORS
330
81E0
102
}
330
81E0
100
AcDbScale
 70
     0
300
2:1
140
2.0
141
1.0
290
     0
  0
SCALE
  5
81EE
102
{ACAD_REACTORS
330
81E0
102
}
330
81E0
100
AcDbScale
 70
     0
300
4:1
140
4.0
141
1.0
290
     0
  0
SCALE
  5
81EF
102
{ACAD_REACTORS
330
81E0
102
}
330
81E0
100
AcDbScale
 70
     0
300
8:1
140
8.0
141
1.0
290
     0
  0
SCALE
  5
81F0
102
{ACAD_REACTORS
330
81E0
102
}
330
81E0
100
AcDbScale
 70
     0
300
10:1
140
10.0
141
1.0
290
     0
  0
SCALE
  5
81F1
102
{ACAD_REACTORS
330
81E0
102
}
330
81E0
100
AcDbScale
 70
     0
300
100:1
140
100.0
141
1.0
290
     0
  0
ACDBSECTIONVIEWSTYLE
  5
81F5
102
{ACAD_XDICTIONARY
360
826C
102
}
102
{ACAD_REACTORS
330
81F4
102
}
330
81F4
100
AcDbModelDocViewStyle
 70
     0
  3
Metric50
290
     0
100
AcDbSectionViewStyle
 70
     0
 71
     0
 90
      102
 71
     1
340
10
 62
   256
 40
5.0
340
0
340
0
 62
   256
 40
5.0
300
I, O, Q, S, X, Z
 40
10.0
 90
        0
 40
2.5
 90
        0
 71
     2
340
15
 90
       25
 62
   256
340
15
 90
       50
 62
   256
 40
5.0
 40
2.5
 40
5.0
 71
     3
340
10
 62
   256
 40
5.0
 90
        0
 40
15.0
 90
        1
300
%<\AcVar ViewSectionStartId>%-%<\AcVar ViewSectionEndId>% (%<\AcVar ViewScale \f "%sn">%)
 71
     4
 62
   256
 62
   257
300
ANSI31
 40
1.0
 90
        0
290
     0
290
     0
 90
        6
 40
0.0
 40
1.570796326794896
 40
0.2617993877991494
 40
1.308996938995747
 40
-0.2617993877991494
 40
1.832595714594046
  0
TABLESTYLE
  5
81DF
102
{ACAD_XDICTIONARY
360
8261
102
}
102
{ACAD_REACTORS
330
81DE
102
}
330
81DE
100
AcDbTableStyle
280
     0
  3
Standard
 70
     0
 71
     0
 40
1.5
 41
1.5
280
     0
281
     0
  7
STANDARD
140
4.5
170
     2
 62
     0
 63
     7
283
     0
 90
      512
 91
        0
  1

274
    -2
284
     1
 64
     0
275
    -2
285
     1
 65
     0
276
    -2
286
     1
 66
     0
277
    -2
287
     1
 67
     0
278
    -2
288
     1
 68
     0
279
    -2
289
     1
 69
     0
  7
STANDARD
140
6.0
170
     5
 62
     0
 63
     7
283
     0
 90
      512
 91
        0
  1

274
    -2
284
     1
 64
     0
275
    -2
285
     1
 65
     0
276
    -2
286
     1
 66
     0
277
    -2
287
     1
 67
     0
278
    -2
288
     1
 68
     0
279
    -2
289
     1
 69
     0
  7
STANDARD
140
4.5
170
     5
 62
     0
 63
     7
283
     0
 90
      512
 91
        0
  1

274
    -2
284
     1
 64
     0
275
    -2
285
     1
 65
     0
276
    -2
286
     1
 66
     0
277
    -2
287
     1
 67
     0
278
    -2
288
     1
 68
     0
279
    -2
289
     1
 69
     0
  0
VISUALSTYLE
  5
81CA
102
{ACAD_REACTORS
330
81C4
102
}
330
81C4
100
AcDbVisualStyle
  2
2dWireframe
 70
     4
177
     3
291
     0
 70
    58
 90
        0
176
     1
 90
        2
176
     1
 90
        0
176
     1
 90
        0
176
     1
 40
0.6
176
     1
 40
30.0
176
     1
 62
     7
420
 16777215
176
     1
 90
        1
176
     1
 90
        4
176
     1
 62
     7
176
     1
 62
   257
176
     1
 90
        1
176
     1
 90
        1
176
     1
 40
1.0
176
     1
 90
        0
176
     1
 62
   257
176
     1
 40
1.0
176
     1
 90
        1
176
     1
 90
        6
176
     1
 90
        2
176
     1
 62
     7
176
     1
 90
        5
176
     1
 90
        0
176
     1
 90
        0
176
     1
290
     0
176
     1
 90
        1
176
     1
 40
0.0
176
     1
 90
        0
176
     1
290
     1
176
     1
290
     1
176
     1
290
     0
176
     1
290
     0
176
     1
290
     0
176
     1
290
     0
176
     1
290
     0
176
     1
290
     0
176
     1
290
     0
176
     1
 90
       50
176
     1
 40
0.0
176
     1
 40
1.0
176
     1
 90
        0
176
     1
 62
    18
420
        0
176
     1
 90
       50
176
     1
 90
        3
176
     1
 62
     5
420
      255
176
     1
290
     0
176
     1
 90
       50
176
     1
 90
       50
176
     1
 90
       50
176
     1
290
     0
176
     1
 90
       50
176
     1
 62
   256
176
     0
 40
1.0
176
     0
 90
        2
176
     1
  1
strokes_ogs.tif
176
     1
290
     0
176
     1
 40
1.0
176
     1
 40
1.0
176
     1
1001
ACAD
1000
AcDbSavedByObjectVersion
1070
     0
  0
VISUALSTYLE
  5
81C9
102
{ACAD_REACTORS
330
81C4
102
}
330
81C4
100
AcDbVisualStyle
  2
Basic
 70
     7
177
     3
291
     1
 70
    58
 90
        1
176
     1
 90
        0
176
     1
 90
        1
176
     1
 90
        0
176
     1
 40
0.6
176
     1
 40
30.0
176
     1
 62
     7
420
 16777215
176
     1
 90
        0
176
     1
 90
        4
176
     1
 62
     7
176
     1
 62
   257
176
     1
 90
        1
176
     1
 90
        1
176
     1
 40
1.0
176
     1
 90
        8
176
     1
 62
     7
176
     1
 40
1.0
176
     1
 90
        1
176
     1
 90
        6
176
     1
 90
        2
176
     1
 62
     7
176
     1
 90
        5
176
     1
 90
        0
176
     1
 90
        0
176
     1
290
     0
176
     1
 90
        1
176
     1
 40
0.0
176
     1
 90
        0
176
     1
290
     0
176
     1
290
     1
176
     1
290
     1
176
     1
290
     0
176
     1
290
     0
176
     1
290
     0
176
     1
290
     0
176
     1
290
     0
176
     1
290
     0
176
     1
 90
       50
176
     1
 40
0.0
176
     1
 40
1.0
176
     1
 90
        0
176
     1
 62
    18
420
        0
176
     1
 90
       50
176
     1
 90
        3
176
     1
 62
     5
420
      255
176
     1
290
     0
176
     1
 90
       50
176
     1
 90
       50
176
     1
 90
       50
176
     1
290
     0
176
     1
 90
       50
176
     1
 62
   256
176
     0
 40
1.0
176
     0
 90
        2
176
     1
  1
strokes_ogs.tif
176
     1
290
     0
176
     1
 40
1.0
176
     1
 40
1.0
176
     1
1001
ACAD
1000
AcDbSavedByObjectVersion
1070
     0
  0
VISUALSTYLE
  5
81D0
102
{ACAD_REACTORS
330
81C4
102
}
330
81C4
100
AcDbVisualStyle
  2
Brighten
 70
    12
177
     3
291
     1
 70
    58
 90
        2
176
     1
 90
        2
176
     1
 90
        0
176
     1
 90
        0
176
     1
 40
0.6
176
     1
 40
30.0
176
     1
 62
     7
420
 16777215
176
     1
 90
        1
176
     1
 90
        4
176
     1
 62
     7
176
     1
 62
   257
176
     1
 90
        1
176
     1
 90
        1
176
     1
 40
1.0
176
     1
 90
        8
176
     1
 62
     7
176
     1
 40
1.0
176
     1
 90
        1
176
     1
 90
        6
176
     1
 90
        2
176
     1
 62
     7
176
     1
 90
        5
176
     1
 90
        0
176
     1
 90
        0
176
     1
290
     0
176
     1
 90
        1
176
     1
 40
50.0
176
     1
 90
        0
176
     1
290
     0
176
     1
290
     1
176
     1
290
     1
176
     1
290
     0
176
     1
290
     0
176
     1
290
     0
176
     1
290
     0
176
     1
290
     0
176
     1
290
     0
176
     1
 90
       50
176
     1
 40
0.0
176
     1
 40
1.0
176
     1
 90
        0
176
     1
 62
    18
420
        0
176
     1
 90
       50
176
     1
 90
        3
176
     1
 62
     5
420
      255
176
     1
290
     0
176
     1
 90
       50
176
     1
 90
       50
176
     1
 90
       50
176
     1
290
     0
176
     1
 90
       50
176
     1
 62
   256
176
     0
 40
1.0
176
     0
 90
        2
176
     1
  1
strokes_ogs.tif
176
     1
290
     0
176
     1
 40
1.0
176
     1
 40
1.0
176
     1
1001
ACAD
1000
AcDbSavedByObjectVersion
1070
     0
  0
VISUALSTYLE
  5
81D4
102
{ACAD_REACTORS
330
81C4
102
}
330
81C4
100
AcDbVisualStyle
  2
ColorChange
 70
    16
177
     3
291
     1
 70
    58
 90
        2
176
     1
 90
        2
176
     1
 90
        3
176
     1
 90
        0
176
     1
 40
0.6
176
     1
 40
30.0
176
     1
 62
     8
420
  8421504
176
     1
 90
        1
176
     1
 90
        4
176
     1
 62
     7
176
     1
 62
   257
176
     1
 90
        1
176
     1
 90
        1
176
     1
 40
1.0
176
     1
 90
        8
176
     1
 62
     8
420
  8421504
176
     1
 40
1.0
176
     1
 90
        1
176
     1
 90
        6
176
     1
 90
        2
176
     1
 62
     7
176
     1
 90
        5
176
     1
 90
        0
176
     1
 90
        0
176
     1
290
     0
176
     1
 90
        1
176
     1
 40
0.0
176
     1
 90
        0
176
     1
290
     0
176
     1
290
     1
176
     1
290
     1
176
     1
290
     0
176
     1
290
     0
176
     1
290
     0
176
     1
290
     0
176
     1
290
     0
176
     1
290
     0
176
     1
 90
       50
176
     1
 40
0.0
176
     1
 40
1.0
176
     1
 90
        0
176
     1
 62
    18
420
        0
176
     1
 90
       50
176
     1
 90
        3
176
     1
 62
     5
420
      255
176
     1
290
     0
176
     1
 90
       50
176
     1
 90
       50
176
     1
 90
       50
176
     1
290
     0
176
     1
 90
       50
176
     1
 62
   256
176
     0
 40
1.0
176
     0
 90
        2
176
     1
  1
strokes_ogs.tif
176
     1
290
     0
176
     1
 40
1.0
176
     1
 40
1.0
176
     1
1001
ACAD
1000
AcDbSavedByObjectVersion
1070
     0
  0
VISUALSTYLE
  5
81CD
102
{ACAD_REACTORS
330
81C4
102
}
330
81C4
100
AcDbVisualStyle
  2
Conceptual
 70
     9
177
     3
291
     0
 70
    58
 90
        3
176
     1
 90
        2
176
     1
 90
        0
176
     1
 90
        0
176
     1
 40
0.6
176
     1
 40
30.0
176
     1
 62
     7
420
 16777215
176
     1
 90
        2
176
     1
 90
        2
176
     1
 62
     7
176
     1
 62
   257
176
     1
 90
        1
176
     1
 90
        1
176
     1
 40
179.0
176
     1
 90
        8
176
     1
 62
     7
176
     1
 40
1.0
176
     1
 90
        1
176
     1
 90
        6
176
     1
 90
        2
176
     1
 62
     7
176
     1
 90
        3
176
     1
 90
        0
176
     1
 90
        0
176
     1
290
     0
176
     1
 90
        1
176
     1
 40
0.0
176
     1
 90
        0
176
     1
290
     0
176
     1
290
     1
176
     1
290
     1
176
     1
290
     0
176
     1
290
     0
176
     1
290
     0
176
     1
290
     0
176
     1
290
     0
176
     1
290
     0
176
     1
 90
       50
176
     1
 40
0.0
176
     1
 40
1.0
176
     1
 90
        0
176
     1
 62
    18
420
        0
176
     1
 90
       50
176
     1
 90
        3
176
     1
 62
     5
420
      255
176
     1
290
     0
176
     1
 90
       50
176
     1
 90
       50
176
     1
 90
       50
176
     1
290
     0
176
     1
 90
       50
176
     1
 62
   256
176
     0
 40
1.0
176
     0
 90
        2
176
     1
  1
strokes_ogs.tif
176
     1
290
     0
176
     1
 40
1.0
176
     1
 40
1.0
176
     1
1001
ACAD
1000
AcDbSavedByObjectVersion
1070
     0
  0
VISUALSTYLE
  5
81CF
102
{ACAD_REACTORS
330
81C4
102
}
330
81C4
100
AcDbVisualStyle
  2
Dim
 70
    11
177
     3
291
     1
 70
    58
 90
        2
176
     1
 90
        2
176
     1
 90
        0
176
     1
 90
        0
176
     1
 40
0.6
176
     1
 40
30.0
176
     1
 62
     7
420
 16777215
176
     1
 90
        1
176
     1
 90
        4
176
     1
 62
     7
176
     1
 62
   257
176
     1
 90
        1
176
     1
 90
        1
176
     1
 40
1.0
176
     1
 90
        8
176
     1
 62
     7
176
     1
 40
1.0
176
     1
 90
        1
176
     1
 90
        6
176
     1
 90
        2
176
     1
 62
     7
176
     1
 90
        5
176
     1
 90
        0
176
     1
 90
        0
176
     1
290
     0
176
     1
 90
        1
176
     1
 40
-50.0
176
     1
 90
        0
176
     1
290
     0
176
     1
290
     1
176
     1
290
     1
176
     1
290
     0
176
     1
290
     0
176
     1
290
     0
176
     1
290
     0
176
     1
290
     0
176
     1
290
     0
176
     1
 90
       50
176
     1
 40
0.0
176
     1
 40
1.0
176
     1
 90
        0
176
     1
 62
    18
420
        0
176
     1
 90
       50
176
     1
 90
        3
176
     1
 62
     5
420
      255
176
     1
290
     0
176
     1
 90
       50
176
     1
 90
       50
176
     1
 90
       50
176
     1
290
     0
176
     1
 90
       50
176
     1
 62
   256
176
     0
 40
1.0
176
     0
 90
        2
176
     1
  1
strokes_ogs.tif
176
     1
290
     0
176
     1
 40
1.0
176
     1
 40
1.0
176
     1
1001
ACAD
1000
AcDbSavedByObjectVersion
1070
     0
  0
VISUALSTYLE
  5
81DC
102
{ACAD_REACTORS
330
81C4
102
}
330
81C4
100
AcDbVisualStyle
  2
EdgeColorOff
 70
    22
177
     3
291
     1
 70
    58
 90
        2
176
     0
 90
        2
176
     0
 90
        0
176
     0
 90
        0
176
     0
 40
0.6
176
     0
 40
30.0
176
     0
 62
     7
420
 16777215
176
     0
 90
        1
176
     0
 90
        4
176
     0
 62
     7
176
     0
 62
   257
176
     0
 90
        1
176
     0
 90
        1
176
     0
 40
1.0
176
     0
 90
        8
176
     2
 62
     7
176
     0
 40
1.0
176
     0
 90
        1
176
     0
 90
        6
176
     0
 90
        2
176
     0
 62
     7
176
     0
 90
        5
176
     0
 90
        0
176
     0
 90
        0
176
     0
290
     0
176
     0
 90
        1
176
     0
 40
0.0
176
     0
 90
        0
176
     0
290
     0
176
     0
290
     1
176
     0
290
     1
176
     0
290
     0
176
     0
290
     0
176
     0
290
     0
176
     0
290
     0
176
     0
290
     0
176
     0
290
     0
176
     0
 90
       50
176
     0
 40
0.0
176
     0
 40
1.0
176
     0
 90
        0
176
     0
 62
    18
420
        0
176
     0
 90
       50
176
     0
 90
        3
176
     0
 62
     5
420
      255
176
     0
290
     0
176
     0
 90
       50
176
     0
 90
       50
176
     0
 90
       50
176
     0
290
     0
176
     0
 90
       50
176
     0
 62
   256
176
     0
 40
1.0
176
     0
 90
        2
176
     0
  1
strokes_ogs.tif
176
     0
290
     0
176
     0
 40
1.0
176
     0
 40
1.0
176
     0
1001
ACAD
1000
AcDbSavedByObjectVersion
1070
     0
  0
VISUALSTYLE
  5
81D3
102
{ACAD_REACTORS
330
81C4
102
}
330
81C4
100
AcDbVisualStyle
  2
Facepattern
 70
    15
177
     3
291
     1
 70
    58
 90
        2
176
     1
 90
        2
176
     1
 90
        0
176
     1
 90
        0
176
     1
 40
0.6
176
     1
 40
30.0
176
     1
 62
     7
420
 16777215
176
     1
 90
        1
176
     1
 90
        4
176
     1
 62
     7
176
     1
 62
   257
176
     1
 90
        1
176
     1
 90
        1
176
     1
 40
1.0
176
     1
 90
        8
176
     1
 62
     7
176
     1
 40
1.0
176
     1
 90
        1
176
     1
 90
        6
176
     1
 90
        2
176
     1
 62
     7
176
     1
 90
        5
176
     1
 90
        0
176
     1
 90
        0
176
     1
290
     0
176
     1
 90
        1
176
     1
 40
0.0
176
     1
 90
        0
176
     1
290
     0
176
     1
290
     1
176
     1
290
     1
176
     1
290
     0
176
     1
290
     0
176
     1
290
     0
176
     1
290
     0
176
     1
290
     0
176
     1
290
     0
176
     1
 90
       50
176
     1
 40
0.0
176
     1
 40
1.0
176
     1
 90
        0
176
     1
 62
    18
420
        0
176
     1
 90
       50
176
     1
 90
        3
176
     1
 62
     5
420
      255
176
     1
290
     0
176
     1
 90
       50
176
     1
 90
       50
176
     1
 90
       50
176
     1
290
     0
176
     1
 90
       50
176
     1
 62
   256
176
     0
 40
1.0
176
     0
 90
        2
176
     1
  1
strokes_ogs.tif
176
     1
290
     0
176
     1
 40
1.0
176
     1
 40
1.0
176
     1
1001
ACAD
1000
AcDbSavedByObjectVersion
1070
     0
  0
VISUALSTYLE
  5
81C5
102
{ACAD_REACTORS
330
81C4
102
}
330
81C4
100
AcDbVisualStyle
  2
Flat
 70
     0
177
     3
291
     1
 70
    58
 90
        2
176
     1
 90
        1
176
     1
 90
        1
176
     1
 90
        2
176
     1
 40
0.6
176
     1
 40
30.0
176
     1
 62
     7
420
 16777215
176
     1
 90
        0
176
     1
 90
        0
176
     1
 62
     7
176
     1
 62
   257
176
     1
 90
        1
176
     1
 90
        1
176
     1
 40
1.0
176
     1
 90
        8
176
     1
 62
     7
176
     1
 40
1.0
176
     1
 90
        1
176
     1
 90
        6
176
     1
 90
        2
176
     1
 62
     7
176
     1
 90
        5
176
     1
 90
        0
176
     1
 90
        0
176
     1
290
     0
176
     1
 90
       13
176
     1
 40
0.0
176
     1
 90
        0
176
     1
290
     0
176
     1
290
     1
176
     1
290
     1
176
     1
290
     0
176
     1
290
     0
176
     1
290
     0
176
     1
290
     0
176
     1
290
     0
176
     1
290
     0
176
     1
 90
       50
176
     1
 40
0.0
176
     1
 40
1.0
176
     1
 90
        0
176
     1
 62
    18
420
        0
176
     1
 90
       50
176
     1
 90
        3
176
     1
 62
     5
420
      255
176
     1
290
     0
176
     1
 90
       50
176
     1
 90
       50
176
     1
 90
       50
176
     1
290
     0
176
     1
 90
       50
176
     1
 62
   256
176
     0
 40
1.0
176
     0
 90
        2
176
     1
  1
strokes_ogs.tif
176
     1
290
     0
176
     1
 40
1.0
176
     1
 40
1.0
176
     1
1001
ACAD
1000
AcDbSavedByObjectVersion
1070
     0
  0
VISUALSTYLE
  5
81C6
102
{ACAD_REACTORS
330
81C4
102
}
330
81C4
100
AcDbVisualStyle
  2
FlatWithEdges
 70
     1
177
     3
291
     1
 70
    58
 90
        2
176
     1
 90
        1
176
     1
 90
        1
176
     1
 90
        2
176
     1
 40
0.6
176
     1
 40
30.0
176
     1
 62
     7
420
 16777215
176
     1
 90
        1
176
     1
 90
        0
176
     1
 62
     7
176
     1
 62
   257
176
     1
 90
        1
176
     1
 90
        1
176
     1
 40
1.0
176
     1
 90
        0
176
     1
 62
   257
176
     1
 40
1.0
176
     1
 90
        1
176
     1
 90
        6
176
     1
 90
        2
176
     1
 62
     7
176
     1
 90
        5
176
     1
 90
        0
176
     1
 90
        0
176
     1
290
     0
176
     1
 90
       13
176
     1
 40
0.0
176
     1
 90
        0
176
     1
290
     0
176
     1
290
     1
176
     1
290
     1
176
     1
290
     0
176
     1
290
     0
176
     1
290
     0
176
     1
290
     0
176
     1
290
     0
176
     1
290
     0
176
     1
 90
       50
176
     1
 40
0.0
176
     1
 40
1.0
176
     1
 90
        0
176
     1
 62
    18
420
        0
176
     1
 90
       50
176
     1
 90
        3
176
     1
 62
     5
420
      255
176
     1
290
     0
176
     1
 90
       50
176
     1
 90
       50
176
     1
 90
       50
176
     1
290
     0
176
     1
 90
       50
176
     1
 62
   256
176
     0
 40
1.0
176
     0
 90
        2
176
     1
  1
strokes_ogs.tif
176
     1
290
     0
176
     1
 40
1.0
176
     1
 40
1.0
176
     1
1001
ACAD
1000
AcDbSavedByObjectVersion
1070
     0
  0
VISUALSTYLE
  5
81C7
102
{ACAD_REACTORS
330
81C4
102
}
330
81C4
100
AcDbVisualStyle
  2
Gouraud
 70
     2
177
     3
291
     1
 70
    58
 90
        2
176
     1
 90
        2
176
     1
 90
        1
176
     1
 90
        2
176
     1
 40
0.6
176
     1
 40
30.0
176
     1
 62
     7
420
 16777215
176
     1
 90
        0
176
     1
 90
        0
176
     1
 62
     7
176
     1
 62
   257
176
     1
 90
        1
176
     1
 90
        1
176
     1
 40
1.0
176
     1
 90
        0
176
     1
 62
     7
176
     1
 40
1.0
176
     1
 90
        1
176
     1
 90
        6
176
     1
 90
        2
176
     1
 62
     7
176
     1
 90
        5
176
     1
 90
        0
176
     1
 90
        0
176
     1
290
     0
176
     1
 90
       13
176
     1
 40
0.0
176
     1
 90
        0
176
     1
290
     0
176
     1
290
     1
176
     1
290
     1
176
     1
290
     0
176
     1
290
     0
176
     1
290
     0
176
     1
290
     0
176
     1
290
     0
176
     1
290
     0
176
     1
 90
       50
176
     1
 40
0.0
176
     1
 40
1.0
176
     1
 90
        0
176
     1
 62
    18
420
        0
176
     1
 90
       50
176
     1
 90
        3
176
     1
 62
     5
420
      255
176
     1
290
     0
176
     1
 90
       50
176
     1
 90
       50
176
     1
 90
       50
176
     1
290
     0
176
     1
 90
       50
176
     1
 62
   256
176
     0
 40
1.0
176
     0
 90
        2
176
     1
  1
strokes_ogs.tif
176
     1
290
     0
176
     1
 40
1.0
176
     1
 40
1.0
176
     1
1001
ACAD
1000
AcDbSavedByObjectVersion
1070
     0
  0
VISUALSTYLE
  5
81C8
102
{ACAD_REACTORS
330
81C4
102
}
330
81C4
100
AcDbVisualStyle
  2
GouraudWithEdges
 70
     3
177
     3
291
     1
 70
    58
 90
        2
176
     1
 90
        2
176
     1
 90
        1
176
     1
 90
        2
176
     1
 40
0.6
176
     1
 40
30.0
176
     1
 62
     7
420
 16777215
176
     1
 90
        1
176
     1
 90
        0
176
     1
 62
     7
176
     1
 62
   257
176
     1
 90
        1
176
     1
 90
        1
176
     1
 40
1.0
176
     1
 90
        0
176
     1
 62
   257
176
     1
 40
1.0
176
     1
 90
        1
176
     1
 90
        6
176
     1
 90
        2
176
     1
 62
     7
176
     1
 90
        5
176
     1
 90
        0
176
     1
 90
        0
176
     1
290
     0
176
     1
 90
       13
176
     1
 40
0.0
176
     1
 90
        0
176
     1
290
     0
176
     1
290
     1
176
     1
290
     1
176
     1
290
     0
176
     1
290
     0
176
     1
290
     0
176
     1
290
     0
176
     1
290
     0
176
     1
290
     0
176
     1
 90
       50
176
     1
 40
0.0
176
     1
 40
1.0
176
     1
 90
        0
176
     1
 62
    18
420
        0
176
     1
 90
       50
176
     1
 90
        3
176
     1
 62
     5
420
      255
176
     1
290
     0
176
     1
 90
       50
176
     1
 90
       50
176
     1
 90
       50
176
     1
290
     0
176
     1
 90
       50
176
     1
 62
   256
176
     0
 40
1.0
176
     0
 90
        2
176
     1
  1
strokes_ogs.tif
176
     1
290
     0
176
     1
 40
1.0
176
     1
 40
1.0
176
     1
1001
ACAD
1000
AcDbSavedByObjectVersion
1070
     0
  0
VISUALSTYLE
  5
81CC
102
{ACAD_REACTORS
330
81C4
102
}
330
81C4
100
AcDbVisualStyle
  2
Hidden
 70
     6
177
     3
291
     0
 70
    58
 90
        1
176
     1
 90
        2
176
     1
 90
        2
176
     1
 90
        0
176
     1
 40
0.6
176
     1
 40
30.0
176
     1
 62
     7
420
 16777215
176
     1
 90
        2
176
     1
 90
        2
176
     1
 62
     7
176
     1
 62
   257
176
     1
 90
        2
176
     1
 90
        1
176
     1
 40
40.0
176
     1
 90
        0
176
     1
 62
   257
176
     1
 40
1.0
176
     1
 90
        1
176
     1
 90
        6
176
     1
 90
        2
176
     1
 62
     7
176
     1
 90
        3
176
     1
 90
        0
176
     1
 90
        0
176
     1
290
     0
176
     1
 90
        1
176
     1
 40
0.0
176
     1
 90
        0
176
     1
290
     0
176
     1
290
     1
176
     1
290
     1
176
     1
290
     0
176
     1
290
     0
176
     1
290
     0
176
     1
290
     0
176
     1
290
     0
176
     1
290
     0
176
     1
 90
       50
176
     1
 40
0.0
176
     1
 40
1.0
176
     1
 90
        0
176
     1
 62
    18
420
        0
176
     1
 90
       50
176
     1
 90
        3
176
     1
 62
     5
420
      255
176
     1
290
     0
176
     1
 90
       50
176
     1
 90
       50
176
     1
 90
       50
176
     1
290
     0
176
     1
 90
       50
176
     1
 62
   256
176
     0
 40
1.0
176
     0
 90
        2
176
     1
  1
strokes_ogs.tif
176
     1
290
     0
176
     1
 40
1.0
176
     1
 40
1.0
176
     1
1001
ACAD
1000
AcDbSavedByObjectVersion
1070
     0
  0
VISUALSTYLE
  5
81DA
102
{ACAD_REACTORS
330
81C4
102
}
330
81C4
100
AcDbVisualStyle
  2
JitterOff
 70
    20
177
     3
291
     1
 70
    58
 90
        2
176
     0
 90
        2
176
     0
 90
        0
176
     0
 90
        0
176
     0
 40
0.6
176
     0
 40
30.0
176
     0
 62
     7
420
 16777215
176
     0
 90
        1
176
     0
 90
        4
176
     0
 62
     7
176
     0
 62
   257
176
     0
 90
        1
176
     0
 90
        1
176
     0
 40
1.0
176
     0
 90
       10
176
     2
 62
     7
176
     0
 40
1.0
176
     0
 90
        1
176
     0
 90
        6
176
     0
 90
        2
176
     0
 62
     7
176
     0
 90
        5
176
     0
 90
        0
176
     0
 90
        0
176
     0
290
     0
176
     0
 90
        1
176
     0
 40
0.0
176
     0
 90
        0
176
     0
290
     0
176
     0
290
     1
176
     0
290
     1
176
     0
290
     0
176
     0
290
     0
176
     0
290
     0
176
     0
290
     0
176
     0
290
     0
176
     0
290
     0
176
     0
 90
       50
176
     0
 40
0.0
176
     0
 40
1.0
176
     0
 90
        0
176
     0
 62
    18
420
        0
176
     0
 90
       50
176
     0
 90
        3
176
     0
 62
     5
420
      255
176
     0
290
     0
176
     0
 90
       50
176
     0
 90
       50
176
     0
 90
       50
176
     0
290
     0
176
     0
 90
       50
176
     0
 62
   256
176
     0
 40
1.0
176
     0
 90
        2
176
     0
  1
strokes_ogs.tif
176
     0
290
     0
176
     0
 40
1.0
176
     0
 40
1.0
176
     0
1001
ACAD
1000
AcDbSavedByObjectVersion
1070
     0
  0
VISUALSTYLE
  5
81D2
102
{ACAD_REACTORS
330
81C4
102
}
330
81C4
100
AcDbVisualStyle
  2
Linepattern
 70
    14
177
     3
291
     1
 70
    58
 90
        2
176
     1
 90
        2
176
     1
 90
        0
176
     1
 90
        0
176
     1
 40
0.6
176
     1
 40
30.0
176
     1
 62
     7
420
 16777215
176
     1
 90
        1
176
     1
 90
        4
176
     1
 62
     7
176
     1
 62
   257
176
     1
 90
        7
176
     1
 90
        7
176
     1
 40
1.0
176
     1
 90
        8
176
     1
 62
     7
176
     1
 40
1.0
176
     1
 90
        1
176
     1
 90
        6
176
     1
 90
        2
176
     1
 62
     7
176
     1
 90
        5
176
     1
 90
        0
176
     1
 90
        0
176
     1
290
     0
176
     1
 90
        1
176
     1
 40
0.0
176
     1
 90
        0
176
     1
290
     0
176
     1
290
     1
176
     1
290
     1
176
     1
290
     0
176
     1
290
     0
176
     1
290
     0
176
     1
290
     0
176
     1
290
     0
176
     1
290
     0
176
     1
 90
       50
176
     1
 40
0.0
176
     1
 40
1.0
176
     1
 90
        0
176
     1
 62
    18
420
        0
176
     1
 90
       50
176
     1
 90
        3
176
     1
 62
     5
420
      255
176
     1
290
     0
176
     1
 90
       50
176
     1
 90
       50
176
     1
 90
       50
176
     1
290
     0
176
     1
 90
       50
176
     1
 62
   256
176
     0
 40
1.0
176
     0
 90
        2
176
     1
  1
strokes_ogs.tif
176
     1
290
     0
176
     1
 40
1.0
176
     1
 40
1.0
176
     1
1001
ACAD
1000
AcDbSavedByObjectVersion
1070
     0
  0
VISUALSTYLE
  5
81DB
102
{ACAD_REACTORS
330
81C4
102
}
330
81C4
100
AcDbVisualStyle
  2
OverhangOff
 70
    21
177
     3
291
     1
 70
    58
 90
        2
176
     0
 90
        2
176
     0
 90
        0
176
     0
 90
        0
176
     0
 40
0.6
176
     0
 40
30.0
176
     0
 62
     7
420
 16777215
176
     0
 90
        1
176
     0
 90
        4
176
     0
 62
     7
176
     0
 62
   257
176
     0
 90
        1
176
     0
 90
        1
176
     0
 40
1.0
176
     0
 90
        9
176
     2
 62
     7
176
     0
 40
1.0
176
     0
 90
        1
176
     0
 90
        6
176
     0
 90
        2
176
     0
 62
     7
176
     0
 90
        5
176
     0
 90
        0
176
     0
 90
        0
176
     0
290
     0
176
     0
 90
        1
176
     0
 40
0.0
176
     0
 90
        0
176
     0
290
     0
176
     0
290
     1
176
     0
290
     1
176
     0
290
     0
176
     0
290
     0
176
     0
290
     0
176
     0
290
     0
176
     0
290
     0
176
     0
290
     0
176
     0
 90
       50
176
     0
 40
0.0
176
     0
 40
1.0
176
     0
 90
        0
176
     0
 62
    18
420
        0
176
     0
 90
       50
176
     0
 90
        3
176
     0
 62
     5
420
      255
176
     0
290
     0
176
     0
 90
       50
176
     0
 90
       50
176
     0
 90
       50
176
     0
290
     0
176
     0
 90
       50
176
     0
 62
   256
176
     0
 40
1.0
176
     0
 90
        2
176
     0
  1
strokes_ogs.tif
176
     0
290
     0
176
     0
 40
1.0
176
     0
 40
1.0
176
     0
1001
ACAD
1000
AcDbSavedByObjectVersion
1070
     0
  0
VISUALSTYLE
  5
81CE
102
{ACAD_REACTORS
330
81C4
102
}
330
81C4
100
AcDbVisualStyle
  2
Realistic
 70
     8
177
     3
291
     0
 70
    58
 90
        2
176
     1
 90
        3
176
     1
 90
        0
176
     1
 90
        2
176
     1
 40
0.6
176
     1
 40
30.0
176
     1
 62
     7
420
 16777215
176
     1
 90
        0
176
     1
 90
        0
176
     1
 62
     7
176
     1
 62
   257
176
     1
 90
        1
176
     1
 90
        1
176
     1
 40
1.0
176
     1
 90
        8
176
     1
 62
   257
176
     1
 40
1.0
176
     1
 90
        1
176
     1
 90
        6
176
     1
 90
        2
176
     1
 62
     7
176
     1
 90
        3
176
     1
 90
        0
176
     1
 90
        0
176
     1
290
     0
176
     1
 90
       13
176
     1
 40
0.0
176
     1
 90
        0
176
     1
290
     0
176
     1
290
     1
176
     1
290
     1
176
     1
290
     0
176
     1
290
     0
176
     1
290
     0
176
     1
290
     0
176
     1
290
     0
176
     1
290
     0
176
     1
 90
       50
176
     1
 40
0.0
176
     1
 40
1.0
176
     1
 90
        0
176
     1
 62
    18
420
        0
176
     1
 90
       50
176
     1
 90
        3
176
     1
 62
     5
420
      255
176
     1
290
     0
176
     1
 90
       50
176
     1
 90
       50
176
     1
 90
       50
176
     1
290
     0
176
     1
 90
       50
176
     1
 62
   256
176
     0
 40
1.0
176
     0
 90
        2
176
     1
  1
strokes_ogs.tif
176
     1
290
     0
176
     1
 40
1.0
176
     1
 40
1.0
176
     1
1001
ACAD
1000
AcDbSavedByObjectVersion
1070
     0
  0
VISUALSTYLE
  5
81D9
102
{ACAD_REACTORS
330
81C4
102
}
330
81C4
100
AcDbVisualStyle
  2
Shaded
 70
    27
177
     3
291
     0
 70
    58
 90
        2
176
     1
 90
        2
176
     1
 90
        1
176
     1
 90
        2
176
     1
 40
0.6
176
     1
 40
30.0
176
     1
 62
     7
420
 16777215
176
     1
 90
        0
176
     1
 90
        4
176
     1
 62
     7
176
     1
 62
   257
176
     1
 90
        1
176
     1
 90
        1
176
     1
 40
1.0
176
     1
 90
        8
176
     1
 62
   257
176
     1
 40
1.0
176
     1
 90
        1
176
     1
 90
        6
176
     1
 90
        2
176
     1
 62
     8
420
  7895160
176
     1
 90
        3
176
     1
 90
        0
176
     1
 90
        0
176
     1
290
     0
176
     1
 90
        5
176
     1
 40
0.0
176
     1
 90
        0
176
     1
290
     0
176
     1
290
     1
176
     1
290
     1
176
     1
290
     0
176
     1
290
     0
176
     1
290
     0
176
     1
290
     0
176
     1
290
     0
176
     1
290
     0
176
     1
 90
       50
176
     1
 40
0.0
176
     1
 40
1.0
176
     1
 90
        0
176
     1
 62
    18
420
        0
176
     1
 90
       50
176
     1
 90
        3
176
     1
 62
     5
420
      255
176
     1
290
     0
176
     1
 90
       50
176
     1
 90
       50
176
     1
 90
       50
176
     1
290
     0
176
     1
 90
       50
176
     1
 62
   256
176
     0
 40
1.0
176
     0
 90
        2
176
     1
  1
strokes_ogs.tif
176
     1
290
     0
176
     1
 40
1.0
176
     1
 40
1.0
176
     1
1001
ACAD
1000
AcDbSavedByObjectVersion
1070
     0
  0
VISUALSTYLE
  5
81D8
102
{ACAD_REACTORS
330
81C4
102
}
330
81C4
100
AcDbVisualStyle
  2
Shaded with edges
 70
    26
177
     3
291
     0
 70
    58
 90
        2
176
     1
 90
        2
176
     1
 90
        1
176
     1
 90
        2
176
     1
 40
0.6
176
     1
 40
30.0
176
     1
 62
     7
420
 16777215
176
     1
 90
        1
176
     1
 90
        2
176
     1
 62
     7
176
     1
 62
   257
176
     1
 90
        2
176
     1
 90
        1
176
     1
 40
1.0
176
     1
 90
        8
176
     1
 62
   257
176
     1
 40
1.0
176
     1
 90
        1
176
     1
 90
        6
176
     1
 90
        2
176
     1
 62
     7
176
     1
 90
        3
176
     1
 90
        0
176
     1
 90
        0
176
     1
290
     0
176
     1
 90
        5
176
     1
 40
0.0
176
     1
 90
        0
176
     1
290
     0
176
     1
290
     1
176
     1
290
     1
176
     1
290
     0
176
     1
290
     0
176
     1
290
     0
176
     1
290
     0
176
     1
290
     0
176
     1
290
     0
176
     1
 90
       50
176
     1
 40
0.0
176
     1
 40
1.0
176
     1
 90
        0
176
     1
 62
    18
420
        0
176
     1
 90
       50
176
     1
 90
        3
176
     1
 62
     5
420
      255
176
     1
290
     0
176
     1
 90
       50
176
     1
 90
       50
176
     1
 90
       50
176
     1
290
     0
176
     1
 90
       50
176
     1
 62
   256
176
     0
 40
1.0
176
     0
 90
        2
176
     1
  1
strokes_ogs.tif
176
     1
290
     0
176
     1
 40
1.0
176
     1
 40
1.0
176
     1
1001
ACAD
1000
AcDbSavedByObjectVersion
1070
     0
  0
VISUALSTYLE
  5
81D5
102
{ACAD_REACTORS
330
81C4
102
}
330
81C4
100
AcDbVisualStyle
  2
Shades of Gray
 70
    23
177
     3
291
     0
 70
    58
 90
        2
176
     1
 90
        2
176
     1
 90
        3
176
     1
 90
        0
176
     1
 40
0.6
176
     1
 40
30.0
176
     1
 62
     7
420
 16777215
176
     1
 90
        2
176
     1
 90
        2
176
     1
 62
     7
176
     1
 62
     7
176
     1
 90
        1
176
     1
 90
        1
176
     1
 40
40.0
176
     1
 90
        8
176
     1
 62
     7
176
     1
 40
1.0
176
     1
 90
        1
176
     1
 90
        6
176
     1
 90
        2
176
     1
 62
     7
176
     1
 90
        3
176
     1
 90
        0
176
     1
 90
        0
176
     1
290
     0
176
     1
 90
        1
176
     1
 40
0.0
176
     1
 90
        0
176
     1
290
     0
176
     1
290
     1
176
     1
290
     1
176
     1
290
     0
176
     1
290
     0
176
     1
290
     0
176
     1
290
     0
176
     1
290
     0
176
     1
290
     0
176
     1
 90
       50
176
     1
 40
0.0
176
     1
 40
1.0
176
     1
 90
        0
176
     1
 62
    18
420
        0
176
     1
 90
       50
176
     1
 90
        3
176
     1
 62
     5
420
      255
176
     1
290
     0
176
     1
 90
       50
176
     1
 90
       50
176
     1
 90
       50
176
     1
290
     0
176
     1
 90
       50
176
     1
 62
   256
176
     0
 40
1.0
176
     0
 90
        2
176
     1
  1
strokes_ogs.tif
176
     1
290
     0
176
     1
 40
1.0
176
     1
 40
1.0
176
     1
1001
ACAD
1000
AcDbSavedByObjectVersion
1070
     0
  0
VISUALSTYLE
  5
81D6
102
{ACAD_REACTORS
330
81C4
102
}
330
81C4
100
AcDbVisualStyle
  2
Sketchy
 70
    24
177
     3
291
     0
 70
    58
 90
        1
176
     1
 90
        2
176
     1
 90
        2
176
     1
 90
        0
176
     1
 40
0.6
176
     1
 40
30.0
176
     1
 62
     7
420
 16777215
176
     1
 90
        2
176
     1
 90
        2
176
     1
 62
     7
176
     1
 62
     7
176
     1
 90
        1
176
     1
 90
        1
176
     1
 40
40.0
176
     1
 90
       11
176
     1
 62
     7
176
     1
 40
1.0
176
     1
 90
        1
176
     1
 90
        6
176
     1
 90
        2
176
     1
 62
     7
176
     1
 90
        6
176
     1
 90
        0
176
     1
 90
        0
176
     1
290
     0
176
     1
 90
        1
176
     1
 40
0.0
176
     1
 90
        0
176
     1
290
     0
176
     1
290
     1
176
     1
290
     1
176
     1
290
     0
176
     1
290
     0
176
     1
290
     0
176
     1
290
     0
176
     1
290
     0
176
     1
290
     0
176
     1
 90
       50
176
     1
 40
0.0
176
     1
 40
1.0
176
     1
 90
        0
176
     1
 62
    18
420
        0
176
     1
 90
       50
176
     1
 90
        3
176
     1
 62
     5
420
      255
176
     1
290
     0
176
     1
 90
       50
176
     1
 90
       50
176
     1
 90
       50
176
     1
290
     0
176
     1
 90
       50
176
     1
 62
   256
176
     0
 40
1.0
176
     0
 90
        2
176
     1
  1
strokes_ogs.tif
176
     1
290
     0
176
     1
 40
1.0
176
     1
 40
1.0
176
     1
1001
ACAD
1000
AcDbSavedByObjectVersion
1070
     0
  0
VISUALSTYLE
  5
81D1
102
{ACAD_REACTORS
330
81C4
102
}
330
81C4
100
AcDbVisualStyle
  2
Thicken
 70
    13
177
     3
291
     1
 70
    58
 90
        2
176
     1
 90
        2
176
     1
 90
        0
176
     1
 90
        0
176
     1
 40
0.6
176
     1
 40
30.0
176
     1
 62
     7
420
 16777215
176
     1
 90
        1
176
     1
 90
        4
176
     1
 62
     7
176
     1
 62
   257
176
     1
 90
        1
176
     1
 90
        1
176
     1
 40
1.0
176
     1
 90
       12
176
     1
 62
     7
176
     1
 40
1.0
176
     1
 90
        1
176
     1
 90
        6
176
     1
 90
        2
176
     1
 62
     7
176
     1
 90
        5
176
     1
 90
        0
176
     1
 90
        0
176
     1
290
     0
176
     1
 90
        1
176
     1
 40
0.0
176
     1
 90
        0
176
     1
290
     0
176
     1
290
     1
176
     1
290
     1
176
     1
290
     0
176
     1
290
     0
176
     1
290
     0
176
     1
290
     0
176
     1
290
     0
176
     1
290
     0
176
     1
 90
       50
176
     1
 40
0.0
176
     1
 40
1.0
176
     1
 90
        0
176
     1
 62
    18
420
        0
176
     1
 90
       50
176
     1
 90
        3
176
     1
 62
     5
420
      255
176
     1
290
     0
176
     1
 90
       50
176
     1
 90
       50
176
     1
 90
       50
176
     1
290
     0
176
     1
 90
       50
176
     1
 62
   256
176
     0
 40
1.0
176
     0
 90
        2
176
     1
  1
strokes_ogs.tif
176
     1
290
     0
176
     1
 40
1.0
176
     1
 40
1.0
176
     1
1001
ACAD
1000
AcDbSavedByObjectVersion
1070
     0
  0
VISUALSTYLE
  5
81CB
102
{ACAD_REACTORS
330
81C4
102
}
330
81C4
100
AcDbVisualStyle
  2
Wireframe
 70
     5
177
     3
291
     0
 70
    58
 90
        0
176
     1
 90
        2
176
     1
 90
        0
176
     1
 90
        0
176
     1
 40
0.6
176
     1
 40
30.0
176
     1
 62
     7
420
 16777215
176
     1
 90
        1
176
     1
 90
        4
176
     1
 62
     7
176
     1
 62
   257
176
     1
 90
        1
176
     1
 90
        1
176
     1
 40
1.0
176
     1
 90
        0
176
     1
 62
   257
176
     1
 40
1.0
176
     1
 90
        1
176
     1
 90
        6
176
     1
 90
        2
176
     1
 62
     7
176
     1
 90
        3
176
     1
 90
        0
176
     1
 90
        0
176
     1
290
     0
176
     1
 90
        1
176
     1
 40
0.0
176
     1
 90
        0
176
     1
290
     0
176
     1
290
     1
176
     1
290
     1
176
     1
290
     0
176
     1
290
     0
176
     1
290
     0
176
     1
290
     0
176
     1
290
     0
176
     1
290
     0
176
     1
 90
       50
176
     1
 40
0.0
176
     1
 40
1.0
176
     1
 90
        0
176
     1
 62
    18
420
        0
176
     1
 90
       50
176
     1
 90
        3
176
     1
 62
     5
420
      255
176
     1
290
     0
176
     1
 90
       50
176
     1
 90
       50
176
     1
 90
       50
176
     1
290
     0
176
     1
 90
       50
176
     1
 62
   256
176
     0
 40
1.0
176
     0
 90
        2
176
     1
  1
strokes_ogs.tif
176
     1
290
     0
176
     1
 40
1.0
176
     1
 40
1.0
176
     1
1001
ACAD
1000
AcDbSavedByObjectVersion
1070
     0
  0
VISUALSTYLE
  5
81D7
102
{ACAD_REACTORS
330
81C4
102
}
330
81C4
100
AcDbVisualStyle
  2
X-Ray
 70
    25
177
     3
291
     0
 70
    58
 90
        2
176
     1
 90
        2
176
     1
 90
        1
176
     1
 90
        1
176
     1
 40
0.5
176
     1
 40
30.0
176
     1
 62
     7
420
 16777215
176
     1
 90
        1
176
     1
 90
        0
176
     1
 62
     7
176
     1
 62
   257
176
     1
 90
        1
176
     1
 90
        1
176
     1
 40
1.0
176
     1
 90
        8
176
     1
 62
     7
176
     1
 40
1.0
176
     1
 90
        1
176
     1
 90
        6
176
     1
 90
        2
176
     1
 62
     7
176
     1
 90
        3
176
     1
 90
        0
176
     1
 90
        0
176
     1
290
     0
176
     1
 90
       13
176
     1
 40
0.0
176
     1
 90
        0
176
     1
290
     0
176
     1
290
     1
176
     1
290
     1
176
     1
290
     0
176
     1
290
     0
176
     1
290
     0
176
     1
290
     0
176
     1
290
     0
176
     1
290
     0
176
     1
 90
       50
176
     1
 40
0.0
176
     1
 40
1.0
176
     1
 90
        0
176
     1
 62
    18
420
        0
176
     1
 90
       50
176
     1
 90
        3
176
     1
 62
     5
420
      255
176
     1
290
     0
176
     1
 90
       50
176
     1
 90
       50
176
     1
 90
       50
176
     1
290
     0
176
     1
 90
       50
176
     1
 62
   256
176
     0
 40
1.0
176
     0
 90
        2
176
     1
  1
strokes_ogs.tif
176
     1
290
     0
176
     1
 40
1.0
176
     1
 40
1.0
176
     1
1001
ACAD
1000
AcDbSavedByObjectVersion
1070
     0
  0
DICTIONARYVAR
  5
8258
102
{ACAD_REACTORS
330
81A1
102
}
330
81A1
100
DictionaryVariables
280
     0
  1
1:1
  0
DICTIONARYVAR
  5
8254
102
{ACAD_REACTORS
330
81A1
102
}
330
81A1
100
DictionaryVariables
280
     0
  1
STANDARD
  0
DICTIONARYVAR
  5
8253
102
{ACAD_REACTORS
330
81A1
102
}
330
81A1
100
DictionaryVariables
280
     0
  1
STANDARD
  0
DICTIONARYVAR
  5
8255
102
{ACAD_REACTORS
330
81A1
102
}
330
81A1
100
DictionaryVariables
280
     0
  1
Metric50
  0
DICTIONARYVAR
  5
8256
102
{ACAD_REACTORS
330
81A1
102
}
330
81A1
100
DictionaryVariables
280
     0
  1
Metric50
  0
DICTIONARYVAR
  5
81A2
102
{ACAD_REACTORS
330
81A1
102
}
330
81A1
100
DictionaryVariables
280
     0
  1
1
  0
DICTIONARYVAR
  5
825A
102
{ACAD_REACTORS
330
81A1
102
}
330
81A1
100
DictionaryVariables
280
     0
  1
1
  0
DICTIONARYVAR
  5
825B
102
{ACAD_REACTORS
330
81A1
102
}
330
81A1
100
DictionaryVariables
280
     0
  1
15
  0
DICTIONARYVAR
  5
8259
102
{ACAD_REACTORS
330
81A1
102
}
330
81A1
100
DictionaryVariables
280
     0
  1
0
  0
DICTIONARYVAR
  5
8260
102
{ACAD_REACTORS
330
81A1
102
}
330
81A1
100
DictionaryVariables
280
     0
  1
0
  0
DICTIONARYVAR
  5
8257
102
{ACAD_REACTORS
330
81A1
102
}
330
81A1
100
DictionaryVariables
280
     0
  1
0
  0
DICTIONARY
  5
826B
102
{ACAD_REACTORS
330
8269
102
}
330
8269
100
AcDbDictionary
281
     1
  0
DICTIONARY
  5
826A
102
{ACAD_REACTORS
330
8269
102
}
330
8269
100
AcDbDictionary
281
     1
  3
2050046930944
350
8268
  3
2050208603968
350
8264
  3
2050208603984
350
8265
  3
2050208604000
350
8266
  3
2050208604016
350
8267
  0
DICTIONARY
  5
826E
330
81F7
100
AcDbDictionary
280
     1
281
     1
  3
ACAD_XREC_ROUNDTRIP
360
826F
  0
DICTIONARY
  5
81B5
330
81B4
100
AcDbDictionary
280
     1
281
     1
  3
BUMPTILE
360
81B7
  3
DIFFUSETILE
360
81B6
  3
OPACITYTILE
360
81BA
  3
REFLECTIONTILE
360
81B9
  3
REFRACTIONTILE
360
81BB
  3
SPECULARTILE
360
81B8
  0
DICTIONARY
  5
81AD
330
81AC
100
AcDbDictionary
280
     1
281
     1
  3
BUMPTILE
360
81AF
  3
DIFFUSETILE
360
81AE
  3
OPACITYTILE
360
81B2
  3
REFLECTIONTILE
360
81B1
  3
REFRACTIONTILE
360
81B3
  3
SPECULARTILE
360
81B0
  0
DICTIONARY
  5
81BD
330
81BC
100
AcDbDictionary
280
     1
281
     1
  3
BUMPTILE
360
81BF
  3
DIFFUSETILE
360
81BE
  3
OPACITYTILE
360
81C2
  3
REFLECTIONTILE
360
81C1
  3
REFRACTIONTILE
360
81C3
  3
SPECULARTILE
360
81C0
  0
DICTIONARY
  5
826C
330
81F5
100
AcDbDictionary
280
     1
281
     1
  3
ACAD_XREC_ROUNDTRIP
360
826D
  0
DICTIONARY
  5
8261
330
81DF
100
AcDbDictionary
280
     1
281
     1
  3
ACAD_ROUNDTRIP_2008_TABLESTYLE_CELLSTYLEMAP
360
8262
  0
XRECORD
  5
8268
102
{ACAD_REACTORS
330
826A
102
}
330
826A
100
AcDbXrecord
280
     1
  1
AcDbDs::HandleAttributeSchema
  2
AcDbDs::HandleAttribute
280
     7
 91
        1
284
     1
  0
XRECORD
  5
8264
102
{ACAD_REACTORS
330
826A
102
}
330
826A
100
AcDbXrecord
280
     1
  1
AcDb_Thumbnail_Schema
102
{ATTRRECORD
341
8265
  2
AcDbDs::TreatedAsObjectData
280
     1
291
     1
102
ATTRRECORD}
102
{ATTRRECORD
341
8266
  2
AcDbDs::Legacy
280
     1
291
     1
102
ATTRRECORD}
  2
AcDbDs::ID
280
    10
 91
        8
102
{ATTRRECORD
341
8267
  2
AcDs:Indexable
280
     1
291
     1
102
ATTRRECORD}
102
{ATTRRECORD
341
8268
  2
AcDbDs::HandleAttribute
280
     7
282
     1
102
ATTRRECORD}
  2
Thumbnail_Data
280
    15
 91
        0
  0
XRECORD
  5
8265
102
{ACAD_REACTORS
330
826A
102
}
330
826A
100
AcDbXrecord
280
     1
  1
AcDbDs::TreatedAsObjectDataSchema
  2
AcDbDs::TreatedAsObjectData
280
     1
 91
        0
  0
XRECORD
  5
8266
102
{ACAD_REACTORS
330
826A
102
}
330
826A
100
AcDbXrecord
280
     1
  1
AcDbDs::LegacySchema
  2
AcDbDs::Legacy
280
     1
 91
        0
  0
XRECORD
  5
8267
102
{ACAD_REACTORS
330
826A
102
}
330
826A
100
AcDbXrecord
280
     1
  1
AcDbDs::IndexedPropertySchema
  2
AcDs:Indexable
280
     1
 91
        0
  0
XRECORD
  5
826F
102
{ACAD_REACTORS
330
826E
102
}
330
826E
100
AcDbXrecord
280
     1
102
DISPLAYNAME
  1
Metric50
102
FLAGS
 90
        0
  0
XRECORD
  5
81B7
102
{ACAD_REACTORS
330
81B5
102
}
330
81B5
100
AcDbXrecord
280
     1
270
     1
271
     1
  0
XRECORD
  5
81B6
102
{ACAD_REACTORS
330
81B5
102
}
330
81B5
100
AcDbXrecord
280
     1
270
     1
271
     1
  0
XRECORD
  5
81BA
102
{ACAD_REACTORS
330
81B5
102
}
330
81B5
100
AcDbXrecord
280
     1
270
     1
271
     1
  0
XRECORD
  5
81B9
102
{ACAD_REACTORS
330
81B5
102
}
330
81B5
100
AcDbXrecord
280
     1
270
     1
271
     1
  0
XRECORD
  5
81BB
102
{ACAD_REACTORS
330
81B5
102
}
330
81B5
100
AcDbXrecord
280
     1
270
     1
271
     1
  0
XRECORD
  5
81B8
102
{ACAD_REACTORS
330
81B5
102
}
330
81B5
100
AcDbXrecord
280
     1
270
     1
271
     1
  0
XRECORD
  5
81AF
102
{ACAD_REACTORS
330
81AD
102
}
330
81AD
100
AcDbXrecord
280
     1
270
     1
271
     1
  0
XRECORD
  5
81AE
102
{ACAD_REACTORS
330
81AD
102
}
330
81AD
100
AcDbXrecord
280
     1
270
     1
271
     1
  0
XRECORD
  5
81B2
102
{ACAD_REACTORS
330
81AD
102
}
330
81AD
100
AcDbXrecord
280
     1
270
     1
271
     1
  0
XRECORD
  5
81B1
102
{ACAD_REACTORS
330
81AD
102
}
330
81AD
100
AcDbXrecord
280
     1
270
     1
271
     1
  0
XRECORD
  5
81B3
102
{ACAD_REACTORS
330
81AD
102
}
330
81AD
100
AcDbXrecord
280
     1
270
     1
271
     1
  0
XRECORD
  5
81B0
102
{ACAD_REACTORS
330
81AD
102
}
330
81AD
100
AcDbXrecord
280
     1
270
     1
271
     1
  0
XRECORD
  5
81BF
102
{ACAD_REACTORS
330
81BD
102
}
330
81BD
100
AcDbXrecord
280
     1
270
     1
271
     1
  0
XRECORD
  5
81BE
102
{ACAD_REACTORS
330
81BD
102
}
330
81BD
100
AcDbXrecord
280
     1
270
     1
271
     1
  0
XRECORD
  5
81C2
102
{ACAD_REACTORS
330
81BD
102
}
330
81BD
100
AcDbXrecord
280
     1
270
     1
271
     1
  0
XRECORD
  5
81C1
102
{ACAD_REACTORS
330
81BD
102
}
330
81BD
100
AcDbXrecord
280
     1
270
     1
271
     1
  0
XRECORD
  5
81C3
102
{ACAD_REACTORS
330
81BD
102
}
330
81BD
100
AcDbXrecord
280
     1
270
     1
271
     1
  0
XRECORD
  5
81C0
102
{ACAD_REACTORS
330
81BD
102
}
330
81BD
100
AcDbXrecord
280
     1
270
     1
271
     1
  0
XRECORD
  5
826D
102
{ACAD_REACTORS
330
826C
102
}
330
826C
100
AcDbXrecord
280
     1
102
DISPLAYNAME
  1
Metric50
102
FLAGS
 90
        0
  0
CELLSTYLEMAP
  5
8262
102
{ACAD_REACTORS
330
8261
102
}
330
8261
100
AcDbCellStyleMap
 90
        3
300
CELLSTYLE
  1
TABLEFORMAT_BEGIN
 90
        5
170
     1
 91
        0
 92
    32768
 62
   257
 93
        1
300
CONTENTFORMAT
  1
CONTENTFORMAT_BEGIN
 90
        0
 91
        0
 92
      512
 93
        0
300

 40
0.0
140
1.0
 94
        5
 62
     0
340
10
144
6.0
309
CONTENTFORMAT_END
171
     1
301
MARGIN
  1
CELLMARGIN_BEGIN
 40
1.5
 40
1.5
 40
1.5
 40
1.5
 40
4.5
 40
4.5
309
CELLMARGIN_END
 94
        6
 95
        1
302
GRIDFORMAT
  1
GRIDFORMAT_BEGIN
 90
        0
 91
        1
 62
     0
 92
       -2
340
0
 93
        0
 40
1.125
309
GRIDFORMAT_END
 95
        2
302
GRIDFORMAT
  1
GRIDFORMAT_BEGIN
 90
        0
 91
        1
 62
     0
 92
       -2
340
0
 93
        0
 40
1.125
309
GRIDFORMAT_END
 95
        4
302
GRIDFORMAT
  1
GRIDFORMAT_BEGIN
 90
        0
 91
        1
 62
     0
 92
       -2
340
0
 93
        0
 40
1.125
309
GRIDFORMAT_END
 95
        8
302
GRIDFORMAT
  1
GRIDFORMAT_BEGIN
 90
        0
 91
        1
 62
     0
 92
       -2
340
0
 93
        0
 40
1.125
309
GRIDFORMAT_END
 95
       16
302
GRIDFORMAT
  1
GRIDFORMAT_BEGIN
 90
        0
 91
        1
 62
     0
 92
       -2
340
0
 93
        0
 40
1.125
309
GRIDFORMAT_END
 95
       32
302
GRIDFORMAT
  1
GRIDFORMAT_BEGIN
 90
        0
 91
        1
 62
     0
 92
       -2
340
0
 93
        0
 40
1.125
309
GRIDFORMAT_END
309
TABLEFORMAT_END
  1
CELLSTYLE_BEGIN
 90
        1
 91
        1
300
_TITLE
309
CELLSTYLE_END
300
CELLSTYLE
  1
TABLEFORMAT_BEGIN
 90
        5
170
     1
 91
        0
 92
        0
 62
   257
 93
        1
300
CONTENTFORMAT
  1
CONTENTFORMAT_BEGIN
 90
        0
 91
        0
 92
      512
 93
        0
300

 40
0.0
140
1.0
 94
        5
 62
     0
340
10
144
4.5
309
CONTENTFORMAT_END
171
     1
301
MARGIN
  1
CELLMARGIN_BEGIN
 40
1.5
 40
1.5
 40
1.5
 40
1.5
 40
4.5
 40
4.5
309
CELLMARGIN_END
 94
        6
 95
        1
302
GRIDFORMAT
  1
GRIDFORMAT_BEGIN
 90
        0
 91
        1
 62
     0
 92
       -2
340
0
 93
        0
 40
1.125
309
GRIDFORMAT_END
 95
        2
302
GRIDFORMAT
  1
GRIDFORMAT_BEGIN
 90
        0
 91
        1
 62
     0
 92
       -2
340
0
 93
        0
 40
1.125
309
GRIDFORMAT_END
 95
        4
302
GRIDFORMAT
  1
GRIDFORMAT_BEGIN
 90
        0
 91
        1
 62
     0
 92
       -2
340
0
 93
        0
 40
1.125
309
GRIDFORMAT_END
 95
        8
302
GRIDFORMAT
  1
GRIDFORMAT_BEGIN
 90
        0
 91
        1
 62
     0
 92
       -2
340
0
 93
        0
 40
1.125
309
GRIDFORMAT_END
 95
       16
302
GRIDFORMAT
  1
GRIDFORMAT_BEGIN
 90
        0
 91
        1
 62
     0
 92
       -2
340
0
 93
        0
 40
1.125
309
GRIDFORMAT_END
 95
       32
302
GRIDFORMAT
  1
GRIDFORMAT_BEGIN
 90
        0
 91
        1
 62
     0
 92
       -2
340
0
 93
        0
 40
1.125
309
GRIDFORMAT_END
309
TABLEFORMAT_END
  1
CELLSTYLE_BEGIN
 90
        2
 91
        1
300
_HEADER
309
CELLSTYLE_END
300
CELLSTYLE
  1
TABLEFORMAT_BEGIN
 90
        5
170
     1
 91
        0
 92
        0
 62
   257
 93
        1
300
CONTENTFORMAT
  1
CONTENTFORMAT_BEGIN
 90
        0
 91
        0
 92
      512
 93
        0
300

 40
0.0
140
1.0
 94
        2
 62
     0
340
10
144
4.5
309
CONTENTFORMAT_END
171
     1
301
MARGIN
  1
CELLMARGIN_BEGIN
 40
1.5
 40
1.5
 40
1.5
 40
1.5
 40
4.5
 40
4.5
309
CELLMARGIN_END
 94
        6
 95
        1
302
GRIDFORMAT
  1
GRIDFORMAT_BEGIN
 90
        0
 91
        1
 62
     0
 92
       -2
340
0
 93
        0
 40
1.125
309
GRIDFORMAT_END
 95
        2
302
GRIDFORMAT
  1
GRIDFORMAT_BEGIN
 90
        0
 91
        1
 62
     0
 92
       -2
340
0
 93
        0
 40
1.125
309
GRIDFORMAT_END
 95
        4
302
GRIDFORMAT
  1
GRIDFORMAT_BEGIN
 90
        0
 91
        1
 62
     0
 92
       -2
340
0
 93
        0
 40
1.125
309
GRIDFORMAT_END
 95
        8
302
GRIDFORMAT
  1
GRIDFORMAT_BEGIN
 90
        0
 91
        1
 62
     0
 92
       -2
340
0
 93
        0
 40
1.125
309
GRIDFORMAT_END
 95
       16
302
GRIDFORMAT
  1
GRIDFORMAT_BEGIN
 90
        0
 91
        1
 62
     0
 92
       -2
340
0
 93
        0
 40
1.125
309
GRIDFORMAT_END
 95
       32
302
GRIDFORMAT
  1
GRIDFORMAT_BEGIN
 90
        0
 91
        1
 62
     0
 92
       -2
340
0
 93
        0
 40
1.125
309
GRIDFORMAT_END
309
TABLEFORMAT_END
  1
CELLSTYLE_BEGIN
 90
        3
 91
        2
300
_DATA
309
CELLSTYLE_END
  0
ENDSEC
  0
SECTION
  2
ACDSDATA
 70
     2
 71
     8
  0
ACDSSCHEMA
 90
        0
  1
AcDb_Thumbnail_Schema
  2
AcDbDs::ID
280
    10
 91
        8
  2
Thumbnail_Data
280
    15
 91
        0
101
ACDSRECORD
 95
        0
 90
        1
  2
AcDbDs::TreatedAsObjectData
280
     1
291
     1
101
ACDSRECORD
 95
        0
 90
        2
  2
AcDbDs::Legacy
280
     1
291
     1
101
ACDSRECORD
  1
AcDbDs::ID
 90
        3
  2
AcDs:Indexable
280
     1
291
     1
101
ACDSRECORD
  1
AcDbDs::ID
 90
        4
  2
AcDbDs::HandleAttribute
280
     7
282
     1
  0
ACDSSCHEMA
 90
        1
  1
AcDbDs::TreatedAsObjectDataSchema
  2
AcDbDs::TreatedAsObjectData
280
     1
 91
        0
  0
ACDSSCHEMA
 90
        2
  1
AcDbDs::LegacySchema
  2
AcDbDs::Legacy
280
     1
 91
        0
  0
ACDSSCHEMA
 90
        3
  1
AcDbDs::IndexedPropertySchema
  2
AcDs:Indexable
280
     1
 91
        0
  0
ACDSSCHEMA
 90
        4
  1
AcDbDs::HandleAttributeSchema
  2
AcDbDs::HandleAttribute
280
     7
 91
        1
284
     1
  0
ACDSRECORD
 90
        0
  2
AcDbDs::ID
280
    10
320
80E8
  2
Thumbnail_Data
280
    15
 94
     1713
310
89504E470D0A1A0A0000000D49484452000001000000007C0803000000B13B9E5A00000300504C5445000000000000C8C8C80000000000000000000000000000000000000000000000000000330000660000990000CC0000FF0033000033330033660033990033CC0033FF0066000066330066660066990066CC0066FF0099
310
000099330099660099990099CC0099FF00CC0000CC3300CC6600CC9900CCCC00CCFF00FF0000FF3300FF6600FF9900FFCC00FFFF3300003300333300663300993300CC3300FF3333003333333333663333993333CC3333FF3366003366333366663366993366CC3366FF3399003399333399663399993399CC3399FF33CC00
310
33CC3333CC6633CC9933CCCC33CCFF33FF0033FF3333FF6633FF9933FFCC33FFFF6600006600336600666600996600CC6600FF6633006633336633666633996633CC6633FF6666006666336666666666996666CC6666FF6699006699336699666699996699CC6699FF66CC0066CC3366CC6666CC9966CCCC66CCFF66FF0066
310
FF3366FF6666FF9966FFCC66FFFF9900009900339900669900999900CC9900FF9933009933339933669933999933CC9933FF9966009966339966669966999966CC9966FF9999009999339999669999999999CC9999FF99CC0099CC3399CC6699CC9999CCCC99CCFF99FF0099FF3399FF6699FF9999FFCC99FFFFCC0000CC00
310
33CC0066CC0099CC00CCCC00FFCC3300CC3333CC3366CC3399CC33CCCC33FFCC6600CC6633CC6666CC6699CC66CCCC66FFCC9900CC9933CC9966CC9999CC99CCCC99FFCCCC00CCCC33CCCC66CCCC99CCCCCCCCCCFFCCFF00CCFF33CCFF66CCFF99CCFFCCCCFFFFFF0000FF0033FF0066FF0099FF00CCFF00FFFF3300FF3333
310
FF3366FF3399FF33CCFF33FFFF6600FF6633FF6666FF6699FF66CCFF66FFFF9900FF9933FF9966FF9999FF99CCFF99FFFFCC00FFCC33FFCC66FFCC99FFCCCCFFCCFFFFFF00FFFF33FFFF66FFFF99FFFFCCFFFFFF0000000D0D0D1A1A1A2828283535354343435050505D5D5D6B6B6B787878868686939393A1A1A1AEAEAEBB
310
BBBBC9C9C9D6D6D6E4E4E4F1F1F1FFFFFF00000000000000000000000000000000000000000000000000000000000008F1915C0000036C4944415478DAED9D5B8EEB300886598E5FBCFFCDB00DBF1F25C6067C4973A499510D581A256E9BA87CF9C10EA11E805F68E5971A9CD2CA51A70D00012000048000F03DDFF461F0F3
310
026038BCB854807B00C53380C10BCE06F0A377004702F8B2930580BF0740321E54CDDBDBEBE9A0A6777A838E3F1F006100B61CF88F2CA70940F5F9FA2AED9A5000C84B0F4A099A831043DB58005075DC2F71E9AA7836AD44108C7980C39BA187331C0B60F67B797107B940A1703827810D0028038052C440CF94FA78680C40
310
1900D080273F062601FCD4F191130C0001E07C007835D5412F00700080DC431F001E9A23052CFB01C01580E4104075F4AC9B2B0520E45D7303A0EFE72CDE700960DE0F00CE00F44EDB7507807A7DCF3A806BAEAB01B0ED5E01F448E00540CAA9B5AC375E15A036E1029E8360BA6E0BDEE5046C0E83A98A01C113003911BA01
310
BC4B0AD99C0A07007F00F4EDB01B00BB5683A07D003CF3D102B893421E46811AF23759315F009243002A2B3C00F0311324156C00B87B32345DF07838EA04C0F6F33E007CED69034000F8F36FFA7FA541360020BE1805446F353A1C0EE049113B0068088016BEB60E9F2462DD0518C05A2F684701724FD95E016C82A44100A2
310
421250035808C42280B50B28E97329995117181C42EE580330AB7A2E966B0056F9320300448CE3CAB8D6B252401E1560010045BDDB1AA08CD07B007240381D40AE29F1043237FE4601460054FB6B12900930004A0F9B06400F03816DCD7D28C8D60134FB8114F01AC0F9310004807CD9267C4001008B00B0DD06A665CB09D4
310
1C607ADF06801A03720D03A98E0759D4CAE0344530A600688531DA05BAD33FC5806C0BC03D0CB63961F7F92705C0F900B0CD7172B39BEA64EE4EFA1004C1C830D81C00E881782F97F404A01A9958ECCD231A00FE1D914100D05C3F754BEF2878D50875007D7A6CEF6688A7FF09C49D719D0B5C1FB8C67CAE20570A38FD76B8
310
4B382BF706AE12EBA3C0AC00B004A09A93C4B515591FFD5B424B00506583D6354200FB12323B39C176B93700D4EBB848099E5F23A4564B90CFBDC423124E94CF6B2BF80280F6007C783CFEB97E2A2A440240000800012000048000703400F7ABCA3E5856D65D1F00E695D741ADC26A08002CFE759A584E961754172F440CB0
310
AF0060B98FCBE9BA8801BCEEBC27005BBF70A380585D3EA6C201200004800010000280410007FDEBED7F5F57324AC86DB8390000000049454E44AE426082
  0
ENDSEC
  0
EOF
