  0
SECTION
  2
HEADER
  9
$ACADVER
  1
AC1009
  9
$INSBASE
 10
0.0
 20
0.0
 30
0.0
  9
$EXTMIN
 10
0.0
 20
0.0
 30
0.0
  9
$EXTMAX
 10
9450.0
 20
13275.0
 30
0.0
  9
$LIMMIN
 10
0.0
 20
0.0
  9
$LIMMAX
 10
297.0
 20
210.0
  9
$ORTHOMODE
 70
     1
  9
$REGENMODE
 70
     1
  9
$FILLMODE
 70
     0
  9
$QTEXTMODE
 70
     0
  9
$MIRRTEXT
 70
     1
  9
$DRAGMODE
 70
     2
  9
$LTSCALE
 40
100.0
  9
$OSMODE
 70
   545
  9
$ATTMODE
 70
     1
  9
$TEXTSIZE
 40
180.0
  9
$TRACEWID
 40
0.05
  9
$TEXTSTYLE
  7
STANDARD
  9
$CLAYER
  8
3
  9
$CELTYPE
  6
BYLAYER
  9
$CECOLOR
 62
   256
  9
$DIMSCALE
 40
45.0
  9
$DIMASZ
 40
2.0
  9
$DIMEXO
 40
0.5
  9
$DIMDLI
 40
10.0
  9
$DIMRND
 40
0.0
  9
$DIMDLE
 40
0.0
  9
$DIMEXE
 40
1.0
  9
$DIMTP
 40
1.0
  9
$DIMTM
 40
1.0
  9
$DIMTXT
 40
3.0
  9
$DIMCEN
 40
0.0
  9
$DIMTSZ
 40
0.0
  9
$DIMTOL
 70
     0
  9
$DIMLIM
 70
     0
  9
$DIMTIH
 70
     0
  9
$DIMTOH
 70
     0
  9
$DIMSE1
 70
     0
  9
$DIMSE2
 70
     0
  9
$DIMTAD
 70
     1
  9
$DIMZIN
 70
     8
  9
$DIMBLK
  1

  9
$DIMASO
 70
     1
  9
$DIMSHO
 70
     1
  9
$DIMPOST
  1

  9
$DIMAPOST
  1

  9
$DIMALT
 70
     0
  9
$DIMALTD
 70
     2
  9
$DIMALTF
 40
0.039
  9
$DIMLFAC
 40
1.0
  9
$DIMTOFL
 70
     1
  9
$DIMTVP
 40
0.0
  9
$DIMTIX
 70
     0
  9
$DIMSOXD
 70
     0
  9
$DIMSAH
 70
     1
  9
$DIMBLK1
  1
OPEN
  9
$DIMBLK2
  1
OPEN
  9
$DIMSTYLE
  2
IGA
  9
$DIMCLRD
 70
     0
  9
$DIMCLRE
 70
     0
  9
$DIMCLRT
 70
     0
  9
$DIMTFAC
 40
10.0
  9
$DIMGAP
 40
1.0
  9
$LUNITS
 70
     2
  9
$LUPREC
 70
     3
  9
$SKETCHINC
 40
0.1
  9
$FILLETRAD
 40
50.0
  9
$AUNITS
 70
     0
  9
$AUPREC
 70
     0
  9
$MENU
  1
acad
  9
$ELEVATION
 40
0.0
  9
$PELEVATION
 40
0.0
  9
$THICKNESS
 40
0.0
  9
$LIMCHECK
 70
     0
  9
$BLIPMODE
 70
     0
  9
$CHAMFERA
 40
0.5
  9
$CHAMFERB
 40
0.5
  9
$SKPOLY
 70
     0
  9
$TDCREATE
 40
2452331.406026504
  9
$TDUPDATE
 40
2455012.4486863422
  9
$TDINDWG
 40
0.0369385764
  9
$TDUSRTIMER
 40
0.0369385764
  9
$USRTIMER
 70
     1
  9
$ANGBASE
 50
0.0
  9
$ANGDIR
 70
     0
  9
$PDMODE
 70
     0
  9
$PDSIZE
 40
0.0
  9
$PLINEWID
 40
0.0
  9
$COORDS
 70
     2
  9
$SPLFRAME
 70
     0
  9
$SPLINETYPE
 70
     6
  9
$SPLINESEGS
 70
     8
  9
$ATTDIA
 70
     0
  9
$ATTREQ
 70
     1
  9
$HANDLING
 70
 22529
  9
$HANDSEED
  5
8124
  9
$SURFTAB1
 70
     6
  9
$SURFTAB2
 70
     6
  9
$SURFTYPE
 70
     6
  9
$SURFU
 70
     6
  9
$SURFV
 70
     6
  9
$UCSNAME
  2

  9
$UCSORG
 10
0.0
 20
0.0
 30
0.0
  9
$UCSXDIR
 10
1.0
 20
0.0
 30
0.0
  9
$UCSYDIR
 10
0.0
 20
1.0
 30
0.0
  9
$PUCSNAME
  2

  9
$PUCSORG
 10
0.0
 20
0.0
 30
0.0
  9
$PUCSXDIR
 10
1.0
 20
0.0
 30
0.0
  9
$PUCSYDIR
 10
0.0
 20
1.0
 30
0.0
  9
$USERI1
 70
     0
  9
$USERI2
 70
     0
  9
$USERI3
 70
     0
  9
$USERI4
 70
     0
  9
$USERI5
 70
     0
  9
$USERR1
 40
0.0
  9
$USERR2
 40
0.0
  9
$USERR3
 40
0.0
  9
$USERR4
 40
0.0
  9
$USERR5
 40
0.0
  9
$WORLDVIEW
 70
     1
  9
$SHADEDGE
 70
     3
  9
$SHADEDIF
 70
    70
  9
$TILEMODE
 70
     1
  9
$MAXACTVP
 70
    16
  9
$PLIMCHECK
 70
     0
  9
$PEXTMIN
 10
1.0000000000000000E+020
 20
1.0000000000000000E+020
 30
1.0000000000000000E+020
  9
$PEXTMAX
 10
-1.0000000000000000E+020
 20
-1.0000000000000000E+020
 30
-1.0000000000000000E+020
  9
$PLIMMIN
 10
0.0
 20
0.0
  9
$PLIMMAX
 10
12.0
 20
9.0
  9
$UNITMODE
 70
     0
  9
$VISRETAIN
 70
     0
  9
$PLINEGEN
 70
     0
  9
$PSLTSCALE
 70
     1
  0
ENDSEC
  0
SECTION
  2
TABLES
  0
TABLE
  2
VPORT
 70
     2
  0
VPORT
  2
*ACTIVE
 70
     0
 10
0.0
 20
0.0
 11
1.0
 21
1.0
 12
4725.0000220024922
 22
6637.5000309082689
 13
0.0
 23
0.0
 14
10.0
 24
10.0
 15
10.0
 25
10.0
 16
0.0
 26
0.0
 36
1.0
 17
0.0
 27
0.0
 37
0.0
 40
13384.18420285689
 41
1.6307901907356941
 42
50.0
 43
0.0
 44
0.0
 50
0.0
 51
0.0
 71
     0
 72
   100
 73
     1
 74
     0
 75
     0
 76
     0
 77
     0
 78
     0
  0
ENDTAB
  0
TABLE
  2
LTYPE
 70
     2
  0
LTYPE
  2
CONTINUOUS
 70
     0
  3
Solid line
 72
    65
 73
     0
 40
0.0
  0
LTYPE
  2
CENTER
 70
     0
  3
____ _ ____ _ ____ _ ____ _ ____ _ ____ _ ____ 
 72
    65
 73
     4
 40
2.0
 49
1.25
 49
-0.25
 49
0.25
 49
-0.25
  0
ENDTAB
  0
TABLE
  2
LAYER
 70
     6
  0
LAYER
  2
0
 70
     0
 62
     7
  6
CONTINUOUS
  0
LAYER
  2
3
 70
     0
 62
     2
  6
CONTINUOUS
  0
LAYER
  2
2
 70
     0
 62
     3
  6
CENTER
  0
LAYER
  2
1
 70
     0
 62
     4
  6
CONTINUOUS
  0
LAYER
  2
4
 70
     0
 62
     7
  6
CONTINUOUS
  0
LAYER
  2
DEFPOINTS
 70
     0
 62
     7
  6
CONTINUOUS
  0
ENDTAB
  0
TABLE
  2
STYLE
 70
     1
  0
STYLE
  2
STANDARD
 70
     0
 40
0.0
 41
1.0
 50
0.0
 71
     0
 42
180.0
  3
simplex.shx
  4
extfont.shx
  0
ENDTAB
  0
TABLE
  2
VIEW
 70
     0
  0
ENDTAB
  0
TABLE
  2
UCS
 70
     0
  0
ENDTAB
  0
TABLE
  2
APPID
 70
     1
  0
APPID
  2
ACAD
 70
     0
  0
ENDTAB
  0
TABLE
  2
DIMSTYLE
 70
     1
  0
DIMSTYLE
  2
IGA
 70
     0
  3

  4

  5

  6
OPEN
  7
OPEN
 40
2.0
 41
2.0
 42
0.5
 43
10.0
 44
1.0
 45
0.0
 46
0.0
 47
1.0
 48
1.0
140
3.0
141
0.0
142
0.0
143
0.03937
144
1.0
145
0.0
146
10.0
147
1.0
 71
     0
 72
     0
 73
     0
 74
     0
 75
     0
 76
     0
 77
     1
 78
     8
170
     0
171
     2
172
     0
173
     1
174
     0
175
     0
176
     0
177
     0
178
     0
  0
ENDTAB
  0
ENDSEC
  0
SECTION
  2
BLOCKS
  0
BLOCK
  8
0
  2
$MODEL_SPACE
 70
     0
 10
0.0
 20
0.0
 30
0.0
  3
$MODEL_SPACE
  1

  0
ENDBLK
  5
1B
  8
0
  0
BLOCK
 67
     1
  8
0
  2
$PAPER_SPACE
 70
     0
 10
0.0
 20
0.0
 30
0.0
  3
$PAPER_SPACE
  1

  0
ENDBLK
  5
18
 67
     1
  8
0
  0
BLOCK
  8
0
  2
_OPEN
 70
     0
 10
0.0
 20
0.0
 30
0.0
  3
_OPEN
  1

  0
LINE
  5
79FD
  8
0
  6
BYBLOCK
 62
     0
 10
-1.0
 20
0.1666666666666666
 30
0.0
 11
0.0
 21
0.0
 31
0.0
  0
LINE
  5
79FE
  8
0
  6
BYBLOCK
 62
     0
 10
0.0
 20
0.0
 30
0.0
 11
-1.0
 21
-0.1666666666666666
 31
0.0
  0
LINE
  5
79FF
  8
0
  6
BYBLOCK
 62
     0
 10
0.0
 20
0.0
 30
0.0
 11
-1.0
 21
0.0
 31
0.0
  0
ENDBLK
  5
7A01
  8
0
  0
BLOCK
  8
0
  2
*D1
 70
     1
 10
0.0
 20
0.0
 30
0.0
  3
*D1
  1

  0
LINE
  5
8052
  8
3
 62
     0
 10
4241.6006158877799
 20
9371.3599351291105
 30
0.0
 11
4241.6006158877799
 21
9621.9388581004023
 31
0.0
  0
LINE
  5
8053
  8
3
 62
     0
 10
2341.600615887663
 20
9371.3599351291105
 30
0.0
 11
2341.600615887663
 21
9621.9388581004023
 31
0.0
  0
LINE
  5
8054
  8
3
 62
     0
 10
4151.6006158877799
 20
9576.9388581004023
 30
0.0
 11
2431.600615887663
 21
9576.9388581004023
 31
0.0
  0
INSERT
  5
8055
  8
3
 62
     0
  2
_OPEN
 10
4241.6006158877799
 20
9576.9388581004023
 30
0.0
 41
90.0
 42
90.0
 43
90.0
  0
INSERT
  5
8056
  8
3
 62
     0
  2
_OPEN
 10
2341.600615887663
 20
9576.9388581004023
 30
0.0
 41
90.0
 42
90.0
 43
90.0
 50
180.0
  0
TEXT
  8
3
  40
135
  5
810E
  62
0
  72
0
  71
0
 10
3021.27
 20
9450.49
 30
0.000000
  1
1900
  0
POINT
  5
8058
  8
DEFPOINTS
 62
     0
 10
4241.6006158877799
 20
9348.8599351291086
 30
0.0
  0
POINT
  5
8059
  8
DEFPOINTS
 62
     0
 10
2341.600615887663
 20
9348.8599351291086
 30
0.0
  0
POINT
  5
805A
  8
DEFPOINTS
 62
     0
 10
2341.600615887663
 20
9576.9388581004023
 30
0.0
  0
ENDBLK
  5
7BC1
  8
0
  0
BLOCK
  8
0
  2
*D2
 70
     1
 10
0.0
 20
0.0
 30
0.0
  3
*D2
  1

  0
LINE
  5
805B
  8
3
 62
     0
 10
1141.6007921943419
 20
8871.3599351291105
 30
0.0
 11
1141.6007921943419
 21
9621.9388581004023
 31
0.0
  0
LINE
  5
805C
  8
3
 62
     0
 10
2251.600615887663
 20
9576.9388581004023
 30
0.0
 11
1231.6007921943431
 21
9576.9388581004023
 31
0.0
  0
INSERT
  5
805D
  8
3
 62
     0
  2
_OPEN
 10
2341.600615887663
 20
9576.9388581004023
 30
0.0
 41
90.0
 42
90.0
 43
90.0
  0
INSERT
  5
805E
  8
3
 62
     0
  2
_OPEN
 10
1141.6007921943419
 20
9576.9388581004023
 30
0.0
 41
90.0
 42
90.0
 43
90.0
 50
180.0
  0
TEXT
  8
3
  40
135
  5
810F
  62
0
  72
0
  71
0
 10
1471.60
 20
9450.49
 30
0.000000
  1
1200
  0
POINT
  5
8060
  8
DEFPOINTS
 62
     0
 10
2341.600615887663
 20
9348.8599351291086
 30
0.0
  0
POINT
  5
8061
  8
DEFPOINTS
 62
     0
 10
1141.6007921943419
 20
8848.8599351291086
 30
0.0
  0
POINT
  5
8062
  8
DEFPOINTS
 62
     0
 10
1141.6007921943419
 20
9576.9388581004023
 30
0.0
  0
ENDBLK
  5
7BCD
  8
0
  0
BLOCK
  8
0
  2
*D3
 70
     1
 10
0.0
 20
0.0
 30
0.0
  3
*D3
  1

  0
LINE
  5
8063
  8
3
 62
     0
 10
1119.1007921943419
 20
8848.8599351291086
 30
0.0
 11
702.82563379551868
 21
8848.8599351291086
 31
0.0
  0
LINE
  5
8064
  8
3
 62
     0
 10
1119.1011800692361
 20
7748.8599351291077
 30
0.0
 11
702.82563379551846
 21
7748.8599351291077
 31
0.0
  0
LINE
  5
8065
  8
3
 62
     0
 10
747.82563379551868
 20
8758.8599351291086
 30
0.0
 11
747.82563379551846
 21
7838.8599351291086
 31
0.0
  0
INSERT
  5
8066
  8
3
 62
     0
  2
_OPEN
 10
747.82563379551868
 20
8848.8599351291086
 30
0.0
 41
90.0
 42
90.0
 43
90.0
 50
90.0
  0
INSERT
  5
8067
  8
3
 62
     0
  2
_OPEN
 10
747.82563379551846
 20
7748.8599351291077
 30
0.0
 41
90.0
 42
90.0
 43
90.0
 50
270.0
  0
TEXT
  8
3
  40
135
  5
8110
  62
0
  72
0
  71
0
 10
365.326
 20
8056.40
 30
0.000000
  1
1100
  0
POINT
  5
8069
  8
DEFPOINTS
 62
     0
 10
1141.6007921943419
 20
8848.8599351291086
 30
0.0
  0
POINT
  5
806A
  8
DEFPOINTS
 62
     0
 10
1141.6011800692361
 20
7748.8599351291077
 30
0.0
  0
POINT
  5
806B
  8
DEFPOINTS
 62
     0
 10
747.82563379551846
 20
7748.8599351291077
 30
0.0
  0
ENDBLK
  5
7BDA
  8
0
  0
BLOCK
  8
0
  2
*D4
 70
     1
 10
0.0
 20
0.0
 30
0.0
  3
*D4
  1

  0
LINE
  5
806C
  8
3
 62
     0
 10
4264.1006158877799
 20
9348.8599351291086
 30
0.0
 11
4611.6313104836599
 21
9348.8599351291086
 31
0.0
  0
LINE
  5
806D
  8
3
 62
     0
 10
4264.1011800694423
 20
7748.8599351291077
 30
0.0
 11
4611.6313104836599
 21
7748.8599351291077
 31
0.0
  0
LINE
  5
806E
  8
3
 62
     0
 10
4566.6313104836599
 20
9258.8599351291086
 30
0.0
 11
4566.6313104836599
 21
7838.8599351291086
 31
0.0
  0
INSERT
  5
806F
  8
3
 62
     0
  2
_OPEN
 10
4566.6313104836599
 20
9348.8599351291086
 30
0.0
 41
90.0
 42
90.0
 43
90.0
 50
90.0
  0
INSERT
  5
8070
  8
3
 62
     0
  2
_OPEN
 10
4566.6313104836599
 20
7748.8599351291077
 30
0.0
 41
90.0
 42
90.0
 43
90.0
 50
270.0
  0
TEXT
  8
3
  40
135
  5
8111
  62
0
  72
0
  71
0
 10
4184.13
 20
8303.98
 30
0.000000
  1
1600
  0
POINT
  5
8072
  8
DEFPOINTS
 62
     0
 10
4241.6006158877799
 20
9348.8599351291086
 30
0.0
  0
POINT
  5
8073
  8
DEFPOINTS
 62
     0
 10
4241.6011800694432
 20
7748.8599351291077
 30
0.0
  0
POINT
  5
8074
  8
DEFPOINTS
 62
     0
 10
4566.6313104836599
 20
7748.8599351291077
 30
0.0
  0
ENDBLK
  5
7BE7
  8
0
  0
BLOCK
  8
0
  2
*D5
 70
     1
 10
0.0
 20
0.0
 30
0.0
  3
*D5
  1

  0
LINE
  5
8075
  8
3
 62
     0
 10
4241.6011800694432
 20
7726.3599351291086
 30
0.0
 11
4241.6011800694432
 21
7274.5861457622013
 31
0.0
  0
LINE
  5
8076
  8
3
 62
     0
 10
1141.6011800692361
 20
7726.3599351291086
 30
0.0
 11
1141.6011800692361
 21
7274.5861457622013
 31
0.0
  0
LINE
  5
8077
  8
3
 62
     0
 10
4151.6011800694423
 20
7319.5861457622013
 30
0.0
 11
1231.6011800692361
 21
7319.5861457622013
 31
0.0
  0
INSERT
  5
8078
  8
3
 62
     0
  2
_OPEN
 10
4241.6011800694432
 20
7319.5861457622013
 30
0.0
 41
90.0
 42
90.0
 43
90.0
  0
INSERT
  5
8079
  8
3
 62
     0
  2
_OPEN
 10
1141.6011800692361
 20
7319.5861457622013
 30
0.0
 41
90.0
 42
90.0
 43
90.0
 50
180.0
  0
TEXT
  8
3
  40
135
  5
8112
  62
0
  72
0
  71
0
 10
2489.26
 20
7193.14
 30
0.000000
  1
3100
  0
POINT
  5
807B
  8
DEFPOINTS
 62
     0
 10
4241.6011800694432
 20
7748.8599351291077
 30
0.0
  0
POINT
  5
807C
  8
DEFPOINTS
 62
     0
 10
1141.6011800692361
 20
7748.8599351291077
 30
0.0
  0
POINT
  5
807D
  8
DEFPOINTS
 62
     0
 10
1141.6011800692361
 20
7319.5861457622013
 30
0.0
  0
ENDBLK
  5
7BF4
  8
0
  0
BLOCK
  8
0
  2
*D6
 70
     1
 10
0.0
 20
0.0
 30
0.0
  3
*D6
  1

  0
LINE
  5
807E
  8
3
 62
     0
 10
4336.6014331561528
 20
6091.0489307527123
 30
0.0
 11
4336.6014331561528
 21
6426.5113420833441
 31
0.0
  0
LINE
  5
807F
  8
3
 62
     0
 10
3291.601436555577
 20
6051.2840723405352
 30
0.0
 11
3291.601436555577
 21
6426.5113420833441
 31
0.0
  0
LINE
  5
8080
  8
3
 62
     0
 10
4246.6014331561528
 20
6381.5113420833441
 30
0.0
 11
3381.601436555577
 21
6381.5113420833441
 31
0.0
  0
INSERT
  5
8081
  8
3
 62
     0
  2
_OPEN
 10
4336.6014331561528
 20
6381.5113420833441
 30
0.0
 41
90.0
 42
90.0
 43
90.0
  0
INSERT
  5
8082
  8
3
 62
     0
  2
_OPEN
 10
3291.601436555577
 20
6381.5113420833441
 30
0.0
 41
90.0
 42
90.0
 43
90.0
 50
180.0
  0
TEXT
  8
3
  40
135
  5
8113
  62
0
  72
0
  71
0
 10
3536.28
 20
6255.06
 30
0.000000
  1
1045
  0
POINT
  5
8084
  8
DEFPOINTS
 62
     0
 10
4336.6014331561528
 20
6068.5489307527123
 30
0.0
  0
POINT
  5
8085
  8
DEFPOINTS
 62
     0
 10
3291.601436555577
 20
6028.7840723405352
 30
0.0
  0
POINT
  5
8086
  8
DEFPOINTS
 62
     0
 10
3291.601436555577
 20
6381.5113420833441
 30
0.0
  0
ENDBLK
  5
7C01
  8
0
  0
BLOCK
  8
0
  2
*D7
 70
     1
 10
0.0
 20
0.0
 30
0.0
  3
*D7
  1

  0
LINE
  5
8087
  8
3
 62
     0
 10
1920.6014331561539
 20
4447.0479307527094
 30
0.0
 11
1920.6014331561539
 21
6426.5113420833441
 31
0.0
  0
LINE
  5
8088
  8
3
 62
     0
 10
3201.601436555577
 20
6381.5113420833441
 30
0.0
 11
2010.6014331561551
 21
6381.5113420833441
 31
0.0
  0
INSERT
  5
8089
  8
3
 62
     0
  2
_OPEN
 10
3291.601436555577
 20
6381.5113420833441
 30
0.0
 41
90.0
 42
90.0
 43
90.0
  0
INSERT
  5
808A
  8
3
 62
     0
  2
_OPEN
 10
1920.6014331561539
 20
6381.5113420833441
 30
0.0
 41
90.0
 42
90.0
 43
90.0
 50
180.0
  0
TEXT
  8
3
  40
135
  5
8114
  62
0
  72
0
  71
0
 10
2336.10
 20
6255.06
 30
0.000000
  1
1371
  0
POINT
  5
808C
  8
DEFPOINTS
 62
     0
 10
3291.601436555577
 20
6028.7840723405352
 30
0.0
  0
POINT
  5
808D
  8
DEFPOINTS
 62
     0
 10
1920.6014331561539
 20
4424.5479307527094
 30
0.0
  0
POINT
  5
808E
  8
DEFPOINTS
 62
     0
 10
1920.6014331561539
 20
6381.5113420833441
 30
0.0
  0
ENDBLK
  5
7C0E
  8
0
  0
BLOCK
  8
0
  2
*D8
 70
     1
 10
0.0
 20
0.0
 30
0.0
  3
*D8
  1

  0
LINE
  5
808F
  8
3
 62
     0
 10
4359.1014331561528
 20
6003.5489307527114
 30
0.0
 11
4716.1672020180486
 21
6003.5489307527114
 31
0.0
  0
LINE
  5
8090
  8
3
 62
     0
 10
4359.1014331561537
 20
4353.5489307527114
 30
0.0
 11
4716.1672020180486
 21
4353.5489307527114
 31
0.0
  0
LINE
  5
8091
  8
3
 62
     0
 10
4671.1672020180486
 20
5913.5489307527114
 30
0.0
 11
4671.1672020180486
 21
4443.5489307527114
 31
0.0
  0
INSERT
  5
8092
  8
3
 62
     0
  2
_OPEN
 10
4671.1672020180486
 20
6003.5489307527114
 30
0.0
 41
90.0
 42
90.0
 43
90.0
 50
90.0
  0
INSERT
  5
8093
  8
3
 62
     0
  2
_OPEN
 10
4671.1672020180486
 20
4353.5489307527114
 30
0.0
 41
90.0
 42
90.0
 43
90.0
 50
270.0
  0
TEXT
  8
3
  40
135
  5
8115
  62
0
  72
0
  71
0
 10
4288.67
 20
4910.69
 30
0.000000
  1
1650
  0
POINT
  5
8095
  8
DEFPOINTS
 62
     0
 10
4336.6014331561528
 20
6003.5489307527114
 30
0.0
  0
POINT
  5
8096
  8
DEFPOINTS
 62
     0
 10
4336.6014331561537
 20
4353.5489307527114
 30
0.0
  0
POINT
  5
8097
  8
DEFPOINTS
 62
     0
 10
4671.1672020180486
 20
4353.5489307527114
 30
0.0
  0
ENDBLK
  5
7C1B
  8
0
  0
BLOCK
  8
0
  2
*D9
 70
     1
 10
0.0
 20
0.0
 30
0.0
  3
*D9
  1

  0
LINE
  5
8098
  8
3
 62
     0
 10
4359.1014331561528
 20
6003.5489307527114
 30
0.0
 11
4981.6291018051352
 21
6003.5489307527114
 31
0.0
  0
LINE
  5
8099
  8
3
 62
     0
 10
4453.7766593585329
 20
4308.5479307527094
 30
0.0
 11
4981.6291018051352
 21
4308.5479307527094
 31
0.0
  0
LINE
  5
809A
  8
3
 62
     0
 10
4936.6291018051352
 20
5913.5489307527114
 30
0.0
 11
4936.6291018051352
 21
4398.5479307527094
 31
0.0
  0
INSERT
  5
809B
  8
3
 62
     0
  2
_OPEN
 10
4936.6291018051352
 20
6003.5489307527114
 30
0.0
 41
90.0
 42
90.0
 43
90.0
 50
90.0
  0
INSERT
  5
809C
  8
3
 62
     0
  2
_OPEN
 10
4936.6291018051352
 20
4308.5479307527094
 30
0.0
 41
90.0
 42
90.0
 43
90.0
 50
270.0
  0
TEXT
  8
3
  40
135
  5
8116
  62
0
  72
0
  71
0
 10
4554.13
 20
4888.59
 30
0.000000
  1
1695
  0
POINT
  5
809E
  8
DEFPOINTS
 62
     0
 10
4336.6014331561528
 20
6003.5489307527114
 30
0.0
  0
POINT
  5
809F
  8
DEFPOINTS
 62
     0
 10
4431.2766593585329
 20
4308.5479307527094
 30
0.0
  0
POINT
  5
80A0
  8
DEFPOINTS
 62
     0
 10
4936.6291018051352
 20
4308.5479307527094
 30
0.0
  0
ENDBLK
  5
7C28
  8
0
  0
BLOCK
  8
0
  2
*D10
 70
     1
 10
0.0
 20
0.0
 30
0.0
  3
*D10
  1

  0
LINE
  5
80A1
  8
3
 62
     0
 10
4264.1014585068287
 20
3138.5479307526662
 30
0.0
 11
4981.6291018051343
 21
3138.5479307526662
 31
0.0
  0
LINE
  5
80A2
  8
3
 62
     0
 10
4936.6291018051343
 20
4218.5479307527094
 30
0.0
 11
4936.6291018051343
 21
3228.5479307526662
 31
0.0
  0
INSERT
  5
80A3
  8
3
 62
     0
  2
_OPEN
 10
4936.6291018051343
 20
4308.5479307527094
 30
0.0
 41
90.0
 42
90.0
 43
90.0
 50
90.0
  0
INSERT
  5
80A4
  8
3
 62
     0
  2
_OPEN
 10
4936.6291018051343
 20
3138.5479307526662
 30
0.0
 41
90.0
 42
90.0
 43
90.0
 50
270.0
  0
TEXT
  8
3
  40
135
  5
8117
  62
0
  72
0
  71
0
 10
4554.13
 20
3484.60
 30
0.000000
  1
1170
  0
POINT
  5
80A6
  8
DEFPOINTS
 62
     0
 10
4431.2766593585329
 20
4308.5479307527094
 30
0.0
  0
POINT
  5
80A7
  8
DEFPOINTS
 62
     0
 10
4241.6014585068287
 20
3138.5479307526662
 30
0.0
  0
POINT
  5
80A8
  8
DEFPOINTS
 62
     0
 10
4936.6291018051343
 20
3138.5479307526662
 30
0.0
  0
ENDBLK
  5
7C34
  8
0
  0
BLOCK
  8
0
  2
*D11
 70
     1
 10
0.0
 20
0.0
 30
0.0
  3
*D11
  1

  0
LINE
  5
7ED0
  8
3
 62
     0
 10
4264.101489626787
 20
2998.547930752658
 30
0.0
 11
4981.6291018051343
 21
2998.547930752658
 31
0.0
  0
LINE
  5
7ED1
  8
3
 62
     0
 10
4936.6291018051343
 20
3228.5479307526662
 30
0.0
 11
4936.6291018051343
 21
3318.5479307526671
 31
0.0
  0
LINE
  5
7ED2
  8
3
 62
     0
 10
4936.6291018051343
 20
2908.547930752658
 30
0.0
 11
4936.6291018051343
 21
2818.547930752658
 31
0.0
  0
TEXT
  5
7ED3
  8
3
 62
     0
 10
5196.9862446622774
 20
2967.7262428742501
 30
0.0
 40
135.0
  1
(140)
 50
90.0
  0
LINE
  5
7ED4
  8
3
 62
     0
 10
4936.6291018051343
 20
3138.5479307526662
 30
0.0
 11
4936.6291018051343
 21
2998.547930752658
 31
0.0
  0
INSERT
  5
7ED5
  8
3
 62
     0
  2
_OPEN
 10
4936.6291018051343
 20
3138.5479307526662
 30
0.0
 41
90.0
 42
90.0
 43
90.0
 50
270.0
  0
INSERT
  5
7ED6
  8
3
 62
     0
  2
_DOT
 10
4936.6291018051343
 20
2998.547930752658
 30
0.0
 41
90.0
 42
90.0
 43
90.0
 50
90.0
  0
POINT
  5
7ED7
  8
DEFPOINTS
 62
     0
 10
4241.6014585068287
 20
3138.5479307526662
 30
0.0
  0
POINT
  5
7ED8
  8
DEFPOINTS
 62
     0
 10
4241.601489626787
 20
2998.547930752658
 30
0.0
  0
POINT
  5
7ED9
  8
DEFPOINTS
 62
     0
 10
4936.6291018051343
 20
2998.547930752658
 30
0.0
  0
ENDBLK
  5
7E20
  8
0
  0
BLOCK
  8
0
  2
*D12
 70
     1
 10
0.0
 20
0.0
 30
0.0
  3
*D12
  1

  0
LINE
  5
80A9
  8
3
 62
     0
 10
4264.101489626787
 20
2998.547930752658
 30
0.0
 11
4981.6291018051343
 21
2998.547930752658
 31
0.0
  0
LINE
  5
80AA
  8
3
 62
     0
 10
4264.1014908603192
 20
2923.5479307526539
 30
0.0
 11
4981.6291018051343
 21
2923.5479307526539
 31
0.0
  0
LINE
  5
80AB
  8
3
 62
     0
 10
4936.6291018051343
 20
3088.547930752658
 30
0.0
 11
4936.6291018051343
 21
3178.547930752658
 31
0.0
  0
LINE
  5
80AC
  8
3
 62
     0
 10
4936.6291018051343
 20
2833.5479307526539
 30
0.0
 11
4936.6291018051343
 21
2434.9765021812259
 31
0.0
  0
LINE
  5
80AD
  8
3
 62
     0
 10
4936.6291018051343
 20
2998.547930752658
 30
0.0
 11
4936.6291018051343
 21
2923.5479307526539
 31
0.0
  0
INSERT
  5
80AE
  8
3
 62
     0
  2
_DOT
 10
4936.6291018051343
 20
2998.547930752658
 30
0.0
 41
90.0
 42
90.0
 43
90.0
 50
270.0
  0
INSERT
  5
80AF
  8
3
 62
     0
  2
_OPEN
 10
4936.6291018051343
 20
2923.5479307526539
 30
0.0
 41
90.0
 42
90.0
 43
90.0
 50
90.0
  0
TEXT
  8
3
  40
135
  5
8118
  62
0
  72
0
  71
0
 10
4554.13
 20
2350.31
 30
0.000000
  1
75
  0
POINT
  5
80B1
  8
DEFPOINTS
 62
     0
 10
4241.601489626787
 20
2998.547930752658
 30
0.0
  0
POINT
  5
80B2
  8
DEFPOINTS
 62
     0
 10
4241.6014908603192
 20
2923.5479307526539
 30
0.0
  0
POINT
  5
80B3
  8
DEFPOINTS
 62
     0
 10
4936.6291018051343
 20
2923.5479307526539
 30
0.0
  0
ENDBLK
  5
7E08
  8
0
  0
BLOCK
  8
0
  2
_DOT
 70
     0
 10
0.0
 20
0.0
 30
0.0
  3
_DOT
  1

  0
LINE
  5
7D49
  8
0
  6
BYBLOCK
 62
     0
 10
0.0
 20
0.0
 30
0.0
 11
-1.0
 21
-0.0000000000000284
 31
0.0
  0
POLYLINE
  5
7D4A
  8
0
  6
BYBLOCK
 62
     0
 66
     1
 10
0.0
 20
0.0
 30
0.0
 70
     1
 40
0.1666666666666666
 41
0.1666666666666666
  0
VERTEX
  5
80F9
  8
0
  6
BYBLOCK
 62
     0
 10
-0.0833333333333286
 20
-0.0000000000000284
 30
0.0
 42
1.0
  0
VERTEX
  5
80FA
  8
0
  6
BYBLOCK
 62
     0
 10
0.0833333333333286
 20
-0.0000000000000284
 30
0.0
 42
1.0
  0
SEQEND
  5
80FB
  8
0
  6
BYBLOCK
 62
     0
  0
ENDBLK
  5
7C8A
  8
0
  0
BLOCK
  8
0
  2
*D14
 70
     1
 10
0.0
 20
0.0
 30
0.0
  3
*D14
  1

  0
LINE
  5
80B4
  8
3
 62
     0
 10
4241.6014908603192
 20
2901.0479307526548
 30
0.0
 11
4241.6014908603192
 21
2517.730386593812
 31
0.0
  0
LINE
  5
80B5
  8
3
 62
     0
 10
3291.6014934663231
 20
2739.3039125076202
 30
0.0
 11
3291.6014934663231
 21
2517.730386593812
 31
0.0
  0
LINE
  5
80B6
  8
3
 62
     0
 10
4151.6014908603192
 20
2562.730386593812
 30
0.0
 11
3381.6014934663231
 21
2562.730386593812
 31
0.0
  0
INSERT
  5
80B7
  8
3
 62
     0
  2
_OPEN
 10
4241.6014908603192
 20
2562.730386593812
 30
0.0
 41
90.0
 42
90.0
 43
90.0
  0
INSERT
  5
80B8
  8
3
 62
     0
  2
_OPEN
 10
3291.6014934663231
 20
2562.730386593812
 30
0.0
 41
90.0
 42
90.0
 43
90.0
 50
180.0
  0
TEXT
  8
3
  40
135
  5
8119
  62
0
  72
0
  71
0
 10
3527.36
 20
2436.28
 30
0.000000
  1
950
  0
POINT
  5
80BA
  8
DEFPOINTS
 62
     0
 10
4241.6014908603192
 20
2923.5479307526539
 30
0.0
  0
POINT
  5
80BB
  8
DEFPOINTS
 62
     0
 10
3291.6014934663231
 20
2761.8039125076202
 30
0.0
  0
POINT
  5
80BC
  8
DEFPOINTS
 62
     0
 10
3291.6014934663231
 20
2562.730386593812
 30
0.0
  0
ENDBLK
  5
7CAF
  8
0
  0
BLOCK
  8
0
  2
*D15
 70
     1
 10
0.0
 20
0.0
 30
0.0
  3
*D15
  1

  0
LINE
  5
80BD
  8
3
 62
     0
 10
1141.601490860312
 20
2901.0487049430799
 30
0.0
 11
1141.601490860312
 21
2517.730386593812
 31
0.0
  0
LINE
  5
80BE
  8
3
 62
     0
 10
3201.6014934663231
 20
2562.730386593812
 30
0.0
 11
1231.6014908603131
 21
2562.730386593812
 31
0.0
  0
INSERT
  5
80BF
  8
3
 62
     0
  2
_OPEN
 10
3291.6014934663231
 20
2562.730386593812
 30
0.0
 41
90.0
 42
90.0
 43
90.0
  0
INSERT
  5
80C0
  8
3
 62
     0
  2
_OPEN
 10
1141.601490860312
 20
2562.730386593812
 30
0.0
 41
90.0
 42
90.0
 43
90.0
 50
180.0
  0
TEXT
  8
3
  40
135
  5
811A
  62
0
  72
0
  71
0
 10
1946.60
 20
2436.28
 30
0.000000
  1
2150
  0
POINT
  5
80C2
  8
DEFPOINTS
 62
     0
 10
3291.6014934663231
 20
2761.8039125076202
 30
0.0
  0
POINT
  5
80C3
  8
DEFPOINTS
 62
     0
 10
1141.601490860312
 20
2923.5487049430799
 30
0.0
  0
POINT
  5
80C4
  8
DEFPOINTS
 62
     0
 10
1141.601490860312
 20
2562.730386593812
 30
0.0
  0
ENDBLK
  5
7CBB
  8
0
  0
BLOCK
  8
0
  2
*D16
 70
     1
 10
0.0
 20
0.0
 30
0.0
  3
*D16
  1

  0
LINE
  5
80C5
  8
3
 62
     0
 10
6163.7076748482614
 20
2901.0459582264839
 30
0.0
 11
6163.7076748482614
 21
2528.782163248412
 31
0.0
  0
LINE
  5
80C6
  8
3
 62
     0
 10
7094.7076764170961
 20
2829.733786392404
 30
0.0
 11
7094.7076764170961
 21
2528.782163248412
 31
0.0
  0
LINE
  5
80C7
  8
3
 62
     0
 10
6253.7076748482614
 20
2573.782163248412
 30
0.0
 11
7004.707676417097
 21
2573.782163248412
 31
0.0
  0
INSERT
  5
80C8
  8
3
 62
     0
  2
_OPEN
 10
6163.7076748482614
 20
2573.782163248412
 30
0.0
 41
90.0
 42
90.0
 43
90.0
 50
180.0
  0
INSERT
  5
80C9
  8
3
 62
     0
  2
_OPEN
 10
7094.7076764170961
 20
2573.782163248412
 30
0.0
 41
90.0
 42
90.0
 43
90.0
  0
TEXT
  8
3
  40
135
  5
811B
  62
0
  72
0
  71
0
 10
6363.21
 20
2447.33
 30
0.000000
  1
931
  0
POINT
  5
80CB
  8
DEFPOINTS
 62
     0
 10
6163.7076748482614
 20
2923.5459582264848
 30
0.0
  0
POINT
  5
80CC
  8
DEFPOINTS
 62
     0
 10
7094.7076764170961
 20
2852.233786392404
 30
0.0
  0
POINT
  5
80CD
  8
DEFPOINTS
 62
     0
 10
7094.7076764170961
 20
2573.782163248412
 30
0.0
  0
ENDBLK
  5
7CC8
  8
0
  0
BLOCK
  8
0
  2
*D17
 70
     1
 10
0.0
 20
0.0
 30
0.0
  3
*D17
  1

  0
LINE
  5
80CE
  8
3
 62
     0
 10
7763.7076748482677
 20
2901.0456043108611
 30
0.0
 11
7763.7076748482677
 21
2528.782163248412
 31
0.0
  0
LINE
  5
80CF
  8
3
 62
     0
 10
7184.7076764170961
 20
2573.782163248412
 30
0.0
 11
7673.7076748482687
 21
2573.782163248412
 31
0.0
  0
INSERT
  5
80D0
  8
3
 62
     0
  2
_OPEN
 10
7094.7076764170961
 20
2573.782163248412
 30
0.0
 41
90.0
 42
90.0
 43
90.0
 50
180.0
  0
INSERT
  5
80D1
  8
3
 62
     0
  2
_OPEN
 10
7763.7076748482677
 20
2573.782163248412
 30
0.0
 41
90.0
 42
90.0
 43
90.0
  0
TEXT
  8
3
  40
135
  5
811C
  62
0
  72
0
  71
0
 10
7159.21
 20
2447.33
 30
0.000000
  1
669
  0
POINT
  5
80D3
  8
DEFPOINTS
 62
     0
 10
7094.7076764170961
 20
2852.233786392404
 30
0.0
  0
POINT
  5
80D4
  8
DEFPOINTS
 62
     0
 10
7763.7076748482677
 20
2923.5456043108611
 30
0.0
  0
POINT
  5
80D5
  8
DEFPOINTS
 62
     0
 10
7763.7076748482677
 20
2573.782163248412
 30
0.0
  0
ENDBLK
  5
7CD4
  8
0
  0
BLOCK
  8
0
  2
*D18
 70
     1
 10
0.0
 20
0.0
 30
0.0
  3
*D18
  1

  0
LINE
  5
80D6
  8
3
 62
     0
 10
6504.7075220183988
 20
6026.0479582272146
 30
0.0
 11
6504.7075220183988
 21
6290.8163495194749
 31
0.0
  0
LINE
  5
80D7
  8
3
 62
     0
 10
7684.7075220183988
 20
6026.0479582272137
 30
0.0
 11
7684.7075220183988
 21
6290.8163495194749
 31
0.0
  0
LINE
  5
80D8
  8
3
 62
     0
 10
6594.7075220183997
 20
6245.8163495194758
 30
0.0
 11
7594.7075220183997
 21
6245.8163495194758
 31
0.0
  0
INSERT
  5
80D9
  8
3
 62
     0
  2
_OPEN
 10
6504.7075220183988
 20
6245.8163495194758
 30
0.0
 41
90.0
 42
90.0
 43
90.0
 50
180.0
  0
INSERT
  5
80DA
  8
3
 62
     0
  2
_OPEN
 10
7684.7075220183988
 20
6245.8163495194758
 30
0.0
 41
90.0
 42
90.0
 43
90.0
  0
TEXT
  8
3
  40
135
  5
811D
  62
0
  72
0
  71
0
 10
6824.80
 20
6119.37
 30
0.000000
  1
1180
  0
POINT
  5
80DC
  8
DEFPOINTS
 62
     0
 10
6504.7075220183988
 20
6003.5479582272146
 30
0.0
  0
POINT
  5
80DD
  8
DEFPOINTS
 62
     0
 10
7684.7075220183988
 20
6003.5479582272137
 30
0.0
  0
POINT
  5
80DE
  8
DEFPOINTS
 62
     0
 10
7684.7075220183988
 20
6245.8163495194758
 30
0.0
  0
ENDBLK
  5
7CE1
  8
0
  0
BLOCK
  8
0
  2
*D19
 70
     1
 10
0.0
 20
0.0
 30
0.0
  3
*D19
  1

  0
LINE
  5
80DF
  8
3
 62
     0
 10
7819.7115220183987
 20
5196.043958227212
 30
0.0
 11
7819.7115220183987
 21
6645.3998632488301
 31
0.0
  0
LINE
  5
80E0
  8
3
 62
     0
 10
7094.7075337226233
 20
6466.3713075726828
 30
0.0
 11
7094.7075337226233
 21
6645.3998632488301
 31
0.0
  0
LINE
  5
80E1
  8
3
 62
     0
 10
7729.7115220183978
 20
6600.3998632488292
 30
0.0
 11
7184.7075337226242
 21
6600.3998632488292
 31
0.0
  0
INSERT
  5
80E2
  8
3
 62
     0
  2
_OPEN
 10
7819.7115220183987
 20
6600.3998632488292
 30
0.0
 41
90.0
 42
90.0
 43
90.0
  0
INSERT
  5
80E3
  8
3
 62
     0
  2
_OPEN
 10
7094.7075337226233
 20
6600.3998632488292
 30
0.0
 41
90.0
 42
90.0
 43
90.0
 50
180.0
  0
TEXT
  8
3
  40
135
  5
811E
  62
0
  72
0
  71
0
 10
7188.12
 20
6473.95
 30
0.000000
  1
725
  0
POINT
  5
80E5
  8
DEFPOINTS
 62
     0
 10
7819.7115220183987
 20
5173.543958227212
 30
0.0
  0
POINT
  5
80E6
  8
DEFPOINTS
 62
     0
 10
7094.7075337226233
 20
6443.8713075726837
 30
0.0
  0
POINT
  5
80E7
  8
DEFPOINTS
 62
     0
 10
7094.7075337226233
 20
6600.3998632488292
 30
0.0
  0
ENDBLK
  5
7DEC
  8
0
  0
BLOCK
  8
0
  2
*D20
 70
     1
 10
0.0
 20
0.0
 30
0.0
  3
*D20
  1

  0
LINE
  5
80E8
  8
3
 62
     0
 10
6114.7075004250046
 20
4781.0479307527094
 30
0.0
 11
6114.7075004250046
 21
6645.3998632488301
 31
0.0
  0
LINE
  5
80E9
  8
3
 62
     0
 10
7004.7075337226252
 20
6600.3998632488292
 30
0.0
 11
6204.7075004250046
 21
6600.3998632488292
 31
0.0
  0
INSERT
  5
80EA
  8
3
 62
     0
  2
_OPEN
 10
7094.7075337226233
 20
6600.3998632488292
 30
0.0
 41
90.0
 42
90.0
 43
90.0
  0
INSERT
  5
80EB
  8
3
 62
     0
  2
_OPEN
 10
6114.7075004250046
 20
6600.3998632488292
 30
0.0
 41
90.0
 42
90.0
 43
90.0
 50
180.0
  0
TEXT
  8
3
  40
135
  5
811F
  62
0
  72
0
  71
0
 10
6334.71
 20
6586.45
 30
0.000000
  1
MAX
  0
TEXT
  8
3
  40
135
  5
8120
  62
0
  72
0
  71
0
 10
6334.71
 20
6410.95
 30
0.000000
  1
1080
  0
POINT
  5
80ED
  8
DEFPOINTS
 62
     0
 10
7094.7075337226233
 20
6443.8713075726837
 30
0.0
  0
POINT
  5
80EE
  8
DEFPOINTS
 62
     0
 10
6114.7075004250046
 20
4758.5479307527094
 30
0.0
  0
POINT
  5
80EF
  8
DEFPOINTS
 62
     0
 10
6114.7075004250046
 20
6600.3998632488292
 30
0.0
  0
ENDBLK
  5
7D48
  8
0
  0
BLOCK
  8
0
  2
*D21
 70
     1
 10
0.0
 20
0.0
 30
0.0
  3
*D21
  1

  0
LINE
  5
80F0
  8
3
 62
     0
 10
7842.2115220183978
 20
5108.5479307527103
 30
0.0
 11
8202.1611522942494
 21
5108.5479307527103
 31
0.0
  0
LINE
  5
80F1
  8
3
 62
     0
 10
7842.2115220183978
 20
3508.5479307527089
 30
0.0
 11
8202.1611522942476
 21
3508.5479307527089
 31
0.0
  0
LINE
  5
80F2
  8
3
 62
     0
 10
8157.1611522942476
 20
5018.5479307527103
 30
0.0
 11
8157.1611522942476
 21
3598.5479307527089
 31
0.0
  0
INSERT
  5
80F3
  8
3
 62
     0
  2
_OPEN
 10
8157.1611522942476
 20
5108.5479307527103
 30
0.0
 41
90.0
 42
90.0
 43
90.0
 50
90.0
  0
INSERT
  5
80F4
  8
3
 62
     0
  2
_OPEN
 10
8157.1611522942476
 20
3508.5479307527089
 30
0.0
 41
90.0
 42
90.0
 43
90.0
 50
270.0
  0
TEXT
  8
3
  40
135
  5
8121
  62
0
  72
0
  71
0
 10
7774.66
 20
4070.94
 30
0.000000
  1
φ1600
  0
POINT
  5
80F6
  8
DEFPOINTS
 62
     0
 10
7819.7115220183987
 20
5108.5479307527103
 30
0.0
  0
POINT
  5
80F7
  8
DEFPOINTS
 62
     0
 10
7819.7115220183987
 20
3508.5479307527089
 30
0.0
  0
POINT
  5
80F8
  8
DEFPOINTS
 62
     0
 10
8157.1611522942476
 20
3508.5479307527089
 30
0.0
  0
ENDBLK
  5
7D1D
  8
0
  0
BLOCK
  8
0
  2
*D22
 70
     1
 10
0.0
 20
0.0
 30
0.0
  3
*D22
  1

  0
LINE
  5
80FC
  8
3
 62
     0
 10
4336.6014331561528
 20
6026.0489307527114
 30
0.0
 11
4336.6014331561528
 21
6724.6930466065596
 31
0.0
  0
LINE
  5
80FD
  8
3
 62
     0
 10
1141.6014572732911
 20
3311.0487049430958
 30
0.0
 11
1141.6014572732911
 21
6724.6930466065596
 31
0.0
  0
LINE
  5
80FE
  8
3
 62
     0
 10
4246.6014331561528
 20
6679.6930466065596
 30
0.0
 11
1231.6014572732911
 21
6679.6930466065596
 31
0.0
  0
INSERT
  5
80FF
  8
3
 62
     0
  2
_OPEN
 10
4336.6014331561528
 20
6679.6930466065596
 30
0.0
 41
90.0
 42
90.0
 43
90.0
  0
INSERT
  5
8100
  8
3
 62
     0
  2
_OPEN
 10
1141.6014572732911
 20
6679.6930466065596
 30
0.0
 41
90.0
 42
90.0
 43
90.0
 50
180.0
  0
TEXT
  8
3
  40
135
  5
8122
  62
0
  72
0
  71
0
 10
2452.59
 20
6553.24
 30
0.000000
  1
3195
  0
POINT
  5
8102
  8
DEFPOINTS
 62
     0
 10
4336.6014331561528
 20
6003.5489307527114
 30
0.0
  0
POINT
  5
8103
  8
DEFPOINTS
 62
     0
 10
1141.6014572732911
 20
3288.5487049430972
 30
0.0
  0
POINT
  5
8104
  8
DEFPOINTS
 62
     0
 10
1141.6014572732911
 20
6679.6930466065596
 30
0.0
  0
ENDBLK
  5
7D7E
  8
0
  0
BLOCK
  8
0
  2
*D23
 70
     1
 10
0.0
 20
0.0
 30
0.0
  3
*D23
  1

  0
LINE
  5
8105
  8
3
 62
     0
 10
4359.1014331561528
 20
6068.5489307527123
 30
0.0
 11
5386.2310642777311
 21
6068.5489307527123
 31
0.0
  0
LINE
  5
8106
  8
3
 62
     0
 10
4264.1014908603192
 20
2923.5479307526539
 30
0.0
 11
5386.2310642777311
 21
2923.5479307526539
 31
0.0
  0
LINE
  5
8107
  8
3
 62
     0
 10
5341.231064277732
 20
5978.5489307527123
 30
0.0
 11
5341.231064277732
 21
3013.5479307526539
 31
0.0
  0
INSERT
  5
8108
  8
3
 62
     0
  2
_OPEN
 10
5341.231064277732
 20
6068.5489307527123
 30
0.0
 41
90.0
 42
90.0
 43
90.0
 50
90.0
  0
INSERT
  5
8109
  8
3
 62
     0
  2
_OPEN
 10
5341.231064277732
 20
2923.5479307526539
 30
0.0
 41
90.0
 42
90.0
 43
90.0
 50
270.0
  0
TEXT
  8
3
  40
135
  5
8123
  62
0
  72
0
  71
0
 10
4958.73
 20
4290.96
 30
0.000000
  1
3145
  0
POINT
  5
810B
  8
DEFPOINTS
 62
     0
 10
4336.6014331561528
 20
6068.5489307527123
 30
0.0
  0
POINT
  5
810C
  8
DEFPOINTS
 62
     0
 10
4241.6014908603192
 20
2923.5479307526539
 30
0.0
  0
POINT
  5
810D
  8
DEFPOINTS
 62
     0
 10
5341.231064277732
 20
2923.5479307526539
 30
0.0
  0
ENDBLK
  5
7DFB
  8
0
  0
ENDSEC
  0
SECTION
  2
ENTITIES
  0
LINE
  5
7AE2
  8
1
 10
7763.7075934700661
 20
3138.5449582271658
 30
0.0
 11
6163.706522018404
 21
3138.545958227211
 31
0.0
1001
ACAD
1000
ASC_BOUNDS
1002
{
1070
    19
1002
}
  0
LINE
  5
7AE3
  8
1
 10
7763.7075901701101
 20
3288.545958227211
 30
0.0
 11
6163.706522018404
 21
3288.545958227211
 31
0.0
  0
LINE
  5
7AE4
  8
1
 10
6504.7065220184049
 20
3288.545958227211
 30
0.0
 11
6163.706522018404
 21
3288.545958227211
 31
0.0
  0
LINE
  5
7AE5
  8
1
 10
6501.506522018406
 20
3288.545958227211
 30
0.0
 11
6163.706522018404
 21
3288.545958227211
 31
0.0
  0
LINE
  5
7AE6
  8
2
 10
6063.7309031003842
 20
4308.5479307527094
 30
0.0
 11
7883.8235613357328
 21
4308.5479307527094
 31
0.0
  0
LINE
  5
7AE7
  8
1
 10
6164.7075220183988
 20
3998.6329663844308
 30
0.0
 11
6264.7075220183997
 21
3998.6329663844772
 31
0.0
  0
LINE
  5
7AE8
  8
1
 10
6164.7075220183988
 20
4604.8053273076894
 30
0.0
 11
6264.7075220183997
 21
4604.8053273077339
 31
0.0
  0
LINE
  5
7AE9
  8
1
 10
6114.7075004250046
 20
4758.5479307527094
 30
0.0
 11
6304.7075036057377
 21
4758.5479307527094
 31
0.0
  0
LINE
  5
7AEA
  8
1
 10
1141.601490860312
 20
2923.5487049430799
 30
0.0
 11
4241.6014908603192
 21
2923.5479307526539
 31
0.0
1001
ACAD
1000
ASC_BOUNDS
1002
{
1070
    19
1002
}
  0
LINE
  5
7AEB
  8
1
 10
1141.60148962678
 20
2998.548704943084
 30
0.0
 11
4241.601489626788
 21
2998.547930752658
 31
0.0
1001
ACAD
1000
ASC_BOUNDS
1002
{
1070
    19
1002
}
  0
LINE
  5
7AEC
  8
1
 10
1141.6014585068219
 20
3138.5487049430931
 30
0.0
 11
4241.6014585068287
 21
3138.5479307526662
 31
0.0
1001
ACAD
1000
ASC_BOUNDS
1002
{
1070
    19
1005
0
1005
0
1002
}
  0
LINE
  5
7AED
  8
1
 10
1141.6014572732911
 20
3288.5487049430972
 30
0.0
 11
4241.6014572732965
 21
3288.5479307526712
 31
0.0
1001
ACAD
1000
ASC_BOUNDS
1002
{
1070
    19
1002
}
  0
ARC
  5
7AEE
  8
1
 10
3175.6004331561539
 20
4424.5479307527094
 30
0.0
 40
1255.0
 50
185.304
 51
275.30300000000011
  0
ARC
  5
7AEF
  8
1
 10
3407.6014331561541
 20
4424.5479307527094
 30
0.0
 40
1487.0
 50
94.474000000000004
 51
184.47399999999999
  0
LINE
  5
7AF0
  8
1
 10
1243.9100049250239
 20
3348.5487049434219
 30
0.0
 11
1390.730342040493
 21
3348.5487049434219
 31
0.0
  0
LINE
  5
7AF1
  8
1
 10
1141.6014585068219
 20
3138.5487049430922
 30
0.0
 11
1141.6014572732911
 21
3288.5487049430972
 31
0.0
  0
LINE
  5
7AF2
  8
1
 10
1141.601490860312
 20
2923.5487049430799
 30
0.0
 11
1141.60148962678
 21
2998.548704943084
 31
0.0
  0
LINE
  5
7AF3
  8
1
 10
1243.9100049250239
 20
3348.5487049434219
 30
0.0
 11
1231.601088039153
 21
3288.5486717635881
 31
0.0
  0
LINE
  5
7AF4
  8
1
 10
1592.4718340378131
 20
3333.1168547856792
 30
0.0
 11
1491.601088039153
 21
3333.1168547856792
 31
0.0
  0
LINE
  5
7AF5
  8
1
 10
1390.730342040493
 20
3333.1168547856792
 30
0.0
 11
1491.601088039153
 21
3333.1168547856792
 31
0.0
  0
LINE
  5
7AF6
  8
1
 10
1390.730342040493
 20
3348.5487049434219
 30
0.0
 11
1390.730342040493
 21
3333.1168547856792
 31
0.0
  0
LINE
  5
7AF7
  8
1
 10
1661.601088039153
 20
3348.5487049434209
 30
0.0
 11
1681.601088039153
 21
3348.5487049434209
 31
0.0
  0
LINE
  5
7AF8
  8
1
 10
1739.2921711532811
 20
3348.5487049434219
 30
0.0
 11
1592.4718340378131
 21
3348.5487049434219
 31
0.0
  0
LINE
  5
7AF9
  8
1
 10
1592.4718340378131
 20
3348.5487049434219
 30
0.0
 11
1592.4718340378131
 21
3333.1168547856792
 31
0.0
  0
LINE
  5
7AFA
  8
1
 10
1739.2921711532811
 20
3348.5487049434219
 30
0.0
 11
1751.601088039153
 21
3288.5486717635881
 31
0.0
  0
LINE
  5
7AFC
  8
1
 10
6114.7064279545957
 20
3268.5487049434219
 30
0.0
 11
6114.7075004250046
 21
4758.5479307527094
 31
0.0
  0
LINE
  5
7AFD
  8
2
 10
3291.6014934663231
 20
2761.8039125076202
 30
0.0
 11
3291.601436555577
 21
6028.7840723405352
 31
0.0
  0
ARC
  5
7AFE
  8
1
 10
3194.6004331561539
 20
4211.5479307527094
 30
0.0
 40
1042.0
 50
275.34100000000001
 51
5.3420000000000769
  0
LINE
  5
7AFF
  8
1
 10
4241.6014585068287
 20
3138.5479307526662
 30
0.0
 11
4241.6014572732965
 21
3288.5479307526712
 31
0.0
  0
LINE
  5
7B00
  8
1
 10
4241.6014908603192
 20
2923.5479307526539
 30
0.0
 11
4241.601489626787
 21
2998.547930752658
 31
0.0
  0
LINE
  5
7B01
  8
1
 10
4241.6014331561564
 20
3288.5467049453841
 30
0.0
 11
4241.6014331561564
 21
3288.5479307526762
 31
0.0
  0
LINE
  5
7B02
  8
1
 10
4336.6014331561537
 20
4353.5489307527114
 30
0.0
 11
4336.6014331561528
 21
6003.5489307527114
 31
0.0
  0
LINE
  5
7B03
  8
1
 10
4330.6014331561546
 20
4288.5489307527114
 30
0.0
 11
4330.6014331561528
 21
6068.5489307527123
 31
0.0
  0
LINE
  5
7B04
  8
1
 10
4271.6014331561537
 20
4353.5489307527114
 30
0.0
 11
4271.6014331561528
 21
5997.5445479775899
 31
0.0
  0
CIRCLE
  5
7B05
  8
1
 10
3291.6008517890932
 20
4308.5461516447076
 30
0.0
 40
300.0
  0
LINE
  5
7B06
  8
2
 10
1711.280311634735
 20
4308.5479307527094
 30
0.0
 11
4431.2766593585329
 21
4308.5479307527094
 31
0.0
  0
ARC
  5
7B07
  8
1
 10
3388.6014331561541
 20
4211.5479307527094
 30
0.0
 40
848.0
 50
6.5690000000000959
 51
35.880000000000081
  0
LINE
  5
7B08
  8
1
 10
4336.6014331561537
 20
4288.5489307527114
 30
0.0
 11
4336.6014331561537
 21
4353.5489307527114
 31
0.0
  0
LINE
  5
7B09
  8
1
 10
4336.6014331561537
 20
4288.5489307527114
 30
0.0
 11
4330.6014331561564
 21
4288.5489307527114
 31
0.0
  0
LINE
  5
7B0A
  8
1
 10
4224.627578679726
 20
4353.5489307527114
 30
0.0
 11
4336.6014331561537
 21
4353.5489307527114
 31
0.0
  0
LINE
  5
7B0B
  8
1
 10
4336.6014331561537
 20
4353.5489307527114
 30
0.0
 11
4271.6014331561537
 21
4353.5489307527114
 31
0.0
  0
CIRCLE
  5
7B0C
  8
1
 10
4097.2714384576902
 20
4714.4345233594713
 30
0.0
 40
22.270700527454458
  0
LINE
  5
7B0D
  8
1
 10
3291.6014331561519
 20
5907.0169307527103
 30
0.0
 11
4336.6014331561528
 21
6003.5489307527114
 31
0.0
  0
LINE
  5
7B0E
  8
1
 10
2341.600345446268
 20
5484.1410609531831
 30
0.0
 11
2350.6002317214138
 21
5484.1410609531831
 31
0.0
  0
LINE
  5
7B0F
  8
1
 10
4336.6014331561528
 20
6068.5489307527123
 30
0.0
 11
4330.6014331561528
 21
6068.5489307527123
 31
0.0
  0
LINE
  5
7B10
  8
1
 10
4336.6014331561528
 20
6003.5489307527114
 30
0.0
 11
4336.6014331561528
 21
6068.5489307527123
 31
0.0
  0
LINE
  5
7B11
  8
1
 10
6164.7075220183988
 20
3408.5487049434219
 30
0.0
 11
6164.7075220183988
 21
4604.8053273076894
 31
0.0
  0
LINE
  5
7B12
  8
1
 10
1920.6014331561539
 20
8848.8599351291086
 30
0.0
 11
1141.600792194344
 21
8848.8599351291086
 31
0.0
  0
LINE
  5
7B13
  8
1
 10
4241.6011800694432
 20
7748.8599351291077
 30
0.0
 11
1141.6011800692361
 21
7748.8599351291077
 31
0.0
  0
LINE
  5
7B14
  8
1
 10
1141.6007921943419
 20
8848.8599351291086
 30
0.0
 11
1141.6011800692361
 21
7748.8599351291077
 31
0.0
  0
LINE
  5
7B15
  8
1
 10
4241.6006158877371
 20
9348.8600606703712
 30
0.0
 11
4241.600643744604
 21
9269.8589344127868
 31
0.0
  0
LINE
  5
7B16
  8
1
 10
2341.6006158876621
 20
9348.8599351291086
 30
0.0
 11
4241.6006158877817
 21
9348.8599351291086
 31
0.0
  0
LINE
  5
7B17
  8
2
 10
3291.6014331561541
 20
7592.6282381144301
 30
0.0
 11
3291.6014331561541
 21
9448.7449717716554
 31
0.0
  0
LINE
  5
7B18
  8
1
 10
2341.600615887663
 20
9348.8599351291086
 30
0.0
 11
2341.6006437444562
 21
9269.8590184891782
 31
0.0
  0
LINE
  5
7B19
  8
1
 10
7819.7115220183987
 20
3443.5449582272122
 30
0.0
 11
7819.7115220183987
 21
5173.543958227212
 31
0.0
  0
LINE
  5
7B1A
  8
1
 10
7813.7115220183978
 20
5173.543958227212
 30
0.0
 11
7813.7115220183978
 21
3443.5449582272122
 31
0.0
  0
LINE
  5
7B1B
  8
1
 10
7693.9065220184011
 20
3443.5449582272122
 30
0.0
 11
7693.9065220184011
 21
5173.543958227212
 31
0.0
  0
LINE
  5
7B1D
  8
1
 10
6504.7065220184049
 20
3288.545958227211
 30
0.0
 11
6504.706546893588
 21
3338.5487049434232
 31
0.0
  0
LINE
  5
7B1E
  8
2
 10
7094.7075423732886
 20
6228.8610937979493
 30
0.0
 11
7094.7076764170961
 21
2852.233786392404
 31
0.0
  0
LINE
  5
7B1F
  8
1
 10
6163.7076748482577
 20
2923.5459582264848
 30
0.0
 11
7763.7076748482677
 21
2923.5456043108611
 31
0.0
1001
ACAD
1000
ASC_BOUNDS
1002
{
1070
    19
1002
}
  0
LINE
  5
7B20
  8
1
 10
6163.7076715483236
 20
2998.5459582264889
 30
0.0
 11
7763.7076715483354
 21
2998.5456043108661
 31
0.0
1001
ACAD
1000
ASC_BOUNDS
1002
{
1070
    19
1002
}
  0
LINE
  5
7B21
  8
1
 10
6304.7064483679223
 20
3268.5487049434219
 30
0.0
 11
6304.7065172506873
 21
3380.780425263521
 31
0.0
  0
LINE
  5
7B22
  8
1
 10
7752.9065220184029
 20
3508.5479307527089
 30
0.0
 11
7819.7115220183987
 21
3508.5479307527089
 31
0.0
  0
LINE
  5
7B24
  8
1
 10
7687.9065220184011
 20
3508.5449582272122
 30
0.0
 11
7752.9065220184029
 21
3508.5449582272122
 31
0.0
  0
LINE
  5
7B2D
  8
1
 10
7687.9065220184011
 20
3443.5449582272122
 30
0.0
 11
7693.9065220184011
 21
3443.5449582272122
 31
0.0
  0
LINE
  5
7B2F
  8
1
 10
7687.9065220184011
 20
3508.5449582272122
 30
0.0
 11
7687.9065220184011
 21
3443.5449582272122
 31
0.0
  0
LINE
  5
7B33
  8
1
 10
7819.7115220183987
 20
3443.5449582272122
 30
0.0
 11
7813.7115220183978
 21
3443.5449582272122
 31
0.0
  0
LINE
  5
7B35
  8
1
 10
7819.7115220183987
 20
3443.5449582272122
 30
0.0
 11
7819.7115220183987
 21
3508.5449582272122
 31
0.0
  0
LINE
  5
7B36
  8
1
 10
6504.7075220184042
 20
4308.5479307527094
 30
0.0
 11
6504.7075220183988
 21
6003.5479582272137
 31
0.0
  0
LINE
  5
7B37
  8
1
 10
7684.7075220184051
 20
3288.545958227211
 30
0.0
 11
7684.7075220183988
 21
6003.5479582272137
 31
0.0
  0
LINE
  5
7B38
  8
1
 10
7752.9065220184029
 20
6070.8479582272139
 30
0.0
 11
7752.9065220184029
 21
5108.5479307527103
 31
0.0
  0
LINE
  5
7B39
  8
1
 10
6436.5075220184008
 20
6070.8479582272112
 30
0.0
 11
6436.5075220184008
 21
4358.543958227212
 31
0.0
  0
LINE
  5
7B3A
  8
1
 10
6264.7075220183997
 20
4604.8053273077339
 30
0.0
 11
6264.7075220183997
 21
3408.5487049434219
 31
0.0
  0
LINE
  5
7B3B
  8
1
 10
6264.7075220183997
 20
4258.5459582272124
 30
0.0
 11
6504.7070045704713
 21
4258.5459582272124
 31
0.0
  0
LINE
  5
7B3C
  8
1
 10
6264.7075220183997
 20
4358.543958227212
 30
0.0
 11
6504.7075220184042
 21
4358.543958227212
 31
0.0
  0
LINE
  5
7B3D
  8
1
 10
6304.707390597714
 20
4574.4222620996643
 30
0.0
 11
6304.7075036057377
 21
4758.5479307527094
 31
0.0
  0
LINE
  5
7B3E
  8
1
 10
7752.9065220184029
 20
5108.5479307527103
 30
0.0
 11
7819.7115220183987
 21
5108.5479307527103
 31
0.0
  0
LINE
  5
7B41
  8
1
 10
7687.9065220184011
 20
5108.543958227212
 30
0.0
 11
7752.9065220184029
 21
5108.543958227212
 31
0.0
  0
LINE
  5
7B43
  8
1
 10
7687.9065220184011
 20
5108.543958227212
 30
0.0
 11
7687.9065220184011
 21
5173.543958227212
 31
0.0
  0
LINE
  5
7B44
  8
1
 10
7687.9065220184011
 20
5173.543958227212
 30
0.0
 11
7693.9065220184011
 21
5173.543958227212
 31
0.0
  0
LINE
  5
7B4D
  8
1
 10
7819.7115220183987
 20
5173.543958227212
 30
0.0
 11
7819.7115220183987
 21
5108.543958227212
 31
0.0
  0
LINE
  5
7B4E
  8
1
 10
7819.7115220183987
 20
5173.543958227212
 30
0.0
 11
7813.7115220183978
 21
5173.543958227212
 31
0.0
  0
LINE
  5
7B52
  8
1
 10
7752.9065220184029
 20
6070.8479582272139
 30
0.0
 11
6436.5075220184008
 21
6070.8479582272112
 31
0.0
  0
LINE
  5
7B53
  8
1
 10
7684.7075220184006
 20
6003.5479582272137
 30
0.0
 11
6504.7075220183988
 21
6003.5479582272146
 31
0.0
  0
LINE
  5
7B54
  8
1
 10
1594.430718828989
 20
3352.929004934384
 30
0.0
 11
1388.771457249316
 21
3352.929004934384
 31
0.0
  0
LINE
  5
7B55
  8
2
 10
1785.899185086804
 20
3548.5487049434232
 30
0.0
 11
1176.552309644961
 21
3548.5487049434232
 31
0.0
  0
ARC
  5
7B56
  8
1
 10
1491.601088039153
 20
3548.5487049434232
 30
0.0
 40
221.0
 50
297.7291503578308
 51
242.27084964216911
  0
LINE
  5
7B57
  8
1
 10
1680.601088039153
 20
3348.5487049434219
 30
0.0
 11
1600.601088039153
 21
3348.5487049434219
 31
0.0
  0
LINE
  5
7B58
  8
1
 10
1680.601088039153
 20
3368.5487049434219
 30
0.0
 11
1619.8235509697961
 21
3368.5487049434219
 31
0.0
  0
LINE
  5
7B59
  8
1
 10
1650.601088039153
 20
3328.0487049434219
 30
0.0
 11
1650.601088039153
 21
3398.2443157026851
 31
0.0
  0
LINE
  5
7B5A
  8
1
 10
1680.601088039153
 20
3348.5487049434219
 30
0.0
 11
1680.601088039153
 21
3402.5600419570819
 31
0.0
  0
LINE
  5
7B5B
  8
1
 10
1680.601088039153
 20
3402.5600419570819
 30
0.0
 11
1668.706191980689
 21
3416.35648823662
 31
0.0
  0
LINE
  5
7B5C
  8
1
 10
1600.601088039153
 20
3357.6774083485898
 30
0.0
 11
1600.601088039153
 21
3348.5487049434219
 31
0.0
  0
LINE
  5
7B5D
  8
2
 10
1491.601088039153
 20
3206.8223702906762
 30
0.0
 11
1491.601088039153
 21
3849.1095917076732
 31
0.0
  0
LINE
  5
7B5E
  8
1
 10
1302.601088039153
 20
3368.5487049434219
 30
0.0
 11
1363.3786251085089
 21
3368.5487049434232
 31
0.0
  0
LINE
  5
7B5F
  8
1
 10
1302.601088039153
 20
3348.5487049434219
 30
0.0
 11
1382.601088039153
 21
3348.5487049434219
 31
0.0
  0
LINE
  5
7B60
  8
1
 10
1332.601088039153
 20
3328.0487049434219
 30
0.0
 11
1332.601088039153
 21
3398.2443157026851
 31
0.0
  0
LINE
  5
7B61
  8
1
 10
1382.601088039153
 20
3357.6774083485898
 30
0.0
 11
1382.601088039153
 21
3348.5487049434219
 31
0.0
  0
LINE
  5
7B62
  8
1
 10
1302.601088039153
 20
3348.5487049434219
 30
0.0
 11
1302.601088039153
 21
3402.5600419570819
 31
0.0
  0
LINE
  5
7B63
  8
1
 10
1302.601088039153
 20
3402.5600419570819
 30
0.0
 11
1314.4959840976189
 21
3416.3564882366231
 31
0.0
  0
LINE
  5
7B64
  8
1
 10
1270.642400131313
 20
3552.821670897652
 30
0.0
 11
1260.4775023896091
 21
3552.821670897652
 31
0.0
  0
CIRCLE
  5
7B65
  8
1
 10
1491.601088039153
 20
3548.5487049434232
 30
0.0
 40
140.0
  0
ARC
  5
7B66
  8
1
 10
1491.601088039153
 20
3548.5487049434232
 30
0.0
 40
280.0
 50
118.7657035064848
 51
287.01539755983418
  0
ARC
  5
7B67
  8
1
 10
3291.5993528913918
 20
4308.5479307527094
 30
0.0
 40
480.0
 50
287.01539755983418
 51
118.7657035064848
  0
LINE
  5
7B68
  8
1
 10
3060.6094126008038
 20
4729.3134800608141
 30
0.0
 11
1356.856956202977
 21
3793.99527537315
 31
0.0
  0
LINE
  5
7B69
  8
1
 10
3152.6694270965158
 20
4574.4372181228646
 30
0.0
 11
1426.766423182617
 21
3672.631202633228
 31
0.0
  0
LINE
  5
7B6A
  8
1
 10
3385.2681860878652
 20
4023.5436420323158
 30
0.0
 11
1535.312510711914
 21
3415.547533790972
 31
0.0
  0
LINE
  5
7B6B
  8
1
 10
3432.0611239475829
 20
3849.5593787475882
 30
0.0
 11
1573.537121155264
 21
3280.8053829404339
 31
0.0
  0
LINE
  5
7B6C
  8
1
 10
6164.7065220184004
 20
3688.5487049434219
 30
0.0
 11
6264.7065220184004
 21
3688.5487049434219
 31
0.0
  0
LINE
  5
7B6D
  8
1
 10
6164.7065220184013
 20
3408.5487049434219
 30
0.0
 11
6264.7075220183997
 21
3408.5487049434219
 31
0.0
  0
LINE
  5
7B6E
  8
1
 10
7684.7075220183988
 20
4353.5479582272128
 30
0.0
 11
6504.7075220183979
 21
4353.5479582272137
 31
0.0
  0
LINE
  5
7B6F
  8
1
 10
7763.7075901701101
 20
3288.545958227211
 30
0.0
 11
7763.707593470067
 21
3138.5449582271658
 31
0.0
  0
LINE
  5
7B70
  8
1
 10
6163.7075901701091
 20
3288.545958227211
 30
0.0
 11
6163.707593470046
 21
3138.5459582265421
 31
0.0
  0
LINE
  5
7B71
  8
1
 10
6163.7076715483254
 20
2998.5459582264889
 30
0.0
 11
6163.7076748482614
 21
2923.5459582264848
 31
0.0
  0
LINE
  5
7B72
  8
1
 10
7763.7076715483299
 20
2998.5456043108661
 30
0.0
 11
7763.7076748482677
 21
2923.5456043108611
 31
0.0
  0
LINE
  5
7B73
  8
1
 10
6114.7064279545957
 20
3268.5487049434219
 30
0.0
 11
6304.7064483679223
 21
3268.5487049434219
 31
0.0
  0
LINE
  5
7B74
  8
1
 10
7687.9065220184011
 20
5108.543958227212
 30
0.0
 11
7687.9065220184011
 21
3508.5449582272122
 31
0.0
  0
LINE
  5
7B75
  8
1
 10
7684.7075220183988
 20
6003.5479582272137
 30
0.0
 11
6504.7075220184042
 21
4358.543958227212
 31
0.0
  0
LINE
  5
7B76
  8
1
 10
6504.7075220183988
 20
6003.5479582272146
 30
0.0
 11
7684.7075220184042
 21
4353.5479582272128
 31
0.0
  0
LINE
  5
7B77
  8
2
 10
4425.5981285236767
 20
8679.8589262707665
 30
0.0
 11
1766.7315040025289
 21
8679.8590439275558
 31
0.0
  0
LINE
  5
7B78
  8
1
 10
1211.601088039153
 20
7699.85779044013
 30
0.0
 11
1211.601088039153
 21
7889.8578108534557
 31
0.0
  0
LINE
  5
7B79
  8
1
 10
1351.601088039153
 20
7749.8578845039356
 30
0.0
 11
1351.601088039153
 21
7849.8578845039356
 31
0.0
  0
LINE
  5
7B7A
  8
1
 10
1631.601088039153
 20
7749.8578845039356
 30
0.0
 11
1631.601088039153
 21
7849.8578845039328
 31
0.0
  0
LINE
  5
7B7B
  8
1
 10
3741.6014331561551
 20
7699.8588629105398
 30
0.0
 11
3741.6014331561551
 21
7889.8588660912719
 31
0.0
  0
LINE
  5
7B7C
  8
1
 10
3587.8588297111319
 20
7749.858884503933
 30
0.0
 11
3587.8588297111801
 21
7849.858884503934
 31
0.0
  0
LINE
  5
7B7D
  8
1
 10
2981.6864687878769
 20
7749.858884503933
 30
0.0
 11
2981.686468787922
 21
7849.858884503934
 31
0.0
  0
LINE
  5
7B7E
  8
1
 10
2981.6864687878769
 20
7749.858884503933
 30
0.0
 11
3587.8588297111319
 21
7749.858884503933
 31
0.0
  0
LINE
  5
7B7F
  8
1
 10
1211.601088039153
 20
7699.85779044013
 30
0.0
 11
3741.6014331561551
 21
7699.8588629105398
 31
0.0
  0
LINE
  5
7B80
  8
1
 10
1351.601088039153
 20
7749.8578845039356
 30
0.0
 11
2981.6864687878769
 21
7749.8578845039356
 31
0.0
  0
LINE
  5
7B81
  8
1
 10
3587.8588297111801
 20
7849.858884503934
 30
0.0
 11
2981.686468787922
 21
7849.858884503934
 31
0.0
  0
LINE
  5
7B82
  8
1
 10
1351.601088039153
 20
7849.8578845039356
 30
0.0
 11
2981.686468787922
 21
7849.8578845039347
 31
0.0
  0
LINE
  5
7B83
  8
1
 10
3241.5994606306572
 20
7849.858884503934
 30
0.0
 11
3241.5994606306572
 21
8089.8583670560056
 31
0.0
  0
LINE
  5
7B84
  8
1
 10
1211.601088039153
 20
7889.8573132912688
 30
0.0
 11
3741.6014331561551
 21
7889.8588660912719
 31
0.0
  0
LINE
  5
7B85
  8
1
 10
3341.5974606306572
 20
7849.858884503934
 30
0.0
 11
3341.5974606306572
 21
8089.8588845039376
 31
0.0
  0
LINE
  5
7B86
  8
1
 10
4336.6014331561537
 20
9269.8589302089331
 30
0.0
 11
1920.6014331561539
 21
9269.8590371187038
 31
0.0
  0
LINE
  5
7B87
  8
1
 10
4336.6014331561537
 20
8089.8589302089313
 30
0.0
 11
1920.6014331561539
 21
8089.8590371186983
 31
0.0
  0
LINE
  5
7B88
  8
1
 10
4336.6014331561537
 20
8024.8589302089331
 30
0.0
 11
4336.6014331561537
 21
9334.8589302089349
 31
0.0
  0
LINE
  5
7B89
  8
1
 10
1920.601433156153
 20
8089.8590371186983
 30
0.0
 11
1920.6014331561539
 21
9269.8590371186965
 31
0.0
  0
LINE
  5
7B8A
  8
1
 10
4241.6010598285793
 20
8089.8589344127677
 30
0.0
 11
4241.6011800694432
 21
7748.8599351291077
 31
0.0
  0
LINE
  5
7B8B
  8
1
 10
4271.6014331561537
 20
8089.8589330852292
 30
0.0
 11
4271.6014331561537
 21
9269.8589330852283
 31
0.0
  0
LINE
  5
7B8C
  8
2
 10
1491.601088039153
 20
7592.7214835772565
 30
0.0
 11
1491.601088039153
 21
8645.7171886097767
 31
0.0
  0
LINE
  5
7B8D
  8
1
 10
1281.601088039153
 20
8592.9749859249605
 30
0.0
 11
1691.601088039153
 21
8592.9749859249605
 31
0.0
  0
LINE
  5
7B8E
  8
1
 10
1569.601088039153
 20
7943.4749859249614
 30
0.0
 11
1491.601088039153
 21
7943.4749859249614
 31
0.0
  0
LINE
  5
7B8F
  8
1
 10
1691.601088039153
 20
7954.9749859249596
 30
0.0
 11
1691.601088039153
 21
8592.9749859249605
 31
0.0
  0
LINE
  5
7B90
  8
1
 10
1571.601088039153
 20
7955.628061924961
 30
0.0
 11
1571.601088039153
 21
7945.4749859249596
 31
0.0
  0
ARC
  5
7B91
  8
1
 10
1574.601088039153
 20
7955.628061924961
 30
0.0
 40
3.0
 50
92.999556999999982
 51
180.0
  0
ARC
  5
7B92
  8
1
 10
1569.601088039153
 20
7945.4749859249596
 30
0.0
 40
2.0
 50
270.0
 51
0.000000000000007
  0
LINE
  5
7B93
  8
1
 10
1281.601088039153
 20
8592.9749859249605
 30
0.0
 11
1281.6010880391541
 21
7954.9749859249623
 31
0.0
  0
LINE
  5
7B94
  8
1
 10
1281.6010880391541
 20
7954.9749859249623
 30
0.0
 11
1691.601088039152
 21
7954.9749859249596
 31
0.0
  0
LINE
  5
7B95
  8
1
 10
1457.601088039153
 20
7903.4749859249596
 30
0.0
 11
1457.601088039153
 21
7793.4749859249614
 31
0.0
  0
LINE
  5
7B96
  8
1
 10
1521.601088039153
 20
7933.4749859249614
 30
0.0
 11
1521.601088039153
 21
7793.4749859249614
 31
0.0
  0
LINE
  5
7B97
  8
1
 10
1461.601088039153
 20
7933.4749859249614
 30
0.0
 11
1461.601088039153
 21
7793.4749859249614
 31
0.0
  0
LINE
  5
7B98
  8
1
 10
1413.601088039153
 20
7943.4749859249614
 30
0.0
 11
1491.601088039153
 21
7943.4749859249614
 31
0.0
  0
LINE
  5
7B99
  8
1
 10
1524.101088039153
 20
7933.4749859249614
 30
0.0
 11
1459.101088039153
 21
7933.4749859249614
 31
0.0
  0
LINE
  5
7B9A
  8
1
 10
1524.101088039153
 20
7933.4749859249614
 30
0.0
 11
1524.101088039153
 21
7943.4749859249614
 31
0.0
  0
LINE
  5
7B9B
  8
1
 10
1459.101088039153
 20
7933.4749859249614
 30
0.0
 11
1459.101088039153
 21
7943.4749859249614
 31
0.0
  0
LINE
  5
7B9C
  8
1
 10
1457.601088039153
 20
7903.4749859249596
 30
0.0
 11
1461.601088039153
 21
7903.4749859249596
 31
0.0
  0
LINE
  5
7B9D
  8
1
 10
1411.601088039153
 20
7954.9749859249596
 30
0.0
 11
1411.601088039153
 21
7945.4749859249596
 31
0.0
  0
ARC
  5
7B9E
  8
1
 10
1413.601088039153
 20
7945.4749859249596
 30
0.0
 40
2.0
 50
180.0
 51
270.0
  0
LINE
  5
7B9F
  8
1
 10
1457.601088039153
 20
7793.4749859249614
 30
0.0
 11
1521.601088039153
 21
7793.4749859249614
 31
0.0
  0
LINE
  5
7BA0
  8
1
 10
1574.4441033340661
 20
7958.6239517430886
 30
0.0
 11
1574.4441033340661
 21
7958.6240086479838
 31
0.0
  0
LINE
  5
7BA1
  8
1
 10
7008.8396113373919
 20
3338.5487049434219
 30
0.0
 11
6370.839611337391
 21
3338.5487049434232
 31
0.0
  0
LINE
  5
7BA2
  8
1
 10
6370.8396113373892
 20
3748.5487049434219
 30
0.0
 11
7008.8396113373892
 21
3748.5487049434219
 31
0.0
  0
LINE
  5
7BA3
  8
2
 10
6068.7962788324439
 20
3548.5487049434232
 30
0.0
 11
7038.2966913346399
 21
3548.5487049434232
 31
0.0
  0
LINE
  5
7BA4
  8
1
 10
7008.8396113373892
 20
3338.5487049434219
 30
0.0
 11
7008.8396113373892
 21
3748.5487049434219
 31
0.0
  0
LINE
  5
7BA5
  8
1
 10
6209.3396113373892
 20
3514.5487049434219
 30
0.0
 11
6209.3396113373892
 21
3578.5487049434219
 31
0.0
  0
LINE
  5
7BA6
  8
1
 10
6349.3396113373892
 20
3581.0487049434219
 30
0.0
 11
6349.3396113373892
 21
3516.0487049434219
 31
0.0
  0
LINE
  5
7BA7
  8
1
 10
6370.839611337391
 20
3338.5487049434232
 30
0.0
 11
6370.8396113373892
 21
3748.5487049434209
 31
0.0
  0
LINE
  5
7BA8
  8
1
 10
6359.3396113373892
 20
3626.5487049434219
 30
0.0
 11
6359.3396113373892
 21
3548.5487049434232
 31
0.0
  0
LINE
  5
7BA9
  8
1
 10
6349.3396113373892
 20
3578.5487049434219
 30
0.0
 11
6209.3396113373892
 21
3578.5487049434219
 31
0.0
  0
LINE
  5
7BAA
  8
1
 10
6349.3396113373892
 20
3581.0487049434219
 30
0.0
 11
6359.3396113373892
 21
3581.0487049434219
 31
0.0
  0
ARC
  5
7BAB
  8
1
 10
6361.3396113373892
 20
3626.5487049434219
 30
0.0
 40
2.0
 50
90.0
 51
180.0
  0
LINE
  5
7BAC
  8
1
 10
6371.4926873373897
 20
3628.5487049434219
 30
0.0
 11
6361.3396113373892
 21
3628.5487049434219
 31
0.0
  0
LINE
  5
7BAD
  8
1
 10
6349.3396113373892
 20
3518.5487049434219
 30
0.0
 11
6209.3396113373892
 21
3518.5487049434219
 31
0.0
  0
LINE
  5
7BAE
  8
1
 10
6319.3396113373892
 20
3514.5487049434219
 30
0.0
 11
6209.3396113373892
 21
3514.5487049434219
 31
0.0
  0
ARC
  5
7BAF
  8
1
 10
6361.3396113373892
 20
3470.5487049434219
 30
0.0
 40
2.0
 50
180.0
 51
270.0
  0
LINE
  5
7BB0
  8
1
 10
6370.8396113373892
 20
3468.5487049434219
 30
0.0
 11
6361.3396113373892
 21
3468.5487049434219
 31
0.0
  0
LINE
  5
7BB1
  8
1
 10
6349.3396113373892
 20
3516.0487049434219
 30
0.0
 11
6359.3396113373892
 21
3516.0487049434219
 31
0.0
  0
LINE
  5
7BB2
  8
1
 10
6359.3396113373892
 20
3470.5487049434219
 30
0.0
 11
6359.3396113373892
 21
3548.5487049434232
 31
0.0
  0
LINE
  5
7BB3
  8
1
 10
6319.3396113373892
 20
3514.5487049434219
 30
0.0
 11
6319.3396113373892
 21
3518.5487049434219
 31
0.0
  0
LINE
  5
7BB4
  8
1
 10
6504.7067508588952
 20
3748.5487049434219
 30
0.0
 11
6504.7070294452697
 21
4308.5479307527094
 31
0.0
  0
DIMENSION
  5
7BC2
  8
3
  2
*D1
 10
2341.600615887663
 20
9576.9388581004023
 30
0.0
 11
3291.2668092844101
 21
9576.9388581004023
 31
0.0
 70
   128
 13
4241.6006158877799
 23
9348.8599351291086
 33
0.0
 14
2341.600615887663
 24
9348.8599351291086
 34
0.0
 50
180.0
1001
ACAD
1000
DSTYLE
1002
{
1070
   287
1070
     3
1070
   287
1070
     3
1070
    40
1040
45.0
1070
   143
1040
0.039
1070
   172
1070
     1
1070
   271
1070
     0
1070
   279
1070
     0
1070
   288
1070
     1
1002
}
  0
DIMENSION
  5
7BCE
  8
3
  2
*D2
 10
1141.6007921943419
 20
9576.9388581004023
 30
0.0
 11
1741.6007040410029
 21
9689.4388581004023
 31
0.0
 70
     0
 13
2341.600615887663
 23
9348.8599351291086
 33
0.0
 14
1141.6007921943419
 24
8848.8599351291086
 34
0.0
 50
180.0
1001
ACAD
1000
DSTYLE
1002
{
1070
   287
1070
     4
1070
   287
1070
     4
1070
    40
1040
45.0
1070
    75
1070
     1
1070
   143
1040
0.039
1070
   172
1070
     1
1070
   271
1070
     0
1070
   279
1070
     1
1070
   288
1070
     1
1002
}
  0
DIMENSION
  5
7BDB
  8
3
  2
*D3
 10
747.82563379551846
 20
7748.8599351291077
 30
0.0
 11
747.82563379551721
 21
8295.3450515531968
 31
0.0
 70
   128
 13
1141.6007921943419
 23
8848.8599351291086
 33
0.0
 14
1141.6011800692361
 24
7748.8599351291077
 34
0.0
 50
90.0
1001
ACAD
1000
DSTYLE
1002
{
1070
   287
1070
     3
1070
   287
1070
     3
1070
    40
1040
45.0
1070
   143
1040
0.039
1070
   172
1070
     1
1070
   271
1070
     0
1070
   279
1070
     0
1070
   288
1070
     1
1002
}
  0
DIMENSION
  5
7BE8
  8
3
  2
*D4
 10
4566.6313104836599
 20
7748.8599351291077
 30
0.0
 11
4566.631310483659
 21
8542.9256869705205
 31
0.0
 70
   128
 13
4241.6006158877799
 23
9348.8599351291086
 33
0.0
 14
4241.6011800694432
 24
7748.8599351291077
 34
0.0
 50
90.0
1001
ACAD
1000
DSTYLE
1002
{
1070
   287
1070
     3
1070
   287
1070
     3
1070
    40
1040
45.0
1070
   143
1040
0.039
1070
   172
1070
     1
1070
   271
1070
     0
1070
   279
1070
     0
1070
   288
1070
     1
1002
}
  0
DIMENSION
  5
7BF5
  8
3
  2
*D5
 10
1141.6011800692361
 20
7319.5861457622013
 30
0.0
 11
2759.2576237327012
 21
7319.5861457622013
 31
0.0
 70
   128
 13
4241.6011800694432
 23
7748.8599351291077
 33
0.0
 14
1141.6011800692361
 24
7748.8599351291077
 34
0.0
 50
180.0
1001
ACAD
1000
DSTYLE
1002
{
1070
   287
1070
     3
1070
   287
1070
     3
1070
    40
1040
45.0
1070
   143
1040
0.039
1070
   172
1070
     1
1070
   271
1070
     0
1070
   279
1070
     0
1070
   288
1070
     1
1002
}
  0
DIMENSION
  5
7C02
  8
3
  2
*D6
 10
3291.601436555577
 20
6381.5113420833441
 30
0.0
 11
3806.2781510702621
 21
6381.5113420833441
 31
0.0
 70
   128
 13
4336.6014331561528
 23
6068.5489307527123
 33
0.0
 14
3291.601436555577
 24
6028.7840723405352
 34
0.0
 50
180.0
1001
ACAD
1000
DSTYLE
1002
{
1070
   287
1070
     3
1070
   287
1070
     3
1070
    40
1040
45.0
1070
   143
1040
0.039
1070
   172
1070
     1
1070
   271
1070
     0
1070
   279
1070
     0
1070
   288
1070
     1
1002
}
  0
DIMENSION
  5
7C0F
  8
3
  2
*D7
 10
1920.6014331561539
 20
6381.5113420833441
 30
0.0
 11
2606.101434855866
 21
6494.0113420833441
 31
0.0
 70
     0
 13
3291.601436555577
 23
6028.7840723405352
 33
0.0
 14
1920.6014331561539
 24
4424.5479307527094
 34
0.0
 50
180.0
1001
ACAD
1000
DSTYLE
1002
{
1070
   287
1070
     4
1070
   287
1070
     4
1070
    40
1040
45.0
1070
    75
1070
     1
1070
   143
1040
0.039
1070
   172
1070
     1
1070
   271
1070
     0
1070
   279
1070
     1
1070
   288
1070
     1
1002
}
  0
DIMENSION
  5
7C1C
  8
3
  2
*D8
 10
4671.1672020180486
 20
4353.5489307527114
 30
0.0
 11
4671.1672020180486
 21
5149.6406861984979
 31
0.0
 70
   128
 13
4336.6014331561528
 23
6003.5489307527114
 33
0.0
 14
4336.6014331561537
 24
4353.5489307527114
 34
0.0
 50
90.0
1001
ACAD
1000
DSTYLE
1002
{
1070
   287
1070
     3
1070
   287
1070
     3
1070
    40
1040
45.0
1070
   143
1040
0.039
1070
   172
1070
     1
1070
   271
1070
     0
1070
   279
1070
     0
1070
   288
1070
     1
1002
}
  0
DIMENSION
  5
7C29
  8
3
  2
*D9
 10
4936.6291018051352
 20
4308.5479307527094
 30
0.0
 11
4936.6291018051343
 21
5127.5371328892943
 31
0.0
 70
   128
 13
4336.6014331561528
 23
6003.5489307527114
 33
0.0
 14
4431.2766593585329
 24
4308.5479307527094
 34
0.0
 50
90.0
1001
ACAD
1000
DSTYLE
1002
{
1070
   287
1070
     3
1070
   287
1070
     3
1070
    40
1040
45.0
1070
   143
1040
0.039
1070
   172
1070
     1
1070
   271
1070
     0
1070
   279
1070
     0
1070
   288
1070
     1
1002
}
  0
DIMENSION
  5
7C35
  8
3
  2
*D10
 10
4936.6291018051343
 20
3138.5479307526662
 30
0.0
 11
4824.1291018051343
 21
3723.5479307526889
 31
0.0
 70
     0
 13
4431.2766593585329
 23
4308.5479307527094
 33
0.0
 14
4241.6014585068287
 24
3138.5479307526662
 34
0.0
 50
90.0
1001
ACAD
1000
DSTYLE
1002
{
1070
   287
1070
     4
1070
   287
1070
     4
1070
    40
1040
45.0
1070
    75
1070
     1
1070
   143
1040
0.039
1070
   172
1070
     1
1070
   271
1070
     0
1070
   279
1070
     1
1070
   288
1070
     1
1002
}
  0
DIMENSION
  5
7C45
  8
3
  2
*D11
 10
4936.6291018051343
 20
2998.547930752658
 30
0.0
 11
5151.9862446622774
 21
3215.2262428742501
 31
0.0
 70
   128
  1
(<>)
 13
4241.6014585068287
 23
3138.5479307526662
 33
0.0
 14
4241.601489626787
 24
2998.547930752658
 34
0.0
 50
90.0
1001
ACAD
1000
DSTYLE
1002
{
1070
   288
1070
     1
1070
   172
1070
     1
1070
    75
1070
     1
1070
    40
1040
45.0
1070
   271
1070
     0
1070
     7
1000
_DOT
1070
   143
1040
0.039
1002
}
  0
DIMENSION
  5
7C55
  8
3
  2
*D12
 10
4936.6291018051343
 20
2923.5479307526539
 30
0.0
 11
4824.1291018051343
 21
2589.262216466941
 31
0.0
 70
     0
 13
4241.601489626787
 23
2998.547930752658
 33
0.0
 14
4241.6014908603192
 24
2923.5479307526539
 34
0.0
 50
90.0
1001
ACAD
1000
DSTYLE
1002
{
1070
   287
1070
     3
1070
   287
1070
     3
1070
    40
1040
45.0
1070
   143
1040
0.039
1070
   172
1070
     1
1070
   271
1070
     0
1070
   279
1070
     0
1070
   288
1070
     1
1070
     6
1000
DOT
1002
}
  0
DIMENSION
  5
7CB0
  8
3
  2
*D14
 10
3291.6014934663231
 20
2562.730386593812
 30
0.0
 11
3797.3551772186761
 21
2562.730386593812
 31
0.0
 70
   128
 13
4241.6014908603192
 23
2923.5479307526539
 33
0.0
 14
3291.6014934663231
 24
2761.8039125076202
 34
0.0
 50
180.0
1001
ACAD
1000
DSTYLE
1002
{
1070
   287
1070
     3
1070
   287
1070
     3
1070
    40
1040
45.0
1070
   143
1040
0.039
1070
   172
1070
     1
1070
   271
1070
     0
1070
   279
1070
     0
1070
   288
1070
     1
1002
}
  0
DIMENSION
  5
7CBC
  8
3
  2
*D15
 10
1141.601490860312
 20
2562.730386593812
 30
0.0
 11
2216.6014921633182
 21
2675.230386593812
 31
0.0
 70
     0
 13
3291.6014934663231
 23
2761.8039125076202
 33
0.0
 14
1141.601490860312
 24
2923.5487049430799
 34
0.0
 50
180.0
1001
ACAD
1000
DSTYLE
1002
{
1070
   287
1070
     4
1070
   287
1070
     4
1070
    40
1040
45.0
1070
    75
1070
     1
1070
   143
1040
0.039
1070
   172
1070
     1
1070
   271
1070
     0
1070
   279
1070
     1
1070
   288
1070
     1
1002
}
  0
DIMENSION
  5
7CC9
  8
3
  2
*D16
 10
7094.7076764170961
 20
2573.782163248412
 30
0.0
 11
6633.2132223276794
 21
2573.782163248412
 31
0.0
 70
   128
 13
6163.7076748482614
 23
2923.5459582264848
 33
0.0
 14
7094.7076764170961
 24
2852.233786392404
 34
0.0
1001
ACAD
1000
DSTYLE
1002
{
1070
   287
1070
     3
1070
   287
1070
     3
1070
    40
1040
45.0
1070
   143
1040
0.039
1070
   172
1070
     1
1070
   271
1070
     0
1070
   279
1070
     0
1070
   288
1070
     1
1002
}
  0
DIMENSION
  5
7CD5
  8
3
  2
*D17
 10
7763.7076748482677
 20
2573.782163248412
 30
0.0
 11
7429.2076756326824
 21
2686.282163248412
 31
0.0
 70
     0
 13
7094.7076764170961
 23
2852.233786392404
 33
0.0
 14
7763.7076748482677
 24
2923.5456043108611
 34
0.0
1001
ACAD
1000
DSTYLE
1002
{
1070
   287
1070
     4
1070
   287
1070
     4
1070
    40
1040
45.0
1070
    75
1070
     1
1070
   143
1040
0.039
1070
   172
1070
     1
1070
   271
1070
     0
1070
   279
1070
     1
1070
   288
1070
     1
1002
}
  0
DIMENSION
  5
7CE2
  8
3
  2
*D18
 10
7684.7075220183988
 20
6245.8163495194758
 30
0.0
 11
7094.8044320273484
 21
6245.8163495194758
 31
0.0
 70
   128
 13
6504.7075220183988
 23
6003.5479582272146
 33
0.0
 14
7684.7075220183988
 24
6003.5479582272137
 34
0.0
1001
ACAD
1000
DSTYLE
1002
{
1070
   287
1070
     3
1070
   287
1070
     3
1070
    40
1040
45.0
1070
   143
1040
0.039
1070
   172
1070
     1
1070
   271
1070
     0
1070
   279
1070
     0
1070
   288
1070
     1
1002
}
  0
DIMENSION
  5
7CEF
  8
3
  2
*D19
 10
7094.7075337226233
 20
6600.3998632488292
 30
0.0
 11
7458.1237834840786
 21
6600.3998632488292
 31
0.0
 70
   128
 13
7819.7115220183987
 23
5173.543958227212
 33
0.0
 14
7094.7075337226233
 24
6443.8713075726837
 34
0.0
1001
ACAD
1000
DSTYLE
1002
{
1070
   287
1070
     3
1070
   287
1070
     3
1070
    40
1040
45.0
1070
   143
1040
0.039
1070
   172
1070
     1
1070
   271
1070
     0
1070
   279
1070
     0
1070
   288
1070
     1
1002
}
  0
DIMENSION
  5
7CFB
  8
3
  2
*D20
 10
6114.7075004250046
 20
6600.3998632488292
 30
0.0
 11
6604.7075170738162
 21
6825.3998632488292
 31
0.0
 70
     0
  1
MAX\P1080
 13
7094.7075337226233
 23
6443.8713075726837
 33
0.0
 14
6114.7075004250046
 24
4758.5479307527094
 34
0.0
1001
ACAD
1000
DSTYLE
1002
{
1070
   287
1070
     4
1070
   287
1070
     4
1070
    40
1040
45.0
1070
    75
1070
     1
1070
   143
1040
0.039
1070
   172
1070
     1
1070
   271
1070
     0
1070
   279
1070
     1
1070
   288
1070
     1
1002
}
  0
DIMENSION
  5
7D12
  8
3
  2
*D21
 10
8157.1611522942476
 20
3508.5479307527089
 30
0.0
 11
8157.1611522942476
 21
4309.8903991665074
 31
0.0
 70
   128
 13
7819.7115220183987
 23
5108.5479307527103
 33
0.0
 14
7819.7115220183987
 24
3508.5479307527089
 34
0.0
 50
90.0
1001
ACAD
1000
DSTYLE
1002
{
1070
   287
1070
     3
1070
   287
1070
     3
1070
     3
1000
φ<>
1070
    40
1040
45.0
1070
   143
1040
0.039
1070
   172
1070
     1
1070
   271
1070
     0
1070
   279
1070
     0
1070
   288
1070
     1
1002
}
  0
LINE
  5
7D4E
  8
4
 10
8325.0
 20
1774.0848555255029
 30
0.0
 11
8325.0
 21
874.08485552550337
 31
0.0
  0
LINE
  5
7D4F
  8
4
 10
5175.0
 20
1774.0848555255029
 30
0.0
 11
5175.0
 21
874.08485552550337
 31
0.0
  0
LINE
  5
7D50
  8
4
 10
2925.0
 20
1774.0848555255029
 30
0.0
 11
2925.0
 21
874.08485552550337
 31
0.0
  0
LINE
  5
7D53
  8
4
 10
2925.0
 20
874.08485552550337
 30
0.0
 11
8325.0
 21
874.08485552550337
 31
0.0
  0
LINE
  5
7D54
  8
4
 10
2925.0
 20
1324.0848555255029
 30
0.0
 11
8325.0
 21
1324.0848555255029
 31
0.0
  0
TEXT
  5
7D55
  8
4
 10
3098.259363811057
 20
1466.0284719252611
 30
0.0
 40
225.0
  1
機器名称
  0
TEXT
  5
7D56
  8
4
 10
3088.1614771115892
 20
971.48806081955263
 30
0.0
 40
225.0
  1
機器型番
  0
TEXT
  5
7D57
  8
4
 10
5300.599808767035
 20
1425.1666940786331
 30
0.0
 40
191.25
  1
ミツヤリミットロードファン
  0
TEXT
  5
7D58
  8
4
 10
5339.9452301346628
 20
951.30298478524855
 30
0.0
 40
225.0
  1
LL#10-4
  0
TEXT
  5
7D5A
  8
4
 10
3547.4348141053201
 20
10725.429785996321
 30
0.0
 40
242.99999999999989
  1
床置防振ベット
  0
TEXT
  5
7D5B
  8
4
 10
1403.9135869855461
 20
11410.38245714243
 30
0.0
 40
275.39999999999998
  1
ベルト駆動式片吸込両持リミットロードファン
  0
LINE
  5
7D5C
  8
4
 10
1125.0
 20
11112.33939419162
 30
0.0
 11
8325.0
 21
11112.33939419162
 31
0.0
  0
LINE
  5
7D5D
  8
4
 10
1125.0
 20
12012.33939419162
 30
0.0
 11
8325.0
 21
12012.33939419162
 31
0.0
  0
LINE
  5
7D5E
  8
4
 10
2925.0
 20
1774.0848555255029
 30
0.0
 11
8325.0
 21
1774.0848555255029
 31
0.0
  0
LINE
  5
7D5F
  8
4
 10
1125.0
 20
12012.33939419162
 30
0.0
 11
1125.0
 21
11112.33939419162
 31
0.0
  0
TEXT
  5
7D60
  8
4
 10
1586.0700690131589
 20
10720.437648958539
 30
0.0
 40
242.99999999999989
  1
右回転右横向
  0
TEXT
  5
7D61
  8
4
 10
6610.3630166218027
 20
12177.274866728891
 30
0.0
 40
252.0
  1
No.
  0
TEXT
  5
7D62
  8
4
 10
5900.832281700059
 20
10725.429785996321
 30
0.0
 40
242.99999999999989
  1
縮尺：1/45
  0
LINE
  5
7D63
  8
4
 10
8325.0
 20
12012.33939419162
 30
0.0
 11
8325.0
 21
11112.33939419162
 31
0.0
  0
LINE
  5
7D64
  8
4
 10
9450.0
 20
13275.0
 30
0.0
 11
9450.0
 21
13275.0
 31
0.0
  0
LINE
  5
7D65
  8
4
 10
6482.7784006193906
 20
12065.686124064299
 30
0.0
 11
6482.7784006193906
 21
12539.935176973881
 31
0.0
  0
LINE
  5
7D66
  8
4
 10
6482.7784006193906
 20
12539.935176973881
 30
0.0
 11
8325.0
 21
12539.935176973881
 31
0.0
  0
LINE
  5
7D67
  8
4
 10
8325.0
 20
12539.935176973881
 30
0.0
 11
8325.0
 21
12065.686124064299
 31
0.0
  0
LINE
  5
7D68
  8
4
 10
8325.0
 20
12065.686124064299
 30
0.0
 11
6482.7784006193906
 21
12065.686124064299
 31
0.0
  0
LINE
  5
7D69
  8
4
 10
0.0
 20
0.0
 30
0.0
 11
0.0
 21
13275.0
 31
0.0
  0
LINE
  5
7D6A
  8
4
 10
0.0
 20
13275.0
 30
0.0
 11
9450.0
 21
13275.0
 31
0.0
  0
LINE
  5
7D6B
  8
4
 10
9450.0
 20
13275.0
 30
0.0
 11
9450.0
 21
0.0
 31
0.0
  0
LINE
  5
7D6C
  8
4
 10
9450.0
 20
0.0
 30
0.0
 11
0.0
 21
0.0
 31
0.0
  0
DIMENSION
  5
7D7F
  8
3
  2
*D22
 10
1141.6014572732911
 20
6679.6930466065596
 30
0.0
 11
2722.5860431277829
 21
6679.6930466065596
 31
0.0
 70
   128
 13
4336.6014331561528
 23
6003.5489307527114
 33
0.0
 14
1141.6014572732911
 24
3288.5487049430972
 34
0.0
 50
180.0
1001
ACAD
1000
DSTYLE
1002
{
1070
   287
1070
     3
1070
   287
1070
     3
1070
    40
1040
45.0
1070
   143
1040
0.039
1070
   172
1070
     1
1070
   271
1070
     0
1070
   279
1070
     0
1070
   288
1070
     1
1002
}
  0
DIMENSION
  5
7D91
  8
3
  2
*D23
 10
5341.231064277732
 20
2923.5479307526539
 30
0.0
 11
5341.2310642777302
 21
4529.9144900973479
 31
0.0
 70
   128
 13
4336.6014331561528
 23
6068.5489307527123
 33
0.0
 14
4241.6014908603192
 24
2923.5479307526539
 34
0.0
 50
90.0
1001
ACAD
1000
DSTYLE
1002
{
1070
   287
1070
     3
1070
   287
1070
     3
1070
    40
1040
45.0
1070
   143
1040
0.039
1070
   172
1070
     1
1070
   271
1070
     0
1070
   279
1070
     0
1070
   288
1070
     1
1002
}
  0
ENDSEC
  0
EOF
