  0
SECTION
  2
HEADER
  9
$ACADVER
  1
AC1009
  9
$INSBASE
 10
0.0
 20
0.0
 30
0.0
  9
$EXTMIN
 10
0.0
 20
0.0
 30
0.0
  9
$EXTMAX
 10
9450.0
 20
13275.0
 30
0.0
  9
$LIMMIN
 10
0.0
 20
0.0
  9
$LIMMAX
 10
297.0
 20
210.0
  9
$ORTHOMODE
 70
     0
  9
$REGENMODE
 70
     1
  9
$FILLMODE
 70
     0
  9
$QTEXTMODE
 70
     0
  9
$MIRRTEXT
 70
     1
  9
$DRAGMODE
 70
     2
  9
$LTSCALE
 40
100.0
  9
$OSMODE
 70
    37
  9
$ATTMODE
 70
     1
  9
$TEXTSIZE
 40
180.0
  9
$TRACEWID
 40
0.05
  9
$TEXTSTYLE
  7
STANDARD
  9
$CLAYER
  8
3
  9
$CELTYPE
  6
BYLAYER
  9
$CECOLOR
 62
   256
  9
$DIMSCALE
 40
45.0
  9
$DIMASZ
 40
2.0
  9
$DIMEXO
 40
0.5
  9
$DIMDLI
 40
10.0
  9
$DIMRND
 40
0.0
  9
$DIMDLE
 40
0.0
  9
$DIMEXE
 40
1.0
  9
$DIMTP
 40
1.0
  9
$DIMTM
 40
1.0
  9
$DIMTXT
 40
3.0
  9
$DIMCEN
 40
0.0
  9
$DIMTSZ
 40
0.0
  9
$DIMTOL
 70
     0
  9
$DIMLIM
 70
     0
  9
$DIMTIH
 70
     0
  9
$DIMTOH
 70
     0
  9
$DIMSE1
 70
     0
  9
$DIMSE2
 70
     0
  9
$DIMTAD
 70
     1
  9
$DIMZIN
 70
     8
  9
$DIMBLK
  1

  9
$DIMASO
 70
     1
  9
$DIMSHO
 70
     1
  9
$DIMPOST
  1

  9
$DIMAPOST
  1

  9
$DIMALT
 70
     0
  9
$DIMALTD
 70
     2
  9
$DIMALTF
 40
0.039
  9
$DIMLFAC
 40
1.0
  9
$DIMTOFL
 70
     1
  9
$DIMTVP
 40
0.0
  9
$DIMTIX
 70
     0
  9
$DIMSOXD
 70
     0
  9
$DIMSAH
 70
     1
  9
$DIMBLK1
  1
OPEN
  9
$DIMBLK2
  1
OPEN
  9
$DIMSTYLE
  2
IGA
  9
$DIMCLRD
 70
     0
  9
$DIMCLRE
 70
     0
  9
$DIMCLRT
 70
     0
  9
$DIMTFAC
 40
10.0
  9
$DIMGAP
 40
1.0
  9
$LUNITS
 70
     2
  9
$LUPREC
 70
     3
  9
$SKETCHINC
 40
0.1
  9
$FILLETRAD
 40
50.0
  9
$AUNITS
 70
     0
  9
$AUPREC
 70
     0
  9
$MENU
  1
acad
  9
$ELEVATION
 40
0.0
  9
$PELEVATION
 40
0.0
  9
$THICKNESS
 40
0.0
  9
$LIMCHECK
 70
     0
  9
$BLIPMODE
 70
     0
  9
$CHAMFERA
 40
0.5
  9
$CHAMFERB
 40
0.5
  9
$SKPOLY
 70
     0
  9
$TDCREATE
 40
2452331.406026504
  9
$TDUPDATE
 40
2454953.6634666082
  9
$TDINDWG
 40
0.0605541204
  9
$TDUSRTIMER
 40
0.0605541204
  9
$USRTIMER
 70
     1
  9
$ANGBASE
 50
0.0
  9
$ANGDIR
 70
     0
  9
$PDMODE
 70
     0
  9
$PDSIZE
 40
0.0
  9
$PLINEWID
 40
0.0
  9
$COORDS
 70
     1
  9
$SPLFRAME
 70
     0
  9
$SPLINETYPE
 70
     6
  9
$SPLINESEGS
 70
     8
  9
$ATTDIA
 70
     0
  9
$ATTREQ
 70
     1
  9
$HANDLING
 70
 10241
  9
$HANDSEED
  5
7F9E
  9
$SURFTAB1
 70
     6
  9
$SURFTAB2
 70
     6
  9
$SURFTYPE
 70
     6
  9
$SURFU
 70
     6
  9
$SURFV
 70
     6
  9
$UCSNAME
  2

  9
$UCSORG
 10
0.0
 20
0.0
 30
0.0
  9
$UCSXDIR
 10
1.0
 20
0.0
 30
0.0
  9
$UCSYDIR
 10
0.0
 20
1.0
 30
0.0
  9
$PUCSNAME
  2

  9
$PUCSORG
 10
0.0
 20
0.0
 30
0.0
  9
$PUCSXDIR
 10
1.0
 20
0.0
 30
0.0
  9
$PUCSYDIR
 10
0.0
 20
1.0
 30
0.0
  9
$USERI1
 70
     0
  9
$USERI2
 70
     0
  9
$USERI3
 70
     0
  9
$USERI4
 70
     0
  9
$USERI5
 70
     0
  9
$USERR1
 40
0.0
  9
$USERR2
 40
0.0
  9
$USERR3
 40
0.0
  9
$USERR4
 40
0.0
  9
$USERR5
 40
0.0
  9
$WORLDVIEW
 70
     1
  9
$SHADEDGE
 70
     3
  9
$SHADEDIF
 70
    70
  9
$TILEMODE
 70
     1
  9
$MAXACTVP
 70
    16
  9
$PLIMCHECK
 70
     0
  9
$PEXTMIN
 10
1.0000000000000000E+020
 20
1.0000000000000000E+020
 30
1.0000000000000000E+020
  9
$PEXTMAX
 10
-1.0000000000000000E+020
 20
-1.0000000000000000E+020
 30
-1.0000000000000000E+020
  9
$PLIMMIN
 10
0.0
 20
0.0
  9
$PLIMMAX
 10
12.0
 20
9.0
  9
$UNITMODE
 70
     0
  9
$VISRETAIN
 70
     0
  9
$PLINEGEN
 70
     0
  9
$PSLTSCALE
 70
     1
  0
ENDSEC
  0
SECTION
  2
TABLES
  0
TABLE
  2
VPORT
 70
     2
  0
VPORT
  2
*ACTIVE
 70
     0
 10
0.0
 20
0.0
 11
1.0
 21
1.0
 12
20601.308672431631
 22
6773.0125037832267
 13
0.0
 23
0.0
 14
10.0
 24
10.0
 15
10.0
 25
10.0
 16
0.0
 26
0.0
 36
1.0
 17
0.0
 27
0.0
 37
0.0
 40
16486.64738711089
 41
3.1666666666666661
 42
50.0
 43
0.0
 44
0.0
 50
0.0
 51
0.0
 71
     0
 72
   100
 73
     1
 74
     0
 75
     0
 76
     0
 77
     0
 78
     0
  0
ENDTAB
  0
TABLE
  2
LTYPE
 70
     2
  0
LTYPE
  2
CONTINUOUS
 70
     0
  3
Solid line
 72
    65
 73
     0
 40
0.0
  0
LTYPE
  2
CENTER
 70
     0
  3
____ _ ____ _ ____ _ ____ _ ____ _ ____ _ ____ 
 72
    65
 73
     4
 40
2.0
 49
1.25
 49
-0.25
 49
0.25
 49
-0.25
  0
ENDTAB
  0
TABLE
  2
LAYER
 70
     6
  0
LAYER
  2
0
 70
     0
 62
     7
  6
CONTINUOUS
  0
LAYER
  2
3
 70
     0
 62
     2
  6
CONTINUOUS
  0
LAYER
  2
2
 70
     0
 62
     3
  6
CENTER
  0
LAYER
  2
1
 70
     0
 62
     4
  6
CONTINUOUS
  0
LAYER
  2
4
 70
     0
 62
     7
  6
CONTINUOUS
  0
LAYER
  2
DEFPOINTS
 70
     0
 62
     7
  6
CONTINUOUS
  0
ENDTAB
  0
TABLE
  2
STYLE
 70
     1
  0
STYLE
  2
STANDARD
 70
     0
 40
0.0
 41
1.0
 50
0.0
 71
     0
 42
180.0
  3
simplex.shx
  4
extfont.shx
  0
ENDTAB
  0
TABLE
  2
VIEW
 70
     0
  0
ENDTAB
  0
TABLE
  2
UCS
 70
     0
  0
ENDTAB
  0
TABLE
  2
APPID
 70
     1
  0
APPID
  2
ACAD
 70
     0
  0
ENDTAB
  0
TABLE
  2
DIMSTYLE
 70
     1
  0
DIMSTYLE
  2
IGA
 70
     0
  3

  4

  5

  6
OPEN
  7
OPEN
 40
2.0
 41
2.0
 42
0.5
 43
10.0
 44
1.0
 45
0.0
 46
0.0
 47
1.0
 48
1.0
140
3.0
141
0.0
142
0.0
143
0.03937
144
1.0
145
0.0
146
10.0
147
1.0
 71
     0
 72
     0
 73
     0
 74
     0
 75
     0
 76
     0
 77
     1
 78
     8
170
     0
171
     2
172
     0
173
     1
174
     0
175
     0
176
     0
177
     0
178
     0
  0
ENDTAB
  0
ENDSEC
  0
SECTION
  2
BLOCKS
  0
BLOCK
  8
0
  2
$MODEL_SPACE
 70
     0
 10
0.0
 20
0.0
 30
0.0
  3
$MODEL_SPACE
  1

  0
ENDBLK
  5
1B
  8
0
  0
BLOCK
 67
     1
  8
0
  2
$PAPER_SPACE
 70
     0
 10
0.0
 20
0.0
 30
0.0
  3
$PAPER_SPACE
  1

  0
ENDBLK
  5
18
 67
     1
  8
0
  0
BLOCK
  8
0
  2
_OPEN
 70
     0
 10
0.0
 20
0.0
 30
0.0
  3
_OPEN
  1

  0
LINE
  5
79FD
  8
0
  6
BYBLOCK
 62
     0
 10
-1.0
 20
0.1666666666666666
 30
0.0
 11
0.0
 21
0.0
 31
0.0
  0
LINE
  5
79FE
  8
0
  6
BYBLOCK
 62
     0
 10
0.0
 20
0.0
 30
0.0
 11
-1.0
 21
-0.1666666666666666
 31
0.0
  0
LINE
  5
79FF
  8
0
  6
BYBLOCK
 62
     0
 10
0.0
 20
0.0
 30
0.0
 11
-1.0
 21
0.0
 31
0.0
  0
ENDBLK
  5
7A01
  8
0
  0
BLOCK
  8
0
  2
*D1
 70
     1
 10
0.0
 20
0.0
 30
0.0
  3
*D1
  1

  0
LINE
  5
7ECC
  8
3
 62
     0
 10
4573.2503101935617
 20
9371.3599020311649
 30
0.0
 11
4573.2503101935617
 21
9621.9388581120584
 31
0.0
  0
LINE
  5
7ECD
  8
3
 62
     0
 10
2673.2503101934449
 20
9371.3599682271069
 30
0.0
 11
2673.2503101934449
 21
9621.9388581120584
 31
0.0
  0
LINE
  5
7ECE
  8
3
 62
     0
 10
4483.2503101935617
 20
9576.9388581120584
 30
0.0
 11
2763.2503101934449
 21
9576.9388581120584
 31
0.0
  0
INSERT
  5
7ECF
  8
3
 62
     0
  2
_OPEN
 10
4573.2503101935617
 20
9576.9388581120584
 30
0.0
 41
90.0
 42
90.0
 43
90.0
  0
INSERT
  5
7ED0
  8
3
 62
     0
  2
_OPEN
 10
2673.2503101934449
 20
9576.9388581120584
 30
0.0
 41
90.0
 42
90.0
 43
90.0
 50
180.0
  0
TEXT
  8
3
  40
135
  5
7F88
  62
0
  72
0
  71
0
 10
3352.92
 20
9450.49
 30
0.000000
  1
1900
  0
POINT
  5
7ED2
  8
DEFPOINTS
 62
     0
 10
4573.2503101935617
 20
9348.8599020311631
 30
0.0
  0
POINT
  5
7ED3
  8
DEFPOINTS
 62
     0
 10
2673.2503101934449
 20
9348.8599682271088
 30
0.0
  0
POINT
  5
7ED4
  8
DEFPOINTS
 62
     0
 10
2673.2503101934449
 20
9576.9388581120584
 30
0.0
  0
ENDBLK
  5
7DFD
  8
0
  0
BLOCK
  8
0
  2
*D2
 70
     1
 10
0.0
 20
0.0
 30
0.0
  3
*D2
  1

  0
LINE
  5
7ED5
  8
3
 62
     0
 10
1473.2504690801411
 20
8871.360010035065
 30
0.0
 11
1473.2504690801411
 21
9621.9389330063605
 31
0.0
  0
LINE
  5
7ED6
  8
3
 62
     0
 10
2583.2503101934449
 20
9576.9389330063586
 30
0.0
 11
1563.2504690801411
 21
9576.9389330063586
 31
0.0
  0
INSERT
  5
7ED7
  8
3
 62
     0
  2
_OPEN
 10
2673.2503101934449
 20
9576.9389330063586
 30
0.0
 41
90.0
 42
90.0
 43
90.0
  0
INSERT
  5
7ED8
  8
3
 62
     0
  2
_OPEN
 10
1473.2504690801411
 20
9576.9389330063586
 30
0.0
 41
90.0
 42
90.0
 43
90.0
 50
180.0
  0
TEXT
  8
3
  40
135
  5
7F89
  62
0
  72
0
  71
0
 10
1803.25
 20
9450.49
 30
0.000000
  1
1200
  0
POINT
  5
7EDA
  8
DEFPOINTS
 62
     0
 10
2673.2503101934449
 20
9348.8599682271088
 30
0.0
  0
POINT
  5
7EDB
  8
DEFPOINTS
 62
     0
 10
1473.2504690801411
 20
8848.8600100350668
 30
0.0
  0
POINT
  5
7EDC
  8
DEFPOINTS
 62
     0
 10
1473.2504690801411
 20
9576.9389330063586
 30
0.0
  0
ENDBLK
  5
7E1D
  8
0
  0
BLOCK
  8
0
  2
*D3
 70
     1
 10
0.0
 20
0.0
 30
0.0
  3
*D3
  1

  0
LINE
  5
7EDD
  8
3
 62
     0
 10
1450.7504690801411
 20
8848.8600100350668
 30
0.0
 11
1034.4752913968739
 21
8848.8600100350668
 31
0.0
  0
LINE
  5
7EDE
  8
3
 62
     0
 10
1450.7508186310679
 20
7748.8600100350523
 30
0.0
 11
1034.4752913968739
 21
7748.8600100350523
 31
0.0
  0
LINE
  5
7EDF
  8
3
 62
     0
 10
1079.4752913968739
 20
8758.8600100350632
 30
0.0
 11
1079.4752913968739
 21
7838.8600100350532
 31
0.0
  0
INSERT
  5
7EE0
  8
3
 62
     0
  2
_OPEN
 10
1079.4752913968739
 20
8848.8600100350668
 30
0.0
 41
90.0
 42
90.0
 43
90.0
 50
90.0
  0
INSERT
  5
7EE1
  8
3
 62
     0
  2
_OPEN
 10
1079.4752913968739
 20
7748.8600100350523
 30
0.0
 41
90.0
 42
90.0
 43
90.0
 50
270.0
  0
TEXT
  8
3
  40
135
  5
7F8A
  62
0
  72
0
  71
0
 10
696.975
 20
8056.40
 30
0.000000
  1
1100
  0
POINT
  5
7EE3
  8
DEFPOINTS
 62
     0
 10
1473.2504690801411
 20
8848.8600100350668
 30
0.0
  0
POINT
  5
7EE4
  8
DEFPOINTS
 62
     0
 10
1473.250818631067
 20
7748.8600100350523
 30
0.0
  0
POINT
  5
7EE5
  8
DEFPOINTS
 62
     0
 10
1079.4752913968739
 20
7748.8600100350523
 30
0.0
  0
ENDBLK
  5
7E28
  8
0
  0
BLOCK
  8
0
  2
*D4
 70
     1
 10
0.0
 20
0.0
 30
0.0
  3
*D4
  1

  0
LINE
  5
7EE6
  8
3
 62
     0
 10
4595.7503101935617
 20
9348.8599020311631
 30
0.0
 11
5023.395099181048
 21
9348.8599020311631
 31
0.0
  0
LINE
  5
7EE7
  8
3
 62
     0
 10
4595.7508186312698
 20
7748.8599020311458
 30
0.0
 11
5023.395099181048
 21
7748.8599020311458
 31
0.0
  0
LINE
  5
7EE8
  8
3
 62
     0
 10
4978.395099181047
 20
9258.8599020311631
 30
0.0
 11
4978.395099181047
 21
7838.8599020311449
 31
0.0
  0
INSERT
  5
7EE9
  8
3
 62
     0
  2
_OPEN
 10
4978.395099181047
 20
9348.8599020311631
 30
0.0
 41
90.0
 42
90.0
 43
90.0
 50
90.0
  0
INSERT
  5
7EEA
  8
3
 62
     0
  2
_OPEN
 10
4978.395099181047
 20
7748.8599020311458
 30
0.0
 41
90.0
 42
90.0
 43
90.0
 50
270.0
  0
TEXT
  8
3
  40
135
  5
7F8B
  62
0
  72
0
  71
0
 10
4595.90
 20
8303.98
 30
0.000000
  1
1600
  0
POINT
  5
7EEC
  8
DEFPOINTS
 62
     0
 10
4573.2503101935617
 20
9348.8599020311631
 30
0.0
  0
POINT
  5
7EED
  8
DEFPOINTS
 62
     0
 10
4573.2508186312707
 20
7748.8599020311458
 30
0.0
  0
POINT
  5
7EEE
  8
DEFPOINTS
 62
     0
 10
4978.395099181047
 20
7748.8599020311458
 30
0.0
  0
ENDBLK
  5
7E35
  8
0
  0
BLOCK
  8
0
  2
*D5
 70
     1
 10
0.0
 20
0.0
 30
0.0
  3
*D5
  1

  0
LINE
  5
7EEF
  8
3
 62
     0
 10
4573.2508186312707
 20
7726.3599020311449
 30
0.0
 11
4573.2508186312707
 21
7274.5861643090429
 31
0.0
  0
LINE
  5
7EF0
  8
3
 62
     0
 10
1473.250818631067
 20
7726.3600100350532
 30
0.0
 11
1473.250818631067
 21
7274.5861643090429
 31
0.0
  0
LINE
  5
7EF1
  8
3
 62
     0
 10
4483.2508186312707
 20
7319.586164309042
 30
0.0
 11
1563.250818631067
 21
7319.586164309042
 31
0.0
  0
INSERT
  5
7EF2
  8
3
 62
     0
  2
_OPEN
 10
4573.2508186312707
 20
7319.586164309042
 30
0.0
 41
90.0
 42
90.0
 43
90.0
  0
INSERT
  5
7EF3
  8
3
 62
     0
  2
_OPEN
 10
1473.250818631067
 20
7319.586164309042
 30
0.0
 41
90.0
 42
90.0
 43
90.0
 50
180.0
  0
TEXT
  8
3
  40
135
  5
7F8C
  62
0
  72
0
  71
0
 10
2820.91
 20
7193.14
 30
0.000000
  1
3100
  0
POINT
  5
7EF5
  8
DEFPOINTS
 62
     0
 10
4573.2508186312707
 20
7748.8599020311458
 30
0.0
  0
POINT
  5
7EF6
  8
DEFPOINTS
 62
     0
 10
1473.250818631067
 20
7748.8600100350523
 30
0.0
  0
POINT
  5
7EF7
  8
DEFPOINTS
 62
     0
 10
1473.250818631067
 20
7319.586164309042
 30
0.0
  0
ENDBLK
  5
7E08
  8
0
  0
BLOCK
  8
0
  2
*D6
 70
     1
 10
0.0
 20
0.0
 30
0.0
  3
*D6
  1

  0
LINE
  5
7EF8
  8
3
 62
     0
 10
4668.2510131759964
 20
6091.0488943449418
 30
0.0
 11
4668.2510131759964
 21
6426.5113241520212
 31
0.0
  0
LINE
  5
7EF9
  8
3
 62
     0
 10
3623.2510151900142
 20
6051.2840723405334
 30
0.0
 11
3623.2510151900142
 21
6426.5113241520212
 31
0.0
  0
LINE
  5
7EFA
  8
3
 62
     0
 10
4578.2510131759964
 20
6381.5113241520221
 30
0.0
 11
3713.2510151900142
 21
6381.5113241520221
 31
0.0
  0
INSERT
  5
7EFB
  8
3
 62
     0
  2
_OPEN
 10
4668.2510131759964
 20
6381.5113241520221
 30
0.0
 41
90.0
 42
90.0
 43
90.0
  0
INSERT
  5
7EFC
  8
3
 62
     0
  2
_OPEN
 10
3623.2510151900142
 20
6381.5113241520221
 30
0.0
 41
90.0
 42
90.0
 43
90.0
 50
180.0
  0
TEXT
  8
3
  40
135
  5
7F8D
  62
0
  72
0
  71
0
 10
3867.93
 20
6255.06
 30
0.000000
  1
1045
  0
POINT
  5
7EFE
  8
DEFPOINTS
 62
     0
 10
4668.2510131759964
 20
6068.5488943449418
 30
0.0
  0
POINT
  5
7EFF
  8
DEFPOINTS
 62
     0
 10
3623.2510151900142
 20
6028.7840723405343
 30
0.0
  0
POINT
  5
7F00
  8
DEFPOINTS
 62
     0
 10
3623.2510151900142
 20
6381.5113241520221
 30
0.0
  0
ENDBLK
  5
7DF2
  8
0
  0
BLOCK
  8
0
  2
*D7
 70
     1
 10
0.0
 20
0.0
 30
0.0
  3
*D7
  1

  0
LINE
  5
7F01
  8
3
 62
     0
 10
2252.2509558990532
 20
4447.0479785183079
 30
0.0
 11
2252.2509558990532
 21
6426.5113898489426
 31
0.0
  0
LINE
  5
7F02
  8
3
 62
     0
 10
3533.2510151900142
 20
6381.5113898489426
 30
0.0
 11
2342.2509558990532
 21
6381.5113898489426
 31
0.0
  0
INSERT
  5
7F03
  8
3
 62
     0
  2
_OPEN
 10
3623.2510151900142
 20
6381.5113898489426
 30
0.0
 41
90.0
 42
90.0
 43
90.0
  0
INSERT
  5
7F04
  8
3
 62
     0
  2
_OPEN
 10
2252.2509558990532
 20
6381.5113898489426
 30
0.0
 41
90.0
 42
90.0
 43
90.0
 50
180.0
  0
TEXT
  8
3
  40
135
  5
7F8E
  62
0
  72
0
  71
0
 10
2667.75
 20
6255.06
 30
0.000000
  1
1371
  0
POINT
  5
7F06
  8
DEFPOINTS
 62
     0
 10
3623.2510151900142
 20
6028.7840723405343
 30
0.0
  0
POINT
  5
7F07
  8
DEFPOINTS
 62
     0
 10
2252.2509558990532
 20
4424.5479785183079
 30
0.0
  0
POINT
  5
7F08
  8
DEFPOINTS
 62
     0
 10
2252.2509558990532
 20
6381.5113898489426
 30
0.0
  0
ENDBLK
  5
7D99
  8
0
  0
BLOCK
  8
0
  2
*D8
 70
     1
 10
0.0
 20
0.0
 30
0.0
  3
*D8
  1

  0
LINE
  5
7F09
  8
3
 62
     0
 10
4690.7510109113973
 20
6003.5488943449418
 30
0.0
 11
5047.8167500231548
 21
6003.5488943449418
 31
0.0
  0
LINE
  5
7F0A
  8
3
 62
     0
 10
4690.7509534254477
 20
4353.5488943449427
 30
0.0
 11
5047.8167500231548
 21
4353.5488943449427
 31
0.0
  0
LINE
  5
7F0B
  8
3
 62
     0
 10
5002.8167500231557
 20
5913.5488943449409
 30
0.0
 11
5002.8167500231557
 21
4443.5488943449427
 31
0.0
  0
INSERT
  5
7F0C
  8
3
 62
     0
  2
_OPEN
 10
5002.8167500231557
 20
6003.5488943449418
 30
0.0
 41
90.0
 42
90.0
 43
90.0
 50
90.0
  0
INSERT
  5
7F0D
  8
3
 62
     0
  2
_OPEN
 10
5002.8167500231557
 20
4353.5488943449427
 30
0.0
 41
90.0
 42
90.0
 43
90.0
 50
270.0
  0
TEXT
  8
3
  40
135
  5
7F8F
  62
0
  72
0
  71
0
 10
4620.32
 20
4910.69
 30
0.000000
  1
1650
  0
POINT
  5
7F0F
  8
DEFPOINTS
 62
     0
 10
4668.2510109113973
 20
6003.5488943449418
 30
0.0
  0
POINT
  5
7F10
  8
DEFPOINTS
 62
     0
 10
4668.2509534254477
 20
4353.5488943449427
 30
0.0
  0
POINT
  5
7F11
  8
DEFPOINTS
 62
     0
 10
5002.8167500231557
 20
4353.5488943449427
 30
0.0
  0
ENDBLK
  5
7DD1
  8
0
  0
BLOCK
  8
0
  2
*D9
 70
     1
 10
0.0
 20
0.0
 30
0.0
  3
*D9
  1

  0
LINE
  5
7F12
  8
3
 62
     0
 10
4690.7510109113973
 20
6003.5488943449418
 30
0.0
 11
5313.278649040155
 21
6003.5488943449418
 31
0.0
  0
LINE
  5
7F13
  8
3
 62
     0
 10
4785.4261780599918
 20
4308.5478910464581
 30
0.0
 11
5313.278649040155
 21
4308.5478910464581
 31
0.0
  0
LINE
  5
7F14
  8
3
 62
     0
 10
5268.278649040155
 20
5913.5488943449409
 30
0.0
 11
5268.278649040155
 21
4398.547891046459
 31
0.0
  0
INSERT
  5
7F15
  8
3
 62
     0
  2
_OPEN
 10
5268.278649040155
 20
6003.5488943449418
 30
0.0
 41
90.0
 42
90.0
 43
90.0
 50
90.0
  0
INSERT
  5
7F16
  8
3
 62
     0
  2
_OPEN
 10
5268.278649040155
 20
4308.5478910464581
 30
0.0
 41
90.0
 42
90.0
 43
90.0
 50
270.0
  0
TEXT
  8
3
  40
135
  5
7F90
  62
0
  72
0
  71
0
 10
4885.78
 20
4888.59
 30
0.000000
  1
1695
  0
POINT
  5
7F18
  8
DEFPOINTS
 62
     0
 10
4668.2510109113973
 20
6003.5488943449418
 30
0.0
  0
POINT
  5
7F19
  8
DEFPOINTS
 62
     0
 10
4762.9261780599918
 20
4308.5478910464581
 30
0.0
  0
POINT
  5
7F1A
  8
DEFPOINTS
 62
     0
 10
5268.278649040155
 20
4308.5478910464581
 30
0.0
  0
ENDBLK
  5
7DDC
  8
0
  0
BLOCK
  8
0
  2
*D10
 70
     1
 10
0.0
 20
0.0
 30
0.0
  3
*D10
  1

  0
LINE
  5
7F1B
  8
3
 62
     0
 10
4595.7509364455227
 20
3138.5478976546951
 30
0.0
 11
5313.2785797438301
 21
3138.5478976546942
 31
0.0
  0
LINE
  5
7F1C
  8
3
 62
     0
 10
5268.2785797438291
 20
4218.5478910464581
 30
0.0
 11
5268.2785797438291
 21
3228.5478976546942
 31
0.0
  0
INSERT
  5
7F1D
  8
3
 62
     0
  2
_OPEN
 10
5268.2785797438291
 20
4308.5478910464581
 30
0.0
 41
90.0
 42
90.0
 43
90.0
 50
90.0
  0
INSERT
  5
7F1E
  8
3
 62
     0
  2
_OPEN
 10
5268.2785797438291
 20
3138.5478976546942
 30
0.0
 41
90.0
 42
90.0
 43
90.0
 50
270.0
  0
TEXT
  8
3
  40
135
  5
7F91
  62
0
  72
0
  71
0
 10
4885.78
 20
3484.60
 30
0.000000
  1
1170
  0
POINT
  5
7F20
  8
DEFPOINTS
 62
     0
 10
4762.9261780599918
 20
4308.5478910464581
 30
0.0
  0
POINT
  5
7F21
  8
DEFPOINTS
 62
     0
 10
4573.2509364455236
 20
3138.5478976546951
 30
0.0
  0
POINT
  5
7F22
  8
DEFPOINTS
 62
     0
 10
5268.2785797438291
 20
3138.5478976546942
 30
0.0
  0
ENDBLK
  5
7DBA
  8
0
  0
BLOCK
  8
0
  2
*D11
 70
     1
 10
0.0
 20
0.0
 30
0.0
  3
*D11
  1

  0
LINE
  5
7E68
  8
0
  6
BYBLOCK
 62
     0
 10
4595.7509668686816
 20
3118.547897654686
 30
0.0
 11
5313.2785790470298
 21
3118.547897654686
 31
0.0
  0
LINE
  5
7E69
  8
0
  6
BYBLOCK
 62
     0
 10
5268.2785790470298
 20
3228.5478976546951
 30
0.0
 11
5268.2785790470298
 21
3318.5478976546951
 31
0.0
  0
LINE
  5
7E6A
  8
0
  6
BYBLOCK
 62
     0
 10
5268.2785790470298
 20
3028.547897654686
 30
0.0
 11
5268.2785790470298
 21
2938.547897654686
 31
0.0
  0
TEXT
  5
7E6B
  8
3
 62
     0
 10
5528.6357219041729
 20
3089.9246100510122
 30
0.0
 40
135.0
  1
(20)
 50
90.0
  0
LINE
  5
7E6C
  8
0
  6
BYBLOCK
 62
     0
 10
5268.2785790470298
 20
3138.5478976546951
 30
0.0
 11
5268.2785790470298
 21
3118.547897654686
 31
0.0
  0
INSERT
  5
7E6D
  8
0
  6
BYBLOCK
 62
     0
  2
_OPEN
 10
5268.2785790470298
 20
3138.5478976546951
 30
0.0
 41
90.0
 42
90.0
 43
90.0
 50
270.0
  0
INSERT
  5
7E6E
  8
0
  6
BYBLOCK
 62
     0
  2
_DOT
 10
5268.2785790470298
 20
3118.547897654686
 30
0.0
 41
90.0
 42
90.0
 43
90.0
 50
90.0
  0
POINT
  5
7E6F
  8
DEFPOINTS
  6
BYBLOCK
 62
     0
 10
4573.2509364455236
 20
3138.5478976546951
 30
0.0
  0
POINT
  5
7E70
  8
DEFPOINTS
  6
BYBLOCK
 62
     0
 10
4573.2509668686816
 20
3118.547897654686
 30
0.0
  0
POINT
  5
7E71
  8
DEFPOINTS
  6
BYBLOCK
 62
     0
 10
5268.2785790470298
 20
3118.547897654686
 30
0.0
  0
ENDBLK
  5
7E72
  8
0
  0
BLOCK
  8
0
  2
*D12
 70
     1
 10
0.0
 20
0.0
 30
0.0
  3
*D12
  1

  0
LINE
  5
7F23
  8
3
 62
     0
 10
4595.7509668686816
 20
3118.547897654686
 30
0.0
 11
5313.2785738210341
 21
3118.547897654686
 31
0.0
  0
LINE
  5
7F24
  8
3
 62
     0
 10
4595.7509628762191
 20
3043.5478976546819
 30
0.0
 11
5313.2785738210341
 21
3043.547897654681
 31
0.0
  0
LINE
  5
7F25
  8
3
 62
     0
 10
5268.2785738210341
 20
3208.5478976546851
 30
0.0
 11
5268.2785738210341
 21
3298.5478976546851
 31
0.0
  0
LINE
  5
7F26
  8
3
 62
     0
 10
5268.2785738210341
 20
2953.547897654681
 30
0.0
 11
5268.2785738210341
 21
2554.9764690832531
 31
0.0
  0
LINE
  5
7F27
  8
3
 62
     0
 10
5268.2785738210341
 20
3118.547897654686
 30
0.0
 11
5268.2785738210341
 21
3043.547897654681
 31
0.0
  0
INSERT
  5
7F28
  8
3
 62
     0
  2
_DOT
 10
5268.2785738210341
 20
3118.547897654686
 30
0.0
 41
90.0
 42
90.0
 43
90.0
 50
270.0
  0
INSERT
  5
7F29
  8
3
 62
     0
  2
_OPEN
 10
5268.2785738210341
 20
3043.547897654681
 30
0.0
 41
90.0
 42
90.0
 43
90.0
 50
90.0
  0
TEXT
  8
3
  40
135
  5
7F92
  62
0
  72
0
  71
0
 10
4885.78
 20
2470.31
 30
0.000000
  1
75
  0
POINT
  5
7F2B
  8
DEFPOINTS
 62
     0
 10
4573.2509668686816
 20
3118.547897654686
 30
0.0
  0
POINT
  5
7F2C
  8
DEFPOINTS
 62
     0
 10
4573.2509628762191
 20
3043.5478976546819
 30
0.0
  0
POINT
  5
7F2D
  8
DEFPOINTS
 62
     0
 10
5268.2785738210341
 20
3043.547897654681
 30
0.0
  0
ENDBLK
  5
7E48
  8
0
  0
BLOCK
  8
0
  2
_DOT
 70
     0
 10
0.0
 20
0.0
 30
0.0
  3
_DOT
  1

  0
LINE
  5
7D49
  8
0
  6
BYBLOCK
 62
     0
 10
0.0
 20
0.0
 30
0.0
 11
-1.0
 21
-0.0000000000000284
 31
0.0
  0
POLYLINE
  5
7D4A
  8
0
  6
BYBLOCK
 62
     0
 66
     1
 10
0.0
 20
0.0
 30
0.0
 70
     1
 40
0.1666666666666666
 41
0.1666666666666666
  0
VERTEX
  5
7F6B
  8
0
  6
BYBLOCK
 62
     0
 10
-0.0833333333333286
 20
-0.0000000000000284
 30
0.0
 42
1.0
  0
VERTEX
  5
7F6C
  8
0
  6
BYBLOCK
 62
     0
 10
0.0833333333333286
 20
-0.0000000000000284
 30
0.0
 42
1.0
  0
SEQEND
  5
7F6D
  8
0
  6
BYBLOCK
 62
     0
  0
ENDBLK
  5
7C8A
  8
0
  0
BLOCK
  8
0
  2
*D14
 70
     1
 10
0.0
 20
0.0
 30
0.0
  3
*D14
  1

  0
LINE
  5
7F2E
  8
3
 62
     0
 10
4573.2509628762191
 20
3021.0478976546819
 30
0.0
 11
4573.2509628762191
 21
2637.730368973369
 31
0.0
  0
LINE
  5
7F2F
  8
3
 62
     0
 10
3623.250959847067
 20
2859.3039125076202
 30
0.0
 11
3623.250959847067
 21
2637.730368973369
 31
0.0
  0
LINE
  5
7F30
  8
3
 62
     0
 10
4483.2509628762182
 20
2682.730368973369
 30
0.0
 11
3713.250959847067
 21
2682.730368973369
 31
0.0
  0
INSERT
  5
7F31
  8
3
 62
     0
  2
_OPEN
 10
4573.2509628762191
 20
2682.730368973369
 30
0.0
 41
90.0
 42
90.0
 43
90.0
  0
INSERT
  5
7F32
  8
3
 62
     0
  2
_OPEN
 10
3623.250959847067
 20
2682.730368973369
 30
0.0
 41
90.0
 42
90.0
 43
90.0
 50
180.0
  0
TEXT
  8
3
  40
135
  5
7F93
  62
0
  72
0
  71
0
 10
3859.00
 20
2556.28
 30
0.000000
  1
950
  0
POINT
  5
7F34
  8
DEFPOINTS
 62
     0
 10
4573.2509628762191
 20
3043.5478976546819
 30
0.0
  0
POINT
  5
7F35
  8
DEFPOINTS
 62
     0
 10
3623.250959847067
 20
2881.8039125076202
 30
0.0
  0
POINT
  5
7F36
  8
DEFPOINTS
 62
     0
 10
3623.250959847067
 20
2682.730368973369
 30
0.0
  0
ENDBLK
  5
7DE7
  8
0
  0
BLOCK
  8
0
  2
*D15
 70
     1
 10
0.0
 20
0.0
 30
0.0
  3
*D15
  1

  0
LINE
  5
7F37
  8
3
 62
     0
 10
1473.2509628762421
 20
3021.0487798490158
 30
0.0
 11
1473.2509628762421
 21
2637.7304614997479
 31
0.0
  0
LINE
  5
7F38
  8
3
 62
     0
 10
3533.250959847067
 20
2682.7304614997479
 30
0.0
 11
1563.2509628762409
 21
2682.7304614997479
 31
0.0
  0
INSERT
  5
7F39
  8
3
 62
     0
  2
_OPEN
 10
3623.250959847067
 20
2682.7304614997479
 30
0.0
 41
90.0
 42
90.0
 43
90.0
  0
INSERT
  5
7F3A
  8
3
 62
     0
  2
_OPEN
 10
1473.2509628762421
 20
2682.7304614997479
 30
0.0
 41
90.0
 42
90.0
 43
90.0
 50
180.0
  0
TEXT
  8
3
  40
135
  5
7F94
  62
0
  72
0
  71
0
 10
2278.25
 20
2556.28
 30
0.000000
  1
2150
  0
POINT
  5
7F3C
  8
DEFPOINTS
 62
     0
 10
3623.250959847067
 20
2881.8039125076202
 30
0.0
  0
POINT
  5
7F3D
  8
DEFPOINTS
 62
     0
 10
1473.2509628762421
 20
3043.5487798490158
 30
0.0
  0
POINT
  5
7F3E
  8
DEFPOINTS
 62
     0
 10
1473.2509628762421
 20
2682.7304614997479
 30
0.0
  0
ENDBLK
  5
7DA3
  8
0
  0
BLOCK
  8
0
  2
*D16
 70
     1
 10
0.0
 20
0.0
 30
0.0
  3
*D16
  1

  0
LINE
  5
7F3F
  8
3
 62
     0
 10
6163.7076748482614
 20
3021.0459582264848
 30
0.0
 11
6163.7076748482614
 21
2648.782163248412
 31
0.0
  0
LINE
  5
7F40
  8
3
 62
     0
 10
7094.7076764170961
 20
2949.733786392404
 30
0.0
 11
7094.7076764170961
 21
2648.782163248412
 31
0.0
  0
LINE
  5
7F41
  8
3
 62
     0
 10
6253.7076748482614
 20
2693.782163248412
 30
0.0
 11
7004.707676417097
 21
2693.782163248412
 31
0.0
  0
INSERT
  5
7F42
  8
3
 62
     0
  2
_OPEN
 10
6163.7076748482614
 20
2693.782163248412
 30
0.0
 41
90.0
 42
90.0
 43
90.0
 50
180.0
  0
INSERT
  5
7F43
  8
3
 62
     0
  2
_OPEN
 10
7094.7076764170961
 20
2693.782163248412
 30
0.0
 41
90.0
 42
90.0
 43
90.0
  0
TEXT
  8
3
  40
135
  5
7F95
  62
0
  72
0
  71
0
 10
6363.21
 20
2567.33
 30
0.000000
  1
931
  0
POINT
  5
7F45
  8
DEFPOINTS
 62
     0
 10
6163.7076748482614
 20
3043.5459582264839
 30
0.0
  0
POINT
  5
7F46
  8
DEFPOINTS
 62
     0
 10
7094.7076764170961
 20
2972.233786392404
 30
0.0
  0
POINT
  5
7F47
  8
DEFPOINTS
 62
     0
 10
7094.7076764170961
 20
2693.782163248412
 30
0.0
  0
ENDBLK
  5
7CC8
  8
0
  0
BLOCK
  8
0
  2
*D17
 70
     1
 10
0.0
 20
0.0
 30
0.0
  3
*D17
  1

  0
LINE
  5
7F48
  8
3
 62
     0
 10
7763.7076748482677
 20
3021.0456043108611
 30
0.0
 11
7763.7076748482677
 21
2648.782163248412
 31
0.0
  0
LINE
  5
7F49
  8
3
 62
     0
 10
7184.7076764170961
 20
2693.782163248412
 30
0.0
 11
7673.7076748482687
 21
2693.782163248412
 31
0.0
  0
INSERT
  5
7F4A
  8
3
 62
     0
  2
_OPEN
 10
7094.7076764170961
 20
2693.782163248412
 30
0.0
 41
90.0
 42
90.0
 43
90.0
 50
180.0
  0
INSERT
  5
7F4B
  8
3
 62
     0
  2
_OPEN
 10
7763.7076748482677
 20
2693.782163248412
 30
0.0
 41
90.0
 42
90.0
 43
90.0
  0
TEXT
  8
3
  40
135
  5
7F96
  62
0
  72
0
  71
0
 10
7159.21
 20
2567.33
 30
0.000000
  1
669
  0
POINT
  5
7F4D
  8
DEFPOINTS
 62
     0
 10
7094.7076764170961
 20
2972.233786392404
 30
0.0
  0
POINT
  5
7F4E
  8
DEFPOINTS
 62
     0
 10
7763.7076748482677
 20
3043.5456043108611
 30
0.0
  0
POINT
  5
7F4F
  8
DEFPOINTS
 62
     0
 10
7763.7076748482677
 20
2693.782163248412
 30
0.0
  0
ENDBLK
  5
7CD4
  8
0
  0
BLOCK
  8
0
  2
*D18
 70
     1
 10
0.0
 20
0.0
 30
0.0
  3
*D18
  1

  0
LINE
  5
7F50
  8
3
 62
     0
 10
6504.7075220183988
 20
6026.0479582272146
 30
0.0
 11
6504.7075220183988
 21
6290.8163495194749
 31
0.0
  0
LINE
  5
7F51
  8
3
 62
     0
 10
7684.7075220183988
 20
6026.0479582272137
 30
0.0
 11
7684.7075220183988
 21
6290.8163495194749
 31
0.0
  0
LINE
  5
7F52
  8
3
 62
     0
 10
6594.7075220183997
 20
6245.8163495194758
 30
0.0
 11
7594.7075220183997
 21
6245.8163495194758
 31
0.0
  0
INSERT
  5
7F53
  8
3
 62
     0
  2
_OPEN
 10
6504.7075220183988
 20
6245.8163495194758
 30
0.0
 41
90.0
 42
90.0
 43
90.0
 50
180.0
  0
INSERT
  5
7F54
  8
3
 62
     0
  2
_OPEN
 10
7684.7075220183988
 20
6245.8163495194758
 30
0.0
 41
90.0
 42
90.0
 43
90.0
  0
TEXT
  8
3
  40
135
  5
7F97
  62
0
  72
0
  71
0
 10
6824.80
 20
6119.37
 30
0.000000
  1
1180
  0
POINT
  5
7F56
  8
DEFPOINTS
 62
     0
 10
6504.7075220183988
 20
6003.5479582272146
 30
0.0
  0
POINT
  5
7F57
  8
DEFPOINTS
 62
     0
 10
7684.7075220183988
 20
6003.5479582272137
 30
0.0
  0
POINT
  5
7F58
  8
DEFPOINTS
 62
     0
 10
7684.7075220183988
 20
6245.8163495194758
 30
0.0
  0
ENDBLK
  5
7CE1
  8
0
  0
BLOCK
  8
0
  2
*D19
 70
     1
 10
0.0
 20
0.0
 30
0.0
  3
*D19
  1

  0
LINE
  5
7F59
  8
3
 62
     0
 10
7094.7075337226233
 20
6466.3713075726828
 30
0.0
 11
7094.7075337226233
 21
6645.3998632488301
 31
0.0
  0
LINE
  5
7F5A
  8
3
 62
     0
 10
6114.7075004250046
 20
4781.0479307527094
 30
0.0
 11
6114.7075004250046
 21
6645.3998632488301
 31
0.0
  0
LINE
  5
7F5B
  8
3
 62
     0
 10
7004.7075337226252
 20
6600.3998632488292
 30
0.0
 11
6204.7075004250046
 21
6600.3998632488292
 31
0.0
  0
INSERT
  5
7F5C
  8
3
 62
     0
  2
_OPEN
 10
7094.7075337226233
 20
6600.3998632488292
 30
0.0
 41
90.0
 42
90.0
 43
90.0
  0
INSERT
  5
7F5D
  8
3
 62
     0
  2
_OPEN
 10
6114.7075004250046
 20
6600.3998632488292
 30
0.0
 41
90.0
 42
90.0
 43
90.0
 50
180.0
  0
TEXT
  8
3
  40
135
  5
7F98
  62
0
  72
0
  71
0
 10
6334.71
 20
6586.45
 30
0.000000
  1
MAX
  0
TEXT
  8
3
  40
135
  5
7F99
  62
0
  72
0
  71
0
 10
6334.71
 20
6410.95
 30
0.000000
  1
1080
  0
POINT
  5
7F5F
  8
DEFPOINTS
 62
     0
 10
7094.7075337226233
 20
6443.8713075726837
 30
0.0
  0
POINT
  5
7F60
  8
DEFPOINTS
 62
     0
 10
6114.7075004250046
 20
4758.5479307527094
 30
0.0
  0
POINT
  5
7F61
  8
DEFPOINTS
 62
     0
 10
6114.7075004250046
 20
6600.3998632488292
 30
0.0
  0
ENDBLK
  5
7E9B
  8
0
  0
BLOCK
  8
0
  2
*D20
 70
     1
 10
0.0
 20
0.0
 30
0.0
  3
*D20
  1

  0
LINE
  5
7F62
  8
3
 62
     0
 10
7842.2115220183978
 20
5108.5479307527103
 30
0.0
 11
8202.1611522942494
 21
5108.5479307527103
 31
0.0
  0
LINE
  5
7F63
  8
3
 62
     0
 10
7842.2115220183978
 20
3508.5479307527089
 30
0.0
 11
8202.1611522942476
 21
3508.5479307527089
 31
0.0
  0
LINE
  5
7F64
  8
3
 62
     0
 10
8157.1611522942476
 20
5018.5479307527103
 30
0.0
 11
8157.1611522942476
 21
3598.5479307527089
 31
0.0
  0
INSERT
  5
7F65
  8
3
 62
     0
  2
_OPEN
 10
8157.1611522942476
 20
5108.5479307527103
 30
0.0
 41
90.0
 42
90.0
 43
90.0
 50
90.0
  0
INSERT
  5
7F66
  8
3
 62
     0
  2
_OPEN
 10
8157.1611522942476
 20
3508.5479307527089
 30
0.0
 41
90.0
 42
90.0
 43
90.0
 50
270.0
  0
TEXT
  8
3
  40
135
  5
7F9A
  62
0
  72
0
  71
0
 10
7774.66
 20
4070.94
 30
0.000000
  1
φ1600
  0
POINT
  5
7F68
  8
DEFPOINTS
 62
     0
 10
7819.7115220183987
 20
5108.5479307527103
 30
0.0
  0
POINT
  5
7F69
  8
DEFPOINTS
 62
     0
 10
7819.7115220183987
 20
3508.5479307527089
 30
0.0
  0
POINT
  5
7F6A
  8
DEFPOINTS
 62
     0
 10
8157.1611522942476
 20
3508.5479307527089
 30
0.0
  0
ENDBLK
  5
7D1D
  8
0
  0
BLOCK
  8
0
  2
*D21
 70
     1
 10
0.0
 20
0.0
 30
0.0
  3
*D21
  1

  0
LINE
  5
7F6E
  8
3
 62
     0
 10
4668.2510109113973
 20
6026.0488943449418
 30
0.0
 11
4668.2510109113973
 21
6724.6930664310403
 31
0.0
  0
LINE
  5
7F6F
  8
3
 62
     0
 10
1473.250940438011
 20
3311.0487798490331
 30
0.0
 11
1473.250940438011
 21
6724.6930664310403
 31
0.0
  0
LINE
  5
7F70
  8
3
 62
     0
 10
4578.2510109113964
 20
6679.6930664310412
 30
0.0
 11
1563.250940438011
 21
6679.6930664310412
 31
0.0
  0
INSERT
  5
7F71
  8
3
 62
     0
  2
_OPEN
 10
4668.2510109113973
 20
6679.6930664310412
 30
0.0
 41
90.0
 42
90.0
 43
90.0
  0
INSERT
  5
7F72
  8
3
 62
     0
  2
_OPEN
 10
1473.250940438011
 20
6679.6930664310412
 30
0.0
 41
90.0
 42
90.0
 43
90.0
 50
180.0
  0
TEXT
  8
3
  40
135
  5
7F9B
  62
0
  72
0
  71
0
 10
2784.24
 20
6553.24
 30
0.000000
  1
3195
  0
POINT
  5
7F74
  8
DEFPOINTS
 62
     0
 10
4668.2510109113973
 20
6003.5488943449418
 30
0.0
  0
POINT
  5
7F75
  8
DEFPOINTS
 62
     0
 10
1473.250940438011
 20
3288.5487798490331
 30
0.0
  0
POINT
  5
7F76
  8
DEFPOINTS
 62
     0
 10
1473.250940438011
 20
6679.6930664310412
 30
0.0
  0
ENDBLK
  5
7D8F
  8
0
  0
BLOCK
  8
0
  2
*D22
 70
     1
 10
0.0
 20
0.0
 30
0.0
  3
*D22
  1

  0
LINE
  5
7F77
  8
3
 62
     0
 10
4690.7510109113973
 20
6068.5488943449418
 30
0.0
 11
5692.2156306158004
 21
6068.5488943449418
 31
0.0
  0
LINE
  5
7F78
  8
3
 62
     0
 10
4595.75096287622
 20
3043.5478976546819
 30
0.0
 11
5692.2156306158004
 21
3043.547897654681
 31
0.0
  0
LINE
  5
7F79
  8
3
 62
     0
 10
5647.2156306158004
 20
5978.5488943449418
 30
0.0
 11
5647.2156306158004
 21
3133.5478976546819
 31
0.0
  0
INSERT
  5
7F7A
  8
3
 62
     0
  2
_OPEN
 10
5647.2156306158004
 20
6068.5488943449418
 30
0.0
 41
90.0
 42
90.0
 43
90.0
 50
90.0
  0
INSERT
  5
7F7B
  8
3
 62
     0
  2
_OPEN
 10
5647.2156306158004
 20
3043.547897654681
 30
0.0
 41
90.0
 42
90.0
 43
90.0
 50
270.0
  0
TEXT
  8
3
  40
135
  5
7F9C
  62
0
  72
0
  71
0
 10
5264.72
 20
4020.12
 30
0.000000
  1
3025
  0
POINT
  5
7F7D
  8
DEFPOINTS
 62
     0
 10
4668.2510109113973
 20
6068.5488943449418
 30
0.0
  0
POINT
  5
7F7E
  8
DEFPOINTS
 62
     0
 10
4573.25096287622
 20
3043.5478976546819
 30
0.0
  0
POINT
  5
7F7F
  8
DEFPOINTS
 62
     0
 10
5647.2156306158004
 20
3043.547897654681
 30
0.0
  0
ENDBLK
  5
7E59
  8
0
  0
BLOCK
  8
0
  2
*D23
 70
     1
 10
0.0
 20
0.0
 30
0.0
  3
*D23
  1

  0
LINE
  5
7F80
  8
3
 62
     0
 10
7819.7115220183987
 20
5196.043958227212
 30
0.0
 11
7819.7115220183987
 21
6645.3998632488301
 31
0.0
  0
LINE
  5
7F81
  8
3
 62
     0
 10
7184.7075337226242
 20
6600.3998632488292
 30
0.0
 11
7729.7115220183978
 21
6600.3998632488292
 31
0.0
  0
INSERT
  5
7F82
  8
3
 62
     0
  2
_OPEN
 10
7094.7075337226233
 20
6600.3998632488292
 30
0.0
 41
90.0
 42
90.0
 43
90.0
 50
180.0
  0
INSERT
  5
7F83
  8
3
 62
     0
  2
_OPEN
 10
7819.7115220183987
 20
6600.3998632488292
 30
0.0
 41
90.0
 42
90.0
 43
90.0
  0
TEXT
  8
3
  40
135
  5
7F9D
  62
0
  72
0
  71
0
 10
7187.21
 20
6473.95
 30
0.000000
  1
725
  0
POINT
  5
7F85
  8
DEFPOINTS
 62
     0
 10
7094.7075337226233
 20
6443.8713075726837
 30
0.0
  0
POINT
  5
7F86
  8
DEFPOINTS
 62
     0
 10
7819.7115220183987
 20
5173.543958227212
 30
0.0
  0
POINT
  5
7F87
  8
DEFPOINTS
 62
     0
 10
7819.7115220183987
 20
6600.3998632488292
 30
0.0
  0
ENDBLK
  5
7EA6
  8
0
  0
ENDSEC
  0
SECTION
  2
ENTITIES
  0
LINE
  5
7AE2
  8
1
 10
7763.7075934700661
 20
3138.5449582271658
 30
0.0
 11
6163.706522018404
 21
3138.545958227211
 31
0.0
1001
ACAD
1000
ASC_BOUNDS
1002
{
1070
    19
1002
}
  0
LINE
  5
7AE3
  8
1
 10
7763.7075901701101
 20
3288.545958227211
 30
0.0
 11
6163.706522018404
 21
3288.545958227211
 31
0.0
  0
LINE
  5
7AE4
  8
1
 10
6504.7065220184049
 20
3288.545958227211
 30
0.0
 11
6163.706522018404
 21
3288.545958227211
 31
0.0
  0
LINE
  5
7AE5
  8
1
 10
6501.506522018406
 20
3288.545958227211
 30
0.0
 11
6163.706522018404
 21
3288.545958227211
 31
0.0
  0
LINE
  5
7AE6
  8
2
 10
6063.7309031003842
 20
4308.5479307527094
 30
0.0
 11
7883.8235613357328
 21
4308.5479307527094
 31
0.0
  0
LINE
  5
7AE7
  8
1
 10
6164.7075220183988
 20
3998.6329663844308
 30
0.0
 11
6264.7075220183997
 21
3998.6329663844772
 31
0.0
  0
LINE
  5
7AE8
  8
1
 10
6164.7075220183988
 20
4604.8053273076894
 30
0.0
 11
6264.7075220183997
 21
4604.8053273077339
 31
0.0
  0
LINE
  5
7AE9
  8
1
 10
6114.7075004250046
 20
4758.5479307527094
 30
0.0
 11
6304.7075036057377
 21
4758.5479307527094
 31
0.0
  0
LINE
  5
7AEA
  8
1
 10
1473.2509628762409
 20
3043.5487798490158
 30
0.0
 11
4573.2509628762191
 21
3043.5478976546819
 31
0.0
1001
ACAD
1000
ASC_BOUNDS
1002
{
1070
    19
1002
}
  0
LINE
  5
7AEB
  8
1
 10
1473.2509668687051
 20
3118.5487798490199
 30
0.0
 11
4573.2509668686826
 21
3118.547897654686
 31
0.0
1001
ACAD
1000
ASC_BOUNDS
1002
{
1070
    19
1002
}
  0
LINE
  5
7AEC
  8
1
 10
1473.2509364455459
 20
3138.548779849029
 30
0.0
 11
4573.2509364455236
 21
3138.5478976546951
 31
0.0
1001
ACAD
1000
ASC_BOUNDS
1002
{
1070
    19
1005
0
1005
0
1002
}
  0
LINE
  5
7AED
  8
1
 10
1473.250940438011
 20
3288.5487798490331
 30
0.0
 11
4573.250940437988
 21
3288.5478976547001
 31
0.0
1001
ACAD
1000
ASC_BOUNDS
1002
{
1070
    19
1002
}
  0
ARC
  5
7AEE
  8
1
 10
3507.2499558990521
 20
4424.5479347941819
 30
0.0
 40
1255.0
 50
185.3039980038167
 51
275.30299800381681
  0
ARC
  5
7AEF
  8
1
 10
3739.2509558990519
 20
4424.5479267112732
 30
0.0
 40
1487.0
 50
94.473998003816746
 51
184.47399800381669
  0
LINE
  5
7AF0
  8
1
 10
1575.5594901801419
 20
3348.548776284932
 30
0.0
 11
1722.3798272956101
 21
3348.5487711697169
 31
0.0
  0
LINE
  5
7AF1
  8
1
 10
1473.2509364455459
 20
3138.548779849029
 30
0.0
 11
1473.250940438011
 21
3288.5487798490331
 31
0.0
  0
LINE
  5
7AF2
  8
1
 10
1473.2509628762421
 20
3043.5487798490158
 30
0.0
 11
1473.2509668687051
 21
3118.5487798490199
 31
0.0
  0
LINE
  5
7AF3
  8
1
 10
1575.5594901801419
 20
3348.548776284932
 30
0.0
 11
1563.250571203871
 21
3288.548743533941
 31
0.0
  0
LINE
  5
7AF4
  8
1
 10
1924.1213187552839
 20
3333.116913983305
 30
0.0
 11
1823.2505727566249
 21
3333.1169174976399
 31
0.0
  0
LINE
  5
7AF5
  8
1
 10
1722.379826757965
 20
3333.1169210119738
 30
0.0
 11
1823.2505727566249
 21
3333.1169174976399
 31
0.0
  0
LINE
  5
7AF6
  8
1
 10
1722.3798272956101
 20
3348.5487711697169
 30
0.0
 11
1722.379826757965
 21
3333.1169210119738
 31
0.0
  0
LINE
  5
7AF7
  8
1
 10
1993.25057329427
 20
3348.5487617325862
 30
0.0
 11
2013.25057329427
 21
3348.5487610357868
 31
0.0
  0
LINE
  5
7AF8
  8
1
 10
2070.9416564083981
 20
3348.5487590258331
 30
0.0
 11
1924.1213192929299
 21
3348.5487641410482
 31
0.0
  0
LINE
  5
7AF9
  8
1
 10
1924.1213192929299
 20
3348.5487641410482
 30
0.0
 11
1924.1213187552839
 21
3333.116913983305
 31
0.0
  0
LINE
  5
7AFA
  8
1
 10
2070.9416564083981
 20
3348.5487590258331
 30
0.0
 11
2083.2505712038701
 21
3288.5487254171562
 31
0.0
  0
LINE
  5
7AFC
  8
1
 10
6114.7064279545957
 20
3268.5487049434219
 30
0.0
 11
6114.7075004250046
 21
4758.5479307527094
 31
0.0
  0
LINE
  5
7AFD
  8
2
 10
3623.250959847067
 20
2881.8039125076202
 30
0.0
 11
3623.2510151900142
 21
6028.7840723405343
 31
0.0
  0
ARC
  5
7AFE
  8
1
 10
3526.2499484781379
 20
4211.5479341322216
 30
0.0
 40
1042.0
 50
275.34099800381671
 51
5.3419980038168067
  0
LINE
  5
7AFF
  8
1
 10
4573.2509364455236
 20
3138.5478976546942
 30
0.0
 11
4573.250940437988
 21
3288.5478976547001
 31
0.0
  0
LINE
  5
7B00
  8
1
 10
4573.2509628762191
 20
3043.5478976546819
 30
0.0
 11
4573.2509668686816
 21
3118.547897654686
 31
0.0
  0
LINE
  5
7B01
  8
1
 10
4573.2509163208042
 20
3288.5466718474131
 30
0.0
 11
4573.250916320847
 21
3288.547897654706
 31
0.0
  0
LINE
  5
7B02
  8
1
 10
4668.2509534254477
 20
4353.5488943449427
 30
0.0
 11
4668.2510109113973
 21
6003.5488943449418
 31
0.0
  0
LINE
  5
7B03
  8
1
 10
4662.2509511608496
 20
4288.5488945539819
 30
0.0
 11
4662.2510131759946
 21
6068.548894553981
 31
0.0
  0
LINE
  5
7B04
  8
1
 10
4603.2509534254468
 20
4353.5488966095418
 30
0.0
 11
4603.2510107022044
 21
5997.5445138344203
 31
0.0
  0
CIRCLE
  5
7B05
  8
1
 10
3623.2503704904921
 20
4308.5461516447294
 30
0.0
 40
300.0
  0
LINE
  5
7B06
  8
2
 10
2042.9298303361959
 20
4308.5479858110502
 30
0.0
 11
4762.9261780599918
 21
4308.5478910464581
 31
0.0
  0
ARC
  5
7B07
  8
1
 10
3720.2509484781381
 20
4211.5479273732317
 30
0.0
 40
848.0
 50
6.5689980038168283
 51
35.87999800381683
  0
LINE
  5
7B08
  8
1
 10
4668.2509511608487
 20
4288.5488943449436
 30
0.0
 11
4668.2509534254477
 21
4353.5488943449427
 31
0.0
  0
LINE
  5
7B09
  8
1
 10
4668.2509511608487
 20
4288.5488943449436
 30
0.0
 11
4662.2509511608514
 21
4288.5488945539819
 31
0.0
  0
LINE
  5
7B0A
  8
1
 10
4556.2770989490191
 20
4353.5488982461084
 30
0.0
 11
4668.2509534254477
 21
4353.5488943449427
 31
0.0
  0
LINE
  5
7B0B
  8
1
 10
4668.2509534254477
 20
4353.5488943449427
 30
0.0
 11
4603.2509534254468
 21
4353.5488966095418
 31
0.0
  0
CIRCLE
  5
7B0C
  8
1
 10
4428.9209713002274
 20
4714.4344952899519
 30
0.0
 40
22.270700527454458
  0
LINE
  5
7B0D
  8
1
 10
3623.251007548226
 20
5907.0169307527094
 30
0.0
 11
4668.2510109113973
 21
6003.5488943449418
 31
0.0
  0
LINE
  5
7B0E
  8
1
 10
2673.2499051053592
 20
5484.1410940511942
 30
0.0
 11
2682.2497913805059
 21
5484.1410937376368
 31
0.0
  0
LINE
  5
7B0F
  8
1
 10
4668.2510131759964
 20
6068.5488943449418
 30
0.0
 11
4662.2510131759946
 21
6068.548894553981
 31
0.0
  0
LINE
  5
7B10
  8
1
 10
4668.2510109113973
 20
6003.5488943449418
 30
0.0
 11
4668.2510131759964
 21
6068.5488943449418
 31
0.0
  0
LINE
  5
7B11
  8
1
 10
6164.7075220183988
 20
3408.5487049434219
 30
0.0
 11
6164.7075220183988
 21
4604.8053273076894
 31
0.0
  0
LINE
  5
7B12
  8
1
 10
2252.251110041952
 20
8848.8599828947063
 30
0.0
 11
1473.2504690801429
 21
8848.8600100350668
 31
0.0
  0
LINE
  5
7B13
  8
1
 10
4573.2508186312707
 20
7748.8599020311458
 30
0.0
 11
1473.250818631067
 21
7748.8600100350523
 31
0.0
  0
LINE
  5
7B14
  8
1
 10
1473.2504690801411
 20
8848.8600100350668
 30
0.0
 11
1473.250818631067
 21
7748.8600100350523
 31
0.0
  0
LINE
  5
7B15
  8
1
 10
4573.2503101935226
 20
9348.8600275724257
 30
0.0
 11
4573.2503352979911
 21
9269.8589013148394
 31
0.0
  0
LINE
  5
7B16
  8
1
 10
2673.2503101934449
 20
9348.8599682271088
 30
0.0
 11
4573.2503101935627
 21
9348.8599020311631
 31
0.0
  0
LINE
  5
7B17
  8
2
 10
3623.2510662748759
 20
7592.6282381144283
 30
0.0
 11
3623.2511309419278
 21
9448.7449717716536
 31
0.0
  0
LINE
  5
7B18
  8
1
 10
2673.2503101934449
 20
9348.8599682271088
 30
0.0
 11
2673.2503352978479
 21
9269.8590515871765
 31
0.0
  0
LINE
  5
7B19
  8
1
 10
7819.7115220183987
 20
3443.5449582272122
 30
0.0
 11
7819.7115220183987
 21
5173.543958227212
 31
0.0
  0
LINE
  5
7B1A
  8
1
 10
7813.7115220183978
 20
5173.543958227212
 30
0.0
 11
7813.7115220183978
 21
3443.5449582272122
 31
0.0
  0
LINE
  5
7B1B
  8
1
 10
7693.9065220184011
 20
3443.5449582272122
 30
0.0
 11
7693.9065220184011
 21
5173.543958227212
 31
0.0
  0
LINE
  5
7B1E
  8
2
 10
7094.7075423732886
 20
6228.8610937979493
 30
0.0
 11
7094.7076764170961
 21
2972.233786392404
 31
0.0
  0
LINE
  5
7B1F
  8
1
 10
6163.7076748482577
 20
3043.5459582264839
 30
0.0
 11
7763.7076748482677
 21
3043.5456043108611
 31
0.0
1001
ACAD
1000
ASC_BOUNDS
1002
{
1070
    19
1002
}
  0
LINE
  5
7B20
  8
1
 10
6163.7076715483236
 20
3118.5459582264889
 30
0.0
 11
7763.7076715483354
 21
3118.5456043108661
 31
0.0
1001
ACAD
1000
ASC_BOUNDS
1002
{
1070
    19
1002
}
  0
LINE
  5
7B21
  8
1
 10
6304.7064483679223
 20
3268.5487049434219
 30
0.0
 11
6304.7065172506873
 21
3380.780425263521
 31
0.0
  0
LINE
  5
7B22
  8
1
 10
7752.9065220184029
 20
3508.5479307527089
 30
0.0
 11
7819.7115220183987
 21
3508.5479307527089
 31
0.0
  0
LINE
  5
7B24
  8
1
 10
7687.9065220184011
 20
3508.5449582272122
 30
0.0
 11
7752.9065220184029
 21
3508.5449582272122
 31
0.0
  0
LINE
  5
7B2D
  8
1
 10
7687.9065220184011
 20
3443.5449582272122
 30
0.0
 11
7693.9065220184011
 21
3443.5449582272122
 31
0.0
  0
LINE
  5
7B2F
  8
1
 10
7687.9065220184011
 20
3508.5449582272122
 30
0.0
 11
7687.9065220184011
 21
3443.5449582272122
 31
0.0
  0
LINE
  5
7B33
  8
1
 10
7819.7115220183987
 20
3443.5449582272122
 30
0.0
 11
7813.7115220183978
 21
3443.5449582272122
 31
0.0
  0
LINE
  5
7B35
  8
1
 10
7819.7115220183987
 20
3443.5449582272122
 30
0.0
 11
7819.7115220183987
 21
3508.5449582272122
 31
0.0
  0
LINE
  5
7B36
  8
1
 10
6504.7075220184042
 20
4353.5479582272146
 30
0.0
 11
6504.7075220183988
 21
6003.5479582272137
 31
0.0
  0
LINE
  5
7B37
  8
1
 10
7684.7075220184051
 20
3288.545958227211
 30
0.0
 11
7684.7075220184042
 21
4288.5479582272119
 31
0.0
  0
LINE
  5
7B38
  8
1
 10
7752.9065220184029
 20
6070.8479582272139
 30
0.0
 11
7752.9065220184057
 21
4288.5479582272137
 31
0.0
  0
LINE
  5
7B39
  8
1
 10
6436.5075220184008
 20
6070.8479582272112
 30
0.0
 11
6436.5075220184008
 21
4288.5479582272146
 31
0.0
  0
LINE
  5
7B3A
  8
1
 10
6264.7075220183997
 20
4604.8053273077339
 30
0.0
 11
6264.7075220183997
 21
3408.5487049434219
 31
0.0
  0
LINE
  5
7B3B
  8
1
 10
6264.7075220183997
 20
4258.5459582272124
 30
0.0
 11
6504.7070045704713
 21
4258.5459582272124
 31
0.0
  0
LINE
  5
7B3C
  8
1
 10
6264.7075220183997
 20
4358.543958227212
 30
0.0
 11
6436.5075220184017
 21
4358.543958227212
 31
0.0
  0
LINE
  5
7B3D
  8
1
 10
6304.707390597714
 20
4574.4222620996643
 30
0.0
 11
6304.7075036057377
 21
4758.5479307527094
 31
0.0
  0
LINE
  5
7B3E
  8
1
 10
7752.9065220184029
 20
5108.5479307527103
 30
0.0
 11
7819.7115220183987
 21
5108.5479307527103
 31
0.0
  0
LINE
  5
7B41
  8
1
 10
7687.9065220184011
 20
5108.543958227212
 30
0.0
 11
7752.9065220184029
 21
5108.543958227212
 31
0.0
  0
LINE
  5
7B43
  8
1
 10
7687.9065220184011
 20
5108.543958227212
 30
0.0
 11
7687.9065220184011
 21
5173.543958227212
 31
0.0
  0
LINE
  5
7B44
  8
1
 10
7687.9065220184011
 20
5173.543958227212
 30
0.0
 11
7693.9065220184011
 21
5173.543958227212
 31
0.0
  0
LINE
  5
7B4D
  8
1
 10
7819.7115220183987
 20
5173.543958227212
 30
0.0
 11
7819.7115220183987
 21
5108.543958227212
 31
0.0
  0
LINE
  5
7B4E
  8
1
 10
7819.7115220183987
 20
5173.543958227212
 30
0.0
 11
7813.7115220183978
 21
5173.543958227212
 31
0.0
  0
LINE
  5
7B52
  8
1
 10
7752.9065220184029
 20
6070.8479582272139
 30
0.0
 11
6436.5075220184008
 21
6070.8479582272112
 31
0.0
  0
LINE
  5
7B53
  8
1
 10
7684.7075220184006
 20
6003.5479582272137
 30
0.0
 11
6504.7075220183988
 21
6003.5479582272146
 31
0.0
  0
LINE
  5
7B54
  8
1
 10
1926.0802042367161
 20
3352.9290640637628
 30
0.0
 11
1720.420942657043
 21
3352.9290712289262
 31
0.0
  0
LINE
  5
7B55
  8
2
 10
2117.5486773099151
 20
3548.5487574020449
 30
0.0
 11
1508.2018018680731
 21
3548.5487786316721
 31
0.0
  0
ARC
  5
7B56
  8
1
 10
1823.2505802622641
 20
3548.5487676553821
 30
0.0
 40
221.0
 50
297.7291483616475
 51
242.27084764598581
  0
LINE
  5
7B57
  8
1
 10
2012.25057329427
 20
3348.5487610706268
 30
0.0
 11
1932.25057329427
 21
3348.5487638578252
 31
0.0
  0
LINE
  5
7B58
  8
1
 10
2012.25057399107
 20
3368.5487610706282
 30
0.0
 11
1951.473036921712
 21
3368.5487631881151
 31
0.0
  0
LINE
  5
7B59
  8
1
 10
1982.2505725800511
 20
3328.0487621158268
 30
0.0
 11
1982.2505750256639
 21
3398.24437287509
 31
0.0
  0
LINE
  5
7B5A
  8
1
 10
2012.25057329427
 20
3348.5487610706268
 30
0.0
 11
2012.2505751760229
 21
3402.5600980842878
 31
0.0
  0
LINE
  5
7B5B
  8
1
 10
2012.2505751760229
 20
3402.5600980842878
 30
0.0
 11
2000.355679598227
 21
3416.3565447782439
 31
0.0
  0
LINE
  5
7B5C
  8
1
 10
1932.2505736123139
 20
3357.6774672629931
 30
0.0
 11
1932.25057329427
 21
3348.5487638578252
 31
0.0
  0
LINE
  5
7B5D
  8
2
 10
1823.250568356528
 20
3206.8224330026369
 30
0.0
 11
1823.2505907337959
 21
3849.1096544196321
 31
0.0
  0
LINE
  5
7B5E
  8
1
 10
1634.25057399107
 20
3368.5487742401369
 30
0.0
 11
1695.028111060426
 21
3368.54877212265
 31
0.0
  0
LINE
  5
7B5F
  8
1
 10
1634.25057329427
 20
3348.548774240136
 30
0.0
 11
1714.25057329427
 21
3348.548771452939
 31
0.0
  0
LINE
  5
7B60
  8
1
 10
1664.2505725800511
 20
3328.0487731949379
 30
0.0
 11
1664.2505750256639
 21
3398.2443839542011
 31
0.0
  0
LINE
  5
7B61
  8
1
 10
1714.2505736123139
 20
3357.677474858107
 30
0.0
 11
1714.25057329427
 21
3348.548771452939
 31
0.0
  0
LINE
  5
7B62
  8
1
 10
1634.25057329427
 20
3348.548774240136
 30
0.0
 11
1634.2505751760229
 21
3402.560111253797
 31
0.0
  0
LINE
  5
7B63
  8
1
 10
1634.2505751760229
 20
3402.5601112537961
 30
0.0
 11
1646.1454717151571
 21
3416.3565571189192
 31
0.0
  0
LINE
  5
7B64
  8
1
 10
1602.291892503295
 20
3552.821741307806
 30
0.0
 11
1592.126994761591
 21
3552.8217416619509
 31
0.0
  0
CIRCLE
  5
7B65
  8
1
 10
1823.2505802622641
 20
3548.5487676553821
 30
0.0
 40
140.0
  0
ARC
  5
7B66
  8
1
 10
1823.2505802622641
 20
3548.5487676553821
 30
0.0
 40
280.0
 50
118.7657015103016
 51
287.015395563651
  0
ARC
  5
7B67
  8
1
 10
3623.248871592853
 20
4308.5479307527821
 30
0.0
 40
480.0
 50
287.015395563651
 51
118.7657015103016
  0
LINE
  5
7B68
  8
1
 10
3392.2589459617238
 20
4729.3134881085689
 30
0.0
 11
1688.506456977439
 21
3793.9953427795922
 31
0.0
  0
LINE
  5
7B69
  8
1
 10
3484.3189550615521
 20
4574.4372229632509
 30
0.0
 11
1758.415919728759
 21
3672.6312676040261
 31
0.0
  0
LINE
  5
7B6A
  8
1
 10
3716.9176948597851
 20
4023.5436387689688
 30
0.0
 11
1866.961998301269
 21
3415.547594980028
 31
0.0
  0
LINE
  5
7B6B
  8
1
 10
3763.7106266578971
 20
3849.5593738539778
 30
0.0
 11
1905.1866040502059
 21
3280.8054427977449
 31
0.0
  0
LINE
  5
7B6C
  8
1
 10
6164.7065220184004
 20
3688.5487049434219
 30
0.0
 11
6264.7065220184004
 21
3688.5487049434219
 31
0.0
  0
LINE
  5
7B6D
  8
1
 10
6164.7065220184013
 20
3408.5487049434219
 30
0.0
 11
6264.7075220183997
 21
3408.5487049434219
 31
0.0
  0
LINE
  5
7B6E
  8
1
 10
7684.7075220183988
 20
4353.5479582272128
 30
0.0
 11
6504.7075220183979
 21
4353.5479582272137
 31
0.0
  0
LINE
  5
7B6F
  8
1
 10
7763.7075901701101
 20
3288.545958227211
 30
0.0
 11
7763.707593470067
 21
3138.5449582271658
 31
0.0
  0
LINE
  5
7B70
  8
1
 10
6163.7075901701091
 20
3288.545958227211
 30
0.0
 11
6163.707593470046
 21
3138.5459582265421
 31
0.0
  0
LINE
  5
7B71
  8
1
 10
6163.7076715483254
 20
3118.5459582264889
 30
0.0
 11
6163.7076748482614
 21
3043.5459582264839
 31
0.0
  0
LINE
  5
7B72
  8
1
 10
7763.7076715483299
 20
3118.5456043108661
 30
0.0
 11
7763.7076748482677
 21
3043.5456043108611
 31
0.0
  0
LINE
  5
7B73
  8
1
 10
6114.7064279545957
 20
3268.5487049434219
 30
0.0
 11
6304.7064483679223
 21
3268.5487049434219
 31
0.0
  0
LINE
  5
7B74
  8
1
 10
7687.9065220184011
 20
5108.543958227212
 30
0.0
 11
7687.9065220184011
 21
3508.5449582272122
 31
0.0
  0
LINE
  5
7B75
  8
1
 10
7684.7075220183988
 20
6003.5479582272137
 30
0.0
 11
6504.7075220184042
 21
4358.543958227212
 31
0.0
  0
LINE
  5
7B76
  8
1
 10
6504.7075220183988
 20
6003.5479582272146
 30
0.0
 11
7684.7075220184042
 21
4353.5479582272128
 31
0.0
  0
LINE
  5
7B77
  8
2
 10
4757.2477995214831
 20
8679.8588867623512
 30
0.0
 11
2098.3811750003401
 21
8679.8590970539772
 31
0.0
  0
LINE
  5
7B78
  8
1
 10
1543.25072489375
 20
7699.857862907279
 30
0.0
 11
1543.250731513346
 21
7889.8578833206066
 31
0.0
  0
LINE
  5
7B79
  8
1
 10
1683.2507266357511
 20
7749.8579520934891
 30
0.0
 11
1683.2507301197491
 21
7849.85795209349
 31
0.0
  0
LINE
  5
7B7A
  8
1
 10
1963.2507266357511
 20
7749.857942338298
 30
0.0
 11
1963.2507301197491
 21
7849.8579423382962
 31
0.0
  0
LINE
  5
7B7B
  8
1
 10
4073.251070010786
 20
7699.8588472325519
 30
0.0
 11
4073.2510766303808
 21
7889.858850413284
 31
0.0
  0
LINE
  5
7B7C
  8
1
 10
3919.5084683077662
 20
7749.8588741823341
 30
0.0
 11
3919.5084717918089
 21
7849.8588741823341
 31
0.0
  0
LINE
  5
7B7D
  8
1
 10
3313.3361073845099
 20
7749.8588953013614
 30
0.0
 11
3313.3361108685522
 21
7849.8588953013614
 31
0.0
  0
LINE
  5
7B7E
  8
1
 10
3313.3361073845099
 20
7749.8588953013614
 30
0.0
 11
3919.5084683077662
 21
7749.8588741823341
 31
0.0
  0
LINE
  5
7B7F
  8
1
 10
1543.25072489375
 20
7699.857862907279
 30
0.0
 11
4073.251070010786
 21
7699.8588472325519
 31
0.0
  0
LINE
  5
7B80
  8
1
 10
1683.2507266357511
 20
7749.8579520934891
 30
0.0
 11
3313.3361073844749
 21
7749.8578953013621
 31
0.0
  0
LINE
  5
7B81
  8
1
 10
3919.5084717918089
 20
7849.8588741823341
 30
0.0
 11
3313.3361108685522
 21
7849.8588953013614
 31
0.0
  0
LINE
  5
7B82
  8
1
 10
1683.2507301197491
 20
7849.85795209349
 30
0.0
 11
3313.3361108685158
 21
7849.8578953013621
 31
0.0
  0
LINE
  5
7B83
  8
1
 10
3573.2491027112869
 20
7849.8588862460001
 30
0.0
 11
3573.249111072862
 21
8089.8583687980718
 31
0.0
  0
LINE
  5
7B84
  8
1
 10
1543.250731513328
 20
7889.8573857584179
 30
0.0
 11
4073.2510766303808
 21
7889.858850413284
 31
0.0
  0
LINE
  5
7B85
  8
1
 10
3673.247102711287
 20
7849.8588827620742
 30
0.0
 11
3673.2471110728802
 21
8089.8588827620779
 31
0.0
  0
LINE
  5
7B86
  8
1
 10
4668.2511247095417
 20
9269.8588938011617
 30
0.0
 11
2252.2511247095481
 21
9269.8590848842996
 31
0.0
  0
LINE
  5
7B87
  8
1
 10
4668.2510835983767
 20
8089.8588938011617
 30
0.0
 11
2252.251083598383
 21
8089.859084884295
 31
0.0
  0
LINE
  5
7B88
  8
1
 10
4668.2510813337794
 20
8024.8588938011644
 30
0.0
 11
4668.2511269741408
 21
9334.8588938011617
 31
0.0
  0
LINE
  5
7B89
  8
1
 10
2252.251083598383
 20
8089.859084884295
 30
0.0
 11
2252.2511247095481
 21
9269.8590848842941
 31
0.0
  0
LINE
  5
7B8A
  8
1
 10
4573.2507102708023
 20
8089.8589013148094
 30
0.0
 11
4573.2508186312707
 21
7748.8599020311458
 31
0.0
  0
LINE
  5
7B8B
  8
1
 10
4603.2510835983776
 20
8089.8588989420587
 30
0.0
 11
4603.2511247095426
 21
9269.8588989420568
 31
0.0
  0
LINE
  5
7B8C
  8
2
 10
1823.2507211611239
 20
7592.7215462892154
 30
0.0
 11
1823.2507578474631
 21
8645.717251321732
 31
0.0
  0
LINE
  5
7B8D
  8
1
 10
1613.250756009927
 20
8592.9750559533113
 30
0.0
 11
2023.2507560099259
 21
8592.9750416689258
 31
0.0
  0
LINE
  5
7B8E
  8
1
 10
1901.250733381366
 20
7943.4750459194011
 30
0.0
 11
1823.250733381366
 21
7943.4750486369176
 31
0.0
  0
LINE
  5
7B8F
  8
1
 10
2023.2507337820259
 20
7954.975041668923
 30
0.0
 11
2023.2507560099259
 21
8592.9750416689258
 31
0.0
  0
LINE
  5
7B90
  8
1
 10
1903.2507338047781
 20
7955.6281218497197
 30
0.0
 11
1903.250733451046
 21
7945.4750458497201
 31
0.0
  0
ARC
  5
7B91
  8
1
 10
1906.250733804779
 20
7955.6281217452006
 30
0.0
 40
3.0
 50
92.999555003816724
 51
179.9999980038167
  0
ARC
  5
7B92
  8
1
 10
1901.250733451046
 20
7945.4750459194001
 30
0.0
 40
2.0
 50
269.9999980038167
 51
359.9999980038167
  0
LINE
  5
7B93
  8
1
 10
1613.250756009927
 20
8592.9750559533113
 30
0.0
 11
1613.2507337820271
 21
7954.975055953314
 31
0.0
  0
LINE
  5
7B94
  8
1
 10
1613.2507337820271
 20
7954.975055953314
 30
0.0
 11
2023.2507337820241
 21
7954.975041668923
 31
0.0
  0
LINE
  5
7B95
  8
1
 10
1789.250731987767
 20
7903.4750498214762
 30
0.0
 11
1789.250728155369
 21
7793.4750498214771
 31
0.0
  0
LINE
  5
7B96
  8
1
 10
1853.2507330329661
 20
7933.475047591719
 30
0.0
 11
1853.250728155369
 21
7793.475047591719
 31
0.0
  0
LINE
  5
7B97
  8
1
 10
1793.2507330329661
 20
7933.4750496821189
 30
0.0
 11
1793.2507281553701
 21
7793.475049682118
 31
0.0
  0
LINE
  5
7B98
  8
1
 10
1745.250733381366
 20
7943.4750513544359
 30
0.0
 11
1823.250733381366
 21
7943.4750486369176
 31
0.0
  0
LINE
  5
7B99
  8
1
 10
1855.7507330329661
 20
7933.4750475046194
 30
0.0
 11
1790.7507330329661
 21
7933.4750497692166
 31
0.0
  0
LINE
  5
7B9A
  8
1
 10
1855.7507330329661
 20
7933.4750475046194
 30
0.0
 11
1855.750733381366
 21
7943.4750475046194
 31
0.0
  0
LINE
  5
7B9B
  8
1
 10
1790.7507330329661
 20
7933.4750497692166
 30
0.0
 11
1790.750733381366
 21
7943.4750497692157
 31
0.0
  0
LINE
  5
7B9C
  8
1
 10
1789.250731987767
 20
7903.4750498214762
 30
0.0
 11
1793.250731987767
 21
7903.475049682118
 31
0.0
  0
LINE
  5
7B9D
  8
1
 10
1743.2507337820259
 20
7954.975051424115
 30
0.0
 11
1743.250733451046
 21
7945.475051424115
 31
0.0
  0
ARC
  5
7B9E
  8
1
 10
1745.250733451046
 20
7945.475051354435
 30
0.0
 40
2.0
 50
179.9999980038167
 51
269.9999980038167
  0
LINE
  5
7B9F
  8
1
 10
1789.250728155369
 20
7793.4750498214771
 30
0.0
 11
1853.250728155369
 21
7793.475047591719
 31
0.0
  0
LINE
  5
7BA0
  8
1
 10
1906.093749204068
 20
7958.6240115687979
 30
0.0
 11
1906.09374920407
 21
7958.6240684736931
 31
0.0
  0
LINE
  5
7BA1
  8
1
 10
6504.706546893588
 20
3338.5487049434232
 30
0.0
 11
6370.839611337391
 21
3338.5487049434232
 31
0.0
  0
LINE
  5
7BA2
  8
1
 10
6370.8396113373892
 20
3748.5487049434219
 30
0.0
 11
6504.7067508588952
 21
3748.5487049434219
 31
0.0
  0
LINE
  5
7BA3
  8
2
 10
6068.7962788324439
 20
3548.5487049434232
 30
0.0
 11
6580.4929576396689
 21
3548.5487049434232
 31
0.0
  0
LINE
  5
7BA5
  8
1
 10
6209.3396113373892
 20
3514.5487049434219
 30
0.0
 11
6209.3396113373892
 21
3578.5487049434219
 31
0.0
  0
LINE
  5
7BA6
  8
1
 10
6349.3396113373892
 20
3581.0487049434219
 30
0.0
 11
6349.3396113373892
 21
3516.0487049434219
 31
0.0
  0
LINE
  5
7BA7
  8
1
 10
6370.839611337391
 20
3338.5487049434232
 30
0.0
 11
6370.8396113373892
 21
3748.5487049434209
 31
0.0
  0
LINE
  5
7BA8
  8
1
 10
6359.3396113373892
 20
3626.5487049434219
 30
0.0
 11
6359.3396113373892
 21
3548.5487049434232
 31
0.0
  0
LINE
  5
7BA9
  8
1
 10
6349.3396113373892
 20
3578.5487049434219
 30
0.0
 11
6209.3396113373892
 21
3578.5487049434219
 31
0.0
  0
LINE
  5
7BAA
  8
1
 10
6349.3396113373892
 20
3581.0487049434219
 30
0.0
 11
6359.3396113373892
 21
3581.0487049434219
 31
0.0
  0
ARC
  5
7BAB
  8
1
 10
6361.3396113373892
 20
3626.5487049434219
 30
0.0
 40
2.0
 50
90.0
 51
180.0
  0
LINE
  5
7BAC
  8
1
 10
6371.4926873373897
 20
3628.5487049434219
 30
0.0
 11
6361.3396113373892
 21
3628.5487049434219
 31
0.0
  0
LINE
  5
7BAD
  8
1
 10
6349.3396113373892
 20
3518.5487049434219
 30
0.0
 11
6209.3396113373892
 21
3518.5487049434219
 31
0.0
  0
LINE
  5
7BAE
  8
1
 10
6319.3396113373892
 20
3514.5487049434219
 30
0.0
 11
6209.3396113373892
 21
3514.5487049434219
 31
0.0
  0
ARC
  5
7BAF
  8
1
 10
6361.3396113373892
 20
3470.5487049434219
 30
0.0
 40
2.0
 50
180.0
 51
270.0
  0
LINE
  5
7BB0
  8
1
 10
6370.8396113373892
 20
3468.5487049434219
 30
0.0
 11
6361.3396113373892
 21
3468.5487049434219
 31
0.0
  0
LINE
  5
7BB1
  8
1
 10
6349.3396113373892
 20
3516.0487049434219
 30
0.0
 11
6359.3396113373892
 21
3516.0487049434219
 31
0.0
  0
LINE
  5
7BB2
  8
1
 10
6359.3396113373892
 20
3470.5487049434219
 30
0.0
 11
6359.3396113373892
 21
3548.5487049434232
 31
0.0
  0
LINE
  5
7BB3
  8
1
 10
6319.3396113373892
 20
3514.5487049434219
 30
0.0
 11
6319.3396113373892
 21
3518.5487049434219
 31
0.0
  0
LINE
  5
7BB4
  8
1
 10
6504.7065220184049
 20
3288.545958227211
 30
0.0
 11
6504.7070194957569
 21
4288.5479582272146
 31
0.0
  0
DIMENSION
  5
7BC2
  8
3
  2
*D1
 10
2673.2503101934449
 20
9576.9388581120584
 30
0.0
 11
3622.9165115364549
 21
9576.9388581120584
 31
0.0
 70
   128
 13
4573.2503101935617
 23
9348.8599020311631
 33
0.0
 14
2673.2503101934449
 24
9348.8599682271088
 34
0.0
 50
359.9999980038167
1001
ACAD
1000
DSTYLE
1002
{
1070
   287
1070
     3
1070
    40
1040
45.0
1070
   143
1040
0.039
1070
   172
1070
     1
1070
   271
1070
     0
1070
   279
1070
     0
1070
   288
1070
     1
1002
}
  0
DIMENSION
  5
7BCE
  8
3
  2
*D2
 10
1473.2504690801411
 20
9576.9389330063586
 30
0.0
 11
2073.250389636793
 21
9689.4389330063586
 31
0.0
 70
     0
 13
2673.2503101934449
 23
9348.8599682271088
 33
0.0
 14
1473.2504690801411
 24
8848.8600100350668
 34
0.0
 50
359.9999980038167
1001
ACAD
1000
DSTYLE
1002
{
1070
   287
1070
     4
1070
    40
1040
45.0
1070
    75
1070
     1
1070
   143
1040
0.039
1070
   172
1070
     1
1070
   271
1070
     0
1070
   279
1070
     1
1070
   288
1070
     1
1002
}
  0
DIMENSION
  5
7BDB
  8
3
  2
*D3
 10
1079.4752913968739
 20
7748.8600100350523
 30
0.0
 11
1079.475291396873
 21
8295.3451401782659
 31
0.0
 70
   128
 13
1473.2504690801411
 23
8848.8600100350668
 33
0.0
 14
1473.250818631067
 24
7748.8600100350523
 34
0.0
 50
269.9999980038167
1001
ACAD
1000
DSTYLE
1002
{
1070
   287
1070
     3
1070
    40
1040
45.0
1070
   143
1040
0.039
1070
   172
1070
     1
1070
   271
1070
     0
1070
   279
1070
     0
1070
   288
1070
     1
1002
}
  0
DIMENSION
  5
7BE8
  8
3
  2
*D4
 10
4978.395099181047
 20
7748.8599020311458
 30
0.0
 11
4978.3950991810461
 21
8542.9256425485164
 31
0.0
 70
   128
 13
4573.2503101935617
 23
9348.8599020311631
 33
0.0
 14
4573.2508186312707
 24
7748.8599020311458
 34
0.0
 50
269.9999980038167
1001
ACAD
1000
DSTYLE
1002
{
1070
   287
1070
     3
1070
    40
1040
45.0
1070
   143
1040
0.039
1070
   172
1070
     1
1070
   271
1070
     0
1070
   279
1070
     0
1070
   288
1070
     1
1002
}
  0
DIMENSION
  5
7BF5
  8
3
  2
*D5
 10
1473.250818631067
 20
7319.586164309042
 30
0.0
 11
3090.9072473386441
 21
7319.586164309042
 31
0.0
 70
   128
 13
4573.2508186312707
 23
7748.8599020311458
 33
0.0
 14
1473.250818631067
 24
7748.8600100350523
 34
0.0
 50
359.9999980038167
1001
ACAD
1000
DSTYLE
1002
{
1070
   287
1070
     3
1070
    40
1040
45.0
1070
   143
1040
0.039
1070
   172
1070
     1
1070
   271
1070
     0
1070
   279
1070
     0
1070
   288
1070
     1
1002
}
  0
DIMENSION
  5
7C02
  8
3
  2
*D6
 10
3623.2510151900142
 20
6381.5113241520221
 30
0.0
 11
4137.9277419937052
 21
6381.5113241520221
 31
0.0
 70
   128
 13
4668.2510131759964
 23
6068.5488943449418
 33
0.0
 14
3623.2510151900142
 24
6028.7840723405343
 34
0.0
 50
359.9999980038167
1001
ACAD
1000
DSTYLE
1002
{
1070
   287
1070
     3
1070
    40
1040
45.0
1070
   143
1040
0.039
1070
   172
1070
     1
1070
   271
1070
     0
1070
   279
1070
     0
1070
   288
1070
     1
1002
}
  0
DIMENSION
  5
7C0F
  8
3
  2
*D7
 10
2252.2509558990532
 20
6381.5113898489426
 30
0.0
 11
2937.7509855445342
 21
6494.0113898489444
 31
0.0
 70
     0
 13
3623.2510151900142
 23
6028.7840723405343
 33
0.0
 14
2252.2509558990532
 24
4424.5479785183079
 34
0.0
 50
359.9999980038167
1001
ACAD
1000
DSTYLE
1002
{
1070
   287
1070
     4
1070
    40
1040
45.0
1070
    75
1070
     1
1070
   143
1040
0.039
1070
   172
1070
     1
1070
   271
1070
     0
1070
   279
1070
     1
1070
   288
1070
     1
1002
}
  0
DIMENSION
  5
7C1C
  8
3
  2
*D8
 10
5002.8167500231557
 20
4353.5488943449427
 30
0.0
 11
5002.8167500231539
 21
5149.6406381344668
 31
0.0
 70
   128
 13
4668.2510109113973
 23
6003.5488943449418
 33
0.0
 14
4668.2509534254477
 24
4353.5488943449427
 34
0.0
 50
269.9999980038167
1001
ACAD
1000
DSTYLE
1002
{
1070
   287
1070
     3
1070
    40
1040
45.0
1070
   143
1040
0.039
1070
   172
1070
     1
1070
   271
1070
     0
1070
   279
1070
     0
1070
   288
1070
     1
1002
}
  0
DIMENSION
  5
7C29
  8
3
  2
*D9
 10
5268.278649040155
 20
4308.5478910464581
 30
0.0
 11
5268.2786490401541
 21
5127.5370755765789
 31
0.0
 70
   128
 13
4668.2510109113973
 23
6003.5488943449418
 33
0.0
 14
4762.9261780599918
 24
4308.5478910464581
 34
0.0
 50
269.9999980038167
1001
ACAD
1000
DSTYLE
1002
{
1070
   287
1070
     3
1070
    40
1040
45.0
1070
   143
1040
0.039
1070
   172
1070
     1
1070
   271
1070
     0
1070
   279
1070
     0
1070
   288
1070
     1
1002
}
  0
DIMENSION
  5
7C35
  8
3
  2
*D10
 10
5268.2785797438291
 20
3138.5478976546942
 30
0.0
 11
5155.7785797438282
 21
3723.5478943505768
 31
0.0
 70
     0
 13
4762.9261780599918
 23
4308.5478910464581
 33
0.0
 14
4573.2509364455236
 24
3138.5478976546951
 34
0.0
 50
269.9999980038167
1001
ACAD
1000
DSTYLE
1002
{
1070
   287
1070
     4
1070
    40
1040
45.0
1070
    75
1070
     1
1070
   143
1040
0.039
1070
   172
1070
     1
1070
   271
1070
     0
1070
   279
1070
     1
1070
   288
1070
     1
1002
}
  0
DIMENSION
  5
7C45
  8
3
  2
*D11
 10
5268.2785790470298
 20
3118.547897654686
 30
0.0
 11
5483.6357219041729
 21
3285.9960386224411
 31
0.0
 70
   128
  1
(<>)
 13
4573.2509364455236
 23
3138.5478976546951
 33
0.0
 14
4573.2509668686816
 24
3118.547897654686
 34
0.0
 50
269.9999980038167
1001
ACAD
1000
DSTYLE
1002
{
1070
   288
1070
     1
1070
   172
1070
     1
1070
    75
1070
     1
1070
    40
1040
45.0
1070
   271
1070
     0
1070
     7
1000
_DOT
1070
   143
1040
0.039
1002
}
  0
DIMENSION
  5
7C55
  8
3
  2
*D12
 10
5268.2785738210341
 20
3043.547897654681
 30
0.0
 11
5155.7785738210332
 21
2709.2621833689682
 31
0.0
 70
     0
 13
4573.2509668686816
 23
3118.547897654686
 33
0.0
 14
4573.2509628762191
 24
3043.5478976546819
 34
0.0
 50
269.9999980038167
1001
ACAD
1000
DSTYLE
1002
{
1070
   287
1070
     3
1070
    40
1040
45.0
1070
   143
1040
0.039
1070
   172
1070
     1
1070
   271
1070
     0
1070
   279
1070
     0
1070
   288
1070
     1
1070
     6
1000
DOT
1002
}
  0
DIMENSION
  5
7CB0
  8
3
  2
*D14
 10
3623.250959847067
 20
2682.730368973369
 30
0.0
 11
4129.0046366637043
 21
2682.730368973369
 31
0.0
 70
   128
 13
4573.2509628762191
 23
3043.5478976546819
 33
0.0
 14
3623.250959847067
 24
2881.8039125076202
 34
0.0
 50
359.9999980038167
1001
ACAD
1000
DSTYLE
1002
{
1070
   287
1070
     3
1070
    40
1040
45.0
1070
   143
1040
0.039
1070
   172
1070
     1
1070
   271
1070
     0
1070
   279
1070
     0
1070
   288
1070
     1
1002
}
  0
DIMENSION
  5
7CBC
  8
3
  2
*D15
 10
1473.2509628762421
 20
2682.7304614997479
 30
0.0
 11
2548.2509613616539
 21
2795.2304614997479
 31
0.0
 70
     0
 13
3623.250959847067
 23
2881.8039125076202
 33
0.0
 14
1473.2509628762421
 24
3043.5487798490158
 34
0.0
 50
359.9999980038167
1001
ACAD
1000
DSTYLE
1002
{
1070
   287
1070
     4
1070
    40
1040
45.0
1070
    75
1070
     1
1070
   143
1040
0.039
1070
   172
1070
     1
1070
   271
1070
     0
1070
   279
1070
     1
1070
   288
1070
     1
1002
}
  0
DIMENSION
  5
7CC9
  8
3
  2
*D16
 10
7094.7076764170961
 20
2693.782163248412
 30
0.0
 11
6633.2132223276794
 21
2693.782163248412
 31
0.0
 70
   128
 13
6163.7076748482614
 23
3043.5459582264839
 33
0.0
 14
7094.7076764170961
 24
2972.233786392404
 34
0.0
1001
ACAD
1000
DSTYLE
1002
{
1070
   287
1070
     3
1070
    40
1040
45.0
1070
   143
1040
0.039
1070
   172
1070
     1
1070
   271
1070
     0
1070
   279
1070
     0
1070
   288
1070
     1
1002
}
  0
DIMENSION
  5
7CD5
  8
3
  2
*D17
 10
7763.7076748482677
 20
2693.782163248412
 30
0.0
 11
7429.2076756326824
 21
2806.2821632484111
 31
0.0
 70
     0
 13
7094.7076764170961
 23
2972.233786392404
 33
0.0
 14
7763.7076748482677
 24
3043.5456043108611
 34
0.0
1001
ACAD
1000
DSTYLE
1002
{
1070
   287
1070
     4
1070
    40
1040
45.0
1070
    75
1070
     1
1070
   143
1040
0.039
1070
   172
1070
     1
1070
   271
1070
     0
1070
   279
1070
     1
1070
   288
1070
     1
1002
}
  0
DIMENSION
  5
7CE2
  8
3
  2
*D18
 10
7684.7075220183988
 20
6245.8163495194758
 30
0.0
 11
7094.8044320273484
 21
6245.8163495194758
 31
0.0
 70
   128
 13
6504.7075220183988
 23
6003.5479582272146
 33
0.0
 14
7684.7075220183988
 24
6003.5479582272137
 34
0.0
1001
ACAD
1000
DSTYLE
1002
{
1070
   287
1070
     3
1070
    40
1040
45.0
1070
   143
1040
0.039
1070
   172
1070
     1
1070
   271
1070
     0
1070
   279
1070
     0
1070
   288
1070
     1
1002
}
  0
DIMENSION
  5
7CFB
  8
3
  2
*D19
 10
6114.7075004250046
 20
6600.3998632488292
 30
0.0
 11
6604.7075170738162
 21
6825.3998632488292
 31
0.0
 70
     0
  1
MAX\P1080
 13
7094.7075337226233
 23
6443.8713075726837
 33
0.0
 14
6114.7075004250046
 24
4758.5479307527094
 34
0.0
1001
ACAD
1000
DSTYLE
1002
{
1070
   287
1070
     3
1070
    40
1040
45.0
1070
   143
1040
0.039
1070
   172
1070
     1
1070
   271
1070
     0
1070
   279
1070
     0
1070
   288
1070
     1
1002
}
  0
DIMENSION
  5
7D12
  8
3
  2
*D20
 10
8157.1611522942476
 20
3508.5479307527089
 30
0.0
 11
8157.1611522942476
 21
4309.8903991665074
 31
0.0
 70
   128
 13
7819.7115220183987
 23
5108.5479307527103
 33
0.0
 14
7819.7115220183987
 24
3508.5479307527089
 34
0.0
 50
90.0
1001
ACAD
1000
DSTYLE
1002
{
1070
   287
1070
     3
1070
     3
1000
φ<>
1070
    40
1040
45.0
1070
   143
1040
0.039
1070
   172
1070
     1
1070
   271
1070
     0
1070
   279
1070
     0
1070
   288
1070
     1
1002
}
  0
LINE
  5
7D4E
  8
4
 10
8325.0
 20
2250.0
 30
0.0
 11
8325.0
 21
1350.0
 31
0.0
  0
LINE
  5
7D4F
  8
4
 10
5175.0
 20
2250.0
 30
0.0
 11
5175.0
 21
1350.0
 31
0.0
  0
LINE
  5
7D50
  8
4
 10
2925.0
 20
2250.0
 30
0.0
 11
2925.0
 21
1350.0
 31
0.0
  0
LINE
  5
7D53
  8
4
 10
2925.0
 20
1350.0
 30
0.0
 11
8325.0
 21
1350.0
 31
0.0
  0
LINE
  5
7D54
  8
4
 10
2925.0
 20
1800.0
 30
0.0
 11
8325.0
 21
1800.0
 31
0.0
  0
TEXT
  5
7D55
  8
4
 10
3098.259363811057
 20
1941.943616399758
 30
0.0
 40
225.0
  1
機器名称
  0
TEXT
  5
7D56
  8
4
 10
3088.1614771115892
 20
1447.403205294049
 30
0.0
 40
225.0
  1
機器型番
  0
TEXT
  5
7D57
  8
4
 10
5300.599808767035
 20
1901.08183855313
 30
0.0
 40
191.25
  1
ミツヤリミットロードファン
  0
TEXT
  5
7D58
  8
4
 10
5339.9452301346628
 20
1427.218129259745
 30
0.0
 40
225.0
  1
LL#10-4
  0
TEXT
  5
7D5A
  8
4
 10
3547.4348141053201
 20
10725.429785996321
 30
0.0
 40
242.99999999999989
  1
床置防振ベット
  0
TEXT
  5
7D5B
  8
4
 10
1403.9135869855461
 20
11410.38245714243
 30
0.0
 40
275.39999999999998
  1
ベルト駆動式片吸込両持リミットロードファン
  0
LINE
  5
7D5C
  8
4
 10
1125.0
 20
11112.33939419162
 30
0.0
 11
8325.0
 21
11112.33939419162
 31
0.0
  0
LINE
  5
7D5D
  8
4
 10
1125.0
 20
12012.33939419162
 30
0.0
 11
8325.0
 21
12012.33939419162
 31
0.0
  0
LINE
  5
7D5E
  8
4
 10
2925.0
 20
2250.0
 30
0.0
 11
8325.0
 21
2250.0
 31
0.0
  0
LINE
  5
7D5F
  8
4
 10
1125.0
 20
12012.33939419162
 30
0.0
 11
1125.0
 21
11112.33939419162
 31
0.0
  0
TEXT
  5
7D60
  8
4
 10
1586.0700690131589
 20
10720.437648958539
 30
0.0
 40
242.99999999999989
  1
右回転右横向
  0
TEXT
  5
7D61
  8
4
 10
6610.3630166218027
 20
12177.274866728891
 30
0.0
 40
252.0
  1
No.
  0
TEXT
  5
7D62
  8
4
 10
5900.832281700059
 20
10725.429785996321
 30
0.0
 40
242.99999999999989
  1
縮尺：1/45
  0
LINE
  5
7D63
  8
4
 10
8325.0
 20
12012.33939419162
 30
0.0
 11
8325.0
 21
11112.33939419162
 31
0.0
  0
LINE
  5
7D64
  8
4
 10
9450.0
 20
13275.0
 30
0.0
 11
9450.0
 21
13275.0
 31
0.0
  0
LINE
  5
7D65
  8
4
 10
6482.7784006193906
 20
12065.686124064299
 30
0.0
 11
6482.7784006193906
 21
12539.935176973881
 31
0.0
  0
LINE
  5
7D66
  8
4
 10
6482.7784006193906
 20
12539.935176973881
 30
0.0
 11
8325.0
 21
12539.935176973881
 31
0.0
  0
LINE
  5
7D67
  8
4
 10
8325.0
 20
12539.935176973881
 30
0.0
 11
8325.0
 21
12065.686124064299
 31
0.0
  0
LINE
  5
7D68
  8
4
 10
8325.0
 20
12065.686124064299
 30
0.0
 11
6482.7784006193906
 21
12065.686124064299
 31
0.0
  0
LINE
  5
7D69
  8
4
 10
0.0
 20
0.0
 30
0.0
 11
0.0
 21
13275.0
 31
0.0
  0
LINE
  5
7D6A
  8
4
 10
0.0
 20
13275.0
 30
0.0
 11
9450.0
 21
13275.0
 31
0.0
  0
LINE
  5
7D6B
  8
4
 10
9450.0
 20
13275.0
 30
0.0
 11
9450.0
 21
0.0
 31
0.0
  0
LINE
  5
7D6C
  8
4
 10
9450.0
 20
0.0
 30
0.0
 11
0.0
 21
0.0
 31
0.0
  0
DIMENSION
  5
7D7F
  8
3
  2
*D21
 10
1473.250940438011
 20
6679.6930664310412
 30
0.0
 11
3054.2356444398702
 21
6679.6930664310412
 31
0.0
 70
   128
 13
4668.2510109113973
 23
6003.5488943449418
 33
0.0
 14
1473.250940438011
 24
3288.5487798490331
 34
0.0
 50
359.9999980038167
1001
ACAD
1000
DSTYLE
1002
{
1070
   287
1070
     3
1070
    40
1040
45.0
1070
   143
1040
0.039
1070
   172
1070
     1
1070
   271
1070
     0
1070
   279
1070
     0
1070
   288
1070
     1
1002
}
  0
LINE
  5
7E29
  8
1
 10
7752.9065220184057
 20
4288.5479582272137
 30
0.0
 11
6436.5075220184017
 21
4288.5479582272146
 31
0.0
  0
LINE
  5
7E2A
  8
1
 10
7684.7075220184042
 20
4353.5479582272128
 30
0.0
 11
7684.7075220183988
 21
6003.5479582272137
 31
0.0
  0
DIMENSION
  5
7E5A
  8
3
  2
*D22
 10
5647.2156306158004
 20
3043.547897654681
 30
0.0
 11
5647.2156306158004
 21
4259.0683050363396
 31
0.0
 70
   128
 13
4668.2510109113973
 23
6068.5488943449418
 33
0.0
 14
4573.25096287622
 24
3043.5478976546819
 34
0.0
 50
90.0
1001
ACAD
1000
DSTYLE
1002
{
1070
   287
1070
     3
1070
    40
1040
45.0
1070
   143
1040
0.039
1070
   172
1070
     1
1070
   271
1070
     0
1070
   279
1070
     0
1070
   288
1070
     1
1002
}
  0
DIMENSION
  5
7EA7
  8
3
  2
*D23
 10
7819.7115220183987
 20
6600.3998632488292
 30
0.0
 11
7457.2095278705101
 21
6712.8998632488292
 31
0.0
 70
     0
 13
7094.7075337226233
 23
6443.8713075726837
 33
0.0
 14
7819.7115220183987
 24
5173.543958227212
 34
0.0
1001
ACAD
1000
DSTYLE
1002
{
1070
   287
1070
     4
1070
    40
1040
45.0
1070
    75
1070
     1
1070
   143
1040
0.039
1070
   172
1070
     1
1070
   271
1070
     0
1070
   279
1070
     1
1070
   288
1070
     1
1002
}
  0
ENDSEC
  0
EOF
