  0
SECTION
  2
HEADER
  9
$ACADVER
  1
AC1009
  9
$INSBASE
 10
0.0
 20
0.0
 30
0.0
  9
$EXTMIN
 10
0.0
 20
0.0
 30
0.0
  9
$EXTMAX
 10
9450.0
 20
13275.0
 30
0.0
  9
$LIMMIN
 10
0.0
 20
0.0
  9
$LIMMAX
 10
297.0
 20
210.0
  9
$ORTHOMODE
 70
     0
  9
$REGENMODE
 70
     1
  9
$FILLMODE
 70
     0
  9
$QTEXTMODE
 70
     0
  9
$MIRRTEXT
 70
     1
  9
$DRAGMODE
 70
     2
  9
$LTSCALE
 40
100.0
  9
$OSMODE
 70
    37
  9
$ATTMODE
 70
     1
  9
$TEXTSIZE
 40
180.0
  9
$TRACEWID
 40
0.05
  9
$TEXTSTYLE
  7
STANDARD
  9
$CLAYER
  8
3
  9
$CELTYPE
  6
BYLAYER
  9
$CECOLOR
 62
   256
  9
$DIMSCALE
 40
45.0
  9
$DIMASZ
 40
2.0
  9
$DIMEXO
 40
0.5
  9
$DIMDLI
 40
10.0
  9
$DIMRND
 40
0.0
  9
$DIMDLE
 40
0.0
  9
$DIMEXE
 40
1.0
  9
$DIMTP
 40
1.0
  9
$DIMTM
 40
1.0
  9
$DIMTXT
 40
3.0
  9
$DIMCEN
 40
0.0
  9
$DIMTSZ
 40
0.0
  9
$DIMTOL
 70
     0
  9
$DIMLIM
 70
     0
  9
$DIMTIH
 70
     0
  9
$DIMTOH
 70
     0
  9
$DIMSE1
 70
     0
  9
$DIMSE2
 70
     0
  9
$DIMTAD
 70
     1
  9
$DIMZIN
 70
     8
  9
$DIMBLK
  1

  9
$DIMASO
 70
     1
  9
$DIMSHO
 70
     1
  9
$DIMPOST
  1

  9
$DIMAPOST
  1

  9
$DIMALT
 70
     0
  9
$DIMALTD
 70
     2
  9
$DIMALTF
 40
0.039
  9
$DIMLFAC
 40
1.0
  9
$DIMTOFL
 70
     1
  9
$DIMTVP
 40
0.0
  9
$DIMTIX
 70
     0
  9
$DIMSOXD
 70
     0
  9
$DIMSAH
 70
     1
  9
$DIMBLK1
  1
OPEN
  9
$DIMBLK2
  1
OPEN
  9
$DIMSTYLE
  2
IGA
  9
$DIMCLRD
 70
     0
  9
$DIMCLRE
 70
     0
  9
$DIMCLRT
 70
     0
  9
$DIMTFAC
 40
10.0
  9
$DIMGAP
 40
1.0
  9
$LUNITS
 70
     2
  9
$LUPREC
 70
     3
  9
$SKETCHINC
 40
0.1
  9
$FILLETRAD
 40
50.0
  9
$AUNITS
 70
     0
  9
$AUPREC
 70
     0
  9
$MENU
  1
acad
  9
$ELEVATION
 40
0.0
  9
$PELEVATION
 40
0.0
  9
$THICKNESS
 40
0.0
  9
$LIMCHECK
 70
     0
  9
$BLIPMODE
 70
     0
  9
$CHAMFERA
 40
0.0
  9
$CHAMFERB
 40
0.0
  9
$SKPOLY
 70
     0
  9
$TDCREATE
 40
2452331.406026504
  9
$TDUPDATE
 40
2454953.6632517711
  9
$TDINDWG
 40
0.0545766088
  9
$TDUSRTIMER
 40
0.0545766088
  9
$USRTIMER
 70
     1
  9
$ANGBASE
 50
0.0
  9
$ANGDIR
 70
     0
  9
$PDMODE
 70
     0
  9
$PDSIZE
 40
0.0
  9
$PLINEWID
 40
0.0
  9
$COORDS
 70
     1
  9
$SPLFRAME
 70
     0
  9
$SPLINETYPE
 70
     6
  9
$SPLINESEGS
 70
     8
  9
$ATTDIA
 70
     0
  9
$ATTREQ
 70
     1
  9
$HANDLING
 70
 10241
  9
$HANDSEED
  5
806A
  9
$SURFTAB1
 70
     6
  9
$SURFTAB2
 70
     6
  9
$SURFTYPE
 70
     6
  9
$SURFU
 70
     6
  9
$SURFV
 70
     6
  9
$UCSNAME
  2

  9
$UCSORG
 10
0.0
 20
0.0
 30
0.0
  9
$UCSXDIR
 10
1.0
 20
0.0
 30
0.0
  9
$UCSYDIR
 10
0.0
 20
1.0
 30
0.0
  9
$PUCSNAME
  2

  9
$PUCSORG
 10
0.0
 20
0.0
 30
0.0
  9
$PUCSXDIR
 10
1.0
 20
0.0
 30
0.0
  9
$PUCSYDIR
 10
0.0
 20
1.0
 30
0.0
  9
$USERI1
 70
     0
  9
$USERI2
 70
     0
  9
$USERI3
 70
     0
  9
$USERI4
 70
     0
  9
$USERI5
 70
     0
  9
$USERR1
 40
0.0
  9
$USERR2
 40
0.0
  9
$USERR3
 40
0.0
  9
$USERR4
 40
0.0
  9
$USERR5
 40
0.0
  9
$WORLDVIEW
 70
     1
  9
$SHADEDGE
 70
     3
  9
$SHADEDIF
 70
    70
  9
$TILEMODE
 70
     1
  9
$MAXACTVP
 70
    16
  9
$PLIMCHECK
 70
     0
  9
$PEXTMIN
 10
1.0000000000000000E+020
 20
1.0000000000000000E+020
 30
1.0000000000000000E+020
  9
$PEXTMAX
 10
-1.0000000000000000E+020
 20
-1.0000000000000000E+020
 30
-1.0000000000000000E+020
  9
$PLIMMIN
 10
0.0
 20
0.0
  9
$PLIMMAX
 10
12.0
 20
9.0
  9
$UNITMODE
 70
     0
  9
$VISRETAIN
 70
     0
  9
$PLINEGEN
 70
     0
  9
$PSLTSCALE
 70
     1
  0
ENDSEC
  0
SECTION
  2
TABLES
  0
TABLE
  2
VPORT
 70
     2
  0
VPORT
  2
*ACTIVE
 70
     0
 10
0.0
 20
0.0
 11
1.0
 21
1.0
 12
16618.881069158091
 22
6646.6912873582551
 13
0.0
 23
0.0
 14
10.0
 24
10.0
 15
10.0
 25
10.0
 16
0.0
 26
0.0
 36
1.0
 17
0.0
 27
0.0
 37
0.0
 40
13882.79518895533
 41
3.1666666666666661
 42
50.0
 43
0.0
 44
0.0
 50
0.0
 51
0.0
 71
     0
 72
   100
 73
     1
 74
     0
 75
     0
 76
     0
 77
     0
 78
     0
  0
ENDTAB
  0
TABLE
  2
LTYPE
 70
     2
  0
LTYPE
  2
CONTINUOUS
 70
     0
  3
Solid line
 72
    65
 73
     0
 40
0.0
  0
LTYPE
  2
CENTER
 70
     0
  3
____ _ ____ _ ____ _ ____ _ ____ _ ____ _ ____ 
 72
    65
 73
     4
 40
2.0
 49
1.25
 49
-0.25
 49
0.25
 49
-0.25
  0
ENDTAB
  0
TABLE
  2
LAYER
 70
     6
  0
LAYER
  2
0
 70
     0
 62
     7
  6
CONTINUOUS
  0
LAYER
  2
3
 70
     0
 62
     2
  6
CONTINUOUS
  0
LAYER
  2
2
 70
     0
 62
     3
  6
CENTER
  0
LAYER
  2
1
 70
     0
 62
     4
  6
CONTINUOUS
  0
LAYER
  2
4
 70
     0
 62
     7
  6
CONTINUOUS
  0
LAYER
  2
DEFPOINTS
 70
     0
 62
     7
  6
CONTINUOUS
  0
ENDTAB
  0
TABLE
  2
STYLE
 70
     1
  0
STYLE
  2
STANDARD
 70
     0
 40
0.0
 41
1.0
 50
0.0
 71
     0
 42
180.0
  3
simplex.shx
  4
extfont.shx
  0
ENDTAB
  0
TABLE
  2
VIEW
 70
     0
  0
ENDTAB
  0
TABLE
  2
UCS
 70
     0
  0
ENDTAB
  0
TABLE
  2
APPID
 70
     1
  0
APPID
  2
ACAD
 70
     0
  0
ENDTAB
  0
TABLE
  2
DIMSTYLE
 70
     1
  0
DIMSTYLE
  2
IGA
 70
     0
  3

  4

  5

  6
OPEN
  7
OPEN
 40
2.0
 41
2.0
 42
0.5
 43
10.0
 44
1.0
 45
0.0
 46
0.0
 47
1.0
 48
1.0
140
3.0
141
0.0
142
0.0
143
0.03937
144
1.0
145
0.0
146
10.0
147
1.0
 71
     0
 72
     0
 73
     0
 74
     0
 75
     0
 76
     0
 77
     1
 78
     8
170
     0
171
     2
172
     0
173
     1
174
     0
175
     0
176
     0
177
     0
178
     0
  0
ENDTAB
  0
ENDSEC
  0
SECTION
  2
BLOCKS
  0
BLOCK
  8
0
  2
$MODEL_SPACE
 70
     0
 10
0.0
 20
0.0
 30
0.0
  3
$MODEL_SPACE
  1

  0
ENDBLK
  5
1B
  8
0
  0
BLOCK
 67
     1
  8
0
  2
$PAPER_SPACE
 70
     0
 10
0.0
 20
0.0
 30
0.0
  3
$PAPER_SPACE
  1

  0
ENDBLK
  5
18
 67
     1
  8
0
  0
BLOCK
  8
0
  2
_OPEN
 70
     0
 10
0.0
 20
0.0
 30
0.0
  3
_OPEN
  1

  0
LINE
  5
79FD
  8
0
  6
BYBLOCK
 62
     0
 10
-1.0
 20
0.1666666666666666
 30
0.0
 11
0.0
 21
0.0
 31
0.0
  0
LINE
  5
79FE
  8
0
  6
BYBLOCK
 62
     0
 10
0.0
 20
0.0
 30
0.0
 11
-1.0
 21
-0.1666666666666666
 31
0.0
  0
LINE
  5
79FF
  8
0
  6
BYBLOCK
 62
     0
 10
0.0
 20
0.0
 30
0.0
 11
-1.0
 21
0.0
 31
0.0
  0
ENDBLK
  5
7A01
  8
0
  0
BLOCK
  8
0
  2
*D1
 70
     1
 10
0.0
 20
0.0
 30
0.0
  3
*D1
  1

  0
LINE
  5
7F99
  8
3
 62
     0
 10
2251.6967233922378
 20
9737.9279752239781
 30
0.0
 11
2251.6967233922378
 21
9988.5068981952718
 31
0.0
  0
LINE
  5
7F9A
  8
3
 62
     0
 10
4151.696723392356
 20
9737.9279752239781
 30
0.0
 11
4151.696723392356
 21
9988.5068981952718
 31
0.0
  0
LINE
  5
7F9B
  8
3
 62
     0
 10
2341.6967233922378
 20
9943.5068981952736
 30
0.0
 11
4061.696723392356
 21
9943.5068981952736
 31
0.0
  0
INSERT
  5
7F9C
  8
3
 62
     0
  2
_OPEN
 10
2251.6967233922378
 20
9943.5068981952736
 30
0.0
 41
90.0
 42
90.0
 43
90.0
 50
180.0
  0
INSERT
  5
7F9D
  8
3
 62
     0
  2
_OPEN
 10
4151.696723392356
 20
9943.5068981952736
 30
0.0
 41
90.0
 42
90.0
 43
90.0
  0
TEXT
  8
3
  40
135
  5
8054
  62
0
  72
0
  71
0
 10
2932.03
 20
9817.06
 30
0.000000
  1
1900
  0
POINT
  5
7F9F
  8
DEFPOINTS
 62
     0
 10
2251.6967233922378
 20
9715.4279752239781
 30
0.0
  0
POINT
  5
7FA0
  8
DEFPOINTS
 62
     0
 10
4151.696723392356
 20
9715.4279752239781
 30
0.0
  0
POINT
  5
7FA1
  8
DEFPOINTS
 62
     0
 10
4151.696723392356
 20
9943.5068981952736
 30
0.0
  0
ENDBLK
  5
7BC1
  8
0
  0
BLOCK
  8
0
  2
*D2
 70
     1
 10
0.0
 20
0.0
 30
0.0
  3
*D2
  1

  0
LINE
  5
7FA2
  8
3
 62
     0
 10
5351.6965470856758
 20
9237.9279752239781
 30
0.0
 11
5351.6965470856758
 21
9988.5068981952718
 31
0.0
  0
LINE
  5
7FA3
  8
3
 62
     0
 10
4241.696723392356
 20
9943.5068981952736
 30
0.0
 11
5261.6965470856758
 21
9943.5068981952736
 31
0.0
  0
INSERT
  5
7FA4
  8
3
 62
     0
  2
_OPEN
 10
4151.696723392356
 20
9943.5068981952736
 30
0.0
 41
90.0
 42
90.0
 43
90.0
 50
180.0
  0
INSERT
  5
7FA5
  8
3
 62
     0
  2
_OPEN
 10
5351.6965470856758
 20
9943.5068981952736
 30
0.0
 41
90.0
 42
90.0
 43
90.0
  0
TEXT
  8
3
  40
135
  5
8055
  62
0
  72
0
  71
0
 10
4481.70
 20
9817.06
 30
0.000000
  1
1200
  0
POINT
  5
7FA7
  8
DEFPOINTS
 62
     0
 10
4151.696723392356
 20
9715.4279752239781
 30
0.0
  0
POINT
  5
7FA8
  8
DEFPOINTS
 62
     0
 10
5351.6965470856758
 20
9215.4279752239781
 30
0.0
  0
POINT
  5
7FA9
  8
DEFPOINTS
 62
     0
 10
5351.6965470856758
 20
9943.5068981952736
 30
0.0
  0
ENDBLK
  5
7BCD
  8
0
  0
BLOCK
  8
0
  2
*D3
 70
     1
 10
0.0
 20
0.0
 30
0.0
  3
*D3
  1

  0
LINE
  5
7FAA
  8
3
 62
     0
 10
5374.1965470856767
 20
9215.4279752239781
 30
0.0
 11
5790.4717054845032
 21
9215.4279752239781
 31
0.0
  0
LINE
  5
7FAB
  8
3
 62
     0
 10
5374.1961592107818
 20
8115.4279752239781
 30
0.0
 11
5790.4717054845032
 21
8115.4279752239781
 31
0.0
  0
LINE
  5
7FAC
  8
3
 62
     0
 10
5745.4717054845032
 20
9125.4279752239781
 30
0.0
 11
5745.4717054845032
 21
8205.4279752239763
 31
0.0
  0
INSERT
  5
7FAD
  8
3
 62
     0
  2
_OPEN
 10
5745.4717054845032
 20
9215.4279752239781
 30
0.0
 41
90.0
 42
90.0
 43
90.0
 50
90.0
  0
INSERT
  5
7FAE
  8
3
 62
     0
  2
_OPEN
 10
5745.4717054845032
 20
8115.4279752239781
 30
0.0
 41
90.0
 42
90.0
 43
90.0
 50
270.0
  0
TEXT
  8
3
  40
135
  5
8056
  62
0
  72
0
  71
0
 10
5362.97
 20
8422.96
 30
0.000000
  1
1100
  0
POINT
  5
7FB0
  8
DEFPOINTS
 62
     0
 10
5351.6965470856758
 20
9215.4279752239781
 30
0.0
  0
POINT
  5
7FB1
  8
DEFPOINTS
 62
     0
 10
5351.6961592107818
 20
8115.4279752239781
 30
0.0
  0
POINT
  5
7FB2
  8
DEFPOINTS
 62
     0
 10
5745.4717054845032
 20
8115.4279752239781
 30
0.0
  0
ENDBLK
  5
7BDA
  8
0
  0
BLOCK
  8
0
  2
*D4
 70
     1
 10
0.0
 20
0.0
 30
0.0
  3
*D4
  1

  0
LINE
  5
7FB3
  8
3
 62
     0
 10
2229.1967233922378
 20
9715.4279752239781
 30
0.0
 11
1881.6660287963621
 21
9715.4279752239781
 31
0.0
  0
LINE
  5
7FB4
  8
3
 62
     0
 10
2229.1961592105758
 20
8115.4279752239781
 30
0.0
 11
1881.6660287963609
 21
8115.4279752239781
 31
0.0
  0
LINE
  5
7FB5
  8
3
 62
     0
 10
1926.6660287963621
 20
9625.4279752239781
 30
0.0
 11
1926.6660287963609
 21
8205.4279752239781
 31
0.0
  0
INSERT
  5
7FB6
  8
3
 62
     0
  2
_OPEN
 10
1926.6660287963621
 20
9715.4279752239781
 30
0.0
 41
90.0
 42
90.0
 43
90.0
 50
90.0
  0
INSERT
  5
7FB7
  8
3
 62
     0
  2
_OPEN
 10
1926.6660287963609
 20
8115.4279752239781
 30
0.0
 41
90.0
 42
90.0
 43
90.0
 50
270.0
  0
TEXT
  8
3
  40
135
  5
8057
  62
0
  72
0
  71
0
 10
1544.17
 20
8670.54
 30
0.000000
  1
1600
  0
POINT
  5
7FB9
  8
DEFPOINTS
 62
     0
 10
2251.6967233922378
 20
9715.4279752239781
 30
0.0
  0
POINT
  5
7FBA
  8
DEFPOINTS
 62
     0
 10
2251.6961592105758
 20
8115.4279752239781
 30
0.0
  0
POINT
  5
7FBB
  8
DEFPOINTS
 62
     0
 10
1926.6660287963609
 20
8115.4279752239781
 30
0.0
  0
ENDBLK
  5
7BE7
  8
0
  0
BLOCK
  8
0
  2
*D5
 70
     1
 10
0.0
 20
0.0
 30
0.0
  3
*D5
  1

  0
LINE
  5
7FBC
  8
3
 62
     0
 10
2251.6961592105758
 20
8092.9279752239772
 30
0.0
 11
2251.6961592105758
 21
7641.1541858570718
 31
0.0
  0
LINE
  5
7FBD
  8
3
 62
     0
 10
5351.6961592107818
 20
8092.9279752239772
 30
0.0
 11
5351.6961592107818
 21
7641.1541858570718
 31
0.0
  0
LINE
  5
7FBE
  8
3
 62
     0
 10
2341.6961592105758
 20
7686.1541858570699
 30
0.0
 11
5261.6961592107818
 21
7686.1541858570699
 31
0.0
  0
INSERT
  5
7FBF
  8
3
 62
     0
  2
_OPEN
 10
2251.6961592105758
 20
7686.1541858570699
 30
0.0
 41
90.0
 42
90.0
 43
90.0
 50
180.0
  0
INSERT
  5
7FC0
  8
3
 62
     0
  2
_OPEN
 10
5351.6961592107818
 20
7686.1541858570699
 30
0.0
 41
90.0
 42
90.0
 43
90.0
  0
TEXT
  8
3
  40
135
  5
8058
  62
0
  72
0
  71
0
 10
3464.04
 20
7559.70
 30
0.000000
  1
3100
  0
POINT
  5
7FC2
  8
DEFPOINTS
 62
     0
 10
2251.6961592105758
 20
8115.4279752239781
 30
0.0
  0
POINT
  5
7FC3
  8
DEFPOINTS
 62
     0
 10
5351.6961592107818
 20
8115.4279752239781
 30
0.0
  0
POINT
  5
7FC4
  8
DEFPOINTS
 62
     0
 10
5351.6961592107818
 20
7686.1541858570699
 30
0.0
  0
ENDBLK
  5
7BF4
  8
0
  0
BLOCK
  8
0
  2
*D6
 70
     1
 10
0.0
 20
0.0
 30
0.0
  3
*D6
  1

  0
LINE
  5
7FC5
  8
3
 62
     0
 10
2134.1959061238672
 20
3495.644881704417
 30
0.0
 11
1777.130137261971
 21
3495.644881704417
 31
0.0
  0
LINE
  5
7FC6
  8
3
 62
     0
 10
2134.1959061238649
 20
5145.6448817044156
 30
0.0
 11
1777.130137261971
 21
5145.6448817044165
 31
0.0
  0
LINE
  5
7FC7
  8
3
 62
     0
 10
1822.130137261971
 20
3585.6448817044161
 30
0.0
 11
1822.1301372619721
 21
5055.6448817044165
 31
0.0
  0
INSERT
  5
7FC8
  8
3
 62
     0
  2
_OPEN
 10
1822.130137261971
 20
3495.644881704417
 30
0.0
 41
90.0
 42
90.0
 43
90.0
 50
270.0
  0
INSERT
  5
7FC9
  8
3
 62
     0
  2
_OPEN
 10
1822.1301372619721
 20
5145.6448817044165
 30
0.0
 41
90.0
 42
90.0
 43
90.0
 50
90.0
  0
TEXT
  8
3
  40
135
  5
8059
  62
0
  72
0
  71
0
 10
1439.63
 20
4110.60
 30
0.000000
  1
1650
  0
POINT
  5
7FCB
  8
DEFPOINTS
 62
     0
 10
2156.6959061238658
 20
3495.644881704417
 30
0.0
  0
POINT
  5
7FCC
  8
DEFPOINTS
 62
     0
 10
2156.695906123864
 20
5145.6448817044156
 30
0.0
  0
POINT
  5
7FCD
  8
DEFPOINTS
 62
     0
 10
1822.1301372619721
 20
5145.6448817044165
 30
0.0
  0
ENDBLK
  5
7DC7
  8
0
  0
BLOCK
  8
0
  2
*D7
 70
     1
 10
0.0
 20
0.0
 30
0.0
  3
*D7
  1

  0
LINE
  5
7FCE
  8
3
 62
     0
 10
2134.1959061238672
 20
3495.644881704417
 30
0.0
 11
1511.668237474885
 21
3495.644881704417
 31
0.0
  0
LINE
  5
7FCF
  8
3
 62
     0
 10
2039.5206799214859
 20
5190.6458817044186
 30
0.0
 11
1511.6682374748859
 21
5190.6458817044186
 31
0.0
  0
LINE
  5
7FD0
  8
3
 62
     0
 10
1556.6682374748859
 20
3585.6448817044161
 30
0.0
 11
1556.6682374748859
 21
5100.6458817044186
 31
0.0
  0
INSERT
  5
7FD1
  8
3
 62
     0
  2
_OPEN
 10
1556.668237474885
 20
3495.644881704417
 30
0.0
 41
90.0
 42
90.0
 43
90.0
 50
270.0
  0
INSERT
  5
7FD2
  8
3
 62
     0
  2
_OPEN
 10
1556.6682374748859
 20
5190.6458817044186
 30
0.0
 41
90.0
 42
90.0
 43
90.0
 50
90.0
  0
TEXT
  8
3
  40
135
  5
805A
  62
0
  72
0
  71
0
 10
1174.17
 20
4132.71
 30
0.000000
  1
1695
  0
POINT
  5
7FD4
  8
DEFPOINTS
 62
     0
 10
2156.6959061238658
 20
3495.644881704417
 30
0.0
  0
POINT
  5
7FD5
  8
DEFPOINTS
 62
     0
 10
2062.0206799214861
 20
5190.6458817044186
 30
0.0
  0
POINT
  5
7FD6
  8
DEFPOINTS
 62
     0
 10
1556.6682374748859
 20
5190.6458817044186
 30
0.0
  0
ENDBLK
  5
7DD2
  8
0
  0
BLOCK
  8
0
  2
_DOT
 70
     0
 10
0.0
 20
0.0
 30
0.0
  3
_DOT
  1

  0
LINE
  5
7D49
  8
0
  6
BYBLOCK
 62
     0
 10
0.0
 20
0.0
 30
0.0
 11
-1.0
 21
-0.0000000000000284
 31
0.0
  0
POLYLINE
  5
7D4A
  8
0
  6
BYBLOCK
 62
     0
 66
     1
 10
0.0
 20
0.0
 30
0.0
 70
     1
 40
0.1666666666666666
 41
0.1666666666666666
  0
VERTEX
  5
7FFA
  8
0
  6
BYBLOCK
 62
     0
 10
-0.0833333333333286
 20
-0.0000000000000284
 30
0.0
 42
1.0
  0
VERTEX
  5
7FFB
  8
0
  6
BYBLOCK
 62
     0
 10
0.0833333333333286
 20
-0.0000000000000284
 30
0.0
 42
1.0
  0
SEQEND
  5
7FFC
  8
0
  6
BYBLOCK
 62
     0
  0
ENDBLK
  5
7C8A
  8
0
  0
BLOCK
  8
0
  2
*D9
 70
     1
 10
0.0
 20
0.0
 30
0.0
  3
*D9
  1

  0
LINE
  5
7FD7
  8
3
 62
     0
 10
6504.7075220183988
 20
6351.4251973696028
 30
0.0
 11
6504.7075220183988
 21
6616.1935886618639
 31
0.0
  0
LINE
  5
7FD8
  8
3
 62
     0
 10
7684.7075220183988
 20
6351.4251973696018
 30
0.0
 11
7684.7075220183988
 21
6616.1935886618639
 31
0.0
  0
LINE
  5
7FD9
  8
3
 62
     0
 10
6594.7075220183997
 20
6571.193588661863
 30
0.0
 11
7594.7075220183997
 21
6571.193588661863
 31
0.0
  0
INSERT
  5
7FDA
  8
3
 62
     0
  2
_OPEN
 10
6504.7075220183988
 20
6571.193588661863
 30
0.0
 41
90.0
 42
90.0
 43
90.0
 50
180.0
  0
INSERT
  5
7FDB
  8
3
 62
     0
  2
_OPEN
 10
7684.7075220183988
 20
6571.193588661863
 30
0.0
 41
90.0
 42
90.0
 43
90.0
  0
TEXT
  8
3
  40
135
  5
805B
  62
0
  72
0
  71
0
 10
6824.80
 20
6444.74
 30
0.000000
  1
1180
  0
POINT
  5
7FDD
  8
DEFPOINTS
 62
     0
 10
6504.7075220183988
 20
6328.9251973696028
 30
0.0
  0
POINT
  5
7FDE
  8
DEFPOINTS
 62
     0
 10
7684.7075220183988
 20
6328.9251973696018
 30
0.0
  0
POINT
  5
7FDF
  8
DEFPOINTS
 62
     0
 10
7684.7075220183988
 20
6571.193588661863
 30
0.0
  0
ENDBLK
  5
7CE1
  8
0
  0
BLOCK
  8
0
  2
*D10
 70
     1
 10
0.0
 20
0.0
 30
0.0
  3
*D10
  1

  0
LINE
  5
7FE0
  8
3
 62
     0
 10
7819.7115220183987
 20
6078.1419091789212
 30
0.0
 11
7819.7115220183987
 21
6970.7771023912173
 31
0.0
  0
LINE
  5
7FE1
  8
3
 62
     0
 10
7094.7075337226233
 20
6791.7485467150727
 30
0.0
 11
7094.7075337226233
 21
6970.7771023912173
 31
0.0
  0
LINE
  5
7FE2
  8
3
 62
     0
 10
7729.7115220183978
 20
6925.7771023912173
 30
0.0
 11
7184.7075337226224
 21
6925.7771023912173
 31
0.0
  0
INSERT
  5
7FE3
  8
3
 62
     0
  2
_OPEN
 10
7819.7115220183987
 20
6925.7771023912173
 30
0.0
 41
90.0
 42
90.0
 43
90.0
  0
INSERT
  5
7FE4
  8
3
 62
     0
  2
_OPEN
 10
7094.7075337226233
 20
6925.7771023912173
 30
0.0
 41
90.0
 42
90.0
 43
90.0
 50
180.0
  0
TEXT
  8
3
  40
135
  5
805C
  62
0
  72
0
  71
0
 10
7188.12
 20
6799.33
 30
0.000000
  1
725
  0
POINT
  5
7FE6
  8
DEFPOINTS
 62
     0
 10
7819.7115220183987
 20
6055.6419091789212
 30
0.0
  0
POINT
  5
7FE7
  8
DEFPOINTS
 62
     0
 10
7094.7075337226233
 20
6769.2485467150718
 30
0.0
  0
POINT
  5
7FE8
  8
DEFPOINTS
 62
     0
 10
7094.7075337226233
 20
6925.7771023912173
 30
0.0
  0
ENDBLK
  5
7F2D
  8
0
  0
BLOCK
  8
0
  2
*D11
 70
     1
 10
0.0
 20
0.0
 30
0.0
  3
*D11
  1

  0
LINE
  5
7FE9
  8
3
 62
     0
 10
6114.7075004250046
 20
5663.1458817044177
 30
0.0
 11
6114.7075004250046
 21
6970.7771023912173
 31
0.0
  0
LINE
  5
7FEA
  8
3
 62
     0
 10
7004.7075337226233
 20
6925.7771023912173
 30
0.0
 11
6204.7075004250046
 21
6925.7771023912173
 31
0.0
  0
INSERT
  5
7FEB
  8
3
 62
     0
  2
_OPEN
 10
7094.7075337226233
 20
6925.7771023912173
 30
0.0
 41
90.0
 42
90.0
 43
90.0
  0
INSERT
  5
7FEC
  8
3
 62
     0
  2
_OPEN
 10
6114.7075004250046
 20
6925.7771023912173
 30
0.0
 41
90.0
 42
90.0
 43
90.0
 50
180.0
  0
TEXT
  8
3
  40
135
  5
805D
  62
0
  72
0
  71
0
 10
6334.71
 20
6911.83
 30
0.000000
  1
MAX
  0
TEXT
  8
3
  40
135
  5
805E
  62
0
  72
0
  71
0
 10
6334.71
 20
6736.33
 30
0.000000
  1
1080
  0
POINT
  5
7FEE
  8
DEFPOINTS
 62
     0
 10
7094.7075337226233
 20
6769.2485467150718
 30
0.0
  0
POINT
  5
7FEF
  8
DEFPOINTS
 62
     0
 10
6114.7075004250046
 20
5640.6458817044177
 30
0.0
  0
POINT
  5
7FF0
  8
DEFPOINTS
 62
     0
 10
6114.7075004250046
 20
6925.7771023912173
 30
0.0
  0
ENDBLK
  5
7ECD
  8
0
  0
BLOCK
  8
0
  2
*D12
 70
     1
 10
0.0
 20
0.0
 30
0.0
  3
*D12
  1

  0
LINE
  5
7FF1
  8
3
 62
     0
 10
7842.2115220183978
 20
5990.6458817044186
 30
0.0
 11
8202.1611522942494
 21
5990.6458817044186
 31
0.0
  0
LINE
  5
7FF2
  8
3
 62
     0
 10
7842.2115220183978
 20
4390.6458817044177
 30
0.0
 11
8202.1611522942494
 21
4390.6458817044177
 31
0.0
  0
LINE
  5
7FF3
  8
3
 62
     0
 10
8157.1611522942476
 20
5900.6458817044177
 30
0.0
 11
8157.1611522942476
 21
4480.6458817044177
 31
0.0
  0
INSERT
  5
7FF4
  8
3
 62
     0
  2
_OPEN
 10
8157.1611522942476
 20
5990.6458817044186
 30
0.0
 41
90.0
 42
90.0
 43
90.0
 50
90.0
  0
INSERT
  5
7FF5
  8
3
 62
     0
  2
_OPEN
 10
8157.1611522942476
 20
4390.6458817044177
 30
0.0
 41
90.0
 42
90.0
 43
90.0
 50
270.0
  0
TEXT
  8
3
  40
135
  5
805F
  62
0
  72
0
  71
0
 10
7774.66
 20
4953.04
 30
0.000000
  1
φ1600
  0
POINT
  5
7FF7
  8
DEFPOINTS
 62
     0
 10
7819.7115220183987
 20
5990.6458817044186
 30
0.0
  0
POINT
  5
7FF8
  8
DEFPOINTS
 62
     0
 10
7819.7115220183987
 20
4390.6458817044177
 30
0.0
  0
POINT
  5
7FF9
  8
DEFPOINTS
 62
     0
 10
8157.1611522942476
 20
4390.6458817044177
 30
0.0
  0
ENDBLK
  5
7D1D
  8
0
  0
BLOCK
  8
0
  2
*D13
 70
     1
 10
0.0
 20
0.0
 30
0.0
  3
*D13
  1

  0
LINE
  5
7FFD
  8
3
 62
     0
 10
2017.0206799214859
 20
5190.6458817044186
 30
0.0
 11
1275.514150501702
 21
5190.6458817044186
 31
0.0
  0
LINE
  5
7FFE
  8
3
 62
     0
 10
1320.5141505017009
 20
3380.645881704419
 30
0.0
 11
1320.5141505017009
 21
5100.6458817044177
 31
0.0
  0
INSERT
  5
7FFF
  8
3
 62
     0
  2
_OPEN
 10
1320.5141505017009
 20
3290.645881704419
 30
0.0
 41
90.0
 42
90.0
 43
90.0
 50
270.0
  0
INSERT
  5
8000
  8
3
 62
     0
  2
_OPEN
 10
1320.5141505017009
 20
5190.6458817044186
 30
0.0
 41
90.0
 42
90.0
 43
90.0
 50
90.0
  0
TEXT
  8
3
  40
135
  5
8060
  62
0
  72
0
  71
0
 10
938.014
 20
4001.70
 30
0.000000
  1
1900
  0
POINT
  5
8002
  8
DEFPOINTS
 62
     0
 10
2251.6958807731899
 20
3290.645881704419
 30
0.0
  0
POINT
  5
8003
  8
DEFPOINTS
 62
     0
 10
2039.5206799214859
 20
5190.6458817044186
 30
0.0
  0
POINT
  5
8004
  8
DEFPOINTS
 62
     0
 10
1320.5141505017009
 20
5190.6458817044186
 30
0.0
  0
ENDBLK
  5
7E11
  8
0
  0
BLOCK
  8
0
  2
*D14
 70
     1
 10
0.0
 20
0.0
 30
0.0
  3
*D14
  1

  0
LINE
  5
8005
  8
3
 62
     0
 10
3295.1969061238651
 20
6329.6458817044177
 30
0.0
 11
1275.514150501702
 21
6329.6458817044186
 31
0.0
  0
LINE
  5
8006
  8
3
 62
     0
 10
1320.5141505017009
 20
5280.6458817044186
 30
0.0
 11
1320.5141505017009
 21
6239.6458817044204
 31
0.0
  0
INSERT
  5
8007
  8
3
 62
     0
  2
_OPEN
 10
1320.5141505017009
 20
5190.6458817044186
 30
0.0
 41
90.0
 42
90.0
 43
90.0
 50
270.0
  0
INSERT
  5
8008
  8
3
 62
     0
  2
_OPEN
 10
1320.5141505017009
 20
6329.6458817044186
 30
0.0
 41
90.0
 42
90.0
 43
90.0
 50
90.0
  0
TEXT
  8
3
  40
135
  5
8061
  62
0
  72
0
  71
0
 10
938.014
 20
5521.20
 30
0.000000
  1
1139
  0
POINT
  5
800A
  8
DEFPOINTS
 62
     0
 10
2039.5206799214859
 20
5190.6458817044186
 30
0.0
  0
POINT
  5
800B
  8
DEFPOINTS
 62
     0
 10
3317.6969061238651
 20
6329.6458817044177
 30
0.0
  0
POINT
  5
800C
  8
DEFPOINTS
 62
     0
 10
1320.5141505017009
 20
6329.6458817044186
 30
0.0
  0
ENDBLK
  5
7E1D
  8
0
  0
BLOCK
  8
0
  2
*D15
 70
     1
 10
0.0
 20
0.0
 30
0.0
  3
*D15
  1

  0
LINE
  5
800D
  8
3
 62
     0
 10
2156.695906123864
 20
5233.1448817044165
 30
0.0
 11
2156.695906123864
 21
6771.8227141141142
 31
0.0
  0
LINE
  5
800E
  8
3
 62
     0
 10
3201.6959027244411
 20
6573.8251219797512
 30
0.0
 11
3201.6959027244411
 21
6771.8227141141142
 31
0.0
  0
LINE
  5
800F
  8
3
 62
     0
 10
2246.6959061238649
 20
6726.8227141141133
 30
0.0
 11
3111.6959027244411
 21
6726.8227141141133
 31
0.0
  0
INSERT
  5
8010
  8
3
 62
     0
  2
_OPEN
 10
2156.695906123864
 20
6726.8227141141133
 30
0.0
 41
90.0
 42
90.0
 43
90.0
 50
180.0
  0
INSERT
  5
8011
  8
3
 62
     0
  2
_OPEN
 10
3201.6959027244411
 20
6726.8227141141133
 30
0.0
 41
90.0
 42
90.0
 43
90.0
  0
TEXT
  8
3
  40
135
  5
8062
  62
0
  72
0
  71
0
 10
2373.73
 20
6600.37
 30
0.000000
  1
1045
  0
POINT
  5
8013
  8
DEFPOINTS
 62
     0
 10
2156.695906123864
 20
5210.6448817044165
 30
0.0
  0
POINT
  5
8014
  8
DEFPOINTS
 62
     0
 10
3201.6959027244411
 20
6551.3251219797521
 30
0.0
  0
POINT
  5
8015
  8
DEFPOINTS
 62
     0
 10
3201.6959027244411
 20
6726.8227141141133
 30
0.0
  0
ENDBLK
  5
7E57
  8
0
  0
BLOCK
  8
0
  2
*D16
 70
     1
 10
0.0
 20
0.0
 30
0.0
  3
*D16
  1

  0
LINE
  5
8016
  8
3
 62
     0
 10
4572.6959061238649
 20
5097.1458817044186
 30
0.0
 11
4572.6959061238649
 21
6771.8227141141142
 31
0.0
  0
LINE
  5
8017
  8
3
 62
     0
 10
3291.695902724442
 20
6726.8227141141133
 30
0.0
 11
4482.695906123864
 21
6726.8227141141133
 31
0.0
  0
INSERT
  5
8018
  8
3
 62
     0
  2
_OPEN
 10
3201.6959027244411
 20
6726.8227141141133
 30
0.0
 41
90.0
 42
90.0
 43
90.0
 50
180.0
  0
INSERT
  5
8019
  8
3
 62
     0
  2
_OPEN
 10
4572.6959061238649
 20
6726.8227141141133
 30
0.0
 41
90.0
 42
90.0
 43
90.0
  0
TEXT
  8
3
  40
135
  5
8063
  62
0
  72
0
  71
0
 10
3617.20
 20
6600.37
 30
0.000000
  1
1371
  0
POINT
  5
801B
  8
DEFPOINTS
 62
     0
 10
3201.6959027244411
 20
6551.3251219797521
 30
0.0
  0
POINT
  5
801C
  8
DEFPOINTS
 62
     0
 10
4572.6959061238649
 20
5074.6458817044186
 30
0.0
  0
POINT
  5
801D
  8
DEFPOINTS
 62
     0
 10
4572.6959061238649
 20
6726.8227141141133
 30
0.0
  0
ENDBLK
  5
7E4C
  8
0
  0
BLOCK
  8
0
  2
*D17
 70
     1
 10
0.0
 20
0.0
 30
0.0
  3
*D17
  1

  0
LINE
  5
801E
  8
3
 62
     0
 10
2156.695906123864
 20
5168.1448817044156
 30
0.0
 11
2156.695906123864
 21
7052.726511390345
 31
0.0
  0
LINE
  5
801F
  8
3
 62
     0
 10
5351.6958820067293
 20
3463.1466558948491
 30
0.0
 11
5351.6958820067293
 21
7052.726511390345
 31
0.0
  0
LINE
  5
8020
  8
3
 62
     0
 10
2246.6959061238649
 20
7007.726511390345
 30
0.0
 11
5261.6958820067284
 21
7007.726511390345
 31
0.0
  0
INSERT
  5
8021
  8
3
 62
     0
  2
_OPEN
 10
2156.695906123864
 20
7007.726511390345
 30
0.0
 41
90.0
 42
90.0
 43
90.0
 50
180.0
  0
INSERT
  5
8022
  8
3
 62
     0
  2
_OPEN
 10
5351.6958820067293
 20
7007.726511390345
 30
0.0
 41
90.0
 42
90.0
 43
90.0
  0
TEXT
  8
3
  40
135
  5
8064
  62
0
  72
0
  71
0
 10
3419.55
 20
6881.28
 30
0.000000
  1
3195
  0
POINT
  5
8024
  8
DEFPOINTS
 62
     0
 10
2156.695906123864
 20
5145.6448817044156
 30
0.0
  0
POINT
  5
8025
  8
DEFPOINTS
 62
     0
 10
5351.6958820067293
 20
3440.6466558948482
 30
0.0
  0
POINT
  5
8026
  8
DEFPOINTS
 62
     0
 10
5351.6958820067293
 20
7007.726511390345
 30
0.0
  0
ENDBLK
  5
7EA4
  8
0
  0
BLOCK
  8
0
  2
*D18
 70
     1
 10
0.0
 20
0.0
 30
0.0
  3
*D18
  1

  0
LINE
  5
8027
  8
3
 62
     0
 10
2251.6958807731899
 20
3268.1458817044181
 30
0.0
 11
2251.6958807731899
 21
2924.663051924108
 31
0.0
  0
LINE
  5
8028
  8
3
 62
     0
 10
3201.695849967733
 20
3268.1461189563161
 30
0.0
 11
3201.695849967733
 21
2924.663051924108
 31
0.0
  0
LINE
  5
8029
  8
3
 62
     0
 10
2341.6958807731899
 20
2969.663051924108
 30
0.0
 11
3111.695849967733
 21
2969.663051924108
 31
0.0
  0
INSERT
  5
802A
  8
3
 62
     0
  2
_OPEN
 10
2251.6958807731899
 20
2969.663051924108
 30
0.0
 41
90.0
 42
90.0
 43
90.0
 50
180.0
  0
INSERT
  5
802B
  8
3
 62
     0
  2
_OPEN
 10
3201.695849967733
 20
2969.663051924108
 30
0.0
 41
90.0
 42
90.0
 43
90.0
  0
TEXT
  8
3
  40
135
  5
8065
  62
0
  72
0
  71
0
 10
2456.70
 20
2843.21
 30
0.000000
  1
950
  0
POINT
  5
802D
  8
DEFPOINTS
 62
     0
 10
2251.6958807731899
 20
3290.645881704419
 30
0.0
  0
POINT
  5
802E
  8
DEFPOINTS
 62
     0
 10
3201.695849967733
 20
3290.6461189563161
 30
0.0
  0
POINT
  5
802F
  8
DEFPOINTS
 62
     0
 10
3201.695849967733
 20
2969.663051924108
 30
0.0
  0
ENDBLK
  5
7F41
  8
0
  0
BLOCK
  8
0
  2
*D19
 70
     1
 10
0.0
 20
0.0
 30
0.0
  3
*D19
  1

  0
LINE
  5
8030
  8
3
 62
     0
 10
3201.695849967733
 20
3268.1461189563161
 30
0.0
 11
3201.695849967733
 21
2924.663051924108
 31
0.0
  0
LINE
  5
8031
  8
3
 62
     0
 10
5351.6958807731971
 20
3268.146655894845
 30
0.0
 11
5351.6958807731971
 21
2924.663051924108
 31
0.0
  0
LINE
  5
8032
  8
3
 62
     0
 10
3291.695849967733
 20
2969.663051924108
 30
0.0
 11
5261.6958807731971
 21
2969.663051924108
 31
0.0
  0
INSERT
  5
8033
  8
3
 62
     0
  2
_OPEN
 10
3201.695849967733
 20
2969.663051924108
 30
0.0
 41
90.0
 42
90.0
 43
90.0
 50
180.0
  0
INSERT
  5
8034
  8
3
 62
     0
  2
_OPEN
 10
5351.6958807731971
 20
2969.663051924108
 30
0.0
 41
90.0
 42
90.0
 43
90.0
  0
TEXT
  8
3
  40
135
  5
8066
  62
0
  72
0
  71
0
 10
4006.70
 20
2843.21
 30
0.000000
  1
2150
  0
POINT
  5
8036
  8
DEFPOINTS
 62
     0
 10
3201.695849967733
 20
3290.6461189563161
 30
0.0
  0
POINT
  5
8037
  8
DEFPOINTS
 62
     0
 10
5351.6958807731971
 20
3290.646655894845
 30
0.0
  0
POINT
  5
8038
  8
DEFPOINTS
 62
     0
 10
5351.6958807731971
 20
2969.663051924108
 30
0.0
  0
ENDBLK
  5
7F4E
  8
0
  0
BLOCK
  8
0
  2
*D20
 70
     1
 10
0.0
 20
0.0
 30
0.0
  3
*D20
  1

  0
LINE
  5
8039
  8
3
 62
     0
 10
6163.707593470046
 20
3268.1458817044181
 30
0.0
 11
6163.707593470046
 21
2924.663051924108
 31
0.0
  0
LINE
  5
803A
  8
3
 62
     0
 10
7094.7076699929421
 20
3268.1452998297341
 30
0.0
 11
7094.7076699929421
 21
2924.663051924108
 31
0.0
  0
LINE
  5
803B
  8
3
 62
     0
 10
6253.7075934700451
 20
2969.663051924108
 30
0.0
 11
7004.7076699929421
 21
2969.663051924108
 31
0.0
  0
INSERT
  5
803C
  8
3
 62
     0
  2
_OPEN
 10
6163.707593470046
 20
2969.663051924108
 30
0.0
 41
90.0
 42
90.0
 43
90.0
 50
180.0
  0
INSERT
  5
803D
  8
3
 62
     0
  2
_OPEN
 10
7094.7076699929421
 20
2969.663051924108
 30
0.0
 41
90.0
 42
90.0
 43
90.0
  0
TEXT
  8
3
  40
135
  5
8067
  62
0
  72
0
  71
0
 10
6359.21
 20
2843.21
 30
0.000000
  1
931
  0
POINT
  5
803F
  8
DEFPOINTS
 62
     0
 10
6163.707593470046
 20
3290.645881704419
 30
0.0
  0
POINT
  5
8040
  8
DEFPOINTS
 62
     0
 10
7094.7076699929421
 20
3290.6452998297332
 30
0.0
  0
POINT
  5
8041
  8
DEFPOINTS
 62
     0
 10
7094.7076699929421
 20
2969.663051924108
 30
0.0
  0
ENDBLK
  5
7F5B
  8
0
  0
BLOCK
  8
0
  2
*D21
 70
     1
 10
0.0
 20
0.0
 30
0.0
  3
*D21
  1

  0
LINE
  5
8042
  8
3
 62
     0
 10
7094.7076699929421
 20
3268.1452998297341
 30
0.0
 11
7094.7076699929421
 21
2924.663051924108
 31
0.0
  0
LINE
  5
8043
  8
3
 62
     0
 10
7763.707593470067
 20
3268.1448817050441
 30
0.0
 11
7763.707593470067
 21
2924.663051924108
 31
0.0
  0
LINE
  5
8044
  8
3
 62
     0
 10
7184.7076699929421
 20
2969.663051924108
 30
0.0
 11
7673.707593470067
 21
2969.663051924108
 31
0.0
  0
INSERT
  5
8045
  8
3
 62
     0
  2
_OPEN
 10
7094.7076699929421
 20
2969.663051924108
 30
0.0
 41
90.0
 42
90.0
 43
90.0
 50
180.0
  0
INSERT
  5
8046
  8
3
 62
     0
  2
_OPEN
 10
7763.707593470067
 20
2969.663051924108
 30
0.0
 41
90.0
 42
90.0
 43
90.0
  0
TEXT
  8
3
  40
135
  5
8068
  62
0
  72
0
  71
0
 10
7159.21
 20
2843.21
 30
0.000000
  1
669
  0
POINT
  5
8048
  8
DEFPOINTS
 62
     0
 10
7094.7076699929421
 20
3290.6452998297332
 30
0.0
  0
POINT
  5
8049
  8
DEFPOINTS
 62
     0
 10
7763.707593470067
 20
3290.6448817050432
 30
0.0
  0
POINT
  5
804A
  8
DEFPOINTS
 62
     0
 10
7763.707593470067
 20
2969.663051924108
 30
0.0
  0
ENDBLK
  5
7F68
  8
0
  0
BLOCK
  8
0
  2
*D22
 70
     1
 10
0.0
 20
0.0
 30
0.0
  3
*D22
  1

  0
LINE
  5
804B
  8
3
 62
     0
 10
3272.6969061238651
 20
6329.6458817044177
 30
0.0
 11
912.66362547558026
 21
6329.6458817044186
 31
0.0
  0
LINE
  5
804C
  8
3
 62
     0
 10
2229.1958807731889
 20
3290.645881704419
 30
0.0
 11
912.66362547557935
 21
3290.645881704419
 31
0.0
  0
LINE
  5
804D
  8
3
 62
     0
 10
957.66362547558015
 20
6239.6458817044204
 30
0.0
 11
957.66362547557947
 21
3380.645881704419
 31
0.0
  0
INSERT
  5
804E
  8
3
 62
     0
  2
_OPEN
 10
957.66362547558015
 20
6329.6458817044186
 30
0.0
 41
90.0
 42
90.0
 43
90.0
 50
90.0
  0
INSERT
  5
804F
  8
3
 62
     0
  2
_OPEN
 10
957.66362547557947
 20
3290.645881704419
 30
0.0
 41
90.0
 42
90.0
 43
90.0
 50
270.0
  0
TEXT
  8
3
  40
135
  5
8069
  62
0
  72
0
  71
0
 10
575.164
 20
4571.20
 30
0.000000
  1
3039
  0
POINT
  5
8051
  8
DEFPOINTS
 62
     0
 10
3295.1969061238651
 20
6329.6458817044177
 30
0.0
  0
POINT
  5
8052
  8
DEFPOINTS
 62
     0
 10
2251.6958807731899
 20
3290.645881704419
 30
0.0
  0
POINT
  5
8053
  8
DEFPOINTS
 62
     0
 10
957.66362547557947
 20
3290.645881704419
 30
0.0
  0
ENDBLK
  5
7F75
  8
0
  0
ENDSEC
  0
SECTION
  2
ENTITIES
  0
LINE
  5
7AE2
  8
1
 10
7763.707593470067
 20
3290.6448817050432
 30
0.0
 11
6163.7065220184058
 21
3290.645881705088
 31
0.0
1001
ACAD
1000
ASC_BOUNDS
1002
{
1070
    19
1002
}
  0
LINE
  5
7AE3
  8
1
 10
7763.707590170111
 20
3440.645881705088
 30
0.0
 11
6163.7065220184058
 21
3440.645881705088
 31
0.0
  0
LINE
  5
7AE6
  8
2
 10
6063.7309031003824
 20
5190.6458817044186
 30
0.0
 11
7883.8235613357328
 21
5190.6458817044186
 31
0.0
  0
LINE
  5
7AE7
  8
1
 10
6164.7075220183988
 20
4880.7309173361409
 30
0.0
 11
6264.7075220183997
 21
4880.7309173361873
 31
0.0
  0
LINE
  5
7AE8
  8
1
 10
6164.7075220183988
 20
5486.9032782593968
 30
0.0
 11
6264.7075220183997
 21
5486.9032782594431
 31
0.0
  0
LINE
  5
7AE9
  8
1
 10
6114.7075004250046
 20
5640.6458817044177
 30
0.0
 11
6304.7075036057377
 21
5640.6458817044177
 31
0.0
  0
LINE
  5
7AEC
  8
1
 10
5351.6958807731971
 20
3290.646655894845
 30
0.0
 11
2251.6958807731899
 21
3290.645881704419
 31
0.0
1001
ACAD
1000
ASC_BOUNDS
1002
{
1070
    19
1005
0
1005
0
1002
}
  0
LINE
  5
7AED
  8
1
 10
5351.6958820067293
 20
3440.6466558948482
 30
0.0
 11
2251.6958820067221
 21
3440.6458817044231
 31
0.0
1001
ACAD
1000
ASC_BOUNDS
1002
{
1070
    19
1002
}
  0
ARC
  5
7AEE
  8
1
 10
3317.6969061238651
 20
5074.6458817044186
 30
0.0
 40
1255.0
 50
5.3040000000000669
 51
95.303000000000139
  0
ARC
  5
7AEF
  8
1
 10
3085.6959061238649
 20
5074.6458817044186
 30
0.0
 40
1487.0
 50
274.47399999999988
 51
4.4740000000000171
  0
LINE
  5
7AF0
  8
1
 10
5249.3873343549949
 20
3500.6466558951738
 30
0.0
 11
5102.5669972395262
 21
3500.6466558951738
 31
0.0
  0
LINE
  5
7AF1
  8
1
 10
5351.6958807731971
 20
3290.6466558948441
 30
0.0
 11
5351.6958820067293
 21
3440.6466558948482
 31
0.0
  0
LINE
  5
7AF3
  8
1
 10
5249.3873343549949
 20
3500.6466558951738
 30
0.0
 11
5261.6962512408663
 21
3440.646622715341
 31
0.0
  0
LINE
  5
7AF4
  8
1
 10
4900.8255052422064
 20
3485.2148057374311
 30
0.0
 11
5001.6962512408672
 21
3485.2148057374311
 31
0.0
  0
LINE
  5
7AF5
  8
1
 10
5102.5669972395262
 20
3485.2148057374311
 30
0.0
 11
5001.6962512408672
 21
3485.2148057374311
 31
0.0
  0
LINE
  5
7AF6
  8
1
 10
5102.5669972395262
 20
3500.6466558951738
 30
0.0
 11
5102.5669972395262
 21
3485.2148057374311
 31
0.0
  0
LINE
  5
7AF7
  8
1
 10
4831.6962512408672
 20
3500.6466558951729
 30
0.0
 11
4811.6962512408663
 21
3500.6466558951729
 31
0.0
  0
LINE
  5
7AF8
  8
1
 10
4754.0051681267369
 20
3500.6466558951738
 30
0.0
 11
4900.8255052422064
 21
3500.6466558951738
 31
0.0
  0
LINE
  5
7AF9
  8
1
 10
4900.8255052422064
 20
3500.6466558951738
 30
0.0
 11
4900.8255052422064
 21
3485.2148057374311
 31
0.0
  0
LINE
  5
7AFA
  8
1
 10
4754.0051681267369
 20
3500.6466558951738
 30
0.0
 11
4741.6962512408663
 21
3440.646622715341
 31
0.0
  0
LINE
  5
7AFC
  8
1
 10
6114.7059025172193
 20
3420.6486284212988
 30
0.0
 11
6114.7075004250046
 21
5640.6458817044177
 31
0.0
  0
LINE
  5
7AFD
  8
2
 10
3201.695849967733
 20
3290.6461189563161
 30
0.0
 11
3201.6959027244411
 21
6551.3251219797521
 31
0.0
  0
ARC
  5
7AFE
  8
1
 10
3298.6969061238651
 20
5287.6458817044186
 30
0.0
 40
1042.0
 50
95.341000000000065
 51
185.34200000000001
  0
LINE
  5
7AFF
  8
1
 10
2251.6958807731899
 20
3290.6458817044172
 30
0.0
 11
2251.6958820067221
 21
3440.6458817044231
 31
0.0
  0
LINE
  5
7B01
  8
1
 10
2251.6959061238631
 20
3440.6446558971361
 30
0.0
 11
2251.6959061238631
 21
3440.6458817044281
 31
0.0
  0
LINE
  5
7B02
  8
1
 10
2156.695906123864
 20
5145.6448817044156
 30
0.0
 11
2156.6959061238658
 21
3495.644881704417
 31
0.0
  0
LINE
  5
7B03
  8
1
 10
2162.6959061238631
 20
5210.6448817044165
 30
0.0
 11
2162.6959061238658
 21
3430.6448817044161
 31
0.0
  0
LINE
  5
7B04
  8
1
 10
2221.6959061238649
 20
5145.6448817044156
 30
0.0
 11
2221.6959061238672
 21
3501.6492644795371
 31
0.0
  0
CIRCLE
  5
7B05
  8
1
 10
3201.6964874909258
 20
5190.6441025964177
 30
0.0
 40
300.0
  0
LINE
  5
7B06
  8
2
 10
4782.0170276452836
 20
5190.6458817044186
 30
0.0
 11
2062.0206799214861
 21
5190.6458817044186
 31
0.0
  0
ARC
  5
7B07
  8
1
 10
3104.6959061238649
 20
5287.6458817044186
 30
0.0
 40
848.0
 50
186.56899999999999
 51
215.88000000000011
  0
LINE
  5
7B08
  8
1
 10
2156.695906123864
 20
5210.6448817044165
 30
0.0
 11
2156.695906123864
 21
5145.6448817044156
 31
0.0
  0
LINE
  5
7B09
  8
1
 10
2156.695906123864
 20
5210.6448817044165
 30
0.0
 11
2162.6959061238631
 21
5210.6448817044165
 31
0.0
  0
LINE
  5
7B0A
  8
1
 10
2268.6697606002922
 20
5145.6448817044156
 30
0.0
 11
2156.695906123864
 21
5145.6448817044156
 31
0.0
  0
LINE
  5
7B0B
  8
1
 10
2156.695906123864
 20
5145.6448817044156
 30
0.0
 11
2221.6959061238649
 21
5145.6448817044156
 31
0.0
  0
CIRCLE
  5
7B0C
  8
1
 10
2396.0259008223288
 20
4784.7592890976557
 30
0.0
 40
22.270700527454458
  0
LINE
  5
7B0D
  8
1
 10
3201.6959061238658
 20
3592.176881704419
 30
0.0
 11
2156.6959061238658
 21
3495.644881704417
 31
0.0
  0
LINE
  5
7B0F
  8
1
 10
2156.6959061238658
 20
3430.6448817044161
 30
0.0
 11
2162.6959061238658
 21
3430.6448817044161
 31
0.0
  0
LINE
  5
7B10
  8
1
 10
2156.6959061238658
 20
3495.644881704417
 30
0.0
 11
2156.6959061238658
 21
3430.6448817044161
 31
0.0
  0
LINE
  5
7B11
  8
1
 10
6164.7075220183988
 20
3560.6486284212988
 30
0.0
 11
6164.7075220183988
 21
5486.9032782593968
 31
0.0
  0
LINE
  5
7B12
  8
1
 10
4572.6959061238649
 20
9215.4279752239781
 30
0.0
 11
5351.696547085674
 21
9215.4279752239781
 31
0.0
  0
LINE
  5
7B13
  8
1
 10
2251.6961592105758
 20
8115.4279752239781
 30
0.0
 11
5351.6961592107818
 21
8115.4279752239781
 31
0.0
  0
LINE
  5
7B14
  8
1
 10
5351.6965470856758
 20
9215.4279752239781
 30
0.0
 11
5351.6961592107818
 21
8115.4279752239781
 31
0.0
  0
LINE
  5
7B15
  8
1
 10
2251.6967233922819
 20
9715.4281007652426
 30
0.0
 11
2251.6966955354142
 21
9636.4269745076563
 31
0.0
  0
LINE
  5
7B16
  8
1
 10
4151.6967233923569
 20
9715.4279752239781
 30
0.0
 11
2251.6967233922369
 21
9715.4279752239781
 31
0.0
  0
LINE
  5
7B17
  8
2
 10
3201.6959061238649
 20
7959.1962782092987
 30
0.0
 11
3201.6959061238649
 21
9815.3130118665249
 31
0.0
  0
LINE
  5
7B18
  8
1
 10
4151.696723392356
 20
9715.4279752239781
 30
0.0
 11
4151.6966955355638
 21
9636.4270585840477
 31
0.0
  0
LINE
  5
7B19
  8
1
 10
7819.7115220183987
 20
4325.6429091789214
 30
0.0
 11
7819.7115220183987
 21
6055.6419091789212
 31
0.0
  0
LINE
  5
7B1A
  8
1
 10
7813.7115220183978
 20
6055.6419091789212
 30
0.0
 11
7813.7115220183978
 21
4325.6429091789214
 31
0.0
  0
LINE
  5
7B1B
  8
1
 10
7693.9065220184029
 20
4325.6429091789214
 30
0.0
 11
7693.9065220184011
 21
6055.6419091789212
 31
0.0
  0
LINE
  5
7B1E
  8
2
 10
7094.7075423732886
 20
6554.2383329403356
 30
0.0
 11
7094.7076699929421
 21
3290.6452998297332
 31
0.0
  0
LINE
  5
7B21
  8
1
 10
6304.7064483679233
 20
3420.6486284212988
 30
0.0
 11
6304.7065172506891
 21
3532.8803487413979
 31
0.0
  0
LINE
  5
7B22
  8
1
 10
7752.9065220184029
 20
4390.6458817044177
 30
0.0
 11
7819.7115220183987
 21
4390.6458817044177
 31
0.0
  0
LINE
  5
7B24
  8
1
 10
7687.9065220184011
 20
4390.6429091789214
 30
0.0
 11
7752.9065220184029
 21
4390.6429091789214
 31
0.0
  0
LINE
  5
7B27
  8
1
 10
7752.9065220184029
 20
4390.6429091789214
 30
0.0
 11
7752.9065220184029
 21
4388.6429091789223
 31
0.0
  0
LINE
  5
7B2D
  8
1
 10
7687.9065220184011
 20
4325.6429091789214
 30
0.0
 11
7693.9065220184011
 21
4325.6429091789214
 31
0.0
  0
LINE
  5
7B2F
  8
1
 10
7687.9065220184011
 20
4390.6429091789214
 30
0.0
 11
7687.9065220184011
 21
4325.6429091789214
 31
0.0
  0
LINE
  5
7B33
  8
1
 10
7819.7115220183987
 20
4325.6429091789214
 30
0.0
 11
7813.7115220183978
 21
4325.6429091789214
 31
0.0
  0
LINE
  5
7B35
  8
1
 10
7819.7115220183987
 20
4325.6429091789214
 30
0.0
 11
7819.7115220183987
 21
4390.6429091789214
 31
0.0
  0
LINE
  5
7B36
  8
1
 10
6504.7075220184061
 20
6329.6458817044177
 30
0.0
 11
6504.7075220184006
 21
3900.6486284212988
 31
0.0
  0
LINE
  5
7B37
  8
1
 10
7684.7075220184042
 20
6329.6458817044177
 30
0.0
 11
7684.7075220183988
 21
3495.6458542299142
 31
0.0
  0
LINE
  5
7B38
  8
1
 10
7752.9065220184029
 20
3440.6458817050889
 30
0.0
 11
7752.9065220184029
 21
4390.6458817044177
 31
0.0
  0
LINE
  5
7B39
  8
1
 10
6436.5075220184008
 20
3440.645881705088
 30
0.0
 11
6436.5075220184017
 21
3490.6486284213001
 31
0.0
  0
LINE
  5
7B3A
  8
1
 10
6264.7075220183997
 20
5486.9032782594431
 30
0.0
 11
6264.7075220183979
 21
3560.6486284212988
 31
0.0
  0
LINE
  5
7B3B
  8
1
 10
6264.7075220183997
 20
5140.6439091789207
 30
0.0
 11
6504.7070045704713
 21
5140.6439091789207
 31
0.0
  0
LINE
  5
7B3C
  8
1
 10
6264.7075220183997
 20
5240.6419091789212
 30
0.0
 11
6504.7075220184042
 21
5240.6419091789212
 31
0.0
  0
LINE
  5
7B3D
  8
1
 10
6304.707390597714
 20
5456.5202130513744
 30
0.0
 11
6304.7075036057377
 21
5640.6458817044177
 31
0.0
  0
LINE
  5
7B3E
  8
1
 10
7752.9065220184029
 20
5990.6458817044186
 30
0.0
 11
7819.7115220183987
 21
5990.6458817044186
 31
0.0
  0
LINE
  5
7B41
  8
1
 10
7687.9065220184011
 20
5990.6419091789212
 30
0.0
 11
7752.9065220184029
 21
5990.6419091789212
 31
0.0
  0
LINE
  5
7B43
  8
1
 10
7687.9065220184011
 20
5990.6419091789212
 30
0.0
 11
7687.9065220184011
 21
6055.6419091789212
 31
0.0
  0
LINE
  5
7B4D
  8
1
 10
7819.7115220183987
 20
6055.6419091789212
 30
0.0
 11
7819.7115220183987
 21
5990.6419091789212
 31
0.0
  0
LINE
  5
7B53
  8
1
 10
7684.7075220184006
 20
3495.6458542299142
 30
0.0
 11
7008.8396113373901
 21
3495.6458542299142
 31
0.0
  0
LINE
  5
7B54
  8
1
 10
4898.86662045103
 20
3505.026955886136
 30
0.0
 11
5104.5258820307026
 21
3505.026955886136
 31
0.0
  0
LINE
  5
7B55
  8
2
 10
4707.3981541932153
 20
3700.6466558951738
 30
0.0
 11
5316.745029635058
 21
3700.6466558951738
 31
0.0
  0
ARC
  5
7B56
  8
1
 10
5001.6962512408672
 20
3700.6466558951738
 30
0.0
 40
221.0
 50
297.7291503578308
 51
242.27084964216911
  0
LINE
  5
7B57
  8
1
 10
4812.6962512408672
 20
3500.6466558951738
 30
0.0
 11
4892.6962512408672
 21
3500.6466558951738
 31
0.0
  0
LINE
  5
7B58
  8
1
 10
4812.6962512408672
 20
3520.6466558951738
 30
0.0
 11
4873.4737883102234
 21
3520.6466558951738
 31
0.0
  0
LINE
  5
7B59
  8
1
 10
4842.6962512408663
 20
3480.1466558951738
 30
0.0
 11
4842.6962512408663
 21
3550.342266654437
 31
0.0
  0
LINE
  5
7B5A
  8
1
 10
4812.6962512408672
 20
3500.6466558951738
 30
0.0
 11
4812.6962512408672
 21
3554.657992908833
 31
0.0
  0
LINE
  5
7B5B
  8
1
 10
4812.6962512408672
 20
3554.657992908833
 30
0.0
 11
4824.5911472993303
 21
3568.454439188371
 31
0.0
  0
LINE
  5
7B5C
  8
1
 10
4892.6962512408672
 20
3509.7753593003408
 30
0.0
 11
4892.6962512408672
 21
3500.6466558951738
 31
0.0
  0
LINE
  5
7B5D
  8
2
 10
5001.6962512408672
 20
3358.9203212424281
 30
0.0
 11
5001.6962512408672
 21
4001.2075426594238
 31
0.0
  0
LINE
  5
7B5E
  8
1
 10
5190.6962512408663
 20
3520.6466558951738
 30
0.0
 11
5129.9187141715101
 21
3520.6466558951752
 31
0.0
  0
LINE
  5
7B5F
  8
1
 10
5190.6962512408663
 20
3500.6466558951738
 30
0.0
 11
5110.6962512408672
 21
3500.6466558951738
 31
0.0
  0
LINE
  5
7B60
  8
1
 10
5160.6962512408663
 20
3480.1466558951738
 30
0.0
 11
5160.6962512408663
 21
3550.342266654437
 31
0.0
  0
LINE
  5
7B61
  8
1
 10
5110.6962512408672
 20
3509.7753593003408
 30
0.0
 11
5110.6962512408672
 21
3500.6466558951738
 31
0.0
  0
LINE
  5
7B62
  8
1
 10
5190.6962512408663
 20
3500.6466558951738
 30
0.0
 11
5190.6962512408663
 21
3554.6579929088339
 31
0.0
  0
LINE
  5
7B63
  8
1
 10
5190.6962512408663
 20
3554.657992908833
 30
0.0
 11
5178.8013551823997
 21
3568.4544391883751
 31
0.0
  0
CIRCLE
  5
7B65
  8
1
 10
5001.6962512408672
 20
3700.6466558951738
 30
0.0
 40
140.0
  0
ARC
  5
7B66
  8
1
 10
5001.6962512408672
 20
3700.6466558951738
 30
0.0
 40
280.0
 50
235.29281789137559
 51
45.47275292589417
  0
ARC
  5
7B67
  8
1
 10
3201.6979863886272
 20
5190.6458817044186
 30
0.0
 40
480.0
 50
45.47275292589417
 51
235.29281789137559
  0
LINE
  5
7B69
  8
1
 10
3443.2858354064078
 20
5367.9573103842813
 30
0.0
 11
5066.530916097402
 21
3824.729153584979
 31
0.0
  0
LINE
  5
7B6C
  8
1
 10
6164.7065220184022
 20
3840.6486284212988
 30
0.0
 11
6264.7075220183979
 21
3840.6486284212988
 31
0.0
  0
LINE
  5
7B6D
  8
1
 10
6164.7065220184022
 20
3560.6486284212988
 30
0.0
 11
6264.7075220183979
 21
3560.6486284212988
 31
0.0
  0
LINE
  5
7B6E
  8
1
 10
7684.7075220183988
 20
5145.6458542299151
 30
0.0
 11
6504.7075220183979
 21
5145.6458542299133
 31
0.0
  0
LINE
  5
7B6F
  8
1
 10
7763.707590170111
 20
3440.645881705088
 30
0.0
 11
7763.7075934700688
 21
3290.6448817050432
 31
0.0
  0
LINE
  5
7B70
  8
1
 10
6163.707590170111
 20
3440.645881705088
 30
0.0
 11
6163.707593470046
 21
3290.645881704419
 31
0.0
  0
LINE
  5
7B73
  8
1
 10
6114.7059025172193
 20
3420.6486284212988
 30
0.0
 11
6304.7064483679233
 21
3420.6486284212988
 31
0.0
  0
LINE
  5
7B74
  8
1
 10
7687.9065220184011
 20
5990.6419091789212
 30
0.0
 11
7687.9065220184011
 21
4390.6429091789214
 31
0.0
  0
LINE
  5
7B75
  8
1
 10
7684.7075220183988
 20
3495.6458542299142
 30
0.0
 11
6504.7075220184042
 21
5140.6498542299159
 31
0.0
  0
LINE
  5
7B76
  8
1
 10
6794.3458696219377
 20
3900.6486284212988
 30
0.0
 11
7684.7075220184042
 21
5145.6458542299151
 31
0.0
  0
LINE
  5
7B77
  8
2
 10
2067.699210756341
 20
9046.4269663656341
 30
0.0
 11
4726.565835277489
 21
9046.4270840224253
 31
0.0
  0
LINE
  5
7B78
  8
1
 10
5281.6962512408663
 20
8066.4258305350013
 30
0.0
 11
5281.6962512408663
 21
8256.4258509483261
 31
0.0
  0
LINE
  5
7B79
  8
1
 10
5141.6962512408663
 20
8116.4259245988051
 30
0.0
 11
5141.6962512408663
 21
8216.4259245988051
 31
0.0
  0
LINE
  5
7B7A
  8
1
 10
4861.6962512408663
 20
8116.4259245988051
 30
0.0
 11
4861.6962512408663
 21
8216.4259245988032
 31
0.0
  0
LINE
  5
7B7B
  8
1
 10
2751.6959061238649
 20
8066.4269030054102
 30
0.0
 11
2751.6959061238649
 21
8256.4269061861396
 31
0.0
  0
LINE
  5
7B7C
  8
1
 10
2905.4385095688858
 20
8116.4269245988035
 30
0.0
 11
2905.438509568839
 21
8216.4269245988035
 31
0.0
  0
LINE
  5
7B7D
  8
1
 10
3511.6108704921421
 20
8116.4269245988035
 30
0.0
 11
3511.6108704920971
 21
8216.4269245988035
 31
0.0
  0
LINE
  5
7B7E
  8
1
 10
3511.6108704921421
 20
8116.4269245988035
 30
0.0
 11
2905.4385095688858
 21
8116.4269245988035
 31
0.0
  0
LINE
  5
7B7F
  8
1
 10
5281.6962512408663
 20
8066.4258305350013
 30
0.0
 11
2751.6959061238649
 21
8066.4269030054102
 31
0.0
  0
LINE
  5
7B80
  8
1
 10
5141.6962512408663
 20
8116.4259245988051
 30
0.0
 11
3511.6108704921421
 21
8116.4259245988051
 31
0.0
  0
LINE
  5
7B81
  8
1
 10
2905.438509568839
 20
8216.4269245988035
 30
0.0
 11
3511.6108704920971
 21
8216.4269245988035
 31
0.0
  0
LINE
  5
7B82
  8
1
 10
5141.6962512408663
 20
8216.4259245988051
 30
0.0
 11
3511.6108704920971
 21
8216.4259245988051
 31
0.0
  0
LINE
  5
7B83
  8
1
 10
3251.697878649361
 20
8216.4269245988035
 30
0.0
 11
3251.697878649361
 21
8456.4264071508769
 31
0.0
  0
LINE
  5
7B84
  8
1
 10
5281.6962512408663
 20
8256.4253533861374
 30
0.0
 11
2751.6959061238649
 21
8256.4269061861396
 31
0.0
  0
LINE
  5
7B85
  8
1
 10
3151.6998786493618
 20
8216.4269245988035
 30
0.0
 11
3151.6998786493618
 21
8456.4269245988053
 31
0.0
  0
LINE
  5
7B86
  8
1
 10
2156.695906123864
 20
9636.4269703038026
 30
0.0
 11
4572.6959061238649
 21
9636.4270772135715
 31
0.0
  0
LINE
  5
7B87
  8
1
 10
2156.695906123864
 20
8456.4269703038008
 30
0.0
 11
4572.6959061238649
 21
8456.4270772135678
 31
0.0
  0
LINE
  5
7B88
  8
1
 10
2156.695906123864
 20
8391.4269703038026
 30
0.0
 11
2156.695906123864
 21
9701.4269703038026
 31
0.0
  0
LINE
  5
7B89
  8
1
 10
4572.6959061238658
 20
8456.4270772135678
 30
0.0
 11
4572.6959061238649
 21
9636.4270772135678
 31
0.0
  0
LINE
  5
7B8A
  8
1
 10
2251.6962794514402
 20
8456.4269745076399
 30
0.0
 11
2251.6961592105758
 21
8115.4279752239781
 31
0.0
  0
LINE
  5
7B8B
  8
1
 10
2221.6959061238649
 20
8456.4269731800978
 30
0.0
 11
2221.6959061238649
 21
9636.4269731800996
 31
0.0
  0
LINE
  5
7B8C
  8
2
 10
5001.6962512408672
 20
7959.289523672127
 30
0.0
 11
5001.6962512408672
 21
9012.2852287046444
 31
0.0
  0
LINE
  5
7B8D
  8
1
 10
5211.6962512408663
 20
8959.5430260198282
 30
0.0
 11
4801.6962512408663
 21
8959.5430260198282
 31
0.0
  0
LINE
  5
7B8E
  8
1
 10
4923.6962512408663
 20
8310.0430260198318
 30
0.0
 11
5001.6962512408672
 21
8310.0430260198318
 31
0.0
  0
LINE
  5
7B8F
  8
1
 10
4801.6962512408663
 20
8321.5430260198282
 30
0.0
 11
4801.6962512408663
 21
8959.5430260198282
 31
0.0
  0
LINE
  5
7B90
  8
1
 10
4921.6962512408672
 20
8322.1961020198305
 30
0.0
 11
4921.6962512408672
 21
8312.04302601983
 31
0.0
  0
ARC
  5
7B91
  8
1
 10
4918.6962512408663
 20
8322.1961020198305
 30
0.0
 40
3.0
 50
0.0
 51
87.000443000000004
  0
ARC
  5
7B92
  8
1
 10
4923.6962512408663
 20
8312.04302601983
 30
0.0
 40
2.0
 50
180.0
 51
270.0
  0
LINE
  5
7B93
  8
1
 10
5211.6962512408663
 20
8959.5430260198282
 30
0.0
 11
5211.6962512408663
 21
8321.5430260198282
 31
0.0
  0
LINE
  5
7B94
  8
1
 10
5211.6962512408663
 20
8321.5430260198318
 30
0.0
 11
4801.6962512408672
 21
8321.5430260198282
 31
0.0
  0
LINE
  5
7B95
  8
1
 10
5035.6962512408663
 20
8270.04302601983
 30
0.0
 11
5035.6962512408663
 21
8160.0430260198309
 31
0.0
  0
LINE
  5
7B96
  8
1
 10
4971.6962512408663
 20
8300.04302601983
 30
0.0
 11
4971.6962512408663
 21
8160.0430260198309
 31
0.0
  0
LINE
  5
7B97
  8
1
 10
5031.6962512408663
 20
8300.04302601983
 30
0.0
 11
5031.6962512408663
 21
8160.0430260198309
 31
0.0
  0
LINE
  5
7B98
  8
1
 10
5079.6962512408663
 20
8310.0430260198318
 30
0.0
 11
5001.6962512408672
 21
8310.0430260198318
 31
0.0
  0
LINE
  5
7B99
  8
1
 10
4969.1962512408663
 20
8300.04302601983
 30
0.0
 11
5034.1962512408663
 21
8300.04302601983
 31
0.0
  0
LINE
  5
7B9A
  8
1
 10
4969.1962512408663
 20
8300.04302601983
 30
0.0
 11
4969.1962512408663
 21
8310.0430260198318
 31
0.0
  0
LINE
  5
7B9B
  8
1
 10
5034.1962512408663
 20
8300.04302601983
 30
0.0
 11
5034.1962512408663
 21
8310.0430260198318
 31
0.0
  0
LINE
  5
7B9C
  8
1
 10
5035.6962512408663
 20
8270.04302601983
 30
0.0
 11
5031.6962512408663
 21
8270.04302601983
 31
0.0
  0
LINE
  5
7B9D
  8
1
 10
5081.6962512408672
 20
8321.5430260198282
 30
0.0
 11
5081.6962512408672
 21
8312.04302601983
 31
0.0
  0
ARC
  5
7B9E
  8
1
 10
5079.6962512408663
 20
8312.04302601983
 30
0.0
 40
2.0
 50
270.0
 51
0.0
  0
LINE
  5
7B9F
  8
1
 10
5035.6962512408663
 20
8160.0430260198309
 30
0.0
 11
4971.6962512408663
 21
8160.0430260198309
 31
0.0
  0
LINE
  5
7BA0
  8
1
 10
4918.8532359459532
 20
8325.191991837959
 30
0.0
 11
4918.8532359459532
 21
8325.1920487428542
 31
0.0
  0
LINE
  5
7BA1
  8
1
 10
7008.8396113373919
 20
3490.6486284212988
 30
0.0
 11
6370.8396113373919
 21
3490.6486284213001
 31
0.0
  0
LINE
  5
7BA2
  8
1
 10
6370.8396113373901
 20
3900.6486284212988
 30
0.0
 11
7008.8396113373901
 21
3900.6486284212988
 31
0.0
  0
LINE
  5
7BA3
  8
2
 10
6068.7962788324439
 20
3700.6486284212988
 30
0.0
 11
7038.2966913346399
 21
3700.6486284212988
 31
0.0
  0
LINE
  5
7BA4
  8
1
 10
7008.8396113373901
 20
3490.6486284212988
 30
0.0
 11
7008.8396113373901
 21
3900.6486284212988
 31
0.0
  0
LINE
  5
7BA5
  8
1
 10
6209.339611337391
 20
3666.6486284212988
 30
0.0
 11
6209.339611337391
 21
3730.6486284212988
 31
0.0
  0
LINE
  5
7BA6
  8
1
 10
6349.3396113373901
 20
3733.1486284212988
 30
0.0
 11
6349.3396113373901
 21
3668.1486284212988
 31
0.0
  0
LINE
  5
7BA7
  8
1
 10
6370.8396113373919
 20
3490.6486284213001
 30
0.0
 11
6370.8396113373901
 21
3900.6486284212979
 31
0.0
  0
LINE
  5
7BA8
  8
1
 10
6359.3396113373901
 20
3778.6486284212988
 30
0.0
 11
6359.3396113373901
 21
3700.6486284212988
 31
0.0
  0
LINE
  5
7BA9
  8
1
 10
6349.3396113373901
 20
3730.6486284212988
 30
0.0
 11
6209.339611337391
 21
3730.6486284212988
 31
0.0
  0
LINE
  5
7BAA
  8
1
 10
6349.3396113373901
 20
3733.1486284212988
 30
0.0
 11
6359.3396113373901
 21
3733.1486284212988
 31
0.0
  0
ARC
  5
7BAB
  8
1
 10
6361.3396113373901
 20
3778.6486284212988
 30
0.0
 40
2.0
 50
90.0
 51
180.0
  0
LINE
  5
7BAC
  8
1
 10
6371.4926873373897
 20
3780.6486284212988
 30
0.0
 11
6361.3396113373901
 21
3780.6486284212988
 31
0.0
  0
LINE
  5
7BAD
  8
1
 10
6349.3396113373901
 20
3670.6486284212988
 30
0.0
 11
6209.339611337391
 21
3670.6486284212988
 31
0.0
  0
LINE
  5
7BAE
  8
1
 10
6319.3396113373901
 20
3666.6486284212988
 30
0.0
 11
6209.339611337391
 21
3666.6486284212988
 31
0.0
  0
ARC
  5
7BAF
  8
1
 10
6361.3396113373901
 20
3622.6486284212988
 30
0.0
 40
2.0
 50
180.0
 51
270.0
  0
LINE
  5
7BB0
  8
1
 10
6370.8396113373901
 20
3620.6486284212988
 30
0.0
 11
6361.3396113373901
 21
3620.6486284212988
 31
0.0
  0
LINE
  5
7BB1
  8
1
 10
6349.3396113373901
 20
3668.1486284212988
 30
0.0
 11
6359.3396113373901
 21
3668.1486284212988
 31
0.0
  0
LINE
  5
7BB2
  8
1
 10
6359.3396113373901
 20
3622.6486284212988
 30
0.0
 11
6359.3396113373901
 21
3700.6486284212988
 31
0.0
  0
LINE
  5
7BB3
  8
1
 10
6319.3396113373901
 20
3666.6486284212988
 30
0.0
 11
6319.3396113373901
 21
3670.6486284212988
 31
0.0
  0
LINE
  5
7BB4
  8
1
 10
6504.7063877021337
 20
3900.6486284212988
 30
0.0
 11
6504.7070294452697
 21
5190.6458817044186
 31
0.0
  0
DIMENSION
  5
7BC2
  8
3
  2
*D1
 10
4151.696723392356
 20
9943.5068981952736
 30
0.0
 11
3202.030529995609
 21
9943.5068981952736
 31
0.0
 70
   128
 13
2251.6967233922378
 23
9715.4279752239781
 33
0.0
 14
4151.696723392356
 24
9715.4279752239781
 34
0.0
1001
ACAD
1000
DSTYLE
1002
{
1070
   287
1070
     3
1070
    40
1040
45.0
1070
   143
1040
0.039
1070
   172
1070
     1
1070
   271
1070
     0
1070
   279
1070
     0
1070
   288
1070
     1
1002
}
  0
DIMENSION
  5
7BCE
  8
3
  2
*D2
 10
5351.6965470856758
 20
9943.5068981952736
 30
0.0
 11
4751.6966352390164
 21
10056.00689819527
 31
0.0
 70
     0
 13
4151.696723392356
 23
9715.4279752239781
 33
0.0
 14
5351.6965470856758
 24
9215.4279752239781
 34
0.0
1001
ACAD
1000
DSTYLE
1002
{
1070
   287
1070
     4
1070
    40
1040
45.0
1070
    75
1070
     1
1070
   143
1040
0.039
1070
   172
1070
     1
1070
   271
1070
     0
1070
   279
1070
     1
1070
   288
1070
     1
1002
}
  0
DIMENSION
  5
7BDB
  8
3
  2
*D3
 10
5745.4717054845032
 20
8115.4279752239781
 30
0.0
 11
5745.4717054845032
 21
8661.9130916480644
 31
0.0
 70
   128
 13
5351.6965470856758
 23
9215.4279752239781
 33
0.0
 14
5351.6961592107818
 24
8115.4279752239781
 34
0.0
 50
90.0
1001
ACAD
1000
DSTYLE
1002
{
1070
   287
1070
     3
1070
    40
1040
45.0
1070
   143
1040
0.039
1070
   172
1070
     1
1070
   271
1070
     0
1070
   279
1070
     0
1070
   288
1070
     1
1002
}
  0
DIMENSION
  5
7BE8
  8
3
  2
*D4
 10
1926.6660287963609
 20
8115.4279752239781
 30
0.0
 11
1926.66602879636
 21
8909.49372706539
 31
0.0
 70
   128
 13
2251.6967233922378
 23
9715.4279752239781
 33
0.0
 14
2251.6961592105758
 24
8115.4279752239781
 34
0.0
 50
90.0
1001
ACAD
1000
DSTYLE
1002
{
1070
   287
1070
     3
1070
    40
1040
45.0
1070
   143
1040
0.039
1070
   172
1070
     1
1070
   271
1070
     0
1070
   279
1070
     0
1070
   288
1070
     1
1002
}
  0
DIMENSION
  5
7BF5
  8
3
  2
*D5
 10
5351.6961592107818
 20
7686.1541858570699
 30
0.0
 11
3734.0397155473179
 21
7686.1541858570699
 31
0.0
 70
   128
 13
2251.6961592105758
 23
8115.4279752239781
 33
0.0
 14
5351.6961592107818
 24
8115.4279752239781
 34
0.0
1001
ACAD
1000
DSTYLE
1002
{
1070
   287
1070
     3
1070
    40
1040
45.0
1070
   143
1040
0.039
1070
   172
1070
     1
1070
   271
1070
     0
1070
   279
1070
     0
1070
   288
1070
     1
1002
}
  0
DIMENSION
  5
7C1C
  8
3
  2
*D6
 10
1822.1301372619721
 20
5145.6448817044165
 30
0.0
 11
1822.130137261971
 21
4349.5531262586301
 31
0.0
 70
   128
 13
2156.6959061238658
 23
3495.644881704417
 33
0.0
 14
2156.695906123864
 24
5145.6448817044156
 34
0.0
 50
90.0
1001
ACAD
1000
DSTYLE
1002
{
1070
   287
1070
     3
1070
    40
1040
45.0
1070
   143
1040
0.039
1070
   172
1070
     1
1070
   271
1070
     0
1070
   279
1070
     0
1070
   288
1070
     1
1002
}
  0
DIMENSION
  5
7C29
  8
3
  2
*D7
 10
1556.6682374748859
 20
5190.6458817044186
 30
0.0
 11
1556.668237474885
 21
4371.6566795678327
 31
0.0
 70
   128
 13
2156.6959061238658
 23
3495.644881704417
 33
0.0
 14
2062.0206799214861
 24
5190.6458817044186
 34
0.0
 50
90.0
1001
ACAD
1000
DSTYLE
1002
{
1070
   287
1070
     3
1070
    40
1040
45.0
1070
   143
1040
0.039
1070
   172
1070
     1
1070
   271
1070
     0
1070
   279
1070
     0
1070
   288
1070
     1
1002
}
  0
DIMENSION
  5
7CE2
  8
3
  2
*D9
 10
7684.7075220183988
 20
6571.193588661863
 30
0.0
 11
7094.8044320273484
 21
6571.193588661863
 31
0.0
 70
   128
 13
6504.7075220183988
 23
6328.9251973696028
 33
0.0
 14
7684.7075220183988
 24
6328.9251973696018
 34
0.0
1001
ACAD
1000
DSTYLE
1002
{
1070
   287
1070
     3
1070
    40
1040
45.0
1070
   143
1040
0.039
1070
   172
1070
     1
1070
   271
1070
     0
1070
   279
1070
     0
1070
   288
1070
     1
1002
}
  0
DIMENSION
  5
7CEF
  8
3
  2
*D10
 10
7094.7075337226233
 20
6925.7771023912173
 30
0.0
 11
7458.1237834840786
 21
6925.7771023912173
 31
0.0
 70
   128
 13
7819.7115220183987
 23
6055.6419091789212
 33
0.0
 14
7094.7075337226233
 24
6769.2485467150718
 34
0.0
1001
ACAD
1000
DSTYLE
1002
{
1070
   287
1070
     3
1070
    40
1040
45.0
1070
   143
1040
0.039
1070
   172
1070
     1
1070
   271
1070
     0
1070
   279
1070
     0
1070
   288
1070
     1
1002
}
  0
DIMENSION
  5
7CFB
  8
3
  2
*D11
 10
6114.7075004250046
 20
6925.7771023912173
 30
0.0
 11
6604.7075170738144
 21
7150.7771023912164
 31
0.0
 70
     0
  1
MAX\P1080
 13
7094.7075337226233
 23
6769.2485467150718
 33
0.0
 14
6114.7075004250046
 24
5640.6458817044177
 34
0.0
1001
ACAD
1000
DSTYLE
1002
{
1070
   287
1070
     4
1070
    40
1040
45.0
1070
    75
1070
     1
1070
   143
1040
0.039
1070
   172
1070
     1
1070
   271
1070
     0
1070
   279
1070
     1
1070
   288
1070
     1
1002
}
  0
DIMENSION
  5
7D12
  8
3
  2
*D12
 10
8157.1611522942476
 20
4390.6458817044177
 30
0.0
 11
8157.1611522942476
 21
5191.9883501182148
 31
0.0
 70
   128
 13
7819.7115220183987
 23
5990.6458817044186
 33
0.0
 14
7819.7115220183987
 24
4390.6458817044177
 34
0.0
 50
90.0
1001
ACAD
1000
DSTYLE
1002
{
1070
   287
1070
     3
1070
     3
1000
φ<>
1070
    40
1040
45.0
1070
   143
1040
0.039
1070
   172
1070
     1
1070
   271
1070
     0
1070
   279
1070
     0
1070
   288
1070
     1
1002
}
  0
LINE
  5
7D4E
  8
4
 10
8325.0
 20
2250.0
 30
0.0
 11
8325.0
 21
1350.0
 31
0.0
  0
LINE
  5
7D4F
  8
4
 10
5175.0
 20
2250.0
 30
0.0
 11
5175.0
 21
1350.0
 31
0.0
  0
LINE
  5
7D50
  8
4
 10
2925.0
 20
2250.0
 30
0.0
 11
2925.0
 21
1350.0
 31
0.0
  0
LINE
  5
7D53
  8
4
 10
2925.0
 20
1350.0
 30
0.0
 11
8325.0
 21
1350.0
 31
0.0
  0
LINE
  5
7D54
  8
4
 10
2925.0
 20
1800.0
 30
0.0
 11
8325.0
 21
1800.0
 31
0.0
  0
TEXT
  5
7D55
  8
4
 10
3098.259363811057
 20
1941.943616399758
 30
0.0
 40
225.0
  1
機器名称
  0
TEXT
  5
7D56
  8
4
 10
3088.1614771115892
 20
1447.403205294049
 30
0.0
 40
225.0
  1
機器型番
  0
TEXT
  5
7D57
  8
4
 10
5300.599808767035
 20
1901.08183855313
 30
0.0
 40
191.25
  1
ミツヤリミットロードファン
  0
TEXT
  5
7D58
  8
4
 10
5339.9452301346628
 20
1427.218129259745
 30
0.0
 40
225.0
  1
LL#10-4
  0
TEXT
  5
7D5A
  8
4
 10
3547.4348141053201
 20
10725.429785996321
 30
0.0
 40
242.99999999999989
  1
床置ベット
  0
TEXT
  5
7D5B
  8
4
 10
1403.9135869855461
 20
11410.38245714243
 30
0.0
 40
275.39999999999998
  1
ベルト駆動式片吸込両持リミットロードファン
  0
LINE
  5
7D5C
  8
4
 10
1125.0
 20
11112.33939419162
 30
0.0
 11
8325.0
 21
11112.33939419162
 31
0.0
  0
LINE
  5
7D5D
  8
4
 10
1125.0
 20
12012.33939419162
 30
0.0
 11
8325.0
 21
12012.33939419162
 31
0.0
  0
LINE
  5
7D5E
  8
4
 10
2925.0
 20
2250.0
 30
0.0
 11
8325.0
 21
2250.0
 31
0.0
  0
LINE
  5
7D5F
  8
4
 10
1125.0
 20
12012.33939419162
 30
0.0
 11
1125.0
 21
11112.33939419162
 31
0.0
  0
TEXT
  5
7D60
  8
4
 10
1586.0700690131589
 20
10720.437648958539
 30
0.0
 40
242.99999999999989
  1
右回転左横向
  0
TEXT
  5
7D61
  8
4
 10
6610.3630166218027
 20
12177.274866728891
 30
0.0
 40
252.0
  1
No.
  0
TEXT
  5
7D62
  8
4
 10
5900.832281700059
 20
10725.429785996321
 30
0.0
 40
242.99999999999989
  1
縮尺：1/45
  0
LINE
  5
7D63
  8
4
 10
8325.0
 20
12012.33939419162
 30
0.0
 11
8325.0
 21
11112.33939419162
 31
0.0
  0
LINE
  5
7D64
  8
4
 10
9450.0
 20
13275.0
 30
0.0
 11
9450.0
 21
13275.0
 31
0.0
  0
LINE
  5
7D65
  8
4
 10
6482.7784006193906
 20
12065.686124064299
 30
0.0
 11
6482.7784006193906
 21
12539.935176973881
 31
0.0
  0
LINE
  5
7D66
  8
4
 10
6482.7784006193906
 20
12539.935176973881
 30
0.0
 11
8325.0
 21
12539.935176973881
 31
0.0
  0
LINE
  5
7D67
  8
4
 10
8325.0
 20
12539.935176973881
 30
0.0
 11
8325.0
 21
12065.686124064299
 31
0.0
  0
LINE
  5
7D68
  8
4
 10
8325.0
 20
12065.686124064299
 30
0.0
 11
6482.7784006193906
 21
12065.686124064299
 31
0.0
  0
LINE
  5
7D69
  8
4
 10
0.0
 20
0.0
 30
0.0
 11
0.0
 21
13275.0
 31
0.0
  0
LINE
  5
7D6A
  8
4
 10
0.0
 20
13275.0
 30
0.0
 11
9450.0
 21
13275.0
 31
0.0
  0
LINE
  5
7D6B
  8
4
 10
9450.0
 20
13275.0
 30
0.0
 11
9450.0
 21
0.0
 31
0.0
  0
LINE
  5
7D6C
  8
4
 10
9450.0
 20
0.0
 30
0.0
 11
0.0
 21
0.0
 31
0.0
  0
LINE
  5
7DBA
  8
1
 10
4920.0186083520357
 20
3586.941938965203
 30
0.0
 11
3026.6729670148629
 21
4946.9911377464787
 31
0.0
  0
LINE
  5
7DBB
  8
1
 10
4842.2691299889484
 20
3470.4663070177648
 30
0.0
 11
2928.3943499567658
 21
4796.0509979145736
 31
0.0
  0
LINE
  5
7DBC
  8
1
 10
5198.0457954307731
 20
3900.2634299809602
 30
0.0
 11
3538.2972049998962
 21
5532.8460658514796
 31
0.0
  0
DIMENSION
  5
7E12
  8
3
  2
*D13
 10
1320.5141505017009
 20
5190.6458817044186
 30
0.0
 11
1208.0141505017009
 21
4240.6458817044186
 31
0.0
 70
     0
 13
2251.6958807731899
 23
3290.645881704419
 33
0.0
 14
2039.5206799214859
 24
5190.6458817044186
 34
0.0
 50
90.0
1001
ACAD
1000
DSTYLE
1002
{
1070
   287
1070
     4
1070
    40
1040
45.0
1070
    75
1070
     1
1070
   143
1040
0.039
1070
   172
1070
     1
1070
   271
1070
     0
1070
   279
1070
     1
1070
   288
1070
     1
1002
}
  0
DIMENSION
  5
7E1E
  8
3
  2
*D14
 10
1320.5141505017009
 20
6329.6458817044186
 30
0.0
 11
1208.0141505017009
 21
5760.1458817044186
 31
0.0
 70
     0
 13
2039.5206799214859
 23
5190.6458817044186
 33
0.0
 14
3317.6969061238651
 24
6329.6458817044177
 34
0.0
 50
90.0
1001
ACAD
1000
DSTYLE
1002
{
1070
   287
1070
     4
1070
    40
1040
45.0
1070
    75
1070
     1
1070
   143
1040
0.039
1070
   172
1070
     1
1070
   271
1070
     0
1070
   279
1070
     1
1070
   288
1070
     1
1002
}
  0
DIMENSION
  5
7E2B
  8
3
  2
*D15
 10
3201.6959027244411
 20
6726.8227141141133
 30
0.0
 11
2643.7289001058812
 21
6726.8227141141133
 31
0.0
 70
   128
 13
2156.695906123864
 23
5210.6448817044165
 33
0.0
 14
3201.6959027244411
 24
6551.3251219797521
 34
0.0
1001
ACAD
1000
DSTYLE
1002
{
1070
   287
1070
     3
1070
    40
1040
45.0
1070
   143
1040
0.039
1070
   172
1070
     1
1070
   271
1070
     0
1070
   279
1070
     0
1070
   288
1070
     1
1002
}
  0
DIMENSION
  5
7E42
  8
3
  2
*D16
 10
4572.6959061238649
 20
6726.8227141141133
 30
0.0
 11
3887.195904424153
 21
6839.3227141141142
 31
0.0
 70
     0
 13
3201.6959027244411
 23
6551.3251219797521
 33
0.0
 14
4572.6959061238649
 24
5074.6458817044186
 34
0.0
1001
ACAD
1000
DSTYLE
1002
{
1070
   287
1070
     4
1070
    40
1040
45.0
1070
    75
1070
     1
1070
   143
1040
0.039
1070
   172
1070
     1
1070
   271
1070
     0
1070
   279
1070
     1
1070
   288
1070
     1
1002
}
  0
DIMENSION
  5
7EA5
  8
3
  2
*D17
 10
5351.6958820067293
 20
7007.726511390345
 30
0.0
 11
3689.5541955583608
 21
7007.726511390345
 31
0.0
 70
   128
 13
2156.695906123864
 23
5145.6448817044156
 33
0.0
 14
5351.6958820067293
 24
3440.6466558948482
 34
0.0
1001
ACAD
1000
DSTYLE
1002
{
1070
   287
1070
     3
1070
    40
1040
45.0
1070
   143
1040
0.039
1070
   172
1070
     1
1070
   271
1070
     0
1070
   279
1070
     0
1070
   288
1070
     1
1002
}
  0
LINE
  5
7EC2
  8
1
 10
6504.7075220184061
 20
6329.6458817044177
 30
0.0
 11
7684.7075220184042
 21
6329.6458817044177
 31
0.0
  0
LINE
  5
7ED9
  8
1
 10
6436.5075220184017
 20
3900.6486284212988
 30
0.0
 11
6436.5075220184008
 21
5140.6498542299159
 31
0.0
  0
LINE
  5
7EDC
  8
1
 10
7819.7115220183987
 20
6055.6419091789212
 30
0.0
 11
7813.7115220183978
 21
6055.6419091789212
 31
0.0
  0
LINE
  5
7EDD
  8
1
 10
7693.9065220184011
 20
6055.6419091789212
 30
0.0
 11
7687.9065220184011
 21
6055.6419091789212
 31
0.0
  0
DIMENSION
  5
7F42
  8
3
  2
*D18
 10
3201.695849967733
 20
2969.663051924108
 30
0.0
 11
2726.695865370461
 21
3082.163051924108
 31
0.0
 70
     0
 13
2251.6958807731899
 23
3290.645881704419
 33
0.0
 14
3201.695849967733
 24
3290.6461189563161
 34
0.0
1001
ACAD
1000
DSTYLE
1002
{
1070
   287
1070
     3
1070
    40
1040
45.0
1070
   143
1040
0.039
1070
   172
1070
     1
1070
   271
1070
     0
1070
   279
1070
     0
1002
}
  0
DIMENSION
  5
7F4F
  8
3
  2
*D19
 10
5351.6958807731971
 20
2969.663051924108
 30
0.0
 11
4276.6958653704651
 21
3082.163051924108
 31
0.0
 70
     0
 13
3201.695849967733
 23
3290.6461189563161
 33
0.0
 14
5351.6958807731971
 24
3290.646655894845
 34
0.0
1001
ACAD
1000
DSTYLE
1002
{
1070
   287
1070
     3
1070
    40
1040
45.0
1070
   143
1040
0.039
1070
   172
1070
     1
1070
   271
1070
     0
1070
   279
1070
     0
1002
}
  0
DIMENSION
  5
7F5C
  8
3
  2
*D20
 10
7094.7076699929421
 20
2969.663051924108
 30
0.0
 11
6629.2076317314932
 21
3082.163051924108
 31
0.0
 70
     0
 13
6163.707593470046
 23
3290.645881704419
 33
0.0
 14
7094.7076699929421
 24
3290.6452998297332
 34
0.0
1001
ACAD
1000
DSTYLE
1002
{
1070
   287
1070
     3
1070
    40
1040
45.0
1070
   143
1040
0.039
1070
   172
1070
     1
1070
   271
1070
     0
1070
   279
1070
     0
1002
}
  0
DIMENSION
  5
7F69
  8
3
  2
*D21
 10
7763.707593470067
 20
2969.663051924108
 30
0.0
 11
7429.2076317315041
 21
3082.163051924108
 31
0.0
 70
     0
 13
7094.7076699929421
 23
3290.6452998297332
 33
0.0
 14
7763.707593470067
 24
3290.6448817050432
 34
0.0
1001
ACAD
1000
DSTYLE
1002
{
1070
   287
1070
     3
1070
    40
1040
45.0
1070
   143
1040
0.039
1070
   172
1070
     1
1070
   271
1070
     0
1070
   279
1070
     0
1002
}
  0
DIMENSION
  5
7F76
  8
3
  2
*D22
 10
957.66362547557947
 20
3290.645881704419
 30
0.0
 11
845.16362547557924
 21
4810.1458817044204
 31
0.0
 70
     0
 13
3295.1969061238651
 23
6329.6458817044177
 33
0.0
 14
2251.6958807731899
 24
3290.645881704419
 34
0.0
 50
90.0
1001
ACAD
1000
DSTYLE
1002
{
1070
   287
1070
     3
1070
    40
1040
45.0
1070
   143
1040
0.039
1070
   172
1070
     1
1070
   271
1070
     0
1070
   279
1070
     0
1002
}
  0
ENDSEC
  0
EOF
