  0
SECTION
  2
HEADER
  9
$ACADVER
  1
AC1009
  9
$INSBASE
 10
0.0
 20
0.0
 30
0.0
  9
$EXTMIN
 10
0.0
 20
0.0
 30
0.0
  9
$EXTMAX
 10
9450.0
 20
13275.0
 30
0.0
  9
$LIMMIN
 10
0.0
 20
0.0
  9
$LIMMAX
 10
297.0
 20
210.0
  9
$ORTHOMODE
 70
     0
  9
$REGENMODE
 70
     1
  9
$FILLMODE
 70
     0
  9
$QTEXTMODE
 70
     0
  9
$MIRRTEXT
 70
     1
  9
$DRAGMODE
 70
     2
  9
$LTSCALE
 40
100.0
  9
$OSMODE
 70
    37
  9
$ATTMODE
 70
     1
  9
$TEXTSIZE
 40
180.0
  9
$TRACEWID
 40
0.05
  9
$TEXTSTYLE
  7
STANDARD
  9
$CLAYER
  8
3
  9
$CELTYPE
  6
BYLAYER
  9
$CECOLOR
 62
   256
  9
$DIMSCALE
 40
45.0
  9
$DIMASZ
 40
2.0
  9
$DIMEXO
 40
0.5
  9
$DIMDLI
 40
10.0
  9
$DIMRND
 40
0.0
  9
$DIMDLE
 40
0.0
  9
$DIMEXE
 40
1.0
  9
$DIMTP
 40
1.0
  9
$DIMTM
 40
1.0
  9
$DIMTXT
 40
3.0
  9
$DIMCEN
 40
0.0
  9
$DIMTSZ
 40
0.0
  9
$DIMTOL
 70
     0
  9
$DIMLIM
 70
     0
  9
$DIMTIH
 70
     0
  9
$DIMTOH
 70
     0
  9
$DIMSE1
 70
     0
  9
$DIMSE2
 70
     0
  9
$DIMTAD
 70
     1
  9
$DIMZIN
 70
     8
  9
$DIMBLK
  1

  9
$DIMASO
 70
     1
  9
$DIMSHO
 70
     1
  9
$DIMPOST
  1

  9
$DIMAPOST
  1

  9
$DIMALT
 70
     0
  9
$DIMALTD
 70
     2
  9
$DIMALTF
 40
0.039
  9
$DIMLFAC
 40
1.0
  9
$DIMTOFL
 70
     1
  9
$DIMTVP
 40
0.0
  9
$DIMTIX
 70
     0
  9
$DIMSOXD
 70
     0
  9
$DIMSAH
 70
     1
  9
$DIMBLK1
  1
OPEN
  9
$DIMBLK2
  1
OPEN
  9
$DIMSTYLE
  2
IGA
  9
$DIMCLRD
 70
     0
  9
$DIMCLRE
 70
     0
  9
$DIMCLRT
 70
     0
  9
$DIMTFAC
 40
10.0
  9
$DIMGAP
 40
1.0
  9
$LUNITS
 70
     2
  9
$LUPREC
 70
     3
  9
$SKETCHINC
 40
0.1
  9
$FILLETRAD
 40
50.0
  9
$AUNITS
 70
     0
  9
$AUPREC
 70
     0
  9
$MENU
  1
acad
  9
$ELEVATION
 40
0.0
  9
$PELEVATION
 40
0.0
  9
$THICKNESS
 40
0.0
  9
$LIMCHECK
 70
     0
  9
$BLIPMODE
 70
     0
  9
$CHAMFERA
 40
0.0
  9
$CHAMFERB
 40
0.0
  9
$SKPOLY
 70
     0
  9
$TDCREATE
 40
2452331.406026504
  9
$TDUPDATE
 40
2454953.663199502
  9
$TDINDWG
 40
0.0640506019
  9
$TDUSRTIMER
 40
0.0640506019
  9
$USRTIMER
 70
     1
  9
$ANGBASE
 50
0.0
  9
$ANGDIR
 70
     0
  9
$PDMODE
 70
     0
  9
$PDSIZE
 40
0.0
  9
$PLINEWID
 40
0.0
  9
$COORDS
 70
     1
  9
$SPLFRAME
 70
     0
  9
$SPLINETYPE
 70
     6
  9
$SPLINESEGS
 70
     8
  9
$ATTDIA
 70
     0
  9
$ATTREQ
 70
     1
  9
$HANDLING
 70
 10241
  9
$HANDSEED
  5
8144
  9
$SURFTAB1
 70
     6
  9
$SURFTAB2
 70
     6
  9
$SURFTYPE
 70
     6
  9
$SURFU
 70
     6
  9
$SURFV
 70
     6
  9
$UCSNAME
  2

  9
$UCSORG
 10
0.0
 20
0.0
 30
0.0
  9
$UCSXDIR
 10
1.0
 20
0.0
 30
0.0
  9
$UCSYDIR
 10
0.0
 20
1.0
 30
0.0
  9
$PUCSNAME
  2

  9
$PUCSORG
 10
0.0
 20
0.0
 30
0.0
  9
$PUCSXDIR
 10
1.0
 20
0.0
 30
0.0
  9
$PUCSYDIR
 10
0.0
 20
1.0
 30
0.0
  9
$USERI1
 70
     0
  9
$USERI2
 70
     0
  9
$USERI3
 70
     0
  9
$USERI4
 70
     0
  9
$USERI5
 70
     0
  9
$USERR1
 40
0.0
  9
$USERR2
 40
0.0
  9
$USERR3
 40
0.0
  9
$USERR4
 40
0.0
  9
$USERR5
 40
0.0
  9
$WORLDVIEW
 70
     1
  9
$SHADEDGE
 70
     3
  9
$SHADEDIF
 70
    70
  9
$TILEMODE
 70
     1
  9
$MAXACTVP
 70
    16
  9
$PLIMCHECK
 70
     0
  9
$PEXTMIN
 10
1.0000000000000000E+020
 20
1.0000000000000000E+020
 30
1.0000000000000000E+020
  9
$PEXTMAX
 10
-1.0000000000000000E+020
 20
-1.0000000000000000E+020
 30
-1.0000000000000000E+020
  9
$PLIMMIN
 10
0.0
 20
0.0
  9
$PLIMMAX
 10
12.0
 20
9.0
  9
$UNITMODE
 70
     0
  9
$VISRETAIN
 70
     0
  9
$PLINEGEN
 70
     0
  9
$PSLTSCALE
 70
     1
  0
ENDSEC
  0
SECTION
  2
TABLES
  0
TABLE
  2
VPORT
 70
     2
  0
VPORT
  2
*ACTIVE
 70
     0
 10
0.0
 20
0.0
 11
1.0
 21
1.0
 12
18649.996206423781
 22
5745.6947078580952
 13
0.0
 23
0.0
 14
10.0
 24
10.0
 15
10.0
 25
10.0
 16
0.0
 26
0.0
 36
1.0
 17
0.0
 27
0.0
 37
0.0
 40
14205.248038127669
 41
3.1666666666666661
 42
50.0
 43
0.0
 44
0.0
 50
0.0
 51
0.0
 71
     0
 72
   100
 73
     1
 74
     0
 75
     0
 76
     0
 77
     0
 78
     0
  0
ENDTAB
  0
TABLE
  2
LTYPE
 70
     2
  0
LTYPE
  2
CONTINUOUS
 70
     0
  3
Solid line
 72
    65
 73
     0
 40
0.0
  0
LTYPE
  2
CENTER
 70
     0
  3
____ _ ____ _ ____ _ ____ _ ____ _ ____ _ ____ 
 72
    65
 73
     4
 40
2.0
 49
1.25
 49
-0.25
 49
0.25
 49
-0.25
  0
ENDTAB
  0
TABLE
  2
LAYER
 70
     6
  0
LAYER
  2
0
 70
     0
 62
     7
  6
CONTINUOUS
  0
LAYER
  2
3
 70
     0
 62
     2
  6
CONTINUOUS
  0
LAYER
  2
2
 70
     0
 62
     3
  6
CENTER
  0
LAYER
  2
1
 70
     0
 62
     4
  6
CONTINUOUS
  0
LAYER
  2
4
 70
     0
 62
     7
  6
CONTINUOUS
  0
LAYER
  2
DEFPOINTS
 70
     0
 62
     7
  6
CONTINUOUS
  0
ENDTAB
  0
TABLE
  2
STYLE
 70
     1
  0
STYLE
  2
STANDARD
 70
     0
 40
0.0
 41
1.0
 50
0.0
 71
     0
 42
180.0
  3
simplex.shx
  4
extfont.shx
  0
ENDTAB
  0
TABLE
  2
VIEW
 70
     0
  0
ENDTAB
  0
TABLE
  2
UCS
 70
     0
  0
ENDTAB
  0
TABLE
  2
APPID
 70
     1
  0
APPID
  2
ACAD
 70
     0
  0
ENDTAB
  0
TABLE
  2
DIMSTYLE
 70
     1
  0
DIMSTYLE
  2
IGA
 70
     0
  3

  4

  5

  6
OPEN
  7
OPEN
 40
2.0
 41
2.0
 42
0.5
 43
10.0
 44
1.0
 45
0.0
 46
0.0
 47
1.0
 48
1.0
140
3.0
141
0.0
142
0.0
143
0.03937
144
1.0
145
0.0
146
10.0
147
1.0
 71
     0
 72
     0
 73
     0
 74
     0
 75
     0
 76
     0
 77
     1
 78
     8
170
     0
171
     2
172
     0
173
     1
174
     0
175
     0
176
     0
177
     0
178
     0
  0
ENDTAB
  0
ENDSEC
  0
SECTION
  2
BLOCKS
  0
BLOCK
  8
0
  2
$MODEL_SPACE
 70
     0
 10
0.0
 20
0.0
 30
0.0
  3
$MODEL_SPACE
  1

  0
ENDBLK
  5
1B
  8
0
  0
BLOCK
 67
     1
  8
0
  2
$PAPER_SPACE
 70
     0
 10
0.0
 20
0.0
 30
0.0
  3
$PAPER_SPACE
  1

  0
ENDBLK
  5
18
 67
     1
  8
0
  0
BLOCK
  8
0
  2
_OPEN
 70
     0
 10
0.0
 20
0.0
 30
0.0
  3
_OPEN
  1

  0
LINE
  5
79FD
  8
0
  6
BYBLOCK
 62
     0
 10
-1.0
 20
0.1666666666666666
 30
0.0
 11
0.0
 21
0.0
 31
0.0
  0
LINE
  5
79FE
  8
0
  6
BYBLOCK
 62
     0
 10
0.0
 20
0.0
 30
0.0
 11
-1.0
 21
-0.1666666666666666
 31
0.0
  0
LINE
  5
79FF
  8
0
  6
BYBLOCK
 62
     0
 10
0.0
 20
0.0
 30
0.0
 11
-1.0
 21
0.0
 31
0.0
  0
ENDBLK
  5
7A01
  8
0
  0
BLOCK
  8
0
  2
*D1
 70
     1
 10
0.0
 20
0.0
 30
0.0
  3
*D1
  1

  0
LINE
  5
807C
  8
3
 62
     0
 10
4487.9157684641586
 20
9318.9930457656119
 30
0.0
 11
4487.9157684641586
 21
9569.5719687369074
 31
0.0
  0
LINE
  5
807D
  8
3
 62
     0
 10
2587.9157684640418
 20
9318.9930457656119
 30
0.0
 11
2587.9157684640418
 21
9569.5719687369074
 31
0.0
  0
LINE
  5
807E
  8
3
 62
     0
 10
4397.9157684641596
 20
9524.5719687369055
 30
0.0
 11
2677.9157684640418
 21
9524.5719687369055
 31
0.0
  0
INSERT
  5
807F
  8
3
 62
     0
  2
_OPEN
 10
4487.9157684641586
 20
9524.5719687369055
 30
0.0
 41
90.0
 42
90.0
 43
90.0
  0
INSERT
  5
8080
  8
3
 62
     0
  2
_OPEN
 10
2587.9157684640418
 20
9524.5719687369055
 30
0.0
 41
90.0
 42
90.0
 43
90.0
 50
180.0
  0
TEXT
  8
3
  40
135
  5
812F
  62
0
  72
0
  71
0
 10
3267.58
 20
9398.12
 30
0.000000
  1
1900
  0
POINT
  5
8082
  8
DEFPOINTS
 62
     0
 10
4487.9157684641586
 20
9296.4930457656137
 30
0.0
  0
POINT
  5
8083
  8
DEFPOINTS
 62
     0
 10
2587.9157684640418
 20
9296.4930457656137
 30
0.0
  0
POINT
  5
8084
  8
DEFPOINTS
 62
     0
 10
2587.9157684640418
 20
9524.5719687369055
 30
0.0
  0
ENDBLK
  5
7F8F
  8
0
  0
BLOCK
  8
0
  2
*D2
 70
     1
 10
0.0
 20
0.0
 30
0.0
  3
*D2
  1

  0
LINE
  5
8085
  8
3
 62
     0
 10
1387.9159447707209
 20
8818.9930457656119
 30
0.0
 11
1387.9159447707209
 21
9569.5719687369074
 31
0.0
  0
LINE
  5
8086
  8
3
 62
     0
 10
2497.9157684640418
 20
9524.5719687369055
 30
0.0
 11
1477.9159447707209
 21
9524.5719687369055
 31
0.0
  0
INSERT
  5
8087
  8
3
 62
     0
  2
_OPEN
 10
2587.9157684640418
 20
9524.5719687369055
 30
0.0
 41
90.0
 42
90.0
 43
90.0
  0
INSERT
  5
8088
  8
3
 62
     0
  2
_OPEN
 10
1387.9159447707209
 20
9524.5719687369055
 30
0.0
 41
90.0
 42
90.0
 43
90.0
 50
180.0
  0
TEXT
  8
3
  40
135
  5
8130
  62
0
  72
0
  71
0
 10
1717.92
 20
9398.12
 30
0.000000
  1
1200
  0
POINT
  5
808A
  8
DEFPOINTS
 62
     0
 10
2587.9157684640418
 20
9296.4930457656137
 30
0.0
  0
POINT
  5
808B
  8
DEFPOINTS
 62
     0
 10
1387.9159447707209
 20
8796.4930457656137
 30
0.0
  0
POINT
  5
808C
  8
DEFPOINTS
 62
     0
 10
1387.9159447707209
 20
9524.5719687369055
 30
0.0
  0
ENDBLK
  5
7FAF
  8
0
  0
BLOCK
  8
0
  2
*D3
 70
     1
 10
0.0
 20
0.0
 30
0.0
  3
*D3
  1

  0
LINE
  5
808D
  8
3
 62
     0
 10
1365.4159447707209
 20
8796.4930457656137
 30
0.0
 11
1053.9609912131609
 21
8796.4930457656137
 31
0.0
  0
LINE
  5
808E
  8
3
 62
     0
 10
1365.4163326456151
 20
7696.4930457656119
 30
0.0
 11
1053.9609912131609
 21
7696.4930457656119
 31
0.0
  0
LINE
  5
808F
  8
3
 62
     0
 10
1098.9609912131609
 20
8706.4930457656119
 30
0.0
 11
1098.9609912131609
 21
7786.493045765611
 31
0.0
  0
INSERT
  5
8090
  8
3
 62
     0
  2
_OPEN
 10
1098.9609912131609
 20
8796.4930457656137
 30
0.0
 41
90.0
 42
90.0
 43
90.0
 50
90.0
  0
INSERT
  5
8091
  8
3
 62
     0
  2
_OPEN
 10
1098.9609912131609
 20
7696.4930457656119
 30
0.0
 41
90.0
 42
90.0
 43
90.0
 50
270.0
  0
TEXT
  8
3
  40
135
  5
8131
  62
0
  72
0
  71
0
 10
716.461
 20
8004.03
 30
0.000000
  1
1100
  0
POINT
  5
8093
  8
DEFPOINTS
 62
     0
 10
1387.9159447707209
 20
8796.4930457656137
 30
0.0
  0
POINT
  5
8094
  8
DEFPOINTS
 62
     0
 10
1387.9163326456151
 20
7696.4930457656119
 30
0.0
  0
POINT
  5
8095
  8
DEFPOINTS
 62
     0
 10
1098.9609912131609
 20
7696.4930457656119
 30
0.0
  0
ENDBLK
  5
7FD6
  8
0
  0
BLOCK
  8
0
  2
*D4
 70
     1
 10
0.0
 20
0.0
 30
0.0
  3
*D4
  1

  0
LINE
  5
8096
  8
3
 62
     0
 10
4510.4157684641586
 20
9296.4930457656137
 30
0.0
 11
5052.8046002061355
 21
9296.4930457656137
 31
0.0
  0
LINE
  5
8097
  8
3
 62
     0
 10
4510.4163326458211
 20
7696.4930457656119
 30
0.0
 11
5052.8046002061355
 21
7696.4930457656119
 31
0.0
  0
LINE
  5
8098
  8
3
 62
     0
 10
5007.8046002061346
 20
9206.4930457656119
 30
0.0
 11
5007.8046002061346
 21
7786.493045765611
 31
0.0
  0
INSERT
  5
8099
  8
3
 62
     0
  2
_OPEN
 10
5007.8046002061346
 20
9296.4930457656137
 30
0.0
 41
90.0
 42
90.0
 43
90.0
 50
90.0
  0
INSERT
  5
809A
  8
3
 62
     0
  2
_OPEN
 10
5007.8046002061346
 20
7696.4930457656119
 30
0.0
 41
90.0
 42
90.0
 43
90.0
 50
270.0
  0
TEXT
  8
3
  40
135
  5
8132
  62
0
  72
0
  71
0
 10
4625.30
 20
8251.61
 30
0.000000
  1
1600
  0
POINT
  5
809C
  8
DEFPOINTS
 62
     0
 10
4487.9157684641586
 20
9296.4930457656137
 30
0.0
  0
POINT
  5
809D
  8
DEFPOINTS
 62
     0
 10
4487.9163326458211
 20
7696.4930457656119
 30
0.0
  0
POINT
  5
809E
  8
DEFPOINTS
 62
     0
 10
5007.8046002061346
 20
7696.4930457656119
 30
0.0
  0
ENDBLK
  5
7FC5
  8
0
  0
BLOCK
  8
0
  2
*D5
 70
     1
 10
0.0
 20
0.0
 30
0.0
  3
*D5
  1

  0
LINE
  5
809F
  8
3
 62
     0
 10
4487.9163326458211
 20
7673.9930457656119
 30
0.0
 11
4487.9163326458211
 21
7222.2192563987046
 31
0.0
  0
LINE
  5
80A0
  8
3
 62
     0
 10
1387.9163326456151
 20
7673.9930457656119
 30
0.0
 11
1387.9163326456151
 21
7222.2192563987046
 31
0.0
  0
LINE
  5
80A1
  8
3
 62
     0
 10
4397.9163326458211
 20
7267.2192563987046
 30
0.0
 11
1477.9163326456151
 21
7267.2192563987046
 31
0.0
  0
INSERT
  5
80A2
  8
3
 62
     0
  2
_OPEN
 10
4487.9163326458211
 20
7267.2192563987046
 30
0.0
 41
90.0
 42
90.0
 43
90.0
  0
INSERT
  5
80A3
  8
3
 62
     0
  2
_OPEN
 10
1387.9163326456151
 20
7267.2192563987046
 30
0.0
 41
90.0
 42
90.0
 43
90.0
 50
180.0
  0
TEXT
  8
3
  40
135
  5
8133
  62
0
  72
0
  71
0
 10
2735.57
 20
7140.77
 30
0.000000
  1
3100
  0
POINT
  5
80A5
  8
DEFPOINTS
 62
     0
 10
4487.9163326458211
 20
7696.4930457656119
 30
0.0
  0
POINT
  5
80A6
  8
DEFPOINTS
 62
     0
 10
1387.9163326456151
 20
7696.4930457656119
 30
0.0
  0
POINT
  5
80A7
  8
DEFPOINTS
 62
     0
 10
1387.9163326456151
 20
7267.2192563987046
 30
0.0
  0
ENDBLK
  5
7F9A
  8
0
  0
BLOCK
  8
0
  2
*D6
 70
     1
 10
0.0
 20
0.0
 30
0.0
  3
*D6
  1

  0
LINE
  5
80A8
  8
3
 62
     0
 10
1842.9132252574691
 20
5742.6148040149046
 30
0.0
 11
1842.9132252574691
 21
6099.6805728768022
 31
0.0
  0
LINE
  5
80A9
  8
3
 62
     0
 10
3492.9132252574691
 20
5742.6148040149073
 30
0.0
 11
3492.9132252574691
 21
6099.6805728768022
 31
0.0
  0
LINE
  5
80AA
  8
3
 62
     0
 10
1932.9132252574691
 20
6054.6805728768013
 30
0.0
 11
3402.9132252574691
 21
6054.6805728768013
 31
0.0
  0
INSERT
  5
80AB
  8
3
 62
     0
  2
_OPEN
 10
1842.9132252574691
 20
6054.6805728768013
 30
0.0
 41
90.0
 42
90.0
 43
90.0
 50
180.0
  0
INSERT
  5
80AC
  8
3
 62
     0
  2
_OPEN
 10
3492.9132252574691
 20
6054.6805728768013
 30
0.0
 41
90.0
 42
90.0
 43
90.0
  0
TEXT
  8
3
  40
135
  5
8134
  62
0
  72
0
  71
0
 10
2426.82
 20
5928.23
 30
0.000000
  1
1650
  0
POINT
  5
80AE
  8
DEFPOINTS
 62
     0
 10
1842.9132252574691
 20
5720.1148040149046
 30
0.0
  0
POINT
  5
80AF
  8
DEFPOINTS
 62
     0
 10
3492.9132252574691
 20
5720.1148040149073
 30
0.0
  0
POINT
  5
80B0
  8
DEFPOINTS
 62
     0
 10
3492.9132252574691
 20
6054.6805728768013
 30
0.0
  0
ENDBLK
  5
7F20
  8
0
  0
BLOCK
  8
0
  2
*D7
 70
     1
 10
0.0
 20
0.0
 30
0.0
  3
*D7
  1

  0
LINE
  5
80B1
  8
3
 62
     0
 10
1842.9132252574691
 20
5742.6148040149046
 30
0.0
 11
1842.9132252574691
 21
6365.142472663887
 31
0.0
  0
LINE
  5
80B2
  8
3
 62
     0
 10
3537.9142252574711
 20
5837.2900302172848
 30
0.0
 11
3537.9142252574711
 21
6365.142472663887
 31
0.0
  0
LINE
  5
80B3
  8
3
 62
     0
 10
1932.9132252574691
 20
6320.142472663887
 30
0.0
 11
3447.9142252574711
 21
6320.142472663887
 31
0.0
  0
INSERT
  5
80B4
  8
3
 62
     0
  2
_OPEN
 10
1842.9132252574691
 20
6320.142472663887
 30
0.0
 41
90.0
 42
90.0
 43
90.0
 50
180.0
  0
INSERT
  5
80B5
  8
3
 62
     0
  2
_OPEN
 10
3537.9142252574711
 20
6320.142472663887
 30
0.0
 41
90.0
 42
90.0
 43
90.0
  0
TEXT
  8
3
  40
135
  5
8135
  62
0
  72
0
  71
0
 10
2448.93
 20
6193.69
 30
0.000000
  1
1695
  0
POINT
  5
80B7
  8
DEFPOINTS
 62
     0
 10
1842.9132252574691
 20
5720.1148040149046
 30
0.0
  0
POINT
  5
80B8
  8
DEFPOINTS
 62
     0
 10
3537.9142252574711
 20
5814.7900302172848
 30
0.0
  0
POINT
  5
80B9
  8
DEFPOINTS
 62
     0
 10
3537.9142252574711
 20
6320.142472663887
 30
0.0
  0
ENDBLK
  5
7F2B
  8
0
  0
BLOCK
  8
0
  2
_DOT
 70
     0
 10
0.0
 20
0.0
 30
0.0
  3
_DOT
  1

  0
LINE
  5
7D49
  8
0
  6
BYBLOCK
 62
     0
 10
0.0
 20
0.0
 30
0.0
 11
-1.0
 21
-0.0000000000000284
 31
0.0
  0
POLYLINE
  5
7D4A
  8
0
  6
BYBLOCK
 62
     0
 66
     1
 10
0.0
 20
0.0
 30
0.0
 70
     1
 40
0.1666666666666666
 41
0.1666666666666666
  0
VERTEX
  5
80DD
  8
0
  6
BYBLOCK
 62
     0
 10
-0.0833333333333286
 20
-0.0000000000000284
 30
0.0
 42
1.0
  0
VERTEX
  5
80DE
  8
0
  6
BYBLOCK
 62
     0
 10
0.0833333333333286
 20
-0.0000000000000284
 30
0.0
 42
1.0
  0
SEQEND
  5
80DF
  8
0
  6
BYBLOCK
 62
     0
  0
ENDBLK
  5
7C8A
  8
0
  0
BLOCK
  8
0
  2
*D9
 70
     1
 10
0.0
 20
0.0
 30
0.0
  3
*D9
  1

  0
LINE
  5
80BA
  8
3
 62
     0
 10
6504.7075220183988
 20
5742.6148040149064
 30
0.0
 11
6504.7075220183988
 21
6007.3831953071658
 31
0.0
  0
LINE
  5
80BB
  8
3
 62
     0
 10
7684.7075220183988
 20
5742.6148040149046
 30
0.0
 11
7684.7075220183988
 21
6007.3831953071658
 31
0.0
  0
LINE
  5
80BC
  8
3
 62
     0
 10
6594.7075220183997
 20
5962.3831953071658
 30
0.0
 11
7594.7075220183997
 21
5962.3831953071658
 31
0.0
  0
INSERT
  5
80BD
  8
3
 62
     0
  2
_OPEN
 10
6504.7075220183988
 20
5962.3831953071658
 30
0.0
 41
90.0
 42
90.0
 43
90.0
 50
180.0
  0
INSERT
  5
80BE
  8
3
 62
     0
  2
_OPEN
 10
7684.7075220183988
 20
5962.3831953071658
 30
0.0
 41
90.0
 42
90.0
 43
90.0
  0
TEXT
  8
3
  40
135
  5
8136
  62
0
  72
0
  71
0
 10
6824.80
 20
5835.93
 30
0.000000
  1
1180
  0
POINT
  5
80C0
  8
DEFPOINTS
 62
     0
 10
6504.7075220183988
 20
5720.1148040149064
 30
0.0
  0
POINT
  5
80C1
  8
DEFPOINTS
 62
     0
 10
7684.7075220183988
 20
5720.1148040149046
 30
0.0
  0
POINT
  5
80C2
  8
DEFPOINTS
 62
     0
 10
7684.7075220183988
 20
5962.3831953071658
 30
0.0
  0
ENDBLK
  5
7CE1
  8
0
  0
BLOCK
  8
0
  2
*D10
 70
     1
 10
0.0
 20
0.0
 30
0.0
  3
*D10
  1

  0
LINE
  5
80C3
  8
3
 62
     0
 10
7819.7115220183987
 20
5562.6120292303503
 30
0.0
 11
7819.7115220183987
 21
6361.966709036521
 31
0.0
  0
LINE
  5
80C4
  8
3
 62
     0
 10
7094.7075337226233
 20
6182.9381533603746
 30
0.0
 11
7094.7075337226233
 21
6361.966709036521
 31
0.0
  0
LINE
  5
80C5
  8
3
 62
     0
 10
7729.7115220183978
 20
6316.9667090365201
 30
0.0
 11
7184.7075337226242
 21
6316.9667090365201
 31
0.0
  0
INSERT
  5
80C6
  8
3
 62
     0
  2
_OPEN
 10
7819.7115220183987
 20
6316.9667090365201
 30
0.0
 41
90.0
 42
90.0
 43
90.0
  0
INSERT
  5
80C7
  8
3
 62
     0
  2
_OPEN
 10
7094.7075337226233
 20
6316.9667090365201
 30
0.0
 41
90.0
 42
90.0
 43
90.0
 50
180.0
  0
TEXT
  8
3
  40
135
  5
8137
  62
0
  72
0
  71
0
 10
7188.12
 20
6190.52
 30
0.000000
  1
725
  0
POINT
  5
80C9
  8
DEFPOINTS
 62
     0
 10
7819.7115220183987
 20
5540.1120292303503
 30
0.0
  0
POINT
  5
80CA
  8
DEFPOINTS
 62
     0
 10
7094.7075337226233
 20
6160.4381533603764
 30
0.0
  0
POINT
  5
80CB
  8
DEFPOINTS
 62
     0
 10
7094.7075337226233
 20
6316.9667090365201
 30
0.0
  0
ENDBLK
  5
800E
  8
0
  0
BLOCK
  8
0
  2
*D11
 70
     1
 10
0.0
 20
0.0
 30
0.0
  3
*D11
  1

  0
LINE
  5
80CC
  8
3
 62
     0
 10
6114.7075004250046
 20
5147.6160017558468
 30
0.0
 11
6114.7075004250046
 21
6361.966709036521
 31
0.0
  0
LINE
  5
80CD
  8
3
 62
     0
 10
7004.7075337226252
 20
6316.9667090365201
 30
0.0
 11
6204.7075004250046
 21
6316.9667090365201
 31
0.0
  0
INSERT
  5
80CE
  8
3
 62
     0
  2
_OPEN
 10
7094.7075337226233
 20
6316.9667090365201
 30
0.0
 41
90.0
 42
90.0
 43
90.0
  0
INSERT
  5
80CF
  8
3
 62
     0
  2
_OPEN
 10
6114.7075004250046
 20
6316.9667090365201
 30
0.0
 41
90.0
 42
90.0
 43
90.0
 50
180.0
  0
TEXT
  8
3
  40
135
  5
8138
  62
0
  72
0
  71
0
 10
6334.71
 20
6303.02
 30
0.000000
  1
MAX
  0
TEXT
  8
3
  40
135
  5
8139
  62
0
  72
0
  71
0
 10
6334.71
 20
6127.52
 30
0.000000
  1
1080
  0
POINT
  5
80D1
  8
DEFPOINTS
 62
     0
 10
7094.7075337226233
 20
6160.4381533603764
 30
0.0
  0
POINT
  5
80D2
  8
DEFPOINTS
 62
     0
 10
6114.7075004250046
 20
5125.1160017558468
 30
0.0
  0
POINT
  5
80D3
  8
DEFPOINTS
 62
     0
 10
6114.7075004250046
 20
6316.9667090365201
 30
0.0
  0
ENDBLK
  5
7EDA
  8
0
  0
BLOCK
  8
0
  2
*D12
 70
     1
 10
0.0
 20
0.0
 30
0.0
  3
*D12
  1

  0
LINE
  5
80D4
  8
3
 62
     0
 10
7842.2115220183978
 20
5475.1160017558459
 30
0.0
 11
8202.1611522942494
 21
5475.1160017558459
 31
0.0
  0
LINE
  5
80D5
  8
3
 62
     0
 10
7842.2115220183978
 20
3875.1160017558468
 30
0.0
 11
8202.1611522942476
 21
3875.1160017558468
 31
0.0
  0
LINE
  5
80D6
  8
3
 62
     0
 10
8157.1611522942476
 20
5385.1160017558468
 30
0.0
 11
8157.1611522942476
 21
3965.1160017558468
 31
0.0
  0
INSERT
  5
80D7
  8
3
 62
     0
  2
_OPEN
 10
8157.1611522942476
 20
5475.1160017558459
 30
0.0
 41
90.0
 42
90.0
 43
90.0
 50
90.0
  0
INSERT
  5
80D8
  8
3
 62
     0
  2
_OPEN
 10
8157.1611522942476
 20
3875.1160017558468
 30
0.0
 41
90.0
 42
90.0
 43
90.0
 50
270.0
  0
TEXT
  8
3
  40
135
  5
813A
  62
0
  72
0
  71
0
 10
7774.66
 20
4437.51
 30
0.000000
  1
φ1600
  0
POINT
  5
80DA
  8
DEFPOINTS
 62
     0
 10
7819.7115220183987
 20
5475.1160017558459
 30
0.0
  0
POINT
  5
80DB
  8
DEFPOINTS
 62
     0
 10
7819.7115220183987
 20
3875.1160017558468
 30
0.0
  0
POINT
  5
80DC
  8
DEFPOINTS
 62
     0
 10
8157.1611522942476
 20
3875.1160017558468
 30
0.0
  0
ENDBLK
  5
7D1D
  8
0
  0
BLOCK
  8
0
  2
*D13
 70
     1
 10
0.0
 20
0.0
 30
0.0
  3
*D13
  1

  0
LINE
  5
80E0
  8
3
 62
     0
 10
4676.9142252574711
 20
4581.6138040149071
 30
0.0
 11
4676.9142252574711
 21
6365.142472663887
 31
0.0
  0
LINE
  5
80E1
  8
3
 62
     0
 10
3627.9142252574711
 20
6320.142472663887
 30
0.0
 11
4586.9142252574711
 21
6320.142472663887
 31
0.0
  0
INSERT
  5
80E2
  8
3
 62
     0
  2
_OPEN
 10
3537.9142252574711
 20
6320.142472663887
 30
0.0
 41
90.0
 42
90.0
 43
90.0
 50
180.0
  0
INSERT
  5
80E3
  8
3
 62
     0
  2
_OPEN
 10
4676.9142252574711
 20
6320.142472663887
 30
0.0
 41
90.0
 42
90.0
 43
90.0
  0
TEXT
  8
3
  40
135
  5
813B
  62
0
  72
0
  71
0
 10
3837.41
 20
6193.69
 30
0.000000
  1
1139
  0
POINT
  5
80E5
  8
DEFPOINTS
 62
     0
 10
3537.9142252574711
 20
5814.7900302172848
 30
0.0
  0
POINT
  5
80E6
  8
DEFPOINTS
 62
     0
 10
4676.9142252574711
 20
4559.1138040149071
 30
0.0
  0
POINT
  5
80E7
  8
DEFPOINTS
 62
     0
 10
4676.9142252574711
 20
6320.142472663887
 30
0.0
  0
ENDBLK
  5
7F79
  8
0
  0
BLOCK
  8
0
  2
*D14
 70
     1
 10
0.0
 20
0.0
 30
0.0
  3
*D14
  1

  0
LINE
  5
80E8
  8
3
 62
     0
 10
4510.4166110832066
 20
3275.1160017558468
 30
0.0
 11
5227.944254381513
 21
3275.1160017558459
 31
0.0
  0
LINE
  5
80E9
  8
3
 62
     0
 10
5182.9442543815139
 20
4585.1160017558468
 30
0.0
 11
5182.9442543815139
 21
3365.1160017558468
 31
0.0
  0
INSERT
  5
80EA
  8
3
 62
     0
  2
_OPEN
 10
5182.9442543815139
 20
4675.1160017558468
 30
0.0
 41
90.0
 42
90.0
 43
90.0
 50
90.0
  0
INSERT
  5
80EB
  8
3
 62
     0
  2
_OPEN
 10
5182.9442543815139
 20
3275.1160017558459
 30
0.0
 41
90.0
 42
90.0
 43
90.0
 50
270.0
  0
TEXT
  8
3
  40
135
  5
813C
  62
0
  72
0
  71
0
 10
4800.44
 20
3736.17
 30
0.000000
  1
1400
  0
POINT
  5
80ED
  8
DEFPOINTS
 62
     0
 10
4789.9717690140269
 20
4675.1160017558468
 30
0.0
  0
POINT
  5
80EE
  8
DEFPOINTS
 62
     0
 10
4487.9166110832066
 20
3275.1160017558468
 30
0.0
  0
POINT
  5
80EF
  8
DEFPOINTS
 62
     0
 10
5182.9442543815139
 20
3275.1160017558459
 30
0.0
  0
ENDBLK
  5
7F59
  8
0
  0
BLOCK
  8
0
  2
*D15
 70
     1
 10
0.0
 20
0.0
 30
0.0
  3
*D15
  1

  0
LINE
  5
80F0
  8
3
 62
     0
 10
4812.4717690140269
 20
4675.1160017558468
 30
0.0
 11
5227.944254381513
 21
4675.1160017558468
 31
0.0
  0
LINE
  5
80F1
  8
3
 62
     0
 10
3580.4132252574691
 20
5720.1148040149073
 30
0.0
 11
5227.944254381513
 21
5720.1148040149073
 31
0.0
  0
LINE
  5
80F2
  8
3
 62
     0
 10
5182.9442543815139
 20
4765.1160017558459
 30
0.0
 11
5182.9442543815139
 21
5630.1148040149073
 31
0.0
  0
INSERT
  5
80F3
  8
3
 62
     0
  2
_OPEN
 10
5182.9442543815139
 20
4675.1160017558468
 30
0.0
 41
90.0
 42
90.0
 43
90.0
 50
270.0
  0
INSERT
  5
80F4
  8
3
 62
     0
  2
_OPEN
 10
5182.9442543815139
 20
5720.1148040149073
 30
0.0
 41
90.0
 42
90.0
 43
90.0
 50
90.0
  0
TEXT
  8
3
  40
135
  5
813D
  62
0
  72
0
  71
0
 10
4800.44
 20
4958.67
 30
0.000000
  1
1045
  0
POINT
  5
80F6
  8
DEFPOINTS
 62
     0
 10
4789.9717690140269
 20
4675.1160017558468
 30
0.0
  0
POINT
  5
80F7
  8
DEFPOINTS
 62
     0
 10
3557.9132252574691
 20
5720.1148040149073
 30
0.0
  0
POINT
  5
80F8
  8
DEFPOINTS
 62
     0
 10
5182.9442543815139
 20
5720.1148040149073
 30
0.0
  0
ENDBLK
  5
7F64
  8
0
  0
BLOCK
  8
0
  2
*D16
 70
     1
 10
0.0
 20
0.0
 30
0.0
  3
*D16
  1

  0
LINE
  5
80F9
  8
3
 62
     0
 10
4676.9142252574711
 20
4581.6138040149071
 30
0.0
 11
4676.9142252574711
 21
6674.056278451164
 31
0.0
  0
LINE
  5
80FA
  8
3
 62
     0
 10
1387.9166098496701
 20
3447.6167759462769
 30
0.0
 11
1387.9166098496701
 21
6674.056278451164
 31
0.0
  0
LINE
  5
80FB
  8
3
 62
     0
 10
4586.9142252574711
 20
6629.0562784511631
 30
0.0
 11
1477.9166098496701
 21
6629.0562784511631
 31
0.0
  0
INSERT
  5
80FC
  8
3
 62
     0
  2
_OPEN
 10
4676.9142252574711
 20
6629.0562784511631
 30
0.0
 41
90.0
 42
90.0
 43
90.0
  0
INSERT
  5
80FD
  8
3
 62
     0
  2
_OPEN
 10
1387.9166098496701
 20
6629.0562784511631
 30
0.0
 41
90.0
 42
90.0
 43
90.0
 50
180.0
  0
TEXT
  8
3
  40
135
  5
813E
  62
0
  72
0
  71
0
 10
2812.78
 20
6502.61
 30
0.000000
  1
3289
  0
POINT
  5
80FF
  8
DEFPOINTS
 62
     0
 10
4676.9142252574711
 20
4559.1138040149071
 30
0.0
  0
POINT
  5
8100
  8
DEFPOINTS
 62
     0
 10
1387.9166098496701
 20
3425.1167759462769
 30
0.0
  0
POINT
  5
8101
  8
DEFPOINTS
 62
     0
 10
1387.9166098496701
 20
6629.0562784511631
 30
0.0
  0
ENDBLK
  5
7F15
  8
0
  0
BLOCK
  8
0
  2
*D17
 70
     1
 10
0.0
 20
0.0
 30
0.0
  3
*D17
  1

  0
LINE
  5
8102
  8
3
 62
     0
 10
1387.9166110832009
 20
3252.6167759462719
 30
0.0
 11
1387.9166110832009
 21
2932.9478895214229
 31
0.0
  0
LINE
  5
8103
  8
3
 62
     0
 10
3537.9166424320392
 20
3252.6162390077438
 30
0.0
 11
3537.9166424320392
 21
2932.9478895214229
 31
0.0
  0
LINE
  5
8104
  8
3
 62
     0
 10
1477.9166110832009
 20
2977.9478895214229
 30
0.0
 11
3447.9166424320392
 21
2977.9478895214229
 31
0.0
  0
INSERT
  5
8105
  8
3
 62
     0
  2
_OPEN
 10
1387.9166110832009
 20
2977.9478895214229
 30
0.0
 41
90.0
 42
90.0
 43
90.0
 50
180.0
  0
INSERT
  5
8106
  8
3
 62
     0
  2
_OPEN
 10
3537.9166424320392
 20
2977.9478895214229
 30
0.0
 41
90.0
 42
90.0
 43
90.0
  0
TEXT
  8
3
  40
135
  5
813F
  62
0
  72
0
  71
0
 10
2192.92
 20
2851.50
 30
0.000000
  1
2150
  0
POINT
  5
8108
  8
DEFPOINTS
 62
     0
 10
1387.9166110832009
 20
3275.1167759462719
 30
0.0
  0
POINT
  5
8109
  8
DEFPOINTS
 62
     0
 10
3537.9166424320392
 20
3275.1162390077438
 30
0.0
  0
POINT
  5
810A
  8
DEFPOINTS
 62
     0
 10
3537.9166424320392
 20
2977.9478895214229
 30
0.0
  0
ENDBLK
  5
8022
  8
0
  0
BLOCK
  8
0
  2
*D18
 70
     1
 10
0.0
 20
0.0
 30
0.0
  3
*D18
  1

  0
LINE
  5
810B
  8
3
 62
     0
 10
3537.9166424320392
 20
3252.6162390077438
 30
0.0
 11
3537.9166424320392
 21
2932.9478895214229
 31
0.0
  0
LINE
  5
810C
  8
3
 62
     0
 10
4487.9166110832066
 20
3252.6160017558459
 30
0.0
 11
4487.9166110832066
 21
2932.9478895214229
 31
0.0
  0
LINE
  5
810D
  8
3
 62
     0
 10
3627.9166424320392
 20
2977.9478895214229
 30
0.0
 11
4397.9166110832066
 21
2977.9478895214229
 31
0.0
  0
INSERT
  5
810E
  8
3
 62
     0
  2
_OPEN
 10
3537.9166424320392
 20
2977.9478895214229
 30
0.0
 41
90.0
 42
90.0
 43
90.0
 50
180.0
  0
INSERT
  5
810F
  8
3
 62
     0
  2
_OPEN
 10
4487.9166110832066
 20
2977.9478895214229
 30
0.0
 41
90.0
 42
90.0
 43
90.0
  0
TEXT
  8
3
  40
135
  5
8140
  62
0
  72
0
  71
0
 10
3742.92
 20
2851.50
 30
0.000000
  1
950
  0
POINT
  5
8111
  8
DEFPOINTS
 62
     0
 10
3537.9166424320392
 20
3275.1162390077438
 30
0.0
  0
POINT
  5
8112
  8
DEFPOINTS
 62
     0
 10
4487.9166110832066
 20
3275.1160017558459
 30
0.0
  0
POINT
  5
8113
  8
DEFPOINTS
 62
     0
 10
4487.9166110832066
 20
2977.9478895214229
 30
0.0
  0
ENDBLK
  5
802F
  8
0
  0
BLOCK
  8
0
  2
*D19
 70
     1
 10
0.0
 20
0.0
 30
0.0
  3
*D19
  1

  0
LINE
  5
8114
  8
3
 62
     0
 10
6163.706522018404
 20
3252.6140292303912
 30
0.0
 11
6163.706522018404
 21
2932.9478895214229
 31
0.0
  0
LINE
  5
8115
  8
3
 62
     0
 10
7094.7076685282809
 20
3252.6134473550378
 30
0.0
 11
7094.7076685282809
 21
2932.9478895214229
 31
0.0
  0
LINE
  5
8116
  8
3
 62
     0
 10
6253.7065220184049
 20
2977.9478895214229
 30
0.0
 11
7004.7076685282818
 21
2977.9478895214229
 31
0.0
  0
INSERT
  5
8117
  8
3
 62
     0
  2
_OPEN
 10
6163.706522018404
 20
2977.9478895214229
 30
0.0
 41
90.0
 42
90.0
 43
90.0
 50
180.0
  0
INSERT
  5
8118
  8
3
 62
     0
  2
_OPEN
 10
7094.7076685282809
 20
2977.9478895214229
 30
0.0
 41
90.0
 42
90.0
 43
90.0
  0
TEXT
  8
3
  40
135
  5
8141
  62
0
  72
0
  71
0
 10
6359.21
 20
2851.50
 30
0.000000
  1
931
  0
POINT
  5
811A
  8
DEFPOINTS
 62
     0
 10
6163.706522018404
 20
3275.1140292303912
 30
0.0
  0
POINT
  5
811B
  8
DEFPOINTS
 62
     0
 10
7094.7076685282809
 20
3275.1134473550378
 30
0.0
  0
POINT
  5
811C
  8
DEFPOINTS
 62
     0
 10
7094.7076685282809
 20
2977.9478895214229
 30
0.0
  0
ENDBLK
  5
803C
  8
0
  0
BLOCK
  8
0
  2
*D20
 70
     1
 10
0.0
 20
0.0
 30
0.0
  3
*D20
  1

  0
LINE
  5
811D
  8
3
 62
     0
 10
7094.7076685282809
 20
3252.6134473550378
 30
0.0
 11
7094.7076685282809
 21
2932.9478895214229
 31
0.0
  0
LINE
  5
811E
  8
3
 62
     0
 10
7763.7075934700661
 20
3252.6130292303469
 30
0.0
 11
7763.7075934700661
 21
2932.9478895214229
 31
0.0
  0
LINE
  5
811F
  8
3
 62
     0
 10
7184.7076685282818
 20
2977.9478895214229
 30
0.0
 11
7673.7075934700661
 21
2977.9478895214229
 31
0.0
  0
INSERT
  5
8120
  8
3
 62
     0
  2
_OPEN
 10
7094.7076685282809
 20
2977.9478895214229
 30
0.0
 41
90.0
 42
90.0
 43
90.0
 50
180.0
  0
INSERT
  5
8121
  8
3
 62
     0
  2
_OPEN
 10
7763.7075934700661
 20
2977.9478895214229
 30
0.0
 41
90.0
 42
90.0
 43
90.0
  0
TEXT
  8
3
  40
135
  5
8142
  62
0
  72
0
  71
0
 10
7159.21
 20
2851.50
 30
0.000000
  1
669
  0
POINT
  5
8123
  8
DEFPOINTS
 62
     0
 10
7094.7076685282809
 20
3275.1134473550378
 30
0.0
  0
POINT
  5
8124
  8
DEFPOINTS
 62
     0
 10
7763.7075934700661
 20
3275.1130292303469
 30
0.0
  0
POINT
  5
8125
  8
DEFPOINTS
 62
     0
 10
7763.7075934700661
 20
2977.9478895214229
 30
0.0
  0
ENDBLK
  5
8049
  8
0
  0
BLOCK
  8
0
  2
*D21
 70
     1
 10
0.0
 20
0.0
 30
0.0
  3
*D21
  1

  0
LINE
  5
8126
  8
3
 62
     0
 10
3580.4132252574691
 20
5720.1148040149073
 30
0.0
 11
5631.9333487828771
 21
5720.1148040149073
 31
0.0
  0
LINE
  5
8127
  8
3
 62
     0
 10
4510.4166110832066
 20
3275.1160017558468
 30
0.0
 11
5631.9333487828771
 21
3275.1160017558459
 31
0.0
  0
LINE
  5
8128
  8
3
 62
     0
 10
5586.9333487828781
 20
5630.1148040149073
 30
0.0
 11
5586.9333487828781
 21
3365.1160017558468
 31
0.0
  0
INSERT
  5
8129
  8
3
 62
     0
  2
_OPEN
 10
5586.9333487828781
 20
5720.1148040149073
 30
0.0
 41
90.0
 42
90.0
 43
90.0
 50
90.0
  0
INSERT
  5
812A
  8
3
 62
     0
  2
_OPEN
 10
5586.9333487828781
 20
3275.1160017558459
 30
0.0
 41
90.0
 42
90.0
 43
90.0
 50
270.0
  0
TEXT
  8
3
  40
135
  5
8143
  62
0
  72
0
  71
0
 10
5204.43
 20
4258.67
 30
0.000000
  1
2445
  0
POINT
  5
812C
  8
DEFPOINTS
 62
     0
 10
3557.9132252574691
 20
5720.1148040149073
 30
0.0
  0
POINT
  5
812D
  8
DEFPOINTS
 62
     0
 10
4487.9166110832066
 20
3275.1160017558468
 30
0.0
  0
POINT
  5
812E
  8
DEFPOINTS
 62
     0
 10
5586.9333487828781
 20
3275.1160017558459
 30
0.0
  0
ENDBLK
  5
8056
  8
0
  0
ENDSEC
  0
SECTION
  2
ENTITIES
  0
LINE
  5
7AE2
  8
1
 10
7763.7075934700661
 20
3275.1130292303469
 30
0.0
 11
6163.706522018404
 21
3275.1140292303912
 31
0.0
1001
ACAD
1000
ASC_BOUNDS
1002
{
1070
    19
1002
}
  0
LINE
  5
7AE3
  8
1
 10
7763.7075901701101
 20
3425.1140292303912
 30
0.0
 11
6163.706522018404
 21
3425.1140292303912
 31
0.0
  0
LINE
  5
7AE6
  8
2
 10
6063.7309031003842
 20
4675.1160017558468
 30
0.0
 11
7883.8235613357328
 21
4675.1160017558468
 31
0.0
  0
LINE
  5
7AE7
  8
1
 10
6164.7075220183988
 20
4365.2010373875692
 30
0.0
 11
6264.7075220183997
 21
4365.2010373876137
 31
0.0
  0
LINE
  5
7AE8
  8
1
 10
6164.7075220183988
 20
4971.3733983108259
 30
0.0
 11
6264.7075220183997
 21
4971.3733983108723
 31
0.0
  0
LINE
  5
7AE9
  8
1
 10
6114.7075004250046
 20
5125.1160017558468
 30
0.0
 11
6304.7075036057377
 21
5125.1160017558468
 31
0.0
  0
LINE
  5
7AEC
  8
1
 10
1387.9166110832009
 20
3275.1167759462728
 30
0.0
 11
4487.9166110832066
 21
3275.1160017558468
 31
0.0
1001
ACAD
1000
ASC_BOUNDS
1002
{
1070
    19
1005
0
1005
0
1002
}
  0
LINE
  5
7AED
  8
1
 10
1387.9166098496701
 20
3425.1167759462769
 30
0.0
 11
4487.9166098496753
 21
3425.1160017558509
 31
0.0
1001
ACAD
1000
ASC_BOUNDS
1002
{
1070
    19
1002
}
  0
ARC
  5
7AEE
  8
1
 10
3421.9142252574711
 20
4559.1138040149071
 30
0.0
 40
1255.0
 50
275.30399999999997
 51
5.3030000000001332
  0
ARC
  5
7AEF
  8
1
 10
3421.9142252574711
 20
4791.1148040149073
 30
0.0
 40
1487.0
 50
184.47399999999999
 51
274.47399999999988
  0
LINE
  5
7AF0
  8
1
 10
1490.2251575014029
 20
3485.116775946602
 30
0.0
 11
1637.045494616872
 21
3485.116775946602
 31
0.0
  0
LINE
  5
7AF1
  8
1
 10
1387.9166110832009
 20
3275.1167759462719
 30
0.0
 11
1387.9166098496701
 21
3425.1167759462769
 31
0.0
  0
LINE
  5
7AF3
  8
1
 10
1490.2251575014029
 20
3485.116775946602
 30
0.0
 11
1477.9162406155319
 21
3425.1167427667692
 31
0.0
  0
LINE
  5
7AF4
  8
1
 10
1838.7869866141909
 20
3469.6849257888598
 30
0.0
 11
1737.9162406155319
 21
3469.6849257888598
 31
0.0
  0
LINE
  5
7AF5
  8
1
 10
1637.045494616872
 20
3469.6849257888598
 30
0.0
 11
1737.9162406155319
 21
3469.6849257888598
 31
0.0
  0
LINE
  5
7AF6
  8
1
 10
1637.045494616872
 20
3485.116775946602
 30
0.0
 11
1637.045494616872
 21
3469.6849257888598
 31
0.0
  0
LINE
  5
7AF7
  8
1
 10
1907.9162406155319
 20
3485.1167759466011
 30
0.0
 11
1927.916240615531
 21
3485.1167759466011
 31
0.0
  0
LINE
  5
7AF8
  8
1
 10
1985.60732372966
 20
3485.116775946602
 30
0.0
 11
1838.7869866141909
 21
3485.116775946602
 31
0.0
  0
LINE
  5
7AF9
  8
1
 10
1838.7869866141909
 20
3485.116775946602
 30
0.0
 11
1838.7869866141909
 21
3469.6849257888598
 31
0.0
  0
LINE
  5
7AFA
  8
1
 10
1985.60732372966
 20
3485.116775946602
 30
0.0
 11
1997.9162406155319
 21
3425.1167427667692
 31
0.0
  0
LINE
  5
7AFC
  8
1
 10
6114.706262405386
 20
3405.116775946602
 30
0.0
 11
6114.7075004250046
 21
5125.1160017558468
 31
0.0
  0
LINE
  5
7AFD
  8
2
 10
3537.9166424320392
 20
3275.1162390077438
 30
0.0
 11
3537.9165891319558
 21
5813.2863874845534
 31
0.0
  0
ARC
  5
7AFE
  8
1
 10
3634.9142252574711
 20
4578.1138040149071
 30
0.0
 40
1042.0
 50
5.3410000000000597
 51
95.34200000000007
  0
LINE
  5
7AFF
  8
1
 10
4487.9166110832066
 20
3275.1160017558459
 30
0.0
 11
4487.9166098496753
 21
3425.1160017558509
 31
0.0
  0
LINE
  5
7B01
  8
1
 10
4487.9165857325352
 20
3425.1147759485639
 30
0.0
 11
4487.9165857325352
 21
3425.1160017558559
 31
0.0
  0
LINE
  5
7B02
  8
1
 10
3492.9132252574691
 20
5720.1148040149073
 30
0.0
 11
1842.9132252574691
 21
5720.1148040149046
 31
0.0
  0
LINE
  5
7B03
  8
1
 10
3557.9132252574691
 20
5714.1148040149083
 30
0.0
 11
1777.9132252574691
 21
5714.1148040149046
 31
0.0
  0
LINE
  5
7B04
  8
1
 10
3492.9132252574691
 20
5655.1148040149073
 30
0.0
 11
1848.917608032589
 21
5655.1148040149064
 31
0.0
  0
CIRCLE
  5
7B05
  8
1
 10
3537.916004365472
 20
4675.1142226478451
 30
0.0
 40
300.0
  0
LINE
  5
7B06
  8
2
 10
1719.379923818047
 20
4675.1160017558468
 30
0.0
 11
4789.9717690140269
 21
4675.1160017558468
 31
0.0
  0
ARC
  5
7B07
  8
1
 10
3634.9142252574711
 20
4772.1148040149073
 30
0.0
 40
848.0
 50
96.569000000000088
 51
125.88
  0
LINE
  5
7B08
  8
1
 10
3557.9132252574691
 20
5720.1148040149073
 30
0.0
 11
3492.9132252574691
 21
5720.1148040149073
 31
0.0
  0
LINE
  5
7B09
  8
1
 10
3557.9132252574691
 20
5720.1148040149073
 30
0.0
 11
3557.9132252574691
 21
5714.1148040149092
 31
0.0
  0
LINE
  5
7B0A
  8
1
 10
3492.9132252574691
 20
5608.1409495384787
 30
0.0
 11
3492.9132252574691
 21
5720.1148040149073
 31
0.0
  0
LINE
  5
7B0B
  8
1
 10
3492.9132252574691
 20
5720.1148040149073
 30
0.0
 11
3492.9132252574691
 21
5655.1148040149073
 31
0.0
  0
CIRCLE
  5
7B0C
  8
1
 10
3132.0276326507092
 20
5480.784809316443
 30
0.0
 40
22.270700527454458
  0
LINE
  5
7B0D
  8
1
 10
1939.4452252574711
 20
4675.1148040149046
 30
0.0
 11
1842.9132252574691
 21
5720.1148040149046
 31
0.0
  0
LINE
  5
7B0F
  8
1
 10
1777.9132252574691
 20
5720.1148040149046
 30
0.0
 11
1777.9132252574691
 21
5714.1148040149046
 31
0.0
  0
LINE
  5
7B10
  8
1
 10
1842.9132252574691
 20
5720.1148040149046
 30
0.0
 11
1777.9132252574691
 21
5720.1148040149046
 31
0.0
  0
LINE
  5
7B11
  8
1
 10
6164.7075220183988
 20
3545.116775946602
 30
0.0
 11
6164.7075220183988
 21
4971.3733983108259
 31
0.0
  0
LINE
  5
7B12
  8
1
 10
1777.9165857325329
 20
8796.4930457656137
 30
0.0
 11
1387.9159447707229
 21
8796.4930457656137
 31
0.0
  0
LINE
  5
7B13
  8
1
 10
4487.9163326458211
 20
7696.4930457656119
 30
0.0
 11
1387.9163326456151
 21
7696.4930457656119
 31
0.0
  0
LINE
  5
7B14
  8
1
 10
1387.9159447707209
 20
8796.4930457656137
 30
0.0
 11
1387.9163326456151
 21
7696.4930457656119
 31
0.0
  0
LINE
  5
7B15
  8
1
 10
4487.915768464115
 20
9296.4931713068763
 30
0.0
 11
4487.9157963209818
 21
9217.49204504929
 31
0.0
  0
LINE
  5
7B16
  8
1
 10
2587.9157684640409
 20
9296.4930457656137
 30
0.0
 11
4487.9157684641596
 21
9296.4930457656137
 31
0.0
  0
LINE
  5
7B17
  8
2
 10
3537.9165857325329
 20
7540.2613487509343
 30
0.0
 11
3537.9165857325329
 21
9396.3780824081587
 31
0.0
  0
LINE
  5
7B18
  8
1
 10
2587.9157684640418
 20
9296.4930457656137
 30
0.0
 11
2587.915773400955
 21
9282.4921291256815
 31
0.0
  0
LINE
  5
7B19
  8
1
 10
7819.7115220183987
 20
3810.1130292303492
 30
0.0
 11
7819.7115220183987
 21
5540.1120292303503
 31
0.0
  0
LINE
  5
7B1A
  8
1
 10
7813.7115220183978
 20
5536.1120292303494
 30
0.0
 11
7813.7115220183978
 21
3814.1130292303492
 31
0.0
  0
LINE
  5
7B1B
  8
1
 10
7693.9065220184029
 20
3814.1130292303492
 30
0.0
 11
7693.9065220184011
 21
5536.1120292303494
 31
0.0
  0
LINE
  5
7B1E
  8
2
 10
7094.7075423732886
 20
5945.4279395856402
 30
0.0
 11
7094.7076685282809
 21
3275.1134473550378
 31
0.0
  0
LINE
  5
7B21
  8
1
 10
6304.7064483679223
 20
3405.116775946602
 30
0.0
 11
6304.7065172506873
 21
3517.3484962667021
 31
0.0
  0
LINE
  5
7B22
  8
1
 10
7752.9065220184029
 20
3875.1160017558468
 30
0.0
 11
7819.7115220183987
 21
3875.1160017558468
 31
0.0
  0
LINE
  5
7B24
  8
1
 10
7687.9065220184011
 20
3875.1130292303501
 30
0.0
 11
7752.9065220184029
 21
3875.1130292303501
 31
0.0
  0
ARC
  5
7B2B
  8
1
 10
7689.9065220184029
 20
3814.1130292303492
 30
0.0
 40
4.0
 50
270.0
 51
0.0
  0
LINE
  5
7B2D
  8
1
 10
7687.9065220184011
 20
3810.1130292303492
 30
0.0
 11
7689.9065220184029
 21
3810.1130292303492
 31
0.0
  0
LINE
  5
7B2F
  8
1
 10
7687.9065220184011
 20
3875.1130292303501
 30
0.0
 11
7687.9065220184011
 21
3810.1130292303492
 31
0.0
  0
ARC
  5
7B32
  8
1
 10
7817.7115220183987
 20
3814.1130292303492
 30
0.0
 40
4.0
 50
180.0
 51
270.0
  0
LINE
  5
7B33
  8
1
 10
7819.7115220183987
 20
3810.1130292303492
 30
0.0
 11
7817.7115220183987
 21
3810.1130292303492
 31
0.0
  0
LINE
  5
7B35
  8
1
 10
7819.7115220183987
 20
3810.1130292303492
 30
0.0
 11
7819.7115220183987
 21
3875.1130292303501
 31
0.0
  0
LINE
  5
7B36
  8
1
 10
6504.7075220184042
 20
4675.1160017558468
 30
0.0
 11
6504.7075220183988
 21
5720.1148040149046
 31
0.0
  0
LINE
  5
7B37
  8
1
 10
7684.7075220184061
 20
3425.1140292303912
 30
0.0
 11
7684.7075220183988
 21
5720.1148040149046
 31
0.0
  0
LINE
  5
7B38
  8
1
 10
7752.9065220184029
 20
5720.1148040149046
 30
0.0
 11
7752.9065220184029
 21
5655.1148040149037
 31
0.0
  0
LINE
  5
7B39
  8
1
 10
6436.5075220184017
 20
5720.1148040149064
 30
0.0
 11
6436.5075220184008
 21
5655.1148040149073
 31
0.0
  0
LINE
  5
7B3A
  8
1
 10
6264.7075220183997
 20
4971.3733983108723
 30
0.0
 11
6264.7075220183997
 21
3545.116775946602
 31
0.0
  0
LINE
  5
7B3B
  8
1
 10
6264.7075220183997
 20
4625.114029230348
 30
0.0
 11
6504.7070045704713
 21
4625.114029230348
 31
0.0
  0
LINE
  5
7B3C
  8
1
 10
6264.7075220183997
 20
4725.1120292303494
 30
0.0
 11
6504.7075220184042
 21
4725.1120292303494
 31
0.0
  0
LINE
  5
7B3D
  8
1
 10
6304.707390597714
 20
4940.9903331028017
 30
0.0
 11
6304.7075036057377
 21
5125.1160017558468
 31
0.0
  0
LINE
  5
7B3E
  8
1
 10
7752.9065220184029
 20
5475.1160017558459
 30
0.0
 11
7819.7115220183987
 21
5475.1160017558459
 31
0.0
  0
ARC
  5
7B40
  8
1
 10
7689.9065220184029
 20
5536.1120292303494
 30
0.0
 40
4.0
 50
0.0
 51
90.0
  0
LINE
  5
7B41
  8
1
 10
7687.9065220184011
 20
5475.1120292303494
 30
0.0
 11
7752.9065220184029
 21
5475.1120292303494
 31
0.0
  0
LINE
  5
7B43
  8
1
 10
7687.9065220184011
 20
5475.1120292303494
 30
0.0
 11
7687.9065220184011
 21
5540.1120292303503
 31
0.0
  0
LINE
  5
7B44
  8
1
 10
7687.9065220184011
 20
5540.1120292303503
 30
0.0
 11
7689.9065220184029
 21
5540.1120292303503
 31
0.0
  0
LINE
  5
7B4D
  8
1
 10
7819.7115220183987
 20
5540.1120292303503
 30
0.0
 11
7819.7115220183987
 21
5475.1120292303494
 31
0.0
  0
LINE
  5
7B4E
  8
1
 10
7819.7115220183987
 20
5540.1120292303503
 30
0.0
 11
7817.7115220183987
 21
5540.1120292303503
 31
0.0
  0
ARC
  5
7B50
  8
1
 10
7817.7115220183987
 20
5536.1120292303494
 30
0.0
 40
4.0
 50
90.0
 51
180.0
  0
LINE
  5
7B53
  8
1
 10
7752.9065220184029
 20
5720.1148040149046
 30
0.0
 11
6436.5075220184017
 21
5720.1148040149064
 31
0.0
  0
LINE
  5
7B54
  8
1
 10
1840.745871405368
 20
3489.4970759375642
 30
0.0
 11
1635.0866098256949
 21
3489.4970759375642
 31
0.0
  0
LINE
  5
7B55
  8
2
 10
2032.2143376631821
 20
3685.116775946602
 30
0.0
 11
1422.86746222134
 21
3685.116775946602
 31
0.0
  0
ARC
  5
7B56
  8
1
 10
1737.9162406155319
 20
3685.116775946602
 30
0.0
 40
221.0
 50
297.7291503578308
 51
242.270849642169
  0
LINE
  5
7B57
  8
1
 10
1926.9162406155319
 20
3485.116775946602
 30
0.0
 11
1846.9162406155319
 21
3485.116775946602
 31
0.0
  0
LINE
  5
7B58
  8
1
 10
1926.9162406155319
 20
3505.116775946602
 30
0.0
 11
1866.1387035461751
 21
3505.116775946602
 31
0.0
  0
LINE
  5
7B59
  8
1
 10
1896.916240615531
 20
3464.616775946602
 30
0.0
 11
1896.916240615531
 21
3534.8123867058662
 31
0.0
  0
LINE
  5
7B5A
  8
1
 10
1926.9162406155319
 20
3485.116775946602
 30
0.0
 11
1926.9162406155319
 21
3539.1281129602621
 31
0.0
  0
LINE
  5
7B5B
  8
1
 10
1926.9162406155319
 20
3539.1281129602621
 30
0.0
 11
1915.021344557068
 21
3552.9245592398001
 31
0.0
  0
LINE
  5
7B5C
  8
1
 10
1846.9162406155319
 20
3494.24547935177
 30
0.0
 11
1846.9162406155319
 21
3485.116775946602
 31
0.0
  0
LINE
  5
7B5D
  8
2
 10
1737.9162406155319
 20
3343.3904412938559
 30
0.0
 11
1737.9162406155319
 21
3985.6776627108529
 31
0.0
  0
LINE
  5
7B5E
  8
1
 10
1548.9162406155319
 20
3505.116775946602
 30
0.0
 11
1609.6937776848879
 21
3505.116775946603
 31
0.0
  0
LINE
  5
7B5F
  8
1
 10
1548.9162406155319
 20
3485.116775946602
 30
0.0
 11
1628.9162406155319
 21
3485.116775946602
 31
0.0
  0
LINE
  5
7B60
  8
1
 10
1578.9162406155319
 20
3464.616775946602
 30
0.0
 11
1578.9162406155319
 21
3534.8123867058662
 31
0.0
  0
LINE
  5
7B61
  8
1
 10
1628.9162406155319
 20
3494.24547935177
 30
0.0
 11
1628.9162406155319
 21
3485.116775946602
 31
0.0
  0
LINE
  5
7B62
  8
1
 10
1548.9162406155319
 20
3485.116775946602
 30
0.0
 11
1548.9162406155319
 21
3539.128112960263
 31
0.0
  0
LINE
  5
7B63
  8
1
 10
1548.9162406155319
 20
3539.1281129602621
 30
0.0
 11
1560.811136673997
 21
3552.924559239802
 31
0.0
  0
LINE
  5
7B64
  8
1
 10
1516.957552707692
 20
3689.3897419008322
 30
0.0
 11
1506.792654965988
 21
3689.3897419008322
 31
0.0
  0
CIRCLE
  5
7B65
  8
1
 10
1737.9162406155319
 20
3685.116775946602
 30
0.0
 40
140.0
  0
ARC
  5
7B66
  8
1
 10
1737.9162406155319
 20
3685.116775946602
 30
0.0
 40
280.0
 50
118.7657035064848
 51
293.22377940038621
  0
ARC
  5
7B67
  8
1
 10
3537.9145054677711
 20
4675.1160017558468
 30
0.0
 40
480.0
 50
293.22377940038609
 51
118.7657035064848
  0
LINE
  5
7B68
  8
1
 10
3306.924565177183
 20
5095.8815510639524
 30
0.0
 11
1603.1721087793551
 21
3930.5633463763311
 31
0.0
  0
LINE
  5
7B69
  8
1
 10
3398.9845796728951
 20
4941.005289126002
 30
0.0
 11
1673.081575758996
 21
3809.1992736364082
 31
0.0
  0
LINE
  5
7B6C
  8
1
 10
6164.7065220184004
 20
3825.116775946602
 30
0.0
 11
6264.7065220184004
 21
3825.116775946602
 31
0.0
  0
LINE
  5
7B6D
  8
1
 10
6164.7065220184013
 20
3545.116775946602
 30
0.0
 11
6264.7075220183997
 21
3545.116775946602
 31
0.0
  0
LINE
  5
7B6F
  8
1
 10
7763.7075901701101
 20
3425.1140292303912
 30
0.0
 11
7763.707593470067
 21
3275.1130292303469
 31
0.0
  0
LINE
  5
7B70
  8
1
 10
6163.7075901701091
 20
3425.1140292303912
 30
0.0
 11
6163.707593470046
 21
3275.1140292297218
 31
0.0
  0
LINE
  5
7B73
  8
1
 10
6114.706262405386
 20
3405.116775946602
 30
0.0
 11
6304.7064483679223
 21
3405.116775946602
 31
0.0
  0
LINE
  5
7B74
  8
1
 10
7687.9065220184011
 20
5475.1120292303494
 30
0.0
 11
7687.9065220184011
 21
3875.1130292303501
 31
0.0
  0
LINE
  5
7B77
  8
2
 10
4766.1814943473028
 20
8627.4920327358304
 30
0.0
 11
1766.146965095071
 21
8627.4921654895516
 31
0.0
  0
LINE
  5
7B78
  8
1
 10
1457.916240615531
 20
7647.4909010766341
 30
0.0
 11
1457.916240615531
 21
7837.4909214899599
 31
0.0
  0
LINE
  5
7B79
  8
1
 10
1597.9162406155319
 20
7697.4909951404379
 30
0.0
 11
1597.9162406155319
 21
7797.4909951404388
 31
0.0
  0
LINE
  5
7B7A
  8
1
 10
1877.916240615531
 20
7697.4909951404379
 30
0.0
 11
1877.916240615531
 21
7797.490995140437
 31
0.0
  0
LINE
  5
7B7B
  8
1
 10
3987.9165857325329
 20
7647.4919735470439
 30
0.0
 11
3987.9165857325329
 21
7837.4919767277752
 31
0.0
  0
LINE
  5
7B7C
  8
1
 10
3834.1739822875111
 20
7697.4919951404372
 30
0.0
 11
3834.1739822875588
 21
7797.4919951404372
 31
0.0
  0
LINE
  5
7B7D
  8
1
 10
3228.0016213642548
 20
7697.4919951404372
 30
0.0
 11
3228.0016213643012
 21
7797.4919951404372
 31
0.0
  0
LINE
  5
7B7E
  8
1
 10
3228.0016213642548
 20
7697.4919951404372
 30
0.0
 11
3834.1739822875111
 21
7697.4919951404372
 31
0.0
  0
LINE
  5
7B7F
  8
1
 10
1457.916240615531
 20
7647.4909010766341
 30
0.0
 11
3987.9165857325329
 21
7647.4919735470439
 31
0.0
  0
LINE
  5
7B80
  8
1
 10
1597.9162406155319
 20
7697.4909951404379
 30
0.0
 11
1947.9160678573601
 21
7697.4909951404379
 31
0.0
  0
LINE
  5
7B81
  8
1
 10
3834.1739822875588
 20
7797.4919951404372
 30
0.0
 11
3228.0016213643012
 21
7797.4919951404372
 31
0.0
  0
LINE
  5
7B82
  8
1
 10
1597.9162406155319
 20
7797.4909951404388
 30
0.0
 11
3228.0016213643012
 21
7797.4909951404388
 31
0.0
  0
LINE
  5
7B83
  8
1
 10
3487.9146132070368
 20
7797.4919951404372
 30
0.0
 11
3487.9146132070368
 21
7972.4920893000717
 31
0.0
  0
LINE
  5
7B84
  8
1
 10
1457.916240615531
 20
7837.4904239277712
 30
0.0
 11
3987.9165857325329
 21
7837.4919767277752
 31
0.0
  0
LINE
  5
7B85
  8
1
 10
3587.912613207036
 20
7797.4919951404372
 30
0.0
 11
3587.912613207036
 21
8037.4919951404399
 31
0.0
  0
LINE
  5
7B86
  8
1
 10
4676.9165857325333
 20
9217.492036685866
 30
0.0
 11
3557.9165857325329
 21
9217.4920862024355
 31
0.0
  0
LINE
  5
7B87
  8
1
 10
4676.9165857325333
 20
8037.4920366858669
 30
0.0
 11
3557.9165857325329
 21
8037.4920862024328
 31
0.0
  0
LINE
  5
7B8A
  8
1
 10
4487.9162124049572
 20
8037.4920450492727
 30
0.0
 11
4487.9163326458211
 21
7696.4930457656119
 31
0.0
  0
LINE
  5
7B8C
  8
2
 10
1737.9162406155319
 20
7540.3545942137607
 30
0.0
 11
1737.9162406155319
 21
8593.3502992462782
 31
0.0
  0
LINE
  5
7B8D
  8
1
 10
1527.9162406155319
 20
8540.6080965614638
 30
0.0
 11
1777.9165857325329
 21
8540.6080965614674
 31
0.0
  0
LINE
  5
7B8E
  8
1
 10
1815.9162406155319
 20
7891.1080965614638
 30
0.0
 11
1737.9162406155319
 21
7891.1080965614638
 31
0.0
  0
LINE
  5
7B8F
  8
1
 10
1937.9162406155319
 20
7902.6080965614638
 30
0.0
 11
1937.9162406155299
 21
7972.4921578886342
 31
0.0
  0
LINE
  5
7B90
  8
1
 10
1817.9162406155319
 20
7903.2611725614643
 30
0.0
 11
1817.9162406155319
 21
7893.1080965614638
 31
0.0
  0
ARC
  5
7B91
  8
1
 10
1820.916240615531
 20
7903.2611725614643
 30
0.0
 40
3.0
 50
92.999556999999982
 51
180.0
  0
ARC
  5
7B92
  8
1
 10
1815.9162406155319
 20
7893.1080965614638
 30
0.0
 40
2.0
 50
270.0
 51
0.0
  0
LINE
  5
7B93
  8
1
 10
1527.9162406155319
 20
8540.6080965614638
 30
0.0
 11
1527.9162406155331
 21
7902.6080965614638
 31
0.0
  0
LINE
  5
7B94
  8
1
 10
1527.9162406155331
 20
7902.6080965614647
 30
0.0
 11
1937.9162406155299
 21
7902.6080965614638
 31
0.0
  0
LINE
  5
7B95
  8
1
 10
1703.9162406155319
 20
7851.1080965614638
 30
0.0
 11
1703.9162406155319
 21
7741.1080965614647
 31
0.0
  0
LINE
  5
7B96
  8
1
 10
1767.9162406155319
 20
7881.1080965614628
 30
0.0
 11
1767.9162406155319
 21
7741.1080965614647
 31
0.0
  0
LINE
  5
7B97
  8
1
 10
1707.916240615531
 20
7881.1080965614628
 30
0.0
 11
1707.916240615531
 21
7741.1080965614647
 31
0.0
  0
LINE
  5
7B98
  8
1
 10
1659.916240615531
 20
7891.1080965614638
 30
0.0
 11
1737.9162406155319
 21
7891.1080965614638
 31
0.0
  0
LINE
  5
7B99
  8
1
 10
1770.416240615531
 20
7881.1080965614628
 30
0.0
 11
1705.4162406155319
 21
7881.1080965614628
 31
0.0
  0
LINE
  5
7B9A
  8
1
 10
1770.416240615531
 20
7881.1080965614628
 30
0.0
 11
1770.416240615531
 21
7891.1080965614638
 31
0.0
  0
LINE
  5
7B9B
  8
1
 10
1705.4162406155319
 20
7881.1080965614628
 30
0.0
 11
1705.4162406155319
 21
7891.1080965614638
 31
0.0
  0
LINE
  5
7B9C
  8
1
 10
1703.9162406155319
 20
7851.1080965614638
 30
0.0
 11
1707.916240615531
 21
7851.1080965614638
 31
0.0
  0
LINE
  5
7B9D
  8
1
 10
1657.9162406155319
 20
7902.6080965614638
 30
0.0
 11
1657.9162406155319
 21
7893.1080965614638
 31
0.0
  0
ARC
  5
7B9E
  8
1
 10
1659.916240615531
 20
7893.1080965614638
 30
0.0
 40
2.0
 50
180.0
 51
270.0
  0
LINE
  5
7B9F
  8
1
 10
1703.9162406155319
 20
7741.1080965614647
 30
0.0
 11
1767.9162406155319
 21
7741.1080965614647
 31
0.0
  0
LINE
  5
7BA0
  8
1
 10
1820.7592559104451
 20
7906.2570623795937
 30
0.0
 11
1820.7592559104451
 21
7906.2571192844889
 31
0.0
  0
LINE
  5
7BA1
  8
1
 10
6504.706432474025
 20
3475.116775946602
 30
0.0
 11
6370.839611337391
 21
3475.116775946603
 31
0.0
  0
LINE
  5
7BA2
  8
1
 10
6370.8396113373892
 20
3885.116775946602
 30
0.0
 11
6504.7066364393322
 21
3885.116775946602
 31
0.0
  0
LINE
  5
7BA3
  8
2
 10
6068.7962788324439
 20
3685.116775946602
 30
0.0
 11
6541.1853758683583
 21
3685.116775946602
 31
0.0
  0
LINE
  5
7BA5
  8
1
 10
6209.3396113373892
 20
3651.116775946602
 30
0.0
 11
6209.3396113373892
 21
3715.116775946603
 31
0.0
  0
LINE
  5
7BA6
  8
1
 10
6349.3396113373892
 20
3717.616775946602
 30
0.0
 11
6349.3396113373892
 21
3652.616775946603
 31
0.0
  0
LINE
  5
7BA7
  8
1
 10
6370.839611337391
 20
3475.116775946603
 30
0.0
 11
6370.8396113373892
 21
3885.1167759466011
 31
0.0
  0
LINE
  5
7BA8
  8
1
 10
6359.3396113373892
 20
3763.116775946602
 30
0.0
 11
6359.3396113373892
 21
3685.116775946602
 31
0.0
  0
LINE
  5
7BA9
  8
1
 10
6349.3396113373892
 20
3715.116775946603
 30
0.0
 11
6209.3396113373892
 21
3715.116775946603
 31
0.0
  0
LINE
  5
7BAA
  8
1
 10
6349.3396113373892
 20
3717.616775946602
 30
0.0
 11
6359.3396113373892
 21
3717.616775946602
 31
0.0
  0
ARC
  5
7BAB
  8
1
 10
6361.3396113373892
 20
3763.116775946602
 30
0.0
 40
2.0
 50
90.0
 51
180.0
  0
LINE
  5
7BAC
  8
1
 10
6371.4926873373897
 20
3765.116775946602
 30
0.0
 11
6361.3396113373892
 21
3765.116775946602
 31
0.0
  0
LINE
  5
7BAD
  8
1
 10
6349.3396113373892
 20
3655.116775946602
 30
0.0
 11
6209.3396113373892
 21
3655.116775946602
 31
0.0
  0
LINE
  5
7BAE
  8
1
 10
6319.3396113373892
 20
3651.116775946602
 30
0.0
 11
6209.3396113373892
 21
3651.116775946602
 31
0.0
  0
ARC
  5
7BAF
  8
1
 10
6361.3396113373892
 20
3607.116775946602
 30
0.0
 40
2.0
 50
180.0
 51
270.0
  0
LINE
  5
7BB0
  8
1
 10
6370.8396113373892
 20
3605.116775946602
 30
0.0
 11
6361.3396113373892
 21
3605.116775946602
 31
0.0
  0
LINE
  5
7BB1
  8
1
 10
6349.3396113373892
 20
3652.616775946603
 30
0.0
 11
6359.3396113373892
 21
3652.616775946603
 31
0.0
  0
LINE
  5
7BB2
  8
1
 10
6359.3396113373892
 20
3607.116775946602
 30
0.0
 11
6359.3396113373892
 21
3685.116775946602
 31
0.0
  0
LINE
  5
7BB3
  8
1
 10
6319.3396113373892
 20
3651.116775946602
 30
0.0
 11
6319.3396113373892
 21
3655.116775946602
 31
0.0
  0
LINE
  5
7BB4
  8
1
 10
6504.7064075988401
 20
3425.1140292303912
 30
0.0
 11
6504.7070294452697
 21
4675.1160017558468
 31
0.0
  0
DIMENSION
  5
7BC2
  8
3
  2
*D1
 10
2587.9157684640418
 20
9524.5719687369055
 30
0.0
 11
3537.5819618607889
 21
9524.5719687369055
 31
0.0
 70
   128
 13
4487.9157684641586
 23
9296.4930457656137
 33
0.0
 14
2587.9157684640418
 24
9296.4930457656137
 34
0.0
1001
ACAD
1000
DSTYLE
1002
{
1070
   287
1070
     3
1070
    40
1040
45.0
1070
   143
1040
0.039
1070
   172
1070
     1
1070
   271
1070
     0
1070
   279
1070
     0
1070
   288
1070
     1
1002
}
  0
DIMENSION
  5
7BCE
  8
3
  2
*D2
 10
1387.9159447707209
 20
9524.5719687369055
 30
0.0
 11
1987.9158566173819
 21
9637.0719687369055
 31
0.0
 70
     0
 13
2587.9157684640418
 23
9296.4930457656137
 33
0.0
 14
1387.9159447707209
 24
8796.4930457656137
 34
0.0
1001
ACAD
1000
DSTYLE
1002
{
1070
   287
1070
     4
1070
    40
1040
45.0
1070
    75
1070
     1
1070
   143
1040
0.039
1070
   172
1070
     1
1070
   271
1070
     0
1070
   279
1070
     1
1070
   288
1070
     1
1002
}
  0
DIMENSION
  5
7BDB
  8
3
  2
*D3
 10
1098.9609912131609
 20
7696.4930457656119
 30
0.0
 11
1098.96099121316
 21
8242.9781621896982
 31
0.0
 70
   128
 13
1387.9159447707209
 23
8796.4930457656137
 33
0.0
 14
1387.9163326456151
 24
7696.4930457656119
 34
0.0
 50
270.0
1001
ACAD
1000
DSTYLE
1002
{
1070
   287
1070
     3
1070
    40
1040
45.0
1070
   143
1040
0.039
1070
   172
1070
     1
1070
   271
1070
     0
1070
   279
1070
     0
1070
   288
1070
     1
1002
}
  0
DIMENSION
  5
7BE8
  8
3
  2
*D4
 10
5007.8046002061346
 20
7696.4930457656119
 30
0.0
 11
5007.8046002061346
 21
8490.5587976070237
 31
0.0
 70
   128
 13
4487.9157684641586
 23
9296.4930457656137
 33
0.0
 14
4487.9163326458211
 24
7696.4930457656119
 34
0.0
 50
270.0
1001
ACAD
1000
DSTYLE
1002
{
1070
   287
1070
     3
1070
    40
1040
45.0
1070
   143
1040
0.039
1070
   172
1070
     1
1070
   271
1070
     0
1070
   279
1070
     0
1070
   288
1070
     1
1002
}
  0
DIMENSION
  5
7BF5
  8
3
  2
*D5
 10
1387.9163326456151
 20
7267.2192563987046
 30
0.0
 11
3005.5727763090799
 21
7267.2192563987046
 31
0.0
 70
   128
 13
4487.9163326458211
 23
7696.4930457656119
 33
0.0
 14
1387.9163326456151
 24
7696.4930457656119
 34
0.0
1001
ACAD
1000
DSTYLE
1002
{
1070
   287
1070
     3
1070
    40
1040
45.0
1070
   143
1040
0.039
1070
   172
1070
     1
1070
   271
1070
     0
1070
   279
1070
     0
1070
   288
1070
     1
1002
}
  0
DIMENSION
  5
7C1C
  8
3
  2
*D6
 10
3492.9132252574691
 20
6054.6805728768013
 30
0.0
 11
2696.8214698116822
 21
6054.6805728768013
 31
0.0
 70
   128
 13
1842.9132252574691
 23
5720.1148040149046
 33
0.0
 14
3492.9132252574691
 24
5720.1148040149073
 34
0.0
1001
ACAD
1000
DSTYLE
1002
{
1070
   287
1070
     3
1070
    40
1040
45.0
1070
   143
1040
0.039
1070
   172
1070
     1
1070
   271
1070
     0
1070
   279
1070
     0
1070
   288
1070
     1
1002
}
  0
DIMENSION
  5
7C29
  8
3
  2
*D7
 10
3537.9142252574711
 20
6320.142472663887
 30
0.0
 11
2718.9250231208862
 21
6320.142472663887
 31
0.0
 70
   128
 13
1842.9132252574691
 23
5720.1148040149046
 33
0.0
 14
3537.9142252574711
 24
5814.7900302172848
 34
0.0
1001
ACAD
1000
DSTYLE
1002
{
1070
   287
1070
     3
1070
    40
1040
45.0
1070
   143
1040
0.039
1070
   172
1070
     1
1070
   271
1070
     0
1070
   279
1070
     0
1070
   288
1070
     1
1002
}
  0
DIMENSION
  5
7CE2
  8
3
  2
*D9
 10
7684.7075220183988
 20
5962.3831953071658
 30
0.0
 11
7094.8044320273484
 21
5962.3831953071658
 31
0.0
 70
   128
 13
6504.7075220183988
 23
5720.1148040149064
 33
0.0
 14
7684.7075220183988
 24
5720.1148040149046
 34
0.0
1001
ACAD
1000
DSTYLE
1002
{
1070
   287
1070
     3
1070
    40
1040
45.0
1070
   143
1040
0.039
1070
   172
1070
     1
1070
   271
1070
     0
1070
   279
1070
     0
1070
   288
1070
     1
1002
}
  0
DIMENSION
  5
7CEF
  8
3
  2
*D10
 10
7094.7075337226233
 20
6316.9667090365201
 30
0.0
 11
7458.1237834840786
 21
6316.9667090365201
 31
0.0
 70
   128
 13
7819.7115220183987
 23
5540.1120292303503
 33
0.0
 14
7094.7075337226233
 24
6160.4381533603764
 34
0.0
1001
ACAD
1000
DSTYLE
1002
{
1070
   287
1070
     3
1070
    40
1040
45.0
1070
   143
1040
0.039
1070
   172
1070
     1
1070
   271
1070
     0
1070
   279
1070
     0
1070
   288
1070
     1
1002
}
  0
DIMENSION
  5
7CFB
  8
3
  2
*D11
 10
6114.7075004250046
 20
6316.9667090365201
 30
0.0
 11
6604.7075170738162
 21
6541.966709036521
 31
0.0
 70
     0
  1
MAX\P1080
 13
7094.7075337226233
 23
6160.4381533603764
 33
0.0
 14
6114.7075004250046
 24
5125.1160017558468
 34
0.0
1001
ACAD
1000
DSTYLE
1002
{
1070
   287
1070
     4
1070
    40
1040
45.0
1070
    75
1070
     1
1070
   143
1040
0.039
1070
   172
1070
     1
1070
   271
1070
     0
1070
   279
1070
     1
1070
   288
1070
     1
1002
}
  0
DIMENSION
  5
7D12
  8
3
  2
*D12
 10
8157.1611522942476
 20
3875.1160017558468
 30
0.0
 11
8157.1611522942476
 21
4676.458470169644
 31
0.0
 70
   128
 13
7819.7115220183987
 23
5475.1160017558459
 33
0.0
 14
7819.7115220183987
 24
3875.1160017558468
 34
0.0
 50
90.0
1001
ACAD
1000
DSTYLE
1002
{
1070
   287
1070
     3
1070
     3
1000
φ<>
1070
    40
1040
45.0
1070
   143
1040
0.039
1070
   172
1070
     1
1070
   271
1070
     0
1070
   279
1070
     0
1070
   288
1070
     1
1002
}
  0
LINE
  5
7D4E
  8
4
 10
8325.0
 20
2250.0
 30
0.0
 11
8325.0
 21
1350.0
 31
0.0
  0
LINE
  5
7D4F
  8
4
 10
5175.0
 20
2250.0
 30
0.0
 11
5175.0
 21
1350.0
 31
0.0
  0
LINE
  5
7D50
  8
4
 10
2925.0
 20
2250.0
 30
0.0
 11
2925.0
 21
1350.0
 31
0.0
  0
LINE
  5
7D53
  8
4
 10
2925.0
 20
1350.0
 30
0.0
 11
8325.0
 21
1350.0
 31
0.0
  0
LINE
  5
7D54
  8
4
 10
2925.0
 20
1800.0
 30
0.0
 11
8325.0
 21
1800.0
 31
0.0
  0
TEXT
  5
7D55
  8
4
 10
3098.259363811057
 20
1941.943616399758
 30
0.0
 40
225.0
  1
機器名称
  0
TEXT
  5
7D56
  8
4
 10
3088.1614771115892
 20
1447.403205294049
 30
0.0
 40
225.0
  1
機器型番
  0
TEXT
  5
7D57
  8
4
 10
5300.599808767035
 20
1901.08183855313
 30
0.0
 40
191.25
  1
ミツヤリミットロードファン
  0
TEXT
  5
7D58
  8
4
 10
5339.9452301346628
 20
1427.218129259745
 30
0.0
 40
225.0
  1
LL#10-4
  0
TEXT
  5
7D5A
  8
4
 10
3547.4348141053201
 20
10725.429785996321
 30
0.0
 40
242.99999999999989
  1
床置ベット
  0
TEXT
  5
7D5B
  8
4
 10
1403.9135869855461
 20
11410.38245714243
 30
0.0
 40
275.39999999999998
  1
ベルト駆動式片吸込両持リミットロードファン
  0
LINE
  5
7D5C
  8
4
 10
1125.0
 20
11112.33939419162
 30
0.0
 11
8325.0
 21
11112.33939419162
 31
0.0
  0
LINE
  5
7D5D
  8
4
 10
1125.0
 20
12012.33939419162
 30
0.0
 11
8325.0
 21
12012.33939419162
 31
0.0
  0
LINE
  5
7D5E
  8
4
 10
2925.0
 20
2250.0
 30
0.0
 11
8325.0
 21
2250.0
 31
0.0
  0
LINE
  5
7D5F
  8
4
 10
1125.0
 20
12012.33939419162
 30
0.0
 11
1125.0
 21
11112.33939419162
 31
0.0
  0
TEXT
  5
7D60
  8
4
 10
1586.0700690131589
 20
10720.437648958539
 30
0.0
 40
242.99999999999989
  1
右回転上向
  0
TEXT
  5
7D61
  8
4
 10
6610.3630166218027
 20
12177.274866728891
 30
0.0
 40
252.0
  1
No.
  0
TEXT
  5
7D62
  8
4
 10
5900.832281700059
 20
10725.429785996321
 30
0.0
 40
242.99999999999989
  1
縮尺：1/45
  0
LINE
  5
7D63
  8
4
 10
8325.0
 20
12012.33939419162
 30
0.0
 11
8325.0
 21
11112.33939419162
 31
0.0
  0
LINE
  5
7D64
  8
4
 10
9450.0
 20
13275.0
 30
0.0
 11
9450.0
 21
13275.0
 31
0.0
  0
LINE
  5
7D65
  8
4
 10
6482.7784006193906
 20
12065.686124064299
 30
0.0
 11
6482.7784006193906
 21
12539.935176973881
 31
0.0
  0
LINE
  5
7D66
  8
4
 10
6482.7784006193906
 20
12539.935176973881
 30
0.0
 11
8325.0
 21
12539.935176973881
 31
0.0
  0
LINE
  5
7D67
  8
4
 10
8325.0
 20
12539.935176973881
 30
0.0
 11
8325.0
 21
12065.686124064299
 31
0.0
  0
LINE
  5
7D68
  8
4
 10
8325.0
 20
12065.686124064299
 30
0.0
 11
6482.7784006193906
 21
12065.686124064299
 31
0.0
  0
LINE
  5
7D69
  8
4
 10
0.0
 20
0.0
 30
0.0
 11
0.0
 21
13275.0
 31
0.0
  0
LINE
  5
7D6A
  8
4
 10
0.0
 20
13275.0
 30
0.0
 11
9450.0
 21
13275.0
 31
0.0
  0
LINE
  5
7D6B
  8
4
 10
9450.0
 20
13275.0
 30
0.0
 11
9450.0
 21
0.0
 31
0.0
  0
LINE
  5
7D6C
  8
4
 10
9450.0
 20
0.0
 30
0.0
 11
0.0
 21
0.0
 31
0.0
  0
LINE
  5
7DB8
  8
1
 10
1795.625500190466
 20
3557.5642716226471
 30
0.0
 11
3661.578703454617
 21
4401.7874276679386
 31
0.0
  0
LINE
  5
7DB9
  8
1
 10
1848.3267767443599
 20
3427.804682348682
 30
0.0
 11
3727.1897102600492
 21
4234.0095555879834
 31
0.0
  0
DIMENSION
  5
7DC5
  8
3
  2
*D13
 10
4676.9142252574711
 20
6320.142472663887
 30
0.0
 11
4107.4142252574702
 21
6432.6424726638879
 31
0.0
 70
     0
 13
3537.9142252574711
 23
5814.7900302172848
 33
0.0
 14
4676.9142252574711
 24
4559.1138040149071
 34
0.0
1001
ACAD
1000
DSTYLE
1002
{
1070
   287
1070
     4
1070
    40
1040
45.0
1070
    75
1070
     1
1070
   143
1040
0.039
1070
   172
1070
     1
1070
   271
1070
     0
1070
   279
1070
     1
1070
   288
1070
     1
1002
}
  0
DIMENSION
  5
7E0F
  8
3
  2
*D14
 10
5182.9442543815139
 20
3275.1160017558459
 30
0.0
 11
5070.4442543815121
 21
3975.1160017558468
 31
0.0
 70
     0
 13
4789.9717690140269
 23
4675.1160017558468
 33
0.0
 14
4487.9166110832066
 24
3275.1160017558468
 34
0.0
 50
270.0
1001
ACAD
1000
DSTYLE
1002
{
1070
   287
1070
     4
1070
    40
1040
45.0
1070
    75
1070
     1
1070
   143
1040
0.039
1070
   172
1070
     1
1070
   271
1070
     0
1070
   279
1070
     1
1070
   288
1070
     1
1002
}
  0
DIMENSION
  5
7E1B
  8
3
  2
*D15
 10
5182.9442543815139
 20
5720.1148040149073
 30
0.0
 11
5070.4442543815121
 21
5197.6154028853789
 31
0.0
 70
     0
 13
4789.9717690140269
 23
4675.1160017558468
 33
0.0
 14
3557.9132252574691
 24
5720.1148040149073
 34
0.0
 50
270.0
1001
ACAD
1000
DSTYLE
1002
{
1070
   287
1070
     3
1070
    40
1040
45.0
1070
   143
1040
0.039
1070
   172
1070
     1
1070
   271
1070
     0
1070
   279
1070
     0
1070
   288
1070
     1
1002
}
  0
DIMENSION
  5
7E81
  8
3
  2
*D16
 10
1387.9166098496701
 20
6629.0562784511631
 30
0.0
 11
3082.7787137631199
 21
6629.0562784511631
 31
0.0
 70
   128
 13
4676.9142252574711
 23
4559.1138040149071
 33
0.0
 14
1387.9166098496701
 24
3425.1167759462769
 34
0.0
1001
ACAD
1000
DSTYLE
1002
{
1070
   287
1070
     3
1070
    40
1040
45.0
1070
   143
1040
0.039
1070
   172
1070
     1
1070
   271
1070
     0
1070
   279
1070
     0
1070
   288
1070
     1
1002
}
  0
LINE
  5
7EDB
  8
1
 10
7752.9065220184029
 20
5714.1148040149037
 30
0.0
 11
6436.5075220184017
 21
5714.1148040149064
 31
0.0
  0
LINE
  5
7EDC
  8
1
 10
7752.9065220184029
 20
5655.1148040149037
 30
0.0
 11
6436.5075220184017
 21
5655.1148040149073
 31
0.0
  0
LINE
  5
7EDF
  8
1
 10
4676.9165857325333
 20
8037.4920366858651
 30
0.0
 11
4676.9165857325333
 21
9217.492036685866
 31
0.0
  0
LINE
  5
7EE0
  8
1
 10
1842.9165857325329
 20
8037.4921620924388
 30
0.0
 11
1842.9165857325329
 21
9217.4921620924397
 31
0.0
  0
LINE
  5
7EE1
  8
1
 10
3557.9165857325329
 20
9282.4920862024355
 30
0.0
 11
1777.9165857325329
 21
9282.4921649687385
 31
0.0
  0
LINE
  5
7EE2
  8
1
 10
1777.9165857325329
 20
7972.4921649687376
 30
0.0
 11
1777.9165857325329
 21
9282.4921649687385
 31
0.0
  0
LINE
  5
7EE3
  8
1
 10
3557.9165857325329
 20
7972.4920862024346
 30
0.0
 11
1777.9165857325329
 21
7972.4921649687376
 31
0.0
  0
LINE
  5
7EE4
  8
1
 10
3492.9165857325329
 20
8037.4920890787316
 30
0.0
 11
3492.9165857325329
 21
9217.4920890787344
 31
0.0
  0
LINE
  5
7EE5
  8
1
 10
3557.9165857325329
 20
7972.4920862024346
 30
0.0
 11
3557.9165857325329
 21
9282.4920890787344
 31
0.0
  0
LINE
  5
7EE6
  8
1
 10
3492.9165857325329
 20
9217.4920890787325
 30
0.0
 11
1842.9165857325329
 21
9217.4921620924415
 31
0.0
  0
LINE
  5
7EE7
  8
1
 10
3492.916585732532
 20
8037.4920890787316
 30
0.0
 11
1842.916585732534
 21
8037.4921620924388
 31
0.0
  0
LINE
  5
7EE9
  8
1
 10
1842.9165857325329
 20
9217.4921620924415
 30
0.0
 11
3492.9165857325329
 21
8037.4920890787316
 31
0.0
  0
LINE
  5
7EEA
  8
1
 10
3492.9165857325329
 20
9217.4920890787325
 30
0.0
 11
1842.9165857325329
 21
8037.4921620924388
 31
0.0
  0
DIMENSION
  5
8023
  8
3
  2
*D17
 10
3537.9166424320392
 20
2977.9478895214229
 30
0.0
 11
2462.9166267576202
 21
3090.4478895214229
 31
0.0
 70
     0
 13
1387.9166110832009
 23
3275.1167759462719
 33
0.0
 14
3537.9166424320392
 24
3275.1162390077438
 34
0.0
1001
ACAD
1000
DSTYLE
1002
{
1070
   287
1070
     3
1070
    40
1040
45.0
1070
   143
1040
0.039
1070
   172
1070
     1
1070
   271
1070
     0
1070
   279
1070
     0
1002
}
  0
DIMENSION
  5
8030
  8
3
  2
*D18
 10
4487.9166110832066
 20
2977.9478895214229
 30
0.0
 11
4012.9166267576229
 21
3090.4478895214229
 31
0.0
 70
     0
 13
3537.9166424320392
 23
3275.1162390077438
 33
0.0
 14
4487.9166110832066
 24
3275.1160017558459
 34
0.0
1001
ACAD
1000
DSTYLE
1002
{
1070
   287
1070
     3
1070
    40
1040
45.0
1070
   143
1040
0.039
1070
   172
1070
     1
1070
   271
1070
     0
1070
   279
1070
     0
1002
}
  0
DIMENSION
  5
803D
  8
3
  2
*D19
 10
7094.7076685282809
 20
2977.9478895214229
 30
0.0
 11
6629.2070952733429
 21
3090.4478895214229
 31
0.0
 70
     0
 13
6163.706522018404
 23
3275.1140292303912
 33
0.0
 14
7094.7076685282809
 24
3275.1134473550378
 34
0.0
1001
ACAD
1000
DSTYLE
1002
{
1070
   287
1070
     3
1070
    40
1040
45.0
1070
   143
1040
0.039
1070
   172
1070
     1
1070
   271
1070
     0
1070
   279
1070
     0
1002
}
  0
DIMENSION
  5
804A
  8
3
  2
*D20
 10
7763.7075934700661
 20
2977.9478895214229
 30
0.0
 11
7429.2076309991744
 21
3090.4478895214229
 31
0.0
 70
     0
 13
7094.7076685282809
 23
3275.1134473550378
 33
0.0
 14
7763.7075934700661
 24
3275.1130292303469
 34
0.0
1001
ACAD
1000
DSTYLE
1002
{
1070
   287
1070
     3
1070
    40
1040
45.0
1070
   143
1040
0.039
1070
   172
1070
     1
1070
   271
1070
     0
1070
   279
1070
     0
1002
}
  0
DIMENSION
  5
8057
  8
3
  2
*D21
 10
5586.9333487828781
 20
3275.1160017558459
 30
0.0
 11
5474.4333487828762
 21
4497.615402885378
 31
0.0
 70
     0
 13
3557.9132252574691
 23
5720.1148040149073
 33
0.0
 14
4487.9166110832066
 24
3275.1160017558468
 34
0.0
 50
90.0
1001
ACAD
1000
DSTYLE
1002
{
1070
   287
1070
     3
1070
    40
1040
45.0
1070
   143
1040
0.039
1070
   172
1070
     1
1070
   271
1070
     0
1070
   279
1070
     0
1002
}
  0
ENDSEC
  0
EOF
