  0
SECTION
  2
HEADER
  9
$ACADVER
  1
AC1009
  9
$INSBASE
 10
0.0
 20
0.0
 30
0.0
  9
$EXTMIN
 10
5215.5346980218783
 20
990.81539569670667
 30
0.0
  9
$EXTMAX
 10
15715.534698021869
 20
15740.815395696711
 30
0.0
  9
$LIMMIN
 10
0.0
 20
0.0
  9
$LIMMAX
 10
297.0
 20
210.0
  9
$ORTHOMODE
 70
     0
  9
$REGENMODE
 70
     1
  9
$FILLMODE
 70
     1
  9
$QTEXTMODE
 70
     0
  9
$MIRRTEXT
 70
     0
  9
$DRAGMODE
 70
     2
  9
$LTSCALE
 40
175.0
  9
$OSMODE
 70
    37
  9
$ATTMODE
 70
     1
  9
$TEXTSIZE
 40
150.0
  9
$TRACEWID
 40
0.05
  9
$TEXTSTYLE
  7
STANDARD
  9
$CLAYER
  8
FUTO
  9
$CELTYPE
  6
BYLAYER
  9
$CECOLOR
 62
   256
  9
$DIMSCALE
 40
35.0
  9
$DIMASZ
 40
2.5
  9
$DIMEXO
 40
1.0
  9
$DIMDLI
 40
10.0
  9
$DIMRND
 40
0.0
  9
$DIMDLE
 40
0.0
  9
$DIMEXE
 40
1.0
  9
$DIMTP
 40
0.0
  9
$DIMTM
 40
0.0
  9
$DIMTXT
 40
3.0
  9
$DIMCEN
 40
0.0
  9
$DIMTSZ
 40
0.0
  9
$DIMTOL
 70
     0
  9
$DIMLIM
 70
     0
  9
$DIMTIH
 70
     0
  9
$DIMTOH
 70
     0
  9
$DIMSE1
 70
     0
  9
$DIMSE2
 70
     0
  9
$DIMTAD
 70
     1
  9
$DIMZIN
 70
     8
  9
$DIMBLK
  1

  9
$DIMASO
 70
     1
  9
$DIMSHO
 70
     1
  9
$DIMPOST
  1

  9
$DIMAPOST
  1

  9
$DIMALT
 70
     0
  9
$DIMALTD
 70
     2
  9
$DIMALTF
 40
0.03937
  9
$DIMLFAC
 40
1.0
  9
$DIMTOFL
 70
     1
  9
$DIMTVP
 40
0.0
  9
$DIMTIX
 70
     0
  9
$DIMSOXD
 70
     0
  9
$DIMSAH
 70
     1
  9
$DIMBLK1
  1
OPEN
  9
$DIMBLK2
  1
OPEN
  9
$DIMSTYLE
  2
MATSU
  9
$DIMCLRD
 70
   256
  9
$DIMCLRE
 70
   256
  9
$DIMCLRT
 70
   256
  9
$DIMTFAC
 40
1.0
  9
$DIMGAP
 40
1.0
  9
$LUNITS
 70
     2
  9
$LUPREC
 70
     4
  9
$SKETCHINC
 40
0.1
  9
$FILLETRAD
 40
30.0
  9
$AUNITS
 70
     0
  9
$AUPREC
 70
     2
  9
$MENU
  1
acad
  9
$ELEVATION
 40
0.0
  9
$PELEVATION
 40
0.0
  9
$THICKNESS
 40
0.0
  9
$LIMCHECK
 70
     0
  9
$BLIPMODE
 70
     0
  9
$CHAMFERA
 40
8.0
  9
$CHAMFERB
 40
8.0
  9
$SKPOLY
 70
     0
  9
$TDCREATE
 40
2453957.375965347
  9
$TDUPDATE
 40
2454953.650139791
  9
$TDINDWG
 40
0.1949009028
  9
$TDUSRTIMER
 40
0.1949009028
  9
$USRTIMER
 70
     1
  9
$ANGBASE
 50
0.0
  9
$ANGDIR
 70
     0
  9
$PDMODE
 70
     0
  9
$PDSIZE
 40
1.0
  9
$PLINEWID
 40
0.0
  9
$COORDS
 70
     1
  9
$SPLFRAME
 70
     0
  9
$SPLINETYPE
 70
     6
  9
$SPLINESEGS
 70
     8
  9
$ATTDIA
 70
     0
  9
$ATTREQ
 70
     1
  9
$HANDLING
 70
 10241
  9
$HANDSEED
  5
9200
  9
$SURFTAB1
 70
     6
  9
$SURFTAB2
 70
     6
  9
$SURFTYPE
 70
     6
  9
$SURFU
 70
     6
  9
$SURFV
 70
     6
  9
$UCSNAME
  2

  9
$UCSORG
 10
0.0
 20
-0.0000000000000142
 30
0.0
  9
$UCSXDIR
 10
1.0
 20
0.0
 30
0.0
  9
$UCSYDIR
 10
0.0
 20
1.0
 30
0.0
  9
$PUCSNAME
  2

  9
$PUCSORG
 10
0.0
 20
0.0
 30
0.0
  9
$PUCSXDIR
 10
1.0
 20
0.0
 30
0.0
  9
$PUCSYDIR
 10
0.0
 20
1.0
 30
0.0
  9
$USERI1
 70
     0
  9
$USERI2
 70
     0
  9
$USERI3
 70
     0
  9
$USERI4
 70
     0
  9
$USERI5
 70
     0
  9
$USERR1
 40
0.0
  9
$USERR2
 40
0.0
  9
$USERR3
 40
0.0
  9
$USERR4
 40
0.0
  9
$USERR5
 40
0.0
  9
$WORLDVIEW
 70
     1
  9
$SHADEDGE
 70
     3
  9
$SHADEDIF
 70
    70
  9
$TILEMODE
 70
     1
  9
$MAXACTVP
 70
    16
  9
$PLIMCHECK
 70
     0
  9
$PEXTMIN
 10
1.0000000000000000E+020
 20
1.0000000000000000E+020
 30
1.0000000000000000E+020
  9
$PEXTMAX
 10
-1.0000000000000000E+020
 20
-1.0000000000000000E+020
 30
-1.0000000000000000E+020
  9
$PLIMMIN
 10
0.0
 20
0.0
  9
$PLIMMAX
 10
12.0
 20
9.0
  9
$UNITMODE
 70
     0
  9
$VISRETAIN
 70
     0
  9
$PLINEGEN
 70
     0
  9
$PSLTSCALE
 70
     0
  0
ENDSEC
  0
SECTION
  2
TABLES
  0
TABLE
  2
VPORT
 70
     2
  0
VPORT
  2
*ACTIVE
 70
     0
 10
0.0
 20
0.0
 11
1.0
 21
1.0
 12
15084.19417961392
 22
2699.3052042347331
 13
0.0
 23
0.0
 14
5.0
 24
5.0
 15
0.0
 25
0.0
 16
0.0
 26
0.0
 36
1.0
 17
0.0
 27
0.0
 37
0.0
 40
4338.5907465779064
 41
3.1666666666666661
 42
50.0
 43
0.0
 44
0.0
 50
0.0
 51
0.0
 71
     0
 72
   100
 73
     1
 74
     0
 75
     0
 76
     0
 77
     0
 78
     0
  0
ENDTAB
  0
TABLE
  2
LTYPE
 70
     4
  0
LTYPE
  2
CONTINUOUS
 70
     0
  3
Solid line
 72
    65
 73
     0
 40
0.0
  0
LTYPE
  2
CENTER
 70
     0
  3
____ _ ____ _ ____ _ ____ _ ____ _ ____ _ ____ 
 72
    65
 73
     4
 40
2.0
 49
1.25
 49
-0.25
 49
0.25
 49
-0.25
  0
LTYPE
  2
HIDDEN
 70
     0
  3
__ __ __ __ __ __ __ __ __ __ __ __ __ __ __ __
 72
    65
 73
     2
 40
0.375
 49
0.25
 49
-0.125
  0
LTYPE
  2
PHANTOM
 70
     0
  3
______  __  __  ______  __  __  ______  __  __ 
 72
    65
 73
     6
 40
2.5
 49
1.25
 49
-0.25
 49
0.25
 49
-0.25
 49
0.25
 49
-0.25
  0
ENDTAB
  0
TABLE
  2
LAYER
 70
     9
  0
LAYER
  2
0
 70
     0
 62
     7
  6
CONTINUOUS
  0
LAYER
  2
CT
 70
     0
 62
     3
  6
CENTER
  0
LAYER
  2
FUTO
 70
     0
 62
     4
  6
CONTINUOUS
  0
LAYER
  2
HOSO
 70
     0
 62
     7
  6
CONTINUOUS
  0
LAYER
  2
KL
 70
     0
 62
     7
  6
HIDDEN
  0
LAYER
  2
SL
 70
     0
 62
     1
  6
PHANTOM
  0
LAYER
  2
SP
 70
     0
 62
     2
  6
CONTINUOUS
  0
LAYER
  2
DEFPOINTS
 70
     0
 62
     7
  6
CONTINUOUS
  0
LAYER
  2
4
 70
     0
 62
     7
  6
CONTINUOUS
  0
ENDTAB
  0
TABLE
  2
STYLE
 70
     1
  0
STYLE
  2
STANDARD
 70
     0
 40
0.0
 41
1.0
 50
15.0
 71
     0
 42
150.0
  3
C:\Program Files\AutoCAD LT\simplex.shx
  4
extfont.shx
  0
ENDTAB
  0
TABLE
  2
VIEW
 70
     0
  0
ENDTAB
  0
TABLE
  2
UCS
 70
     0
  0
ENDTAB
  0
TABLE
  2
APPID
 70
     1
  0
APPID
  2
ACAD
 70
     0
  0
ENDTAB
  0
TABLE
  2
DIMSTYLE
 70
     2
  0
DIMSTYLE
  2
STANDARD
 70
     0
  3

  4

  5

  6

  7

 40
1.0
 41
0.18
 42
0.0625
 43
0.38
 44
0.18
 45
0.0
 46
0.0
 47
0.0
 48
0.0
140
0.18
141
0.09
142
0.0
143
25.399999999999999
144
1.0
145
0.0
146
1.0
147
0.09
 71
     0
 72
     0
 73
     1
 74
     1
 75
     0
 76
     0
 77
     0
 78
     0
170
     0
171
     2
172
     0
173
     0
174
     0
175
     0
176
     0
177
     0
178
     0
  0
DIMSTYLE
  2
MATSU
 70
     0
  3

  4

  5

  6
OPEN
  7
OPEN
 40
1.0
 41
2.0
 42
1.0
 43
10.0
 44
1.0
 45
0.0
 46
0.0
 47
0.0
 48
0.0
140
3.0
141
0.0
142
0.0
143
0.03937
144
1.0
145
0.0
146
1.0
147
0.5
 71
     0
 72
     0
 73
     0
 74
     0
 75
     0
 76
     0
 77
     1
 78
     8
170
     0
171
     2
172
     1
173
     1
174
     0
175
     0
176
   256
177
   256
178
   256
  0
ENDTAB
  0
ENDSEC
  0
SECTION
  2
BLOCKS
  0
BLOCK
  8
0
  2
$MODEL_SPACE
 70
     0
 10
0.0
 20
0.0
 30
0.0
  3
$MODEL_SPACE
  1

  0
ENDBLK
  5
1B
  8
0
  0
BLOCK
 67
     1
  8
0
  2
$PAPER_SPACE
 70
     0
 10
0.0
 20
0.0
 30
0.0
  3
$PAPER_SPACE
  1

  0
ENDBLK
  5
18
 67
     1
  8
0
  0
BLOCK
  8
0
  2
_OPEN
 70
     0
 10
0.0
 20
0.0
 30
0.0
  3
_OPEN
  1

  0
LINE
  5
28
  8
0
  6
BYBLOCK
 62
     0
 10
-1.0
 20
0.1666666666666666
 30
0.0
 11
0.0
 21
0.0
 31
0.0
  0
LINE
  5
29
  8
0
  6
BYBLOCK
 62
     0
 10
0.0
 20
0.0
 30
0.0
 11
-1.0
 21
-0.1666666666666666
 31
0.0
  0
LINE
  5
2A
  8
0
  6
BYBLOCK
 62
     0
 10
0.0
 20
0.0
 30
0.0
 11
-1.0
 21
0.0
 31
0.0
  0
ENDBLK
  5
2B
  8
0
  0
BLOCK
  8
0
  2
まっすぐの矢印
 70
     0
 10
0.0
 20
0.0
 30
0.0
  3
まっすぐの矢印
  1

  0
LINE
  5
56E2
  8
SP
 10
0.6962157491662495
 20
-2.216890595009601
 30
0.0
 11
0.6962157491662495
 21
-5.0
 31
0.0
  0
LINE
  5
56E3
  8
SP
 10
0.6962157491662495
 20
-5.0
 30
0.0
 11
-0.6962157491662495
 21
-5.0
 31
0.0
  0
LINE
  5
56E4
  8
SP
 10
-0.6962157491662495
 20
-5.0
 30
0.0
 11
-0.6962157491662495
 21
-2.216890595009601
 31
0.0
  0
LINE
  5
56E5
  8
SP
 10
-0.6962157491662495
 20
-2.216890595009601
 30
0.0
 11
-1.7145256852758151
 21
-2.216890595009601
 31
0.0
  0
LINE
  5
56E6
  8
SP
 10
-1.7145256852758151
 20
-2.216890595009601
 30
0.0
 11
0.0
 21
0.0
 31
0.0
  0
LINE
  5
56E7
  8
SP
 10
0.0
 20
0.0
 30
0.0
 11
1.7145256852758151
 21
-2.216890595009601
 31
0.0
  0
LINE
  5
56E8
  8
SP
 10
1.7145256852758151
 20
-2.216890595009601
 30
0.0
 11
0.6962157491662495
 21
-2.216890595009601
 31
0.0
  0
ENDBLK
  5
56EA
  8
0
  0
BLOCK
  8
0
  2
右回転矢印
 70
     0
 10
0.0
 20
0.0
 30
0.0
  3
右回転矢印
  1

  0
LINE
  5
56EC
  8
SP
 10
-2.7705290305565882
 20
1.567794835092901
 30
0.0
 11
-2.4288000558398148
 21
2.8051227455822878
 31
0.0
  0
LINE
  5
56ED
  8
SP
 10
-2.4288000558398148
 20
2.8051227455822878
 30
0.0
 11
0.0
 21
0.0
 31
0.0
  0
LINE
  5
56EE
  8
SP
 10
0.0
 20
0.0
 30
0.0
 11
-3.3160037613098718
 21
-0.4072531086382499
 31
0.0
  0
LINE
  5
56EF
  8
SP
 10
-3.3160037613098718
 20
-0.4072531086382499
 30
0.0
 11
-3.0391574735299112
 21
0.5951483970269315
 31
0.0
  0
ARC
  5
56F0
  8
SP
 10
-5.9215210782018062
 20
-9.8412769578768184
 30
0.0
 40
10.82714154973578
 50
74.560750721316467
 51
112.11861101078711
  0
LINE
  5
56F1
  8
SP
 10
-9.9982127316752951
 20
0.1890560027239694
 30
0.0
 11
-10.37814929817227
 21
1.1238557349100611
 31
0.0
  0
ARC
  5
56F2
  8
SP
 10
-5.9215210782018062
 20
-9.8412769578768291
 30
0.0
 40
11.83620167374065
 50
74.560750721316396
 51
112.11861101078701
  0
ENDBLK
  5
56F4
  8
0
  0
BLOCK
  8
0
  2
*D3
 70
     1
 10
0.0
 20
0.0
 30
0.0
  3
*D3
  1

  0
LINE
  5
916F
  8
SP
 10
7751.5904541127929
 20
4980.5555879455524
 30
0.0
 11
7751.5904541127929
 21
4730.0432777624483
 31
0.0
  0
LINE
  5
9170
  8
SP
 10
8701.5904541127948
 20
4980.5555879455524
 30
0.0
 11
8701.5904541127948
 21
4730.0432777624483
 31
0.0
  0
LINE
  5
9171
  8
SP
 10
7839.0904541127939
 20
4765.0432777624483
 30
0.0
 11
8614.0904541127948
 21
4765.0432777624483
 31
0.0
  0
INSERT
  5
9172
  8
SP
  2
_OPEN
 10
7751.5904541127929
 20
4765.0432777624483
 30
0.0
 41
87.5
 42
87.5
 43
87.5
 50
180.0
  0
INSERT
  5
9173
  8
SP
  2
_OPEN
 10
8701.5904541127948
 20
4765.0432777624483
 30
0.0
 41
87.5
 42
87.5
 43
87.5
  0
TEXT
  5
9174
  8
FUTO
 10
8078.1929944912372
 20
4800.0432777624483
 30
0.0
 40
105.0
  1
950
 51
15.0
  0
POINT
  5
9175
  8
DEFPOINTS
 62
     0
 10
7751.5904541127929
 20
5015.5555879455515
 30
0.0
  0
POINT
  5
9176
  8
DEFPOINTS
 62
     0
 10
8701.5904541127948
 20
5015.5555879455515
 30
0.0
  0
POINT
  5
9177
  8
DEFPOINTS
 62
     0
 10
8701.5904541127948
 20
4765.0432777624483
 30
0.0
  0
ENDBLK
  5
6A60
  8
0
  0
BLOCK
  8
0
  2
*D4
 70
     1
 10
0.0
 20
0.0
 30
0.0
  3
*D4
  1

  0
LINE
  5
918A
  8
SP
 10
8701.5904541127948
 20
5070.5555879455524
 30
0.0
 11
8701.5904541127948
 21
4730.0432777624483
 31
0.0
  0
LINE
  5
918B
  8
SP
 10
10251.590454112789
 20
5070.5555879455524
 30
0.0
 11
10251.590454112789
 21
4730.0432777624483
 31
0.0
  0
LINE
  5
918C
  8
SP
 10
8789.0904541127929
 20
4765.0432777624483
 30
0.0
 11
10164.090454112789
 21
4765.0432777624483
 31
0.0
  0
INSERT
  5
918D
  8
SP
  2
_OPEN
 10
8701.5904541127948
 20
4765.0432777624483
 30
0.0
 41
87.5
 42
87.5
 43
87.5
 50
180.0
  0
INSERT
  5
918E
  8
SP
  2
_OPEN
 10
10251.590454112789
 20
4765.0432777624483
 30
0.0
 41
87.5
 42
87.5
 43
87.5
  0
TEXT
  5
918F
  8
FUTO
 10
9281.3147727561482
 20
4800.0432777624483
 30
0.0
 40
105.0
  1
1550
 51
15.0
  0
POINT
  5
9190
  8
DEFPOINTS
 62
     0
 10
8701.5904541127948
 20
5105.5555879455524
 30
0.0
  0
POINT
  5
9191
  8
DEFPOINTS
 62
     0
 10
10251.590454112789
 20
5105.5555879455524
 30
0.0
  0
POINT
  5
9192
  8
DEFPOINTS
 62
     0
 10
10251.590454112789
 20
4765.0432777624483
 30
0.0
  0
ENDBLK
  5
6A6D
  8
0
  0
BLOCK
  8
0
  2
*D5
 70
     1
 10
0.0
 20
0.0
 30
0.0
  3
*D5
  1

  0
LINE
  5
9166
  8
SP
 10
7751.5904541127929
 20
4980.5555879455524
 30
0.0
 11
7751.5904541127929
 21
4479.9555337647898
 31
0.0
  0
LINE
  5
9167
  8
SP
 10
10251.590454112789
 20
4980.5555879455524
 30
0.0
 11
10251.590454112789
 21
4479.9555337647898
 31
0.0
  0
LINE
  5
9168
  8
SP
 10
7839.0904541127939
 20
4514.9555337647907
 30
0.0
 11
10164.090454112789
 21
4514.9555337647907
 31
0.0
  0
INSERT
  5
9169
  8
SP
  2
_OPEN
 10
7751.5904541127929
 20
4514.9555337647907
 30
0.0
 41
87.5
 42
87.5
 43
87.5
 50
180.0
  0
INSERT
  5
916A
  8
SP
  2
_OPEN
 10
10251.590454112789
 20
4514.9555337647907
 30
0.0
 41
87.5
 42
87.5
 43
87.5
  0
TEXT
  5
916B
  8
FUTO
 10
8807.7026134344705
 20
4549.9555337647898
 30
0.0
 40
105.0
  1
2500
 51
15.0
  0
POINT
  5
916C
  8
DEFPOINTS
 62
     0
 10
7751.5904541127929
 20
5015.5555879455515
 30
0.0
  0
POINT
  5
916D
  8
DEFPOINTS
 62
     0
 10
10251.590454112789
 20
5015.5555879455515
 30
0.0
  0
POINT
  5
916E
  8
DEFPOINTS
 62
     0
 10
10251.590454112789
 20
4514.9555337647907
 30
0.0
  0
ENDBLK
  5
6A7A
  8
0
  0
BLOCK
  8
0
  2
*D6
 70
     1
 10
0.0
 20
0.0
 30
0.0
  3
*D6
  1

  0
LINE
  5
91BF
  8
SP
 10
11226.747970456619
 20
4980.5555879455496
 30
0.0
 11
11226.747970456619
 21
4730.0432543746101
 31
0.0
  0
LINE
  5
91C0
  8
SP
 10
12857.747970456619
 20
4980.5555879455524
 30
0.0
 11
12857.747970456619
 21
4730.0432543746101
 31
0.0
  0
LINE
  5
91C1
  8
SP
 10
11314.247970456619
 20
4765.0432543746092
 30
0.0
 11
12770.247970456619
 21
4765.0432543746092
 31
0.0
  0
INSERT
  5
91C2
  8
SP
  2
_OPEN
 10
11226.747970456619
 20
4765.0432543746092
 30
0.0
 41
87.5
 42
87.5
 43
87.5
 50
180.0
  0
INSERT
  5
91C3
  8
SP
  2
_OPEN
 10
12857.747970456619
 20
4765.0432543746092
 30
0.0
 41
87.5
 42
87.5
 43
87.5
  0
TEXT
  5
91C4
  8
FUTO
 10
11864.29279717566
 20
4800.0432543746101
 30
0.0
 40
105.0
  1
1631
 51
15.0
  0
POINT
  5
91C5
  8
DEFPOINTS
 62
     0
 10
11226.747970456619
 20
5015.5555879455496
 30
0.0
  0
POINT
  5
91C6
  8
DEFPOINTS
 62
     0
 10
12857.747970456619
 20
5015.5555879455515
 30
0.0
  0
POINT
  5
91C7
  8
DEFPOINTS
 62
     0
 10
12857.747970456619
 20
4765.0432543746092
 30
0.0
  0
ENDBLK
  5
6A87
  8
0
  0
BLOCK
  8
0
  2
*D7
 70
     1
 10
0.0
 20
0.0
 30
0.0
  3
*D7
  1

  0
LINE
  5
91C8
  8
SP
 10
12857.747970456619
 20
4980.5555879455524
 30
0.0
 11
12857.747970456619
 21
4730.0432543746101
 31
0.0
  0
LINE
  5
91C9
  8
SP
 10
13526.747970456619
 20
4980.5555879455496
 30
0.0
 11
13526.747970456619
 21
4730.0432543746101
 31
0.0
  0
LINE
  5
91CA
  8
SP
 10
12945.247970456619
 20
4765.0432543746092
 30
0.0
 11
13439.247970456619
 21
4765.0432543746092
 31
0.0
  0
INSERT
  5
91CB
  8
SP
  2
_OPEN
 10
12857.747970456619
 20
4765.0432543746092
 30
0.0
 41
87.5
 42
87.5
 43
87.5
 50
180.0
  0
INSERT
  5
91CC
  8
SP
  2
_OPEN
 10
13526.747970456619
 20
4765.0432543746092
 30
0.0
 41
87.5
 42
87.5
 43
87.5
  0
TEXT
  5
91CD
  8
FUTO
 10
13045.68063785398
 20
4800.0432543746101
 30
0.0
 40
105.0
  1
669
 51
15.0
  0
POINT
  5
91CE
  8
DEFPOINTS
 62
     0
 10
12857.747970456619
 20
5015.5555879455515
 30
0.0
  0
POINT
  5
91CF
  8
DEFPOINTS
 62
     0
 10
13526.747970456619
 20
5015.5555879455496
 30
0.0
  0
POINT
  5
91D0
  8
DEFPOINTS
 62
     0
 10
13526.747970456619
 20
4765.0432543746092
 30
0.0
  0
ENDBLK
  5
6A94
  8
0
  0
BLOCK
  8
0
  2
*D8
 70
     1
 10
0.0
 20
0.0
 30
0.0
  3
*D8
  1

  0
LINE
  5
91B6
  8
SP
 10
11226.747970456619
 20
4980.5555879455496
 30
0.0
 11
11226.747970456619
 21
4479.9555103769517
 31
0.0
  0
LINE
  5
91B7
  8
SP
 10
13526.747970456619
 20
4980.5555879455496
 30
0.0
 11
13526.747970456619
 21
4479.9555103769517
 31
0.0
  0
LINE
  5
91B8
  8
SP
 10
11314.247970456619
 20
4514.9555103769517
 30
0.0
 11
13439.247970456619
 21
4514.9555103769517
 31
0.0
  0
INSERT
  5
91B9
  8
SP
  2
_OPEN
 10
11226.747970456619
 20
4514.9555103769517
 30
0.0
 41
87.5
 42
87.5
 43
87.5
 50
180.0
  0
INSERT
  5
91BA
  8
SP
  2
_OPEN
 10
13526.747970456619
 20
4514.9555103769517
 30
0.0
 41
87.5
 42
87.5
 43
87.5
  0
TEXT
  5
91BB
  8
FUTO
 10
12182.860129778301
 20
4549.9555103769517
 30
0.0
 40
105.0
  1
2300
 51
15.0
  0
POINT
  5
91BC
  8
DEFPOINTS
 62
     0
 10
11226.747970456619
 20
5015.5555879455496
 30
0.0
  0
POINT
  5
91BD
  8
DEFPOINTS
 62
     0
 10
13526.747970456619
 20
5015.5555879455496
 30
0.0
  0
POINT
  5
91BE
  8
DEFPOINTS
 62
     0
 10
13526.747970456619
 20
4514.9555103769517
 30
0.0
  0
ENDBLK
  5
6AA1
  8
0
  0
BLOCK
  8
0
  2
*D9
 70
     1
 10
0.0
 20
0.0
 30
0.0
  3
*D9
  1

  0
LINE
  5
91AD
  8
SP
 10
12857.747970456619
 20
8629.1572300135595
 30
0.0
 11
12857.747970456619
 21
8675.1296095625257
 31
0.0
  0
LINE
  5
91AE
  8
SP
 10
13582.747970456619
 20
8066.0924615527747
 30
0.0
 11
13582.747970456619
 21
8675.1296095625257
 31
0.0
  0
LINE
  5
91AF
  8
SP
 10
12945.247970456619
 20
8640.1296095625257
 30
0.0
 11
13495.247970456619
 21
8640.1296095625257
 31
0.0
  0
INSERT
  5
91B0
  8
SP
  2
_OPEN
 10
12857.747970456619
 20
8640.1296095625257
 30
0.0
 41
87.5
 42
87.5
 43
87.5
 50
180.0
  0
INSERT
  5
91B1
  8
SP
  2
_OPEN
 10
13582.747970456619
 20
8640.1296095625257
 30
0.0
 41
87.5
 42
87.5
 43
87.5
  0
TEXT
  5
91B2
  8
FUTO
 10
13066.18063785399
 20
8675.1296095625257
 30
0.0
 40
105.0
  1
725
 51
15.0
  0
POINT
  5
91B3
  8
DEFPOINTS
 62
     0
 10
12857.747970456619
 20
8594.1572300135576
 30
0.0
  0
POINT
  5
91B4
  8
DEFPOINTS
 62
     0
 10
13582.747970456619
 20
8031.0924615527747
 30
0.0
  0
POINT
  5
91B5
  8
DEFPOINTS
 62
     0
 10
13582.747970456619
 20
8640.1296095625257
 30
0.0
  0
ENDBLK
  5
6AFF
  8
0
  0
BLOCK
  8
0
  2
*D10
 70
     1
 10
0.0
 20
0.0
 30
0.0
  3
*D10
  1

  0
LINE
  5
91D1
  8
SP
 10
13617.747970456619
 20
7980.5555879455515
 30
0.0
 11
13896.9413716585
 21
7980.5555879455515
 31
0.0
  0
LINE
  5
91D2
  8
SP
 10
13617.747970456619
 20
6380.5555879455515
 30
0.0
 11
13896.9413716585
 21
6380.5555879455515
 31
0.0
  0
LINE
  5
91D3
  8
SP
 10
13861.9413716585
 20
7893.0555879455515
 30
0.0
 11
13861.9413716585
 21
6468.0555879455515
 31
0.0
  0
INSERT
  5
91D4
  8
SP
  2
_OPEN
 10
13861.9413716585
 20
7980.5555879455515
 30
0.0
 41
87.5
 42
87.5
 43
87.5
 50
90.0
  0
INSERT
  5
91D5
  8
SP
  2
_OPEN
 10
13861.9413716585
 20
6380.5555879455515
 30
0.0
 41
87.5
 42
87.5
 43
87.5
 50
270.0
  0
TEXT
  5
91D6
  8
FUTO
 10
13826.94137165849
 20
6948.8568581347736
 30
0.0
 40
105.0
  1
φ1600
 50
90.0
 51
15.0
  0
POINT
  5
91D7
  8
DEFPOINTS
 62
     0
 10
13582.747970456619
 20
7980.5555879455515
 30
0.0
  0
POINT
  5
91D8
  8
DEFPOINTS
 62
     0
 10
13582.747970456619
 20
6380.5555879455515
 30
0.0
  0
POINT
  5
91D9
  8
DEFPOINTS
 62
     0
 10
13861.9413716585
 20
6380.5555879455515
 30
0.0
  0
ENDBLK
  5
6F63
  8
0
  0
BLOCK
  8
0
  2
*D11
 70
     1
 10
0.0
 20
0.0
 30
0.0
  3
*D11
  1

  0
LINE
  5
91A5
  8
SP
 10
10977.747970456619
 20
7580.8241792584249
 30
0.0
 11
10977.747970456619
 21
8675.1296095625257
 31
0.0
  0
LINE
  5
91A6
  8
SP
 10
11065.247970456619
 20
8640.1296095625257
 30
0.0
 11
12770.247970456619
 21
8640.1296095625257
 31
0.0
  0
INSERT
  5
91A7
  8
SP
  2
_OPEN
 10
10977.747970456619
 20
8640.1296095625257
 30
0.0
 41
87.5
 42
87.5
 43
87.5
 50
180.0
  0
INSERT
  5
91A8
  8
SP
  2
_OPEN
 10
12857.747970456619
 20
8640.1296095625257
 30
0.0
 41
87.5
 42
87.5
 43
87.5
  0
TEXT
  5
91A9
  8
FUTO
 10
11722.47228909998
 20
8675.1296095625257
 30
0.0
 40
105.0
  1
1880
 51
15.0
  0
POINT
  5
91AA
  8
DEFPOINTS
 62
     0
 10
10977.747970456619
 20
7545.824179258424
 30
0.0
  0
POINT
  5
91AB
  8
DEFPOINTS
 62
     0
 10
12857.747970456619
 20
8640.1296095625257
 30
0.0
  0
POINT
  5
91AC
  8
DEFPOINTS
 62
     0
 10
12857.747970456619
 20
8640.1296095625257
 30
0.0
  0
ENDBLK
  5
6FBD
  8
0
  0
BLOCK
  8
0
  2
*D12
 70
     1
 10
0.0
 20
0.0
 30
0.0
  3
*D12
  1

  0
LINE
  5
9154
  8
SP
 10
10499.590454112789
 20
11248.96550914665
 30
0.0
 11
10842.21021442639
 21
11248.96550914665
 31
0.0
  0
LINE
  5
9155
  8
SP
 10
9601.5904541127948
 20
11973.96550914665
 30
0.0
 11
10842.21021442639
 21
11973.96550914665
 31
0.0
  0
LINE
  5
9156
  8
SP
 10
10807.21021442639
 20
11336.46550914665
 30
0.0
 11
10807.21021442639
 21
11886.46550914665
 31
0.0
  0
INSERT
  5
9157
  8
SP
  2
_OPEN
 10
10807.21021442639
 20
11248.96550914665
 30
0.0
 41
87.5
 42
87.5
 43
87.5
 50
270.0
  0
INSERT
  5
9158
  8
SP
  2
_OPEN
 10
10807.21021442639
 20
11973.96550914665
 30
0.0
 41
87.5
 42
87.5
 43
87.5
 50
90.0
  0
TEXT
  5
9159
  8
FUTO
 10
10772.210214426381
 20
11457.39817654402
 30
0.0
 40
105.0
  1
725
 50
90.0
 51
15.0
  0
POINT
  5
915A
  8
DEFPOINTS
 62
     0
 10
10464.590454112789
 20
11248.96550914665
 30
0.0
  0
POINT
  5
915B
  8
DEFPOINTS
 62
     0
 10
9566.5904541127929
 20
11973.96550914665
 30
0.0
  0
POINT
  5
915C
  8
DEFPOINTS
 62
     0
 10
10807.21021442639
 20
11973.96550914665
 30
0.0
  0
ENDBLK
  5
80A1
  8
0
  0
BLOCK
  8
0
  2
*D13
 70
     1
 10
0.0
 20
0.0
 30
0.0
  3
*D13
  1

  0
LINE
  5
914B
  8
SP
 10
10499.590454112789
 20
11248.96550914665
 30
0.0
 11
10842.21021442639
 21
11248.96550914665
 31
0.0
  0
LINE
  5
914C
  8
SP
 10
10190.090454112789
 20
9368.9655091466539
 30
0.0
 11
10842.21021442639
 21
9368.9655091466539
 31
0.0
  0
LINE
  5
914D
  8
SP
 10
10807.21021442639
 20
11161.46550914665
 30
0.0
 11
10807.21021442639
 21
9456.4655091466539
 31
0.0
  0
INSERT
  5
914E
  8
SP
  2
_OPEN
 10
10807.21021442639
 20
11248.96550914665
 30
0.0
 41
87.5
 42
87.5
 43
87.5
 50
90.0
  0
INSERT
  5
914F
  8
SP
  2
_OPEN
 10
10807.21021442639
 20
9368.9655091466539
 30
0.0
 41
87.5
 42
87.5
 43
87.5
 50
270.0
  0
TEXT
  5
9150
  8
FUTO
 10
10772.210214426381
 20
10113.689827790011
 30
0.0
 40
105.0
  1
1880
 50
90.0
 51
15.0
  0
POINT
  5
9151
  8
DEFPOINTS
 62
     0
 10
10464.590454112789
 20
11248.96550914665
 30
0.0
  0
POINT
  5
9152
  8
DEFPOINTS
 62
     0
 10
10155.090454112789
 20
9368.9655091466539
 30
0.0
  0
POINT
  5
9153
  8
DEFPOINTS
 62
     0
 10
10807.21021442639
 20
9368.9655091466539
 30
0.0
  0
ENDBLK
  5
80AE
  8
0
  0
BLOCK
  8
0
  2
*D14
 70
     1
 10
0.0
 20
0.0
 30
0.0
  3
*D14
  1

  0
LINE
  5
919C
  8
SP
 10
8701.5904541127948
 20
12053.743420963519
 30
0.0
 11
8701.5904541127948
 21
12319.896398125171
 31
0.0
  0
LINE
  5
919D
  8
SP
 10
10251.590454112789
 20
10689.96550914665
 30
0.0
 11
10251.590454112789
 21
12319.896398125171
 31
0.0
  0
LINE
  5
919E
  8
SP
 10
8789.0904541127929
 20
12284.896398125171
 30
0.0
 11
10164.090454112789
 21
12284.896398125171
 31
0.0
  0
INSERT
  5
919F
  8
SP
  2
_OPEN
 10
8701.5904541127948
 20
12284.896398125171
 30
0.0
 41
87.5
 42
87.5
 43
87.5
 50
180.0
  0
INSERT
  5
91A0
  8
SP
  2
_OPEN
 10
10251.590454112789
 20
12284.896398125171
 30
0.0
 41
87.5
 42
87.5
 43
87.5
  0
TEXT
  5
91A1
  8
FUTO
 10
9281.31477275615
 20
12319.896398125171
 30
0.0
 40
105.0
  1
1550
 51
15.0
  0
POINT
  5
91A2
  8
DEFPOINTS
 62
     0
 10
8701.5904541127948
 20
12018.743420963519
 30
0.0
  0
POINT
  5
91A3
  8
DEFPOINTS
 62
     0
 10
10251.590454112789
 20
10654.96550914665
 30
0.0
  0
POINT
  5
91A4
  8
DEFPOINTS
 62
     0
 10
10251.590454112789
 20
12284.896398125171
 30
0.0
  0
ENDBLK
  5
8221
  8
0
  0
BLOCK
  8
0
  2
*D15
 70
     1
 10
0.0
 20
0.0
 30
0.0
  3
*D15
  1

  0
LINE
  5
9193
  8
SP
 10
8701.5904541127948
 20
12053.743420963519
 30
0.0
 11
8701.5904541127948
 21
12319.896398125171
 31
0.0
  0
LINE
  5
9194
  8
SP
 10
7656.590454112792
 20
11927.96550914665
 30
0.0
 11
7656.590454112792
 21
12319.896398125171
 31
0.0
  0
LINE
  5
9195
  8
SP
 10
8614.0904541127948
 20
12284.896398125171
 30
0.0
 11
7744.090454112792
 21
12284.896398125171
 31
0.0
  0
INSERT
  5
9196
  8
SP
  2
_OPEN
 10
8701.5904541127948
 20
12284.896398125171
 30
0.0
 41
87.5
 42
87.5
 43
87.5
  0
INSERT
  5
9197
  8
SP
  2
_OPEN
 10
7656.590454112792
 20
12284.896398125171
 30
0.0
 41
87.5
 42
87.5
 43
87.5
 50
180.0
  0
TEXT
  5
9198
  8
FUTO
 10
7983.635280831837
 20
12319.896398125171
 30
0.0
 40
105.0
  1
1045
 51
15.0
  0
POINT
  5
9199
  8
DEFPOINTS
 62
     0
 10
8701.5904541127948
 20
12018.743420963519
 30
0.0
  0
POINT
  5
919A
  8
DEFPOINTS
 62
     0
 10
7656.590454112792
 20
11892.96550914665
 30
0.0
  0
POINT
  5
919B
  8
DEFPOINTS
 62
     0
 10
7656.590454112792
 20
12284.896398125171
 30
0.0
  0
ENDBLK
  5
822E
  8
0
  0
BLOCK
  8
0
  2
*D16
 70
     1
 10
0.0
 20
0.0
 30
0.0
  3
*D16
  1

  0
LINE
  5
9178
  8
SP
 10
8569.0756731834263
 20
8319.5555879455515
 30
0.0
 11
7258.9714023775159
 21
8319.5555879455515
 31
0.0
  0
LINE
  5
9179
  8
SP
 10
7356.9276178454202
 20
7180.5555879455515
 30
0.0
 11
7258.9714023775159
 21
7180.5555879455515
 31
0.0
  0
LINE
  5
917A
  8
SP
 10
7293.9714023775168
 20
8232.0555879455496
 30
0.0
 11
7293.9714023775168
 21
7268.0555879455515
 31
0.0
  0
INSERT
  5
917B
  8
SP
  2
_OPEN
 10
7293.9714023775168
 20
8319.5555879455515
 30
0.0
 41
87.5
 42
87.5
 43
87.5
 50
90.0
  0
INSERT
  5
917C
  8
SP
  2
_OPEN
 10
7293.9714023775168
 20
7180.5555879455515
 30
0.0
 41
87.5
 42
87.5
 43
87.5
 50
270.0
  0
TEXT
  5
917D
  8
FUTO
 10
7258.9714023775159
 20
7566.6100336078298
 30
0.0
 40
105.0
  1
1139
 50
90.0
 51
15.0
  0
POINT
  5
917E
  8
DEFPOINTS
 62
     0
 10
8604.0756731834263
 20
8319.5555879455515
 30
0.0
  0
POINT
  5
917F
  8
DEFPOINTS
 62
     0
 10
7391.9276178454202
 20
7180.5555879455515
 30
0.0
  0
POINT
  5
9180
  8
DEFPOINTS
 62
     0
 10
7293.9714023775168
 20
7180.5555879455515
 30
0.0
  0
ENDBLK
  5
83E3
  8
0
  0
BLOCK
  8
0
  2
*D17
 70
     1
 10
0.0
 20
0.0
 30
0.0
  3
*D17
  1

  0
LINE
  5
9181
  8
SP
 10
7356.9276178454202
 20
7180.5555879455515
 30
0.0
 11
7258.9714023775168
 21
7180.5555879455515
 31
0.0
  0
LINE
  5
9182
  8
SP
 10
7716.5904541127929
 20
5280.5555879455524
 30
0.0
 11
7258.9714023775159
 21
5280.5555879455524
 31
0.0
  0
LINE
  5
9183
  8
SP
 10
7293.9714023775168
 20
7093.0555879455515
 30
0.0
 11
7293.9714023775168
 21
5368.0555879455515
 31
0.0
  0
INSERT
  5
9184
  8
SP
  2
_OPEN
 10
7293.9714023775168
 20
7180.5555879455515
 30
0.0
 41
87.5
 42
87.5
 43
87.5
 50
90.0
  0
INSERT
  5
9185
  8
SP
  2
_OPEN
 10
7293.9714023775168
 20
5280.5555879455524
 30
0.0
 41
87.5
 42
87.5
 43
87.5
 50
270.0
  0
TEXT
  5
9186
  8
FUTO
 10
7258.9714023775159
 20
6035.2799065889076
 30
0.0
 40
105.0
  1
1900
 50
90.0
 51
15.0
  0
POINT
  5
9187
  8
DEFPOINTS
 62
     0
 10
7391.9276178454202
 20
7180.5555879455515
 30
0.0
  0
POINT
  5
9188
  8
DEFPOINTS
 62
     0
 10
7751.5904541127929
 20
5280.5555879455524
 30
0.0
  0
POINT
  5
9189
  8
DEFPOINTS
 62
     0
 10
7293.9714023775168
 20
5280.5555879455524
 30
0.0
  0
ENDBLK
  5
83F1
  8
0
  0
BLOCK
  8
0
  2
*D18
 70
     1
 10
0.0
 20
0.0
 30
0.0
  3
*D18
  1

  0
LINE
  5
915D
  8
SP
 10
8701.5904541127948
 20
8611.2678110168017
 30
0.0
 11
8701.5904541127948
 21
8675.1296095625257
 31
0.0
  0
LINE
  5
915E
  8
SP
 10
7656.5904541127939
 20
7238.5555879455515
 30
0.0
 11
7656.5904541127939
 21
8675.1296095625257
 31
0.0
  0
LINE
  5
915F
  8
SP
 10
8614.0904541127948
 20
8640.1296095625257
 30
0.0
 11
7744.0904541127929
 21
8640.1296095625257
 31
0.0
  0
INSERT
  5
9160
  8
SP
  2
_OPEN
 10
8701.5904541127948
 20
8640.1296095625257
 30
0.0
 41
87.5
 42
87.5
 43
87.5
  0
INSERT
  5
9161
  8
SP
  2
_OPEN
 10
7656.5904541127939
 20
8640.1296095625257
 30
0.0
 41
87.5
 42
87.5
 43
87.5
 50
180.0
  0
TEXT
  5
9162
  8
FUTO
 10
7983.635280831837
 20
8675.1296095625257
 30
0.0
 40
105.0
  1
1045
 51
15.0
  0
POINT
  5
9163
  8
DEFPOINTS
 62
     0
 10
8701.5904541127948
 20
8576.2678110168035
 30
0.0
  0
POINT
  5
9164
  8
DEFPOINTS
 62
     0
 10
7656.5904541127939
 20
7203.5555879455515
 30
0.0
  0
POINT
  5
9165
  8
DEFPOINTS
 62
     0
 10
7656.5904541127939
 20
8640.1296095625257
 30
0.0
  0
ENDBLK
  5
83FE
  8
0
  0
BLOCK
  8
0
  2
*U19
 70
     1
 10
0.0
 20
0.0
 30
0.0
  3
*U19
  1

  0
SOLID
  5
91EF
  8
FUTO
  6
CONTINUOUS
 10
7941.5904541127929
 20
5165.5555879455515
 30
0.0
 11
7941.5904541127929
 21
5280.5555879455524
 31
0.0
 12
7901.5904541127939
 22
5165.5555879455515
 32
0.0
 13
7901.5904541127939
 23
5165.5555879455515
 33
0.0
210
0.0
220
0.0
230
1.0
  0
SOLID
  5
91F0
  8
FUTO
  6
CONTINUOUS
 10
7901.5904541127939
 20
5280.5555879455524
 30
0.0
 11
7901.5904541127939
 21
5165.5555879455515
 31
0.0
 12
7941.5904541127929
 22
5280.5555879455524
 32
0.0
 13
7941.5904541127929
 23
5280.5555879455524
 33
0.0
210
0.0
220
0.0
230
1.0
  0
SOLID
  5
91F1
  8
FUTO
  6
CONTINUOUS
 10
7981.5904541127939
 20
5165.5555879455515
 30
0.0
 11
7981.5904541127939
 21
5280.5555879455524
 31
0.0
 12
7941.5904541127929
 22
5165.5555879455515
 32
0.0
 13
7941.5904541127929
 23
5165.5555879455515
 33
0.0
210
0.0
220
0.0
230
1.0
  0
SOLID
  5
91F2
  8
FUTO
  6
CONTINUOUS
 10
7941.5904541127929
 20
5280.5555879455524
 30
0.0
 11
7941.5904541127929
 21
5165.5555879455515
 31
0.0
 12
7981.5904541127939
 22
5280.5555879455524
 32
0.0
 13
7981.5904541127939
 23
5280.5555879455524
 33
0.0
210
0.0
220
0.0
230
1.0
  0
ENDBLK
  5
91F4
  8
0
  0
BLOCK
  8
0
  2
*U20
 70
     1
 10
0.0
 20
0.0
 30
0.0
  3
*U20
  1

  0
SOLID
  5
91F6
  8
SP
  6
CONTINUOUS
 10
7279.8960968922402
 20
5165.5555879455533
 30
0.0
 11
7293.971402377515
 21
5165.5555879455515
 31
0.0
 12
7284.0186584216053
 22
5175.508331901462
 32
0.0
 13
7284.0186584216053
 23
5175.508331901462
 33
0.0
210
0.0
220
0.0
230
1.0
  0
SOLID
  5
91F7
  8
SP
  6
CONTINUOUS
 10
7293.971402377515
 20
5179.6308934308272
 30
0.0
 11
7284.0186584216053
 21
5175.508331901462
 31
0.0
 12
7293.971402377515
 22
5165.5555879455515
 32
0.0
 13
7293.971402377515
 23
5165.5555879455515
 33
0.0
210
0.0
220
0.0
230
1.0
  0
SOLID
  5
91F8
  8
SP
  6
CONTINUOUS
 10
7293.9714023775168
 20
5179.6308934308272
 30
0.0
 11
7293.9714023775168
 21
5165.5555879455533
 31
0.0
 12
7303.9241463334256
 22
5175.508331901462
 32
0.0
 13
7303.9241463334256
 23
5175.508331901462
 33
0.0
210
0.0
220
0.0
230
1.0
  0
SOLID
  5
91F9
  8
SP
  6
CONTINUOUS
 10
7308.0467078627898
 20
5165.5555879455533
 30
0.0
 11
7303.9241463334256
 21
5175.508331901462
 31
0.0
 12
7293.9714023775168
 22
5165.5555879455533
 32
0.0
 13
7293.9714023775168
 23
5165.5555879455533
 33
0.0
  0
SOLID
  5
91FA
  8
SP
  6
CONTINUOUS
 10
7293.9714023775168
 20
5165.5555879455533
 30
0.0
 11
7293.9714023775168
 21
5151.4802824602766
 31
0.0
 12
7308.0467078627898
 22
5165.5555879455533
 32
0.0
 13
7308.0467078627898
 23
5165.5555879455533
 33
0.0
210
0.0
220
0.0
230
1.0
  0
SOLID
  5
91FB
  8
SP
  6
CONTINUOUS
 10
7303.9241463334256
 20
5155.6028439896427
 30
0.0
 11
7308.0467078627898
 21
5165.5555879455533
 31
0.0
 12
7293.9714023775168
 22
5151.4802824602766
 32
0.0
 13
7293.9714023775168
 23
5151.4802824602766
 33
0.0
210
0.0
220
0.0
230
1.0
  0
SOLID
  5
91FC
  8
SP
  6
CONTINUOUS
 10
7293.9714023775168
 20
5165.5555879455533
 30
0.0
 11
7279.8960968922402
 21
5165.5555879455533
 31
0.0
 12
7293.9714023775168
 22
5151.4802824602766
 32
0.0
 13
7293.9714023775168
 23
5151.4802824602766
 33
0.0
210
0.0
220
0.0
230
1.0
  0
SOLID
  5
91FD
  8
SP
  6
CONTINUOUS
 10
7284.0186584216053
 20
5155.6028439896427
 30
0.0
 11
7293.9714023775168
 21
5151.4802824602766
 31
0.0
 12
7279.8960968922402
 22
5165.5555879455533
 32
0.0
 13
7279.8960968922402
 23
5165.5555879455533
 33
0.0
  0
ENDBLK
  5
91FF
  8
0
  0
ENDSEC
  0
SECTION
  2
ENTITIES
  0
LINE
  5
522D
  8
CT
 10
7391.9276178454202
 20
7180.5555879455515
 30
0.0
 11
10194.509944253499
 21
7180.5555879455515
 31
0.0
  0
LINE
  5
522E
  8
CT
 10
8701.5904541127948
 20
8576.2678110168035
 30
0.0
 11
8701.5904541127948
 21
5072.9946838632022
 31
0.0
  0
ARC
  5
5232
  8
KL
 10
8585.5904541127929
 20
7064.5555879455524
 30
0.0
 40
1487.0
 50
274.47415597605601
 51
0.0000000000000044
  0
ARC
  5
5234
  8
KL
 10
8817.5904541127948
 20
7064.5555879455524
 30
0.0
 40
1255.0
 50
0.0000000000000044
 51
90.000000000000028
  0
ARC
  5
5238
  8
KL
 10
8798.5904541127948
 20
7277.5555879455515
 30
0.0
 40
1042.0
 50
90.000000000000028
 51
180.0
  0
ARC
  5
5239
  8
KL
 10
8604.5904541127929
 20
7277.5555879455515
 30
0.0
 40
848.0
 50
180.0
 51
213.7047429507289
  0
LINE
  5
523A
  8
FUTO
 10
7656.590454112792
 20
7138.5555879455515
 30
0.0
 11
7656.5904541127939
 21
5482.5555879455515
 31
0.0
  0
LINE
  5
523C
  8
KL
 10
7656.590454112792
 20
7135.5555879455524
 30
0.0
 11
7768.5641387374926
 21
7135.5555879455524
 31
0.0
  0
LINE
  5
523D
  8
KL
 10
8701.5904541127948
 20
5582.0870385321077
 30
0.0
 11
7656.5904541127939
 21
5485.5555879455515
 31
0.0
  0
LINE
  5
523F
  8
FUTO
 10
7721.590454112792
 20
7153.5555879455515
 30
0.0
 11
7721.590454112792
 21
5473.4833020907472
 31
0.0
  0
LINE
  5
5251
  8
FUTO
 10
7656.5904541127939
 20
7138.5555879455515
 30
0.0
 11
7656.5904541127939
 21
7203.5555879455515
 31
0.0
  0
LINE
  5
5252
  8
FUTO
 10
7656.5904541127939
 20
7138.5555879455515
 30
0.0
 11
7721.590454112792
 21
7138.5555879455515
 31
0.0
  0
LINE
  5
5253
  8
FUTO
 10
7656.5904541127939
 20
7203.5555879455515
 30
0.0
 11
7658.5904541127929
 21
7203.5555879455515
 31
0.0
  0
LINE
  5
5254
  8
FUTO
 10
7721.590454112792
 20
7138.5555879455515
 30
0.0
 11
7721.590454112792
 21
7140.5555879455524
 31
0.0
  0
LINE
  5
5255
  8
FUTO
 10
7671.0904541127929
 20
7144.5555879455515
 30
0.0
 11
7717.5904541127929
 21
7144.5555879455515
 31
0.0
  0
LINE
  5
5256
  8
FUTO
 10
7662.5904541127939
 20
7153.0555879455515
 30
0.0
 11
7662.5904541127939
 21
7199.5555879455524
 31
0.0
  0
ARC
  5
5257
  8
FUTO
 10
7658.5904541127929
 20
7199.5555879455524
 30
0.0
 40
4.0
 50
0.0000000000000044
 51
90.000000000000028
  0
ARC
  5
5258
  8
FUTO
 10
7717.5904541127929
 20
7140.5555879455524
 30
0.0
 40
4.0
 50
0.0000000000007888
 51
90.000000000000028
  0
ARC
  5
5259
  8
FUTO
 10
7671.0904541127929
 20
7153.0555879455515
 30
0.0
 40
8.5
 50
180.0
 51
270.0
  0
LINE
  5
525A
  8
FUTO
 10
7656.5904541127939
 20
5482.5555879455515
 30
0.0
 11
7721.590454112792
 21
5482.5555879455515
 31
0.0
  0
LINE
  5
525B
  8
FUTO
 10
7656.5904541127939
 20
5482.5555879455515
 30
0.0
 11
7656.590454112792
 21
5417.5555879455515
 31
0.0
  0
LINE
  5
525C
  8
FUTO
 10
7721.590454112792
 20
5482.5555879455515
 30
0.0
 11
7721.590454112792
 21
5480.5555879455524
 31
0.0
  0
LINE
  5
525D
  8
FUTO
 10
7656.590454112792
 20
5417.5555879455515
 30
0.0
 11
7658.590454112792
 21
5417.5555879455515
 31
0.0
  0
LINE
  5
525E
  8
FUTO
 10
7662.5904541127939
 20
5468.0555879455524
 30
0.0
 11
7662.590454112792
 21
5421.5555879455515
 31
0.0
  0
LINE
  5
525F
  8
FUTO
 10
7671.0904541127929
 20
5476.5555879455524
 30
0.0
 11
7717.5904541127929
 21
5476.5555879455524
 31
0.0
  0
ARC
  5
5260
  8
FUTO
 10
7717.5904541127929
 20
5480.5555879455524
 30
0.0
 40
4.0
 50
270.0
 51
0.0000000000000044
  0
ARC
  5
5261
  8
FUTO
 10
7658.5904541127929
 20
5421.5555879455515
 30
0.0
 40
4.0
 50
270.0000000000008
 51
0.0000000000000044
  0
ARC
  5
5262
  8
FUTO
 10
7671.0904541127929
 20
5468.0555879455524
 30
0.0
 40
8.5
 50
90.000000000000028
 51
180.0
  0
LINE
  5
5263
  8
FUTO
 10
7662.590454112792
 20
7138.5555879455515
 30
0.0
 11
7662.5904541127939
 21
5482.5555879455515
 31
0.0
  0
ARC
  5
5264
  8
FUTO
 10
8604.5904541127929
 20
7277.5555879455515
 30
0.0
 40
866.0
 50
180.0
 51
188.23231031500279
  0
LINE
  5
5265
  8
FUTO
 10
7721.590454112792
 20
7153.5555879455515
 30
0.0
 11
7747.514028115671
 21
7153.5555879455515
 31
0.0
  0
ARC
  5
5266
  8
FUTO
 10
8798.5904541127948
 20
7277.5555879455515
 30
0.0
 40
1060.0
 50
95.250449670200936
 51
180.0
  0
ARC
  5
5269
  8
FUTO
 10
8817.5904541127948
 20
7064.5555879455524
 30
0.0
 40
1273.0
 50
5.2282347681325492
 51
95.228234768132538
  0
LINE
  5
526B
  8
FUTO
 10
8087.7786230692809
 20
5507.3097854754405
 30
0.0
 11
7721.590454112792
 21
5473.4833020907472
 31
0.0
  0
CIRCLE
  5
526C
  8
KL
 10
7884.9898704554407
 20
6797.5555879455515
 30
0.0
 40
17.0
  0
LINE
  5
526D
  8
FUTO
 10
10251.590454112789
 20
5280.5555879455524
 30
0.0
 11
7751.5904541127929
 21
5280.5555879455524
 31
0.0
  0
LINE
  5
526E
  8
FUTO
 10
10251.590454112789
 20
5430.5555879455515
 30
0.0
 11
7751.5904541127929
 21
5430.5555879455515
 31
0.0
  0
LINE
  5
526F
  8
FUTO
 10
7751.5904541127929
 20
5430.5555879455515
 30
0.0
 11
7751.5904541127929
 21
5280.5555879455524
 31
0.0
  0
LINE
  5
5270
  8
FUTO
 10
10251.590454112789
 20
5430.5555879455515
 30
0.0
 11
10251.590454112789
 21
5280.5555879455533
 31
0.0
  0
LINE
  5
5273
  8
FUTO
 10
7761.5904541127929
 20
5430.5555879455515
 30
0.0
 11
7761.5904541127929
 21
7497.1711611638448
 31
0.0
  0
LINE
  5
5274
  8
FUTO
 10
9641.5904541127948
 20
8034.8921275028342
 30
0.0
 11
9641.5904541127948
 21
7189.5555879455524
 31
0.0
  0
LINE
  5
5275
  8
FUTO
 10
9632.5904541127948
 20
8042.4635590757589
 30
0.0
 11
9632.5904541127948
 21
7189.5555879455524
 31
0.0
  0
LINE
  5
5276
  8
FUTO
 10
7770.5904541127929
 20
5430.5555879455515
 30
0.0
 11
7770.5904541127929
 21
7536.0434986880082
 31
0.0
  0
LINE
  5
52EB
  8
CT
 10
9715.1340968276472
 20
5460.5555879455524
 30
0.0
 11
10343.92717457349
 21
5460.5555879455524
 31
0.0
  0
LINE
  5
52F4
  8
CT
 10
9951.5904541127948
 20
5313.5701547934823
 30
0.0
 11
9951.5904541127948
 21
5953.6681689900834
 31
0.0
  0
LINE
  5
5391
  8
CT
 10
8556.5904541127929
 20
7060.5555879455524
 30
0.0
 11
8556.5904541127929
 21
7134.5555879455524
 31
0.0
  0
LINE
  5
5393
  8
CT
 10
8846.5904541127911
 20
7060.5555879455524
 30
0.0
 11
8846.5904541127911
 21
7134.5555879455524
 31
0.0
  0
ARC
  5
53C8
  8
FUTO
 10
8878.5904541127948
 20
7111.5555879455515
 30
0.0
 40
3.0
 50
0.000000000000007
 51
90.0
  0
LINE
  5
53C9
  8
FUTO
 10
8881.5904541127948
 20
7111.5555879455515
 30
0.0
 11
8881.5904541127948
 21
7080.5555879455533
 31
0.0
  0
ARC
  5
53CA
  8
FUTO
 10
8749.0904541127948
 20
7262.8280013050726
 30
0.0
 40
15.00000000000038
 50
325.47193698619282
 51
154.52806301381281
  0
LINE
  5
53CB
  8
FUTO
 10
8717.2721168105963
 20
7274.2523619296771
 30
0.0
 11
8717.2721168105963
 21
7280.5555879455515
 31
0.0
  0
LINE
  5
53CC
  8
FUTO
 10
8685.9087914149895
 20
7274.2523619296771
 30
0.0
 11
8685.9087914149895
 21
7280.5555879455515
 31
0.0
  0
LINE
  5
53CD
  8
FUTO
 10
8685.9087914149895
 20
7280.5555879455533
 30
0.0
 11
8717.2721168105963
 21
7280.5555879455515
 31
0.0
  0
ARC
  5
53CE
  8
FUTO
 10
8701.5904541127911
 20
7180.5555879455515
 30
0.0
 40
95.000000000000057
 50
9.0561260276173208
 51
50.943873972382391
  0
LINE
  5
53CF
  8
FUTO
 10
8796.5904541127929
 20
7165.5555879455524
 30
0.0
 11
8796.5904541127929
 21
7130.5555879455515
 31
0.0
  0
LINE
  5
53D0
  8
FUTO
 10
8791.5904541127911
 20
7080.5555879455533
 30
0.0
 11
8791.5904541127911
 21
7083.5555879455533
 31
0.0
  0
ARC
  5
53D1
  8
FUTO
 10
8812.5904541127929
 20
7130.5555879455515
 30
0.0
 40
16.0
 50
180.0
 51
270.0
  0
ARC
  5
53D2
  8
FUTO
 10
8749.0904541127948
 20
7098.2831745860312
 30
0.0
 40
14.999999999999909
 50
205.47193698618469
 51
34.528063013809451
  0
ARC
  5
53D3
  8
FUTO
 10
8701.5904541127911
 20
7180.5555879455542
 30
0.0
 40
95.000000000000966
 50
309.05612602761732
 51
350.94387397238222
  0
ARC
  5
53D4
  8
FUTO
 10
8796.5904541127929
 20
7180.5555879455515
 30
0.0
 40
15.00000000000011
 50
265.47193698619139
 51
94.528063013808236
  0
LINE
  5
53D5
  8
FUTO
 10
8812.5904541127929
 20
7114.5555879455515
 30
0.0
 11
8878.5904541127948
 21
7114.5555879455515
 31
0.0
  0
ARC
  5
53D7
  8
FUTO
 10
8654.0904541127929
 20
7262.8280013050744
 30
0.0
 40
15.00000000000006
 50
25.47193698618608
 51
214.5280630138096
  0
ARC
  5
53D8
  8
FUTO
 10
8701.5904541127948
 20
7180.5555879455515
 30
0.0
 40
94.999999999999375
 50
129.0561260276167
 51
170.94387397238259
  0
LINE
  5
53D9
  8
FUTO
 10
8606.5904541127948
 20
7165.5555879455524
 30
0.0
 11
8606.5904541127948
 21
7130.5555879455515
 31
0.0
  0
ARC
  5
53DA
  8
FUTO
 10
8654.0904541127929
 20
7098.2831745860312
 30
0.0
 40
14.99999999999978
 50
145.47193698619111
 51
334.52806301381349
  0
LINE
  5
53DB
  8
FUTO
 10
8611.5904541127929
 20
7080.5555879455533
 30
0.0
 11
8611.5904541127929
 21
7083.5555879455533
 31
0.0
  0
ARC
  5
53DC
  8
FUTO
 10
8701.5904541127948
 20
7180.5555879455515
 30
0.0
 40
95.000000000000057
 50
189.05612602761681
 51
230.94387397238239
  0
ARC
  5
53DD
  8
FUTO
 10
8524.5904541127929
 20
7111.5555879455515
 30
0.0
 40
3.0
 50
90.0
 51
180.0
  0
LINE
  5
53DE
  8
FUTO
 10
8521.5904541127929
 20
7111.5555879455515
 30
0.0
 11
8521.5904541127929
 21
7080.5555879455533
 31
0.0
  0
LINE
  5
53DF
  8
FUTO
 10
8590.5904541127911
 20
7114.5555879455515
 30
0.0
 11
8524.5904541127929
 21
7114.5555879455515
 31
0.0
  0
ARC
  5
53E0
  8
FUTO
 10
8590.5904541127911
 20
7130.5555879455515
 30
0.0
 40
16.0
 50
270.0
 51
0.000000000000007
  0
LINE
  5
53E1
  8
FUTO
 10
8506.5904541127948
 20
7080.5555879455533
 30
0.0
 11
8896.5904541127929
 21
7080.5555879455533
 31
0.0
  0
ARC
  5
53E2
  8
FUTO
 10
8606.5904541127948
 20
7180.5555879455515
 30
0.0
 40
14.999999999999879
 50
85.471936986191025
 51
274.52806301380912
  0
CIRCLE
  5
53E3
  8
FUTO
 10
8701.5904541127948
 20
7180.5555879455515
 30
0.0
 40
36.5
  0
LINE
  5
53E4
  8
FUTO
 10
8611.5904541127929
 20
7083.5555879455533
 30
0.0
 11
8791.5904541127911
 21
7083.5555879455533
 31
0.0
  0
ARC
  5
53E5
  8
FUTO
 10
8701.5904541127948
 20
7180.5555879455515
 30
0.0
 40
94.999999999998266
 50
249.0561260276163
 51
290.94387397238302
  0
ARC
  5
53E6
  8
FUTO
 10
8701.5904541127911
 20
7180.5555879455542
 30
0.0
 40
94.999999999998053
 50
69.056126027616386
 51
110.94387397238231
  0
LINE
  5
53E7
  8
FUTO
 10
11441.747970456619
 20
7260.5555879455524
 30
0.0
 11
11446.747970456619
 21
7260.5555879455524
 31
0.0
  0
ARC
  5
53E8
  8
FUTO
 10
11435.747970456619
 20
7269.5555879455533
 30
0.0
 40
6.0
 50
0.0
 51
90.0
  0
LINE
  5
53E9
  8
FUTO
 10
11426.747970456619
 20
7275.5555879455515
 30
0.0
 11
11435.747970456619
 21
7275.5555879455533
 31
0.0
  0
LINE
  5
53EA
  8
FUTO
 10
11446.747970456619
 20
7100.5555879455515
 30
0.0
 11
11441.747970456619
 21
7100.5555879455515
 31
0.0
  0
ARC
  5
53EB
  8
FUTO
 10
11435.747970456619
 20
7091.5555879455533
 30
0.0
 40
6.0
 50
270.0
 51
0.0
  0
ARC
  5
53EC
  8
FUTO
 10
11420.747970456619
 20
7108.5555879455515
 30
0.0
 40
6.0
 50
0.0
 51
90.0
  0
LINE
  5
53ED
  8
FUTO
 10
11435.747970456619
 20
7085.5555879455524
 30
0.0
 11
11426.747970456619
 21
7085.5555879455524
 31
0.0
  0
LINE
  5
53EE
  8
FUTO
 10
11446.747970456619
 20
7260.5555879455524
 30
0.0
 11
11446.747970456619
 21
7100.5555879455515
 31
0.0
  0
LINE
  5
53EF
  8
FUTO
 10
11441.747970456619
 20
7269.5555879455533
 30
0.0
 11
11441.747970456619
 21
7091.5555879455533
 31
0.0
  0
LINE
  5
53F0
  8
FUTO
 10
11426.747970456619
 20
7080.5555879455533
 30
0.0
 11
11426.747970456619
 21
7280.5555879455515
 31
0.0
  0
LINE
  5
53F1
  8
FUTO
 10
11326.747970456619
 20
7275.5555879455515
 30
0.0
 11
11317.747970456619
 21
7275.5555879455533
 31
0.0
  0
ARC
  5
53F2
  8
FUTO
 10
11317.747970456619
 20
7269.5555879455533
 30
0.0
 40
6.0
 50
90.0
 51
180.0
  0
LINE
  5
53F3
  8
FUTO
 10
11311.747970456619
 20
7260.5555879455524
 30
0.0
 11
11306.747970456619
 21
7260.5555879455524
 31
0.0
  0
ARC
  5
53F4
  8
FUTO
 10
11332.747970456619
 20
7108.5555879455515
 30
0.0
 40
6.0
 50
90.0
 51
180.0
  0
ARC
  5
53F5
  8
FUTO
 10
11317.747970456619
 20
7091.5555879455533
 30
0.0
 40
6.0
 50
180.0
 51
270.0
  0
LINE
  5
53F6
  8
FUTO
 10
11317.747970456619
 20
7085.5555879455524
 30
0.0
 11
11326.747970456619
 21
7085.5555879455524
 31
0.0
  0
LINE
  5
53F7
  8
FUTO
 10
11306.747970456619
 20
7100.5555879455515
 30
0.0
 11
11311.747970456619
 21
7100.5555879455515
 31
0.0
  0
LINE
  5
53F8
  8
FUTO
 10
11311.747970456619
 20
7269.5555879455533
 30
0.0
 11
11311.747970456619
 21
7091.5555879455533
 31
0.0
  0
LINE
  5
53F9
  8
FUTO
 10
11306.747970456619
 20
7260.5555879455524
 30
0.0
 11
11306.747970456619
 21
7100.5555879455515
 31
0.0
  0
LINE
  5
53FA
  8
FUTO
 10
11326.747970456619
 20
7280.5555879455515
 30
0.0
 11
11326.747970456619
 21
7080.5555879455533
 31
0.0
  0
LINE
  5
53FB
  8
FUTO
 10
11426.747970456619
 20
7280.5555879455515
 30
0.0
 11
11326.747970456619
 21
7280.5555879455515
 31
0.0
  0
LINE
  5
53FC
  8
FUTO
 10
11321.747970456619
 20
7080.5555879455533
 30
0.0
 11
11431.747970456619
 21
7080.5555879455533
 31
0.0
  0
LINE
  5
53FD
  8
FUTO
 10
11420.747970456619
 20
7114.5555879455515
 30
0.0
 11
11332.747970456619
 21
7114.5555879455515
 31
0.0
  0
LINE
  5
53FE
  8
KL
 10
9087.2423270035124
 20
7072.5555879455533
 30
0.0
 11
8315.9385812220698
 21
7072.5555879455533
 31
0.0
  0
LINE
  5
53FF
  8
FUTO
 10
8506.5904541127948
 20
7080.5555879455533
 30
0.0
 11
8506.5904541127948
 21
7072.5555879455533
 31
0.0
  0
LINE
  5
5400
  8
FUTO
 10
8896.5904541127929
 20
7080.5555879455533
 30
0.0
 11
8896.5904541127929
 21
7072.5555879455533
 31
0.0
  0
LINE
  5
5405
  8
FUTO
 10
8076.5904541127939
 20
5438.383135004492
 30
0.0
 11
8076.5904541127939
 21
5430.5555879455515
 31
0.0
  0
LINE
  5
540E
  8
FUTO
 10
9326.5904541127948
 20
5438.383135004492
 30
0.0
 11
9326.5904541127948
 21
5430.5555879455515
 31
0.0
  0
LINE
  5
5411
  8
FUTO
 10
8076.5904541127939
 20
5430.5555879455515
 30
0.0
 11
8076.5904541127939
 21
5280.5555879455524
 31
0.0
  0
LINE
  5
5412
  8
KL
 10
8501.9361057737933
 20
7165.7521697818484
 30
0.0
 11
8504.0726869424343
 21
7147.8794245839263
 31
0.0
  0
LINE
  5
5413
  8
KL
 10
8901.5904541127948
 20
7189.5555879455524
 30
0.0
 11
8901.5904541127948
 21
7171.5555879455524
 31
0.0
  0
LINE
  5
5414
  8
FUTO
 10
7698.1807798744212
 20
7291.1686557230241
 30
0.0
 11
8323.3144941042156
 21
7216.7121652115138
 31
0.0
  0
LINE
  5
5415
  8
FUTO
 10
7700.3173610430613
 20
7309.0414009209444
 30
0.0
 11
8325.4510752728547
 21
7234.584910409435
 31
0.0
  0
LINE
  5
5416
  8
KL
 10
8901.5904541127948
 20
7171.5555879455524
 30
0.0
 11
9336.3900628568717
 21
7171.5555879455524
 31
0.0
  0
LINE
  5
5417
  8
KL
 10
8901.5904541127948
 20
7189.5555879455524
 30
0.0
 11
9312.9985778665578
 21
7189.5555879455524
 31
0.0
  0
LINE
  5
541F
  8
FUTO
 10
7761.5904541127929
 20
7171.5555879455524
 30
0.0
 11
7761.5904541127929
 21
6160.5555879455524
 31
0.0
  0
LINE
  5
5420
  8
FUTO
 10
7770.5904541127929
 20
7171.5555879455524
 30
0.0
 11
7770.5904541127929
 21
6160.5555879455524
 31
0.0
  0
LINE
  5
5425
  8
FUTO
 10
9641.5904541127948
 20
7171.5555879455524
 30
0.0
 11
9641.5904541127948
 21
6509.7335455733792
 31
0.0
  0
LINE
  5
5426
  8
FUTO
 10
9632.5904541127948
 20
7171.5555879455524
 30
0.0
 11
9632.5904541127948
 21
6522.4563313373455
 31
0.0
  0
ARC
  5
543E
  8
FUTO
 10
8585.5904541127929
 20
7064.5555879455524
 30
0.0
 40
1505.0
 50
297.59884945114112
 51
4.4205373969357327
  0
CIRCLE
  5
544F
  8
SL
 10
8701.5904541127948
 20
7180.5555879455515
 30
0.0
 40
315.0
  0
ARC
  5
5451
  8
FUTO
 10
8701.5904541127948
 20
7180.5555879455515
 30
0.0
 40
380.0
 50
35.275292177309261
 51
224.71304271678849
  0
CIRCLE
  5
5453
  8
SL
 10
9951.5904541127948
 20
5690.5555879455515
 30
0.0
 40
132.49999999999989
  0
ARC
  5
5454
  8
FUTO
 10
9951.5904541127948
 20
5690.5555879455515
 30
0.0
 40
220.0
 50
224.71304271678849
 51
35.27529217730924
  0
LINE
  5
5459
  8
CT
 10
10941.38260935172
 20
7180.5555879455515
 30
0.0
 11
13627.52588227348
 21
7180.5555879455515
 31
0.0
  0
LINE
  5
545A
  8
CT
 10
12857.747970456619
 20
8640.1296095625257
 30
0.0
 11
12857.747970456619
 21
4968.6464886955146
 31
0.0
  0
LINE
  5
545B
  8
FUTO
 10
13451.747970456619
 20
5430.5555879455515
 30
0.0
 11
11301.747970456619
 21
5430.5555879455515
 31
0.0
  0
LINE
  5
545C
  8
FUTO
 10
13451.747970456619
 20
5280.5555879455524
 30
0.0
 11
11301.747970456619
 21
5280.5555879455524
 31
0.0
  0
LINE
  5
5505
  8
FUTO
 10
13451.747970456619
 20
5280.5555879455524
 30
0.0
 11
13526.747970456619
 21
5280.5555879455524
 31
0.0
  0
LINE
  5
5506
  8
FUTO
 10
13461.899347485631
 20
5293.2326205750169
 30
0.0
 11
13523.09659342761
 21
5287.8785553160851
 31
0.0
  0
LINE
  5
5507
  8
FUTO
 10
13451.747970456619
 20
5430.5555879455515
 30
0.0
 11
13526.747970456619
 21
5430.5555879455515
 31
0.0
  0
LINE
  5
5508
  8
FUTO
 10
13461.899347485631
 20
5417.8785553160851
 30
0.0
 11
13523.09659342761
 21
5423.2326205750169
 31
0.0
  0
LINE
  5
5509
  8
FUTO
 10
13458.247970456619
 20
5413.8937765237179
 30
0.0
 11
13458.247970456619
 21
5297.2173993673841
 31
0.0
  0
ARC
  5
550A
  8
FUTO
 10
13462.247970456619
 20
5297.2173993673841
 30
0.0
 40
4.0
 50
180.0
 51
264.99999999999989
  0
LINE
  5
550B
  8
FUTO
 10
13451.747970456619
 20
5430.5555879455515
 30
0.0
 11
13451.747970456619
 21
5280.5555879455524
 31
0.0
  0
ARC
  5
550C
  8
FUTO
 10
13462.247970456619
 20
5413.8937765237179
 30
0.0
 40
4.0
 50
95.000000000000057
 51
180.0
  0
LINE
  5
550D
  8
FUTO
 10
13526.747970456619
 20
5280.5555879455496
 30
0.0
 11
13526.747970456619
 21
5283.8937765237188
 31
0.0
  0
LINE
  5
550E
  8
FUTO
 10
13526.747970456619
 20
5430.5555879455515
 30
0.0
 11
13526.747970456619
 21
5427.217399367385
 31
0.0
  0
ARC
  5
550F
  8
FUTO
 10
13522.747970456619
 20
5427.217399367385
 30
0.0
 40
4.0
 50
275.00000000000051
 51
359.9999999999921
  0
ARC
  5
5510
  8
FUTO
 10
13522.747970456619
 20
5283.8937765237188
 30
0.0
 40
4.0
 50
0.0000000000078369
 51
84.999999999999503
  0
LINE
  5
5511
  8
FUTO
 10
11301.747970456619
 20
5430.5555879455515
 30
0.0
 11
11226.747970456619
 21
5430.5555879455515
 31
0.0
  0
LINE
  5
5512
  8
FUTO
 10
11291.59659342761
 20
5417.8785553160851
 30
0.0
 11
11230.399347485631
 21
5423.2326205750169
 31
0.0
  0
LINE
  5
5513
  8
FUTO
 10
11301.747970456619
 20
5280.5555879455524
 30
0.0
 11
11226.747970456619
 21
5280.5555879455496
 31
0.0
  0
LINE
  5
5514
  8
FUTO
 10
11291.59659342761
 20
5293.2326205750169
 30
0.0
 11
11230.399347485631
 21
5287.8785553160851
 31
0.0
  0
LINE
  5
5515
  8
FUTO
 10
11295.247970456619
 20
5297.2173993673841
 30
0.0
 11
11295.247970456619
 21
5413.8937765237179
 31
0.0
  0
ARC
  5
5516
  8
FUTO
 10
11291.247970456619
 20
5413.8937765237179
 30
0.0
 40
4.0
 50
0.0
 51
84.999999999999943
  0
LINE
  5
5517
  8
FUTO
 10
11301.747970456619
 20
5280.5555879455524
 30
0.0
 11
11301.747970456619
 21
5430.5555879455515
 31
0.0
  0
ARC
  5
5518
  8
FUTO
 10
11291.247970456619
 20
5297.2173993673841
 30
0.0
 40
4.0
 50
275.0
 51
0.0
  0
LINE
  5
5519
  8
FUTO
 10
11226.747970456619
 20
5430.5555879455515
 30
0.0
 11
11226.747970456619
 21
5427.2173993673832
 31
0.0
  0
LINE
  5
551A
  8
FUTO
 10
11226.747970456619
 20
5280.5555879455496
 30
0.0
 11
11226.747970456619
 21
5283.8937765237188
 31
0.0
  0
ARC
  5
551B
  8
FUTO
 10
11230.747970456619
 20
5283.8937765237188
 30
0.0
 40
4.0
 50
95.000000000000554
 51
179.9999999999921
  0
ARC
  5
551C
  8
FUTO
 10
11230.747970456619
 20
5427.217399367385
 30
0.0
 40
4.0
 50
180.00000000000779
 51
264.99999999999949
  0
LINE
  5
551D
  8
FUTO
 10
13451.747970456619
 20
5293.5520879455516
 30
0.0
 11
11301.747970456619
 21
5293.5520879455516
 31
0.0
  0
LINE
  5
551E
  8
FUTO
 10
13451.747970456619
 20
5417.5590879455513
 30
0.0
 11
11301.747970456619
 21
5417.5590879455513
 31
0.0
  0
LINE
  5
551F
  8
FUTO
 10
10251.590454112789
 20
5293.5520879455516
 30
0.0
 11
7751.5904541127929
 21
5293.5520879455516
 31
0.0
  0
LINE
  5
5520
  8
FUTO
 10
10251.590454112789
 20
5417.5590879455513
 30
0.0
 11
7751.5904541127929
 21
5417.5590879455513
 31
0.0
  0
LINE
  5
5522
  8
FUTO
 10
12267.747970456619
 20
8319.5555879455515
 30
0.0
 11
12267.747970456619
 21
7180.5555879455515
 31
0.0
  0
LINE
  5
5523
  8
FUTO
 10
13447.747970456619
 20
8319.5555879455515
 30
0.0
 11
13447.747970456619
 21
7180.5555879455515
 31
0.0
  0
LINE
  5
5524
  8
FUTO
 10
13450.94797045662
 20
8319.5555879455515
 30
0.0
 11
13450.94797045662
 21
7180.5555879455515
 31
0.0
  0
LINE
  5
5525
  8
FUTO
 10
12264.547970456621
 20
8319.5555879455515
 30
0.0
 11
12264.547970456621
 21
7180.5555879455515
 31
0.0
  0
LINE
  5
552A
  8
FUTO
 10
13525.94797045662
 20
8319.5555879455515
 30
0.0
 11
13525.94797045662
 21
7199.5555879455533
 31
0.0
  0
LINE
  5
552B
  8
FUTO
 10
12189.547970456621
 20
8319.5555879455515
 30
0.0
 11
12189.547970456621
 21
7199.5555879455524
 31
0.0
  0
LINE
  5
5533
  8
CT
 10
12056.747970456619
 20
7340.9225459815152
 30
0.0
 11
12056.747970456619
 21
7008.876497208018
 31
0.0
  0
LINE
  5
5534
  8
CT
 10
11376.747970456619
 20
7340.9225459815152
 30
0.0
 11
11376.747970456619
 21
7008.876497208018
 31
0.0
  0
LINE
  5
5537
  8
CT
 10
12011.747970456619
 20
7112.4984447248198
 30
0.0
 11
12011.747970456619
 21
7022.4984447248207
 31
0.0
  0
LINE
  5
5538
  8
CT
 10
12101.747970456619
 20
7112.4984447248198
 30
0.0
 11
12101.747970456619
 21
7022.4984447248207
 31
0.0
  0
LINE
  5
5548
  8
FUTO
 10
12084.247970456619
 20
7300.5555879455515
 30
0.0
 11
12120.747970456619
 21
7300.5555879455515
 31
0.0
  0
LINE
  5
5549
  8
FUTO
 10
12084.247970456619
 20
7313.5555879455496
 30
0.0
 11
12084.247970456619
 21
7100.5555879455515
 31
0.0
  0
LINE
  5
554A
  8
FUTO
 10
12029.247970456619
 20
7313.5555879455496
 30
0.0
 11
12029.247970456619
 21
7100.5555879455515
 31
0.0
  0
ARC
  5
554B
  8
FUTO
 10
12123.747970456619
 20
7097.5555879455515
 30
0.0
 40
3.0
 50
0.0
 51
90.0
  0
ARC
  5
554C
  8
FUTO
 10
11989.747970456619
 20
7097.5555879455515
 30
0.0
 40
3.0
 50
90.000000000000028
 51
180.0
  0
LINE
  5
554D
  8
FUTO
 10
12134.747970456619
 20
7300.5555879455515
 30
0.0
 11
12120.747970456619
 21
7300.5555879455515
 31
0.0
  0
LINE
  5
554E
  8
FUTO
 10
12110.747970456619
 20
7313.5555879455496
 30
0.0
 11
12110.747970456619
 21
7300.5555879455515
 31
0.0
  0
LINE
  5
554F
  8
FUTO
 10
11992.747970456619
 20
7300.5555879455515
 30
0.0
 11
12029.247970456619
 21
7300.5555879455515
 31
0.0
  0
LINE
  5
5550
  8
FUTO
 10
12002.747970456619
 20
7313.5555879455496
 30
0.0
 11
12002.747970456619
 21
7300.5555879455515
 31
0.0
  0
LINE
  5
5551
  8
FUTO
 10
11978.747970456619
 20
7300.5555879455515
 30
0.0
 11
11992.747970456619
 21
7300.5555879455515
 31
0.0
  0
LINE
  5
5552
  8
FUTO
 10
12002.747970456619
 20
7313.5555879455496
 30
0.0
 11
12110.747970456619
 21
7313.5555879455496
 31
0.0
  0
LINE
  5
5553
  8
FUTO
 10
12134.747970456619
 20
7060.5555879455524
 30
0.0
 11
12126.747970456619
 21
7060.5555879455524
 31
0.0
  0
LINE
  5
5554
  8
FUTO
 10
12142.747970456619
 20
7100.5555879455515
 30
0.0
 11
12134.747970456619
 21
7080.5555879455515
 31
0.0
  0
LINE
  5
5555
  8
FUTO
 10
12126.747970456619
 20
7097.5555879455515
 30
0.0
 11
12126.747970456619
 21
7050.5555879455515
 31
0.0
  0
LINE
  5
5556
  8
FUTO
 10
12142.747970456619
 20
7260.5555879455524
 30
0.0
 11
12142.747970456619
 21
7100.5555879455515
 31
0.0
  0
LINE
  5
5557
  8
FUTO
 10
11978.747970456619
 20
7060.5555879455524
 30
0.0
 11
11986.747970456619
 21
7060.5555879455524
 31
0.0
  0
LINE
  5
5558
  8
FUTO
 10
11970.747970456619
 20
7100.5555879455515
 30
0.0
 11
11978.747970456619
 21
7080.5555879455515
 31
0.0
  0
LINE
  5
5559
  8
FUTO
 10
11986.747970456619
 20
7097.5555879455515
 30
0.0
 11
11986.747970456619
 21
7050.5555879455515
 31
0.0
  0
LINE
  5
555A
  8
FUTO
 10
11970.747970456619
 20
7260.5555879455524
 30
0.0
 11
11970.747970456619
 21
7100.5555879455515
 31
0.0
  0
LINE
  5
555B
  8
FUTO
 10
11989.747970456619
 20
7100.5555879455515
 30
0.0
 11
12123.747970456619
 21
7100.5555879455515
 31
0.0
  0
LINE
  5
555C
  8
FUTO
 10
11976.747970456619
 20
7050.5555879455515
 30
0.0
 11
12136.747970456619
 21
7050.5555879455515
 31
0.0
  0
LINE
  5
555D
  8
FUTO
 10
12120.747970456619
 20
7300.5555879455515
 30
0.0
 11
12120.747970456619
 21
7100.5555879455515
 31
0.0
  0
LINE
  5
555E
  8
FUTO
 10
12134.747970456619
 20
7300.5555879455515
 30
0.0
 11
12134.747970456619
 21
7060.5555879455524
 31
0.0
  0
LINE
  5
555F
  8
FUTO
 10
12142.747970456619
 20
7260.5555879455524
 30
0.0
 11
12134.747970456619
 21
7280.5555879455515
 31
0.0
  0
LINE
  5
5560
  8
FUTO
 10
11970.747970456619
 20
7260.5555879455524
 30
0.0
 11
11978.747970456619
 21
7280.5555879455515
 31
0.0
  0
LINE
  5
5561
  8
FUTO
 10
11978.747970456619
 20
7300.5555879455515
 30
0.0
 11
11978.747970456619
 21
7060.5555879455524
 31
0.0
  0
LINE
  5
5562
  8
FUTO
 10
12120.747970456619
 20
7300.5555879455515
 30
0.0
 11
12120.747970456619
 21
7100.5555879455515
 31
0.0
  0
LINE
  5
5563
  8
FUTO
 10
11992.747970456619
 20
7300.5555879455515
 30
0.0
 11
11992.747970456619
 21
7100.5555879455515
 31
0.0
  0
LINE
  5
55BF
  8
FUTO
 10
11451.747970456619
 20
7072.5555879455515
 30
0.0
 11
11301.747970456619
 21
7072.5555879455533
 31
0.0
  0
LINE
  5
55C1
  8
FUTO
 10
11451.747970456619
 20
7072.5555879455515
 30
0.0
 11
11451.747970456619
 21
7032.5555879455524
 31
0.0
  0
LINE
  5
55C6
  8
FUTO
 10
11301.747970456619
 20
7072.5555879455533
 30
0.0
 11
11301.747970456619
 21
5430.5555879455524
 31
0.0
  0
LINE
  5
55CC
  8
FUTO
 10
11321.747970456619
 20
7080.5555879455533
 30
0.0
 11
11321.747970456619
 21
7072.5555879455533
 31
0.0
  0
LINE
  5
55CD
  8
FUTO
 10
11431.747970456619
 20
7080.5555879455533
 30
0.0
 11
11431.747970456619
 21
7072.5555879455515
 31
0.0
  0
LINE
  5
55DF
  8
FUTO
 10
11966.747970456619
 20
7042.5555879455515
 30
0.0
 11
12146.747970456619
 21
7042.5555879455515
 31
0.0
  0
LINE
  5
55E0
  8
FUTO
 10
12146.747970456619
 20
7042.5555879455515
 30
0.0
 11
12146.747970456619
 21
5430.5555879455524
 31
0.0
  0
LINE
  5
55E6
  8
FUTO
 10
11966.747970456619
 20
7042.5555879455515
 30
0.0
 11
11966.747970456619
 21
7032.5555879455524
 31
0.0
  0
LINE
  5
55ED
  8
FUTO
 10
11976.747970456619
 20
7050.5555879455515
 30
0.0
 11
11976.747970456619
 21
7042.5555879455515
 31
0.0
  0
LINE
  5
55EE
  8
FUTO
 10
12136.747970456619
 20
7050.5555879455515
 30
0.0
 11
12136.747970456619
 21
7042.5555879455515
 31
0.0
  0
LINE
  5
55F3
  8
FUTO
 10
11966.747970456619
 20
7032.5555879455524
 30
0.0
 11
11451.747970456619
 21
7032.5555879455524
 31
0.0
  0
LINE
  5
5600
  8
FUTO
 10
12199.547970456621
 20
7189.5555879455524
 30
0.0
 11
13515.94797045662
 21
7189.5555879455524
 31
0.0
  0
LINE
  5
5601
  8
FUTO
 10
12199.547970456621
 20
7171.5555879455524
 30
0.0
 11
13515.94797045662
 21
7171.5555879455524
 31
0.0
  0
LINE
  5
5602
  8
FUTO
 10
12199.547970456621
 20
7189.5555879455524
 30
0.0
 11
12199.547970456621
 21
7171.5555879455524
 31
0.0
  0
LINE
  5
5603
  8
FUTO
 10
12267.747970456619
 20
7180.5555879455515
 30
0.0
 11
12267.747970456619
 21
5430.5555879455515
 31
0.0
  0
LINE
  5
5604
  8
FUTO
 10
12264.547970456621
 20
7180.5555879455515
 30
0.0
 11
12264.547970456621
 21
5430.5555879455515
 31
0.0
  0
LINE
  5
5605
  8
FUTO
 10
13450.94797045662
 20
7180.5555879455515
 30
0.0
 11
13450.947970456609
 21
5430.5555879455515
 31
0.0
  0
LINE
  5
5606
  8
FUTO
 10
13447.747970456619
 20
7180.5555879455515
 30
0.0
 11
13447.74797045661
 21
5430.5555879455515
 31
0.0
  0
LINE
  5
5608
  8
FUTO
 10
13515.94797045662
 20
7189.5555879455533
 30
0.0
 11
13525.94797045662
 21
7199.5555879455533
 31
0.0
  0
LINE
  5
5609
  8
FUTO
 10
13515.94797045662
 20
7171.5555879455524
 30
0.0
 11
13525.94797045662
 21
7161.5555879455515
 31
0.0
  0
LINE
  5
560A
  8
FUTO
 10
13525.94797045662
 20
7161.5555879455515
 30
0.0
 11
13525.94797045662
 21
7080.0061475691218
 31
0.0
  0
LINE
  5
560B
  8
FUTO
 10
12199.547970456621
 20
7189.5555879455524
 30
0.0
 11
12189.547970456621
 21
7199.5555879455524
 31
0.0
  0
LINE
  5
560C
  8
FUTO
 10
12199.547970456621
 20
7171.5555879455524
 30
0.0
 11
12189.547970456621
 21
7161.5555879455533
 31
0.0
  0
LINE
  5
560D
  8
FUTO
 10
12189.547970456621
 20
7161.5555879455515
 30
0.0
 11
12189.547970456621
 21
7080.0061475691209
 31
0.0
  0
LINE
  5
560E
  8
SL
 10
11116.747970456619
 20
7495.5555879455524
 30
0.0
 11
11116.74797045661
 21
5558.0555879455533
 31
0.0
  0
LINE
  5
560F
  8
SL
 10
11116.747970456619
 20
7495.5555879455524
 30
0.0
 11
11194.647970456621
 21
7495.5555879455524
 31
0.0
  0
LINE
  5
5610
  8
SL
 10
11116.747970456619
 20
6865.5555879455524
 30
0.0
 11
11194.647970456621
 21
6865.5555879455524
 31
0.0
  0
LINE
  5
5611
  8
SL
 10
11194.647970456621
 20
7495.5555879455524
 30
0.0
 11
11194.647970456621
 21
7260.5555879455524
 31
0.0
  0
LINE
  5
5613
  8
SL
 10
11216.747970456619
 20
7260.5555879455524
 30
0.0
 11
11216.747970456619
 21
7100.5555879455515
 31
0.0
  0
LINE
  5
5614
  8
SL
 10
11194.647970456621
 20
7260.5555879455524
 30
0.0
 11
11216.747970456619
 21
7260.5555879455524
 31
0.0
  0
LINE
  5
5615
  8
SL
 10
11194.647970456621
 20
7100.5555879455515
 30
0.0
 11
11216.747970456619
 21
7100.5555879455515
 31
0.0
  0
LINE
  5
5616
  8
SL
 10
11194.647970456621
 20
7100.5555879455515
 30
0.0
 11
11194.647970456621
 21
6865.5555879455524
 31
0.0
  0
LINE
  5
5617
  8
CT
 10
9793.6292105165976
 20
5690.5555879455515
 30
0.0
 11
10132.213454490289
 21
5690.5555879455515
 31
0.0
  0
LINE
  5
5618
  8
SL
 10
11116.747970456619
 20
5823.0555879455515
 30
0.0
 11
11194.647970456621
 21
5823.0555879455515
 31
0.0
  0
LINE
  5
5619
  8
SL
 10
11116.747970456619
 20
5558.0555879455524
 30
0.0
 11
11194.647970456621
 21
5558.0555879455524
 31
0.0
  0
LINE
  5
561A
  8
SL
 10
11194.647970456621
 20
7495.5555879455524
 30
0.0
 11
11194.64797045661
 21
5558.0555879455524
 31
0.0
  0
LINE
  5
561B
  8
SL
 10
11214.747970456619
 20
5760.5555879455515
 30
0.0
 11
11214.747970456619
 21
5620.5555879455524
 31
0.0
  0
LINE
  5
561C
  8
SL
 10
11194.647970456621
 20
5760.5555879455515
 30
0.0
 11
11214.747970456619
 21
5760.5555879455515
 31
0.0
  0
LINE
  5
561D
  8
SL
 10
11194.647970456621
 20
5620.5555879455524
 30
0.0
 11
11214.747970456619
 21
5620.5555879455524
 31
0.0
  0
LINE
  5
561E
  8
SL
 10
11194.647970456621
 20
5620.5555879455524
 30
0.0
 11
11194.647970456621
 21
5558.0555879455524
 31
0.0
  0
LINE
  5
561F
  8
FUTO
 10
10977.747970456619
 20
7560.5555879455524
 30
0.0
 11
11266.747970456619
 21
7560.5555879455524
 31
0.0
  0
LINE
  5
5620
  8
FUTO
 10
10977.74797045661
 20
5470.5555879455524
 30
0.0
 11
11266.747970456619
 21
5470.5555879455515
 31
0.0
  0
LINE
  5
5621
  8
FUTO
 10
10977.747970456619
 20
7560.5555879455524
 30
0.0
 11
10977.74797045661
 21
5470.5555879455524
 31
0.0
  0
LINE
  5
5622
  8
FUTO
 10
11266.747970456619
 20
7560.5555879455524
 30
0.0
 11
11266.747970456619
 21
5470.5555879455524
 31
0.0
  0
LINE
  5
5623
  8
FUTO
 10
11446.747970456619
 20
7230.5555879455515
 30
0.0
 11
11970.747970456619
 21
7230.5555879455515
 31
0.0
  0
LINE
  5
5624
  8
FUTO
 10
11446.747970456619
 20
7130.5555879455515
 30
0.0
 11
11970.747970456619
 21
7130.5555879455515
 31
0.0
  0
LINE
  5
5625
  8
KL
 10
12142.747970456619
 20
7230.5555879455515
 30
0.0
 11
12264.547970456621
 21
7230.5555879455515
 31
0.0
  0
LINE
  5
5626
  8
KL
 10
12142.747970456619
 20
7130.5555879455515
 30
0.0
 11
12264.547970456621
 21
7130.5555879455515
 31
0.0
  0
LINE
  5
5627
  8
FUTO
 10
11216.747970456619
 20
7223.0555879455524
 30
0.0
 11
11306.747970456619
 21
7223.0555879455524
 31
0.0
  0
LINE
  5
5628
  8
FUTO
 10
11216.747970456619
 20
7138.0555879455515
 30
0.0
 11
11306.747970456619
 21
7138.0555879455515
 31
0.0
  0
LINE
  5
5694
  8
FUTO
 10
10251.590454112789
 20
9617.9655091466575
 30
0.0
 11
8076.5904541127939
 21
9617.9655091466575
 31
0.0
  0
LINE
  5
5695
  8
FUTO
 10
9651.5904541127948
 20
11917.96550914665
 30
0.0
 11
7751.5904541127929
 21
11917.96550914665
 31
0.0
  0
LINE
  5
5696
  8
FUTO
 10
7751.5904541127929
 20
11917.96550914665
 30
0.0
 11
7751.5904541127929
 21
11892.96550914665
 31
0.0
  0
LINE
  5
5699
  8
FUTO
 10
10072.590454112789
 20
10654.96550914665
 30
0.0
 11
8701.5904541127948
 21
10654.96550914665
 31
0.0
  0
LINE
  5
569A
  8
FUTO
 10
10251.590454112789
 20
10579.96550914665
 30
0.0
 11
7751.5904541127929
 21
10579.96550914665
 31
0.0
  0
LINE
  5
569B
  8
FUTO
 10
10251.590454112789
 20
9692.9655091466557
 30
0.0
 11
8076.5904541127939
 21
9692.9655091466557
 31
0.0
  0
LINE
  5
569C
  8
FUTO
 10
10072.590454112789
 20
11842.96550914665
 30
0.0
 11
8701.5904541127948
 21
11842.96550914665
 31
0.0
  0
LINE
  5
56A0
  8
FUTO
 10
8076.5904541127939
 20
10579.96550914665
 30
0.0
 11
8076.5904541127939
 21
9617.9655091466575
 31
0.0
  0
LINE
  5
56A2
  8
FUTO
 10
8151.5904541127939
 20
10579.96550914665
 30
0.0
 11
8151.5904541127939
 21
9692.9655091466557
 31
0.0
  0
LINE
  5
56A4
  8
FUTO
 10
9326.5904541127948
 20
10579.96550914665
 30
0.0
 11
9326.5904541127948
 21
9692.9655091466557
 31
0.0
  0
LINE
  5
56A6
  8
FUTO
 10
9651.5904541127948
 20
11917.96550914665
 30
0.0
 11
9651.5904541127948
 21
11892.96550914665
 31
0.0
  0
LINE
  5
56A7
  8
FUTO
 10
9251.5904541127929
 20
10579.96550914665
 30
0.0
 11
9251.5904541127929
 21
9692.9655091466557
 31
0.0
  0
LINE
  5
56A8
  8
FUTO
 10
10251.590454112789
 20
10654.96550914665
 30
0.0
 11
10251.590454112789
 21
10579.96550914665
 31
0.0
  0
LINE
  5
56A9
  8
FUTO
 10
10251.590454112789
 20
9692.9655091466557
 30
0.0
 11
10251.590454112789
 21
9617.9655091466575
 31
0.0
  0
LINE
  5
56AC
  8
FUTO
 10
10141.590454112789
 20
10579.96550914665
 30
0.0
 11
10141.590454112789
 21
10255.504066774811
 31
0.0
  0
LINE
  5
56AD
  8
FUTO
 10
10076.590454112789
 20
10579.96550914665
 30
0.0
 11
10076.590454112789
 21
10307.46550914665
 31
0.0
  0
LINE
  5
56AE
  8
FUTO
 10
9826.5904541127948
 20
10579.96550914665
 30
0.0
 11
9826.5904541127948
 21
10307.46550914665
 31
0.0
  0
LINE
  5
56AF
  8
FUTO
 10
9761.5904541127929
 20
10579.96550914665
 30
0.0
 11
9761.5904541127929
 21
10248.36547214665
 31
0.0
  0
LINE
  5
56B0
  8
CT
 10
10476.17691439221
 20
11248.96550914665
 30
0.0
 11
7501.5501295176573
 21
11248.96550914665
 31
0.0
  0
LINE
  5
69CC
  8
CT
 10
13427.747970456619
 20
8020.5555879455533
 30
0.0
 11
13470.94797045662
 21
8020.5555879455533
 31
0.0
  0
DIMENSION
  5
6A61
  8
SP
  2
*D3
 10
8701.5904541127948
 20
4765.0432777624483
 30
0.0
 11
8226.5904541127929
 21
4852.5432777624483
 31
0.0
 70
     0
 13
7751.5904541127929
 23
5015.5555879455515
 33
0.0
 14
8701.5904541127948
 24
5015.5555879455515
 34
0.0
1001
ACAD
1000
DSTYLE
1002
{
1070
    40
1040
35.0
1070
   147
1040
1.0
1070
    41
1040
2.5
1002
}
  0
DIMENSION
  5
6A6E
  8
SP
  2
*D4
 10
10251.590454112789
 20
4765.0432777624483
 30
0.0
 11
9476.5904541127929
 21
4852.5432777624483
 31
0.0
 70
     0
 13
8701.5904541127948
 23
5105.5555879455524
 33
0.0
 14
10251.590454112789
 24
5105.5555879455524
 34
0.0
1001
ACAD
1000
DSTYLE
1002
{
1070
    40
1040
35.0
1070
   147
1040
1.0
1070
    41
1040
2.5
1002
}
  0
DIMENSION
  5
6A7B
  8
SP
  2
*D5
 10
10251.590454112789
 20
4514.9555337647907
 30
0.0
 11
9001.5904541127929
 21
4602.4555337647907
 31
0.0
 70
     0
 13
7751.5904541127929
 23
5015.5555879455515
 33
0.0
 14
10251.590454112789
 24
5015.5555879455515
 34
0.0
1001
ACAD
1000
DSTYLE
1002
{
1070
    40
1040
35.0
1070
   147
1040
1.0
1070
    41
1040
2.5
1002
}
  0
DIMENSION
  5
6A88
  8
SP
  2
*D6
 10
12857.747970456619
 20
4765.0432543746092
 30
0.0
 11
12042.247970456619
 21
4852.5432543746101
 31
0.0
 70
     0
 13
11226.747970456619
 23
5015.5555879455496
 33
0.0
 14
12857.747970456619
 24
5015.5555879455515
 34
0.0
1001
ACAD
1000
DSTYLE
1002
{
1070
    40
1040
35.0
1070
   147
1040
1.0
1070
    41
1040
2.5
1002
}
  0
DIMENSION
  5
6A95
  8
SP
  2
*D7
 10
13526.747970456619
 20
4765.0432543746092
 30
0.0
 11
13192.247970456619
 21
4852.5432543746101
 31
0.0
 70
     0
 13
12857.747970456619
 23
5015.5555879455515
 33
0.0
 14
13526.747970456619
 24
5015.5555879455496
 34
0.0
1001
ACAD
1000
DSTYLE
1002
{
1070
    40
1040
35.0
1070
   147
1040
1.0
1070
    41
1040
2.5
1002
}
  0
DIMENSION
  5
6AA2
  8
SP
  2
*D8
 10
13526.747970456619
 20
4514.9555103769517
 30
0.0
 11
12376.747970456619
 21
4602.4555103769526
 31
0.0
 70
     0
 13
11226.747970456619
 23
5015.5555879455496
 33
0.0
 14
13526.747970456619
 24
5015.5555879455496
 34
0.0
1001
ACAD
1000
DSTYLE
1002
{
1070
    40
1040
35.0
1070
   147
1040
1.0
1070
    41
1040
2.5
1002
}
  0
LINE
  5
6ADF
  8
FUTO
 10
13582.747970456619
 20
8045.5555879455524
 30
0.0
 11
13582.747970456619
 21
6315.5555879455515
 31
0.0
  0
LINE
  5
6AE1
  8
KL
 10
13450.94797045662
 20
7980.5555879455515
 30
0.0
 11
13582.747970456619
 21
7980.5555879455515
 31
0.0
  0
LINE
  5
6AE5
  8
KL
 10
13450.94797045662
 20
8045.5555879455524
 30
0.0
 11
13456.94797045662
 21
8045.5555879455524
 31
0.0
  0
LINE
  5
6AE7
  8
FUTO
 10
13576.747970456619
 20
8045.5555879455524
 30
0.0
 11
13576.747970456619
 21
6315.5555879455515
 31
0.0
  0
LINE
  5
6AE8
  8
FUTO
 10
13525.94797045662
 20
7986.5555879455515
 30
0.0
 11
13576.747970456619
 21
7986.5555879455515
 31
0.0
  0
LINE
  5
6AEA
  8
KL
 10
13456.94797045662
 20
8045.5555879455524
 30
0.0
 11
13456.94797045662
 21
7189.5555879455524
 31
0.0
  0
LINE
  5
6AEB
  8
FUTO
 10
13576.747970456619
 20
8045.5555879455524
 30
0.0
 11
13582.747970456619
 21
8045.5555879455524
 31
0.0
  0
LINE
  5
6AEC
  8
CT
 10
13557.747970456619
 20
8020.5555879455533
 30
0.0
 11
13600.94797045662
 21
8020.5555879455533
 31
0.0
  0
LINE
  5
6AED
  8
KL
 10
13450.94797045662
 20
6380.5555879455515
 30
0.0
 11
13582.747970456619
 21
6380.5555879455515
 31
0.0
  0
LINE
  5
6AEE
  8
CT
 10
13427.747970456619
 20
6340.5555879455515
 30
0.0
 11
13470.94797045662
 21
6340.5555879455515
 31
0.0
  0
LINE
  5
6AEF
  8
KL
 10
13450.94797045662
 20
6315.5555879455515
 30
0.0
 11
13456.94797045662
 21
6315.5555879455515
 31
0.0
  0
LINE
  5
6AF0
  8
CT
 10
13557.747970456619
 20
6340.5555879455515
 30
0.0
 11
13600.94797045662
 21
6340.5555879455515
 31
0.0
  0
LINE
  5
6AF1
  8
FUTO
 10
13525.94797045662
 20
6374.5555879455515
 30
0.0
 11
13576.747970456619
 21
6374.5555879455515
 31
0.0
  0
LINE
  5
6AF2
  8
FUTO
 10
13576.747970456619
 20
6315.5555879455515
 30
0.0
 11
13582.747970456619
 21
6315.5555879455515
 31
0.0
  0
LINE
  5
6AF3
  8
KL
 10
13456.94797045662
 20
7171.5555879455524
 30
0.0
 11
13456.94797045662
 21
6315.5555879455515
 31
0.0
  0
DIMENSION
  5
6B00
  8
SP
  2
*D9
 10
13582.747970456619
 20
8640.1296095625257
 30
0.0
 11
13220.247970456619
 21
8727.6296095625257
 31
0.0
 70
     0
 13
12857.747970456619
 23
8594.1572300135576
 33
0.0
 14
13582.747970456619
 24
8031.0924615527747
 34
0.0
1001
ACAD
1000
DSTYLE
1002
{
1070
    40
1040
35.0
1070
   147
1040
1.0
1070
    41
1040
2.5
1002
}
  0
LINE
  5
6E16
  8
SL
 10
11467.967956511029
 20
7032.5555879455524
 30
0.0
 11
11467.967956511029
 21
7337.3729465491424
 31
0.0
  0
LINE
  5
6E17
  8
SL
 10
11467.967956511029
 20
7337.3729465491424
 30
0.0
 11
11953.923328939791
 21
7337.3729465491424
 31
0.0
  0
LINE
  5
6E18
  8
SL
 10
11953.923328939791
 20
7337.3729465491424
 30
0.0
 11
11953.923328939791
 21
7032.5555879455524
 31
0.0
  0
INSERT
  5
6E51
  8
FUTO
  2
右回転矢印
 10
8912.0961538840747
 20
7793.3569121927903
 30
0.0
 41
35.0
 42
35.0
 43
35.0
  0
INSERT
  5
6EE2
  8
FUTO
  2
まっすぐの矢印
 10
7425.7039303689617
 20
6783.6380872749551
 30
0.0
 41
-35.0
 42
35.0
 43
35.0
 50
90.0
  0
INSERT
  5
6EEC
  8
FUTO
  2
まっすぐの矢印
 10
13629.215950027779
 20
7708.2572882891154
 30
0.0
 41
35.0
 42
35.0
 43
35.0
 50
90.0
  0
DIMENSION
  5
6F64
  8
SP
  2
*D10
 10
13861.9413716585
 20
6380.5555879455515
 30
0.0
 11
13774.44137165849
 21
7180.5555879455542
 31
0.0
 70
     0
 13
13582.747970456619
 23
7980.5555879455515
 33
0.0
 14
13582.747970456619
 24
6380.5555879455515
 34
0.0
 50
90.0
1001
ACAD
1000
DSTYLE
1002
{
1070
    40
1040
35.0
1070
     3
1000
φ<>
1070
   147
1040
1.0
1070
    41
1040
2.5
1002
}
  0
DIMENSION
  5
6FB2
  8
SP
  2
*D11
 10
12857.747970456619
 20
8640.1296095625257
 30
0.0
 11
11917.747970456619
 21
8727.6296095625257
 31
0.0
 70
     0
 13
10977.747970456619
 23
7545.824179258424
 33
0.0
 14
12857.747970456619
 24
8640.1296095625257
 34
0.0
1001
ACAD
1000
DSTYLE
1002
{
1070
    40
1040
35.0
1070
    41
1040
2.5
1070
   147
1040
1.0
1002
}
  0
LINE
  5
6FD7
  8
CT
 10
8701.5904541127948
 20
9255.1023123609484
 30
0.0
 11
8701.5904541127948
 21
12018.743420963519
 31
0.0
  0
LINE
  5
6FDA
  8
FUTO
 10
8321.5904541127911
 20
9368.9655091466593
 30
0.0
 11
10155.090454112789
 21
9368.9655091466539
 31
0.0
  0
LINE
  5
6FDB
  8
FUTO
 10
8321.5904541127911
 20
9657.9655091466575
 30
0.0
 11
10155.090454112789
 21
9657.9655091466593
 31
0.0
  0
LINE
  5
6FDC
  8
SL
 10
8386.5904541127929
 20
9585.865509146659
 30
0.0
 11
9819.0904541127948
 21
9585.8655091466535
 31
0.0
  0
LINE
  5
6FDD
  8
SL
 10
8386.5904541127929
 20
9507.9655091466593
 30
0.0
 11
10084.090454112789
 21
9507.9655091466539
 31
0.0
  0
LINE
  5
6FE5
  8
SL
 10
9819.0904541127966
 20
9605.9655091466539
 30
0.0
 11
10084.090454112789
 21
9605.9655091466539
 31
0.0
  0
LINE
  5
6FE8
  8
FUTO
 10
8321.5904541127911
 20
9368.9655091466575
 30
0.0
 11
8321.5904541127911
 21
9657.9655091466575
 31
0.0
  0
LINE
  5
6FE9
  8
SL
 10
8781.5904541127929
 20
9585.8655091466571
 30
0.0
 11
8781.5904541127929
 21
9607.9655091466593
 31
0.0
  0
LINE
  5
6FEA
  8
SL
 10
8621.5904541127929
 20
9585.8655091466571
 30
0.0
 11
8621.5904541127929
 21
9607.9655091466593
 31
0.0
  0
LINE
  5
6FEB
  8
SL
 10
8386.5904541127929
 20
9585.865509146659
 30
0.0
 11
8621.5904541127929
 21
9585.8655091466571
 31
0.0
  0
LINE
  5
6FEC
  8
SL
 10
8781.5904541127929
 20
9585.8655091466571
 30
0.0
 11
9016.5904541127911
 21
9585.8655091466571
 31
0.0
  0
LINE
  5
6FED
  8
SL
 10
9016.5904541127911
 20
9507.9655091466575
 30
0.0
 11
9016.5904541127911
 21
9585.8655091466571
 31
0.0
  0
LINE
  5
6FEE
  8
SL
 10
8386.5904541127929
 20
9507.9655091466593
 30
0.0
 11
8386.5904541127929
 21
9585.865509146659
 31
0.0
  0
LINE
  5
6FF1
  8
FUTO
 10
8751.5904541127929
 20
9837.9655091466575
 30
0.0
 11
8751.5904541127929
 21
10361.96550914665
 31
0.0
  0
LINE
  5
6FF2
  8
FUTO
 10
8651.5904541127948
 20
9837.9655091466575
 30
0.0
 11
8651.5904541127948
 21
10361.96550914665
 31
0.0
  0
LINE
  5
6FF5
  8
CT
 10
8541.2234960768292
 20
9767.9655091466575
 30
0.0
 11
8873.2695448503255
 21
9767.9655091466575
 31
0.0
  0
LINE
  5
6FF6
  8
FUTO
 10
8601.5904541127929
 20
9717.9655091466575
 30
0.0
 11
8801.5904541127948
 21
9717.9655091466575
 31
0.0
  0
ARC
  5
6FF7
  8
FUTO
 10
8790.5904541127929
 20
9708.9655091466575
 30
0.0
 40
6.0
 50
270.0
 51
0.000000000000007
  0
LINE
  5
6FF8
  8
FUTO
 10
8801.5904541127948
 20
9817.9655091466575
 30
0.0
 11
8601.5904541127929
 21
9817.9655091466575
 31
0.0
  0
ARC
  5
6FF9
  8
FUTO
 10
8790.5904541127929
 20
9826.9655091466575
 30
0.0
 40
6.0
 50
0.000000000000007
 51
90.0
  0
LINE
  5
6FFD
  8
FUTO
 10
8796.5904541127929
 20
9708.9655091466557
 30
0.0
 11
8796.5904541127929
 21
9717.9655091466575
 31
0.0
  0
LINE
  5
7000
  8
FUTO
 10
8796.5904541127929
 20
9826.9655091466575
 30
0.0
 11
8796.5904541127929
 21
9817.9655091466575
 31
0.0
  0
ARC
  5
7001
  8
FUTO
 10
8612.5904541127948
 20
9708.9655091466575
 30
0.0
 40
6.0
 50
180.0
 51
270.0
  0
ARC
  5
7002
  8
FUTO
 10
8612.5904541127948
 20
9826.9655091466575
 30
0.0
 40
6.0
 50
90.0
 51
180.0
  0
LINE
  5
7004
  8
FUTO
 10
8744.0904541127929
 20
9607.9655091466593
 30
0.0
 11
8744.0904541127929
 21
9697.9655091466593
 31
0.0
  0
LINE
  5
7005
  8
FUTO
 10
8659.0904541127911
 20
9607.9655091466593
 30
0.0
 11
8659.0904541127911
 21
9697.9655091466593
 31
0.0
  0
LINE
  5
7006
  8
SL
 10
8621.5904541127929
 20
9607.9655091466593
 30
0.0
 11
8781.5904541127929
 21
9607.9655091466593
 31
0.0
  0
LINE
  5
7007
  8
FUTO
 10
8621.5904541127929
 20
9697.9655091466593
 30
0.0
 11
8781.5904541127929
 21
9697.9655091466593
 31
0.0
  0
LINE
  5
7008
  8
FUTO
 10
8612.5904541127948
 20
9702.9655091466575
 30
0.0
 11
8790.5904541127929
 21
9702.9655091466575
 31
0.0
  0
LINE
  5
7009
  8
FUTO
 10
8781.5904541127929
 20
9697.9655091466593
 30
0.0
 11
8781.5904541127929
 21
9702.9655091466575
 31
0.0
  0
LINE
  5
700B
  8
FUTO
 10
8621.5904541127929
 20
9702.9655091466575
 30
0.0
 11
8621.5904541127929
 21
9697.9655091466593
 31
0.0
  0
LINE
  5
700C
  8
FUTO
 10
8612.5904541127948
 20
9832.9655091466575
 30
0.0
 11
8790.5904541127929
 21
9832.9655091466575
 31
0.0
  0
LINE
  5
700D
  8
FUTO
 10
8621.5904541127929
 20
9837.9655091466575
 30
0.0
 11
8781.5904541127929
 21
9837.9655091466575
 31
0.0
  0
LINE
  5
700F
  8
FUTO
 10
8781.5904541127929
 20
9837.9655091466575
 30
0.0
 11
8781.5904541127929
 21
9832.9655091466575
 31
0.0
  0
LINE
  5
7010
  8
FUTO
 10
8621.5904541127929
 20
9832.9655091466575
 30
0.0
 11
8621.5904541127929
 21
9837.9655091466575
 31
0.0
  0
LINE
  5
7011
  8
FUTO
 10
8601.5904541127929
 20
9817.9655091466575
 30
0.0
 11
8601.5904541127929
 21
9717.9655091466575
 31
0.0
  0
LINE
  5
7012
  8
FUTO
 10
8606.5904541127948
 20
9717.9655091466575
 30
0.0
 11
8606.5904541127948
 21
9708.9655091466557
 31
0.0
  0
LINE
  5
7013
  8
FUTO
 10
8606.5904541127948
 20
9817.9655091466575
 30
0.0
 11
8606.5904541127948
 21
9826.9655091466575
 31
0.0
  0
LINE
  5
7015
  8
FUTO
 10
8581.5904541127929
 20
10369.96550914665
 30
0.0
 11
8821.5904541127911
 21
10369.96550914665
 31
0.0
  0
LINE
  5
7016
  8
FUTO
 10
8581.5904541127929
 20
10525.96550914665
 30
0.0
 11
8821.5904541127911
 21
10525.96550914665
 31
0.0
  0
LINE
  5
7018
  8
FUTO
 10
8781.5904541127929
 20
10361.96550914665
 30
0.0
 11
8801.5904541127948
 21
10369.96550914665
 31
0.0
  0
LINE
  5
701A
  8
FUTO
 10
8781.5904541127929
 20
10533.96550914665
 30
0.0
 11
8801.5904541127948
 21
10525.96550914665
 31
0.0
  0
LINE
  5
701D
  8
CT
 10
8541.2234960768292
 20
10447.96550914665
 30
0.0
 11
8873.2695448503255
 21
10447.96550914665
 31
0.0
  0
LINE
  5
7022
  8
FUTO
 10
8821.5904541127911
 20
10369.96550914665
 30
0.0
 11
8821.5904541127911
 21
10377.96550914665
 31
0.0
  0
LINE
  5
7024
  8
FUTO
 10
8821.5904541127911
 20
10525.96550914665
 30
0.0
 11
8821.5904541127911
 21
10517.96550914665
 31
0.0
  0
LINE
  5
7026
  8
FUTO
 10
8568.5904541127911
 20
10393.96550914665
 30
0.0
 11
8568.5904541127911
 21
10501.96550914665
 31
0.0
  0
LINE
  5
7027
  8
FUTO
 10
8581.5904541127929
 20
10383.96550914665
 30
0.0
 11
8821.5904541127911
 21
10383.96550914665
 31
0.0
  0
LINE
  5
7028
  8
FUTO
 10
8621.5904541127929
 20
10361.96550914665
 30
0.0
 11
8601.5904541127929
 21
10369.96550914665
 31
0.0
  0
LINE
  5
7029
  8
FUTO
 10
8568.5904541127911
 20
10420.46550914665
 30
0.0
 11
8834.5904541127929
 21
10420.46550914665
 31
0.0
  0
LINE
  5
702A
  8
FUTO
 10
8621.5904541127929
 20
10361.96550914665
 30
0.0
 11
8781.5904541127929
 21
10361.96550914665
 31
0.0
  0
LINE
  5
702C
  8
FUTO
 10
8581.5904541127929
 20
10369.96550914665
 30
0.0
 11
8581.5904541127929
 21
10383.96550914665
 31
0.0
  0
LINE
  5
702D
  8
FUTO
 10
8568.5904541127911
 20
10393.96550914665
 30
0.0
 11
8581.5904541127929
 21
10393.96550914665
 31
0.0
  0
LINE
  5
702E
  8
FUTO
 10
8581.5904541127929
 20
10383.96550914665
 30
0.0
 11
8581.5904541127929
 21
10420.46550914665
 31
0.0
  0
LINE
  5
702F
  8
FUTO
 10
8581.5904541127929
 20
10511.96550914665
 30
0.0
 11
8781.5904541127929
 21
10511.96550914665
 31
0.0
  0
LINE
  5
7030
  8
FUTO
 10
8621.5904541127929
 20
10533.96550914665
 30
0.0
 11
8601.5904541127929
 21
10525.96550914665
 31
0.0
  0
LINE
  5
7031
  8
FUTO
 10
8581.5904541127929
 20
10511.96550914665
 30
0.0
 11
8821.5904541127911
 21
10511.96550914665
 31
0.0
  0
LINE
  5
7032
  8
FUTO
 10
8568.5904541127911
 20
10475.46550914665
 30
0.0
 11
8834.5904541127929
 21
10475.46550914665
 31
0.0
  0
LINE
  5
7033
  8
KL
 10
8751.5904541127929
 20
10533.96550914665
 30
0.0
 11
8751.5904541127929
 21
10655.765509146649
 31
0.0
  0
LINE
  5
7034
  8
KL
 10
8651.5904541127948
 20
10533.96550914665
 30
0.0
 11
8651.5904541127948
 21
10655.765509146649
 31
0.0
  0
LINE
  5
7035
  8
FUTO
 10
8621.5904541127929
 20
10533.96550914665
 30
0.0
 11
8781.5904541127929
 21
10533.96550914665
 31
0.0
  0
LINE
  5
703A
  8
FUTO
 10
8568.5904541127911
 20
10501.96550914665
 30
0.0
 11
8581.5904541127929
 21
10501.96550914665
 31
0.0
  0
LINE
  5
703B
  8
FUTO
 10
8581.5904541127929
 20
10525.96550914665
 30
0.0
 11
8581.5904541127929
 21
10511.96550914665
 31
0.0
  0
LINE
  5
703C
  8
FUTO
 10
8581.5904541127929
 20
10475.46550914665
 30
0.0
 11
8581.5904541127929
 21
10511.96550914665
 31
0.0
  0
LINE
  5
703F
  8
KL
 10
8710.5904541127929
 20
11848.165509146649
 30
0.0
 11
9566.5904541127929
 21
11848.165509146649
 31
0.0
  0
LINE
  5
7040
  8
FUTO
 10
7836.5904541127929
 20
11967.96550914665
 30
0.0
 11
9566.5904541127929
 21
11967.96550914665
 31
0.0
  0
LINE
  5
7041
  8
FUTO
 10
7836.5904541127929
 20
11973.96550914665
 30
0.0
 11
9566.5904541127929
 21
11973.96550914665
 31
0.0
  0
LINE
  5
7045
  8
KL
 10
9566.5904541127929
 20
11842.165509146649
 30
0.0
 11
9566.5904541127929
 21
11848.165509146649
 31
0.0
  0
LINE
  5
7046
  8
FUTO
 10
9566.5904541127929
 20
11967.96550914665
 30
0.0
 11
9566.5904541127929
 21
11973.96550914665
 31
0.0
  0
LINE
  5
7047
  8
FUTO
 10
9507.5904541127911
 20
11917.165509146649
 30
0.0
 11
9507.5904541127911
 21
11967.96550914665
 31
0.0
  0
LINE
  5
7048
  8
KL
 10
9501.5904541127929
 20
11842.165509146649
 30
0.0
 11
9501.5904541127929
 21
11973.96550914665
 31
0.0
  0
LINE
  5
7049
  8
CT
 10
9541.5904541127911
 20
11818.96550914665
 30
0.0
 11
9541.5904541127911
 21
11862.165509146649
 31
0.0
  0
LINE
  5
704A
  8
CT
 10
9541.5904541127911
 20
11948.96550914665
 30
0.0
 11
9541.5904541127911
 21
11992.165509146649
 31
0.0
  0
LINE
  5
704E
  8
KL
 10
7836.5904541127929
 20
11848.165509146649
 30
0.0
 11
8692.5904541127948
 21
11848.165509146649
 31
0.0
  0
INSERT
  5
7052
  8
FUTO
  2
まっすぐの矢印
 10
8444.7292018218232
 20
12020.43348871781
 30
0.0
 41
35.0
 42
35.0
 43
35.0
 50
180.0
  0
LINE
  5
7053
  8
FUTO
 10
7895.5904541127929
 20
11917.165509146649
 30
0.0
 11
7895.5904541127929
 21
11967.96550914665
 31
0.0
  0
LINE
  5
7054
  8
KL
 10
7901.5904541127939
 20
11842.165509146649
 30
0.0
 11
7901.5904541127939
 21
11973.96550914665
 31
0.0
  0
LINE
  5
7055
  8
CT
 10
7861.590454112792
 20
11818.96550914665
 30
0.0
 11
7861.590454112792
 21
11862.165509146649
 31
0.0
  0
LINE
  5
7056
  8
CT
 10
7861.590454112792
 20
11948.96550914665
 30
0.0
 11
7861.590454112792
 21
11992.165509146649
 31
0.0
  0
LINE
  5
7057
  8
KL
 10
7836.5904541127929
 20
11842.165509146649
 30
0.0
 11
7836.5904541127929
 21
11848.165509146649
 31
0.0
  0
LINE
  5
7058
  8
FUTO
 10
7836.5904541127929
 20
11967.96550914665
 30
0.0
 11
7836.5904541127929
 21
11973.96550914665
 31
0.0
  0
LINE
  5
7096
  8
FUTO
 10
8801.5904541127948
 20
9817.9655091466575
 30
0.0
 11
8801.5904541127948
 21
9717.9655091466575
 31
0.0
  0
LINE
  5
7097
  8
FUTO
 10
8834.5904541127929
 20
10393.96550914665
 30
0.0
 11
8834.5904541127929
 21
10501.96550914665
 31
0.0
  0
LINE
  5
7098
  8
FUTO
 10
8821.5904541127911
 20
10383.96550914665
 30
0.0
 11
8821.5904541127911
 21
10420.46550914665
 31
0.0
  0
LINE
  5
7099
  8
FUTO
 10
8834.5904541127929
 20
10393.96550914665
 30
0.0
 11
8821.5904541127911
 21
10393.96550914665
 31
0.0
  0
LINE
  5
709A
  8
FUTO
 10
8821.5904541127911
 20
10369.96550914665
 30
0.0
 11
8821.5904541127911
 21
10383.96550914665
 31
0.0
  0
LINE
  5
709B
  8
FUTO
 10
8821.5904541127911
 20
10475.46550914665
 30
0.0
 11
8821.5904541127911
 21
10511.96550914665
 31
0.0
  0
LINE
  5
709C
  8
FUTO
 10
8821.5904541127911
 20
10525.96550914665
 30
0.0
 11
8821.5904541127911
 21
10511.96550914665
 31
0.0
  0
LINE
  5
709D
  8
FUTO
 10
8834.5904541127929
 20
10501.96550914665
 30
0.0
 11
8821.5904541127911
 21
10501.96550914665
 31
0.0
  0
ARC
  5
7D1A
  8
FUTO
 10
9951.5904541127948
 20
9608.9655091466557
 30
0.0
 40
9.0
 50
0.000000000000007
 51
180.0
  0
LINE
  5
7D1B
  8
FUTO
 10
9960.5904541127929
 20
9507.9655091466539
 30
0.0
 11
9960.5904541127929
 21
9608.9655091466557
 31
0.0
  0
LINE
  5
7D1C
  8
FUTO
 10
9942.5904541127948
 20
9507.9655091466539
 30
0.0
 11
9942.5904541127948
 21
9608.9655091466557
 31
0.0
  0
LINE
  5
7D1D
  8
FUTO
 10
10208.59039311279
 20
10022.46544814665
 30
0.0
 11
10208.59039311279
 21
10058.46550914665
 31
0.0
  0
LINE
  5
7D1E
  8
FUTO
 10
10211.59039311279
 20
10022.46544814665
 30
0.0
 11
10211.59039311279
 21
10058.46550914665
 31
0.0
  0
LINE
  5
7D1F
  8
FUTO
 10
10203.59039311279
 20
10022.46544814665
 30
0.0
 11
10203.59039311279
 21
10069.46550914665
 31
0.0
  0
LINE
  5
7D20
  8
FUTO
 10
10161.590454112789
 20
9683.4655091466557
 30
0.0
 11
10161.590454112789
 21
9730.3405091466575
 31
0.0
  0
LINE
  5
7D21
  8
FUTO
 10
10109.28208910831
 20
9678.4655091466539
 30
0.0
 11
10156.590454112789
 21
9678.4655091466539
 31
0.0
  0
ARC
  5
7D22
  8
FUTO
 10
10156.590454112789
 20
9683.4655091466557
 30
0.0
 40
5.0
 50
270.0
 51
0.000000000000007
  0
LINE
  5
7D23
  8
FUTO
 10
10141.27179933122
 20
9730.3405091466575
 30
0.0
 11
10161.590454112789
 21
9730.3405091466557
 31
0.0
  0
LINE
  5
7D24
  8
FUTO
 10
10161.590454112789
 20
9728.4655091466557
 30
0.0
 11
10208.59039311279
 21
9728.4655091466575
 31
0.0
  0
LINE
  5
7D25
  8
FUTO
 10
10161.590454112789
 20
9725.4655091466557
 30
0.0
 11
10211.59039311279
 21
9725.4655091466575
 31
0.0
  0
LINE
  5
7D26
  8
FUTO
 10
10141.38092768107
 20
9733.4655091466557
 30
0.0
 11
10203.59039311279
 21
9733.4655091466557
 31
0.0
  0
LINE
  5
7D27
  8
FUTO
 10
10203.59039311279
 20
9733.4655091466557
 30
0.0
 11
10208.59039311279
 21
9728.4655091466575
 31
0.0
  0
LINE
  5
7D28
  8
FUTO
 10
10236.59039311279
 20
9768.4655091466539
 30
0.0
 11
10236.59039311279
 21
9808.4655091466575
 31
0.0
  0
LINE
  5
7D29
  8
FUTO
 10
10206.59039311279
 20
9768.4655091466557
 30
0.0
 11
10206.59039311279
 21
9808.4655091466575
 31
0.0
  0
LINE
  5
7D2A
  8
FUTO
 10
10236.59039311279
 20
9808.4655091466557
 30
0.0
 11
10206.59039311279
 21
9808.4655091466575
 31
0.0
  0
LINE
  5
7D2B
  8
FUTO
 10
10206.59039311279
 20
9768.4655091466557
 30
0.0
 11
10236.59039311279
 21
9768.4655091466539
 31
0.0
  0
LINE
  5
7D2C
  8
CT
 10
10155.090454112789
 20
9788.4655091466539
 30
0.0
 11
10322.64483611279
 21
9788.4655091466557
 31
0.0
  0
LINE
  5
7D2D
  8
FUTO
 10
10311.04486111279
 20
9806.0553531466521
 30
0.0
 11
10298.944885112791
 21
9806.0553531466521
 31
0.0
  0
LINE
  5
7D2E
  8
FUTO
 10
10311.04486111279
 20
9770.8756661466541
 30
0.0
 11
10298.944885112791
 21
9770.8756661466541
 31
0.0
  0
LINE
  5
7D2F
  8
FUTO
 10
10311.04486111279
 20
9798.1705871466547
 30
0.0
 11
10298.944885112791
 21
9798.1705871466547
 31
0.0
  0
LINE
  5
7D30
  8
FUTO
 10
10311.04486111279
 20
9778.7604311466566
 30
0.0
 11
10298.944885112791
 21
9778.7604311466566
 31
0.0
  0
LINE
  5
7D31
  8
FUTO
 10
10312.64483611279
 20
9804.4557441466568
 30
0.0
 11
10312.64483611279
 21
9772.4762511466561
 31
0.0
  0
LINE
  5
7D32
  8
FUTO
 10
10311.04486111279
 20
9770.8756661466541
 30
0.0
 11
10312.64483611279
 21
9772.4762511466561
 31
0.0
  0
LINE
  5
7D33
  8
FUTO
 10
10311.04486111279
 20
9778.7604311466566
 30
0.0
 11
10312.64483611279
 21
9777.1608221466558
 31
0.0
  0
LINE
  5
7D34
  8
FUTO
 10
10311.04486111279
 20
9778.7604311466566
 30
0.0
 11
10312.64483611279
 21
9780.3610171466535
 31
0.0
  0
LINE
  5
7D35
  8
FUTO
 10
10312.64483611279
 20
9804.4557441466568
 30
0.0
 11
10311.04486111279
 21
9806.0553531466521
 31
0.0
  0
LINE
  5
7D36
  8
FUTO
 10
10311.04486111279
 20
9798.1705871466547
 30
0.0
 11
10312.64483611279
 21
9799.7711731466552
 31
0.0
  0
LINE
  5
7D37
  8
FUTO
 10
10311.04486111279
 20
9798.1705871466547
 30
0.0
 11
10312.64483611279
 21
9796.5709781466539
 31
0.0
  0
LINE
  5
7D38
  8
FUTO
 10
10298.944885112791
 20
9806.0553531466521
 30
0.0
 11
10298.944885112791
 21
9770.8756661466541
 31
0.0
  0
LINE
  5
7D39
  8
FUTO
 10
10298.944885112791
 20
9779.4655091466557
 30
0.0
 11
10236.59039311279
 21
9779.4655091466557
 31
0.0
  0
LINE
  5
7D3A
  8
HOSO
 10
10236.59039311279
 20
9781.4655091466557
 30
0.0
 11
10298.94494611279
 21
9781.4655091466557
 31
0.0
  0
LINE
  5
7D3B
  8
HOSO
 10
10298.944885112791
 20
9795.4655091466575
 30
0.0
 11
10236.59039311279
 21
9795.4655091466575
 31
0.0
  0
LINE
  5
7D3C
  8
FUTO
 10
10236.59039311279
 20
9797.4655091466557
 30
0.0
 11
10298.94494611279
 21
9797.4655091466557
 31
0.0
  0
LINE
  5
7D3D
  8
FUTO
 10
10206.59039311279
 20
9779.4655091466539
 30
0.0
 11
10155.090454112789
 21
9779.4655091466557
 31
0.0
  0
LINE
  5
7D3E
  8
HOSO
 10
10155.090454112789
 20
9781.4655091466539
 30
0.0
 11
10206.59039311279
 21
9781.4655091466557
 31
0.0
  0
LINE
  5
7D3F
  8
FUTO
 10
10155.090454112789
 20
9797.4655091466539
 30
0.0
 11
10206.59039311279
 21
9797.4655091466557
 31
0.0
  0
LINE
  5
7D40
  8
HOSO
 10
10206.59039311279
 20
9795.4655091466575
 30
0.0
 11
10155.090454112789
 21
9795.4655091466539
 31
0.0
  0
LINE
  5
7D41
  8
FUTO
 10
10211.59039311279
 20
9725.4655091466575
 30
0.0
 11
10211.59039311279
 21
9768.4655091466557
 31
0.0
  0
LINE
  5
7D42
  8
FUTO
 10
10208.59039311279
 20
9728.4655091466575
 30
0.0
 11
10208.59039311279
 21
9768.4655091466539
 31
0.0
  0
LINE
  5
7D43
  8
FUTO
 10
10203.59039311279
 20
9733.4655091466557
 30
0.0
 11
10203.59039311279
 21
9779.4655091466539
 31
0.0
  0
LINE
  5
7D44
  8
FUTO
 10
10211.59039311279
 20
9808.4655091466575
 30
0.0
 11
10211.59039311279
 21
9844.4655091466557
 31
0.0
  0
LINE
  5
7D45
  8
FUTO
 10
10208.59039311279
 20
9808.4655091466575
 30
0.0
 11
10208.59039311279
 21
9844.4655091466557
 31
0.0
  0
LINE
  5
7D46
  8
FUTO
 10
10203.59039311279
 20
9797.4655091466557
 30
0.0
 11
10203.59039311279
 21
9844.4655091466557
 31
0.0
  0
LINE
  5
7D47
  8
FUTO
 10
10236.59039311279
 20
10069.46550914665
 30
0.0
 11
10298.94494611279
 21
10069.46550914665
 31
0.0
  0
LINE
  5
7D48
  8
HOSO
 10
10298.944885112791
 20
10071.46550914665
 30
0.0
 11
10236.59039311279
 21
10071.46550914665
 31
0.0
  0
LINE
  5
7D49
  8
HOSO
 10
10236.59039311279
 20
10085.46550914665
 30
0.0
 11
10298.94494611279
 21
10085.46550914665
 31
0.0
  0
LINE
  5
7D4A
  8
FUTO
 10
10298.944885112791
 20
10087.46550914665
 30
0.0
 11
10236.59039311279
 21
10087.46550914665
 31
0.0
  0
LINE
  5
7D4B
  8
FUTO
 10
10298.944885112791
 20
10060.87566514665
 30
0.0
 11
10298.944885112791
 21
10096.05535214665
 31
0.0
  0
LINE
  5
7D4C
  8
FUTO
 10
10311.04486111279
 20
10068.760431146649
 30
0.0
 11
10312.64483611279
 21
10070.36004014665
 31
0.0
  0
LINE
  5
7D4D
  8
FUTO
 10
10311.04486111279
 20
10068.760431146649
 30
0.0
 11
10312.64483611279
 21
10067.159845146651
 31
0.0
  0
LINE
  5
7D4E
  8
FUTO
 10
10312.64483611279
 20
10062.475274146649
 30
0.0
 11
10311.04486111279
 21
10060.87566514665
 31
0.0
  0
LINE
  5
7D4F
  8
FUTO
 10
10311.04486111279
 20
10088.170587146649
 30
0.0
 11
10312.64483611279
 21
10086.570001146651
 31
0.0
  0
LINE
  5
7D50
  8
FUTO
 10
10311.04486111279
 20
10088.170587146649
 30
0.0
 11
10312.64483611279
 21
10089.77019614665
 31
0.0
  0
LINE
  5
7D51
  8
FUTO
 10
10311.04486111279
 20
10096.05535214665
 30
0.0
 11
10312.64483611279
 21
10094.45476714665
 31
0.0
  0
LINE
  5
7D52
  8
FUTO
 10
10312.64483611279
 20
10062.475274146649
 30
0.0
 11
10312.64483611279
 21
10094.45476714665
 31
0.0
  0
LINE
  5
7D53
  8
FUTO
 10
10311.04486111279
 20
10088.170587146649
 30
0.0
 11
10298.944885112791
 21
10088.170587146649
 31
0.0
  0
LINE
  5
7D54
  8
FUTO
 10
10311.04486111279
 20
10068.760431146649
 30
0.0
 11
10298.944885112791
 21
10068.760431146649
 31
0.0
  0
LINE
  5
7D55
  8
FUTO
 10
10311.04486111279
 20
10096.05535214665
 30
0.0
 11
10298.944885112791
 21
10096.05535214665
 31
0.0
  0
LINE
  5
7D56
  8
FUTO
 10
10311.04486111279
 20
10060.87566514665
 30
0.0
 11
10298.944885112791
 21
10060.87566514665
 31
0.0
  0
LINE
  5
7D57
  8
FUTO
 10
10206.59039311279
 20
10098.46550914665
 30
0.0
 11
10236.59039311279
 21
10098.46550914665
 31
0.0
  0
LINE
  5
7D58
  8
FUTO
 10
10236.59039311279
 20
10058.46550914665
 30
0.0
 11
10206.59039311279
 21
10058.46550914665
 31
0.0
  0
LINE
  5
7D59
  8
FUTO
 10
10206.59039311279
 20
10098.46550914665
 30
0.0
 11
10206.59039311279
 21
10058.46550914665
 31
0.0
  0
LINE
  5
7D5A
  8
FUTO
 10
10236.59039311279
 20
10098.46550914665
 30
0.0
 11
10236.59039311279
 21
10058.46550914665
 31
0.0
  0
LINE
  5
7D5B
  8
HOSO
 10
10206.59039311279
 20
10071.46550914665
 30
0.0
 11
10155.090454112789
 21
10071.46550914665
 31
0.0
  0
LINE
  5
7D5C
  8
FUTO
 10
10155.090454112789
 20
10069.46550914665
 30
0.0
 11
10206.59039311279
 21
10069.46550914665
 31
0.0
  0
LINE
  5
7D5D
  8
HOSO
 10
10155.090454112789
 20
10085.46550914665
 30
0.0
 11
10206.59039311279
 21
10085.46550914665
 31
0.0
  0
LINE
  5
7D5E
  8
FUTO
 10
10206.59039311279
 20
10087.46550914665
 30
0.0
 11
10155.090454112789
 21
10087.46550914665
 31
0.0
  0
LINE
  5
7D5F
  8
CT
 10
10155.090454112789
 20
10078.46550914665
 30
0.0
 11
10322.64483611279
 21
10078.46550914665
 31
0.0
  0
LINE
  5
7D60
  8
FUTO
 10
10203.59039311279
 20
10133.46550914665
 30
0.0
 11
10208.59039311279
 21
10138.46550914665
 31
0.0
  0
LINE
  5
7D61
  8
FUTO
 10
10161.590454112789
 20
10141.46550914665
 30
0.0
 11
10211.59039311279
 21
10141.46550914665
 31
0.0
  0
LINE
  5
7D62
  8
FUTO
 10
10161.590454112789
 20
10138.46550914665
 30
0.0
 11
10208.59039311279
 21
10138.46550914665
 31
0.0
  0
LINE
  5
7D63
  8
FUTO
 10
10155.090454112789
 20
10136.59050914665
 30
0.0
 11
10161.590454112789
 21
10136.59050914665
 31
0.0
  0
LINE
  5
7D64
  8
FUTO
 10
10155.090454112789
 20
10133.46550914665
 30
0.0
 11
10203.59039311279
 21
10133.46550914665
 31
0.0
  0
LINE
  5
7D65
  8
FUTO
 10
10203.59039311279
 20
10133.46550914665
 30
0.0
 11
10203.59039311279
 21
10087.46550914665
 31
0.0
  0
LINE
  5
7D66
  8
FUTO
 10
10208.59039311279
 20
10138.46550914665
 30
0.0
 11
10208.59039311279
 21
10098.46550914665
 31
0.0
  0
LINE
  5
7D67
  8
FUTO
 10
10211.59039311279
 20
10141.46550914665
 30
0.0
 11
10211.59039311279
 21
10098.46550914665
 31
0.0
  0
ARC
  5
7D68
  8
FUTO
 10
10156.590454112789
 20
10183.46550914665
 30
0.0
 40
5.0
 50
0.000000000000007
 51
90.000000000000028
  0
LINE
  5
7D69
  8
FUTO
 10
10161.590454112789
 20
10183.46550914665
 30
0.0
 11
10161.590454112789
 21
10136.59050914665
 31
0.0
  0
LINE
  5
7D6A
  8
FUTO
 10
10144.090454112789
 20
10188.46550914665
 30
0.0
 11
10156.590454112789
 21
10188.46550914665
 31
0.0
  0
LINE
  5
7D6B
  8
CT
 10
9748.0904541127929
 20
10078.46550914665
 30
0.0
 11
9580.5360721127963
 21
10078.46550914665
 31
0.0
  0
LINE
  5
7D6C
  8
FUTO
 10
9696.5905151127918
 20
10087.46550914665
 30
0.0
 11
9748.0904541127929
 21
10087.46550914665
 31
0.0
  0
LINE
  5
7D6D
  8
HOSO
 10
9748.0904541127929
 20
10085.46550914665
 30
0.0
 11
9696.5905151127918
 21
10085.46550914665
 31
0.0
  0
LINE
  5
7D6E
  8
FUTO
 10
9748.0904541127929
 20
10069.46550914665
 30
0.0
 11
9696.5905151127918
 21
10069.46550914665
 31
0.0
  0
LINE
  5
7D6F
  8
HOSO
 10
9696.5905151127918
 20
10071.46550914665
 30
0.0
 11
9748.0904541127929
 21
10071.46550914665
 31
0.0
  0
LINE
  5
7D70
  8
FUTO
 10
9666.5905151127918
 20
10098.46550914665
 30
0.0
 11
9666.5905151127918
 21
10058.46550914665
 31
0.0
  0
LINE
  5
7D71
  8
FUTO
 10
9696.5905151127918
 20
10098.46550914665
 30
0.0
 11
9696.5905151127918
 21
10058.46550914665
 31
0.0
  0
LINE
  5
7D72
  8
FUTO
 10
9666.5905151127918
 20
10058.46550914665
 30
0.0
 11
9696.5905151127918
 21
10058.46550914665
 31
0.0
  0
LINE
  5
7D73
  8
FUTO
 10
9696.5905151127918
 20
10098.46550914665
 30
0.0
 11
9666.5905151127918
 21
10098.46550914665
 31
0.0
  0
LINE
  5
7D74
  8
FUTO
 10
9592.1360471127937
 20
10060.87566514665
 30
0.0
 11
9604.2360231127932
 21
10060.87566514665
 31
0.0
  0
LINE
  5
7D75
  8
FUTO
 10
9592.1360471127937
 20
10096.05535214665
 30
0.0
 11
9604.2360231127932
 21
10096.05535214665
 31
0.0
  0
LINE
  5
7D76
  8
FUTO
 10
9592.1360471127937
 20
10068.760431146649
 30
0.0
 11
9604.2360231127932
 21
10068.760431146649
 31
0.0
  0
LINE
  5
7D77
  8
FUTO
 10
9592.1360471127937
 20
10088.170587146649
 30
0.0
 11
9604.2360231127932
 21
10088.170587146649
 31
0.0
  0
LINE
  5
7D78
  8
FUTO
 10
9590.5360721127945
 20
10062.475274146649
 30
0.0
 11
9590.5360721127945
 21
10094.45476714665
 31
0.0
  0
LINE
  5
7D79
  8
FUTO
 10
9592.1360471127937
 20
10096.05535214665
 30
0.0
 11
9590.5360721127945
 21
10094.45476714665
 31
0.0
  0
LINE
  5
7D7A
  8
FUTO
 10
9592.1360471127937
 20
10088.170587146649
 30
0.0
 11
9590.5360721127945
 21
10089.77019614665
 31
0.0
  0
LINE
  5
7D7B
  8
FUTO
 10
9592.1360471127937
 20
10088.170587146649
 30
0.0
 11
9590.5360721127945
 21
10086.570001146651
 31
0.0
  0
LINE
  5
7D7C
  8
FUTO
 10
9590.5360721127945
 20
10062.475274146649
 30
0.0
 11
9592.1360471127937
 21
10060.87566514665
 31
0.0
  0
LINE
  5
7D7D
  8
FUTO
 10
9592.1360471127937
 20
10068.760431146649
 30
0.0
 11
9590.5360721127945
 21
10067.159845146651
 31
0.0
  0
LINE
  5
7D7E
  8
FUTO
 10
9592.1360471127937
 20
10068.760431146649
 30
0.0
 11
9590.5360721127945
 21
10070.36004014665
 31
0.0
  0
LINE
  5
7D7F
  8
FUTO
 10
9604.2360231127932
 20
10060.87566514665
 30
0.0
 11
9604.2360231127932
 21
10096.05535214665
 31
0.0
  0
LINE
  5
7D80
  8
FUTO
 10
9604.2360231127932
 20
10087.46550914665
 30
0.0
 11
9666.5905151127918
 21
10087.46550914665
 31
0.0
  0
LINE
  5
7D81
  8
HOSO
 10
9666.5905151127918
 20
10085.46550914665
 30
0.0
 11
9604.2359621127944
 21
10085.46550914665
 31
0.0
  0
LINE
  5
7D82
  8
HOSO
 10
9604.2360231127932
 20
10071.46550914665
 30
0.0
 11
9666.5905151127918
 21
10071.46550914665
 31
0.0
  0
LINE
  5
7D83
  8
FUTO
 10
9666.5905151127918
 20
10069.46550914665
 30
0.0
 11
9604.2359621127944
 21
10069.46550914665
 31
0.0
  0
LINE
  5
7D84
  8
FUTO
 10
9691.5905151127936
 20
10141.46550914665
 30
0.0
 11
9691.5905151127936
 21
10098.46550914665
 31
0.0
  0
LINE
  5
7D85
  8
FUTO
 10
9694.5905151127936
 20
10138.46550914665
 30
0.0
 11
9694.5905151127936
 21
10098.46550914665
 31
0.0
  0
LINE
  5
7D86
  8
FUTO
 10
9699.5905151127918
 20
10133.46550914665
 30
0.0
 11
9699.5905151127918
 21
10087.46550914665
 31
0.0
  0
LINE
  5
7D87
  8
FUTO
 10
9759.0904541127948
 20
10188.46550914665
 30
0.0
 11
9746.5904541127929
 21
10188.46550914665
 31
0.0
  0
LINE
  5
7D88
  8
FUTO
 10
9748.0904541127929
 20
10133.46550914665
 30
0.0
 11
9699.5905151127918
 21
10133.46550914665
 31
0.0
  0
LINE
  5
7D89
  8
FUTO
 10
9748.0904541127929
 20
10136.59050914665
 30
0.0
 11
9741.5904541127948
 21
10136.59050914665
 31
0.0
  0
LINE
  5
7D8A
  8
FUTO
 10
9741.5904541127948
 20
10183.46550914665
 30
0.0
 11
9741.5904541127948
 21
10136.59050914665
 31
0.0
  0
LINE
  5
7D8B
  8
FUTO
 10
9741.5904541127948
 20
10138.46550914665
 30
0.0
 11
9694.5905151127936
 21
10138.46550914665
 31
0.0
  0
LINE
  5
7D8C
  8
FUTO
 10
9741.5904541127948
 20
10141.46550914665
 30
0.0
 11
9691.5905151127936
 21
10141.46550914665
 31
0.0
  0
ARC
  5
7D8D
  8
FUTO
 10
9746.5904541127929
 20
10183.46550914665
 30
0.0
 40
5.0
 50
90.000000000000028
 51
180.0
  0
LINE
  5
7D8E
  8
FUTO
 10
9699.5905151127918
 20
10133.46550914665
 30
0.0
 11
9694.5905151127936
 21
10138.46550914665
 31
0.0
  0
LINE
  5
7D8F
  8
FUTO
 10
9761.9091088943642
 20
9730.3405091466575
 30
0.0
 11
9741.5904541127948
 21
9730.3405091466557
 31
0.0
  0
LINE
  5
7D90
  8
FUTO
 10
9699.5905151127918
 20
9797.4655091466539
 30
0.0
 11
9699.5905151127918
 21
10069.46550914665
 31
0.0
  0
LINE
  5
7D91
  8
FUTO
 10
9699.5905151127918
 20
9733.4655091466539
 30
0.0
 11
9694.5905151127936
 21
9728.4655091466557
 31
0.0
  0
LINE
  5
7D92
  8
FUTO
 10
9699.5905151127918
 20
9733.4655091466539
 30
0.0
 11
9699.5905151127918
 21
9779.4655091466539
 31
0.0
  0
LINE
  5
7D93
  8
FUTO
 10
9761.7999805445106
 20
9733.4655091466557
 30
0.0
 11
9699.5905151127918
 21
9733.4655091466539
 31
0.0
  0
ARC
  5
7D94
  8
FUTO
 10
9746.5904541127929
 20
9683.4655091466557
 30
0.0
 40
5.0
 50
180.0
 51
270.0
  0
LINE
  5
7D95
  8
FUTO
 10
9741.5904541127948
 20
9725.4655091466557
 30
0.0
 11
9691.5905151127936
 21
9725.4655091466557
 31
0.0
  0
LINE
  5
7D96
  8
FUTO
 10
9741.5904541127948
 20
9728.4655091466557
 30
0.0
 11
9694.5905151127936
 21
9728.4655091466557
 31
0.0
  0
LINE
  5
7D97
  8
FUTO
 10
9793.8988191172684
 20
9678.4655091466539
 30
0.0
 11
9746.5904541127929
 21
9678.4655091466539
 31
0.0
  0
LINE
  5
7D98
  8
FUTO
 10
9741.5904541127948
 20
9683.4655091466557
 30
0.0
 11
9741.5904541127948
 21
9730.3405091466575
 31
0.0
  0
LINE
  5
7D99
  8
FUTO
 10
9694.5905151127936
 20
9808.4655091466557
 30
0.0
 11
9694.5905151127936
 21
10058.46550914665
 31
0.0
  0
LINE
  5
7D9A
  8
FUTO
 10
9691.5905151127936
 20
9808.4655091466575
 30
0.0
 11
9691.5905151127936
 21
10058.46550914665
 31
0.0
  0
LINE
  5
7D9B
  8
FUTO
 10
9694.5905151127936
 20
9728.4655091466557
 30
0.0
 11
9694.5905151127936
 21
9768.4655091466539
 31
0.0
  0
LINE
  5
7D9C
  8
FUTO
 10
9691.5905151127936
 20
9725.4655091466557
 30
0.0
 11
9691.5905151127936
 21
9768.4655091466539
 31
0.0
  0
LINE
  5
7D9D
  8
HOSO
 10
9696.5905151127918
 20
9795.4655091466575
 30
0.0
 11
9748.0904541127929
 21
9795.4655091466539
 31
0.0
  0
LINE
  5
7D9E
  8
FUTO
 10
9748.0904541127929
 20
9797.4655091466539
 30
0.0
 11
9696.5905151127918
 21
9797.4655091466539
 31
0.0
  0
LINE
  5
7D9F
  8
HOSO
 10
9748.0904541127929
 20
9781.4655091466539
 30
0.0
 11
9696.5905151127918
 21
9781.4655091466539
 31
0.0
  0
LINE
  5
7DA0
  8
FUTO
 10
9696.5905151127918
 20
9779.4655091466539
 30
0.0
 11
9748.0904541127929
 21
9779.4655091466557
 31
0.0
  0
LINE
  5
7DA1
  8
FUTO
 10
9666.5905151127918
 20
9797.4655091466539
 30
0.0
 11
9604.2359621127944
 21
9797.4655091466539
 31
0.0
  0
LINE
  5
7DA2
  8
HOSO
 10
9604.2360231127932
 20
9795.4655091466539
 30
0.0
 11
9666.5905151127918
 21
9795.4655091466539
 31
0.0
  0
LINE
  5
7DA3
  8
HOSO
 10
9666.5905151127918
 20
9781.4655091466557
 30
0.0
 11
9604.2359621127944
 21
9781.4655091466539
 31
0.0
  0
LINE
  5
7DA4
  8
FUTO
 10
9604.2360231127932
 20
9779.4655091466539
 30
0.0
 11
9666.5905151127918
 21
9779.4655091466539
 31
0.0
  0
LINE
  5
7DA5
  8
FUTO
 10
9604.2360231127932
 20
9806.0553531466521
 30
0.0
 11
9604.2360231127932
 21
9770.8756661466541
 31
0.0
  0
LINE
  5
7DA6
  8
FUTO
 10
9592.1360471127937
 20
9798.1705871466547
 30
0.0
 11
9590.5360721127945
 21
9796.5709781466539
 31
0.0
  0
LINE
  5
7DA7
  8
FUTO
 10
9592.1360471127937
 20
9798.1705871466547
 30
0.0
 11
9590.5360721127945
 21
9799.7711731466552
 31
0.0
  0
LINE
  5
7DA8
  8
FUTO
 10
9590.5360721127945
 20
9804.4557441466568
 30
0.0
 11
9592.1360471127937
 21
9806.0553531466521
 31
0.0
  0
LINE
  5
7DA9
  8
FUTO
 10
9592.1360471127937
 20
9778.7604311466566
 30
0.0
 11
9590.5360721127945
 21
9780.3610171466535
 31
0.0
  0
LINE
  5
7DAA
  8
FUTO
 10
9592.1360471127937
 20
9778.7604311466566
 30
0.0
 11
9590.5360721127945
 21
9777.1608221466558
 31
0.0
  0
LINE
  5
7DAB
  8
FUTO
 10
9592.1360471127937
 20
9770.8756661466541
 30
0.0
 11
9590.5360721127945
 21
9772.4762511466561
 31
0.0
  0
LINE
  5
7DAC
  8
FUTO
 10
9590.5360721127945
 20
9804.4557441466568
 30
0.0
 11
9590.5360721127945
 21
9772.4762511466561
 31
0.0
  0
LINE
  5
7DAD
  8
FUTO
 10
9592.1360471127937
 20
9778.7604311466566
 30
0.0
 11
9604.2360231127932
 21
9778.7604311466566
 31
0.0
  0
LINE
  5
7DAE
  8
FUTO
 10
9592.1360471127937
 20
9798.1705871466547
 30
0.0
 11
9604.2360231127932
 21
9798.1705871466547
 31
0.0
  0
LINE
  5
7DAF
  8
FUTO
 10
9592.1360471127937
 20
9770.8756661466541
 30
0.0
 11
9604.2360231127932
 21
9770.8756661466541
 31
0.0
  0
LINE
  5
7DB0
  8
FUTO
 10
9592.1360471127937
 20
9806.0553531466521
 30
0.0
 11
9604.2360231127932
 21
9806.0553531466521
 31
0.0
  0
LINE
  5
7DB1
  8
CT
 10
9748.0904541127929
 20
9788.4655091466539
 30
0.0
 11
9580.5360721127963
 21
9788.4655091466539
 31
0.0
  0
LINE
  5
7DB2
  8
FUTO
 10
9696.5905151127918
 20
9768.4655091466539
 30
0.0
 11
9666.5905151127918
 21
9768.4655091466539
 31
0.0
  0
LINE
  5
7DB3
  8
FUTO
 10
9666.5905151127918
 20
9808.4655091466557
 30
0.0
 11
9696.5905151127918
 21
9808.4655091466557
 31
0.0
  0
LINE
  5
7DB4
  8
FUTO
 10
9696.5905151127918
 20
9768.4655091466539
 30
0.0
 11
9696.5905151127918
 21
9808.4655091466557
 31
0.0
  0
LINE
  5
7DB5
  8
FUTO
 10
9666.5905151127918
 20
9768.4655091466539
 30
0.0
 11
9666.5905151127918
 21
9808.4655091466557
 31
0.0
  0
ARC
  5
7DB6
  8
FUTO
 10
10283.21960411279
 20
9995.4654481466532
 30
0.0
 40
20.0
 50
0.000000000000007
 51
90.000000000000028
  0
ARC
  5
7DB7
  8
FUTO
 10
10283.21960411279
 20
9871.4655091466539
 30
0.0
 40
20.0
 50
270.0
 51
0.000000000000007
  0
ARC
  5
7DB8
  8
FUTO
 10
10293.21960411279
 20
9854.4655091466539
 30
0.0
 40
10.0
 50
270.0
 51
0.000000000000007
  0
ARC
  5
7DB9
  8
FUTO
 10
10293.21960411279
 20
10012.46544814665
 30
0.0
 40
10.0
 50
0.000000000000007
 51
90.000000000000028
  0
ARC
  5
7DBA
  8
FUTO
 10
10190.362879213901
 20
9854.4655091466539
 30
0.0
 40
10.0
 50
180.0
 51
270.0
  0
ARC
  5
7DBB
  8
FUTO
 10
10193.529994752231
 20
9854.4655091466539
 30
0.0
 40
10.0
 50
180.0
 51
270.0
  0
ARC
  5
7DBC
  8
FUTO
 10
10190.362879213901
 20
10012.46544814665
 30
0.0
 40
10.0
 50
90.000000000000028
 51
180.0
  0
ARC
  5
7DBD
  8
FUTO
 10
10193.529994752231
 20
10012.46544814665
 30
0.0
 40
10.0
 50
90.000000000000028
 51
180.0
  0
LINE
  5
7DBE
  8
FUTO
 10
10190.72659803169
 20
9851.4655091466557
 30
0.0
 11
10283.21960411279
 21
9851.4655091466557
 31
0.0
  0
LINE
  5
7DBF
  8
FUTO
 10
10190.72659803169
 20
10015.46544814665
 30
0.0
 11
10283.21960411279
 21
10015.46544814665
 31
0.0
  0
ARC
  5
7DC0
  8
FUTO
 10
10176.590454112789
 20
9856.4655091466539
 30
0.0
 40
5.0
 50
180.0
 51
270.0
  0
ARC
  5
7DC1
  8
FUTO
 10
10176.590454112789
 20
10010.46544814665
 30
0.0
 40
5.0
 50
90.000000000000028
 51
180.0
  0
ARC
  5
7DC2
  8
FUTO
 10
10190.72659803169
 20
9856.4655091466539
 30
0.0
 40
5.0
 50
180.0
 51
270.0
  0
ARC
  5
7DC3
  8
FUTO
 10
10190.72659803169
 20
10010.46544814665
 30
0.0
 40
5.0
 50
90.000000000000028
 51
180.0
  0
LINE
  5
7DC4
  8
FUTO
 10
10190.362879213901
 20
9844.4655091466557
 30
0.0
 11
10293.21960411279
 21
9844.4655091466557
 31
0.0
  0
LINE
  5
7DC5
  8
FUTO
 10
10176.590454112789
 20
9851.4655091466557
 30
0.0
 11
10180.362879213901
 21
9851.4655091466557
 31
0.0
  0
LINE
  5
7DC6
  8
FUTO
 10
10190.362879213901
 20
10022.46544814665
 30
0.0
 11
10293.21960411279
 21
10022.46544814665
 31
0.0
  0
LINE
  5
7DC7
  8
FUTO
 10
10176.590454112789
 20
10015.46544814665
 30
0.0
 11
10180.362879213901
 21
10015.46544814665
 31
0.0
  0
LINE
  5
7DC8
  8
FUTO
 10
10155.090454112789
 20
9993.4655091466557
 30
0.0
 11
10155.090454112789
 21
10100.276279895679
 31
0.0
  0
LINE
  5
7DC9
  8
FUTO
 10
10171.590454112789
 20
9873.4655091466557
 30
0.0
 11
10103.864056552609
 21
9873.4655091466539
 31
0.0
  0
LINE
  5
7DCA
  8
FUTO
 10
10171.590454112789
 20
9993.4655091466557
 30
0.0
 11
10103.864056552609
 21
9993.4655091466539
 31
0.0
  0
LINE
  5
7DCB
  8
FUTO
 10
10261.90979011279
 20
9871.4655091466557
 30
0.0
 11
10261.90979011279
 21
9995.4654481466532
 31
0.0
  0
LINE
  5
7DCC
  8
FUTO
 10
10185.72659803169
 20
9856.4655091466575
 30
0.0
 11
10185.72659803169
 21
10010.46544814665
 31
0.0
  0
LINE
  5
7DCD
  8
FUTO
 10
10183.529994752231
 20
9854.4655091466557
 30
0.0
 11
10183.529994752231
 21
10012.46544814665
 31
0.0
  0
LINE
  5
7DCE
  8
FUTO
 10
10180.362879213901
 20
9854.4655091466539
 30
0.0
 11
10180.362879213901
 21
10012.46544814665
 31
0.0
  0
LINE
  5
7DCF
  8
FUTO
 10
10171.590454112789
 20
9856.4655091466575
 30
0.0
 11
10171.590454112789
 21
10010.46544814665
 31
0.0
  0
LINE
  5
7DD0
  8
FUTO
 10
10161.590454112789
 20
9873.4655091466557
 30
0.0
 11
10161.590454112789
 21
9993.4655091466539
 31
0.0
  0
LINE
  5
7DD1
  8
FUTO
 10
10103.864056552609
 20
9873.4655091466557
 30
0.0
 11
10103.864056552609
 21
9993.4655091466557
 31
0.0
  0
LINE
  5
7DD2
  8
FUTO
 10
10303.21960411279
 20
9854.4655091466539
 30
0.0
 11
10303.21960411279
 21
10012.46544814665
 31
0.0
  0
LINE
  5
7DD3
  8
FUTO
 10
9957.8404541127948
 20
9909.7155091466557
 30
0.0
 11
9957.8404541127948
 21
9957.2155091466557
 31
0.0
  0
ARC
  5
7DD4
  8
FUTO
 10
9951.5904541127948
 20
9909.7155091466557
 30
0.0
 40
6.25
 50
180.0
 51
0.000000000000007
  0
ARC
  5
7DD5
  8
FUTO
 10
9951.5904541127948
 20
9957.2155091466557
 30
0.0
 40
6.25
 50
0.000000000000007
 51
180.0
  0
LINE
  5
7DD6
  8
CT
 10
10323.21960411279
 20
9933.4655091466575
 30
0.0
 11
9671.5905151127918
 21
9933.4655091466557
 31
0.0
  0
LINE
  5
7DD7
  8
FUTO
 10
9945.3404541127948
 20
9909.7155091466557
 30
0.0
 11
9945.3404541127948
 21
9957.2155091466557
 31
0.0
  0
LINE
  5
7DD8
  8
FUTO
 10
10155.090454112789
 20
10100.27627989569
 30
0.0
 11
10153.26867711279
 21
10102.46544814665
 31
0.0
  0
LINE
  5
7DD9
  8
FUTO
 10
10155.090454112789
 20
9766.6545961466563
 30
0.0
 11
10148.590454112789
 21
9758.8436831466533
 31
0.0
  0
LINE
  5
7DDA
  8
FUTO
 10
10155.090454112789
 20
9766.6545961466563
 30
0.0
 11
10155.090454112789
 21
9873.4655091466557
 31
0.0
  0
LINE
  5
7DDB
  8
FUTO
 10
9748.0904541127929
 20
9766.6545961466563
 30
0.0
 11
9748.0904541127929
 21
10100.276279895679
 31
0.0
  0
ARC
  5
7DDC
  8
FUTO
 10
10029.590454112789
 20
9659.9655091466557
 30
0.0
 40
2.0
 50
270.0
 51
0.000000000000007
  0
ARC
  5
7DDD
  8
FUTO
 10
10034.590454112789
 20
9670.1185851466544
 30
0.0
 40
2.9999599999999988
 50
92.999557000035395
 51
180.0
  0
LINE
  5
7DDE
  8
FUTO
 10
10031.590454112789
 20
9670.1185851466544
 30
0.0
 11
10031.590454112789
 21
9659.9655091466557
 31
0.0
  0
ARC
  5
7DDF
  8
FUTO
 10
10130.686402112789
 20
9713.7511541466538
 30
0.0
 40
9.9999679999999991
 50
314.99999999999989
 51
358.00067099997602
  0
ARC
  5
7DE0
  8
FUTO
 10
10103.69323811279
 20
9686.7579891466557
 30
0.0
 40
10.000024
 50
272.99903899998708
 51
314.99999999999989
  0
LINE
  5
7DE1
  8
FUTO
 10
10137.75744711279
 20
9706.6801091466532
 30
0.0
 11
10110.76428211279
 21
9679.6869451466537
 31
0.0
  0
LINE
  5
7DE2
  8
FUTO
 10
10141.590454112789
 20
9739.4655091466539
 30
0.0
 11
10140.680298112789
 21
9713.4022771466534
 31
0.0
  0
LINE
  5
7DE3
  8
FUTO
 10
10104.216431112791
 20
9676.7716611466567
 30
0.0
 11
10015.62512211279
 21
9672.1288391466533
 31
0.0
  0
LINE
  5
7DE4
  8
FUTO
 10
10113.590454112789
 20
9749.4655091466539
 30
0.0
 11
9789.5904541127948
 21
9749.4655091466539
 31
0.0
  0
LINE
  5
7DE5
  8
FUTO
 10
10113.590454112789
 20
9739.4655091466539
 30
0.0
 11
10113.590454112789
 21
9744.4655091466557
 31
0.0
  0
LINE
  5
7DE6
  8
FUTO
 10
10113.590454112789
 20
9744.4655091466557
 30
0.0
 11
10113.590454112789
 21
9749.4655091466539
 31
0.0
  0
LINE
  5
7DE7
  8
FUTO
 10
10148.590454112789
 20
9758.8436831466533
 30
0.0
 11
10113.590454112789
 21
9749.4655091466539
 31
0.0
  0
ARC
  5
7DE8
  8
FUTO
 10
10135.090454112789
 20
10148.93883714665
 30
0.0
 40
20.0
 50
0.000000000000007
 51
20.000046000015271
  0
ARC
  5
7DE9
  8
FUTO
 10
10164.090454112789
 20
10186.214227146649
 30
0.0
 40
20.0
 50
180.0
 51
199.99972500000979
  0
LINE
  5
7DEA
  8
FUTO
 10
10099.239380112789
 20
10130.96544814665
 30
0.0
 11
10102.99231011279
 21
10137.46544814665
 31
0.0
  0
LINE
  5
7DEB
  8
FUTO
 10
10102.99231011279
 20
10137.46544814665
 30
0.0
 11
10099.239380112789
 21
10143.96544814665
 31
0.0
  0
LINE
  5
7DEC
  8
FUTO
 10
10153.884400112791
 20
10155.779291146649
 30
0.0
 11
10145.29650911279
 21
10179.373895146649
 31
0.0
  0
LINE
  5
7DED
  8
FUTO
 10
10155.090454112789
 20
10102.46544814665
 30
0.0
 11
10155.090454112789
 21
10148.93883714665
 31
0.0
  0
LINE
  5
7DEE
  8
FUTO
 10
10087.981079112789
 20
10137.46544814665
 30
0.0
 11
10091.73400911279
 21
10143.96544814665
 31
0.0
  0
LINE
  5
7DEF
  8
FUTO
 10
10091.73400911279
 20
10130.96544814665
 30
0.0
 11
10087.981079112789
 21
10137.46544814665
 31
0.0
  0
LINE
  5
7DF0
  8
CT
 10
10095.48669511279
 20
10130.023309146651
 30
0.0
 11
10095.48669511279
 21
10144.479364146649
 31
0.0
  0
LINE
  5
7DF1
  8
CT
 10
10087.09607011279
 20
10137.46544814665
 30
0.0
 11
10103.91760311279
 21
10137.46544814665
 31
0.0
  0
LINE
  5
7DF2
  8
FUTO
 10
10091.73400911279
 20
10143.96544814665
 30
0.0
 11
10099.239380112789
 21
10143.96544814665
 31
0.0
  0
LINE
  5
7DF3
  8
FUTO
 10
10091.73400911279
 20
10130.96544814665
 30
0.0
 11
10099.239380112789
 21
10130.96544814665
 31
0.0
  0
CIRCLE
  5
7DF4
  8
FUTO
 10
10095.48669511279
 20
10137.46544814665
 30
0.0
 40
6.5
  0
ARC
  5
7DF5
  8
FUTO
 10
10129.090454112789
 20
10247.15453514665
 30
0.0
 40
15.0
 50
0.000000000000007
 51
29.999817000004409
  0
ARC
  5
7DF6
  8
FUTO
 10
10108.70373611279
 20
10302.46544814665
 30
0.0
 40
4.9999580000000003
 50
30.000281999998801
 51
90.000000000000028
  0
LINE
  5
7DF7
  8
FUTO
 10
10113.03381411279
 20
10304.96544814665
 30
0.0
 11
10142.080933112789
 21
10254.65453514665
 31
0.0
  0
LINE
  5
7DF8
  8
FUTO
 10
10144.090454112789
 20
10186.214227146649
 30
0.0
 11
10144.090454112789
 21
10247.15453514665
 31
0.0
  0
LINE
  5
7DF9
  8
FUTO
 10
9759.0904541127948
 20
10186.214227146649
 30
0.0
 11
9759.0904541127948
 21
10247.15453514665
 31
0.0
  0
LINE
  5
7DFA
  8
CT
 10
9951.5904541127948
 20
9325.6764181807011
 30
0.0
 11
9951.5904541127948
 21
10327.46550914665
 31
0.0
  0
LINE
  5
7DFB
  8
FUTO
 10
9793.9404901127928
 20
10307.46550914665
 30
0.0
 11
10108.730804112791
 21
10307.46550914665
 31
0.0
  0
LINE
  5
7DFC
  8
FUTO
 10
10144.090454112789
 20
10248.36547214665
 30
0.0
 11
9759.1395261127946
 21
10248.36547214665
 31
0.0
  0
LINE
  5
7DFD
  8
FUTO
 10
9790.1470941127936
 20
10304.96544814665
 30
0.0
 11
9761.0999751127929
 21
10254.65453514665
 31
0.0
  0
ARC
  5
7DFE
  8
FUTO
 10
9794.4771721127927
 20
10302.46544814665
 30
0.0
 40
4.9999580000000003
 50
90.000000000000028
 51
149.99971800000111
  0
ARC
  5
7DFF
  8
FUTO
 10
9774.0904541127948
 20
10247.15453514665
 30
0.0
 40
15.0
 50
150.00018299999559
 51
180.0
  0
LINE
  5
7E00
  8
FUTO
 10
10029.590454112789
 20
9657.9655091466539
 30
0.0
 11
9951.5904541127948
 21
9657.9655091466539
 31
0.0
  0
LINE
  5
7E01
  8
FUTO
 10
10141.590454112789
 20
9739.4655091466539
 30
0.0
 11
9951.5904541127948
 21
9739.4655091466539
 31
0.0
  0
LINE
  5
7E02
  8
FUTO
 10
10113.590454112789
 20
9744.4655091466557
 30
0.0
 11
9951.5904541127948
 21
9744.4655091466557
 31
0.0
  0
LINE
  5
7E03
  8
FUTO
 10
9758.773071112797
 20
10182.66539914665
 30
0.0
 11
10144.090454112789
 21
10182.66539914665
 31
0.0
  0
LINE
  5
7E04
  8
FUTO
 10
9748.4039301127923
 20
10152.46544814665
 30
0.0
 11
10154.77707431166
 21
10152.46544814665
 31
0.0
  0
LINE
  5
7E05
  8
FUTO
 10
9748.0904541127929
 20
10102.46544814665
 30
0.0
 11
10153.26867711279
 21
10102.46544814665
 31
0.0
  0
LINE
  5
7E06
  8
FUTO
 10
10113.590454112789
 20
9744.4655091466557
 30
0.0
 11
9951.5904541127948
 21
9744.4655091466557
 31
0.0
  0
CIRCLE
  5
7E07
  8
FUTO
 10
9807.6942131127926
 20
10137.46544814665
 30
0.0
 40
6.5
  0
LINE
  5
7E08
  8
FUTO
 10
9811.4468991127942
 20
10130.96544814665
 30
0.0
 11
9803.9415281127931
 21
10130.96544814665
 31
0.0
  0
LINE
  5
7E09
  8
FUTO
 10
9811.4468991127942
 20
10143.96544814665
 30
0.0
 11
9803.9415281127931
 21
10143.96544814665
 31
0.0
  0
LINE
  5
7E0A
  8
CT
 10
9816.0848381127926
 20
10137.46544814665
 30
0.0
 11
9799.2633051127923
 21
10137.46544814665
 31
0.0
  0
LINE
  5
7E0B
  8
CT
 10
9807.6942131127926
 20
10130.023309146651
 30
0.0
 11
9807.6942131127926
 21
10144.479364146649
 31
0.0
  0
LINE
  5
7E0C
  8
FUTO
 10
9811.4468991127942
 20
10130.96544814665
 30
0.0
 11
9815.1998291127948
 21
10137.46544814665
 31
0.0
  0
LINE
  5
7E0D
  8
FUTO
 10
9815.1998291127948
 20
10137.46544814665
 30
0.0
 11
9811.4468991127942
 21
10143.96544814665
 31
0.0
  0
LINE
  5
7E0E
  8
FUTO
 10
9748.0904541127929
 20
10102.46544814665
 30
0.0
 11
9748.0904541127929
 21
10148.93883714665
 31
0.0
  0
LINE
  5
7E0F
  8
FUTO
 10
9749.296508112795
 20
10155.779291146649
 30
0.0
 11
9757.8843991127942
 21
10179.373895146649
 31
0.0
  0
LINE
  5
7E10
  8
FUTO
 10
9800.1885981127925
 20
10137.46544814665
 30
0.0
 11
9803.9415281127931
 21
10143.96544814665
 31
0.0
  0
LINE
  5
7E11
  8
FUTO
 10
9803.9415281127931
 20
10130.96544814665
 30
0.0
 11
9800.1885981127925
 21
10137.46544814665
 31
0.0
  0
ARC
  5
7E12
  8
FUTO
 10
9739.0904541127948
 20
10186.214227146649
 30
0.0
 40
20.0
 50
340.00027499999021
 51
0.000000000000007
  0
ARC
  5
7E13
  8
FUTO
 10
9768.0904541127948
 20
10148.93883714665
 30
0.0
 40
20.0
 50
159.99995399998471
 51
180.0
  0
LINE
  5
7E14
  8
FUTO
 10
9748.0904541127929
 20
10100.27627989569
 30
0.0
 11
9749.912231112794
 21
10102.46544814665
 31
0.0
  0
LINE
  5
7E15
  8
FUTO
 10
9789.5904541127948
 20
9744.4655091466557
 30
0.0
 11
9951.5904541127948
 21
9744.4655091466557
 31
0.0
  0
LINE
  5
7E16
  8
FUTO
 10
9798.9644771127932
 20
9676.7716611466567
 30
0.0
 11
9887.5557861127927
 21
9672.1288391466533
 31
0.0
  0
LINE
  5
7E17
  8
FUTO
 10
9761.5904541127929
 20
9739.4655091466539
 30
0.0
 11
9951.5904541127948
 21
9739.4655091466539
 31
0.0
  0
LINE
  5
7E18
  8
FUTO
 10
9789.5904541127948
 20
9744.4655091466557
 30
0.0
 11
9951.5904541127948
 21
9744.4655091466557
 31
0.0
  0
LINE
  5
7E19
  8
FUTO
 10
9981.5904541127948
 20
9647.9655091466539
 30
0.0
 11
9981.5904541127948
 21
9507.9655091466539
 31
0.0
  0
LINE
  5
7E1A
  8
FUTO
 10
9921.5904541127929
 20
9647.9655091466539
 30
0.0
 11
9921.5904541127929
 21
9507.9655091466539
 31
0.0
  0
LINE
  5
7E1B
  8
FUTO
 10
9873.5904541127929
 20
9657.9655091466539
 30
0.0
 11
9951.5904541127948
 21
9657.9655091466539
 31
0.0
  0
LINE
  5
7E1C
  8
FUTO
 10
9984.0904541127929
 20
9647.9655091466539
 30
0.0
 11
9919.0904541127948
 21
9647.9655091466539
 31
0.0
  0
LINE
  5
7E1D
  8
FUTO
 10
9984.0904541127929
 20
9647.9655091466539
 30
0.0
 11
9984.0904541127929
 21
9657.9655091466539
 31
0.0
  0
LINE
  5
7E1E
  8
FUTO
 10
9919.0904541127948
 20
9647.9655091466539
 30
0.0
 11
9919.0904541127948
 21
9657.9655091466539
 31
0.0
  0
LINE
  5
7E1F
  8
FUTO
 10
9871.5904541127929
 20
9670.1185851466544
 30
0.0
 11
9871.5904541127929
 21
9659.9655091466557
 31
0.0
  0
ARC
  5
7E20
  8
FUTO
 10
9868.5904541127911
 20
9670.1185851466544
 30
0.0
 40
2.9999599999999988
 50
0.000000000000007
 51
87.000443000016674
  0
ARC
  5
7E21
  8
FUTO
 10
9873.5904541127929
 20
9659.9655091466557
 30
0.0
 40
2.0
 50
180.0
 51
270.0
  0
LINE
  5
7E22
  8
FUTO
 10
9921.5904541127929
 20
9507.9655091466539
 30
0.0
 11
9981.5904541127948
 21
9507.9655091466539
 31
0.0
  0
LINE
  5
7E23
  8
FUTO
 10
9748.0904541127929
 20
9766.6545961466563
 30
0.0
 11
9754.5904541127929
 21
9758.8436831466533
 31
0.0
  0
LINE
  5
7E24
  8
FUTO
 10
9761.5904541127929
 20
9739.4655091466539
 30
0.0
 11
9762.5006101127947
 21
9713.4022771466534
 31
0.0
  0
LINE
  5
7E25
  8
FUTO
 10
9754.5904541127929
 20
9758.8436831466533
 30
0.0
 11
9789.5904541127948
 21
9749.4655091466539
 31
0.0
  0
LINE
  5
7E26
  8
FUTO
 10
9789.5904541127948
 20
9744.4655091466557
 30
0.0
 11
9789.5904541127948
 21
9749.4655091466539
 31
0.0
  0
LINE
  5
7E27
  8
FUTO
 10
9789.5904541127948
 20
9739.4655091466539
 30
0.0
 11
9789.5904541127948
 21
9744.4655091466557
 31
0.0
  0
LINE
  5
7E28
  8
FUTO
 10
9765.4234611127958
 20
9706.6801091466532
 30
0.0
 11
9792.4166261127939
 21
9679.6869451466537
 31
0.0
  0
ARC
  5
7E29
  8
FUTO
 10
9799.487670112796
 20
9686.7579891466557
 30
0.0
 40
10.000024
 50
225.0
 51
267.00096100001281
  0
ARC
  5
7E2A
  8
FUTO
 10
9772.4945061127928
 20
9713.7511541466538
 30
0.0
 40
9.9999679999999991
 50
181.99932900002389
 51
225.0
  0
CIRCLE
  5
7E2B
  8
FUTO
 10
9951.5904541127948
 20
5690.5555879455515
 30
0.0
 40
30.0
  0
LINE
  5
7E2C
  8
FUTO
 10
11704.56847853231
 20
5510.5555879455515
 30
0.0
 11
11719.247909456621
 21
5510.5555879455515
 31
0.0
  0
LINE
  5
7E2D
  8
FUTO
 10
11707.247970456619
 20
5490.5555879455515
 30
0.0
 11
11742.247970456619
 21
5490.5555879455515
 31
0.0
  0
LINE
  5
7E2E
  8
FUTO
 10
11379.927462380931
 20
5510.5555879455515
 30
0.0
 11
11365.247970456619
 21
5510.5555879455515
 31
0.0
  0
LINE
  5
7E2F
  8
FUTO
 10
11377.247970456619
 20
5490.5555879455515
 30
0.0
 11
11342.247970456619
 21
5490.5555879455515
 31
0.0
  0
LINE
  5
7E30
  8
CT
 10
10111.590454112789
 20
5480.5555879455524
 30
0.0
 11
10111.590454112789
 21
5410.5555879455524
 31
0.0
  0
LINE
  5
7E31
  8
FUTO
 10
11442.247970456619
 20
5485.5555879455515
 30
0.0
 11
11442.247970456619
 21
5490.5555879455515
 31
0.0
  0
LINE
  5
7E32
  8
FUTO
 10
11642.247970456619
 20
5490.5555879455515
 30
0.0
 11
11642.247970456619
 21
5485.5555879455515
 31
0.0
  0
LINE
  5
7E3B
  8
FUTO
 10
9883.5904541127929
 20
5490.5555879455515
 30
0.0
 11
9883.5904541127929
 21
5485.5555879455515
 31
0.0
  0
LINE
  5
7E3C
  8
FUTO
 10
10019.590576112791
 20
5485.5555879455515
 30
0.0
 11
10019.590576112791
 21
5490.5555879455515
 31
0.0
  0
LINE
  5
7E3D
  8
FUTO
 10
11397.247970456619
 20
5519.0311739455528
 30
0.0
 11
11381.247970456619
 21
5509.7938699455517
 31
0.0
  0
LINE
  5
7E3E
  8
FUTO
 10
11413.247970456619
 20
5509.7938699455517
 30
0.0
 11
11397.247970456619
 21
5519.0311739455528
 31
0.0
  0
LINE
  5
7E3F
  8
FUTO
 10
11397.247970456619
 20
5482.0809789455516
 30
0.0
 11
11381.247970456619
 21
5491.3182839455521
 31
0.0
  0
LINE
  5
7E40
  8
FUTO
 10
11413.247970456619
 20
5491.3182839455521
 30
0.0
 11
11397.247970456619
 21
5482.0809789455516
 31
0.0
  0
LINE
  5
7E41
  8
FUTO
 10
11367.247970456619
 20
5500.5555879455524
 30
0.0
 11
11427.247970456619
 21
5500.5555879455524
 31
0.0
  0
CIRCLE
  5
7E42
  8
CT
 10
11397.247970456619
 20
5500.5555879455524
 30
0.0
 40
16.0
  0
LINE
  5
7E43
  8
FUTO
 10
11413.247970456619
 20
5491.3182839455521
 30
0.0
 11
11413.247970456619
 21
5509.7938699455517
 31
0.0
  0
LINE
  5
7E44
  8
FUTO
 10
11381.247970456619
 20
5491.3182839455521
 30
0.0
 11
11381.247970456619
 21
5509.7938699455517
 31
0.0
  0
ARC
  5
7E45
  8
FUTO
 10
11397.247970456619
 20
5500.5555879455524
 30
0.0
 40
20.0
 50
0.000000000000007
 51
180.0
  0
ARC
  5
7E46
  8
FUTO
 10
11290.247970456619
 20
5457.5555879455515
 30
0.0
 40
3.0
 50
90.0
 51
180.0
  0
LINE
  5
7E47
  8
FUTO
 10
11339.122970456619
 20
5460.5555879455524
 30
0.0
 11
11290.247970456619
 21
5460.5555879455524
 31
0.0
  0
LINE
  5
7E48
  8
FUTO
 10
11344.247970456619
 20
5430.5555879455515
 30
0.0
 11
11344.247970456619
 21
5435.5555879455515
 31
0.0
  0
LINE
  5
7E49
  8
FUTO
 10
11334.247970456619
 20
5442.5555879455524
 30
0.0
 11
11334.247970456619
 21
5435.5555879455515
 31
0.0
  0
LINE
  5
7E4A
  8
FUTO
 10
11344.247970456619
 20
5430.5555879455515
 30
0.0
 11
11287.247970456619
 21
5430.5555879455515
 31
0.0
  0
LINE
  5
7E4B
  8
FUTO
 10
11287.247970456619
 20
5430.5555879455515
 30
0.0
 11
11287.247970456619
 21
5457.5555879455515
 31
0.0
  0
LINE
  5
7E4C
  8
CT
 10
11312.247970456619
 20
5480.5555879455524
 30
0.0
 11
11312.247970456619
 21
5410.5555879455524
 31
0.0
  0
LINE
  5
7E4D
  8
FUTO
 10
11334.247970456619
 20
5442.5555879455524
 30
0.0
 11
11377.247970456619
 21
5442.5555879455524
 31
0.0
  0
LINE
  5
7E4E
  8
FUTO
 10
11342.247970456619
 20
5490.5555879455515
 30
0.0
 11
11337.247970456619
 21
5442.5555879455524
 31
0.0
  0
LINE
  5
7E4F
  8
FUTO
 10
11417.247970456619
 20
5500.5555879455524
 30
0.0
 11
11417.247970456619
 21
5435.5555879455515
 31
0.0
  0
LINE
  5
7E50
  8
FUTO
 10
11377.247970456619
 20
5435.5555879455515
 30
0.0
 11
11377.247970456619
 21
5500.5555879455524
 31
0.0
  0
LINE
  5
7E51
  8
CT
 10
11397.247970456619
 20
5425.5555879455515
 30
0.0
 11
11397.247970456619
 21
5530.5555879455524
 31
0.0
  0
LINE
  5
7E52
  8
FUTO
 10
11671.247970456619
 20
5509.7938699455517
 30
0.0
 11
11687.247970456619
 21
5519.0311739455528
 31
0.0
  0
LINE
  5
7E53
  8
FUTO
 10
11671.247970456619
 20
5491.3182839455521
 30
0.0
 11
11687.247970456619
 21
5482.0809789455516
 31
0.0
  0
LINE
  5
7E54
  8
FUTO
 10
11671.247970456619
 20
5491.3182839455521
 30
0.0
 11
11671.247970456619
 21
5509.7938699455517
 31
0.0
  0
LINE
  5
7E55
  8
FUTO
 10
11703.247970456619
 20
5491.3182839455521
 30
0.0
 11
11703.247970456619
 21
5509.7938699455517
 31
0.0
  0
CIRCLE
  5
7E56
  8
FUTO
 10
11687.247970456619
 20
5500.5555879455524
 30
0.0
 40
16.0
  0
LINE
  5
7E57
  8
FUTO
 10
11687.247970456619
 20
5519.0311739455528
 30
0.0
 11
11703.247970456619
 21
5509.7938699455517
 31
0.0
  0
LINE
  5
7E58
  8
FUTO
 10
11687.247970456619
 20
5482.0809789455516
 30
0.0
 11
11703.247970456619
 21
5491.3182839455521
 31
0.0
  0
ARC
  5
7E59
  8
FUTO
 10
11687.247970456619
 20
5500.5555879455524
 30
0.0
 40
20.0
 50
0.000000000000007
 51
180.0
  0
LINE
  5
7E5A
  8
CT
 10
11717.247970456619
 20
5500.5555879455524
 30
0.0
 11
11657.247970456619
 21
5500.5555879455524
 31
0.0
  0
LINE
  5
7E5B
  8
FUTO
 10
11442.247970456619
 20
5485.5555879455515
 30
0.0
 11
11642.247970456619
 21
5485.5555879455515
 31
0.0
  0
LINE
  5
7E5C
  8
FUTO
 10
11740.247970456619
 20
5430.5555879455515
 30
0.0
 11
11740.247970456619
 21
5435.5555879455515
 31
0.0
  0
LINE
  5
7E5D
  8
FUTO
 10
11750.247970456619
 20
5442.5555879455524
 30
0.0
 11
11750.247970456619
 21
5435.5555879455515
 31
0.0
  0
LINE
  5
7E5E
  8
FUTO
 10
11750.247970456619
 20
5442.5555879455524
 30
0.0
 11
11707.247970456619
 21
5442.5555879455524
 31
0.0
  0
LINE
  5
7E5F
  8
CT
 10
11772.247970456619
 20
5480.5555879455524
 30
0.0
 11
11772.247970456619
 21
5410.5555879455524
 31
0.0
  0
ARC
  5
7E60
  8
FUTO
 10
11794.247970456619
 20
5457.5555879455515
 30
0.0
 40
3.0
 50
0.000000000000007
 51
90.0
  0
LINE
  5
7E61
  8
FUTO
 10
11797.247970456619
 20
5430.5555879455515
 30
0.0
 11
11797.247970456619
 21
5457.5555879455515
 31
0.0
  0
LINE
  5
7E62
  8
FUTO
 10
11745.372970456619
 20
5460.5555879455524
 30
0.0
 11
11794.247970456619
 21
5460.5555879455524
 31
0.0
  0
LINE
  5
7E63
  8
FUTO
 10
11740.247970456619
 20
5430.5555879455515
 30
0.0
 11
11797.247970456619
 21
5430.5555879455515
 31
0.0
  0
LINE
  5
7E64
  8
FUTO
 10
11742.247970456619
 20
5490.5555879455515
 30
0.0
 11
11747.247970456619
 21
5442.5555879455524
 31
0.0
  0
LINE
  5
7E65
  8
FUTO
 10
11667.247970456619
 20
5500.5555879455524
 30
0.0
 11
11667.247970456619
 21
5435.5555879455515
 31
0.0
  0
LINE
  5
7E66
  8
FUTO
 10
11707.247970456619
 20
5435.5555879455515
 30
0.0
 11
11707.247970456619
 21
5500.5555879455524
 31
0.0
  0
LINE
  5
7E67
  8
CT
 10
11687.247970456619
 20
5425.5555879455515
 30
0.0
 11
11687.247970456619
 21
5530.5555879455524
 31
0.0
  0
LINE
  5
7E68
  8
FUTO
 10
10311.04504411279
 20
5510.2606659455523
 30
0.0
 11
10312.64502011279
 21
5508.6610569455524
 31
0.0
  0
LINE
  5
7E69
  8
FUTO
 10
10311.04504411279
 20
5510.2606659455523
 30
0.0
 11
10312.64502011279
 21
5511.8612519455528
 31
0.0
  0
LINE
  5
7E6A
  8
FUTO
 10
10311.04504411279
 20
5510.2606659455523
 30
0.0
 11
10298.945069112789
 21
5510.2606659455523
 31
0.0
  0
LINE
  5
7E6B
  8
FUTO
 10
10312.644898112791
 20
5516.5458229455517
 30
0.0
 11
10311.044922112789
 21
5518.1454319455506
 31
0.0
  0
LINE
  5
7E6C
  8
FUTO
 10
10311.04504411279
 20
5518.1454319455506
 30
0.0
 11
10298.945069112789
 21
5518.1454319455506
 31
0.0
  0
LINE
  5
7E6D
  8
FUTO
 10
10311.04504411279
 20
5490.8505099455524
 30
0.0
 11
10312.64502011279
 21
5492.4510959455511
 31
0.0
  0
LINE
  5
7E6E
  8
FUTO
 10
10311.04504411279
 20
5490.8505099455524
 30
0.0
 11
10312.64502011279
 21
5489.2509009455516
 31
0.0
  0
LINE
  5
7E6F
  8
FUTO
 10
10311.04504411279
 20
5490.8505099455524
 30
0.0
 11
10298.945069112789
 21
5490.8505099455524
 31
0.0
  0
LINE
  5
7E70
  8
FUTO
 10
10311.04504411279
 20
5482.9657449455517
 30
0.0
 11
10298.945069112789
 21
5482.9657449455517
 31
0.0
  0
LINE
  5
7E71
  8
FUTO
 10
10311.04504411279
 20
5482.9657449455517
 30
0.0
 11
10312.64502011279
 21
5484.5663299455509
 31
0.0
  0
LINE
  5
7E72
  8
FUTO
 10
10312.644898112791
 20
5516.5458229455517
 30
0.0
 11
10312.644898112791
 21
5484.5663299455509
 31
0.0
  0
LINE
  5
7E73
  8
FUTO
 10
10298.94494711279
 20
5518.1454319455506
 30
0.0
 11
10298.94494711279
 21
5482.9657449455517
 31
0.0
  0
LINE
  5
7E74
  8
HOSO
 10
10236.590576112791
 20
5493.5555879455515
 30
0.0
 11
10298.944703112789
 21
5493.5555879455515
 31
0.0
  0
LINE
  5
7E75
  8
FUTO
 10
10236.590576112791
 20
5509.5555879455524
 30
0.0
 11
10298.944703112789
 21
5509.5555879455524
 31
0.0
  0
LINE
  5
7E76
  8
HOSO
 10
10298.94494711279
 20
5507.5555879455515
 30
0.0
 11
10236.590576112791
 21
5507.5555879455515
 31
0.0
  0
LINE
  5
7E77
  8
FUTO
 10
10298.94494711279
 20
5491.5555879455515
 30
0.0
 11
10236.590576112791
 21
5491.5555879455515
 31
0.0
  0
LINE
  5
7E78
  8
FUTO
 10
10140.590454112789
 20
5507.5555879455515
 30
0.0
 11
10142.590454112789
 21
5509.5555879455524
 31
0.0
  0
LINE
  5
7E79
  8
HOSO
 10
10204.423909446121
 20
5507.5555879455515
 30
0.0
 11
10140.590577112789
 21
5507.5555879455515
 31
0.0
  0
LINE
  5
7E7A
  8
FUTO
 10
10142.590454112789
 20
5509.5555879455524
 30
0.0
 11
10204.757242779449
 21
5509.5555879455524
 31
0.0
  0
LINE
  5
7E7B
  8
FUTO
 10
10142.590454112789
 20
5491.5555879455515
 30
0.0
 11
10140.590454112789
 21
5493.5555879455515
 31
0.0
  0
LINE
  5
7E7C
  8
FUTO
 10
10201.757242779449
 20
5491.5555879455515
 30
0.0
 11
10142.590454112789
 21
5491.5555879455515
 31
0.0
  0
LINE
  5
7E7D
  8
HOSO
 10
10140.590454112789
 20
5493.5555879455515
 30
0.0
 11
10202.090576112791
 21
5493.5555879455515
 31
0.0
  0
LINE
  5
7E7E
  8
FUTO
 10
10142.590454112789
 20
5509.5555879455524
 30
0.0
 11
10142.590454112789
 21
5491.5555879455515
 31
0.0
  0
LINE
  5
7E7F
  8
FUTO
 10
10206.590576112791
 20
5520.5555879455515
 30
0.0
 11
10201.590576112791
 21
5490.5555879455515
 31
0.0
  0
LINE
  5
7E80
  8
FUTO
 10
9883.5904541127929
 20
5485.5555879455515
 30
0.0
 11
10019.590576112791
 21
5485.5555879455515
 31
0.0
  0
LINE
  5
7E81
  8
FUTO
 10
10203.590576112791
 20
5490.5555879455515
 30
0.0
 11
10019.590576112791
 21
5490.5555879455515
 31
0.0
  0
LINE
  5
7E82
  8
FUTO
 10
10206.590576112791
 20
5520.5555879455515
 30
0.0
 11
10236.590576112791
 21
5520.5555879455515
 31
0.0
  0
LINE
  5
7E83
  8
CT
 10
10140.590454112789
 20
5500.5555879455524
 30
0.0
 11
10322.644898112791
 21
5500.5555879455524
 31
0.0
  0
LINE
  5
7E84
  8
FUTO
 10
10211.590576112791
 20
5435.5555879455515
 30
0.0
 11
10236.590576112791
 21
5435.5555879455515
 31
0.0
  0
LINE
  5
7E85
  8
FUTO
 10
10208.590576112791
 20
5442.5555879455524
 30
0.0
 11
10211.590576112791
 21
5442.5555879455524
 31
0.0
  0
LINE
  5
7E86
  8
FUTO
 10
10211.590576112791
 20
5442.5555879455524
 30
0.0
 11
10211.590576112791
 21
5435.5555879455515
 31
0.0
  0
ARC
  5
7E87
  8
FUTO
 10
10158.59082011279
 20
5457.5555879455515
 30
0.0
 40
3.0
 50
0.000000000000007
 51
90.002335000001125
  0
LINE
  5
7E88
  8
FUTO
 10
10161.590576112791
 20
5430.5555879455515
 30
0.0
 11
10161.590576112791
 21
5457.5555879455515
 31
0.0
  0
ARC
  5
7E89
  8
FUTO
 10
10064.590576112791
 20
5457.5555879455515
 30
0.0
 40
3.0
 50
89.997664999998889
 51
180.0
  0
LINE
  5
7E8A
  8
FUTO
 10
10061.590576112791
 20
5430.5555879455515
 30
0.0
 11
10061.590576112791
 21
5457.5555879455515
 31
0.0
  0
LINE
  5
7E8B
  8
FUTO
 10
10064.590576112791
 20
5460.5555879455524
 30
0.0
 11
10158.590576112791
 21
5460.5555879455524
 31
0.0
  0
LINE
  5
7E8C
  8
FUTO
 10
10061.590576112791
 20
5430.5555879455515
 30
0.0
 11
10161.590576112791
 21
5430.5555879455515
 31
0.0
  0
LINE
  5
7E8D
  8
FUTO
 10
10211.590576112791
 20
5435.5555879455515
 30
0.0
 11
10161.590576112791
 21
5435.5555879455515
 31
0.0
  0
LINE
  5
7E8E
  8
FUTO
 10
10203.590576112791
 20
5490.5555879455515
 30
0.0
 11
10208.590576112791
 21
5442.5555879455524
 31
0.0
  0
LINE
  5
7E8F
  8
FUTO
 10
10236.590576112791
 20
5520.5555879455515
 30
0.0
 11
10236.590576112791
 21
5435.5555879455515
 31
0.0
  0
LINE
  5
7E90
  8
FUTO
 10
9762.5904541127948
 20
5507.5555879455515
 30
0.0
 11
9760.5904541127948
 21
5509.5555879455524
 31
0.0
  0
LINE
  5
7E91
  8
HOSO
 10
9698.7571817794615
 20
5507.5555879455533
 30
0.0
 11
9762.5904541127948
 21
5507.5555879455515
 31
0.0
  0
LINE
  5
7E92
  8
FUTO
 10
9760.5904541127948
 20
5509.5555879455524
 30
0.0
 11
9698.4238484461257
 21
5509.5555879455524
 31
0.0
  0
LINE
  5
7E93
  8
FUTO
 10
9760.5904541127948
 20
5491.5555879455515
 30
0.0
 11
9762.5904541127948
 21
5493.5555879455515
 31
0.0
  0
LINE
  5
7E94
  8
FUTO
 10
9701.4238484461257
 20
5491.5555879455515
 30
0.0
 11
9760.5904541127948
 21
5491.5555879455515
 31
0.0
  0
LINE
  5
7E95
  8
HOSO
 10
9762.5904541127948
 20
5493.5555879455515
 30
0.0
 11
9701.0905151127918
 21
5493.5555879455515
 31
0.0
  0
LINE
  5
7E96
  8
FUTO
 10
9760.5904541127948
 20
5509.5555879455524
 30
0.0
 11
9760.5904541127948
 21
5491.5555879455515
 31
0.0
  0
LINE
  5
7E97
  8
FUTO
 10
9696.5905151127918
 20
5520.5555879455515
 30
0.0
 11
9701.5905151127918
 21
5490.5555879455515
 31
0.0
  0
LINE
  5
7E98
  8
FUTO
 10
9666.5905151127918
 20
5509.5555879455524
 30
0.0
 11
9604.2359621127925
 21
5509.5555879455524
 31
0.0
  0
LINE
  5
7E99
  8
HOSO
 10
9604.2360231127932
 20
5507.5555879455515
 30
0.0
 11
9666.5905151127918
 21
5507.5555879455515
 31
0.0
  0
LINE
  5
7E9A
  8
HOSO
 10
9666.5905151127918
 20
5493.5555879455542
 30
0.0
 11
9604.2359621127925
 21
5493.5555879455515
 31
0.0
  0
LINE
  5
7E9B
  8
FUTO
 10
9604.2360231127932
 20
5491.5555879455515
 30
0.0
 11
9666.5905151127918
 21
5491.5555879455515
 31
0.0
  0
LINE
  5
7E9C
  8
FUTO
 10
9604.2360231127932
 20
5518.1454319455506
 30
0.0
 11
9604.2360231127932
 21
5482.9657449455517
 31
0.0
  0
LINE
  5
7E9D
  8
FUTO
 10
9592.1360471127937
 20
5510.2606659455523
 30
0.0
 11
9590.5360721127945
 21
5508.6610569455524
 31
0.0
  0
LINE
  5
7E9E
  8
FUTO
 10
9592.1360471127937
 20
5510.2606659455523
 30
0.0
 11
9590.5360721127945
 21
5511.8612519455528
 31
0.0
  0
LINE
  5
7E9F
  8
FUTO
 10
9590.5360721127945
 20
5516.5458229455517
 30
0.0
 11
9592.1360471127937
 21
5518.1454319455506
 31
0.0
  0
LINE
  5
7EA0
  8
FUTO
 10
9592.1360471127937
 20
5490.8505099455524
 30
0.0
 11
9590.5360721127945
 21
5492.4510959455511
 31
0.0
  0
LINE
  5
7EA1
  8
FUTO
 10
9592.1360471127937
 20
5490.8505099455524
 30
0.0
 11
9590.5360721127945
 21
5489.2509009455516
 31
0.0
  0
LINE
  5
7EA2
  8
FUTO
 10
9592.1360471127937
 20
5482.9657449455517
 30
0.0
 11
9590.5360721127945
 21
5484.5663299455509
 31
0.0
  0
LINE
  5
7EA3
  8
FUTO
 10
9590.5360721127945
 20
5516.5458229455517
 30
0.0
 11
9590.5360721127945
 21
5484.5663299455509
 31
0.0
  0
LINE
  5
7EA4
  8
FUTO
 10
9592.1360471127937
 20
5490.8505099455524
 30
0.0
 11
9604.2360231127932
 21
5490.8505099455524
 31
0.0
  0
LINE
  5
7EA5
  8
FUTO
 10
9592.1360471127937
 20
5510.2606659455523
 30
0.0
 11
9604.2360231127932
 21
5510.2606659455523
 31
0.0
  0
LINE
  5
7EA6
  8
FUTO
 10
9592.1360471127937
 20
5482.9657449455517
 30
0.0
 11
9604.2360231127932
 21
5482.9657449455517
 31
0.0
  0
LINE
  5
7EA7
  8
FUTO
 10
9592.1360471127937
 20
5518.1454319455506
 30
0.0
 11
9604.2360231127932
 21
5518.1454319455506
 31
0.0
  0
LINE
  5
7EA8
  8
FUTO
 10
9696.5905151127918
 20
5520.5555879455515
 30
0.0
 11
9666.5905151127918
 21
5520.5555879455515
 31
0.0
  0
LINE
  5
7EA9
  8
CT
 10
9762.5904541127948
 20
5500.5555879455524
 30
0.0
 11
9580.5360721127927
 21
5500.5555879455524
 31
0.0
  0
ARC
  5
7EAA
  8
FUTO
 10
9838.5905761127924
 20
5457.5555879455515
 30
0.0
 40
2.999938999999999
 50
0.000000000000007
 51
90.001166999976803
  0
LINE
  5
7EAB
  8
FUTO
 10
9841.5904541127929
 20
5430.5555879455515
 30
0.0
 11
9841.5904541127929
 21
5457.5555879455515
 31
0.0
  0
ARC
  5
7EAC
  8
FUTO
 10
9744.5904541127948
 20
5457.5555879455515
 30
0.0
 40
3.0
 50
89.9988329999711
 51
180.0
  0
LINE
  5
7EAD
  8
FUTO
 10
9694.5905151127936
 20
5442.5555879455524
 30
0.0
 11
9691.5905151127936
 21
5442.5555879455524
 31
0.0
  0
LINE
  5
7EAE
  8
FUTO
 10
9691.5905151127936
 20
5442.5555879455524
 30
0.0
 11
9691.5905151127936
 21
5435.5555879455515
 31
0.0
  0
LINE
  5
7EAF
  8
FUTO
 10
9691.5905151127936
 20
5435.5555879455515
 30
0.0
 11
9741.5904541127948
 21
5435.5555879455515
 31
0.0
  0
LINE
  5
7EB0
  8
FUTO
 10
9741.5904541127948
 20
5430.5555879455515
 30
0.0
 11
9741.5904541127948
 21
5457.5555879455515
 31
0.0
  0
LINE
  5
7EB1
  8
FUTO
 10
9838.5904541127929
 20
5460.5555879455524
 30
0.0
 11
9744.5904541127948
 21
5460.5555879455524
 31
0.0
  0
LINE
  5
7EB2
  8
FUTO
 10
9841.5904541127929
 20
5430.5555879455515
 30
0.0
 11
9741.5904541127948
 21
5430.5555879455515
 31
0.0
  0
LINE
  5
7EB3
  8
FUTO
 10
9691.5905151127936
 20
5435.5555879455515
 30
0.0
 11
9666.5905151127918
 21
5435.5555879455515
 31
0.0
  0
LINE
  5
7EB4
  8
FUTO
 10
9699.5905151127918
 20
5490.5555879455515
 30
0.0
 11
9694.5905151127936
 21
5442.5555879455524
 31
0.0
  0
LINE
  5
7EB5
  8
FUTO
 10
9666.5905151127918
 20
5520.5555879455515
 30
0.0
 11
9666.5905151127918
 21
5435.5555879455515
 31
0.0
  0
LINE
  5
7EB6
  8
CT
 10
9791.5904541127911
 20
5480.5555879455524
 30
0.0
 11
9791.5904541127911
 21
5410.5555879455524
 31
0.0
  0
LINE
  5
7EB7
  8
FUTO
 10
9699.5905151127918
 20
5490.5555879455515
 30
0.0
 11
9883.5904541127929
 21
5490.5555879455515
 31
0.0
  0
LINE
  5
7EB8
  8
FUTO
 10
9841.5904541127929
 20
5435.5555879455515
 30
0.0
 11
10061.590454112789
 21
5435.5555879455515
 31
0.0
  0
LINE
  5
7EB9
  8
FUTO
 10
11417.247970456619
 20
5442.5555879455524
 30
0.0
 11
11667.247970456619
 21
5442.5555879455524
 31
0.0
  0
LINE
  5
7EBA
  8
FUTO
 10
11334.247970456619
 20
5435.5555879455515
 30
0.0
 11
11750.247970456619
 21
5435.5555879455515
 31
0.0
  0
LINE
  5
7EBB
  8
FUTO
 10
11358.247970456619
 20
5852.5555879455524
 30
0.0
 11
11358.247970456619
 21
5815.5555879455515
 31
0.0
  0
ARC
  5
7EBC
  8
FUTO
 10
11322.533615456619
 20
5869.6515359455516
 30
0.0
 40
9.9999679999999991
 50
91.999329000023934
 51
135.0
  0
ARC
  5
7EBD
  8
FUTO
 10
11295.54045045662
 20
5842.6583719455512
 30
0.0
 40
10.000024
 50
135.0
 51
177.00096100001281
  0
LINE
  5
7EBE
  8
KL
 10
11315.462570456621
 20
5876.7225809455513
 30
0.0
 11
11288.469406456619
 21
5849.7294159455514
 31
0.0
  0
LINE
  5
7EBF
  8
FUTO
 10
11348.247970456619
 20
5852.5555879455524
 30
0.0
 11
11353.247970456619
 21
5852.5555879455524
 31
0.0
  0
LINE
  5
7EC0
  8
FUTO
 10
11353.247970456619
 20
5852.5555879455524
 30
0.0
 11
11358.247970456619
 21
5852.5555879455524
 31
0.0
  0
LINE
  5
7EC1
  8
FUTO
 10
11367.626144456621
 20
5887.5555879455524
 30
0.0
 11
11358.247970456619
 21
5852.5555879455524
 31
0.0
  0
LINE
  5
7EC2
  8
FUTO
 10
11348.247970456619
 20
5880.5555879455515
 30
0.0
 11
11322.184738456621
 21
5879.6454319455506
 31
0.0
  0
LINE
  5
7EC4
  8
FUTO
 10
11383.247970456619
 20
5900.5555879455515
 30
0.0
 11
11367.626144456621
 21
5887.5555879455524
 31
0.0
  0
LINE
  5
7EC5
  8
FUTO
 10
11116.747970456619
 20
5724.5555879455524
 30
0.0
 11
11116.747970456619
 21
5660.5555879455524
 31
0.0
  0
ARC
  5
7EC6
  8
FUTO
 10
11268.747970456619
 20
5768.5555879455515
 30
0.0
 40
2.0
 50
90.0
 51
180.0
  0
ARC
  5
7ED5
  8
FUTO
 10
11368.247970456619
 20
5815.5555879455515
 30
0.0
 40
10.0
 50
90.0
 51
180.0
  0
ARC
  5
7ED8
  8
FUTO
 10
11278.901046456611
 20
5773.5555879455515
 30
0.0
 40
2.9999599999999988
 50
270.0
 51
357.00044300001662
  0
LINE
  5
7ED9
  8
FUTO
 10
11278.901046456611
 20
5770.5555879455515
 30
0.0
 11
11268.747970456619
 21
5770.5555879455515
 31
0.0
  0
LINE
  5
7EDA
  8
FUTO
 10
11226.747970456619
 20
5724.5555879455524
 30
0.0
 11
11226.747970456619
 21
5720.5555879455515
 31
0.0
  0
LINE
  5
7EDB
  8
FUTO
 10
11256.747970456619
 20
5723.0555879455524
 30
0.0
 11
11266.747970456619
 21
5723.0555879455524
 31
0.0
  0
LINE
  5
7EDC
  8
FUTO
 10
11256.747970456619
 20
5658.0555879455515
 30
0.0
 11
11266.747970456619
 21
5658.0555879455515
 31
0.0
  0
LINE
  5
7EDD
  8
FUTO
 10
11256.747970456619
 20
5658.0555879455515
 30
0.0
 11
11256.747970456619
 21
5723.0555879455524
 31
0.0
  0
ARC
  5
7EDE
  8
FUTO
 10
11368.247970456619
 20
5715.5555879455515
 30
0.0
 40
10.0
 50
180.0
 51
270.0
  0
LINE
  5
7EDF
  8
FUTO
 10
11266.747970456619
 20
5768.5555879455515
 30
0.0
 11
11266.747970456619
 21
5690.5555879455515
 31
0.0
  0
LINE
  5
7EE0
  8
FUTO
 10
11358.247970456619
 20
5715.5555879455515
 30
0.0
 11
11358.247970456619
 21
5815.5555879455515
 31
0.0
  0
LINE
  5
7EE1
  8
FUTO
 10
11256.747970456619
 20
5720.5555879455515
 30
0.0
 11
11116.747970456619
 21
5720.5555879455515
 31
0.0
  0
LINE
  5
7EE2
  8
FUTO
 10
11256.747970456619
 20
5660.5555879455524
 30
0.0
 11
11116.747970456619
 21
5660.5555879455524
 31
0.0
  0
LINE
  5
7EE3
  8
FUTO
 10
11226.747970456619
 20
5724.5555879455524
 30
0.0
 11
11116.747970456619
 21
5724.5555879455524
 31
0.0
  0
LINE
  5
7EE4
  8
FUTO
 10
11353.247970456619
 20
5852.5555879455524
 30
0.0
 11
11353.247970456619
 21
5690.5555879455515
 31
0.0
  0
LINE
  5
7EE5
  8
FUTO
 10
11348.247970456619
 20
5880.5555879455515
 30
0.0
 11
11348.247970456619
 21
5690.5555879455515
 31
0.0
  0
LINE
  5
7EE6
  8
FUTO
 10
11285.55412245662
 20
5843.1815649455521
 30
0.0
 11
11280.911300456621
 21
5754.5902559455517
 31
0.0
  0
LINE
  5
7EE8
  8
FUTO
 10
11353.247970456619
 20
5852.5555879455524
 30
0.0
 11
11353.247970456619
 21
5690.5555879455515
 31
0.0
  0
ARC
  5
7EE9
  8
FUTO
 10
11531.01298545662
 20
5908.8347019455514
 30
0.0
 40
2.9999909999999992
 50
96.115172999988943
 51
174.80557099997009
  0
LINE
  5
7EEA
  8
FUTO
 10
11528.02531445662
 20
5909.1063089455511
 30
0.0
 11
11527.247970456619
 21
5900.5555879455515
 31
0.0
  0
ARC
  5
7EEB
  8
FUTO
 10
11521.28959645662
 20
5901.2853859455518
 30
0.0
 40
5.9999760000000002
 50
354.80557299999322
 51
54.396263000016731
  0
ARC
  5
7EEC
  8
FUTO
 10
11553.482955456609
 20
5908.8347019455514
 30
0.0
 40
2.999981
 50
5.194427000006832
 51
83.884827000011072
  0
ARC
  5
7EED
  8
FUTO
 10
11542.247970456619
 20
5930.5555879455515
 30
0.0
 40
30.0
 50
305.19004800002568
 51
305.60386699999998
  0
LINE
  5
7EEE
  8
FUTO
 10
11542.247970456619
 20
5913.0555879455515
 30
0.0
 11
11553.80253545662
 21
5911.8176119455511
 31
0.0
  0
LINE
  5
7EEF
  8
FUTO
 10
11556.470626456619
 20
5909.1063089455511
 30
0.0
 11
11557.247970456619
 21
5900.5555879455515
 31
0.0
  0
ARC
  5
7EF0
  8
FUTO
 10
11563.206344456619
 20
5901.2853859455518
 30
0.0
 40
5.9999820000000001
 50
125.6037369999832
 51
185.19442700000681
  0
LINE
  5
7EF1
  8
FUTO
 10
11542.247970456619
 20
5913.0555879455515
 30
0.0
 11
11530.693405456621
 21
5911.8176119455511
 31
0.0
  0
LINE
  5
7EF2
  8
FUTO
 10
11530.693405456621
 20
5911.8176119455511
 30
0.0
 11
11553.80253545662
 21
5911.8176119455511
 31
0.0
  0
LINE
  5
7EF3
  8
FUTO
 10
11582.247970456619
 20
5930.5555879455515
 30
0.0
 11
11502.247970456619
 21
5930.5555879455515
 31
0.0
  0
LINE
  5
7EF4
  8
FUTO
 10
11483.247970456619
 20
5839.5555879455515
 30
0.0
 11
11601.247970456619
 21
5839.5555879455515
 31
0.0
  0
CIRCLE
  5
7EF5
  8
FUTO
 10
11542.247970456619
 20
5930.5555879455515
 30
0.0
 40
17.5
  0
ARC
  5
7EF6
  8
FUTO
 10
11542.247970456619
 20
5930.5555879455515
 30
0.0
 40
30.0
 50
305.60386699999998
 51
234.39614899998969
  0
LINE
  5
7EF7
  8
FUTO
 10
11701.247909456621
 20
5900.5555879455515
 30
0.0
 11
11711.247909456621
 21
5892.2338109455513
 31
0.0
  0
ARC
  5
7EF8
  8
FUTO
 10
11757.721298456619
 20
5874.0555879455524
 30
0.0
 40
20.0
 50
69.99995399998474
 51
90.0
  0
ARC
  5
7EF9
  8
FUTO
 10
11794.99668845662
 20
5903.0555879455515
 30
0.0
 40
20.0
 50
250.00027499999021
 51
270.0
  0
LINE
  5
7EFC
  8
FUTO
 10
11764.561752456621
 20
5892.8495339455512
 30
0.0
 11
11788.15635645662
 21
5884.2616429455511
 31
0.0
  0
LINE
  5
7EFD
  8
FUTO
 10
11711.247909456621
 20
5894.0555879455515
 30
0.0
 11
11757.721298456619
 21
5894.0555879455515
 31
0.0
  0
LINE
  5
7EFE
  8
FUTO
 10
11701.247909456621
 20
5900.5555879455515
 30
0.0
 11
11542.247970456619
 21
5900.5555879455515
 31
0.0
  0
LINE
  5
7EFF
  8
FUTO
 10
11604.247909456621
 20
5832.5555879455515
 30
0.0
 11
11480.247970456619
 21
5832.5555879455515
 31
0.0
  0
ARC
  5
7F00
  8
FUTO
 10
11480.247970456619
 20
5657.8578339455516
 30
0.0
 40
20.0
 50
180.0
 51
270.0
  0
CIRCLE
  5
7F01
  8
FUTO
 10
11542.247970456619
 20
5624.8578339455516
 30
0.0
 40
3.5
  0
LINE
  5
7F02
  8
FUTO
 10
11548.700851456621
 20
5624.8578339455516
 30
0.0
 11
11534.111740456619
 21
5624.8578339455516
 31
0.0
  0
LINE
  5
7F03
  8
FUTO
 10
11480.247970456619
 20
5637.8578339455516
 30
0.0
 11
11604.247970456619
 21
5637.8578339455516
 31
0.0
  0
LINE
  5
7F04
  8
FUTO
 10
11601.247909456621
 20
5617.8578339455516
 30
0.0
 11
11483.247970456619
 21
5617.8578339455516
 31
0.0
  0
LINE
  5
7F05
  8
FUTO
 10
11460.247970456619
 20
5812.5555879455524
 30
0.0
 11
11460.247970456619
 21
5657.8578339455516
 31
0.0
  0
LINE
  5
7F06
  8
FUTO
 10
11453.247970456619
 20
5809.5555879455524
 30
0.0
 11
11453.247970456619
 21
5647.8578339455507
 31
0.0
  0
LINE
  5
7F07
  8
FUTO
 10
11711.247909456621
 20
5825.5555879455515
 30
0.0
 11
11626.62510645662
 21
5825.5555879455515
 31
0.0
  0
LINE
  5
7F0B
  8
FUTO
 10
11711.247909456621
 20
5705.5555879455524
 30
0.0
 11
11631.247909456621
 21
5705.5555879455524
 31
0.0
  0
LINE
  5
7F0C
  8
FUTO
 10
11624.247909456621
 20
5812.5555879455524
 30
0.0
 11
11624.247909456621
 21
5657.8578339455516
 31
0.0
  0
LINE
  5
7F0D
  8
FUTO
 10
11631.247909456621
 20
5809.5555879455524
 30
0.0
 11
11631.247909456621
 21
5647.8578339455507
 31
0.0
  0
ARC
  5
7F0E
  8
FUTO
 10
11604.247909456621
 20
5657.8578339455516
 30
0.0
 40
20.0
 50
270.0
 51
0.000000000000007
  0
LINE
  5
7F0F
  8
CT
 10
11651.247909456621
 20
5765.5555879455515
 30
0.0
 11
11433.247970456619
 21
5765.5555879455515
 31
0.0
  0
ARC
  5
7F10
  8
FUTO
 10
11604.247909456621
 20
5812.5555879455524
 30
0.0
 40
20.0
 50
0.000000000000007
 51
90.0
  0
ARC
  5
7F11
  8
FUTO
 10
11480.247970456619
 20
5812.5555879455524
 30
0.0
 40
20.0
 50
90.0
 51
180.0
  0
ARC
  5
7F12
  8
FUTO
 10
11483.247970456619
 20
5809.5555879455524
 30
0.0
 40
30.0
 50
90.0
 51
180.0
  0
ARC
  5
7F13
  8
FUTO
 10
11601.247909456621
 20
5809.5555879455524
 30
0.0
 40
30.0
 50
0.000000000000007
 51
90.0
  0
LINE
  5
7F18
  8
FUTO
 10
11383.247970456619
 20
5900.5555879455515
 30
0.0
 11
11542.247970456619
 21
5900.5555879455515
 31
0.0
  0
LINE
  5
7F19
  8
FUTO
 10
11368.247970456619
 20
5825.5555879455515
 30
0.0
 11
11457.870773456611
 21
5825.5555879455515
 31
0.0
  0
LINE
  5
7F1A
  8
FUTO
 10
11368.247970456619
 20
5705.5555879455524
 30
0.0
 11
11453.247970456619
 21
5705.5555879455524
 31
0.0
  0
ARC
  5
7F1B
  8
FUTO
 10
11268.747970456619
 20
5612.5555879455524
 30
0.0
 40
2.0
 50
180.0
 51
270.0
  0
ARC
  5
7F1C
  8
FUTO
 10
11278.901046456611
 20
5607.5555879455515
 30
0.0
 40
3.0
 50
2.9995570000354208
 51
90.0
  0
ARC
  5
7F1D
  8
FUTO
 10
11293.59757945662
 20
5575.5238499455509
 30
0.0
 40
10.000139999999989
 50
183.00042699998181
 51
225.00097699998821
  0
ARC
  5
7F2C
  8
FUTO
 10
11295.54045045662
 20
5538.4528049455512
 30
0.0
 40
9.9999679999999991
 50
182.9990540000266
 51
225.0
  0
LINE
  5
7F2D
  8
FUTO
 10
11358.247970456619
 20
5538.794845945552
 30
0.0
 11
11377.336593456621
 21
5538.794845945552
 31
0.0
  0
LINE
  5
7F2E
  8
FUTO
 10
11359.28385945662
 20
5528.5555879455515
 30
0.0
 11
11353.247970456619
 21
5528.5555879455515
 31
0.0
  0
LINE
  5
7F2F
  8
FUTO
 10
11348.247970456619
 20
5528.5555879455515
 30
0.0
 11
11353.247970456619
 21
5528.5555879455515
 31
0.0
  0
ARC
  5
7F30
  8
FUTO
 10
11365.247970456619
 20
5507.5555879455515
 30
0.0
 40
3.0
 50
90.0
 51
180.0
  0
ARC
  5
7F31
  8
FUTO
 10
11372.336593456621
 20
5515.5555879455515
 30
0.0
 40
5.0
 50
270.0
 51
0.000000000000007
  0
LINE
  5
7F32
  8
FUTO
 10
11358.247970456619
 20
5531.6820529455508
 30
0.0
 11
11360.80656445662
 21
5531.6820529455508
 31
0.0
  0
LINE
  5
7F33
  8
FUTO
 10
11365.247970456619
 20
5510.5555879455515
 30
0.0
 11
11358.247970456619
 21
5531.6820529455508
 31
0.0
  0
LINE
  5
7F34
  8
FUTO
 10
11377.336593456621
 20
5515.5555879455515
 30
0.0
 11
11377.336593456621
 21
5538.794845945552
 31
0.0
  0
LINE
  5
7F35
  8
FUTO
 10
11368.406173456609
 20
5510.5555879455515
 30
0.0
 11
11358.247970456619
 21
5538.794845945552
 31
0.0
  0
LINE
  5
7F38
  8
FUTO
 10
11281.87931845662
 20
5608.0508279455507
 30
0.0
 11
11285.55412245662
 21
5537.9296119455512
 31
0.0
  0
LINE
  5
7F3A
  8
KL
 10
11315.31901545662
 20
5539.6603249455502
 30
0.0
 11
11286.52653445662
 21
5568.4525609455513
 31
0.0
  0
LINE
  5
7F3D
  8
FUTO
 10
11278.901046456611
 20
5610.5555879455515
 30
0.0
 11
11268.747970456619
 21
5610.5555879455515
 31
0.0
  0
ARC
  5
7F3E
  8
FUTO
 10
11322.533615456619
 20
5511.4596409455517
 30
0.0
 40
9.9999839999999995
 50
225.0
 51
268.00067099997602
  0
LINE
  5
7F3F
  8
FUTO
 10
11348.247970456619
 20
5500.5555879455524
 30
0.0
 11
11322.184738456621
 21
5501.4657449455508
 31
0.0
  0
LINE
  5
7F40
  8
FUTO
 10
11362.247970456619
 20
5490.5555879455515
 30
0.0
 11
11362.247970456619
 21
5507.5555879455515
 31
0.0
  0
LINE
  5
7F41
  8
KL
 10
11315.462570456621
 20
5504.3885959455511
 30
0.0
 11
11288.469406456619
 21
5531.3817599455524
 31
0.0
  0
LINE
  5
7F42
  8
FUTO
 10
11502.64787245662
 20
5512.1634989455506
 30
0.0
 11
11422.247970456619
 21
5510.5555879455515
 31
0.0
  0
ARC
  5
7F43
  8
FUTO
 10
11517.247970456619
 20
5573.0516819455524
 30
0.0
 40
5.0
 50
0.000000000000007
 51
90.0
  0
ARC
  5
7F44
  8
FUTO
 10
11567.247970456619
 20
5573.0516819455524
 30
0.0
 40
5.0
 50
90.0
 51
180.0
  0
ARC
  5
7F45
  8
FUTO
 10
11582.247909456621
 20
5532.1595919455513
 30
0.0
 40
20.000091999999999
 50
180.0
 51
268.85427899999053
  0
LINE
  5
7F46
  8
FUTO
 10
11562.247970456619
 20
5573.0516819455524
 30
0.0
 11
11562.247970456619
 21
5532.1595919455513
 31
0.0
  0
LINE
  5
7F47
  8
FUTO
 10
11522.247970456619
 20
5573.0516819455524
 30
0.0
 11
11522.247970456619
 21
5532.1595919455513
 31
0.0
  0
ARC
  5
7F48
  8
FUTO
 10
11502.247970456619
 20
5532.1595919455513
 30
0.0
 40
20.0
 50
271.14572100000942
 51
0.000000000000007
  0
LINE
  5
7F49
  8
FUTO
 10
11442.247970456619
 20
5490.5555879455515
 30
0.0
 11
11442.247970456619
 21
5491.5555879455515
 31
0.0
  0
ARC
  5
7F4A
  8
FUTO
 10
11447.247970456619
 20
5491.5555879455515
 30
0.0
 40
5.0
 50
90.0
 51
180.0
  0
LINE
  5
7F4B
  8
FUTO
 10
11447.247970456619
 20
5496.5555879455515
 30
0.0
 11
11542.247970456619
 21
5496.5555879455515
 31
0.0
  0
ARC
  5
7F4C
  8
FUTO
 10
11719.247909456621
 20
5507.5555879455515
 30
0.0
 40
3.0
 50
0.000000000000007
 51
90.0
  0
LINE
  5
7F4D
  8
FUTO
 10
11662.247909456621
 20
5510.5555879455515
 30
0.0
 11
11669.927462380931
 21
5510.5555879455515
 31
0.0
  0
ARC
  5
7F57
  8
FUTO
 10
11637.247909456621
 20
5491.5555879455515
 30
0.0
 40
5.0
 50
0.000000000000007
 51
90.0
  0
LINE
  5
7F58
  8
FUTO
 10
11642.247909456621
 20
5490.5555879455515
 30
0.0
 11
11642.247909456621
 21
5491.5555879455515
 31
0.0
  0
LINE
  5
7F59
  8
FUTO
 10
11642.247909456621
 20
5490.5555879455515
 30
0.0
 11
11667.247970456619
 21
5490.5555879455515
 31
0.0
  0
LINE
  5
7F5A
  8
FUTO
 10
11781.85398845662
 20
5494.5555879455515
 30
0.0
 11
11791.46995545662
 21
5498.0555879455515
 31
0.0
  0
LINE
  5
7F5B
  8
FUTO
 10
11781.85398845662
 20
5494.5555879455515
 30
0.0
 11
11722.247909456621
 21
5494.5555879455515
 31
0.0
  0
LINE
  5
7F5C
  8
FUTO
 10
11722.247909456621
 20
5490.5555879455515
 30
0.0
 11
11722.247909456621
 21
5507.5555879455515
 31
0.0
  0
LINE
  5
7F5D
  8
FUTO
 10
11581.84800745662
 20
5512.1634989455506
 30
0.0
 11
11662.247909456621
 21
5510.5555879455515
 31
0.0
  0
LINE
  5
7F5E
  8
FUTO
 10
11637.247909456621
 20
5496.5555879455515
 30
0.0
 11
11542.247970456619
 21
5496.5555879455515
 31
0.0
  0
LINE
  5
7F5F
  8
FUTO
 10
11422.247970456619
 20
5510.5555879455515
 30
0.0
 11
11414.568478532299
 21
5510.5555879455515
 31
0.0
  0
LINE
  5
7F60
  8
FUTO
 10
11442.247970456619
 20
5490.5555879455515
 30
0.0
 11
11417.247970456619
 21
5490.5555879455515
 31
0.0
  0
ARC
  5
7F61
  8
FUTO
 10
11601.247909456621
 20
5647.8578339455507
 30
0.0
 40
30.0
 50
270.0
 51
0.000000000000007
  0
ARC
  5
7F62
  8
FUTO
 10
11483.247970456619
 20
5647.8578339455507
 30
0.0
 40
30.0
 50
180.0
 51
270.0
  0
LINE
  5
7F63
  8
CT
 10
11542.247970456619
 20
5976.9997822516734
 30
0.0
 11
11542.247970456619
 21
5406.9997822516734
 31
0.0
  0
LINE
  5
7F64
  8
FUTO
 10
11353.247970456619
 20
5528.5555879455515
 30
0.0
 11
11353.247970456619
 21
5690.5555879455515
 31
0.0
  0
LINE
  5
7F65
  8
FUTO
 10
11711.247909456621
 20
5894.0555879455515
 30
0.0
 11
11711.247909456621
 21
5510.5555879455515
 31
0.0
  0
LINE
  5
7F66
  8
FUTO
 10
11761.247909456621
 20
5893.7421119455512
 30
0.0
 11
11761.247909456621
 21
5494.5555879455515
 31
0.0
  0
LINE
  5
7F67
  8
FUTO
 10
11791.447860456619
 20
5883.3729709455511
 30
0.0
 11
11791.447860456619
 21
5498.0555879455515
 31
0.0
  0
LINE
  5
7F68
  8
FUTO
 10
11353.247970456619
 20
5528.5555879455515
 30
0.0
 11
11353.247970456619
 21
5690.5555879455515
 31
0.0
  0
LINE
  5
7F69
  8
FUTO
 10
11348.247970456619
 20
5500.5555879455524
 30
0.0
 11
11348.247970456619
 21
5690.5555879455515
 31
0.0
  0
LINE
  5
7F6A
  8
FUTO
 10
11266.747970456619
 20
5612.5555879455524
 30
0.0
 11
11266.747970456619
 21
5690.5555879455515
 31
0.0
  0
ARC
  5
7F6B
  8
FUTO
 10
11855.936996456619
 20
5868.0555879455515
 30
0.0
 40
15.0
 50
60.00018299999563
 51
90.0
  0
ARC
  5
7F6C
  8
FUTO
 10
11911.247909456621
 20
5847.6688699455508
 30
0.0
 40
4.9999580000000003
 50
0.000000000000007
 51
59.999718000001181
  0
LINE
  5
7F6D
  8
FUTO
 10
11913.747909456621
 20
5851.9989479455517
 30
0.0
 11
11863.436996456619
 21
5881.0460669455506
 31
0.0
  0
LINE
  5
7F6E
  8
FUTO
 10
10182.650268112789
 20
5836.7845919455522
 30
0.0
 11
10181.24267511279
 21
5836.0238499455518
 31
0.0
  0
ARC
  5
7F6F
  8
FUTO
 10
10183.125732112791
 20
5835.9047089455526
 30
0.0
 40
1.000079999999999
 50
28.39501399997588
 51
118.3855359999758
  0
ARC
  5
7F70
  8
FUTO
 10
10181.718139112791
 20
5835.1439669455522
 30
0.0
 40
1.0001299999999991
 50
118.3855359999758
 51
208.3860319999763
  0
LINE
  5
7F71
  8
FUTO
 10
10101.811889112791
 20
5835.3107149455518
 30
0.0
 11
10102.66052211279
 21
5835.3107149455518
 31
0.0
  0
LINE
  5
7F72
  8
FUTO
 10
10101.811889112791
 20
5835.3107149455518
 30
0.0
 11
10101.811889112791
 21
5836.1593479455514
 31
0.0
  0
LINE
  5
7F73
  8
FUTO
 10
10094.058349112791
 20
5843.0643769455528
 30
0.0
 11
10090.46618611279
 21
5839.4723359455511
 31
0.0
  0
LINE
  5
7F74
  8
FUTO
 10
10094.906860112789
 20
5843.0643769455528
 30
0.0
 11
10094.058349112791
 21
5843.0643769455528
 31
0.0
  0
LINE
  5
7F75
  8
FUTO
 10
10096.345703112789
 20
5840.7770239455522
 30
0.0
 11
10096.345703112789
 21
5841.6256569455518
 31
0.0
  0
LINE
  5
7F76
  8
FUTO
 10
10096.345703112789
 20
5840.7770239455522
 30
0.0
 11
10092.75354011279
 21
5837.1849829455514
 31
0.0
  0
LINE
  5
7F77
  8
FUTO
 10
10096.345703112789
 20
5840.7770239455522
 30
0.0
 11
10097.194213112791
 21
5840.7770239455522
 31
0.0
  0
LINE
  5
7F78
  8
FUTO
 10
10297.646118112791
 20
5626.1261449455524
 30
0.0
 11
10300.44445811279
 21
5627.6385959455511
 31
0.0
  0
ARC
  5
7F79
  8
FUTO
 10
10301.996826112791
 20
5615.9738009455523
 30
0.0
 40
1.0001299999999991
 50
298.38552900002043
 51
28.382720999977689
  0
ARC
  5
7F7A
  8
FUTO
 10
9303.2196041127918
 20
5702.0868379455515
 30
0.0
 40
1000.0
 50
355.7304690000102
 51
5.1562809999889501
  0
LINE
  5
7F7B
  8
FUTO
 10
10182.55957011279
 20
5831.4842989455519
 30
0.0
 11
10174.21313411279
 21
5826.9730689455519
 31
0.0
  0
ARC
  5
7F7C
  8
FUTO
 10
10176.590454112789
 20
5822.5743869455528
 30
0.0
 40
5.000062999999999
 50
118.3907549999861
 51
180.0
  0
LINE
  5
7F7D
  8
CT
 10
10154.145629112791
 20
5765.5555879455515
 30
0.0
 11
10190.57897911279
 21
5765.5555879455515
 31
0.0
  0
LINE
  5
7F7E
  8
FUTO
 10
10104.099243112791
 20
5833.0233619455521
 30
0.0
 11
10100.507202112791
 21
5829.4313209455522
 31
0.0
  0
LINE
  5
7F7F
  8
FUTO
 10
10104.099243112791
 20
5833.0233619455521
 30
0.0
 11
10104.099243112791
 21
5833.8719949455508
 31
0.0
  0
LINE
  5
7F80
  8
FUTO
 10
10172.576355112789
 20
5825.5555879455515
 30
0.0
 11
10103.86413511279
 21
5825.5555879455515
 31
0.0
  0
LINE
  5
7F81
  8
FUTO
 10
10171.590454112789
 20
5705.5555879455524
 30
0.0
 11
10154.53698711279
 21
5705.5555879455524
 31
0.0
  0
ARC
  5
7F82
  8
FUTO
 10
10190.41833411279
 20
5635.5555879455515
 30
0.0
 40
10.000057999999999
 50
187.1243290000296
 51
270.0
  0
LINE
  5
7F83
  8
FUTO
 10
10171.590454112789
 20
5705.5555879455524
 30
0.0
 11
10180.495483112791
 21
5634.3153539455516
 31
0.0
  0
LINE
  5
7F84
  8
FUTO
 10
10161.590454112789
 20
5705.5555879455524
 30
0.0
 11
10161.590454112789
 21
5825.5555879455515
 31
0.0
  0
LINE
  5
7F85
  8
FUTO
 10
10171.590454112789
 20
5705.5555879455524
 30
0.0
 11
10171.590454112789
 21
5822.5743869455528
 31
0.0
  0
LINE
  5
7F86
  8
FUTO
 10
10293.86248711279
 20
5625.5555879455524
 30
0.0
 11
10190.41833411279
 21
5625.5555879455524
 31
0.0
  0
LINE
  5
7F87
  8
FUTO
 10
10185.72656211279
 20
5833.1959689455534
 30
0.0
 11
10261.90979011279
 21
5828.2814179455527
 31
0.0
  0
ARC
  5
7F88
  8
FUTO
 10
10259.334838112791
 20
5788.3644259455523
 30
0.0
 40
40.000011000000001
 50
5.1563729999685757
 51
86.309097000000321
  0
LINE
  5
7F89
  8
FUTO
 10
10184.005493112791
 20
5836.3802949455512
 30
0.0
 11
10302.87658611279
 21
5616.449142945552
 31
0.0
  0
LINE
  5
7F8A
  8
FUTO
 10
10090.46618611279
 20
5839.4723359455511
 30
0.0
 11
10100.507202112791
 21
5829.4313209455522
 31
0.0
  0
LINE
  5
7F8B
  8
CT
 10
10100.031494112791
 20
5838.9965059455508
 30
0.0
 11
10094.78332511279
 21
5833.7484589455526
 31
0.0
  0
LINE
  5
7F8C
  8
FUTO
 10
10094.906860112789
 20
5843.0643769455528
 30
0.0
 11
10104.099243112791
 21
5833.8719949455508
 31
0.0
  0
LINE
  5
7F8D
  8
FUTO
 10
10101.811889112791
 20
5835.3107149455518
 30
0.0
 11
10098.219848112791
 21
5831.7186739455519
 31
0.0
  0
ARC
  5
7F8E
  8
FUTO
 10
9951.5904541127948
 20
5954.3055879455515
 30
0.0
 40
6.25
 50
0.000000000000007
 51
180.0
  0
LINE
  5
7F8F
  8
FUTO
 10
9968.1872101127938
 20
5896.9744119455518
 30
0.0
 11
9968.0271451127919
 21
5893.3906099455517
 31
0.0
  0
LINE
  5
7F90
  8
FUTO
 10
9957.8404541127948
 20
5912.3859719455522
 30
0.0
 11
9963.1450191127933
 21
5911.8176119455511
 31
0.0
  0
ARC
  5
7F91
  8
FUTO
 10
9962.8254241127925
 20
5908.8347019455523
 30
0.0
 40
3.0000059999999991
 50
5.1944030000043186
 51
83.884536999966215
  0
LINE
  5
7F92
  8
FUTO
 10
9945.3404541127948
 20
5912.3859719455522
 30
0.0
 11
9940.0358881127922
 21
5911.8176119455511
 31
0.0
  0
ARC
  5
7F93
  8
FUTO
 10
9964.5904541127948
 20
5897.5555879455515
 30
0.0
 40
3.0
 50
46.130962000013298
 51
90.0
  0
ARC
  5
7F94
  8
FUTO
 10
9951.5904541127948
 20
5690.5555879455515
 30
0.0
 40
209.99987799999991
 50
86.233009000037342
 51
86.266975000016416
  0
ARC
  5
7F95
  8
FUTO
 10
9965.0676571127933
 20
5897.1163179455534
 30
0.0
 40
3.0001099999999989
 50
86.265807999991694
 51
175.05505399999171
  0
ARC
  5
7F96
  8
FUTO
 10
9964.5904541127948
 20
5897.5555879455515
 30
0.0
 40
3.0
 50
47.440357000007118
 51
90.0
  0
LINE
  5
7F97
  8
FUTO
 10
9962.0788871127952
 20
5897.3748629455513
 30
0.0
 11
9961.7698051127918
 21
5893.800766945551
 31
0.0
  0
LINE
  5
7F98
  8
FUTO
 10
9941.1021421127953
 20
5897.3748629455513
 30
0.0
 11
9941.4112241127932
 21
5893.800766945551
 31
0.0
  0
ARC
  5
7F99
  8
FUTO
 10
9942.3404541127948
 20
5905.9882059455522
 30
0.0
 40
3.0
 50
270.0
 51
0.000000000000007
  0
ARC
  5
7F9A
  8
FUTO
 10
9960.8404541127911
 20
5906.2764139455521
 30
0.0
 40
3.0
 50
180.0
 51
270.0
  0
LINE
  5
7F9B
  8
FUTO
 10
9965.8131101127947
 20
5909.1063089455511
 30
0.0
 11
9966.5904541127929
 21
5900.5555879455515
 31
0.0
  0
ARC
  5
7F9C
  8
FUTO
 10
9965.1902311127924
 20
5897.1083229455526
 30
0.0
 40
3.000081999999999
 50
357.44171099996208
 51
86.234252999979262
  0
ARC
  5
7F9D
  8
FUTO
 10
9951.5904541127948
 20
5690.5555879455515
 30
0.0
 40
209.99998500000001
 50
93.732994000026721
 51
93.766990999962644
  0
ARC
  5
7F9E
  8
FUTO
 10
9937.9907981127926
 20
5897.1082619455519
 30
0.0
 40
2.9999649999999991
 50
93.767860000028065
 51
182.55722000000901
  0
LINE
  5
7F9F
  8
FUTO
 10
9934.9938201127934
 20
5896.9744119455518
 30
0.0
 11
9935.1538841127931
 21
5893.3906099455517
 31
0.0
  0
LINE
  5
7FA0
  8
FUTO
 10
9937.3677971127927
 20
5909.1063089455511
 30
0.0
 11
9936.5904541127948
 21
5900.5555879455515
 31
0.0
  0
ARC
  5
7FA1
  8
FUTO
 10
9938.5904541127929
 20
5897.5555879455515
 30
0.0
 40
3.0
 50
90.0
 51
133.88737499997529
  0
LINE
  5
7FA2
  8
FUTO
 10
9966.5904541127929
 20
5900.5555879455515
 30
0.0
 11
9936.5904541127948
 21
5900.5555879455515
 31
0.0
  0
ARC
  5
7FA3
  8
FUTO
 10
9938.5904541127929
 20
5897.5555879455515
 30
0.0
 40
3.0
 50
90.0
 51
133.8315120000008
  0
ARC
  5
7FA4
  8
FUTO
 10
9940.3554841127934
 20
5908.8347019455523
 30
0.0
 40
2.9999820000000001
 50
96.115463000033785
 51
174.80560300000801
  0
ARC
  5
7FA5
  8
FUTO
 10
9938.1132501127922
 20
5897.1163179455534
 30
0.0
 40
3.0000490000000002
 50
4.9438900000065571
 51
93.731941000007794
  0
LINE
  5
7FA6
  8
FUTO
 10
9809.1226801127923
 20
5843.0643769455528
 30
0.0
 11
9812.7147211127922
 21
5839.4723359455511
 31
0.0
  0
LINE
  5
7FA7
  8
FUTO
 10
9809.1226801127923
 20
5843.0643769455528
 30
0.0
 11
9808.2740471127945
 21
5843.0643769455528
 31
0.0
  0
LINE
  5
7FA8
  8
FUTO
 10
9801.3690181127931
 20
5835.3109589455516
 30
0.0
 11
9800.5203851127935
 21
5835.3109589455516
 31
0.0
  0
LINE
  5
7FA9
  8
FUTO
 10
9801.3690181127931
 20
5835.3109589455516
 30
0.0
 11
9801.3690181127931
 21
5836.1593479455514
 31
0.0
  0
LINE
  5
7FAA
  8
FUTO
 10
9806.8353271127926
 20
5840.7770239455522
 30
0.0
 11
9806.8353271127926
 21
5841.6256569455518
 31
0.0
  0
LINE
  5
7FAB
  8
FUTO
 10
9806.8353271127926
 20
5840.7770239455522
 30
0.0
 11
9805.9866941127948
 21
5840.7770239455522
 31
0.0
  0
LINE
  5
7FAC
  8
FUTO
 10
9806.8353271127926
 20
5840.7770239455522
 30
0.0
 11
9810.4273681127925
 21
5837.1849829455514
 31
0.0
  0
LINE
  5
7FAD
  8
FUTO
 10
9945.3404541127948
 20
5954.3055879455515
 30
0.0
 11
9945.3404541127948
 21
5905.9882059455522
 31
0.0
  0
LINE
  5
7FAE
  8
FUTO
 10
9957.8404541127948
 20
5954.3055879455515
 30
0.0
 11
9957.8404541127948
 21
5906.2764139455521
 31
0.0
  0
LINE
  5
7FAF
  8
FUTO
 10
9799.0816651127934
 20
5833.0233619455521
 30
0.0
 11
9802.6737061127933
 21
5829.4313209455522
 31
0.0
  0
LINE
  5
7FB0
  8
FUTO
 10
9799.0816651127934
 20
5833.8719949455508
 30
0.0
 11
9799.0816651127934
 21
5833.0233619455521
 31
0.0
  0
LINE
  5
7FB1
  8
FUTO
 10
9802.6737061127933
 20
5829.4313209455522
 30
0.0
 11
9812.7147211127922
 21
5839.4723359455511
 31
0.0
  0
LINE
  5
7FB2
  8
CT
 10
9803.1495361127927
 20
5838.9965059455508
 30
0.0
 11
9808.3975831127918
 21
5833.7484589455526
 31
0.0
  0
LINE
  5
7FB3
  8
FUTO
 10
9799.0816651127934
 20
5833.8719949455508
 30
0.0
 11
9808.2740471127945
 21
5843.0643769455528
 31
0.0
  0
LINE
  5
7FB4
  8
FUTO
 10
9801.3690181127931
 20
5835.3109589455516
 30
0.0
 11
9804.961059112793
 21
5831.7186739455519
 31
0.0
  0
LINE
  5
7FB5
  8
CT
 10
9728.0904541127948
 20
5460.5555879455524
 30
0.0
 11
10175.090454112789
 21
5460.5555879455524
 31
0.0
  0
ARC
  5
7FB6
  8
FUTO
 10
11911.247909456621
 20
5533.4423069455524
 30
0.0
 40
5.0
 50
300.00027499997202
 51
0.000000000000007
  0
ARC
  5
7FB7
  8
FUTO
 10
10300.589233112791
 20
5615.2130589455519
 30
0.0
 40
1.000079999999999
 50
208.39501999997901
 51
298.38552900002043
  0
ARC
  5
7FB8
  8
FUTO
 10
11855.936996456619
 20
5513.0555879455515
 30
0.0
 40
15.000085
 50
270.0
 51
299.99981700000433
  0
LINE
  5
7FB9
  8
FUTO
 10
11913.747909456621
 20
5529.1122289455507
 30
0.0
 11
11863.436996456619
 21
5500.0651099455517
 31
0.0
  0
ARC
  5
7FBA
  8
FUTO
 10
10135.590454112789
 20
5564.8822489455524
 30
0.0
 40
5.0
 50
0.000000000000007
 51
55.056338999992313
  0
LINE
  5
7FBB
  8
FUTO
 10
10138.45434511279
 20
5568.9808809455517
 30
0.0
 11
10122.51647911279
 21
5580.117355945551
 31
0.0
  0
ARC
  5
7FBC
  8
FUTO
 10
10137.590454112789
 20
5507.5555879455515
 30
0.0
 40
3.0
 50
0.000000000000007
 51
90.0
  0
LINE
  5
7FBD
  8
FUTO
 10
10104.099243112791
 20
5548.0878149455511
 30
0.0
 11
10100.507202112791
 21
5551.6798559455501
 31
0.0
  0
LINE
  5
7FBE
  8
FUTO
 10
10104.099243112791
 20
5547.2391819455524
 30
0.0
 11
10104.099243112791
 21
5548.0878149455511
 31
0.0
  0
LINE
  5
7FBF
  8
FUTO
 10
10101.811889112791
 20
5545.8002169455522
 30
0.0
 11
10102.66052211279
 21
5545.8002169455522
 31
0.0
  0
LINE
  5
7FC0
  8
FUTO
 10
10101.811889112791
 20
5545.8002169455522
 30
0.0
 11
10101.811889112791
 21
5544.9518289455518
 31
0.0
  0
LINE
  5
7FC1
  8
FUTO
 10
10094.05822711279
 20
5538.046798945551
 30
0.0
 11
10090.46618611279
 21
5541.6388399455518
 31
0.0
  0
LINE
  5
7FC2
  8
FUTO
 10
10094.05822711279
 20
5538.046798945551
 30
0.0
 11
10094.906860112789
 21
5538.046798945551
 31
0.0
  0
LINE
  5
7FC3
  8
FUTO
 10
10096.34558111279
 20
5540.334152945552
 30
0.0
 11
10096.34558111279
 21
5539.4855199455533
 31
0.0
  0
LINE
  5
7FC4
  8
FUTO
 10
10096.34558111279
 20
5540.334152945552
 30
0.0
 11
10092.75354011279
 21
5543.9261939455509
 31
0.0
  0
LINE
  5
7FC5
  8
FUTO
 10
10096.34558111279
 20
5540.334152945552
 30
0.0
 11
10097.194213112791
 21
5540.334152945552
 31
0.0
  0
LINE
  5
7FC6
  8
FUTO
 10
10100.507202112791
 20
5551.6798559455501
 30
0.0
 11
10090.46618611279
 21
5541.6388399455518
 31
0.0
  0
LINE
  5
7FC7
  8
CT
 10
10100.03137211279
 20
5542.1146699455512
 30
0.0
 11
10094.78332511279
 21
5547.3627169455531
 31
0.0
  0
LINE
  5
7FC8
  8
FUTO
 10
10104.099243112791
 20
5547.2391819455524
 30
0.0
 11
10094.906860112789
 21
5538.046798945551
 31
0.0
  0
LINE
  5
7FC9
  8
FUTO
 10
10101.811889112791
 20
5545.8002169455522
 30
0.0
 11
10098.219848112791
 21
5549.3925019455528
 31
0.0
  0
ARC
  5
7FCA
  8
FUTO
 10
10064.090454112789
 20
5507.5555879455515
 30
0.0
 40
3.0
 50
90.0
 51
180.0
  0
LINE
  5
7FCB
  8
FUTO
 10
10064.090454112789
 20
5510.5555879455515
 30
0.0
 11
10137.590454112789
 21
5510.5555879455515
 31
0.0
  0
LINE
  5
7FCC
  8
FUTO
 10
10140.590454112789
 20
5490.5555879455515
 30
0.0
 11
10061.090454112789
 21
5490.5555879455515
 31
0.0
  0
LINE
  5
7FCD
  8
FUTO
 10
10061.090454112789
 20
5507.5555879455515
 30
0.0
 11
10061.090454112789
 21
5490.5555879455515
 31
0.0
  0
LINE
  5
7FCE
  8
FUTO
 10
10055.69323711279
 20
5515.6988989455513
 30
0.0
 11
10061.090454112789
 21
5495.5555879455524
 31
0.0
  0
LINE
  5
7FCF
  8
CT
 10
10110.590454112789
 20
5520.5555879455515
 30
0.0
 11
10110.590454112789
 21
5480.5555879455524
 31
0.0
  0
LINE
  5
7FD0
  8
FUTO
 10
10140.590454112789
 20
5564.8822489455524
 30
0.0
 11
10140.590454112789
 21
5490.5555879455515
 31
0.0
  0
LINE
  5
7FD1
  8
FUTO
 10
9764.7266841127948
 20
5568.9808809455517
 30
0.0
 11
9780.6645501127932
 21
5580.117355945551
 31
0.0
  0
ARC
  5
7FD2
  8
FUTO
 10
9839.0904541127948
 20
5507.5555879455515
 30
0.0
 40
3.0
 50
0.000000000000007
 51
90.0
  0
LINE
  5
7FD3
  8
FUTO
 10
9799.0816651127934
 20
5548.0878149455511
 30
0.0
 11
9802.6737061127933
 21
5551.6798559455501
 31
0.0
  0
LINE
  5
7FD4
  8
FUTO
 10
9799.0816651127934
 20
5548.0878149455511
 30
0.0
 11
9799.0816651127934
 21
5547.2391819455524
 31
0.0
  0
LINE
  5
7FD5
  8
FUTO
 10
9809.1226801127923
 20
5538.046798945551
 30
0.0
 11
9812.7147211127922
 21
5541.6388399455518
 31
0.0
  0
LINE
  5
7FD6
  8
FUTO
 10
9808.2740471127945
 20
5538.046798945551
 30
0.0
 11
9809.1226801127923
 21
5538.046798945551
 31
0.0
  0
LINE
  5
7FD7
  8
FUTO
 10
9806.8350831127918
 20
5540.334152945552
 30
0.0
 11
9806.8350831127918
 21
5539.4855199455533
 31
0.0
  0
LINE
  5
7FD8
  8
FUTO
 10
9806.8350831127918
 20
5540.334152945552
 30
0.0
 11
9805.9866941127948
 21
5540.334152945552
 31
0.0
  0
LINE
  5
7FD9
  8
FUTO
 10
9801.3690181127931
 20
5545.8004609455511
 30
0.0
 11
9800.5203851127935
 21
5545.8004609455511
 31
0.0
  0
LINE
  5
7FDA
  8
FUTO
 10
9801.3690181127931
 20
5545.8004609455511
 30
0.0
 11
9801.3690181127931
 21
5544.9518289455518
 31
0.0
  0
LINE
  5
7FDB
  8
FUTO
 10
9806.8350831127918
 20
5540.334152945552
 30
0.0
 11
9810.4273681127925
 21
5543.9261939455509
 31
0.0
  0
LINE
  5
7FDC
  8
FUTO
 10
9812.7147211127922
 20
5541.6388399455518
 30
0.0
 11
9802.6737061127933
 21
5551.6798559455501
 31
0.0
  0
LINE
  5
7FDD
  8
CT
 10
9803.1495361127927
 20
5542.1146699455512
 30
0.0
 11
9808.3975831127918
 21
5547.3627169455531
 31
0.0
  0
LINE
  5
7FDE
  8
FUTO
 10
9808.2740471127945
 20
5538.046798945551
 30
0.0
 11
9799.0816651127934
 21
5547.2391819455524
 31
0.0
  0
LINE
  5
7FDF
  8
FUTO
 10
9801.3690181127931
 20
5545.8004609455511
 30
0.0
 11
9804.961059112793
 21
5549.3925019455528
 31
0.0
  0
LINE
  5
7FE0
  8
FUTO
 10
9839.0904541127948
 20
5510.5555879455515
 30
0.0
 11
9765.5904541127948
 21
5510.5555879455515
 31
0.0
  0
LINE
  5
7FE1
  8
FUTO
 10
9842.0904541127911
 20
5507.5555879455515
 30
0.0
 11
9842.0904541127911
 21
5490.5555879455515
 31
0.0
  0
LINE
  5
7FE2
  8
FUTO
 10
9847.487884112792
 20
5515.6987769455509
 30
0.0
 11
9842.0904541127911
 21
5495.5555879455524
 31
0.0
  0
LINE
  5
7FE3
  8
CT
 10
9792.5904541127948
 20
5520.5555879455515
 30
0.0
 11
9792.5904541127948
 21
5480.5555879455524
 31
0.0
  0
LINE
  5
7FE4
  8
FUTO
 10
9762.5904541127948
 20
5564.8822489455524
 30
0.0
 11
9762.5904541127948
 21
5490.5555879455515
 31
0.0
  0
LINE
  5
7FE5
  8
FUTO
 10
9762.5904541127948
 20
5490.5555879455515
 30
0.0
 11
9842.0904541127911
 21
5490.5555879455515
 31
0.0
  0
ARC
  5
7FE6
  8
FUTO
 10
9767.5904541127929
 20
5564.8822489455524
 30
0.0
 40
5.0000669999999987
 50
124.9436649999749
 51
180.0
  0
ARC
  5
7FE7
  8
FUTO
 10
9765.5904541127948
 20
5507.5555879455515
 30
0.0
 40
3.0
 50
90.0
 51
180.0
  0
LINE
  5
7FE8
  8
FUTO
 10
10006.32849111279
 20
5494.5555879455515
 30
0.0
 11
9896.8524171127938
 21
5494.5555879455515
 31
0.0
  0
ARC
  5
7FEA
  8
FUTO
 10
9951.5904541127948
 20
5690.5555879455515
 30
0.0
 40
203.5
 50
285.60375999997461
 51
254.39630099999039
  0
LINE
  5
7FEB
  8
FUTO
 10
11857.147933456619
 20
5498.0555879455515
 30
0.0
 11
11857.147933456619
 21
5883.0065159455517
 31
0.0
  0
LINE
  5
7FEC
  8
CT
 10
10241.590454112789
 20
5642.9498749455533
 30
0.0
 11
10241.590454112789
 21
5603.9559789455534
 31
0.0
  0
LINE
  5
7FED
  8
FUTO
 10
10180.83850111279
 20
5834.6683809455517
 30
0.0
 11
10299.70959411279
 21
5614.7374729455514
 31
0.0
  0
LINE
  5
7FEE
  8
FUTO
 10
10301.06469711279
 20
5614.3331759455523
 30
0.0
 11
10302.47229011279
 21
5615.0939179455527
 31
0.0
  0
LINE
  5
7FEF
  8
FUTO
 10
11916.247970456619
 20
5848.2055519455507
 30
0.0
 11
11916.247970456619
 21
5533.4152379455509
 31
0.0
  0
LINE
  5
7FF0
  8
CT
 10
11096.747970456619
 20
5690.5555879455515
 30
0.0
 11
11936.247970456619
 21
5690.5555879455515
 31
0.0
  0
LINE
  5
7FF1
  8
FUTO
 10
11794.99668845662
 20
5883.0555879455524
 30
0.0
 11
11855.936996456619
 21
5883.0555879455524
 31
0.0
  0
LINE
  5
7FF2
  8
FUTO
 10
11791.447860456619
 20
5498.0555879455515
 30
0.0
 11
11855.936996456619
 21
5498.0555879455515
 31
0.0
  0
LINE
  5
7FF3
  8
FUTO
 10
9960.5904541127929
 20
5724.5555879455524
 30
0.0
 11
9942.5904541127948
 21
5724.5555879455524
 31
0.0
  0
LINE
  5
7FF4
  8
FUTO
 10
9960.5904541127929
 20
5713.5555879455524
 30
0.0
 11
9942.5904541127948
 21
5713.5555879455533
 31
0.0
  0
LINE
  5
7FF5
  8
FUTO
 10
9960.5904541127929
 20
5724.5555879455524
 30
0.0
 11
9960.5904541127929
 21
5713.5555879455524
 31
0.0
  0
LINE
  5
7FF6
  8
FUTO
 10
9942.5904541127948
 20
5724.5555879455524
 30
0.0
 11
9942.5904541127948
 21
5713.5555879455524
 31
0.0
  0
LINE
  5
7FF7
  8
CT
 10
9816.5904541127929
 20
9703.4655091466557
 30
0.0
 11
9766.5904541127948
 21
9703.4655091466557
 31
0.0
  0
LINE
  5
7FF8
  8
CT
 10
9791.5904541127911
 20
9678.4655091466539
 30
0.0
 11
9791.5904541127911
 21
9728.4655091466575
 31
0.0
  0
LINE
  5
7FF9
  8
CT
 10
10111.590454112789
 20
9678.4655091466539
 30
0.0
 11
10111.590454112789
 21
9728.4655091466575
 31
0.0
  0
LINE
  5
7FFA
  8
CT
 10
10086.590454112789
 20
9703.4655091466557
 30
0.0
 11
10136.590454112789
 21
9703.4655091466557
 31
0.0
  0
LINE
  5
7FFB
  8
CT
 10
10086.590454112789
 20
10163.46550914665
 30
0.0
 11
10136.590454112789
 21
10163.46550914665
 31
0.0
  0
LINE
  5
7FFC
  8
CT
 10
10111.590454112789
 20
10188.46550914665
 30
0.0
 11
10111.590454112789
 21
10138.46550914665
 31
0.0
  0
LINE
  5
7FFD
  8
CT
 10
9791.5904541127911
 20
10188.46550914665
 30
0.0
 11
9791.5904541127911
 21
10138.46550914665
 31
0.0
  0
LINE
  5
7FFE
  8
CT
 10
9816.5904541127929
 20
10163.46550914665
 30
0.0
 11
9766.5904541127948
 21
10163.46550914665
 31
0.0
  0
LINE
  5
8000
  8
SL
 10
10084.090454112789
 20
9507.9655091466539
 30
0.0
 11
10084.090454112789
 21
9605.9655091466539
 31
0.0
  0
LINE
  5
8001
  8
FUTO
 10
10155.090454112789
 20
9368.9655091466539
 30
0.0
 11
10155.090454112789
 21
9657.9655091466593
 31
0.0
  0
LINE
  5
8002
  8
SL
 10
9819.0904541127948
 20
9507.9655091466539
 30
0.0
 11
9819.0904541127948
 21
9605.9655091466539
 31
0.0
  0
LINE
  5
8003
  8
SL
 10
10141.590454112789
 20
10255.504066774811
 30
0.0
 11
10141.590454112789
 21
9692.9655091466557
 31
0.0
  0
LINE
  5
8004
  8
SL
 10
10076.590454112789
 20
10307.46550914665
 30
0.0
 11
10076.590454112789
 21
9692.9655091466557
 31
0.0
  0
LINE
  5
8005
  8
SL
 10
9826.5904541127948
 20
10307.46550914665
 30
0.0
 11
9826.5904541127948
 21
9692.9655091466557
 31
0.0
  0
LINE
  5
8006
  8
SL
 10
9761.5904541127929
 20
10248.36547214665
 30
0.0
 11
9761.5904541127929
 21
9692.9655091466557
 31
0.0
  0
LINE
  5
8007
  8
FUTO
 10
10122.590454112789
 20
10604.96550914665
 30
0.0
 11
10122.590454112789
 21
11892.96550914665
 31
0.0
  0
LINE
  5
8008
  8
FUTO
 10
10072.590454112789
 20
10654.96550914665
 30
0.0
 11
10072.590454112789
 21
11842.96550914665
 31
0.0
  0
LINE
  5
8018
  8
FUTO
 10
10122.590454112789
 20
11892.96550914665
 30
0.0
 11
7721.590454112792
 21
11892.96550914665
 31
0.0
  0
LINE
  5
8019
  8
FUTO
 10
10122.590454112789
 20
10604.96550914665
 30
0.0
 11
7721.590454112792
 21
10604.96550914665
 31
0.0
  0
LINE
  5
801A
  8
FUTO
 10
9651.5904541127948
 20
10604.96550914665
 30
0.0
 11
9651.5904541127948
 21
10579.96550914665
 31
0.0
  0
LINE
  5
801C
  8
FUTO
 10
8701.5904541127948
 20
10654.96550914665
 30
0.0
 11
7656.590454112792
 21
10654.96550914665
 31
0.0
  0
LINE
  5
801D
  8
FUTO
 10
8701.5904541127948
 20
11842.96550914665
 30
0.0
 11
7656.5904541127939
 21
11842.96550914665
 31
0.0
  0
LINE
  5
8021
  8
FUTO
 10
7721.590454112792
 20
11907.96550914665
 30
0.0
 11
7656.590454112792
 21
11907.96550914665
 31
0.0
  0
LINE
  5
8022
  8
FUTO
 10
7751.590454112792
 20
10604.96550914665
 30
0.0
 11
7751.590454112792
 21
10579.96550914665
 31
0.0
  0
LINE
  5
8025
  8
FUTO
 10
9087.2423270035124
 20
9692.9655091466575
 30
0.0
 11
9087.2423270035124
 21
10579.96550914665
 31
0.0
  0
LINE
  5
8027
  8
FUTO
 10
8315.9385812220717
 20
9692.9655091466575
 30
0.0
 11
8315.9385812220717
 21
10579.96550914665
 31
0.0
  0
DIMENSION
  5
8095
  8
SP
  2
*D12
 10
10807.21021442639
 20
11973.96550914665
 30
0.0
 11
10719.71021442639
 21
11611.46550914665
 31
0.0
 70
     0
 13
10464.590454112789
 23
11248.96550914665
 33
0.0
 14
9566.5904541127929
 24
11973.96550914665
 34
0.0
 50
90.0
1001
ACAD
1000
DSTYLE
1002
{
1070
    40
1040
35.0
1070
    41
1040
2.5
1070
   147
1040
1.0
1002
}
  0
DIMENSION
  5
80A2
  8
SP
  2
*D13
 10
10807.21021442639
 20
9368.9655091466539
 30
0.0
 11
10719.71021442639
 21
10308.96550914665
 31
0.0
 70
     0
 13
10464.590454112789
 23
11248.96550914665
 33
0.0
 14
10155.090454112789
 24
9368.9655091466539
 34
0.0
 50
90.0
1001
ACAD
1000
DSTYLE
1002
{
1070
    40
1040
35.0
1070
    41
1040
2.5
1070
   147
1040
1.0
1002
}
  0
LINE
  5
80D6
  8
KL
 10
9641.5904541127948
 20
6509.7335455733792
 30
0.0
 11
9641.5904541127948
 21
5690.9794261404841
 31
0.0
  0
LINE
  5
80D7
  8
KL
 10
9632.5904541127948
 20
6522.4563313373455
 30
0.0
 11
9632.5904541127948
 21
5700.0700309679669
 31
0.0
  0
LINE
  5
80D8
  8
FUTO
 10
9312.9985778665578
 20
7189.5555879455524
 30
0.0
 11
10117.21799862355
 21
7189.5555879455524
 31
0.0
  0
LINE
  5
80D9
  8
FUTO
 10
9336.3900628568717
 20
7171.5555879455524
 30
0.0
 11
10117.21799862355
 21
7171.5555879455524
 31
0.0
  0
LINE
  5
80DA
  8
KL
 10
8323.3144941042156
 20
7144.3990106795891
 30
0.0
 11
8501.9361057737933
 21
7165.7521697818484
 31
0.0
  0
LINE
  5
80DB
  8
KL
 10
8325.4510752728547
 20
7126.5262654816679
 30
0.0
 11
8504.0726869424343
 21
7147.8794245839263
 31
0.0
  0
LINE
  5
81A6
  8
FUTO
 10
7698.1807798744212
 20
7291.1686557230241
 30
0.0
 11
7700.3173610430613
 21
7309.0414009209444
 31
0.0
  0
LINE
  5
81A7
  8
CT
 10
7699.2490704587417
 20
7300.1050283219838
 30
0.0
 11
8503.0043963581138
 21
7204.295378708216
 31
0.0
  0
LINE
  5
81A9
  8
FUTO
 10
10117.21799862355
 20
7171.5555879455524
 30
0.0
 11
10117.21799862355
 21
7189.5555879455524
 31
0.0
  0
LINE
  5
81E1
  8
FUTO
 10
13525.94797045662
 20
7082.4758541567016
 30
0.0
 11
13525.94797045662
 21
5430.5555879455515
 31
0.0
  0
LINE
  5
81E2
  8
FUTO
 10
13515.94797045662
 20
7189.5555879455524
 30
0.0
 11
13515.94797045662
 21
7171.5555879455524
 31
0.0
  0
LINE
  5
81E3
  8
FUTO
 10
12189.547970456621
 20
7130.5555879455515
 30
0.0
 11
12189.547970456621
 21
5430.5555879455524
 31
0.0
  0
LINE
  5
81E4
  8
FUTO
 10
12198.74797045663
 20
5417.5555879455515
 30
0.0
 11
13516.747970456619
 21
5417.5555879455515
 31
0.0
  0
LINE
  5
81FB
  8
FUTO
 10
12264.547970456621
 20
5482.5555879455524
 30
0.0
 11
13450.94797045662
 21
5482.5555879455524
 31
0.0
  0
LINE
  5
8200
  8
FUTO
 10
7656.590454112792
 20
10589.96550914665
 30
0.0
 11
7656.590454112792
 21
11907.96550914665
 31
0.0
  0
LINE
  5
8201
  8
FUTO
 10
7662.590454112792
 20
10589.96550914665
 30
0.0
 11
7662.590454112792
 21
11907.96550914665
 31
0.0
  0
LINE
  5
8202
  8
FUTO
 10
7721.590454112792
 20
10589.96550914665
 30
0.0
 11
7721.590454112792
 21
11907.96550914665
 31
0.0
  0
LINE
  5
8213
  8
FUTO
 10
10251.590454112789
 20
10654.96550914665
 30
0.0
 11
10122.590454112789
 21
10654.96550914665
 31
0.0
  0
DIMENSION
  5
8215
  8
SP
  2
*D14
 10
10251.590454112789
 20
12284.896398125171
 30
0.0
 11
9476.5904541127948
 21
12372.396398125171
 31
0.0
 70
     0
 13
8701.5904541127948
 23
12018.743420963519
 33
0.0
 14
10251.590454112789
 24
10654.96550914665
 34
0.0
 50
180.0
1001
ACAD
1000
DSTYLE
1002
{
1070
    40
1040
35.0
1070
    41
1040
2.5
1070
   147
1040
1.0
1002
}
  0
DIMENSION
  5
8222
  8
SP
  2
*D15
 10
7656.590454112792
 20
12284.896398125171
 30
0.0
 11
8179.0904541127939
 21
12372.396398125171
 31
0.0
 70
     0
 13
8701.5904541127948
 23
12018.743420963519
 33
0.0
 14
7656.590454112792
 24
11892.96550914665
 34
0.0
 50
180.0
1001
ACAD
1000
DSTYLE
1002
{
1070
    40
1040
35.0
1070
    41
1040
2.5
1070
   147
1040
1.0
1002
}
  0
LINE
  5
82B5
  8
FUTO
 10
7721.590454112792
 20
10589.96550914665
 30
0.0
 11
7656.590454112792
 21
10589.96550914665
 31
0.0
  0
LINE
  5
83BA
  8
FUTO
 10
8076.5904541127939
 20
5430.5555879455515
 30
0.0
 11
8315.9385812220698
 21
7072.5555879455533
 31
0.0
  0
LINE
  5
83BB
  8
FUTO
 10
9326.5904541127948
 20
5430.5555879455515
 30
0.0
 11
9227.6892634719643
 21
6109.047444111613
 31
0.0
  0
LINE
  5
83BC
  8
FUTO
 10
9632.5904541127948
 20
5700.0700309679669
 30
0.0
 11
9632.5904541127948
 21
5430.5555879455515
 31
0.0
  0
LINE
  5
83BD
  8
FUTO
 10
9641.5904541127948
 20
5690.9794261404859
 30
0.0
 11
9641.5904541127948
 21
5430.5555879455515
 31
0.0
  0
LINE
  5
83BE
  8
SL
 10
8960.8476185966319
 20
7359.4709943917269
 30
0.0
 11
10060.643070919479
 21
5765.8136557364032
 31
0.0
  0
LINE
  5
83BF
  8
SL
 10
8480.3279890420563
 20
6956.3504997989612
 30
0.0
 11
9858.5197346782788
 21
5596.2470984870652
 31
0.0
  0
LINE
  5
83C0
  8
FUTO
 10
9011.8174021577688
 20
7400.0077255671749
 30
0.0
 11
10131.19552929672
 21
5817.6068255159662
 31
0.0
  0
LINE
  5
83C1
  8
FUTO
 10
9795.2498002263801
 20
5535.7731601884943
 30
0.0
 11
8431.547506490806
 21
6913.2041218197237
 31
0.0
  0
LINE
  5
83C2
  8
FUTO
 10
12189.547970456621
 20
8319.5555879455515
 30
0.0
 11
13525.94797045662
 21
8319.5555879455515
 31
0.0
  0
LINE
  5
83C3
  8
KL
 10
9227.6892634719643
 20
6109.047444111613
 30
0.0
 11
9087.2423270035124
 21
7072.5555879455533
 31
0.0
  0
LINE
  5
83D6
  8
CT
 10
8604.0756731834263
 20
8319.5555879455515
 30
0.0
 11
8701.5904541127948
 21
8319.5555879455515
 31
0.0
  0
DIMENSION
  5
83D7
  8
SP
  2
*D16
 10
7293.9714023775168
 20
7180.5555879455515
 30
0.0
 11
7206.471402377515
 21
7750.0555879455533
 31
0.0
 70
     0
 13
8604.0756731834263
 23
8319.5555879455515
 33
0.0
 14
7391.9276178454202
 24
7180.5555879455515
 34
0.0
 50
90.0
1001
ACAD
1000
DSTYLE
1002
{
1070
    40
1040
35.0
1070
    41
1040
2.5
1070
   147
1040
1.0
1002
}
  0
DIMENSION
  5
83E5
  8
SP
  2
*D17
 10
7293.9714023775168
 20
5280.5555879455524
 30
0.0
 11
7206.471402377515
 21
6230.5555879455533
 31
0.0
 70
     0
 13
7391.9276178454202
 23
7180.5555879455515
 33
0.0
 14
7751.5904541127929
 24
5280.5555879455524
 34
0.0
 50
90.0
1001
ACAD
1000
DSTYLE
1002
{
1070
    40
1040
35.0
1070
    41
1040
2.5
1070
   147
1040
1.0
1002
}
  0
DIMENSION
  5
83F2
  8
SP
  2
*D18
 10
7656.5904541127939
 20
8640.1296095625257
 30
0.0
 11
8179.0904541127939
 21
8727.6296095625257
 31
0.0
 70
     0
 13
8701.5904541127948
 23
8576.2678110168035
 33
0.0
 14
7656.5904541127939
 24
7203.5555879455515
 34
0.0
1001
ACAD
1000
DSTYLE
1002
{
1070
    40
1040
35.0
1070
    41
1040
2.5
1070
   147
1040
1.0
1002
}
  0
LINE
  5
845F
  8
FUTO
 10
10251.590454112789
 20
5152.5590879455522
 30
0.0
 11
7751.5904541127929
 21
5152.5590879455522
 31
0.0
  0
LINE
  5
8460
  8
FUTO
 10
10251.590454112789
 20
5028.5520879455516
 30
0.0
 11
7751.5904541127929
 21
5028.5520879455516
 31
0.0
  0
LINE
  5
8461
  8
FUTO
 10
10251.590454112789
 20
5165.5555879455515
 30
0.0
 11
7751.5904541127929
 21
5165.5555879455515
 31
0.0
  0
LINE
  5
8462
  8
FUTO
 10
10251.590454112789
 20
5015.5555879455515
 30
0.0
 11
7751.5904541127929
 21
5015.5555879455515
 31
0.0
  0
LINE
  5
8463
  8
FUTO
 10
7751.5904541127929
 20
5165.5555879455515
 30
0.0
 11
7751.5904541127929
 21
5015.5555879455515
 31
0.0
  0
LINE
  5
8464
  8
FUTO
 10
8076.5904541127939
 20
5165.5555879455515
 30
0.0
 11
8076.5904541127939
 21
5015.5555879455515
 31
0.0
  0
LINE
  5
846D
  8
FUTO
 10
10251.590454112789
 20
5165.5555879455515
 30
0.0
 11
10251.590454112789
 21
5015.5555879455524
 31
0.0
  0
LINE
  5
8474
  8
CT
 10
7941.5904541127929
 20
5345.0621566381451
 30
0.0
 11
7941.5904541127929
 21
5100.0621566381451
 31
0.0
  0
LINE
  5
8475
  8
FUTO
 10
7901.5904541127939
 20
5280.5555879455524
 30
0.0
 11
7901.5904541127939
 21
5165.5555879455515
 31
0.0
  0
LINE
  5
8476
  8
FUTO
 10
7981.5904541127939
 20
5280.5555879455524
 30
0.0
 11
7981.5904541127939
 21
5165.5555879455515
 31
0.0
  0
INSERT
  5
8484
  8
FUTO
  6
CONTINUOUS
  2
*U19
 10
0.0
 20
0.0
 30
0.0
1001
ACAD
1002
{
1000
R14_HATCH_DATA
1000
8484
1011
1.0
1021
0.0
1031
0.0
1021
0.0
1031
0.0
1011
0.0
1021
0.0
1031
0.0
1021
1.0
1031
0.0
1011
0.0
1021
0.0
1031
0.0
1021
0.0
1031
1.0
1040
0.0
1010
0.0
1020
0.0
1030
1.0
1000
SOLID
1070
     1
1070
     0
1071
        2
1071
        7
1070
     0
1070
     1
1071
        4
1040
7941.5904541127929
1040
5165.5555879455515
1040
7941.5904541127929
1040
5280.5555879455524
1040
7901.5904541127939
1040
5280.5555879455524
1040
7901.5904541127939
1040
5165.5555879455515
1071
        0
1071
        7
1070
     0
1070
     1
1071
        4
1040
7981.5904541127939
1040
5165.5555879455515
1040
7981.5904541127939
1040
5280.5555879455524
1040
7941.5904541127929
1040
5280.5555879455524
1040
7941.5904541127929
1040
5165.5555879455515
1071
        0
1070
     0
1070
     1
1040
0.7322977960048303
1071
        2
1040
7926.7114948946437
1040
5177.8514420355041
1040
0.0
1040
7959.688834199861
1040
5180.0483362925042
1040
0.0
1002
}
  0
LINE
  5
84A3
  8
SP
 10
7716.5904541127929
 20
5165.5555879455515
 30
0.0
 11
7258.9714023775159
 21
5165.5555879455533
 31
0.0
  0
LINE
  5
84A4
  8
SP
 10
7716.5904541127929
 20
5015.5555879455515
 30
0.0
 11
7258.9714023775159
 21
5015.5555879455524
 31
0.0
  0
LINE
  5
84A5
  8
SP
 10
7293.9714023775168
 20
5348.0555879455524
 30
0.0
 11
7293.9714023775168
 21
5435.5555879455524
 31
0.0
  0
LINE
  5
84A6
  8
SP
 10
7293.9714023775168
 20
4928.0555879455533
 30
0.0
 11
7293.971402377515
 21
4525.5555879455524
 31
0.0
  0
LINE
  5
84A7
  8
SP
 10
7293.9714023775168
 20
5165.5555879455533
 30
0.0
 11
7293.9714023775168
 21
5015.5555879455524
 31
0.0
  0
INSERT
  5
84A9
  8
SP
  2
_OPEN
 10
7293.9714023775168
 20
5015.5555879455524
 30
0.0
 41
87.5
 42
87.5
 43
87.5
 50
90.0
  0
TEXT
  5
84AA
  8
FUTO
 10
7258.9714023775159
 20
4537.7799065889049
 30
0.0
 40
105.0
  1
150
 50
90.0
 51
15.0
  0
LINE
  5
84AB
  8
SP
 10
7716.5904541127929
 20
5280.5555879455524
 30
0.0
 11
7258.9714023775159
 21
5280.5555879455524
 31
0.0
  0
LINE
  5
84AC
  8
SP
 10
7716.5904541127929
 20
5165.5555879455515
 30
0.0
 11
7258.9714023775159
 21
5165.5555879455533
 31
0.0
  0
LINE
  5
84AD
  8
SP
 10
7293.9714023775168
 20
5368.0555879455515
 30
0.0
 11
7293.9714023775168
 21
5455.5555879455524
 31
0.0
  0
LINE
  5
84AE
  8
SP
 10
7293.9714023775168
 20
5078.0555879455524
 30
0.0
 11
7293.9714023775168
 21
4732.7799065889058
 31
0.0
  0
LINE
  5
84AF
  8
SP
 10
7293.9714023775168
 20
5280.5555879455524
 30
0.0
 11
7293.9714023775168
 21
5165.5555879455533
 31
0.0
  0
INSERT
  5
84B0
  8
SP
  2
_OPEN
 10
7293.9714023775168
 20
5280.5555879455524
 30
0.0
 41
87.5
 42
87.5
 43
87.5
 50
270.0
  0
TEXT
  5
84B2
  8
FUTO
 10
7213.0799366641359
 20
5090.7796767421651
 30
0.0
 40
105.0
  1
115
 50
90.0
 51
15.0
  0
CIRCLE
  5
84B3
  8
SP
 10
7293.9714023775168
 20
5165.5555879455533
 30
0.0
 40
14.075305485275461
  0
INSERT
  5
84C4
  8
SP
  6
CONTINUOUS
  2
*U20
 10
0.0
 20
0.0
 30
0.0
1001
ACAD
1002
{
1000
R14_HATCH_DATA
1000
84C4
1011
1.0
1021
0.0
1031
0.0
1021
0.0
1031
0.0
1011
0.0
1021
0.0
1031
0.0
1021
1.0
1031
0.0
1011
0.0
1021
0.0
1031
0.0
1021
0.0
1031
1.0
1040
0.0
1010
0.0
1020
0.0
1030
1.0
1000
SOLID
1070
     1
1070
     0
1071
        4
1071
        7
1070
     1
1070
     1
1071
        3
1040
7279.8960968922402
1040
5165.5555879455533
1040
0.0
1040
7293.971402377515
1040
5165.5555879455515
1040
0.0
1040
7293.971402377515
1040
5179.6308934308272
1040
0.414213562373088
1071
        0
1071
        7
1070
     1
1070
     1
1071
        3
1040
7293.9714023775168
1040
5179.6308934308272
1040
0.0
1040
7293.9714023775168
1040
5165.5555879455533
1040
0.0
1040
7308.0467078627898
1040
5165.5555879455533
1040
0.4142135623730927
1071
        0
1071
        7
1070
     1
1070
     1
1071
        3
1040
7293.9714023775168
1040
5165.5555879455533
1040
0.0
1040
7293.9714023775168
1040
5151.4802824602766
1040
0.4142135623730927
1040
7308.0467078627898
1040
5165.5555879455533
1040
0.0
1071
        0
1071
        7
1070
     1
1070
     1
1071
        3
1040
7293.9714023775168
1040
5165.5555879455533
1040
0.0
1040
7279.8960968922402
1040
5165.5555879455533
1040
0.4142135623730927
1040
7293.9714023775168
1040
5151.4802824602766
1040
0.0
1071
        0
1070
     0
1070
     1
1040
0.3734852914275542
1071
        4
1040
7286.3161983120663
1040
5171.1327235750432
1040
0.0
1040
7300.892728521223
1040
5171.5062167541864
1040
0.0
1040
7301.2664612813423
1040
5162.1690861730458
1040
0.0
1040
7292.6700719810651
1040
5160.3016564405007
1040
0.0
1002
}
  0
LINE
  5
84EA
  8
FUTO
 10
13451.747970456619
 20
5152.5590879455522
 30
0.0
 11
11301.747970456619
 21
5152.5590879455522
 31
0.0
  0
LINE
  5
84EB
  8
FUTO
 10
13451.747970456619
 20
5028.5520879455516
 30
0.0
 11
11301.747970456619
 21
5028.5520879455516
 31
0.0
  0
LINE
  5
84EC
  8
FUTO
 10
13451.747970456619
 20
5015.5555879455515
 30
0.0
 11
11301.747970456619
 21
5015.5555879455515
 31
0.0
  0
LINE
  5
84ED
  8
FUTO
 10
13451.747970456619
 20
5165.5555879455515
 30
0.0
 11
11301.747970456619
 21
5165.5555879455515
 31
0.0
  0
LINE
  5
84F0
  8
FUTO
 10
11344.247970456619
 20
5165.5555879455515
 30
0.0
 11
11287.247970456619
 21
5165.5555879455515
 31
0.0
  0
ARC
  5
84F1
  8
FUTO
 10
11230.747970456619
 20
5018.8937765237188
 30
0.0
 40
4.0
 50
95.000000000000554
 51
179.9999999999921
  0
LINE
  5
84F2
  8
FUTO
 10
11301.747970456619
 20
5015.5555879455515
 30
0.0
 11
11301.747970456619
 21
5165.5555879455515
 31
0.0
  0
LINE
  5
84F3
  8
FUTO
 10
11301.747970456619
 20
5015.5555879455515
 30
0.0
 11
11226.747970456619
 21
5015.5555879455496
 31
0.0
  0
LINE
  5
84F4
  8
FUTO
 10
11226.747970456619
 20
5015.5555879455496
 30
0.0
 11
11226.747970456619
 21
5018.8937765237188
 31
0.0
  0
LINE
  5
84F5
  8
FUTO
 10
11291.59659342761
 20
5028.2326205750169
 30
0.0
 11
11230.399347485631
 21
5022.8785553160851
 31
0.0
  0
LINE
  5
84F6
  8
FUTO
 10
11291.59659342761
 20
5152.8785553160851
 30
0.0
 11
11230.399347485631
 21
5158.2326205750169
 31
0.0
  0
LINE
  5
84F7
  8
FUTO
 10
11301.747970456619
 20
5165.5555879455515
 30
0.0
 11
11226.747970456619
 21
5165.5555879455515
 31
0.0
  0
ARC
  5
84F8
  8
FUTO
 10
11230.747970456619
 20
5162.2173993673841
 30
0.0
 40
4.0
 50
180.00000000000779
 51
264.99999999999949
  0
LINE
  5
84F9
  8
FUTO
 10
11226.747970456619
 20
5165.5555879455515
 30
0.0
 11
11226.747970456619
 21
5162.2173993673832
 31
0.0
  0
ARC
  5
84FA
  8
FUTO
 10
11291.247970456619
 20
5032.2173993673841
 30
0.0
 40
4.0
 50
275.0
 51
0.0
  0
ARC
  5
84FB
  8
FUTO
 10
11291.247970456619
 20
5148.8937765237188
 30
0.0
 40
4.0
 50
0.0
 51
84.999999999999943
  0
LINE
  5
84FC
  8
FUTO
 10
11295.247970456619
 20
5032.2173993673841
 30
0.0
 11
11295.247970456619
 21
5148.8937765237188
 31
0.0
  0
ARC
  5
8504
  8
FUTO
 10
13522.747970456619
 20
5018.8937765237188
 30
0.0
 40
4.0
 50
0.0000000000078369
 51
84.999999999999503
  0
LINE
  5
8505
  8
FUTO
 10
13451.747970456619
 20
5165.5555879455515
 30
0.0
 11
13451.747970456619
 21
5015.5555879455515
 31
0.0
  0
LINE
  5
8506
  8
FUTO
 10
13451.747970456619
 20
5015.5555879455515
 30
0.0
 11
13526.747970456619
 21
5015.5555879455515
 31
0.0
  0
LINE
  5
8507
  8
FUTO
 10
13526.747970456619
 20
5015.5555879455496
 30
0.0
 11
13526.747970456619
 21
5018.8937765237188
 31
0.0
  0
LINE
  5
8508
  8
FUTO
 10
13461.899347485631
 20
5152.8785553160851
 30
0.0
 11
13523.09659342761
 21
5158.2326205750169
 31
0.0
  0
LINE
  5
8509
  8
FUTO
 10
13451.747970456619
 20
5165.5555879455515
 30
0.0
 11
13526.747970456619
 21
5165.5555879455515
 31
0.0
  0
LINE
  5
850A
  8
FUTO
 10
13461.899347485631
 20
5028.2326205750169
 30
0.0
 11
13523.09659342761
 21
5022.8785553160851
 31
0.0
  0
ARC
  5
850B
  8
FUTO
 10
13462.247970456619
 20
5148.8937765237188
 30
0.0
 40
4.0
 50
95.000000000000057
 51
180.0
  0
ARC
  5
850C
  8
FUTO
 10
13462.247970456619
 20
5032.2173993673841
 30
0.0
 40
4.0
 50
180.0
 51
264.99999999999989
  0
LINE
  5
850D
  8
FUTO
 10
13458.247970456619
 20
5148.8937765237188
 30
0.0
 11
13458.247970456619
 21
5032.2173993673841
 31
0.0
  0
ARC
  5
850E
  8
FUTO
 10
13522.747970456619
 20
5162.2173993673841
 30
0.0
 40
4.0
 50
275.00000000000051
 51
359.9999999999921
  0
LINE
  5
850F
  8
FUTO
 10
13526.747970456619
 20
5165.5555879455515
 30
0.0
 11
13526.747970456619
 21
5162.2173993673841
 31
0.0
  0
TEXT
  5
8FDD
  8
SP
 10
15364.284266995041
 20
7091.8686229852447
 30
0.0
 40
100.0
  1
 
  0
LINE
  5
8FDE
  8
4
 10
14465.534698021869
 20
3490.8153956967071
 30
0.0
 11
14465.534698021869
 21
2490.8153956967062
 31
0.0
  0
LINE
  5
8FDF
  8
4
 10
10965.534698021869
 20
3490.8153956967071
 30
0.0
 11
10965.534698021869
 21
2490.8153956967062
 31
0.0
  0
LINE
  5
8FE0
  8
4
 10
8465.5346980218783
 20
3490.8153956967071
 30
0.0
 11
8465.5346980218801
 21
2490.8153956967062
 31
0.0
  0
LINE
  5
8FE3
  8
4
 10
8465.5346980218783
 20
2490.8153956967062
 30
0.0
 11
14465.534698021869
 21
2490.8153956967062
 31
0.0
  0
LINE
  5
8FE4
  8
4
 10
8465.5346980218783
 20
2990.8153956967071
 30
0.0
 11
14465.534698021869
 21
2990.8153956967071
 31
0.0
  0
TEXT
  5
8FE5
  8
4
 10
8658.0451022563975
 20
3148.5305250297752
 30
0.0
 40
250.0
  1
機器名称
  0
TEXT
  5
8FE6
  8
4
 10
8646.8252281458736
 20
2599.0411793567609
 30
0.0
 40
250.0
  1
機器型番
  0
TEXT
  5
8FE7
  8
4
 10
10989.500006527091
 20
3101.751907481445
 30
0.0
 40
225.0
  1
ミツヤリミットロードファン
  0
TEXT
  5
8FE8
  8
4
 10
11148.80717594929
 20
2576.6133170964231
 30
0.0
 40
250.0
  1
LL#10-1
  0
TEXT
  5
8FEA
  8
4
 10
9228.6334895709915
 20
12907.95960235928
 30
0.0
 40
270.0
  1
床置防振ベット
  0
TEXT
  5
8FEB
  8
4
 10
6796.3726646691102
 20
13660.220276693201
 30
0.0
 40
360.0
  1
遠心式片吸込片持リミットロードファン
  0
LINE
  5
8FEC
  8
4
 10
6465.5346980218783
 20
13337.85916702073
 30
0.0
 11
14465.534698021869
 21
13337.85916702073
 31
0.0
  0
LINE
  5
8FED
  8
4
 10
6465.5346980218783
 20
14337.85916702073
 30
0.0
 11
14465.534698021869
 21
14337.85916702073
 31
0.0
  0
LINE
  5
8FEE
  8
4
 10
8465.5346980218783
 20
3490.8153956967071
 30
0.0
 11
14465.534698021869
 21
3490.8153956967071
 31
0.0
  0
LINE
  5
8FEF
  8
4
 10
6465.5346980218783
 20
14337.85916702073
 30
0.0
 11
6465.5346980218783
 21
13337.85916702073
 31
0.0
  0
TEXT
  5
8FF0
  8
4
 10
6911.4022787772437
 20
12902.412783428421
 30
0.0
 40
270.0
  1
右回転左横向
  0
TEXT
  5
8FF1
  8
4
 10
12560.38249426833
 20
14521.120803173249
 30
0.0
 40
280.0
  1
No.
  0
TEXT
  5
8FF2
  8
4
 10
12627.31392127865
 20
12411.69475934909
 30
0.0
 40
270.0
  1
縮尺：1/50
  0
LINE
  5
8FF3
  8
4
 10
14465.534698021869
 20
14337.85916702073
 30
0.0
 11
14465.534698021869
 21
13337.85916702073
 31
0.0
  0
LINE
  5
8FF4
  8
4
 10
15715.534698021869
 20
15740.815395696711
 30
0.0
 11
15715.534698021869
 21
15740.815395696711
 31
0.0
  0
LINE
  5
8FF5
  8
4
 10
12418.621809821199
 20
14397.133311323711
 30
0.0
 11
12418.621809821199
 21
14924.076703445469
 31
0.0
  0
LINE
  5
8FF6
  8
4
 10
12418.621809821199
 20
14924.076703445469
 30
0.0
 11
14465.534698021869
 21
14924.076703445469
 31
0.0
  0
LINE
  5
8FF7
  8
4
 10
14465.534698021869
 20
14924.076703445469
 30
0.0
 11
14465.534698021869
 21
14397.133311323711
 31
0.0
  0
LINE
  5
8FF8
  8
4
 10
14465.534698021869
 20
14397.133311323711
 30
0.0
 11
12418.621809821199
 21
14397.133311323711
 31
0.0
  0
LINE
  5
8FF9
  8
4
 10
5215.5346980218783
 20
990.81539569670667
 30
0.0
 11
5215.5346980218783
 21
15740.815395696711
 31
0.0
  0
LINE
  5
8FFA
  8
4
 10
5215.5346980218783
 20
15740.815395696711
 30
0.0
 11
15715.534698021869
 21
15740.815395696711
 31
0.0
  0
LINE
  5
8FFB
  8
4
 10
15715.534698021869
 20
15740.815395696711
 30
0.0
 11
15715.534698021869
 21
990.81539569670667
 31
0.0
  0
LINE
  5
8FFC
  8
4
 10
15715.534698021869
 20
990.81539569670667
 30
0.0
 11
5215.5346980218783
 21
990.81539569670667
 31
0.0
  0
ENDSEC
  0
EOF
