  0
SECTION
  2
HEADER
  9
$ACADVER
  1
AC1009
  9
$INSBASE
 10
0.0
 20
0.0
 30
0.0
  9
$EXTMIN
 10
5048.6615340762219
 20
3142.0810392317512
 30
0.0
  9
$EXTMAX
 10
15548.66153407622
 20
17892.081039231751
 30
0.0
  9
$LIMMIN
 10
0.0
 20
0.0
  9
$LIMMAX
 10
297.0
 20
210.0
  9
$ORTHOMODE
 70
     0
  9
$REGENMODE
 70
     1
  9
$FILLMODE
 70
     1
  9
$QTEXTMODE
 70
     0
  9
$MIRRTEXT
 70
     0
  9
$DRAGMODE
 70
     2
  9
$LTSCALE
 40
175.0
  9
$OSMODE
 70
    37
  9
$ATTMODE
 70
     1
  9
$TEXTSIZE
 40
150.0
  9
$TRACEWID
 40
0.05
  9
$TEXTSTYLE
  7
STANDARD
  9
$CLAYER
  8
FUTO
  9
$CELTYPE
  6
BYLAYER
  9
$CECOLOR
 62
   256
  9
$DIMSCALE
 40
35.0
  9
$DIMASZ
 40
2.5
  9
$DIMEXO
 40
1.0
  9
$DIMDLI
 40
10.0
  9
$DIMRND
 40
0.0
  9
$DIMDLE
 40
0.0
  9
$DIMEXE
 40
1.0
  9
$DIMTP
 40
0.0
  9
$DIMTM
 40
0.0
  9
$DIMTXT
 40
3.0
  9
$DIMCEN
 40
0.0
  9
$DIMTSZ
 40
0.0
  9
$DIMTOL
 70
     0
  9
$DIMLIM
 70
     0
  9
$DIMTIH
 70
     0
  9
$DIMTOH
 70
     0
  9
$DIMSE1
 70
     0
  9
$DIMSE2
 70
     0
  9
$DIMTAD
 70
     1
  9
$DIMZIN
 70
     8
  9
$DIMBLK
  1

  9
$DIMASO
 70
     1
  9
$DIMSHO
 70
     1
  9
$DIMPOST
  1

  9
$DIMAPOST
  1

  9
$DIMALT
 70
     0
  9
$DIMALTD
 70
     2
  9
$DIMALTF
 40
0.03937
  9
$DIMLFAC
 40
1.0
  9
$DIMTOFL
 70
     1
  9
$DIMTVP
 40
0.0
  9
$DIMTIX
 70
     0
  9
$DIMSOXD
 70
     0
  9
$DIMSAH
 70
     1
  9
$DIMBLK1
  1
OPEN
  9
$DIMBLK2
  1
OPEN
  9
$DIMSTYLE
  2
MATSU
  9
$DIMCLRD
 70
   256
  9
$DIMCLRE
 70
   256
  9
$DIMCLRT
 70
   256
  9
$DIMTFAC
 40
1.0
  9
$DIMGAP
 40
1.0
  9
$LUNITS
 70
     2
  9
$LUPREC
 70
     4
  9
$SKETCHINC
 40
0.1
  9
$FILLETRAD
 40
30.0
  9
$AUNITS
 70
     0
  9
$AUPREC
 70
     2
  9
$MENU
  1
acad
  9
$ELEVATION
 40
0.0
  9
$PELEVATION
 40
0.0
  9
$THICKNESS
 40
0.0
  9
$LIMCHECK
 70
     0
  9
$BLIPMODE
 70
     0
  9
$CHAMFERA
 40
8.0
  9
$CHAMFERB
 40
8.0
  9
$SKPOLY
 70
     0
  9
$TDCREATE
 40
2453957.375965347
  9
$TDUPDATE
 40
2454953.650081736
  9
$TDINDWG
 40
0.1516815046
  9
$TDUSRTIMER
 40
0.1516815046
  9
$USRTIMER
 70
     1
  9
$ANGBASE
 50
0.0
  9
$ANGDIR
 70
     0
  9
$PDMODE
 70
     0
  9
$PDSIZE
 40
1.0
  9
$PLINEWID
 40
0.0
  9
$COORDS
 70
     1
  9
$SPLFRAME
 70
     0
  9
$SPLINETYPE
 70
     6
  9
$SPLINESEGS
 70
     8
  9
$ATTDIA
 70
     0
  9
$ATTREQ
 70
     1
  9
$HANDLING
 70
 10241
  9
$HANDSEED
  5
8FF0
  9
$SURFTAB1
 70
     6
  9
$SURFTAB2
 70
     6
  9
$SURFTYPE
 70
     6
  9
$SURFU
 70
     6
  9
$SURFV
 70
     6
  9
$UCSNAME
  2

  9
$UCSORG
 10
0.0
 20
-0.0000000000000142
 30
0.0
  9
$UCSXDIR
 10
1.0
 20
0.0
 30
0.0
  9
$UCSYDIR
 10
0.0
 20
1.0
 30
0.0
  9
$PUCSNAME
  2

  9
$PUCSORG
 10
0.0
 20
0.0
 30
0.0
  9
$PUCSXDIR
 10
1.0
 20
0.0
 30
0.0
  9
$PUCSYDIR
 10
0.0
 20
1.0
 30
0.0
  9
$USERI1
 70
     0
  9
$USERI2
 70
     0
  9
$USERI3
 70
     0
  9
$USERI4
 70
     0
  9
$USERI5
 70
     0
  9
$USERR1
 40
0.0
  9
$USERR2
 40
0.0
  9
$USERR3
 40
0.0
  9
$USERR4
 40
0.0
  9
$USERR5
 40
0.0
  9
$WORLDVIEW
 70
     1
  9
$SHADEDGE
 70
     3
  9
$SHADEDIF
 70
    70
  9
$TILEMODE
 70
     1
  9
$MAXACTVP
 70
    16
  9
$PLIMCHECK
 70
     0
  9
$PEXTMIN
 10
1.0000000000000000E+020
 20
1.0000000000000000E+020
 30
1.0000000000000000E+020
  9
$PEXTMAX
 10
-1.0000000000000000E+020
 20
-1.0000000000000000E+020
 30
-1.0000000000000000E+020
  9
$PLIMMIN
 10
0.0
 20
0.0
  9
$PLIMMAX
 10
12.0
 20
9.0
  9
$UNITMODE
 70
     0
  9
$VISRETAIN
 70
     0
  9
$PLINEGEN
 70
     0
  9
$PSLTSCALE
 70
     0
  0
ENDSEC
  0
SECTION
  2
TABLES
  0
TABLE
  2
VPORT
 70
     2
  0
VPORT
  2
*ACTIVE
 70
     0
 10
0.0
 20
0.0
 11
1.0
 21
1.0
 12
14945.92170500158
 22
4850.8835290330608
 13
0.0
 23
0.0
 14
5.0
 24
5.0
 15
0.0
 25
0.0
 16
0.0
 26
0.0
 36
1.0
 17
0.0
 27
0.0
 37
0.0
 40
4454.949187012382
 41
3.1666666666666661
 42
50.0
 43
0.0
 44
0.0
 50
0.0
 51
0.0
 71
     0
 72
   100
 73
     1
 74
     0
 75
     0
 76
     0
 77
     0
 78
     0
  0
ENDTAB
  0
TABLE
  2
LTYPE
 70
     4
  0
LTYPE
  2
CONTINUOUS
 70
     0
  3
Solid line
 72
    65
 73
     0
 40
0.0
  0
LTYPE
  2
CENTER
 70
     0
  3
____ _ ____ _ ____ _ ____ _ ____ _ ____ _ ____ 
 72
    65
 73
     4
 40
2.0
 49
1.25
 49
-0.25
 49
0.25
 49
-0.25
  0
LTYPE
  2
HIDDEN
 70
     0
  3
__ __ __ __ __ __ __ __ __ __ __ __ __ __ __ __
 72
    65
 73
     2
 40
0.375
 49
0.25
 49
-0.125
  0
LTYPE
  2
PHANTOM
 70
     0
  3
______  __  __  ______  __  __  ______  __  __ 
 72
    65
 73
     6
 40
2.5
 49
1.25
 49
-0.25
 49
0.25
 49
-0.25
 49
0.25
 49
-0.25
  0
ENDTAB
  0
TABLE
  2
LAYER
 70
     9
  0
LAYER
  2
0
 70
     0
 62
     7
  6
CONTINUOUS
  0
LAYER
  2
CT
 70
     0
 62
     3
  6
CENTER
  0
LAYER
  2
FUTO
 70
     0
 62
     4
  6
CONTINUOUS
  0
LAYER
  2
HOSO
 70
     0
 62
     7
  6
CONTINUOUS
  0
LAYER
  2
KL
 70
     0
 62
     7
  6
HIDDEN
  0
LAYER
  2
SL
 70
     0
 62
     1
  6
PHANTOM
  0
LAYER
  2
SP
 70
     0
 62
     2
  6
CONTINUOUS
  0
LAYER
  2
DEFPOINTS
 70
     0
 62
     7
  6
CONTINUOUS
  0
LAYER
  2
4
 70
     0
 62
     7
  6
CONTINUOUS
  0
ENDTAB
  0
TABLE
  2
STYLE
 70
     1
  0
STYLE
  2
STANDARD
 70
     0
 40
0.0
 41
1.0
 50
15.0
 71
     0
 42
150.0
  3
C:\Program Files\AutoCAD LT\simplex.shx
  4
extfont.shx
  0
ENDTAB
  0
TABLE
  2
VIEW
 70
     0
  0
ENDTAB
  0
TABLE
  2
UCS
 70
     0
  0
ENDTAB
  0
TABLE
  2
APPID
 70
     1
  0
APPID
  2
ACAD
 70
     0
  0
ENDTAB
  0
TABLE
  2
DIMSTYLE
 70
     2
  0
DIMSTYLE
  2
STANDARD
 70
     0
  3

  4

  5

  6

  7

 40
1.0
 41
0.18
 42
0.0625
 43
0.38
 44
0.18
 45
0.0
 46
0.0
 47
0.0
 48
0.0
140
0.18
141
0.09
142
0.0
143
25.399999999999999
144
1.0
145
0.0
146
1.0
147
0.09
 71
     0
 72
     0
 73
     1
 74
     1
 75
     0
 76
     0
 77
     0
 78
     0
170
     0
171
     2
172
     0
173
     0
174
     0
175
     0
176
     0
177
     0
178
     0
  0
DIMSTYLE
  2
MATSU
 70
     0
  3

  4

  5

  6
OPEN
  7
OPEN
 40
1.0
 41
2.0
 42
1.0
 43
10.0
 44
1.0
 45
0.0
 46
0.0
 47
0.0
 48
0.0
140
3.0
141
0.0
142
0.0
143
0.03937
144
1.0
145
0.0
146
1.0
147
0.5
 71
     0
 72
     0
 73
     0
 74
     0
 75
     0
 76
     0
 77
     1
 78
     8
170
     0
171
     2
172
     1
173
     1
174
     0
175
     0
176
   256
177
   256
178
   256
  0
ENDTAB
  0
ENDSEC
  0
SECTION
  2
BLOCKS
  0
BLOCK
  8
0
  2
$MODEL_SPACE
 70
     0
 10
0.0
 20
0.0
 30
0.0
  3
$MODEL_SPACE
  1

  0
ENDBLK
  5
1B
  8
0
  0
BLOCK
 67
     1
  8
0
  2
$PAPER_SPACE
 70
     0
 10
0.0
 20
0.0
 30
0.0
  3
$PAPER_SPACE
  1

  0
ENDBLK
  5
18
 67
     1
  8
0
  0
BLOCK
  8
0
  2
_OPEN
 70
     0
 10
0.0
 20
0.0
 30
0.0
  3
_OPEN
  1

  0
LINE
  5
28
  8
0
  6
BYBLOCK
 62
     0
 10
-1.0
 20
0.1666666666666666
 30
0.0
 11
0.0
 21
0.0
 31
0.0
  0
LINE
  5
29
  8
0
  6
BYBLOCK
 62
     0
 10
0.0
 20
0.0
 30
0.0
 11
-1.0
 21
-0.1666666666666666
 31
0.0
  0
LINE
  5
2A
  8
0
  6
BYBLOCK
 62
     0
 10
0.0
 20
0.0
 30
0.0
 11
-1.0
 21
0.0
 31
0.0
  0
ENDBLK
  5
2B
  8
0
  0
BLOCK
  8
0
  2
まっすぐの矢印
 70
     0
 10
0.0
 20
0.0
 30
0.0
  3
まっすぐの矢印
  1

  0
LINE
  5
56E2
  8
SP
 10
0.6962157491662495
 20
-2.216890595009601
 30
0.0
 11
0.6962157491662495
 21
-5.0
 31
0.0
  0
LINE
  5
56E3
  8
SP
 10
0.6962157491662495
 20
-5.0
 30
0.0
 11
-0.6962157491662495
 21
-5.0
 31
0.0
  0
LINE
  5
56E4
  8
SP
 10
-0.6962157491662495
 20
-5.0
 30
0.0
 11
-0.6962157491662495
 21
-2.216890595009601
 31
0.0
  0
LINE
  5
56E5
  8
SP
 10
-0.6962157491662495
 20
-2.216890595009601
 30
0.0
 11
-1.7145256852758151
 21
-2.216890595009601
 31
0.0
  0
LINE
  5
56E6
  8
SP
 10
-1.7145256852758151
 20
-2.216890595009601
 30
0.0
 11
0.0
 21
0.0
 31
0.0
  0
LINE
  5
56E7
  8
SP
 10
0.0
 20
0.0
 30
0.0
 11
1.7145256852758151
 21
-2.216890595009601
 31
0.0
  0
LINE
  5
56E8
  8
SP
 10
1.7145256852758151
 20
-2.216890595009601
 30
0.0
 11
0.6962157491662495
 21
-2.216890595009601
 31
0.0
  0
ENDBLK
  5
56EA
  8
0
  0
BLOCK
  8
0
  2
右回転矢印
 70
     0
 10
0.0
 20
0.0
 30
0.0
  3
右回転矢印
  1

  0
LINE
  5
56EC
  8
SP
 10
-2.7705290305565882
 20
1.567794835092901
 30
0.0
 11
-2.4288000558398148
 21
2.8051227455822878
 31
0.0
  0
LINE
  5
56ED
  8
SP
 10
-2.4288000558398148
 20
2.8051227455822878
 30
0.0
 11
0.0
 21
0.0
 31
0.0
  0
LINE
  5
56EE
  8
SP
 10
0.0
 20
0.0
 30
0.0
 11
-3.3160037613098718
 21
-0.4072531086382499
 31
0.0
  0
LINE
  5
56EF
  8
SP
 10
-3.3160037613098718
 20
-0.4072531086382499
 30
0.0
 11
-3.0391574735299112
 21
0.5951483970269315
 31
0.0
  0
ARC
  5
56F0
  8
SP
 10
-5.9215210782018062
 20
-9.8412769578768184
 30
0.0
 40
10.82714154973578
 50
74.560750721316467
 51
112.11861101078711
  0
LINE
  5
56F1
  8
SP
 10
-9.9982127316752951
 20
0.1890560027239694
 30
0.0
 11
-10.37814929817227
 21
1.1238557349100611
 31
0.0
  0
ARC
  5
56F2
  8
SP
 10
-5.9215210782018062
 20
-9.8412769578768291
 30
0.0
 40
11.83620167374065
 50
74.560750721316396
 51
112.11861101078701
  0
ENDBLK
  5
56F4
  8
0
  0
BLOCK
  8
0
  2
*D3
 70
     1
 10
0.0
 20
0.0
 30
0.0
  3
*D3
  1

  0
LINE
  5
8F66
  8
SP
 10
9950.101505333012
 20
7458.4438367356706
 30
0.0
 11
9950.101505333012
 21
7087.9315265525674
 31
0.0
  0
LINE
  5
8F67
  8
SP
 10
9000.1015053330102
 20
7458.4438367356706
 30
0.0
 11
9000.1015053330102
 21
7087.9315265525674
 31
0.0
  0
LINE
  5
8F68
  8
SP
 10
9862.601505333012
 20
7122.9315265525674
 30
0.0
 11
9087.601505333012
 21
7122.9315265525674
 31
0.0
  0
INSERT
  5
8F69
  8
SP
  2
_OPEN
 10
9950.101505333012
 20
7122.9315265525674
 30
0.0
 41
87.5
 42
87.5
 43
87.5
  0
INSERT
  5
8F6A
  8
SP
  2
_OPEN
 10
9000.1015053330102
 20
7122.9315265525674
 30
0.0
 41
87.5
 42
87.5
 43
87.5
 50
180.0
  0
TEXT
  5
8F6B
  8
FUTO
 10
9326.7040457114563
 20
7157.9315265525684
 30
0.0
 40
105.0
  1
950
 51
15.0
  0
POINT
  5
8F6C
  8
DEFPOINTS
 62
     0
 10
9950.101505333012
 20
7493.4438367356706
 30
0.0
  0
POINT
  5
8F6D
  8
DEFPOINTS
 62
     0
 10
9000.1015053330102
 20
7493.4438367356706
 30
0.0
  0
POINT
  5
8F6E
  8
DEFPOINTS
 62
     0
 10
9000.1015053330102
 20
7122.9315265525674
 30
0.0
  0
ENDBLK
  5
6A60
  8
0
  0
BLOCK
  8
0
  2
*D4
 70
     1
 10
0.0
 20
0.0
 30
0.0
  3
*D4
  1

  0
LINE
  5
8F4B
  8
SP
 10
9000.1015053330102
 20
7338.4438367356697
 30
0.0
 11
9000.1015053330102
 21
7087.9315265525674
 31
0.0
  0
LINE
  5
8F4C
  8
SP
 10
7450.101505333012
 20
7338.4438367356697
 30
0.0
 11
7450.101505333012
 21
7087.9315265525674
 31
0.0
  0
LINE
  5
8F4D
  8
SP
 10
8912.6015053330138
 20
7122.9315265525674
 30
0.0
 11
7537.601505333012
 21
7122.9315265525674
 31
0.0
  0
INSERT
  5
8F4E
  8
SP
  2
_OPEN
 10
9000.1015053330102
 20
7122.9315265525674
 30
0.0
 41
87.5
 42
87.5
 43
87.5
  0
INSERT
  5
8F4F
  8
SP
  2
_OPEN
 10
7450.101505333012
 20
7122.9315265525674
 30
0.0
 41
87.5
 42
87.5
 43
87.5
 50
180.0
  0
TEXT
  5
8F50
  8
FUTO
 10
8029.8258239763663
 20
7157.9315265525684
 30
0.0
 40
105.0
  1
1550
 51
15.0
  0
POINT
  5
8F51
  8
DEFPOINTS
 62
     0
 10
9000.1015053330102
 20
7373.4438367356697
 30
0.0
  0
POINT
  5
8F52
  8
DEFPOINTS
 62
     0
 10
7450.101505333012
 20
7373.4438367356697
 30
0.0
  0
POINT
  5
8F53
  8
DEFPOINTS
 62
     0
 10
7450.101505333012
 20
7122.9315265525674
 30
0.0
  0
ENDBLK
  5
6A6D
  8
0
  0
BLOCK
  8
0
  2
*D5
 70
     1
 10
0.0
 20
0.0
 30
0.0
  3
*D5
  1

  0
LINE
  5
8F42
  8
SP
 10
9950.101505333012
 20
7338.4438367356697
 30
0.0
 11
9950.101505333012
 21
6837.8437825549099
 31
0.0
  0
LINE
  5
8F43
  8
SP
 10
7450.101505333012
 20
7338.4438367356697
 30
0.0
 11
7450.101505333012
 21
6837.8437825549099
 31
0.0
  0
LINE
  5
8F44
  8
SP
 10
9862.601505333012
 20
6872.8437825549108
 30
0.0
 11
7537.601505333012
 21
6872.8437825549108
 31
0.0
  0
INSERT
  5
8F45
  8
SP
  2
_OPEN
 10
9950.101505333012
 20
6872.8437825549108
 30
0.0
 41
87.5
 42
87.5
 43
87.5
  0
INSERT
  5
8F46
  8
SP
  2
_OPEN
 10
7450.101505333012
 20
6872.8437825549108
 30
0.0
 41
87.5
 42
87.5
 43
87.5
 50
180.0
  0
TEXT
  5
8F47
  8
FUTO
 10
8506.2136646546915
 20
6907.8437825549099
 30
0.0
 40
105.0
  1
2500
 51
15.0
  0
POINT
  5
8F48
  8
DEFPOINTS
 62
     0
 10
9950.101505333012
 20
7373.4438367356697
 30
0.0
  0
POINT
  5
8F49
  8
DEFPOINTS
 62
     0
 10
7450.101505333012
 20
7373.4438367356697
 30
0.0
  0
POINT
  5
8F4A
  8
DEFPOINTS
 62
     0
 10
7450.101505333012
 20
6872.8437825549108
 30
0.0
  0
ENDBLK
  5
6A7A
  8
0
  0
BLOCK
  8
0
  2
*D6
 70
     1
 10
0.0
 20
0.0
 30
0.0
  3
*D6
  1

  0
LINE
  5
8FAD
  8
SP
 10
11376.308295948729
 20
7338.4438367356688
 30
0.0
 11
11376.308295948729
 21
7087.9315031647293
 31
0.0
  0
LINE
  5
8FAE
  8
SP
 10
13007.308295948729
 20
7338.4438367356697
 30
0.0
 11
13007.308295948729
 21
7087.9315031647293
 31
0.0
  0
LINE
  5
8FAF
  8
SP
 10
11463.808295948729
 20
7122.9315031647284
 30
0.0
 11
12919.808295948729
 21
7122.9315031647284
 31
0.0
  0
INSERT
  5
8FB0
  8
SP
  2
_OPEN
 10
11376.308295948729
 20
7122.9315031647284
 30
0.0
 41
87.5
 42
87.5
 43
87.5
 50
180.0
  0
INSERT
  5
8FB1
  8
SP
  2
_OPEN
 10
13007.308295948729
 20
7122.9315031647284
 30
0.0
 41
87.5
 42
87.5
 43
87.5
  0
TEXT
  5
8FB2
  8
FUTO
 10
12013.853122667781
 20
7157.9315031647293
 30
0.0
 40
105.0
  1
1631
 51
15.0
  0
POINT
  5
8FB3
  8
DEFPOINTS
 62
     0
 10
11376.308295948729
 20
7373.4438367356697
 30
0.0
  0
POINT
  5
8FB4
  8
DEFPOINTS
 62
     0
 10
13007.308295948729
 20
7373.4438367356697
 30
0.0
  0
POINT
  5
8FB5
  8
DEFPOINTS
 62
     0
 10
13007.308295948729
 20
7122.9315031647284
 30
0.0
  0
ENDBLK
  5
6A87
  8
0
  0
BLOCK
  8
0
  2
*D7
 70
     1
 10
0.0
 20
0.0
 30
0.0
  3
*D7
  1

  0
LINE
  5
8FB6
  8
SP
 10
13007.308295948729
 20
7338.4438367356697
 30
0.0
 11
13007.308295948729
 21
7087.9315031647293
 31
0.0
  0
LINE
  5
8FB7
  8
SP
 10
13676.308295948729
 20
7338.4438367356688
 30
0.0
 11
13676.308295948729
 21
7087.9315031647293
 31
0.0
  0
LINE
  5
8FB8
  8
SP
 10
13094.808295948729
 20
7122.9315031647284
 30
0.0
 11
13588.808295948729
 21
7122.9315031647284
 31
0.0
  0
INSERT
  5
8FB9
  8
SP
  2
_OPEN
 10
13007.308295948729
 20
7122.9315031647284
 30
0.0
 41
87.5
 42
87.5
 43
87.5
 50
180.0
  0
INSERT
  5
8FBA
  8
SP
  2
_OPEN
 10
13676.308295948729
 20
7122.9315031647284
 30
0.0
 41
87.5
 42
87.5
 43
87.5
  0
TEXT
  5
8FBB
  8
FUTO
 10
13195.240963346099
 20
7157.9315031647293
 30
0.0
 40
105.0
  1
669
 51
15.0
  0
POINT
  5
8FBC
  8
DEFPOINTS
 62
     0
 10
13007.308295948729
 20
7373.4438367356697
 30
0.0
  0
POINT
  5
8FBD
  8
DEFPOINTS
 62
     0
 10
13676.308295948729
 20
7373.4438367356697
 30
0.0
  0
POINT
  5
8FBE
  8
DEFPOINTS
 62
     0
 10
13676.308295948729
 20
7122.9315031647284
 30
0.0
  0
ENDBLK
  5
6A94
  8
0
  0
BLOCK
  8
0
  2
*D8
 70
     1
 10
0.0
 20
0.0
 30
0.0
  3
*D8
  1

  0
LINE
  5
8FA4
  8
SP
 10
11376.308295948729
 20
7338.4438367356688
 30
0.0
 11
11376.308295948729
 21
6837.8437591670709
 31
0.0
  0
LINE
  5
8FA5
  8
SP
 10
13676.308295948729
 20
7338.4438367356688
 30
0.0
 11
13676.308295948729
 21
6837.8437591670709
 31
0.0
  0
LINE
  5
8FA6
  8
SP
 10
11463.808295948729
 20
6872.8437591670718
 30
0.0
 11
13588.808295948729
 21
6872.8437591670718
 31
0.0
  0
INSERT
  5
8FA7
  8
SP
  2
_OPEN
 10
11376.308295948729
 20
6872.8437591670718
 30
0.0
 41
87.5
 42
87.5
 43
87.5
 50
180.0
  0
INSERT
  5
8FA8
  8
SP
  2
_OPEN
 10
13676.308295948729
 20
6872.8437591670718
 30
0.0
 41
87.5
 42
87.5
 43
87.5
  0
TEXT
  5
8FA9
  8
FUTO
 10
12332.42045527041
 20
6907.8437591670718
 30
0.0
 40
105.0
  1
2300
 51
15.0
  0
POINT
  5
8FAA
  8
DEFPOINTS
 62
     0
 10
11376.308295948729
 20
7373.4438367356697
 30
0.0
  0
POINT
  5
8FAB
  8
DEFPOINTS
 62
     0
 10
13676.308295948729
 20
7373.4438367356697
 30
0.0
  0
POINT
  5
8FAC
  8
DEFPOINTS
 62
     0
 10
13676.308295948729
 20
6872.8437591670718
 30
0.0
  0
ENDBLK
  5
6AA1
  8
0
  0
BLOCK
  8
0
  2
*D9
 70
     1
 10
0.0
 20
0.0
 30
0.0
  3
*D9
  1

  0
LINE
  5
8F9B
  8
SP
 10
13007.308295948729
 20
10395.702838864519
 30
0.0
 11
13007.308295948729
 21
10441.67521841348
 31
0.0
  0
LINE
  5
8F9C
  8
SP
 10
13732.308295948729
 20
9938.4438367356724
 30
0.0
 11
13732.308295948729
 21
10441.67521841348
 31
0.0
  0
LINE
  5
8F9D
  8
SP
 10
13094.808295948729
 20
10406.67521841348
 30
0.0
 11
13644.808295948729
 21
10406.67521841348
 31
0.0
  0
INSERT
  5
8F9E
  8
SP
  2
_OPEN
 10
13007.308295948729
 20
10406.67521841348
 30
0.0
 41
87.5
 42
87.5
 43
87.5
 50
180.0
  0
INSERT
  5
8F9F
  8
SP
  2
_OPEN
 10
13732.308295948729
 20
10406.67521841348
 30
0.0
 41
87.5
 42
87.5
 43
87.5
  0
TEXT
  5
8FA0
  8
FUTO
 10
13215.740963346099
 20
10441.67521841348
 30
0.0
 40
105.0
  1
725
 51
15.0
  0
POINT
  5
8FA1
  8
DEFPOINTS
 62
     0
 10
13007.308295948729
 20
10360.70283886451
 30
0.0
  0
POINT
  5
8FA2
  8
DEFPOINTS
 62
     0
 10
13732.308295948729
 20
9903.4438367356724
 30
0.0
  0
POINT
  5
8FA3
  8
DEFPOINTS
 62
     0
 10
13732.308295948729
 20
10406.67521841348
 30
0.0
  0
ENDBLK
  5
6AFF
  8
0
  0
BLOCK
  8
0
  2
*D10
 70
     1
 10
0.0
 20
0.0
 30
0.0
  3
*D10
  1

  0
LINE
  5
8FBF
  8
SP
 10
13767.308295948729
 20
9838.4438367356706
 30
0.0
 11
14046.50169715061
 21
9838.4438367356706
 31
0.0
  0
LINE
  5
8FC0
  8
SP
 10
13767.308295948729
 20
8238.4438367356706
 30
0.0
 11
14046.50169715061
 21
8238.4438367356706
 31
0.0
  0
LINE
  5
8FC1
  8
SP
 10
14011.50169715061
 20
9750.9438367356724
 30
0.0
 11
14011.50169715061
 21
8325.9438367356706
 31
0.0
  0
INSERT
  5
8FC2
  8
SP
  2
_OPEN
 10
14011.50169715061
 20
9838.4438367356706
 30
0.0
 41
87.5
 42
87.5
 43
87.5
 50
90.0
  0
INSERT
  5
8FC3
  8
SP
  2
_OPEN
 10
14011.50169715061
 20
8238.4438367356706
 30
0.0
 41
87.5
 42
87.5
 43
87.5
 50
270.0
  0
TEXT
  5
8FC4
  8
FUTO
 10
13976.50169715061
 20
8806.7451069248964
 30
0.0
 40
105.0
  1
φ1600
 50
90.0
 51
15.0
  0
POINT
  5
8FC5
  8
DEFPOINTS
 62
     0
 10
13732.308295948729
 20
9838.4438367356706
 30
0.0
  0
POINT
  5
8FC6
  8
DEFPOINTS
 62
     0
 10
13732.308295948729
 20
8238.4438367356706
 30
0.0
  0
POINT
  5
8FC7
  8
DEFPOINTS
 62
     0
 10
14011.50169715061
 20
8238.4438367356706
 30
0.0
  0
ENDBLK
  5
6F63
  8
0
  0
BLOCK
  8
0
  2
*D11
 70
     1
 10
0.0
 20
0.0
 30
0.0
  3
*D11
  1

  0
LINE
  5
8F93
  8
SP
 10
11127.30829594874
 20
9453.4438367356706
 30
0.0
 11
11127.30829594874
 21
10441.67521841348
 31
0.0
  0
LINE
  5
8F94
  8
SP
 10
11214.80829594874
 20
10406.67521841348
 30
0.0
 11
12919.808295948729
 21
10406.67521841348
 31
0.0
  0
INSERT
  5
8F95
  8
SP
  2
_OPEN
 10
11127.30829594874
 20
10406.67521841348
 30
0.0
 41
87.5
 42
87.5
 43
87.5
 50
180.0
  0
INSERT
  5
8F96
  8
SP
  2
_OPEN
 10
13007.308295948729
 20
10406.67521841348
 30
0.0
 41
87.5
 42
87.5
 43
87.5
  0
TEXT
  5
8F97
  8
FUTO
 10
11872.03261459209
 20
10441.67521841348
 30
0.0
 40
105.0
  1
1880
 51
15.0
  0
POINT
  5
8F98
  8
DEFPOINTS
 62
     0
 10
11127.30829594874
 20
9418.4438367356706
 30
0.0
  0
POINT
  5
8F99
  8
DEFPOINTS
 62
     0
 10
13007.308295948729
 20
10406.67521841348
 30
0.0
  0
POINT
  5
8F9A
  8
DEFPOINTS
 62
     0
 10
13007.308295948729
 20
10406.67521841348
 30
0.0
  0
ENDBLK
  5
6FBD
  8
0
  0
BLOCK
  8
0
  2
*D12
 70
     1
 10
0.0
 20
0.0
 30
0.0
  3
*D12
  1

  0
LINE
  5
8F39
  8
SP
 10
9000.1015053330102
 20
10226.075697249031
 30
0.0
 11
9000.1015053330102
 21
10468.61022781754
 31
0.0
  0
LINE
  5
8F3A
  8
SP
 10
7237.101505333012
 20
10118.443836735671
 30
0.0
 11
7237.101505333012
 21
10468.61022781754
 31
0.0
  0
LINE
  5
8F3B
  8
SP
 10
8912.6015053330138
 20
10433.61022781754
 30
0.0
 11
7324.6015053330129
 21
10433.61022781754
 31
0.0
  0
INSERT
  5
8F3C
  8
SP
  2
_OPEN
 10
9000.1015053330102
 20
10433.61022781754
 30
0.0
 41
87.5
 42
87.5
 43
87.5
  0
INSERT
  5
8F3D
  8
SP
  2
_OPEN
 10
7237.101505333012
 20
10433.61022781754
 30
0.0
 41
87.5
 42
87.5
 43
87.5
 50
180.0
  0
TEXT
  5
8F3E
  8
FUTO
 10
7920.6463320520552
 20
10468.61022781754
 30
0.0
 40
105.0
  1
1763
 51
15.0
  0
POINT
  5
8F3F
  8
DEFPOINTS
 62
     0
 10
9000.1015053330102
 20
10191.075697249031
 30
0.0
  0
POINT
  5
8F40
  8
DEFPOINTS
 62
     0
 10
7237.101505333012
 20
10083.443836735671
 30
0.0
  0
POINT
  5
8F41
  8
DEFPOINTS
 62
     0
 10
7237.101505333012
 20
10433.61022781754
 30
0.0
  0
ENDBLK
  5
8034
  8
0
  0
BLOCK
  8
0
  2
*D13
 70
     1
 10
0.0
 20
0.0
 30
0.0
  3
*D13
  1

  0
LINE
  5
8F54
  8
SP
 10
7415.101505333012
 20
7638.4438367356706
 30
0.0
 11
6948.9063390852652
 21
7638.4438367356706
 31
0.0
  0
LINE
  5
8F55
  8
SP
 10
7131.7433833631621
 20
9038.4438367356706
 30
0.0
 11
6948.9063390852652
 21
9038.4438367356706
 31
0.0
  0
LINE
  5
8F56
  8
SP
 10
6983.9063390852643
 20
7725.9438367356697
 30
0.0
 11
6983.9063390852643
 21
8950.9438367356706
 31
0.0
  0
INSERT
  5
8F57
  8
SP
  2
_OPEN
 10
6983.9063390852643
 20
7638.4438367356706
 30
0.0
 41
87.5
 42
87.5
 43
87.5
 50
270.0
  0
INSERT
  5
8F58
  8
SP
  2
_OPEN
 10
6983.9063390852643
 20
9038.4438367356706
 30
0.0
 41
87.5
 42
87.5
 43
87.5
 50
90.0
  0
TEXT
  5
8F59
  8
FUTO
 10
6948.9063390852634
 20
8143.1681553790277
 30
0.0
 40
105.0
  1
1400
 50
90.0
 51
15.0
  0
POINT
  5
8F5A
  8
DEFPOINTS
 62
     0
 10
7450.101505333012
 20
7638.4438367356706
 30
0.0
  0
POINT
  5
8F5B
  8
DEFPOINTS
 62
     0
 10
7166.7433833631612
 20
9038.4438367356706
 30
0.0
  0
POINT
  5
8F5C
  8
DEFPOINTS
 62
     0
 10
6983.9063390852643
 20
9038.4438367356706
 30
0.0
  0
ENDBLK
  5
8052
  8
0
  0
BLOCK
  8
0
  2
*D14
 70
     1
 10
0.0
 20
0.0
 30
0.0
  3
*D14
  1

  0
LINE
  5
8F5D
  8
SP
 10
7131.7433833631621
 20
9038.4438367356706
 30
0.0
 11
6948.9063390852652
 21
9038.4438367356706
 31
0.0
  0
LINE
  5
8F5E
  8
SP
 10
7202.1015053330111
 20
10083.443836735671
 30
0.0
 11
6948.9063390852652
 21
10083.443836735671
 31
0.0
  0
LINE
  5
8F5F
  8
SP
 10
6983.9063390852643
 20
9125.9438367356706
 30
0.0
 11
6983.9063390852643
 21
9995.9438367356706
 31
0.0
  0
INSERT
  5
8F60
  8
SP
  2
_OPEN
 10
6983.9063390852643
 20
9038.4438367356706
 30
0.0
 41
87.5
 42
87.5
 43
87.5
 50
270.0
  0
INSERT
  5
8F61
  8
SP
  2
_OPEN
 10
6983.9063390852643
 20
10083.443836735671
 30
0.0
 41
87.5
 42
87.5
 43
87.5
 50
90.0
  0
TEXT
  5
8F62
  8
FUTO
 10
6948.9063390852634
 20
9365.4886634547165
 30
0.0
 40
105.0
  1
1045
 50
90.0
 51
15.0
  0
POINT
  5
8F63
  8
DEFPOINTS
 62
     0
 10
7166.7433833631612
 20
9038.4438367356706
 30
0.0
  0
POINT
  5
8F64
  8
DEFPOINTS
 62
     0
 10
7237.101505333012
 20
10083.443836735671
 30
0.0
  0
POINT
  5
8F65
  8
DEFPOINTS
 62
     0
 10
6983.9063390852643
 20
10083.443836735671
 30
0.0
  0
ENDBLK
  5
805F
  8
0
  0
BLOCK
  8
0
  2
*D15
 70
     1
 10
0.0
 20
0.0
 30
0.0
  3
*D15
  1

  0
LINE
  5
8F78
  8
SP
 10
9000.1015053330102
 20
13855.55888598598
 30
0.0
 11
9000.1015053330102
 21
14130.931641624829
 31
0.0
  0
LINE
  5
8F79
  8
SP
 10
7237.101505333012
 20
13744.78097416912
 30
0.0
 11
7237.101505333012
 21
14130.931641624829
 31
0.0
  0
LINE
  5
8F7A
  8
SP
 10
8912.6015053330138
 20
14095.931641624829
 30
0.0
 11
7324.6015053330129
 21
14095.931641624829
 31
0.0
  0
INSERT
  5
8F7B
  8
SP
  2
_OPEN
 10
9000.1015053330102
 20
14095.931641624829
 30
0.0
 41
87.5
 42
87.5
 43
87.5
  0
INSERT
  5
8F7C
  8
SP
  2
_OPEN
 10
7237.101505333012
 20
14095.931641624829
 30
0.0
 41
87.5
 42
87.5
 43
87.5
 50
180.0
  0
TEXT
  5
8F7D
  8
FUTO
 10
7920.6463320520552
 20
14130.931641624829
 30
0.0
 40
105.0
  1
1763
 51
15.0
  0
POINT
  5
8F7E
  8
DEFPOINTS
 62
     0
 10
9000.1015053330102
 20
13820.55888598598
 30
0.0
  0
POINT
  5
8F7F
  8
DEFPOINTS
 62
     0
 10
7237.101505333012
 20
13709.78097416912
 30
0.0
  0
POINT
  5
8F80
  8
DEFPOINTS
 62
     0
 10
7237.101505333012
 20
14095.931641624829
 30
0.0
  0
ENDBLK
  5
8087
  8
0
  0
BLOCK
  8
0
  2
*D16
 70
     1
 10
0.0
 20
0.0
 30
0.0
  3
*D16
  1

  0
LINE
  5
8F8A
  8
SP
 10
9000.1015053330102
 20
13890.55888598598
 30
0.0
 11
9000.1015053330102
 21
14130.931641624829
 31
0.0
  0
LINE
  5
8F8B
  8
SP
 10
10189.10150533301
 20
13729.78097416912
 30
0.0
 11
10189.10150533301
 21
14130.931641624829
 31
0.0
  0
LINE
  5
8F8C
  8
SP
 10
9087.601505333012
 20
14095.931641624829
 30
0.0
 11
10101.60150533301
 21
14095.931641624829
 31
0.0
  0
INSERT
  5
8F8D
  8
SP
  2
_OPEN
 10
9000.1015053330102
 20
14095.931641624829
 30
0.0
 41
87.5
 42
87.5
 43
87.5
 50
180.0
  0
INSERT
  5
8F8E
  8
SP
  2
_OPEN
 10
10189.10150533301
 20
14095.931641624829
 30
0.0
 41
87.5
 42
87.5
 43
87.5
  0
TEXT
  5
8F8F
  8
FUTO
 10
9411.1559509952895
 20
14130.931641624829
 30
0.0
 40
105.0
  1
1189
 51
15.0
  0
POINT
  5
8F90
  8
DEFPOINTS
 62
     0
 10
9000.1015053330102
 20
13855.55888598598
 30
0.0
  0
POINT
  5
8F91
  8
DEFPOINTS
 62
     0
 10
10189.10150533301
 20
13694.78097416912
 30
0.0
  0
POINT
  5
8F92
  8
DEFPOINTS
 62
     0
 10
10189.10150533301
 20
14095.931641624829
 30
0.0
  0
ENDBLK
  5
8094
  8
0
  0
BLOCK
  8
0
  2
*D17
 70
     1
 10
0.0
 20
0.0
 30
0.0
  3
*D17
  1

  0
LINE
  5
8F6F
  8
SP
 10
7202.1015053330111
 20
13050.78097416912
 30
0.0
 11
6859.4817450194123
 21
13050.78097416912
 31
0.0
  0
LINE
  5
8F70
  8
SP
 10
8100.1015053330129
 20
13775.78097416912
 30
0.0
 11
6859.4817450194123
 21
13775.78097416912
 31
0.0
  0
LINE
  5
8F71
  8
SP
 10
6894.4817450194141
 20
13138.28097416912
 30
0.0
 11
6894.4817450194141
 21
13688.28097416912
 31
0.0
  0
INSERT
  5
8F72
  8
SP
  2
_OPEN
 10
6894.4817450194141
 20
13050.78097416912
 30
0.0
 41
87.5
 42
87.5
 43
87.5
 50
270.0
  0
INSERT
  5
8F73
  8
SP
  2
_OPEN
 10
6894.4817450194141
 20
13775.78097416912
 30
0.0
 41
87.5
 42
87.5
 43
87.5
 50
90.0
  0
TEXT
  5
8F74
  8
FUTO
 10
6859.4817450194123
 20
13259.21364156649
 30
0.0
 40
105.0
  1
725
 50
90.0
 51
15.0
  0
POINT
  5
8F75
  8
DEFPOINTS
 62
     0
 10
7237.101505333012
 20
13050.78097416912
 30
0.0
  0
POINT
  5
8F76
  8
DEFPOINTS
 62
     0
 10
8135.1015053330111
 20
13775.78097416912
 30
0.0
  0
POINT
  5
8F77
  8
DEFPOINTS
 62
     0
 10
6894.4817450194141
 20
13775.78097416912
 30
0.0
  0
ENDBLK
  5
80A1
  8
0
  0
BLOCK
  8
0
  2
*D18
 70
     1
 10
0.0
 20
0.0
 30
0.0
  3
*D18
  1

  0
LINE
  5
8F81
  8
SP
 10
7202.1015053330111
 20
13050.78097416912
 30
0.0
 11
6859.4817450194123
 21
13050.78097416912
 31
0.0
  0
LINE
  5
8F82
  8
SP
 10
7511.6015053330111
 20
11170.78097416912
 30
0.0
 11
6859.4817450194123
 21
11170.78097416912
 31
0.0
  0
LINE
  5
8F83
  8
SP
 10
6894.4817450194141
 20
12963.28097416912
 30
0.0
 11
6894.4817450194141
 21
11258.28097416912
 31
0.0
  0
INSERT
  5
8F84
  8
SP
  2
_OPEN
 10
6894.4817450194141
 20
13050.78097416912
 30
0.0
 41
87.5
 42
87.5
 43
87.5
 50
90.0
  0
INSERT
  5
8F85
  8
SP
  2
_OPEN
 10
6894.4817450194141
 20
11170.78097416912
 30
0.0
 41
87.5
 42
87.5
 43
87.5
 50
270.0
  0
TEXT
  5
8F86
  8
FUTO
 10
6859.4817450194123
 20
11915.50529281247
 30
0.0
 40
105.0
  1
1880
 50
90.0
 51
15.0
  0
POINT
  5
8F87
  8
DEFPOINTS
 62
     0
 10
7237.101505333012
 20
13050.78097416912
 30
0.0
  0
POINT
  5
8F88
  8
DEFPOINTS
 62
     0
 10
7546.601505333012
 20
11170.78097416912
 30
0.0
  0
POINT
  5
8F89
  8
DEFPOINTS
 62
     0
 10
6894.4817450194141
 20
11170.78097416912
 30
0.0
  0
ENDBLK
  5
80AE
  8
0
  0
BLOCK
  8
0
  2
*U19
 70
     1
 10
0.0
 20
0.0
 30
0.0
  3
*U19
  1

  0
SOLID
  5
8FDF
  8
SP
  6
CONTINUOUS
 10
6970.2628365794008
 20
7523.4438367356724
 30
0.0
 11
6983.9063390852643
 21
7523.4438367356724
 31
0.0
 12
6974.2589259442329
 22
7533.0912498767029
 32
0.0
 13
6974.2589259442329
 23
7533.0912498767029
 33
0.0
210
0.0
220
0.0
230
1.0
  0
SOLID
  5
8FE0
  8
SP
  6
CONTINUOUS
 10
6983.9063390852643
 20
7537.0873392415342
 30
0.0
 11
6974.2589259442329
 21
7533.0912498767029
 31
0.0
 12
6983.9063390852643
 22
7523.4438367356724
 32
0.0
 13
6983.9063390852643
 23
7523.4438367356724
 33
0.0
210
0.0
220
0.0
230
1.0
  0
SOLID
  5
8FE1
  8
SP
  6
CONTINUOUS
 10
6983.9063390852643
 20
7523.4438367356724
 30
0.0
 11
6997.549841591127
 21
7523.4438367356724
 31
0.0
 12
6983.9063390852643
 22
7537.0873392415342
 32
0.0
 13
6983.9063390852643
 23
7537.0873392415342
 33
0.0
210
0.0
220
0.0
230
1.0
  0
SOLID
  5
8FE2
  8
SP
  6
CONTINUOUS
 10
6993.5537522262957
 20
7533.0912498767029
 30
0.0
 11
6983.9063390852643
 21
7537.0873392415342
 31
0.0
 12
6997.549841591127
 22
7523.4438367356724
 32
0.0
 13
6997.549841591127
 23
7523.4438367356724
 33
0.0
210
0.0
220
0.0
230
1.0
  0
SOLID
  5
8FE3
  8
SP
  6
CONTINUOUS
 10
6983.9063390852643
 20
7523.4438367356724
 30
0.0
 11
6983.9063390852643
 21
7509.800334229808
 31
0.0
 12
6997.549841591127
 22
7523.4438367356724
 32
0.0
 13
6997.549841591127
 23
7523.4438367356724
 33
0.0
210
0.0
220
0.0
230
1.0
  0
SOLID
  5
8FE4
  8
SP
  6
CONTINUOUS
 10
6993.5537522262957
 20
7513.7964235946401
 30
0.0
 11
6997.549841591127
 21
7523.4438367356724
 31
0.0
 12
6983.9063390852643
 22
7509.800334229808
 32
0.0
 13
6983.9063390852643
 23
7509.800334229808
 33
0.0
210
0.0
220
0.0
230
1.0
  0
SOLID
  5
8FE5
  8
SP
  6
CONTINUOUS
 10
6970.2628365794008
 20
7523.4438367356724
 30
0.0
 11
6974.2589259442329
 21
7513.7964235946401
 31
0.0
 12
6983.9063390852643
 22
7523.4438367356724
 32
0.0
 13
6983.9063390852643
 23
7523.4438367356724
 33
0.0
210
0.0
220
0.0
230
1.0
  0
SOLID
  5
8FE6
  8
SP
  6
CONTINUOUS
 10
6983.9063390852643
 20
7509.800334229808
 30
0.0
 11
6983.9063390852643
 21
7523.4438367356724
 31
0.0
 12
6974.2589259442329
 22
7513.7964235946401
 32
0.0
 13
6974.2589259442329
 23
7513.7964235946401
 33
0.0
210
0.0
220
0.0
230
1.0
  0
ENDBLK
  5
8FE8
  8
0
  0
BLOCK
  8
0
  2
*U20
 70
     1
 10
0.0
 20
0.0
 30
0.0
  3
*U20
  1

  0
SOLID
  5
8FEA
  8
FUTO
  6
CONTINUOUS
 10
9760.1015053330102
 20
7638.4438367356706
 30
0.0
 11
9720.101505333012
 21
7638.4438367356706
 31
0.0
 12
9760.1015053330102
 22
7523.4438367356697
 32
0.0
 13
9760.1015053330102
 23
7523.4438367356697
 33
0.0
210
0.0
220
0.0
230
1.0
  0
SOLID
  5
8FEB
  8
FUTO
  6
CONTINUOUS
 10
9720.101505333012
 20
7523.4438367356697
 30
0.0
 11
9760.1015053330102
 21
7523.4438367356697
 31
0.0
 12
9720.101505333012
 22
7638.4438367356706
 32
0.0
 13
9720.101505333012
 23
7638.4438367356706
 33
0.0
210
0.0
220
0.0
230
1.0
  0
SOLID
  5
8FEC
  8
FUTO
  6
CONTINUOUS
 10
9800.101505333012
 20
7638.4438367356706
 30
0.0
 11
9760.1015053330102
 21
7638.4438367356706
 31
0.0
 12
9800.101505333012
 22
7523.4438367356697
 32
0.0
 13
9800.101505333012
 23
7523.4438367356697
 33
0.0
210
0.0
220
0.0
230
1.0
  0
SOLID
  5
8FED
  8
FUTO
  6
CONTINUOUS
 10
9760.1015053330102
 20
7523.4438367356697
 30
0.0
 11
9800.101505333012
 21
7523.4438367356697
 31
0.0
 12
9760.1015053330102
 22
7638.4438367356706
 32
0.0
 13
9760.1015053330102
 23
7638.4438367356706
 33
0.0
210
0.0
220
0.0
230
1.0
  0
ENDBLK
  5
8FEF
  8
0
  0
ENDSEC
  0
SECTION
  2
ENTITIES
  0
LINE
  5
522D
  8
CT
 10
10309.764341600379
 20
9038.4438367356706
 30
0.0
 11
7166.7433833631612
 21
9038.4438367356706
 31
0.0
  0
LINE
  5
522E
  8
CT
 10
9000.1015053330102
 20
10191.075697249031
 30
0.0
 11
9000.1015053330102
 21
7445.0215450696423
 31
0.0
  0
ARC
  5
5232
  8
KL
 10
8884.101505333012
 20
9154.4438367356706
 30
0.0
 40
1487.0
 50
184.4741559760561
 51
270.0
  0
ARC
  5
5234
  8
KL
 10
8884.101505333012
 20
8922.4438367356724
 30
0.0
 40
1255.0
 50
270.0
 51
0.000000000000007
  0
ARC
  5
5238
  8
KL
 10
9097.1015053330138
 20
8941.4438367356706
 30
0.0
 40
1042.0
 50
0.000000000000007
 51
90.0
  0
ARC
  5
5239
  8
KL
 10
9097.1015053330138
 20
9135.4438367356706
 30
0.0
 40
848.0
 50
90.0
 51
123.7047429507289
  0
LINE
  5
523A
  8
FUTO
 10
8958.1015053330102
 20
10083.443836735671
 30
0.0
 11
7302.1015053330129
 21
10083.443836735671
 31
0.0
  0
LINE
  5
523C
  8
KL
 10
8955.1015053330102
 20
10083.443836735671
 30
0.0
 11
8955.1015053330102
 21
9971.4701521109728
 31
0.0
  0
LINE
  5
523D
  8
KL
 10
7401.6329559195701
 20
9038.4438367356706
 30
0.0
 11
7305.101505333012
 21
10083.443836735671
 31
0.0
  0
LINE
  5
523F
  8
FUTO
 10
8973.101505333012
 20
10018.443836735671
 30
0.0
 11
7293.0292194782078
 21
10018.443836735671
 31
0.0
  0
LINE
  5
5251
  8
FUTO
 10
8958.1015053330102
 20
10083.443836735671
 30
0.0
 11
9023.1015053330138
 21
10083.443836735671
 31
0.0
  0
LINE
  5
5252
  8
FUTO
 10
8958.1015053330102
 20
10083.443836735671
 30
0.0
 11
8958.1015053330102
 21
10018.443836735671
 31
0.0
  0
LINE
  5
5253
  8
FUTO
 10
9023.1015053330138
 20
10083.443836735671
 30
0.0
 11
9023.1015053330138
 21
10081.443836735671
 31
0.0
  0
LINE
  5
5254
  8
FUTO
 10
8958.1015053330102
 20
10018.443836735671
 30
0.0
 11
8960.101505333012
 21
10018.443836735671
 31
0.0
  0
LINE
  5
5255
  8
FUTO
 10
8964.101505333012
 20
10068.943836735671
 30
0.0
 11
8964.101505333012
 21
10022.443836735671
 31
0.0
  0
LINE
  5
5256
  8
FUTO
 10
8972.6015053330102
 20
10077.443836735671
 30
0.0
 11
9019.1015053330102
 21
10077.443836735671
 31
0.0
  0
ARC
  5
5257
  8
FUTO
 10
9019.1015053330102
 20
10081.443836735671
 30
0.0
 40
4.0
 50
270.0
 51
0.000000000000007
  0
ARC
  5
5258
  8
FUTO
 10
8960.101505333012
 20
10022.443836735671
 30
0.0
 40
4.0
 50
270.0000000000008
 51
0.000000000000007
  0
ARC
  5
5259
  8
FUTO
 10
8972.6015053330102
 20
10068.943836735671
 30
0.0
 40
8.5
 50
90.0
 51
180.0
  0
LINE
  5
525A
  8
FUTO
 10
7302.101505333012
 20
10083.443836735671
 30
0.0
 11
7302.101505333012
 21
10018.443836735671
 31
0.0
  0
LINE
  5
525B
  8
FUTO
 10
7302.101505333012
 20
10083.443836735671
 30
0.0
 11
7237.101505333012
 21
10083.443836735671
 31
0.0
  0
LINE
  5
525C
  8
FUTO
 10
7302.101505333012
 20
10018.443836735671
 30
0.0
 11
7300.101505333012
 21
10018.443836735671
 31
0.0
  0
LINE
  5
525D
  8
FUTO
 10
7237.101505333012
 20
10083.443836735671
 30
0.0
 11
7237.101505333012
 21
10081.443836735671
 31
0.0
  0
LINE
  5
525E
  8
FUTO
 10
7287.601505333012
 20
10077.443836735671
 30
0.0
 11
7241.101505333012
 21
10077.443836735671
 31
0.0
  0
LINE
  5
525F
  8
FUTO
 10
7296.101505333012
 20
10068.943836735671
 30
0.0
 11
7296.101505333012
 21
10022.443836735671
 31
0.0
  0
ARC
  5
5260
  8
FUTO
 10
7300.101505333012
 20
10022.443836735671
 30
0.0
 40
4.0
 50
180.0
 51
270.0
  0
ARC
  5
5261
  8
FUTO
 10
7241.101505333012
 20
10081.443836735671
 30
0.0
 40
4.0
 50
180.0000000000008
 51
270.0
  0
ARC
  5
5262
  8
FUTO
 10
7287.601505333012
 20
10068.943836735671
 30
0.0
 40
8.5
 50
0.000000000000007
 51
90.0
  0
LINE
  5
5263
  8
FUTO
 10
8958.1015053330102
 20
10077.443836735671
 30
0.0
 11
7302.1015053330129
 21
10077.443836735671
 31
0.0
  0
ARC
  5
5264
  8
FUTO
 10
9097.1015053330138
 20
9135.4438367356706
 30
0.0
 40
866.0
 50
90.0
 51
98.232310315002834
  0
LINE
  5
5265
  8
FUTO
 10
8973.101505333012
 20
10018.443836735671
 30
0.0
 11
8973.101505333012
 21
9992.5202627327944
 31
0.0
  0
ARC
  5
5266
  8
FUTO
 10
9097.1015053330138
 20
8941.4438367356706
 30
0.0
 40
1060.0
 50
5.7391704772667911
 51
90.0
  0
LINE
  5
5267
  8
KL
 10
10139.10150533301
 20
8922.4438367356724
 30
0.0
 11
10139.10150533301
 21
8941.4438367356706
 31
0.0
  0
LINE
  5
5268
  8
FUTO
 10
10157.10150533301
 20
8922.4438367356724
 30
0.0
 11
10157.10150533301
 21
8941.4438367356706
 31
0.0
  0
ARC
  5
5269
  8
FUTO
 10
8884.101505333012
 20
8922.4438367356724
 30
0.0
 40
1273.0
 50
304.67671570402001
 51
0.000000000000007
  0
ARC
  5
526A
  8
FUTO
 10
8884.101505333012
 20
9154.4438367356706
 30
0.0
 40
1505.0
 50
233.6567069997165
 51
245.1813907945583
  0
LINE
  5
526B
  8
FUTO
 10
7382.7249501189226
 20
9047.4438367356724
 30
0.0
 11
7293.0292194782078
 21
10018.443836735671
 31
0.0
  0
CIRCLE
  5
526C
  8
KL
 10
8617.101505333012
 20
9855.0444203930219
 30
0.0
 40
17.0
  0
LINE
  5
526D
  8
FUTO
 10
7450.101505333012
 20
7638.4438367356706
 30
0.0
 11
9950.101505333012
 21
7638.4438367356706
 31
0.0
  0
LINE
  5
526E
  8
FUTO
 10
7450.101505333012
 20
7788.4438367356697
 30
0.0
 11
9950.101505333012
 21
7788.4438367356697
 31
0.0
  0
LINE
  5
526F
  8
FUTO
 10
9950.101505333012
 20
7788.4438367356697
 30
0.0
 11
9950.101505333012
 21
7638.4438367356706
 31
0.0
  0
LINE
  5
5270
  8
FUTO
 10
7450.101505333012
 20
7788.4438367356697
 30
0.0
 11
7450.101505333012
 21
7638.4438367356724
 31
0.0
  0
LINE
  5
5273
  8
FUTO
 10
9940.1015053330138
 20
9568.4438367356706
 30
0.0
 11
9940.1015053330138
 21
9047.4438367356724
 31
0.0
  0
LINE
  5
5274
  8
FUTO
 10
8060.101505333012
 20
10018.443836735671
 30
0.0
 11
8060.101505333012
 21
9047.4438367356724
 31
0.0
  0
LINE
  5
5275
  8
FUTO
 10
8069.101505333012
 20
10018.443836735671
 30
0.0
 11
8069.101505333012
 21
9047.4438367356724
 31
0.0
  0
LINE
  5
5276
  8
FUTO
 10
9931.101505333012
 20
9568.4438367356706
 30
0.0
 11
9931.101505333012
 21
9047.4438367356724
 31
0.0
  0
LINE
  5
5277
  8
FUTO
 10
9940.1015053330138
 20
9568.4438367356706
 30
0.0
 11
9931.101505333012
 21
9568.4438367356706
 31
0.0
  0
LINE
  5
52EB
  8
CT
 10
7986.5578626181568
 20
8048.4438367356688
 30
0.0
 11
7357.7647848723154
 21
8048.4438367356688
 31
0.0
  0
LINE
  5
52F4
  8
CT
 10
7750.1015053330129
 20
7638.4438367356706
 30
0.0
 11
7750.101505333012
 21
8278.5418509322717
 31
0.0
  0
LINE
  5
5391
  8
CT
 10
9145.1015053330138
 20
8918.4438367356706
 30
0.0
 11
9145.1015053330138
 21
8992.4438367356724
 31
0.0
  0
LINE
  5
5393
  8
CT
 10
8855.101505333012
 20
8918.4438367356706
 30
0.0
 11
8855.101505333012
 21
8992.4438367356724
 31
0.0
  0
ARC
  5
53C8
  8
FUTO
 10
8823.101505333012
 20
8969.4438367356706
 30
0.0
 40
3.0
 50
90.0
 51
180.0
  0
LINE
  5
53C9
  8
FUTO
 10
8820.101505333012
 20
8969.4438367356706
 30
0.0
 11
8820.101505333012
 21
8938.4438367356706
 31
0.0
  0
ARC
  5
53CA
  8
FUTO
 10
8952.601505333012
 20
9120.7162500951927
 30
0.0
 40
15.00000000000038
 50
25.471936986187181
 51
214.5280630138071
  0
LINE
  5
53CB
  8
FUTO
 10
8984.4198426352104
 20
9132.1406107197963
 30
0.0
 11
8984.4198426352104
 21
9138.4438367356706
 31
0.0
  0
LINE
  5
53CC
  8
FUTO
 10
9015.7831680308136
 20
9132.1406107197963
 30
0.0
 11
9015.7831680308136
 21
9138.4438367356706
 31
0.0
  0
LINE
  5
53CD
  8
FUTO
 10
9015.7831680308136
 20
9138.4438367356706
 30
0.0
 11
8984.4198426352104
 21
9138.4438367356706
 31
0.0
  0
ARC
  5
53CE
  8
FUTO
 10
9000.1015053330138
 20
9038.4438367356706
 30
0.0
 40
95.000000000000057
 50
129.05612602761761
 51
170.94387397238259
  0
LINE
  5
53CF
  8
FUTO
 10
8905.101505333012
 20
9023.4438367356706
 30
0.0
 11
8905.101505333012
 21
8988.4438367356706
 31
0.0
  0
LINE
  5
53D0
  8
FUTO
 10
8910.1015053330102
 20
8938.4438367356706
 30
0.0
 11
8910.1015053330102
 21
8941.4438367356706
 31
0.0
  0
ARC
  5
53D1
  8
FUTO
 10
8889.101505333012
 20
8988.4438367356706
 30
0.0
 40
16.0
 50
270.0
 51
0.000000000000007
  0
ARC
  5
53D2
  8
FUTO
 10
8952.601505333012
 20
8956.1714233761486
 30
0.0
 40
14.999999999999909
 50
145.47193698619051
 51
334.5280630138152
  0
ARC
  5
53D3
  8
FUTO
 10
9000.1015053330138
 20
9038.4438367356706
 30
0.0
 40
95.000000000000966
 50
189.05612602761769
 51
230.9438739723827
  0
ARC
  5
53D4
  8
FUTO
 10
8905.101505333012
 20
9038.4438367356706
 30
0.0
 40
15.00000000000011
 50
85.471936986191736
 51
274.52806301380838
  0
LINE
  5
53D5
  8
FUTO
 10
8889.101505333012
 20
8972.4438367356706
 30
0.0
 11
8823.101505333012
 21
8972.4438367356706
 31
0.0
  0
ARC
  5
53D7
  8
FUTO
 10
9047.6015053330102
 20
9120.7162500951927
 30
0.0
 40
15.00000000000006
 50
325.47193698619043
 51
154.52806301381389
  0
ARC
  5
53D8
  8
FUTO
 10
9000.1015053330102
 20
9038.4438367356706
 30
0.0
 40
94.999999999999375
 50
9.0561260276173208
 51
50.943873972383258
  0
LINE
  5
53D9
  8
FUTO
 10
9095.101505333012
 20
9023.4438367356706
 30
0.0
 11
9095.101505333012
 21
8988.4438367356706
 31
0.0
  0
ARC
  5
53DA
  8
FUTO
 10
9047.6015053330102
 20
8956.1714233761486
 30
0.0
 40
14.99999999999978
 50
205.47193698618639
 51
34.528063013808868
  0
LINE
  5
53DB
  8
FUTO
 10
9090.1015053330138
 20
8938.4438367356706
 30
0.0
 11
9090.1015053330138
 21
8941.4438367356706
 31
0.0
  0
ARC
  5
53DC
  8
FUTO
 10
9000.1015053330102
 20
9038.4438367356706
 30
0.0
 40
95.000000000000057
 50
309.05612602761761
 51
350.94387397238319
  0
ARC
  5
53DD
  8
FUTO
 10
9177.1015053330102
 20
8969.4438367356706
 30
0.0
 40
3.0
 50
0.000000000000007
 51
90.0
  0
LINE
  5
53DE
  8
FUTO
 10
9180.1015053330102
 20
8969.4438367356706
 30
0.0
 11
9180.1015053330102
 21
8938.4438367356706
 31
0.0
  0
LINE
  5
53DF
  8
FUTO
 10
9111.101505333012
 20
8972.4438367356706
 30
0.0
 11
9177.1015053330102
 21
8972.4438367356706
 31
0.0
  0
ARC
  5
53E0
  8
FUTO
 10
9111.101505333012
 20
8988.4438367356706
 30
0.0
 40
16.0
 50
180.0
 51
270.0
  0
LINE
  5
53E1
  8
FUTO
 10
9195.101505333012
 20
8938.4438367356706
 30
0.0
 11
8805.1015053330102
 21
8938.4438367356706
 31
0.0
  0
ARC
  5
53E2
  8
FUTO
 10
9095.101505333012
 20
9038.4438367356706
 30
0.0
 40
14.999999999999879
 50
265.47193698619083
 51
94.528063013808975
  0
CIRCLE
  5
53E3
  8
FUTO
 10
9000.1015053330102
 20
9038.4438367356706
 30
0.0
 40
36.5
  0
LINE
  5
53E4
  8
FUTO
 10
9090.1015053330138
 20
8941.4438367356706
 30
0.0
 11
8910.1015053330102
 21
8941.4438367356706
 31
0.0
  0
ARC
  5
53E5
  8
FUTO
 10
9000.1015053330102
 20
9038.4438367356706
 30
0.0
 40
94.999999999998266
 50
249.0561260276169
 51
290.9438739723837
  0
ARC
  5
53E6
  8
FUTO
 10
9000.1015053330138
 20
9038.4438367356706
 30
0.0
 40
94.999999999998053
 50
69.056126027617694
 51
110.9438739723836
  0
LINE
  5
53E7
  8
FUTO
 10
11591.308295948729
 20
9118.4438367356706
 30
0.0
 11
11596.308295948729
 21
9118.4438367356706
 31
0.0
  0
ARC
  5
53E8
  8
FUTO
 10
11585.308295948729
 20
9127.4438367356706
 30
0.0
 40
6.0
 50
0.0
 51
90.0
  0
LINE
  5
53E9
  8
FUTO
 10
11576.308295948729
 20
9133.4438367356706
 30
0.0
 11
11585.308295948729
 21
9133.4438367356706
 31
0.0
  0
LINE
  5
53EA
  8
FUTO
 10
11596.308295948729
 20
8958.4438367356706
 30
0.0
 11
11591.308295948729
 21
8958.4438367356706
 31
0.0
  0
ARC
  5
53EB
  8
FUTO
 10
11585.308295948729
 20
8949.4438367356706
 30
0.0
 40
6.0
 50
270.0
 51
0.0
  0
ARC
  5
53EC
  8
FUTO
 10
11570.308295948729
 20
8966.4438367356706
 30
0.0
 40
6.0
 50
0.0
 51
90.0
  0
LINE
  5
53ED
  8
FUTO
 10
11585.308295948729
 20
8943.4438367356706
 30
0.0
 11
11576.308295948729
 21
8943.4438367356706
 31
0.0
  0
LINE
  5
53EE
  8
FUTO
 10
11596.308295948729
 20
9118.4438367356706
 30
0.0
 11
11596.308295948729
 21
8958.4438367356706
 31
0.0
  0
LINE
  5
53EF
  8
FUTO
 10
11591.308295948729
 20
9127.4438367356706
 30
0.0
 11
11591.308295948729
 21
8949.4438367356706
 31
0.0
  0
LINE
  5
53F0
  8
FUTO
 10
11576.308295948729
 20
8938.4438367356706
 30
0.0
 11
11576.308295948729
 21
9138.4438367356706
 31
0.0
  0
LINE
  5
53F1
  8
FUTO
 10
11476.308295948729
 20
9133.4438367356706
 30
0.0
 11
11467.308295948729
 21
9133.4438367356706
 31
0.0
  0
ARC
  5
53F2
  8
FUTO
 10
11467.308295948729
 20
9127.4438367356706
 30
0.0
 40
6.0
 50
90.0
 51
180.0
  0
LINE
  5
53F3
  8
FUTO
 10
11461.308295948729
 20
9118.4438367356706
 30
0.0
 11
11456.308295948729
 21
9118.4438367356706
 31
0.0
  0
ARC
  5
53F4
  8
FUTO
 10
11482.308295948729
 20
8966.4438367356706
 30
0.0
 40
6.0
 50
90.0
 51
180.0
  0
ARC
  5
53F5
  8
FUTO
 10
11467.308295948729
 20
8949.4438367356706
 30
0.0
 40
6.0
 50
180.0
 51
270.0
  0
LINE
  5
53F6
  8
FUTO
 10
11467.308295948729
 20
8943.4438367356706
 30
0.0
 11
11476.308295948729
 21
8943.4438367356706
 31
0.0
  0
LINE
  5
53F7
  8
FUTO
 10
11456.308295948729
 20
8958.4438367356706
 30
0.0
 11
11461.308295948729
 21
8958.4438367356706
 31
0.0
  0
LINE
  5
53F8
  8
FUTO
 10
11461.308295948729
 20
9127.4438367356706
 30
0.0
 11
11461.308295948729
 21
8949.4438367356706
 31
0.0
  0
LINE
  5
53F9
  8
FUTO
 10
11456.308295948729
 20
9118.4438367356706
 30
0.0
 11
11456.308295948729
 21
8958.4438367356706
 31
0.0
  0
LINE
  5
53FA
  8
FUTO
 10
11476.308295948729
 20
9138.4438367356706
 30
0.0
 11
11476.308295948729
 21
8938.4438367356706
 31
0.0
  0
LINE
  5
53FB
  8
FUTO
 10
11576.308295948729
 20
9138.4438367356706
 30
0.0
 11
11476.308295948729
 21
9138.4438367356706
 31
0.0
  0
LINE
  5
53FC
  8
FUTO
 10
11471.308295948729
 20
8938.4438367356706
 30
0.0
 11
11581.308295948729
 21
8938.4438367356706
 31
0.0
  0
LINE
  5
53FD
  8
FUTO
 10
11570.308295948729
 20
8972.4438367356706
 30
0.0
 11
11482.308295948729
 21
8972.4438367356706
 31
0.0
  0
LINE
  5
53FE
  8
KL
 10
8614.4496324422907
 20
8930.4438367356724
 30
0.0
 11
9385.7533782237351
 21
8930.4438367356706
 31
0.0
  0
LINE
  5
53FF
  8
FUTO
 10
9195.101505333012
 20
8938.4438367356706
 30
0.0
 11
9195.101505333012
 21
8930.4438367356706
 31
0.0
  0
LINE
  5
5400
  8
FUTO
 10
8805.1015053330102
 20
8938.4438367356706
 30
0.0
 11
8805.1015053330102
 21
8930.4438367356706
 31
0.0
  0
LINE
  5
5405
  8
FUTO
 10
9625.1015053330138
 20
7796.2713837946121
 30
0.0
 11
9625.1015053330138
 21
7788.4438367356697
 31
0.0
  0
LINE
  5
5408
  8
FUTO
 10
9385.7533782237351
 20
8930.4438367356706
 30
0.0
 11
9625.1015053330138
 21
7796.2713837946121
 31
0.0
  0
LINE
  5
540B
  8
KL
 10
8614.4496324422907
 20
8930.4438367356724
 30
0.0
 11
8470.4979558491887
 21
8248.3159750372379
 31
0.0
  0
LINE
  5
540E
  8
FUTO
 10
8375.1015053330102
 20
7796.2713837946121
 30
0.0
 11
8375.1015053330102
 21
7788.4438367356697
 31
0.0
  0
LINE
  5
5411
  8
FUTO
 10
9625.1015053330138
 20
7788.4438367356697
 30
0.0
 11
9625.1015053330138
 21
7638.4438367356706
 31
0.0
  0
LINE
  5
5412
  8
KL
 10
9200.101505333012
 20
9047.4438367356724
 30
0.0
 11
9200.101505333012
 21
9029.4438367356706
 31
0.0
  0
LINE
  5
5413
  8
KL
 10
8800.101505333012
 20
9047.4438367356724
 30
0.0
 11
8800.101505333012
 21
9029.4438367356706
 31
0.0
  0
LINE
  5
5414
  8
FUTO
 10
10184.576806243829
 20
9047.4438367356724
 30
0.0
 11
9379.9949114353039
 21
9047.4438367356724
 31
0.0
  0
LINE
  5
5415
  8
FUTO
 10
10184.576806243829
 20
9029.4438367356706
 30
0.0
 11
9379.9949114353039
 21
9029.4438367356706
 31
0.0
  0
LINE
  5
5416
  8
KL
 10
8800.101505333012
 20
9029.4438367356706
 30
0.0
 11
8445.1551078140456
 21
9029.4438367356706
 31
0.0
  0
LINE
  5
5417
  8
KL
 10
8800.101505333012
 20
9047.4438367356724
 30
0.0
 11
8463.7049914065992
 21
9047.4438367356724
 31
0.0
  0
LINE
  5
5418
  8
FUTO
 10
10184.576806243829
 20
9029.4438367356706
 30
0.0
 11
10184.576806243829
 21
9047.4438367356724
 31
0.0
  0
LINE
  5
5419
  8
CT
 10
10159.576806243829
 20
9008.4438367356706
 30
0.0
 11
10159.576806243829
 21
9068.4438367356706
 31
0.0
  0
ARC
  5
541E
  8
FUTO
 10
9097.1015053330138
 20
8941.4438367356706
 30
0.0
 40
1060.0
 50
0.000000000000007
 51
4.7621116560844801
  0
LINE
  5
541F
  8
FUTO
 10
9940.1015053330138
 20
9029.4438367356706
 30
0.0
 11
9940.1015053330138
 21
7788.4438367356697
 31
0.0
  0
LINE
  5
5420
  8
FUTO
 10
9931.101505333012
 20
9029.4438367356706
 30
0.0
 11
9931.101505333012
 21
7788.4438367356697
 31
0.0
  0
LINE
  5
5421
  8
FUTO
 10
7351.6329559195692
 20
9047.4438367356724
 30
0.0
 11
7351.6329559195692
 21
9029.4438367356706
 31
0.0
  0
LINE
  5
5422
  8
FUTO
 10
7376.6329559195701
 20
9068.4438367356706
 30
0.0
 11
7376.6329559195701
 21
9008.4438367356706
 31
0.0
  0
LINE
  5
5425
  8
FUTO
 10
8060.101505333012
 20
9029.4438367356706
 30
0.0
 11
8060.101505333012
 21
8655.8045731749626
 31
0.0
  0
LINE
  5
5426
  8
FUTO
 10
8069.101505333012
 20
9029.4438367356706
 30
0.0
 11
8069.101505333012
 21
8664.5377816175769
 31
0.0
  0
ARC
  5
543E
  8
FUTO
 10
8884.101505333012
 20
9154.4438367356706
 30
0.0
 40
1505.0
 50
184.7642740459097
 51
215.88754955206849
  0
CIRCLE
  5
544F
  8
SL
 10
9000.1015053330102
 20
9038.4438367356706
 30
0.0
 40
315.0
  0
ARC
  5
5451
  8
FUTO
 10
9000.1015053330102
 20
9038.4438367356706
 30
0.0
 40
380.0
 50
302.62038306565529
 51
134.1380647697145
  0
CIRCLE
  5
5453
  8
SL
 10
7750.101505333012
 20
8048.4438367356688
 30
0.0
 40
132.49999999999989
  0
ARC
  5
5454
  8
FUTO
 10
7750.101505333012
 20
8048.4438367356688
 30
0.0
 40
220.0
 50
134.1380647697145
 51
302.62038306565529
  0
LINE
  5
5455
  8
SL
 10
8777.5524697154397
 20
9261.3719120103851
 30
0.0
 11
7656.4896093986363
 21
8142.2151699861461
 31
0.0
  0
LINE
  5
5456
  8
SL
 10
9166.1262154569959
 20
8770.7484956700355
 30
0.0
 11
7819.9372960994497
 21
7935.8418281921904
 31
0.0
  0
LINE
  5
5457
  8
FUTO
 10
9204.9482781196511
 20
8718.3847801868851
 30
0.0
 11
7868.6970053673822
 21
7863.146488207426
 31
0.0
  0
LINE
  5
5458
  8
FUTO
 10
8735.4734063448504
 20
9311.1560829328482
 30
0.0
 11
7596.8957638135489
 21
8206.3298740077225
 31
0.0
  0
LINE
  5
5459
  8
CT
 10
11127.308295948729
 20
9038.4438367356706
 30
0.0
 11
13777.0862077656
 21
9038.4438367356706
 31
0.0
  0
LINE
  5
545A
  8
CT
 10
13007.308295948729
 20
10406.67521841348
 30
0.0
 11
13007.308295948729
 21
7300.1554834934122
 31
0.0
  0
LINE
  5
545B
  8
FUTO
 10
13601.308295948729
 20
7788.4438367356697
 30
0.0
 11
11451.30829594874
 21
7788.4438367356697
 31
0.0
  0
LINE
  5
545C
  8
FUTO
 10
13601.308295948729
 20
7638.4438367356706
 30
0.0
 11
11451.30829594874
 21
7638.4438367356706
 31
0.0
  0
LINE
  5
5505
  8
FUTO
 10
13601.308295948729
 20
7638.4438367356706
 30
0.0
 11
13676.308295948729
 21
7638.4438367356706
 31
0.0
  0
LINE
  5
5506
  8
FUTO
 10
13611.45967297774
 20
7651.1208693651361
 30
0.0
 11
13672.656918919731
 21
7645.7668041062052
 31
0.0
  0
LINE
  5
5507
  8
FUTO
 10
13601.308295948729
 20
7788.4438367356697
 30
0.0
 11
13676.308295948729
 21
7788.4438367356697
 31
0.0
  0
LINE
  5
5508
  8
FUTO
 10
13611.45967297774
 20
7775.7668041062043
 30
0.0
 11
13672.656918919731
 21
7781.1208693651361
 31
0.0
  0
LINE
  5
5509
  8
FUTO
 10
13607.808295948729
 20
7771.7820253138379
 30
0.0
 11
13607.808295948729
 21
7655.1056481575033
 31
0.0
  0
ARC
  5
550A
  8
FUTO
 10
13611.808295948729
 20
7655.1056481575033
 30
0.0
 40
4.0
 50
180.0
 51
264.99999999999989
  0
LINE
  5
550B
  8
FUTO
 10
13601.308295948729
 20
7788.4438367356697
 30
0.0
 11
13601.308295948729
 21
7638.4438367356706
 31
0.0
  0
ARC
  5
550C
  8
FUTO
 10
13611.808295948729
 20
7771.7820253138379
 30
0.0
 40
4.0
 50
95.000000000000057
 51
180.0
  0
LINE
  5
550D
  8
FUTO
 10
13676.308295948729
 20
7638.4438367356688
 30
0.0
 11
13676.308295948729
 21
7641.7820253138389
 31
0.0
  0
LINE
  5
550E
  8
FUTO
 10
13676.308295948729
 20
7788.4438367356697
 30
0.0
 11
13676.308295948729
 21
7785.1056481575033
 31
0.0
  0
ARC
  5
550F
  8
FUTO
 10
13672.308295948729
 20
7785.1056481575033
 30
0.0
 40
4.0
 50
275.00000000000051
 51
359.9999999999921
  0
ARC
  5
5510
  8
FUTO
 10
13672.308295948729
 20
7641.7820253138389
 30
0.0
 40
4.0
 50
0.0000000000078369
 51
84.999999999999503
  0
LINE
  5
5511
  8
FUTO
 10
11451.308295948729
 20
7788.4438367356697
 30
0.0
 11
11376.308295948729
 21
7788.4438367356697
 31
0.0
  0
LINE
  5
5512
  8
FUTO
 10
11441.156918919731
 20
7775.7668041062043
 30
0.0
 11
11379.95967297774
 21
7781.1208693651361
 31
0.0
  0
LINE
  5
5513
  8
FUTO
 10
11451.308295948729
 20
7638.4438367356706
 30
0.0
 11
11376.308295948729
 21
7638.4438367356688
 31
0.0
  0
LINE
  5
5514
  8
FUTO
 10
11441.156918919731
 20
7651.1208693651361
 30
0.0
 11
11379.95967297774
 21
7645.7668041062052
 31
0.0
  0
LINE
  5
5515
  8
FUTO
 10
11444.808295948729
 20
7655.1056481575033
 30
0.0
 11
11444.808295948729
 21
7771.7820253138379
 31
0.0
  0
ARC
  5
5516
  8
FUTO
 10
11440.808295948729
 20
7771.7820253138379
 30
0.0
 40
4.0
 50
0.0
 51
84.999999999999943
  0
LINE
  5
5517
  8
FUTO
 10
11451.308295948729
 20
7638.4438367356706
 30
0.0
 11
11451.308295948729
 21
7788.4438367356697
 31
0.0
  0
ARC
  5
5518
  8
FUTO
 10
11440.808295948729
 20
7655.1056481575033
 30
0.0
 40
4.0
 50
275.0
 51
0.0
  0
LINE
  5
5519
  8
FUTO
 10
11376.308295948729
 20
7788.4438367356697
 30
0.0
 11
11376.308295948729
 21
7785.1056481575033
 31
0.0
  0
LINE
  5
551A
  8
FUTO
 10
11376.308295948729
 20
7638.4438367356688
 30
0.0
 11
11376.308295948729
 21
7641.7820253138389
 31
0.0
  0
ARC
  5
551B
  8
FUTO
 10
11380.308295948729
 20
7641.7820253138389
 30
0.0
 40
4.0
 50
95.000000000000554
 51
179.9999999999921
  0
ARC
  5
551C
  8
FUTO
 10
11380.308295948729
 20
7785.1056481575033
 30
0.0
 40
4.0
 50
180.00000000000779
 51
264.99999999999949
  0
LINE
  5
551D
  8
FUTO
 10
13601.308295948729
 20
7651.4403367356708
 30
0.0
 11
11451.30829594874
 21
7651.4403367356708
 31
0.0
  0
LINE
  5
551E
  8
FUTO
 10
13601.308295948729
 20
7775.4473367356713
 30
0.0
 11
11451.30829594874
 21
7775.4473367356713
 31
0.0
  0
LINE
  5
551F
  8
FUTO
 10
7450.101505333012
 20
7651.4403367356708
 30
0.0
 11
9950.101505333012
 21
7651.4403367356708
 31
0.0
  0
LINE
  5
5520
  8
FUTO
 10
7450.101505333012
 20
7775.4473367356713
 30
0.0
 11
9950.101505333012
 21
7775.4473367356713
 31
0.0
  0
LINE
  5
5521
  8
FUTO
 10
12348.308295948729
 20
10083.443836735671
 30
0.0
 11
13666.308295948729
 21
10083.443836735671
 31
0.0
  0
LINE
  5
5522
  8
FUTO
 10
12417.308295948729
 20
10083.443836735671
 30
0.0
 11
12417.308295948729
 21
9047.4438367356724
 31
0.0
  0
LINE
  5
5523
  8
FUTO
 10
13597.308295948729
 20
10083.443836735671
 30
0.0
 11
13597.308295948729
 21
9047.4438367356724
 31
0.0
  0
LINE
  5
5524
  8
FUTO
 10
13600.50829594873
 20
10083.443836735671
 30
0.0
 11
13600.50829594873
 21
9047.4438367356724
 31
0.0
  0
LINE
  5
5525
  8
FUTO
 10
12414.108295948739
 20
10083.443836735671
 30
0.0
 11
12414.108295948739
 21
9047.4438367356724
 31
0.0
  0
LINE
  5
5526
  8
FUTO
 10
12339.10829594873
 20
10018.443836735671
 30
0.0
 11
13675.50829594873
 21
10018.443836735671
 31
0.0
  0
LINE
  5
5527
  8
FUTO
 10
12348.308295948729
 20
10077.443836735671
 30
0.0
 11
13666.308295948729
 21
10077.443836735671
 31
0.0
  0
LINE
  5
5528
  8
FUTO
 10
12348.308295948729
 20
10083.443836735671
 30
0.0
 11
12348.308295948729
 21
10018.443836735671
 31
0.0
  0
LINE
  5
5529
  8
FUTO
 10
13666.308295948729
 20
10083.443836735671
 30
0.0
 11
13666.308295948729
 21
10018.443836735671
 31
0.0
  0
LINE
  5
552A
  8
FUTO
 10
13675.50829594873
 20
10018.443836735671
 30
0.0
 11
13675.50829594873
 21
9057.4438367356743
 31
0.0
  0
LINE
  5
552B
  8
FUTO
 10
12339.10829594873
 20
10018.443836735671
 30
0.0
 11
12339.10829594873
 21
9057.4438367356706
 31
0.0
  0
LINE
  5
552C
  8
KL
 10
12417.308295948729
 20
7667.4438367356706
 30
0.0
 11
13597.308295948729
 21
7667.4438367356706
 31
0.0
  0
LINE
  5
552D
  8
KL
 10
12414.108295948739
 20
7649.4438367356697
 30
0.0
 11
12417.308295948729
 21
7649.4438367356697
 31
0.0
  0
LINE
  5
552E
  8
KL
 10
13597.308295948729
 20
7649.4438367356697
 30
0.0
 11
13600.50829594873
 21
7649.4438367356697
 31
0.0
  0
LINE
  5
552F
  8
KL
 10
12417.308295948729
 20
7788.4438367356724
 30
0.0
 11
12417.308295948729
 21
7649.4438367356697
 31
0.0
  0
LINE
  5
5530
  8
KL
 10
12414.108295948739
 20
7788.4438367356724
 30
0.0
 11
12414.108295948739
 21
7649.4438367356697
 31
0.0
  0
LINE
  5
5531
  8
KL
 10
13597.308295948729
 20
7788.4438367356697
 30
0.0
 11
13597.308295948729
 21
7649.4438367356697
 31
0.0
  0
LINE
  5
5532
  8
KL
 10
13600.50829594873
 20
7788.4438367356697
 30
0.0
 11
13600.50829594873
 21
7649.4438367356697
 31
0.0
  0
LINE
  5
5533
  8
CT
 10
12206.308295948729
 20
9198.8107947716344
 30
0.0
 11
12206.308295948729
 21
8866.7647459981363
 31
0.0
  0
LINE
  5
5534
  8
CT
 10
11526.308295948729
 20
9198.8107947716344
 30
0.0
 11
11526.308295948729
 21
8866.7647459981363
 31
0.0
  0
LINE
  5
5537
  8
CT
 10
12161.308295948729
 20
8970.3866935149417
 30
0.0
 11
12161.308295948729
 21
8880.3866935149417
 31
0.0
  0
LINE
  5
5538
  8
CT
 10
12251.308295948729
 20
8970.3866935149417
 30
0.0
 11
12251.308295948729
 21
8880.3866935149417
 31
0.0
  0
LINE
  5
5548
  8
FUTO
 10
12233.808295948729
 20
9158.4438367356706
 30
0.0
 11
12270.308295948729
 21
9158.4438367356706
 31
0.0
  0
LINE
  5
5549
  8
FUTO
 10
12233.808295948729
 20
9171.4438367356706
 30
0.0
 11
12233.808295948729
 21
8958.4438367356706
 31
0.0
  0
LINE
  5
554A
  8
FUTO
 10
12178.808295948729
 20
9171.4438367356706
 30
0.0
 11
12178.808295948729
 21
8958.4438367356706
 31
0.0
  0
ARC
  5
554B
  8
FUTO
 10
12273.308295948729
 20
8955.4438367356706
 30
0.0
 40
3.0
 50
0.0
 51
90.0
  0
ARC
  5
554C
  8
FUTO
 10
12139.308295948729
 20
8955.4438367356706
 30
0.0
 40
3.0
 50
90.000000000000028
 51
180.0
  0
LINE
  5
554D
  8
FUTO
 10
12284.308295948729
 20
9158.4438367356706
 30
0.0
 11
12270.308295948729
 21
9158.4438367356706
 31
0.0
  0
LINE
  5
554E
  8
FUTO
 10
12260.308295948729
 20
9171.4438367356706
 30
0.0
 11
12260.308295948729
 21
9158.4438367356706
 31
0.0
  0
LINE
  5
554F
  8
FUTO
 10
12142.308295948729
 20
9158.4438367356706
 30
0.0
 11
12178.808295948729
 21
9158.4438367356706
 31
0.0
  0
LINE
  5
5550
  8
FUTO
 10
12152.308295948729
 20
9171.4438367356706
 30
0.0
 11
12152.308295948729
 21
9158.4438367356706
 31
0.0
  0
LINE
  5
5551
  8
FUTO
 10
12128.308295948729
 20
9158.4438367356706
 30
0.0
 11
12142.308295948729
 21
9158.4438367356706
 31
0.0
  0
LINE
  5
5552
  8
FUTO
 10
12152.308295948729
 20
9171.4438367356706
 30
0.0
 11
12260.308295948729
 21
9171.4438367356706
 31
0.0
  0
LINE
  5
5553
  8
FUTO
 10
12284.308295948729
 20
8918.4438367356706
 30
0.0
 11
12276.308295948729
 21
8918.4438367356706
 31
0.0
  0
LINE
  5
5554
  8
FUTO
 10
12292.308295948729
 20
8958.4438367356706
 30
0.0
 11
12284.308295948729
 21
8938.4438367356706
 31
0.0
  0
LINE
  5
5555
  8
FUTO
 10
12276.308295948729
 20
8955.4438367356706
 30
0.0
 11
12276.308295948729
 21
8908.4438367356706
 31
0.0
  0
LINE
  5
5556
  8
FUTO
 10
12292.308295948729
 20
9118.4438367356706
 30
0.0
 11
12292.308295948729
 21
8958.4438367356706
 31
0.0
  0
LINE
  5
5557
  8
FUTO
 10
12128.308295948729
 20
8918.4438367356706
 30
0.0
 11
12136.308295948729
 21
8918.4438367356706
 31
0.0
  0
LINE
  5
5558
  8
FUTO
 10
12120.308295948729
 20
8958.4438367356706
 30
0.0
 11
12128.308295948729
 21
8938.4438367356706
 31
0.0
  0
LINE
  5
5559
  8
FUTO
 10
12136.308295948729
 20
8955.4438367356706
 30
0.0
 11
12136.308295948729
 21
8908.4438367356706
 31
0.0
  0
LINE
  5
555A
  8
FUTO
 10
12120.308295948729
 20
9118.4438367356706
 30
0.0
 11
12120.308295948729
 21
8958.4438367356706
 31
0.0
  0
LINE
  5
555B
  8
FUTO
 10
12139.308295948729
 20
8958.4438367356706
 30
0.0
 11
12273.308295948729
 21
8958.4438367356706
 31
0.0
  0
LINE
  5
555C
  8
FUTO
 10
12126.308295948729
 20
8908.4438367356706
 30
0.0
 11
12286.308295948729
 21
8908.4438367356706
 31
0.0
  0
LINE
  5
555D
  8
FUTO
 10
12270.308295948729
 20
9158.4438367356706
 30
0.0
 11
12270.308295948729
 21
8958.4438367356706
 31
0.0
  0
LINE
  5
555E
  8
FUTO
 10
12284.308295948729
 20
9158.4438367356706
 30
0.0
 11
12284.308295948729
 21
8918.4438367356706
 31
0.0
  0
LINE
  5
555F
  8
FUTO
 10
12292.308295948729
 20
9118.4438367356706
 30
0.0
 11
12284.308295948729
 21
9138.4438367356706
 31
0.0
  0
LINE
  5
5560
  8
FUTO
 10
12120.308295948729
 20
9118.4438367356706
 30
0.0
 11
12128.308295948729
 21
9138.4438367356706
 31
0.0
  0
LINE
  5
5561
  8
FUTO
 10
12128.308295948729
 20
9158.4438367356706
 30
0.0
 11
12128.308295948729
 21
8918.4438367356706
 31
0.0
  0
LINE
  5
5562
  8
FUTO
 10
12270.308295948729
 20
9158.4438367356706
 30
0.0
 11
12270.308295948729
 21
8958.4438367356706
 31
0.0
  0
LINE
  5
5563
  8
FUTO
 10
12142.308295948729
 20
9158.4438367356706
 30
0.0
 11
12142.308295948729
 21
8958.4438367356706
 31
0.0
  0
LINE
  5
55BF
  8
FUTO
 10
11601.308295948729
 20
8930.4438367356706
 30
0.0
 11
11451.308295948729
 21
8930.4438367356706
 31
0.0
  0
LINE
  5
55C1
  8
FUTO
 10
11601.308295948729
 20
8930.4438367356706
 30
0.0
 11
11601.308295948729
 21
8890.4438367356706
 31
0.0
  0
LINE
  5
55C6
  8
FUTO
 10
11451.308295948729
 20
8930.4438367356706
 30
0.0
 11
11451.308295948729
 21
7788.4438367356697
 31
0.0
  0
LINE
  5
55CC
  8
FUTO
 10
11471.308295948729
 20
8938.4438367356706
 30
0.0
 11
11471.308295948729
 21
8930.4438367356706
 31
0.0
  0
LINE
  5
55CD
  8
FUTO
 10
11581.308295948729
 20
8938.4438367356706
 30
0.0
 11
11581.308295948729
 21
8930.4438367356706
 31
0.0
  0
LINE
  5
55DF
  8
FUTO
 10
12116.308295948729
 20
8900.4438367356706
 30
0.0
 11
12296.308295948729
 21
8900.4438367356706
 31
0.0
  0
LINE
  5
55E0
  8
FUTO
 10
12296.308295948729
 20
8900.4438367356706
 30
0.0
 11
12296.308295948729
 21
7788.4438367356724
 31
0.0
  0
LINE
  5
55E6
  8
FUTO
 10
12116.308295948729
 20
8900.4438367356706
 30
0.0
 11
12116.308295948729
 21
8890.4438367356706
 31
0.0
  0
LINE
  5
55ED
  8
FUTO
 10
12126.308295948729
 20
8908.4438367356706
 30
0.0
 11
12126.308295948729
 21
8900.4438367356706
 31
0.0
  0
LINE
  5
55EE
  8
FUTO
 10
12286.308295948729
 20
8908.4438367356706
 30
0.0
 11
12286.308295948729
 21
8900.4438367356706
 31
0.0
  0
LINE
  5
55F3
  8
FUTO
 10
12116.308295948729
 20
8890.4438367356706
 30
0.0
 11
11601.308295948729
 21
8890.4438367356706
 31
0.0
  0
LINE
  5
5600
  8
FUTO
 10
12349.108295948739
 20
9047.4438367356724
 30
0.0
 11
13665.50829594873
 21
9047.4438367356724
 31
0.0
  0
LINE
  5
5601
  8
FUTO
 10
12349.108295948739
 20
9029.4438367356706
 30
0.0
 11
13665.50829594873
 21
9029.4438367356706
 31
0.0
  0
LINE
  5
5602
  8
FUTO
 10
12349.108295948739
 20
9047.4438367356724
 30
0.0
 11
12349.108295948739
 21
9029.4438367356706
 31
0.0
  0
LINE
  5
5603
  8
FUTO
 10
12417.308295948729
 20
9029.4438367356706
 30
0.0
 11
12417.308295948729
 21
7788.4438367356697
 31
0.0
  0
LINE
  5
5604
  8
FUTO
 10
12414.108295948739
 20
9029.4438367356706
 30
0.0
 11
12414.108295948739
 21
7788.4438367356697
 31
0.0
  0
LINE
  5
5605
  8
FUTO
 10
13600.50829594873
 20
9029.4438367356706
 30
0.0
 11
13600.50829594873
 21
7788.4438367356697
 31
0.0
  0
LINE
  5
5606
  8
FUTO
 10
13597.308295948729
 20
9029.4438367356706
 30
0.0
 11
13597.308295948729
 21
7788.4438367356697
 31
0.0
  0
LINE
  5
5608
  8
FUTO
 10
13665.50829594873
 20
9047.4438367356724
 30
0.0
 11
13675.50829594873
 21
9057.4438367356743
 31
0.0
  0
LINE
  5
5609
  8
FUTO
 10
13665.50829594873
 20
9029.4438367356706
 30
0.0
 11
13675.50829594873
 21
9019.4438367356706
 31
0.0
  0
LINE
  5
560A
  8
FUTO
 10
13675.50829594873
 20
9019.4438367356706
 30
0.0
 11
13675.50829594873
 21
7788.4438367356697
 31
0.0
  0
LINE
  5
560B
  8
FUTO
 10
12349.108295948739
 20
9047.4438367356724
 30
0.0
 11
12339.10829594873
 21
9057.4438367356706
 31
0.0
  0
LINE
  5
560C
  8
FUTO
 10
12349.108295948739
 20
9029.4438367356706
 30
0.0
 11
12339.10829594873
 21
9019.4438367356706
 31
0.0
  0
LINE
  5
560D
  8
FUTO
 10
12339.10829594873
 20
9019.4438367356706
 30
0.0
 11
12339.10829594873
 21
7788.4438367356697
 31
0.0
  0
LINE
  5
560E
  8
SL
 10
11266.30829594874
 20
9353.4438367356706
 30
0.0
 11
11266.308295948729
 21
7915.9438367356706
 31
0.0
  0
LINE
  5
560F
  8
SL
 10
11266.30829594874
 20
9353.4438367356706
 30
0.0
 11
11344.20829594874
 21
9353.4438367356706
 31
0.0
  0
LINE
  5
5610
  8
SL
 10
11266.308295948729
 20
8723.4438367356706
 30
0.0
 11
11344.208295948731
 21
8723.4438367356706
 31
0.0
  0
LINE
  5
5611
  8
SL
 10
11344.20829594874
 20
9353.4438367356706
 30
0.0
 11
11344.20829594874
 21
9118.4438367356706
 31
0.0
  0
LINE
  5
5613
  8
SL
 10
11366.30829594874
 20
9118.4438367356706
 30
0.0
 11
11366.30829594874
 21
8958.4438367356706
 31
0.0
  0
LINE
  5
5614
  8
SL
 10
11344.20829594874
 20
9118.4438367356706
 30
0.0
 11
11366.308295948729
 21
9118.4438367356706
 31
0.0
  0
LINE
  5
5615
  8
SL
 10
11344.208295948731
 20
8958.4438367356706
 30
0.0
 11
11366.308295948729
 21
8958.4438367356706
 31
0.0
  0
LINE
  5
5616
  8
SL
 10
11344.20829594874
 20
8958.4438367356706
 30
0.0
 11
11344.208295948731
 21
8723.4438367356706
 31
0.0
  0
LINE
  5
5617
  8
CT
 10
11127.308295948729
 20
8048.4438367356688
 30
0.0
 11
11443.308295948729
 21
8048.4438367356688
 31
0.0
  0
LINE
  5
5618
  8
SL
 10
11266.308295948729
 20
8180.9438367356697
 30
0.0
 11
11344.208295948731
 21
8180.9438367356697
 31
0.0
  0
LINE
  5
5619
  8
SL
 10
11266.308295948729
 20
7915.9438367356706
 30
0.0
 11
11344.208295948731
 21
7915.9438367356706
 31
0.0
  0
LINE
  5
561A
  8
SL
 10
11344.20829594874
 20
9353.4438367356706
 30
0.0
 11
11344.208295948731
 21
8118.4438367356697
 31
0.0
  0
LINE
  5
561B
  8
SL
 10
11364.308295948729
 20
8118.4438367356697
 30
0.0
 11
11364.308295948729
 21
7978.4438367356706
 31
0.0
  0
LINE
  5
561C
  8
SL
 10
11344.208295948731
 20
8118.4438367356697
 30
0.0
 11
11364.308295948729
 21
8118.4438367356697
 31
0.0
  0
LINE
  5
561D
  8
SL
 10
11344.208295948731
 20
7978.4438367356706
 30
0.0
 11
11364.308295948729
 21
7978.4438367356706
 31
0.0
  0
LINE
  5
561E
  8
SL
 10
11344.208295948731
 20
7978.4438367356706
 30
0.0
 11
11344.208295948731
 21
7915.9438367356706
 31
0.0
  0
LINE
  5
561F
  8
FUTO
 10
11127.30829594874
 20
9418.4438367356706
 30
0.0
 11
11416.30829594874
 21
9418.4438367356706
 31
0.0
  0
LINE
  5
5620
  8
FUTO
 10
11127.308295948729
 20
7828.4438367356706
 30
0.0
 11
11416.30829594874
 21
7828.4438367356706
 31
0.0
  0
LINE
  5
5621
  8
FUTO
 10
11127.30829594874
 20
9418.4438367356706
 30
0.0
 11
11127.308295948729
 21
7828.4438367356706
 31
0.0
  0
LINE
  5
5622
  8
FUTO
 10
11416.308295948729
 20
9418.4438367356706
 30
0.0
 11
11416.30829594874
 21
7828.4438367356706
 31
0.0
  0
LINE
  5
5623
  8
FUTO
 10
11596.308295948729
 20
9088.4438367356706
 30
0.0
 11
12120.308295948729
 21
9088.4438367356706
 31
0.0
  0
LINE
  5
5624
  8
FUTO
 10
11596.308295948729
 20
8988.4438367356706
 30
0.0
 11
12120.308295948729
 21
8988.4438367356706
 31
0.0
  0
LINE
  5
5625
  8
KL
 10
12292.308295948729
 20
9088.4438367356706
 30
0.0
 11
12414.10829594873
 21
9088.4438367356706
 31
0.0
  0
LINE
  5
5626
  8
KL
 10
12292.308295948729
 20
8988.4438367356706
 30
0.0
 11
12414.108295948739
 21
8988.4438367356706
 31
0.0
  0
LINE
  5
5627
  8
FUTO
 10
11366.308295948729
 20
9080.9438367356706
 30
0.0
 11
11456.308295948729
 21
9080.9438367356706
 31
0.0
  0
LINE
  5
5628
  8
FUTO
 10
11366.308295948729
 20
8995.9438367356706
 30
0.0
 11
11456.308295948729
 21
8995.9438367356706
 31
0.0
  0
LINE
  5
5694
  8
FUTO
 10
7450.101505333012
 20
11419.78097416912
 30
0.0
 11
9625.1015053330138
 21
11419.78097416912
 31
0.0
  0
LINE
  5
5695
  8
FUTO
 10
8050.101505333012
 20
13719.78097416912
 30
0.0
 11
9950.101505333012
 21
13719.78097416912
 31
0.0
  0
LINE
  5
5696
  8
FUTO
 10
9950.101505333012
 20
13719.78097416912
 30
0.0
 11
9950.101505333012
 21
13694.78097416912
 31
0.0
  0
LINE
  5
5699
  8
FUTO
 10
7302.101505333012
 20
12456.78097416912
 30
0.0
 11
8958.1015053330102
 21
12456.78097416912
 31
0.0
  0
LINE
  5
569A
  8
FUTO
 10
7450.101505333012
 20
12381.78097416912
 30
0.0
 11
9950.101505333012
 21
12381.78097416912
 31
0.0
  0
LINE
  5
569B
  8
FUTO
 10
7450.101505333012
 20
11494.78097416912
 30
0.0
 11
9625.1015053330138
 21
11494.78097416912
 31
0.0
  0
LINE
  5
569C
  8
FUTO
 10
7302.101505333012
 20
13644.78097416912
 30
0.0
 11
8958.1015053330102
 21
13644.78097416912
 31
0.0
  0
LINE
  5
56A0
  8
FUTO
 10
9625.1015053330138
 20
12381.78097416912
 30
0.0
 11
9625.1015053330138
 21
11419.78097416912
 31
0.0
  0
LINE
  5
56A2
  8
FUTO
 10
9550.101505333012
 20
12381.78097416912
 30
0.0
 11
9550.101505333012
 21
11494.78097416912
 31
0.0
  0
LINE
  5
56A4
  8
FUTO
 10
8375.1015053330102
 20
12381.78097416912
 30
0.0
 11
8375.1015053330102
 21
11494.78097416912
 31
0.0
  0
LINE
  5
56A6
  8
FUTO
 10
8050.101505333012
 20
13719.78097416912
 30
0.0
 11
8050.101505333012
 21
13709.78097416912
 31
0.0
  0
LINE
  5
56A7
  8
FUTO
 10
8450.101505333012
 20
12381.78097416912
 30
0.0
 11
8450.101505333012
 21
11494.78097416912
 31
0.0
  0
LINE
  5
56A8
  8
FUTO
 10
7450.101505333012
 20
12391.78097416912
 30
0.0
 11
7450.101505333012
 21
12381.78097416912
 31
0.0
  0
LINE
  5
56A9
  8
FUTO
 10
7450.1015053330129
 20
11494.78097416912
 30
0.0
 11
7450.101505333012
 21
11419.78097416912
 31
0.0
  0
LINE
  5
56AC
  8
FUTO
 10
7560.101505333012
 20
12381.78097416912
 30
0.0
 11
7560.101505333012
 21
12057.31953179727
 31
0.0
  0
LINE
  5
56AD
  8
FUTO
 10
7625.101505333012
 20
12381.78097416912
 30
0.0
 11
7625.101505333012
 21
12109.28097416912
 31
0.0
  0
LINE
  5
56AE
  8
FUTO
 10
7875.1015053330129
 20
12381.78097416912
 30
0.0
 11
7875.1015053330129
 21
12109.28097416912
 31
0.0
  0
LINE
  5
56AF
  8
FUTO
 10
7940.1015053330129
 20
12381.78097416912
 30
0.0
 11
7940.1015053330129
 21
12050.180937169111
 31
0.0
  0
LINE
  5
56B0
  8
CT
 10
7225.5150450535903
 20
13050.78097416912
 30
0.0
 11
10350.61750726307
 21
13050.78097416912
 31
0.0
  0
LINE
  5
69CC
  8
CT
 10
13577.308295948729
 20
9878.4438367356706
 30
0.0
 11
13620.50829594873
 21
9878.4438367356706
 31
0.0
  0
DIMENSION
  5
6A61
  8
SP
  2
*D3
 10
9000.1015053330102
 20
7122.9315265525674
 30
0.0
 11
9475.1015053330138
 21
7210.4315265525674
 31
0.0
 70
     0
 13
9950.101505333012
 23
7493.4438367356706
 33
0.0
 14
9000.1015053330102
 24
7493.4438367356706
 34
0.0
 50
180.0
1001
ACAD
1000
DSTYLE
1002
{
1070
    40
1040
35.0
1070
   147
1040
1.0
1070
    41
1040
2.5
1002
}
  0
DIMENSION
  5
6A6E
  8
SP
  2
*D4
 10
7450.101505333012
 20
7122.9315265525674
 30
0.0
 11
8225.1015053330138
 21
7210.4315265525674
 31
0.0
 70
     0
 13
9000.1015053330102
 23
7373.4438367356697
 33
0.0
 14
7450.101505333012
 24
7373.4438367356697
 34
0.0
 50
180.0
1001
ACAD
1000
DSTYLE
1002
{
1070
    40
1040
35.0
1070
   147
1040
1.0
1070
    41
1040
2.5
1002
}
  0
DIMENSION
  5
6A7B
  8
SP
  2
*D5
 10
7450.101505333012
 20
6872.8437825549108
 30
0.0
 11
8700.101505333012
 21
6960.3437825549108
 31
0.0
 70
     0
 13
9950.101505333012
 23
7373.4438367356697
 33
0.0
 14
7450.101505333012
 24
7373.4438367356697
 34
0.0
 50
180.0
1001
ACAD
1000
DSTYLE
1002
{
1070
    40
1040
35.0
1070
   147
1040
1.0
1070
    41
1040
2.5
1002
}
  0
DIMENSION
  5
6A88
  8
SP
  2
*D6
 10
13007.308295948729
 20
7122.9315031647284
 30
0.0
 11
12191.808295948729
 21
7210.4315031647293
 31
0.0
 70
     0
 13
11376.308295948729
 23
7373.4438367356697
 33
0.0
 14
13007.308295948729
 24
7373.4438367356697
 34
0.0
1001
ACAD
1000
DSTYLE
1002
{
1070
    40
1040
35.0
1070
   147
1040
1.0
1070
    41
1040
2.5
1002
}
  0
DIMENSION
  5
6A95
  8
SP
  2
*D7
 10
13676.308295948729
 20
7122.9315031647284
 30
0.0
 11
13341.808295948729
 21
7210.4315031647293
 31
0.0
 70
     0
 13
13007.308295948729
 23
7373.4438367356697
 33
0.0
 14
13676.308295948729
 24
7373.4438367356697
 34
0.0
1001
ACAD
1000
DSTYLE
1002
{
1070
    40
1040
35.0
1070
   147
1040
1.0
1070
    41
1040
2.5
1002
}
  0
DIMENSION
  5
6AA2
  8
SP
  2
*D8
 10
13676.308295948729
 20
6872.8437591670718
 30
0.0
 11
12526.308295948729
 21
6960.3437591670727
 31
0.0
 70
     0
 13
11376.308295948729
 23
7373.4438367356697
 33
0.0
 14
13676.308295948729
 24
7373.4438367356697
 34
0.0
1001
ACAD
1000
DSTYLE
1002
{
1070
    40
1040
35.0
1070
   147
1040
1.0
1070
    41
1040
2.5
1002
}
  0
LINE
  5
6AB0
  8
SP
 10
13007.308295948729
 20
10360.70283886451
 30
0.0
 11
13007.308295948729
 21
10395.702838864519
 31
0.0
  0
LINE
  5
6ADF
  8
FUTO
 10
13732.308295948729
 20
9903.4438367356724
 30
0.0
 11
13732.308295948729
 21
8173.4438367356688
 31
0.0
  0
LINE
  5
6AE1
  8
KL
 10
13600.50829594873
 20
9838.4438367356706
 30
0.0
 11
13732.308295948729
 21
9838.4438367356706
 31
0.0
  0
LINE
  5
6AE5
  8
KL
 10
13600.50829594873
 20
9903.4438367356724
 30
0.0
 11
13606.50829594873
 21
9903.4438367356724
 31
0.0
  0
LINE
  5
6AE7
  8
FUTO
 10
13726.308295948729
 20
9903.4438367356724
 30
0.0
 11
13726.308295948729
 21
8173.4438367356688
 31
0.0
  0
LINE
  5
6AE8
  8
FUTO
 10
13675.50829594873
 20
9844.4438367356706
 30
0.0
 11
13726.308295948729
 21
9844.4438367356706
 31
0.0
  0
LINE
  5
6AEA
  8
KL
 10
13606.50829594873
 20
9903.4438367356724
 30
0.0
 11
13606.50829594873
 21
9047.4438367356724
 31
0.0
  0
LINE
  5
6AEB
  8
FUTO
 10
13726.308295948729
 20
9903.4438367356724
 30
0.0
 11
13732.308295948729
 21
9903.4438367356724
 31
0.0
  0
LINE
  5
6AEC
  8
CT
 10
13707.308295948729
 20
9878.4438367356706
 30
0.0
 11
13750.50829594873
 21
9878.4438367356706
 31
0.0
  0
LINE
  5
6AED
  8
KL
 10
13600.50829594873
 20
8238.4438367356706
 30
0.0
 11
13732.308295948729
 21
8238.4438367356706
 31
0.0
  0
LINE
  5
6AEE
  8
CT
 10
13577.308295948729
 20
8198.4438367356706
 30
0.0
 11
13620.50829594873
 21
8198.4438367356706
 31
0.0
  0
LINE
  5
6AEF
  8
KL
 10
13600.50829594873
 20
8173.4438367356688
 30
0.0
 11
13606.50829594873
 21
8173.4438367356688
 31
0.0
  0
LINE
  5
6AF0
  8
CT
 10
13707.308295948729
 20
8198.4438367356706
 30
0.0
 11
13750.50829594873
 21
8198.4438367356706
 31
0.0
  0
LINE
  5
6AF1
  8
FUTO
 10
13675.50829594873
 20
8232.4438367356706
 30
0.0
 11
13726.308295948729
 21
8232.4438367356706
 31
0.0
  0
LINE
  5
6AF2
  8
FUTO
 10
13726.308295948729
 20
8173.4438367356688
 30
0.0
 11
13732.308295948729
 21
8173.4438367356688
 31
0.0
  0
LINE
  5
6AF3
  8
KL
 10
13606.50829594873
 20
9029.4438367356706
 30
0.0
 11
13606.50829594873
 21
8173.4438367356688
 31
0.0
  0
DIMENSION
  5
6B00
  8
SP
  2
*D9
 10
13732.308295948729
 20
10406.67521841348
 30
0.0
 11
13369.808295948729
 21
10494.17521841348
 31
0.0
 70
     0
 13
13007.308295948729
 23
10360.70283886451
 33
0.0
 14
13732.308295948729
 24
9903.4438367356724
 34
0.0
1001
ACAD
1000
DSTYLE
1002
{
1070
    40
1040
35.0
1070
   147
1040
1.0
1070
    41
1040
2.5
1002
}
  0
LINE
  5
6E16
  8
SL
 10
11617.52828200315
 20
8890.4438367356706
 30
0.0
 11
11617.52828200315
 21
9195.2611953392607
 31
0.0
  0
LINE
  5
6E17
  8
SL
 10
11617.52828200315
 20
9195.2611953392607
 30
0.0
 11
12103.48365443191
 21
9195.2611953392607
 31
0.0
  0
LINE
  5
6E18
  8
SL
 10
12103.48365443191
 20
9195.2611953392607
 30
0.0
 11
12103.48365443191
 21
8890.4438367356706
 31
0.0
  0
INSERT
  5
6E51
  8
FUTO
  2
右回転矢印
 10
9210.6072051042938
 20
9651.2451609829095
 30
0.0
 41
35.0
 42
35.0
 43
35.0
  0
INSERT
  5
6EE2
  8
FUTO
  2
まっすぐの矢印
 10
8603.1840046624166
 20
10314.3303604795
 30
0.0
 41
-35.0
 42
35.0
 43
35.0
  0
INSERT
  5
6EEC
  8
FUTO
  2
まっすぐの矢印
 10
13778.776275519889
 20
9566.1455370792337
 30
0.0
 41
35.0
 42
35.0
 43
35.0
 50
90.0
  0
DIMENSION
  5
6F64
  8
SP
  2
*D10
 10
14011.50169715061
 20
8238.4438367356706
 30
0.0
 11
13924.00169715061
 21
9038.4438367356743
 31
0.0
 70
     0
 13
13732.308295948729
 23
9838.4438367356706
 33
0.0
 14
13732.308295948729
 24
8238.4438367356706
 34
0.0
 50
90.0
1001
ACAD
1000
DSTYLE
1002
{
1070
    40
1040
35.0
1070
     3
1000
φ<>
1070
   147
1040
1.0
1070
    41
1040
2.5
1002
}
  0
DIMENSION
  5
6FB2
  8
SP
  2
*D11
 10
13007.308295948729
 20
10406.67521841348
 30
0.0
 11
12067.308295948729
 21
10494.17521841348
 31
0.0
 70
     0
 13
11127.30829594874
 23
9418.4438367356706
 33
0.0
 14
13007.308295948729
 24
10406.67521841348
 34
0.0
1001
ACAD
1000
DSTYLE
1002
{
1070
    40
1040
35.0
1070
    41
1040
2.5
1070
   147
1040
1.0
1002
}
  0
LINE
  5
6FD7
  8
CT
 10
9000.1015053330102
 20
11170.78097416912
 30
0.0
 11
9000.1015053330102
 21
13820.55888598598
 31
0.0
  0
LINE
  5
6FDA
  8
FUTO
 10
9380.101505333012
 20
11170.78097416912
 30
0.0
 11
7546.601505333012
 21
11170.78097416912
 31
0.0
  0
LINE
  5
6FDB
  8
FUTO
 10
9380.101505333012
 20
11459.78097416912
 30
0.0
 11
7546.601505333012
 21
11459.78097416912
 31
0.0
  0
LINE
  5
6FDC
  8
SL
 10
9315.1015053330138
 20
11387.68097416912
 30
0.0
 11
7882.6015053330111
 21
11387.68097416912
 31
0.0
  0
LINE
  5
6FDD
  8
SL
 10
9315.1015053330138
 20
11309.78097416912
 30
0.0
 11
7617.6015053330129
 21
11309.78097416912
 31
0.0
  0
LINE
  5
6FE5
  8
SL
 10
7882.6015053330111
 20
11407.780974169111
 30
0.0
 11
7617.601505333012
 21
11407.780974169111
 31
0.0
  0
LINE
  5
6FE8
  8
FUTO
 10
9380.101505333012
 20
11170.78097416912
 30
0.0
 11
9380.101505333012
 21
11459.78097416912
 31
0.0
  0
LINE
  5
6FE9
  8
SL
 10
8920.1015053330138
 20
11387.68097416912
 30
0.0
 11
8920.1015053330138
 21
11409.78097416912
 31
0.0
  0
LINE
  5
6FEA
  8
SL
 10
9080.1015053330102
 20
11387.68097416912
 30
0.0
 11
9080.1015053330102
 21
11409.78097416912
 31
0.0
  0
LINE
  5
6FEB
  8
SL
 10
9315.1015053330138
 20
11387.68097416912
 30
0.0
 11
9080.1015053330102
 21
11387.68097416912
 31
0.0
  0
LINE
  5
6FEC
  8
SL
 10
8920.1015053330138
 20
11387.68097416912
 30
0.0
 11
8685.101505333012
 21
11387.68097416912
 31
0.0
  0
LINE
  5
6FED
  8
SL
 10
8685.101505333012
 20
11309.78097416912
 30
0.0
 11
8685.101505333012
 21
11387.68097416912
 31
0.0
  0
LINE
  5
6FEE
  8
SL
 10
9315.1015053330138
 20
11309.78097416912
 30
0.0
 11
9315.1015053330138
 21
11387.68097416912
 31
0.0
  0
LINE
  5
6FF1
  8
FUTO
 10
8950.101505333012
 20
11639.78097416912
 30
0.0
 11
8950.101505333012
 21
12163.78097416912
 31
0.0
  0
LINE
  5
6FF2
  8
FUTO
 10
9050.101505333012
 20
11639.78097416912
 30
0.0
 11
9050.101505333012
 21
12163.78097416912
 31
0.0
  0
LINE
  5
6FF5
  8
CT
 10
9160.4684633689758
 20
11569.78097416912
 30
0.0
 11
8828.4224145954795
 21
11569.78097416912
 31
0.0
  0
LINE
  5
6FF6
  8
FUTO
 10
9100.1015053330138
 20
11519.78097416912
 30
0.0
 11
8900.101505333012
 21
11519.78097416912
 31
0.0
  0
ARC
  5
6FF7
  8
FUTO
 10
8911.1015053330138
 20
11510.78097416912
 30
0.0
 40
6.0
 50
180.0
 51
270.0
  0
LINE
  5
6FF8
  8
FUTO
 10
8900.101505333012
 20
11619.78097416912
 30
0.0
 11
9100.1015053330138
 21
11619.78097416912
 31
0.0
  0
ARC
  5
6FF9
  8
FUTO
 10
8911.1015053330138
 20
11628.78097416912
 30
0.0
 40
6.0
 50
90.0
 51
180.0
  0
LINE
  5
6FFD
  8
FUTO
 10
8905.101505333012
 20
11510.78097416912
 30
0.0
 11
8905.101505333012
 21
11519.78097416912
 31
0.0
  0
LINE
  5
7000
  8
FUTO
 10
8905.101505333012
 20
11628.78097416912
 30
0.0
 11
8905.101505333012
 21
11619.78097416912
 31
0.0
  0
ARC
  5
7001
  8
FUTO
 10
9089.101505333012
 20
11510.78097416912
 30
0.0
 40
6.0
 50
270.0
 51
0.000000000000007
  0
ARC
  5
7002
  8
FUTO
 10
9089.101505333012
 20
11628.78097416912
 30
0.0
 40
6.0
 50
0.000000000000007
 51
90.0
  0
LINE
  5
7004
  8
FUTO
 10
8957.6015053330138
 20
11409.78097416912
 30
0.0
 11
8957.6015053330138
 21
11499.78097416912
 31
0.0
  0
LINE
  5
7005
  8
FUTO
 10
9042.601505333012
 20
11409.78097416912
 30
0.0
 11
9042.601505333012
 21
11499.78097416912
 31
0.0
  0
LINE
  5
7006
  8
SL
 10
9080.1015053330102
 20
11409.78097416912
 30
0.0
 11
8920.1015053330138
 21
11409.78097416912
 31
0.0
  0
LINE
  5
7007
  8
FUTO
 10
9080.1015053330102
 20
11499.78097416912
 30
0.0
 11
8920.1015053330138
 21
11499.78097416912
 31
0.0
  0
LINE
  5
7008
  8
FUTO
 10
9089.101505333012
 20
11504.78097416912
 30
0.0
 11
8911.1015053330138
 21
11504.78097416912
 31
0.0
  0
LINE
  5
7009
  8
FUTO
 10
8920.1015053330138
 20
11499.78097416912
 30
0.0
 11
8920.1015053330138
 21
11504.78097416912
 31
0.0
  0
LINE
  5
700B
  8
FUTO
 10
9080.1015053330102
 20
11504.78097416912
 30
0.0
 11
9080.1015053330102
 21
11499.78097416912
 31
0.0
  0
LINE
  5
700C
  8
FUTO
 10
9089.101505333012
 20
11634.78097416912
 30
0.0
 11
8911.1015053330138
 21
11634.78097416912
 31
0.0
  0
LINE
  5
700D
  8
FUTO
 10
9080.1015053330102
 20
11639.78097416912
 30
0.0
 11
8920.1015053330138
 21
11639.78097416912
 31
0.0
  0
LINE
  5
700F
  8
FUTO
 10
8920.1015053330138
 20
11639.78097416912
 30
0.0
 11
8920.1015053330138
 21
11634.78097416912
 31
0.0
  0
LINE
  5
7010
  8
FUTO
 10
9080.1015053330102
 20
11634.78097416912
 30
0.0
 11
9080.1015053330102
 21
11639.78097416912
 31
0.0
  0
LINE
  5
7011
  8
FUTO
 10
9100.1015053330138
 20
11619.78097416912
 30
0.0
 11
9100.1015053330138
 21
11519.78097416912
 31
0.0
  0
LINE
  5
7012
  8
FUTO
 10
9095.101505333012
 20
11519.78097416912
 30
0.0
 11
9095.101505333012
 21
11510.78097416912
 31
0.0
  0
LINE
  5
7013
  8
FUTO
 10
9095.101505333012
 20
11619.78097416912
 30
0.0
 11
9095.101505333012
 21
11628.78097416912
 31
0.0
  0
LINE
  5
7015
  8
FUTO
 10
9120.101505333012
 20
12171.78097416912
 30
0.0
 11
8880.101505333012
 21
12171.78097416912
 31
0.0
  0
LINE
  5
7016
  8
FUTO
 10
9120.101505333012
 20
12327.78097416912
 30
0.0
 11
8880.101505333012
 21
12327.78097416912
 31
0.0
  0
LINE
  5
7018
  8
FUTO
 10
8920.1015053330138
 20
12163.78097416912
 30
0.0
 11
8900.101505333012
 21
12171.78097416912
 31
0.0
  0
LINE
  5
701A
  8
FUTO
 10
8920.1015053330138
 20
12335.78097416912
 30
0.0
 11
8900.101505333012
 21
12327.78097416912
 31
0.0
  0
LINE
  5
701D
  8
CT
 10
9160.4684633689758
 20
12249.78097416912
 30
0.0
 11
8828.4224145954795
 21
12249.78097416912
 31
0.0
  0
LINE
  5
7022
  8
FUTO
 10
8880.101505333012
 20
12171.78097416912
 30
0.0
 11
8880.101505333012
 21
12179.78097416912
 31
0.0
  0
LINE
  5
7024
  8
FUTO
 10
8880.101505333012
 20
12327.78097416912
 30
0.0
 11
8880.101505333012
 21
12319.78097416912
 31
0.0
  0
LINE
  5
7026
  8
FUTO
 10
9133.101505333012
 20
12195.78097416912
 30
0.0
 11
9133.101505333012
 21
12303.78097416912
 31
0.0
  0
LINE
  5
7027
  8
FUTO
 10
9120.101505333012
 20
12185.78097416912
 30
0.0
 11
8880.101505333012
 21
12185.78097416912
 31
0.0
  0
LINE
  5
7028
  8
FUTO
 10
9080.1015053330102
 20
12163.78097416912
 30
0.0
 11
9100.1015053330138
 21
12171.78097416912
 31
0.0
  0
LINE
  5
7029
  8
FUTO
 10
9133.101505333012
 20
12222.28097416912
 30
0.0
 11
8867.101505333012
 21
12222.28097416912
 31
0.0
  0
LINE
  5
702A
  8
FUTO
 10
9080.1015053330102
 20
12163.78097416912
 30
0.0
 11
8920.1015053330138
 21
12163.78097416912
 31
0.0
  0
LINE
  5
702C
  8
FUTO
 10
9120.101505333012
 20
12171.78097416912
 30
0.0
 11
9120.101505333012
 21
12185.78097416912
 31
0.0
  0
LINE
  5
702D
  8
FUTO
 10
9133.101505333012
 20
12195.78097416912
 30
0.0
 11
9120.101505333012
 21
12195.78097416912
 31
0.0
  0
LINE
  5
702E
  8
FUTO
 10
9120.101505333012
 20
12185.78097416912
 30
0.0
 11
9120.101505333012
 21
12222.28097416912
 31
0.0
  0
LINE
  5
702F
  8
FUTO
 10
9120.101505333012
 20
12313.78097416912
 30
0.0
 11
8920.1015053330138
 21
12313.78097416912
 31
0.0
  0
LINE
  5
7030
  8
FUTO
 10
9080.1015053330102
 20
12335.78097416912
 30
0.0
 11
9100.1015053330138
 21
12327.78097416912
 31
0.0
  0
LINE
  5
7031
  8
FUTO
 10
9120.101505333012
 20
12313.78097416912
 30
0.0
 11
8880.101505333012
 21
12313.78097416912
 31
0.0
  0
LINE
  5
7032
  8
FUTO
 10
9133.101505333012
 20
12277.28097416912
 30
0.0
 11
8867.101505333012
 21
12277.28097416912
 31
0.0
  0
LINE
  5
7033
  8
KL
 10
8950.101505333012
 20
12335.78097416912
 30
0.0
 11
8950.101505333012
 21
12457.580974169119
 31
0.0
  0
LINE
  5
7034
  8
KL
 10
9050.101505333012
 20
12335.78097416912
 30
0.0
 11
9050.101505333012
 21
12457.580974169119
 31
0.0
  0
LINE
  5
7035
  8
FUTO
 10
9080.1015053330102
 20
12335.78097416912
 30
0.0
 11
8920.1015053330138
 21
12335.78097416912
 31
0.0
  0
LINE
  5
703A
  8
FUTO
 10
9133.101505333012
 20
12303.78097416912
 30
0.0
 11
9120.101505333012
 21
12303.78097416912
 31
0.0
  0
LINE
  5
703B
  8
FUTO
 10
9120.101505333012
 20
12327.78097416912
 30
0.0
 11
9120.101505333012
 21
12313.78097416912
 31
0.0
  0
LINE
  5
703C
  8
FUTO
 10
9120.101505333012
 20
12277.28097416912
 30
0.0
 11
9120.101505333012
 21
12313.78097416912
 31
0.0
  0
LINE
  5
703F
  8
KL
 10
8991.1015053330102
 20
13649.980974169121
 30
0.0
 11
8135.1015053330111
 21
13649.980974169121
 31
0.0
  0
LINE
  5
7040
  8
FUTO
 10
9865.1015053330138
 20
13769.78097416912
 30
0.0
 11
8135.1015053330111
 21
13769.78097416912
 31
0.0
  0
LINE
  5
7041
  8
FUTO
 10
9865.1015053330138
 20
13775.78097416912
 30
0.0
 11
8135.1015053330111
 21
13775.78097416912
 31
0.0
  0
LINE
  5
7045
  8
KL
 10
8135.1015053330111
 20
13643.980974169121
 30
0.0
 11
8135.1015053330111
 21
13649.980974169121
 31
0.0
  0
LINE
  5
7046
  8
FUTO
 10
8135.1015053330111
 20
13769.78097416912
 30
0.0
 11
8135.1015053330111
 21
13775.78097416912
 31
0.0
  0
LINE
  5
7047
  8
FUTO
 10
8194.101505333012
 20
13718.980974169121
 30
0.0
 11
8194.101505333012
 21
13769.78097416912
 31
0.0
  0
LINE
  5
7048
  8
KL
 10
8200.101505333012
 20
13643.980974169121
 30
0.0
 11
8200.101505333012
 21
13775.78097416912
 31
0.0
  0
LINE
  5
7049
  8
CT
 10
8160.1015053330111
 20
13620.78097416912
 30
0.0
 11
8160.1015053330111
 21
13663.980974169121
 31
0.0
  0
LINE
  5
704A
  8
CT
 10
8160.1015053330111
 20
13750.78097416912
 30
0.0
 11
8160.1015053330111
 21
13793.980974169121
 31
0.0
  0
LINE
  5
704E
  8
KL
 10
9865.1015053330138
 20
13649.980974169121
 30
0.0
 11
9009.101505333012
 21
13649.980974169121
 31
0.0
  0
INSERT
  5
7052
  8
FUTO
  2
まっすぐの矢印
 10
9256.9627576239818
 20
13822.24895374028
 30
0.0
 41
-35.0
 42
35.0
 43
35.0
 50
180.0
  0
LINE
  5
7053
  8
FUTO
 10
9806.101505333012
 20
13718.980974169121
 30
0.0
 11
9806.101505333012
 21
13769.78097416912
 31
0.0
  0
LINE
  5
7054
  8
KL
 10
9800.101505333012
 20
13643.980974169121
 30
0.0
 11
9800.101505333012
 21
13775.78097416912
 31
0.0
  0
LINE
  5
7055
  8
CT
 10
9840.1015053330138
 20
13620.78097416912
 30
0.0
 11
9840.1015053330138
 21
13663.980974169121
 31
0.0
  0
LINE
  5
7056
  8
CT
 10
9840.1015053330138
 20
13750.78097416912
 30
0.0
 11
9840.1015053330138
 21
13793.980974169121
 31
0.0
  0
LINE
  5
7057
  8
KL
 10
9865.1015053330138
 20
13643.980974169121
 30
0.0
 11
9865.1015053330138
 21
13649.980974169121
 31
0.0
  0
LINE
  5
7058
  8
FUTO
 10
9865.1015053330138
 20
13769.78097416912
 30
0.0
 11
9865.1015053330138
 21
13775.78097416912
 31
0.0
  0
LINE
  5
7096
  8
FUTO
 10
8900.101505333012
 20
11619.78097416912
 30
0.0
 11
8900.101505333012
 21
11519.78097416912
 31
0.0
  0
LINE
  5
7097
  8
FUTO
 10
8867.101505333012
 20
12195.78097416912
 30
0.0
 11
8867.101505333012
 21
12303.78097416912
 31
0.0
  0
LINE
  5
7098
  8
FUTO
 10
8880.101505333012
 20
12185.78097416912
 30
0.0
 11
8880.101505333012
 21
12222.28097416912
 31
0.0
  0
LINE
  5
7099
  8
FUTO
 10
8867.101505333012
 20
12195.78097416912
 30
0.0
 11
8880.101505333012
 21
12195.78097416912
 31
0.0
  0
LINE
  5
709A
  8
FUTO
 10
8880.101505333012
 20
12171.78097416912
 30
0.0
 11
8880.101505333012
 21
12185.78097416912
 31
0.0
  0
LINE
  5
709B
  8
FUTO
 10
8880.101505333012
 20
12277.28097416912
 30
0.0
 11
8880.101505333012
 21
12313.78097416912
 31
0.0
  0
LINE
  5
709C
  8
FUTO
 10
8880.101505333012
 20
12327.78097416912
 30
0.0
 11
8880.101505333012
 21
12313.78097416912
 31
0.0
  0
LINE
  5
709D
  8
FUTO
 10
8867.101505333012
 20
12303.78097416912
 30
0.0
 11
8880.101505333012
 21
12303.78097416912
 31
0.0
  0
ARC
  5
7D1A
  8
FUTO
 10
7750.101505333012
 20
11410.78097416912
 30
0.0
 40
9.0
 50
0.000000000000007
 51
180.0
  0
LINE
  5
7D1B
  8
FUTO
 10
7741.101505333012
 20
11309.78097416912
 30
0.0
 11
7741.101505333012
 21
11410.78097416912
 31
0.0
  0
LINE
  5
7D1C
  8
FUTO
 10
7759.1015053330111
 20
11309.78097416912
 30
0.0
 11
7759.1015053330129
 21
11410.78097416912
 31
0.0
  0
LINE
  5
7D1D
  8
FUTO
 10
7493.1015663330109
 20
11824.280913169119
 30
0.0
 11
7493.1015663330109
 21
11860.280974169111
 31
0.0
  0
LINE
  5
7D1E
  8
FUTO
 10
7490.1015663330109
 20
11824.280913169119
 30
0.0
 11
7490.1015663330109
 21
11860.280974169111
 31
0.0
  0
LINE
  5
7D1F
  8
FUTO
 10
7498.1015663330118
 20
11824.280913169119
 30
0.0
 11
7498.1015663330118
 21
11871.28097416912
 31
0.0
  0
LINE
  5
7D20
  8
FUTO
 10
7540.101505333012
 20
11485.28097416912
 30
0.0
 11
7540.101505333012
 21
11532.15597416912
 31
0.0
  0
LINE
  5
7D21
  8
FUTO
 10
7592.4098703374884
 20
11480.28097416912
 30
0.0
 11
7545.101505333012
 21
11480.28097416912
 31
0.0
  0
ARC
  5
7D22
  8
FUTO
 10
7545.1015053330111
 20
11485.28097416912
 30
0.0
 40
5.0
 50
180.0
 51
270.0
  0
LINE
  5
7D23
  8
FUTO
 10
7560.4201601145851
 20
11532.15597416912
 30
0.0
 11
7540.101505333012
 21
11532.15597416912
 31
0.0
  0
LINE
  5
7D24
  8
FUTO
 10
7540.101505333012
 20
11530.28097416912
 30
0.0
 11
7493.1015663330109
 21
11530.28097416912
 31
0.0
  0
LINE
  5
7D25
  8
FUTO
 10
7540.101505333012
 20
11527.28097416912
 30
0.0
 11
7490.1015663330109
 21
11527.28097416912
 31
0.0
  0
LINE
  5
7D26
  8
FUTO
 10
7560.3110317647297
 20
11535.280974169111
 30
0.0
 11
7498.1015663330118
 21
11535.280974169111
 31
0.0
  0
LINE
  5
7D27
  8
FUTO
 10
7498.1015663330118
 20
11535.280974169111
 30
0.0
 11
7493.1015663330109
 21
11530.28097416912
 31
0.0
  0
LINE
  5
7D28
  8
FUTO
 10
7465.1015663330109
 20
11570.28097416912
 30
0.0
 11
7465.1015663330109
 21
11610.28097416912
 31
0.0
  0
LINE
  5
7D29
  8
FUTO
 10
7495.1015663330118
 20
11570.28097416912
 30
0.0
 11
7495.1015663330118
 21
11610.28097416912
 31
0.0
  0
LINE
  5
7D2A
  8
FUTO
 10
7465.1015663330109
 20
11610.28097416912
 30
0.0
 11
7495.1015663330118
 21
11610.28097416912
 31
0.0
  0
LINE
  5
7D2B
  8
FUTO
 10
7495.1015663330118
 20
11570.28097416912
 30
0.0
 11
7465.1015663330109
 21
11570.28097416912
 31
0.0
  0
LINE
  5
7D2C
  8
CT
 10
7546.6015053330111
 20
11590.28097416912
 30
0.0
 11
7379.0471233330127
 21
11590.28097416912
 31
0.0
  0
LINE
  5
7D2D
  8
FUTO
 10
7390.6470983330119
 20
11607.87081816912
 30
0.0
 11
7402.7470743330132
 21
11607.87081816912
 31
0.0
  0
LINE
  5
7D2E
  8
FUTO
 10
7390.6470983330119
 20
11572.69113116912
 30
0.0
 11
7402.7470743330132
 21
11572.69113116912
 31
0.0
  0
LINE
  5
7D2F
  8
FUTO
 10
7390.6470983330119
 20
11599.986052169121
 30
0.0
 11
7402.7470743330132
 21
11599.986052169121
 31
0.0
  0
LINE
  5
7D30
  8
FUTO
 10
7390.6470983330119
 20
11580.575896169121
 30
0.0
 11
7402.7470743330132
 21
11580.575896169121
 31
0.0
  0
LINE
  5
7D31
  8
FUTO
 10
7389.0471233330109
 20
11606.271209169119
 30
0.0
 11
7389.0471233330109
 21
11574.29171616912
 31
0.0
  0
LINE
  5
7D32
  8
FUTO
 10
7390.6470983330119
 20
11572.69113116912
 30
0.0
 11
7389.0471233330109
 21
11574.29171616912
 31
0.0
  0
LINE
  5
7D33
  8
FUTO
 10
7390.6470983330119
 20
11580.575896169121
 30
0.0
 11
7389.0471233330109
 21
11578.97628716912
 31
0.0
  0
LINE
  5
7D34
  8
FUTO
 10
7390.6470983330119
 20
11580.575896169121
 30
0.0
 11
7389.0471233330109
 21
11582.176482169119
 31
0.0
  0
LINE
  5
7D35
  8
FUTO
 10
7389.0471233330109
 20
11606.271209169119
 30
0.0
 11
7390.6470983330119
 21
11607.87081816912
 31
0.0
  0
LINE
  5
7D36
  8
FUTO
 10
7390.6470983330119
 20
11599.986052169121
 30
0.0
 11
7389.0471233330109
 21
11601.586638169119
 31
0.0
  0
LINE
  5
7D37
  8
FUTO
 10
7390.6470983330119
 20
11599.986052169121
 30
0.0
 11
7389.0471233330109
 21
11598.38644316912
 31
0.0
  0
LINE
  5
7D38
  8
FUTO
 10
7402.7470743330132
 20
11607.87081816912
 30
0.0
 11
7402.7470743330132
 21
11572.69113116912
 31
0.0
  0
LINE
  5
7D39
  8
FUTO
 10
7402.7470743330132
 20
11581.28097416912
 30
0.0
 11
7465.1015663330109
 21
11581.28097416912
 31
0.0
  0
LINE
  5
7D3A
  8
HOSO
 10
7465.1015663330109
 20
11583.28097416912
 30
0.0
 11
7402.7470133330107
 21
11583.28097416912
 31
0.0
  0
LINE
  5
7D3B
  8
HOSO
 10
7402.7470743330132
 20
11597.280974169111
 30
0.0
 11
7465.1015663330109
 21
11597.280974169111
 31
0.0
  0
LINE
  5
7D3C
  8
FUTO
 10
7465.1015663330109
 20
11599.280974169111
 30
0.0
 11
7402.7470133330107
 21
11599.280974169111
 31
0.0
  0
LINE
  5
7D3D
  8
FUTO
 10
7495.1015663330118
 20
11581.28097416912
 30
0.0
 11
7546.601505333012
 21
11581.28097416912
 31
0.0
  0
LINE
  5
7D3E
  8
HOSO
 10
7546.601505333012
 20
11583.28097416912
 30
0.0
 11
7495.1015663330118
 21
11583.28097416912
 31
0.0
  0
LINE
  5
7D3F
  8
FUTO
 10
7546.601505333012
 20
11599.280974169111
 30
0.0
 11
7495.1015663330118
 21
11599.280974169111
 31
0.0
  0
LINE
  5
7D40
  8
HOSO
 10
7495.1015663330118
 20
11597.28097416912
 30
0.0
 11
7546.601505333012
 21
11597.280974169111
 31
0.0
  0
LINE
  5
7D41
  8
FUTO
 10
7490.1015663330109
 20
11527.28097416912
 30
0.0
 11
7490.1015663330109
 21
11570.28097416912
 31
0.0
  0
LINE
  5
7D42
  8
FUTO
 10
7493.1015663330109
 20
11530.28097416912
 30
0.0
 11
7493.1015663330109
 21
11570.28097416912
 31
0.0
  0
LINE
  5
7D43
  8
FUTO
 10
7498.1015663330118
 20
11535.280974169111
 30
0.0
 11
7498.1015663330118
 21
11581.28097416912
 31
0.0
  0
LINE
  5
7D44
  8
FUTO
 10
7490.1015663330109
 20
11610.28097416912
 30
0.0
 11
7490.1015663330109
 21
11646.28097416912
 31
0.0
  0
LINE
  5
7D45
  8
FUTO
 10
7493.1015663330109
 20
11610.28097416912
 30
0.0
 11
7493.1015663330109
 21
11646.28097416912
 31
0.0
  0
LINE
  5
7D46
  8
FUTO
 10
7498.1015663330118
 20
11599.280974169111
 30
0.0
 11
7498.1015663330118
 21
11646.28097416912
 31
0.0
  0
LINE
  5
7D47
  8
FUTO
 10
7465.1015663330109
 20
11871.28097416912
 30
0.0
 11
7402.7470133330107
 21
11871.28097416912
 31
0.0
  0
LINE
  5
7D48
  8
HOSO
 10
7402.7470743330132
 20
11873.28097416912
 30
0.0
 11
7465.1015663330109
 21
11873.28097416912
 31
0.0
  0
LINE
  5
7D49
  8
HOSO
 10
7465.1015663330109
 20
11887.28097416912
 30
0.0
 11
7402.7470133330107
 21
11887.28097416912
 31
0.0
  0
LINE
  5
7D4A
  8
FUTO
 10
7402.7470743330132
 20
11889.28097416912
 30
0.0
 11
7465.1015663330109
 21
11889.28097416912
 31
0.0
  0
LINE
  5
7D4B
  8
FUTO
 10
7402.7470743330132
 20
11862.69113016912
 30
0.0
 11
7402.7470743330132
 21
11897.87081716912
 31
0.0
  0
LINE
  5
7D4C
  8
FUTO
 10
7390.6470983330119
 20
11870.575896169121
 30
0.0
 11
7389.0471233330109
 21
11872.17550516912
 31
0.0
  0
LINE
  5
7D4D
  8
FUTO
 10
7390.6470983330119
 20
11870.575896169121
 30
0.0
 11
7389.0471233330109
 21
11868.97531016912
 31
0.0
  0
LINE
  5
7D4E
  8
FUTO
 10
7389.0471233330109
 20
11864.290739169121
 30
0.0
 11
7390.6470983330119
 21
11862.69113016912
 31
0.0
  0
LINE
  5
7D4F
  8
FUTO
 10
7390.6470983330119
 20
11889.986052169121
 30
0.0
 11
7389.0471233330109
 21
11888.38546616912
 31
0.0
  0
LINE
  5
7D50
  8
FUTO
 10
7390.6470983330119
 20
11889.986052169121
 30
0.0
 11
7389.0471233330109
 21
11891.585661169111
 31
0.0
  0
LINE
  5
7D51
  8
FUTO
 10
7390.6470983330119
 20
11897.87081716912
 30
0.0
 11
7389.0471233330109
 21
11896.270232169119
 31
0.0
  0
LINE
  5
7D52
  8
FUTO
 10
7389.0471233330109
 20
11864.290739169121
 30
0.0
 11
7389.0471233330109
 21
11896.270232169119
 31
0.0
  0
LINE
  5
7D53
  8
FUTO
 10
7390.6470983330119
 20
11889.986052169121
 30
0.0
 11
7402.7470743330132
 21
11889.986052169121
 31
0.0
  0
LINE
  5
7D54
  8
FUTO
 10
7390.6470983330119
 20
11870.575896169121
 30
0.0
 11
7402.7470743330132
 21
11870.575896169121
 31
0.0
  0
LINE
  5
7D55
  8
FUTO
 10
7390.6470983330119
 20
11897.87081716912
 30
0.0
 11
7402.7470743330132
 21
11897.87081716912
 31
0.0
  0
LINE
  5
7D56
  8
FUTO
 10
7390.6470983330119
 20
11862.69113016912
 30
0.0
 11
7402.7470743330132
 21
11862.69113016912
 31
0.0
  0
LINE
  5
7D57
  8
FUTO
 10
7495.1015663330118
 20
11900.280974169111
 30
0.0
 11
7465.1015663330109
 21
11900.280974169111
 31
0.0
  0
LINE
  5
7D58
  8
FUTO
 10
7465.1015663330109
 20
11860.280974169111
 30
0.0
 11
7495.1015663330118
 21
11860.280974169111
 31
0.0
  0
LINE
  5
7D59
  8
FUTO
 10
7495.1015663330118
 20
11900.280974169111
 30
0.0
 11
7495.1015663330118
 21
11860.280974169111
 31
0.0
  0
LINE
  5
7D5A
  8
FUTO
 10
7465.1015663330109
 20
11900.28097416912
 30
0.0
 11
7465.1015663330109
 21
11860.280974169111
 31
0.0
  0
LINE
  5
7D5B
  8
HOSO
 10
7495.1015663330118
 20
11873.28097416912
 30
0.0
 11
7546.601505333012
 21
11873.28097416912
 31
0.0
  0
LINE
  5
7D5C
  8
FUTO
 10
7546.601505333012
 20
11871.28097416912
 30
0.0
 11
7495.1015663330118
 21
11871.28097416912
 31
0.0
  0
LINE
  5
7D5D
  8
HOSO
 10
7546.601505333012
 20
11887.28097416912
 30
0.0
 11
7495.1015663330118
 21
11887.28097416912
 31
0.0
  0
LINE
  5
7D5E
  8
FUTO
 10
7495.1015663330118
 20
11889.28097416912
 30
0.0
 11
7546.601505333012
 21
11889.28097416912
 31
0.0
  0
LINE
  5
7D5F
  8
CT
 10
7546.6015053330111
 20
11880.280974169111
 30
0.0
 11
7379.0471233330127
 21
11880.280974169111
 31
0.0
  0
LINE
  5
7D60
  8
FUTO
 10
7498.1015663330118
 20
11935.28097416912
 30
0.0
 11
7493.1015663330109
 21
11940.280974169111
 31
0.0
  0
LINE
  5
7D61
  8
FUTO
 10
7540.101505333012
 20
11943.28097416912
 30
0.0
 11
7490.1015663330109
 21
11943.28097416912
 31
0.0
  0
LINE
  5
7D62
  8
FUTO
 10
7540.101505333012
 20
11940.280974169111
 30
0.0
 11
7493.1015663330109
 21
11940.280974169111
 31
0.0
  0
LINE
  5
7D63
  8
FUTO
 10
7546.601505333012
 20
11938.405974169111
 30
0.0
 11
7540.101505333012
 21
11938.405974169111
 31
0.0
  0
LINE
  5
7D64
  8
FUTO
 10
7546.601505333012
 20
11935.28097416912
 30
0.0
 11
7498.1015663330118
 21
11935.28097416912
 31
0.0
  0
LINE
  5
7D65
  8
FUTO
 10
7498.1015663330118
 20
11935.28097416912
 30
0.0
 11
7498.1015663330118
 21
11889.28097416912
 31
0.0
  0
LINE
  5
7D66
  8
FUTO
 10
7493.1015663330109
 20
11940.280974169111
 30
0.0
 11
7493.1015663330109
 21
11900.280974169111
 31
0.0
  0
LINE
  5
7D67
  8
FUTO
 10
7490.1015663330109
 20
11943.28097416912
 30
0.0
 11
7490.1015663330109
 21
11900.280974169111
 31
0.0
  0
ARC
  5
7D68
  8
FUTO
 10
7545.101505333012
 20
11985.28097416912
 30
0.0
 40
5.0
 50
89.999999999999986
 51
180.0
  0
LINE
  5
7D69
  8
FUTO
 10
7540.101505333012
 20
11985.28097416912
 30
0.0
 11
7540.101505333012
 21
11938.405974169111
 31
0.0
  0
LINE
  5
7D6A
  8
FUTO
 10
7557.601505333012
 20
11990.28097416912
 30
0.0
 11
7545.101505333012
 21
11990.28097416912
 31
0.0
  0
LINE
  5
7D6B
  8
CT
 10
7953.6015053330129
 20
11880.280974169111
 30
0.0
 11
8121.1558873330123
 21
11880.280974169111
 31
0.0
  0
LINE
  5
7D6C
  8
FUTO
 10
8005.1014443330123
 20
11889.28097416912
 30
0.0
 11
7953.6015053330111
 21
11889.28097416912
 31
0.0
  0
LINE
  5
7D6D
  8
HOSO
 10
7953.6015053330111
 20
11887.28097416912
 30
0.0
 11
8005.1014443330123
 21
11887.28097416912
 31
0.0
  0
LINE
  5
7D6E
  8
FUTO
 10
7953.6015053330111
 20
11871.28097416912
 30
0.0
 11
8005.1014443330123
 21
11871.28097416912
 31
0.0
  0
LINE
  5
7D6F
  8
HOSO
 10
8005.1014443330123
 20
11873.28097416912
 30
0.0
 11
7953.6015053330111
 21
11873.28097416912
 31
0.0
  0
LINE
  5
7D70
  8
FUTO
 10
8035.1014443330132
 20
11900.28097416912
 30
0.0
 11
8035.1014443330132
 21
11860.280974169111
 31
0.0
  0
LINE
  5
7D71
  8
FUTO
 10
8005.1014443330123
 20
11900.280974169111
 30
0.0
 11
8005.1014443330123
 21
11860.280974169111
 31
0.0
  0
LINE
  5
7D72
  8
FUTO
 10
8035.1014443330132
 20
11860.280974169111
 30
0.0
 11
8005.1014443330123
 21
11860.280974169111
 31
0.0
  0
LINE
  5
7D73
  8
FUTO
 10
8005.1014443330123
 20
11900.280974169111
 30
0.0
 11
8035.1014443330132
 21
11900.280974169111
 31
0.0
  0
LINE
  5
7D74
  8
FUTO
 10
8109.5559123330122
 20
11862.69113016912
 30
0.0
 11
8097.4559363330109
 21
11862.69113016912
 31
0.0
  0
LINE
  5
7D75
  8
FUTO
 10
8109.5559123330122
 20
11897.87081716912
 30
0.0
 11
8097.4559363330109
 21
11897.87081716912
 31
0.0
  0
LINE
  5
7D76
  8
FUTO
 10
8109.5559123330122
 20
11870.575896169121
 30
0.0
 11
8097.4559363330109
 21
11870.575896169121
 31
0.0
  0
LINE
  5
7D77
  8
FUTO
 10
8109.5559123330122
 20
11889.986052169121
 30
0.0
 11
8097.4559363330109
 21
11889.986052169121
 31
0.0
  0
LINE
  5
7D78
  8
FUTO
 10
8111.1558873330096
 20
11864.290739169121
 30
0.0
 11
8111.1558873330096
 21
11896.27023216911
 31
0.0
  0
LINE
  5
7D79
  8
FUTO
 10
8109.5559123330122
 20
11897.87081716912
 30
0.0
 11
8111.1558873330096
 21
11896.27023216911
 31
0.0
  0
LINE
  5
7D7A
  8
FUTO
 10
8109.5559123330122
 20
11889.986052169121
 30
0.0
 11
8111.1558873330096
 21
11891.585661169111
 31
0.0
  0
LINE
  5
7D7B
  8
FUTO
 10
8109.5559123330122
 20
11889.986052169121
 30
0.0
 11
8111.1558873330096
 21
11888.38546616912
 31
0.0
  0
LINE
  5
7D7C
  8
FUTO
 10
8111.1558873330096
 20
11864.290739169121
 30
0.0
 11
8109.5559123330122
 21
11862.69113016912
 31
0.0
  0
LINE
  5
7D7D
  8
FUTO
 10
8109.5559123330122
 20
11870.575896169121
 30
0.0
 11
8111.1558873330096
 21
11868.97531016912
 31
0.0
  0
LINE
  5
7D7E
  8
FUTO
 10
8109.5559123330122
 20
11870.575896169121
 30
0.0
 11
8111.1558873330096
 21
11872.17550516912
 31
0.0
  0
LINE
  5
7D7F
  8
FUTO
 10
8097.4559363330109
 20
11862.69113016912
 30
0.0
 11
8097.4559363330109
 21
11897.87081716912
 31
0.0
  0
LINE
  5
7D80
  8
FUTO
 10
8097.4559363330109
 20
11889.28097416912
 30
0.0
 11
8035.1014443330132
 21
11889.28097416912
 31
0.0
  0
LINE
  5
7D81
  8
HOSO
 10
8035.1014443330132
 20
11887.28097416912
 30
0.0
 11
8097.4559973330124
 21
11887.28097416912
 31
0.0
  0
LINE
  5
7D82
  8
HOSO
 10
8097.4559363330109
 20
11873.28097416912
 30
0.0
 11
8035.1014443330132
 21
11873.28097416912
 31
0.0
  0
LINE
  5
7D83
  8
FUTO
 10
8035.1014443330132
 20
11871.28097416912
 30
0.0
 11
8097.4559973330124
 21
11871.28097416912
 31
0.0
  0
LINE
  5
7D84
  8
FUTO
 10
8010.1014443330132
 20
11943.28097416912
 30
0.0
 11
8010.1014443330132
 21
11900.280974169111
 31
0.0
  0
LINE
  5
7D85
  8
FUTO
 10
8007.1014443330132
 20
11940.280974169111
 30
0.0
 11
8007.1014443330132
 21
11900.280974169111
 31
0.0
  0
LINE
  5
7D86
  8
FUTO
 10
8002.1014443330123
 20
11935.28097416912
 30
0.0
 11
8002.1014443330123
 21
11889.28097416912
 31
0.0
  0
LINE
  5
7D87
  8
FUTO
 10
7942.601505333012
 20
11990.28097416912
 30
0.0
 11
7955.1015053330111
 21
11990.28097416912
 31
0.0
  0
LINE
  5
7D88
  8
FUTO
 10
7953.6015053330111
 20
11935.28097416912
 30
0.0
 11
8002.1014443330123
 21
11935.28097416912
 31
0.0
  0
LINE
  5
7D89
  8
FUTO
 10
7953.6015053330111
 20
11938.405974169111
 30
0.0
 11
7960.1015053330111
 21
11938.405974169111
 31
0.0
  0
LINE
  5
7D8A
  8
FUTO
 10
7960.1015053330111
 20
11985.28097416912
 30
0.0
 11
7960.1015053330111
 21
11938.405974169111
 31
0.0
  0
LINE
  5
7D8B
  8
FUTO
 10
7960.1015053330111
 20
11940.280974169111
 30
0.0
 11
8007.1014443330132
 21
11940.280974169111
 31
0.0
  0
LINE
  5
7D8C
  8
FUTO
 10
7960.1015053330111
 20
11943.28097416912
 30
0.0
 11
8010.1014443330132
 21
11943.28097416912
 31
0.0
  0
ARC
  5
7D8D
  8
FUTO
 10
7955.1015053330111
 20
11985.28097416912
 30
0.0
 40
5.0
 50
0.000000000000007
 51
89.999999999999986
  0
LINE
  5
7D8E
  8
FUTO
 10
8002.1014443330123
 20
11935.28097416912
 30
0.0
 11
8007.1014443330132
 21
11940.280974169111
 31
0.0
  0
LINE
  5
7D8F
  8
FUTO
 10
7939.7828505514399
 20
11532.15597416912
 30
0.0
 11
7960.1015053330111
 21
11532.15597416912
 31
0.0
  0
LINE
  5
7D90
  8
FUTO
 10
8002.1014443330123
 20
11599.280974169111
 30
0.0
 11
8002.1014443330123
 21
11871.28097416912
 31
0.0
  0
LINE
  5
7D91
  8
FUTO
 10
8002.1014443330123
 20
11535.280974169111
 30
0.0
 11
8007.1014443330132
 21
11530.28097416912
 31
0.0
  0
LINE
  5
7D92
  8
FUTO
 10
8002.1014443330123
 20
11535.280974169111
 30
0.0
 11
8002.1014443330123
 21
11581.28097416912
 31
0.0
  0
LINE
  5
7D93
  8
FUTO
 10
7939.8919789012934
 20
11535.280974169111
 30
0.0
 11
8002.1014443330123
 21
11535.280974169111
 31
0.0
  0
ARC
  5
7D94
  8
FUTO
 10
7955.1015053330111
 20
11485.28097416912
 30
0.0
 40
5.0
 50
270.0
 51
0.000000000000007
  0
LINE
  5
7D95
  8
FUTO
 10
7960.1015053330111
 20
11527.28097416912
 30
0.0
 11
8010.1014443330132
 21
11527.28097416912
 31
0.0
  0
LINE
  5
7D96
  8
FUTO
 10
7960.1015053330111
 20
11530.28097416912
 30
0.0
 11
8007.1014443330132
 21
11530.28097416912
 31
0.0
  0
LINE
  5
7D97
  8
FUTO
 10
7907.7931403285356
 20
11480.28097416912
 30
0.0
 11
7955.1015053330111
 21
11480.28097416912
 31
0.0
  0
LINE
  5
7D98
  8
FUTO
 10
7960.1015053330111
 20
11485.28097416912
 30
0.0
 11
7960.1015053330111
 21
11532.15597416912
 31
0.0
  0
LINE
  5
7D99
  8
FUTO
 10
8007.1014443330132
 20
11610.28097416912
 30
0.0
 11
8007.1014443330132
 21
11860.280974169111
 31
0.0
  0
LINE
  5
7D9A
  8
FUTO
 10
8010.1014443330132
 20
11610.28097416912
 30
0.0
 11
8010.1014443330132
 21
11860.280974169111
 31
0.0
  0
LINE
  5
7D9B
  8
FUTO
 10
8007.1014443330132
 20
11530.28097416912
 30
0.0
 11
8007.1014443330132
 21
11570.28097416912
 31
0.0
  0
LINE
  5
7D9C
  8
FUTO
 10
8010.1014443330132
 20
11527.28097416912
 30
0.0
 11
8010.1014443330132
 21
11570.28097416912
 31
0.0
  0
LINE
  5
7D9D
  8
HOSO
 10
8005.1014443330123
 20
11597.280974169111
 30
0.0
 11
7953.6015053330111
 21
11597.280974169111
 31
0.0
  0
LINE
  5
7D9E
  8
FUTO
 10
7953.6015053330111
 20
11599.280974169111
 30
0.0
 11
8005.1014443330123
 21
11599.280974169111
 31
0.0
  0
LINE
  5
7D9F
  8
HOSO
 10
7953.6015053330111
 20
11583.28097416912
 30
0.0
 11
8005.1014443330123
 21
11583.28097416912
 31
0.0
  0
LINE
  5
7DA0
  8
FUTO
 10
8005.1014443330123
 20
11581.28097416912
 30
0.0
 11
7953.6015053330111
 21
11581.28097416912
 31
0.0
  0
LINE
  5
7DA1
  8
FUTO
 10
8035.1014443330132
 20
11599.280974169111
 30
0.0
 11
8097.4559973330124
 21
11599.280974169111
 31
0.0
  0
LINE
  5
7DA2
  8
HOSO
 10
8097.4559363330109
 20
11597.280974169111
 30
0.0
 11
8035.1014443330132
 21
11597.280974169111
 31
0.0
  0
LINE
  5
7DA3
  8
HOSO
 10
8035.1014443330132
 20
11583.28097416912
 30
0.0
 11
8097.4559973330124
 21
11583.28097416912
 31
0.0
  0
LINE
  5
7DA4
  8
FUTO
 10
8097.4559363330109
 20
11581.28097416912
 30
0.0
 11
8035.1014443330132
 21
11581.28097416912
 31
0.0
  0
LINE
  5
7DA5
  8
FUTO
 10
8097.4559363330109
 20
11607.87081816912
 30
0.0
 11
8097.4559363330109
 21
11572.69113116912
 31
0.0
  0
LINE
  5
7DA6
  8
FUTO
 10
8109.5559123330122
 20
11599.986052169121
 30
0.0
 11
8111.1558873330096
 21
11598.386443169111
 31
0.0
  0
LINE
  5
7DA7
  8
FUTO
 10
8109.5559123330122
 20
11599.986052169121
 30
0.0
 11
8111.1558873330096
 21
11601.586638169119
 31
0.0
  0
LINE
  5
7DA8
  8
FUTO
 10
8111.1558873330096
 20
11606.271209169119
 30
0.0
 11
8109.5559123330122
 21
11607.87081816912
 31
0.0
  0
LINE
  5
7DA9
  8
FUTO
 10
8109.5559123330122
 20
11580.575896169121
 30
0.0
 11
8111.1558873330096
 21
11582.17648216911
 31
0.0
  0
LINE
  5
7DAA
  8
FUTO
 10
8109.5559123330122
 20
11580.575896169121
 30
0.0
 11
8111.1558873330096
 21
11578.97628716912
 31
0.0
  0
LINE
  5
7DAB
  8
FUTO
 10
8109.5559123330122
 20
11572.69113116912
 30
0.0
 11
8111.1558873330096
 21
11574.29171616912
 31
0.0
  0
LINE
  5
7DAC
  8
FUTO
 10
8111.1558873330096
 20
11606.271209169119
 30
0.0
 11
8111.1558873330096
 21
11574.29171616912
 31
0.0
  0
LINE
  5
7DAD
  8
FUTO
 10
8109.5559123330122
 20
11580.575896169121
 30
0.0
 11
8097.4559363330109
 21
11580.575896169121
 31
0.0
  0
LINE
  5
7DAE
  8
FUTO
 10
8109.5559123330122
 20
11599.986052169121
 30
0.0
 11
8097.4559363330109
 21
11599.986052169121
 31
0.0
  0
LINE
  5
7DAF
  8
FUTO
 10
8109.5559123330122
 20
11572.69113116912
 30
0.0
 11
8097.4559363330109
 21
11572.69113116912
 31
0.0
  0
LINE
  5
7DB0
  8
FUTO
 10
8109.5559123330122
 20
11607.87081816912
 30
0.0
 11
8097.4559363330109
 21
11607.87081816912
 31
0.0
  0
LINE
  5
7DB1
  8
CT
 10
7953.6015053330129
 20
11590.28097416912
 30
0.0
 11
8121.1558873330123
 21
11590.28097416912
 31
0.0
  0
LINE
  5
7DB2
  8
FUTO
 10
8005.1014443330123
 20
11570.28097416912
 30
0.0
 11
8035.1014443330132
 21
11570.28097416912
 31
0.0
  0
LINE
  5
7DB3
  8
FUTO
 10
8035.1014443330132
 20
11610.28097416912
 30
0.0
 11
8005.1014443330123
 21
11610.28097416912
 31
0.0
  0
LINE
  5
7DB4
  8
FUTO
 10
8005.1014443330123
 20
11570.28097416912
 30
0.0
 11
8005.1014443330123
 21
11610.28097416912
 31
0.0
  0
LINE
  5
7DB5
  8
FUTO
 10
8035.1014443330132
 20
11570.28097416912
 30
0.0
 11
8035.1014443330132
 21
11610.28097416912
 31
0.0
  0
ARC
  5
7DB6
  8
FUTO
 10
7418.4723553330123
 20
11797.28091316911
 30
0.0
 40
20.0
 50
89.999999999999986
 51
180.0
  0
ARC
  5
7DB7
  8
FUTO
 10
7418.4723553330132
 20
11673.28097416912
 30
0.0
 40
20.0
 50
180.0
 51
270.0
  0
ARC
  5
7DB8
  8
FUTO
 10
7408.4723553330123
 20
11656.280974169111
 30
0.0
 40
10.0
 50
180.0
 51
270.0
  0
ARC
  5
7DB9
  8
FUTO
 10
7408.4723553330123
 20
11814.28091316911
 30
0.0
 40
10.0
 50
89.999999999999986
 51
180.0
  0
ARC
  5
7DBA
  8
FUTO
 10
7511.3290802319043
 20
11656.280974169111
 30
0.0
 40
10.0
 50
270.0
 51
0.000000000000007
  0
ARC
  5
7DBB
  8
FUTO
 10
7508.1619646935687
 20
11656.280974169111
 30
0.0
 40
10.0
 50
270.0
 51
0.000000000000007
  0
ARC
  5
7DBC
  8
FUTO
 10
7511.3290802319043
 20
11814.28091316911
 30
0.0
 40
10.0
 50
0.000000000000007
 51
89.999999999999986
  0
ARC
  5
7DBD
  8
FUTO
 10
7508.1619646935687
 20
11814.28091316911
 30
0.0
 40
10.0
 50
0.000000000000007
 51
89.999999999999986
  0
LINE
  5
7DBE
  8
FUTO
 10
7510.9653614141153
 20
11653.28097416912
 30
0.0
 11
7418.4723553330132
 21
11653.28097416912
 31
0.0
  0
LINE
  5
7DBF
  8
FUTO
 10
7510.9653614141153
 20
11817.280913169119
 30
0.0
 11
7418.4723553330132
 21
11817.280913169119
 31
0.0
  0
ARC
  5
7DC0
  8
FUTO
 10
7525.1015053330111
 20
11658.280974169111
 30
0.0
 40
5.0
 50
270.0
 51
0.000000000000007
  0
ARC
  5
7DC1
  8
FUTO
 10
7525.1015053330111
 20
11812.28091316911
 30
0.0
 40
5.0
 50
0.000000000000007
 51
89.999999999999986
  0
ARC
  5
7DC2
  8
FUTO
 10
7510.9653614141153
 20
11658.280974169111
 30
0.0
 40
5.0
 50
270.0
 51
0.000000000000007
  0
ARC
  5
7DC3
  8
FUTO
 10
7510.9653614141153
 20
11812.28091316911
 30
0.0
 40
5.0
 50
0.000000000000007
 51
89.999999999999986
  0
LINE
  5
7DC4
  8
FUTO
 10
7511.3290802319043
 20
11646.28097416912
 30
0.0
 11
7408.4723553330123
 21
11646.28097416912
 31
0.0
  0
LINE
  5
7DC5
  8
FUTO
 10
7525.101505333012
 20
11653.28097416912
 30
0.0
 11
7521.3290802319043
 21
11653.28097416912
 31
0.0
  0
LINE
  5
7DC6
  8
FUTO
 10
7511.3290802319043
 20
11824.280913169119
 30
0.0
 11
7408.4723553330123
 21
11824.280913169119
 31
0.0
  0
LINE
  5
7DC7
  8
FUTO
 10
7525.101505333012
 20
11817.280913169119
 30
0.0
 11
7521.3290802319043
 21
11817.280913169119
 31
0.0
  0
LINE
  5
7DC8
  8
FUTO
 10
7546.6015053330111
 20
11795.28097416912
 30
0.0
 11
7546.6015053330111
 21
11902.091744918151
 31
0.0
  0
LINE
  5
7DC9
  8
FUTO
 10
7530.101505333012
 20
11675.28097416912
 30
0.0
 11
7597.8279028931929
 21
11675.280974169111
 31
0.0
  0
LINE
  5
7DCA
  8
FUTO
 10
7530.101505333012
 20
11795.28097416912
 30
0.0
 11
7597.8279028931929
 21
11795.28097416912
 31
0.0
  0
LINE
  5
7DCB
  8
FUTO
 10
7439.7821693330097
 20
11673.28097416912
 30
0.0
 11
7439.7821693330134
 21
11797.280913169119
 31
0.0
  0
LINE
  5
7DCC
  8
FUTO
 10
7515.9653614141153
 20
11658.280974169111
 30
0.0
 11
7515.9653614141153
 21
11812.280913169119
 31
0.0
  0
LINE
  5
7DCD
  8
FUTO
 10
7518.1619646935696
 20
11656.280974169111
 30
0.0
 11
7518.1619646935696
 21
11814.280913169119
 31
0.0
  0
LINE
  5
7DCE
  8
FUTO
 10
7521.3290802319043
 20
11656.280974169111
 30
0.0
 11
7521.3290802319043
 21
11814.280913169119
 31
0.0
  0
LINE
  5
7DCF
  8
FUTO
 10
7530.101505333012
 20
11658.280974169111
 30
0.0
 11
7530.101505333012
 21
11812.280913169119
 31
0.0
  0
LINE
  5
7DD0
  8
FUTO
 10
7540.1015053330111
 20
11675.280974169111
 30
0.0
 11
7540.1015053330111
 21
11795.28097416912
 31
0.0
  0
LINE
  5
7DD1
  8
FUTO
 10
7597.8279028931929
 20
11675.280974169111
 30
0.0
 11
7597.8279028931929
 21
11795.28097416912
 31
0.0
  0
LINE
  5
7DD2
  8
FUTO
 10
7398.4723553330123
 20
11656.280974169111
 30
0.0
 11
7398.4723553330123
 21
11814.280913169119
 31
0.0
  0
LINE
  5
7DD3
  8
FUTO
 10
7743.851505333012
 20
11711.530974169111
 30
0.0
 11
7743.851505333012
 21
11759.03097416912
 31
0.0
  0
ARC
  5
7DD4
  8
FUTO
 10
7750.101505333012
 20
11711.530974169111
 30
0.0
 40
6.25
 50
180.0
 51
0.000000000000007
  0
ARC
  5
7DD5
  8
FUTO
 10
7750.101505333012
 20
11759.03097416912
 30
0.0
 40
6.25
 50
0.000000000000007
 51
180.0
  0
LINE
  5
7DD6
  8
CT
 10
7378.4723553330132
 20
11735.280974169111
 30
0.0
 11
8030.1014443330114
 21
11735.280974169111
 31
0.0
  0
LINE
  5
7DD7
  8
FUTO
 10
7756.3515053330138
 20
11711.530974169111
 30
0.0
 11
7756.351505333012
 21
11759.03097416912
 31
0.0
  0
LINE
  5
7DD8
  8
FUTO
 10
7546.601505333012
 20
11902.091744918151
 30
0.0
 11
7548.4232823330112
 21
11904.280913169119
 31
0.0
  0
LINE
  5
7DD9
  8
FUTO
 10
7546.601505333012
 20
11568.470061169121
 30
0.0
 11
7553.101505333012
 21
11560.65914816911
 31
0.0
  0
LINE
  5
7DDA
  8
FUTO
 10
7546.601505333012
 20
11568.470061169121
 30
0.0
 11
7546.6015053330111
 21
11675.28097416912
 31
0.0
  0
LINE
  5
7DDB
  8
FUTO
 10
7953.6015053330111
 20
11568.470061169121
 30
0.0
 11
7953.6015053330129
 21
11902.091744918151
 31
0.0
  0
ARC
  5
7DDC
  8
FUTO
 10
7672.101505333012
 20
11461.78097416912
 30
0.0
 40
2.0
 50
180.0
 51
270.0
  0
ARC
  5
7DDD
  8
FUTO
 10
7667.101505333012
 20
11471.93405016912
 30
0.0
 40
2.9999599999999988
 50
0.000000000000007
 51
87.000442999964605
  0
LINE
  5
7DDE
  8
FUTO
 10
7670.101505333012
 20
11471.93405016912
 30
0.0
 11
7670.101505333012
 21
11461.78097416912
 31
0.0
  0
ARC
  5
7DDF
  8
FUTO
 10
7571.005557333011
 20
11515.566619169111
 30
0.0
 40
9.9999679999999991
 50
181.99932900002389
 51
225.0
  0
ARC
  5
7DE0
  8
FUTO
 10
7597.9987213330123
 20
11488.573454169111
 30
0.0
 40
10.000024
 50
225.0
 51
267.00096100001281
  0
LINE
  5
7DE1
  8
FUTO
 10
7563.9345123330131
 20
11508.49557416911
 30
0.0
 11
7590.9276773330121
 21
11481.502410169111
 31
0.0
  0
LINE
  5
7DE2
  8
FUTO
 10
7560.101505333012
 20
11541.28097416912
 30
0.0
 11
7561.0116613330119
 21
11515.21774216911
 31
0.0
  0
LINE
  5
7DE3
  8
FUTO
 10
7597.4755283330132
 20
11478.587126169121
 30
0.0
 11
7686.0668373330118
 21
11473.94430416911
 31
0.0
  0
LINE
  5
7DE4
  8
FUTO
 10
7588.1015053330111
 20
11551.28097416912
 30
0.0
 11
7912.101505333012
 21
11551.28097416912
 31
0.0
  0
LINE
  5
7DE5
  8
FUTO
 10
7588.1015053330111
 20
11541.28097416912
 30
0.0
 11
7588.1015053330111
 21
11546.28097416912
 31
0.0
  0
LINE
  5
7DE6
  8
FUTO
 10
7588.1015053330111
 20
11546.28097416912
 30
0.0
 11
7588.1015053330111
 21
11551.28097416912
 31
0.0
  0
LINE
  5
7DE7
  8
FUTO
 10
7553.101505333012
 20
11560.65914816911
 30
0.0
 11
7588.1015053330111
 21
11551.28097416912
 31
0.0
  0
ARC
  5
7DE8
  8
FUTO
 10
7566.6015053330129
 20
11950.754302169111
 30
0.0
 40
20.0
 50
159.99995399998471
 51
180.0
  0
ARC
  5
7DE9
  8
FUTO
 10
7537.601505333012
 20
11988.029692169121
 30
0.0
 40
20.0
 50
340.0002749999901
 51
0.000000000000007
  0
LINE
  5
7DEA
  8
FUTO
 10
7602.4525793330131
 20
11932.78091316911
 30
0.0
 11
7598.6996493330134
 21
11939.28091316911
 31
0.0
  0
LINE
  5
7DEB
  8
FUTO
 10
7598.6996493330134
 20
11939.28091316911
 30
0.0
 11
7602.4525793330131
 21
11945.78091316911
 31
0.0
  0
LINE
  5
7DEC
  8
FUTO
 10
7547.8075593330123
 20
11957.594756169119
 30
0.0
 11
7556.3954503330124
 21
11981.189360169121
 31
0.0
  0
LINE
  5
7DED
  8
FUTO
 10
7546.601505333012
 20
11904.280913169119
 30
0.0
 11
7546.601505333012
 21
11950.754302169111
 31
0.0
  0
LINE
  5
7DEE
  8
FUTO
 10
7613.710880333012
 20
11939.28091316911
 30
0.0
 11
7609.9579503330106
 21
11945.78091316911
 31
0.0
  0
LINE
  5
7DEF
  8
FUTO
 10
7609.9579503330106
 20
11932.78091316911
 30
0.0
 11
7613.710880333012
 21
11939.28091316911
 31
0.0
  0
LINE
  5
7DF0
  8
CT
 10
7606.2052643330117
 20
11931.83877416912
 30
0.0
 11
7606.2052643330117
 21
11946.294829169119
 31
0.0
  0
LINE
  5
7DF1
  8
CT
 10
7614.5958893330117
 20
11939.28091316911
 30
0.0
 11
7597.7743563330123
 21
11939.28091316911
 31
0.0
  0
LINE
  5
7DF2
  8
FUTO
 10
7609.9579503330106
 20
11945.78091316911
 30
0.0
 11
7602.4525793330131
 21
11945.78091316911
 31
0.0
  0
LINE
  5
7DF3
  8
FUTO
 10
7609.9579503330106
 20
11932.78091316911
 30
0.0
 11
7602.4525793330131
 21
11932.78091316911
 31
0.0
  0
CIRCLE
  5
7DF4
  8
FUTO
 10
7606.2052643330117
 20
11939.28091316911
 30
0.0
 40
6.5
  0
ARC
  5
7DF5
  8
FUTO
 10
7572.6015053330111
 20
12048.97000016912
 30
0.0
 40
15.0
 50
150.00018299999559
 51
180.0
  0
ARC
  5
7DF6
  8
FUTO
 10
7592.9882233330118
 20
12104.280913169119
 30
0.0
 40
4.9999580000000003
 50
89.999999999999986
 51
149.99971800000111
  0
LINE
  5
7DF7
  8
FUTO
 10
7588.6581453330118
 20
12106.78091316911
 30
0.0
 11
7559.611026333012
 21
12056.470000169111
 31
0.0
  0
LINE
  5
7DF8
  8
FUTO
 10
7557.601505333012
 20
11988.029692169121
 30
0.0
 11
7557.601505333012
 21
12048.97000016912
 31
0.0
  0
LINE
  5
7DF9
  8
FUTO
 10
7942.601505333012
 20
11988.029692169121
 30
0.0
 11
7942.601505333012
 21
12048.97000016912
 31
0.0
  0
LINE
  5
7DFA
  8
CT
 10
7750.101505333012
 20
11126.815030717589
 30
0.0
 11
7750.101505333012
 21
12129.28097416912
 31
0.0
  0
LINE
  5
7DFB
  8
FUTO
 10
7907.7514693330131
 20
12109.28097416912
 30
0.0
 11
7592.9611553330124
 21
12109.28097416912
 31
0.0
  0
LINE
  5
7DFC
  8
FUTO
 10
7557.601505333012
 20
12050.180937169111
 30
0.0
 11
7942.5524333330122
 21
12050.180937169111
 31
0.0
  0
LINE
  5
7DFD
  8
FUTO
 10
7911.5448653330122
 20
12106.78091316911
 30
0.0
 11
7940.5919843330112
 21
12056.470000169111
 31
0.0
  0
ARC
  5
7DFE
  8
FUTO
 10
7907.2147873330123
 20
12104.280913169119
 30
0.0
 40
4.9999580000000003
 50
30.000281999998819
 51
89.999999999999986
  0
ARC
  5
7DFF
  8
FUTO
 10
7927.601505333012
 20
12048.97000016912
 30
0.0
 40
15.0
 50
0.000000000000007
 51
29.999817000004359
  0
LINE
  5
7E00
  8
FUTO
 10
7672.101505333012
 20
11459.78097416912
 30
0.0
 11
7750.101505333012
 21
11459.78097416912
 31
0.0
  0
LINE
  5
7E01
  8
FUTO
 10
7560.101505333012
 20
11541.28097416912
 30
0.0
 11
7750.101505333012
 21
11541.28097416912
 31
0.0
  0
LINE
  5
7E02
  8
FUTO
 10
7588.1015053330111
 20
11546.28097416912
 30
0.0
 11
7750.101505333012
 21
11546.28097416912
 31
0.0
  0
LINE
  5
7E03
  8
FUTO
 10
7942.9188883330107
 20
11984.48086416912
 30
0.0
 11
7557.601505333012
 21
11984.48086416912
 31
0.0
  0
LINE
  5
7E04
  8
FUTO
 10
7953.2880293330127
 20
11954.28091316911
 30
0.0
 11
7546.9148851341388
 21
11954.28091316911
 31
0.0
  0
LINE
  5
7E05
  8
FUTO
 10
7953.6015053330111
 20
11904.280913169119
 30
0.0
 11
7548.4232823330112
 21
11904.280913169119
 31
0.0
  0
LINE
  5
7E06
  8
FUTO
 10
7588.1015053330111
 20
11546.28097416912
 30
0.0
 11
7750.101505333012
 21
11546.28097416912
 31
0.0
  0
CIRCLE
  5
7E07
  8
FUTO
 10
7893.9977463330124
 20
11939.28091316911
 30
0.0
 40
6.5
  0
LINE
  5
7E08
  8
FUTO
 10
7890.2450603330117
 20
11932.78091316911
 30
0.0
 11
7897.7504313330119
 21
11932.78091316911
 31
0.0
  0
LINE
  5
7E09
  8
FUTO
 10
7890.2450603330117
 20
11945.78091316911
 30
0.0
 11
7897.7504313330119
 21
11945.78091316911
 31
0.0
  0
LINE
  5
7E0A
  8
CT
 10
7885.6071213330133
 20
11939.28091316911
 30
0.0
 11
7902.4286543330118
 21
11939.28091316911
 31
0.0
  0
LINE
  5
7E0B
  8
CT
 10
7893.9977463330124
 20
11931.83877416912
 30
0.0
 11
7893.9977463330124
 21
11946.294829169119
 31
0.0
  0
LINE
  5
7E0C
  8
FUTO
 10
7890.2450603330117
 20
11932.78091316911
 30
0.0
 11
7886.492130333012
 21
11939.28091316911
 31
0.0
  0
LINE
  5
7E0D
  8
FUTO
 10
7886.492130333012
 20
11939.28091316911
 30
0.0
 11
7890.2450603330117
 21
11945.78091316911
 31
0.0
  0
LINE
  5
7E0E
  8
FUTO
 10
7953.6015053330111
 20
11904.280913169119
 30
0.0
 11
7953.6015053330111
 21
11950.754302169111
 31
0.0
  0
LINE
  5
7E0F
  8
FUTO
 10
7952.3954513330109
 20
11957.594756169119
 30
0.0
 11
7943.8075603330117
 21
11981.189360169121
 31
0.0
  0
LINE
  5
7E10
  8
FUTO
 10
7901.5033613330133
 20
11939.28091316911
 30
0.0
 11
7897.7504313330119
 21
11945.78091316911
 31
0.0
  0
LINE
  5
7E11
  8
FUTO
 10
7897.7504313330119
 20
11932.78091316911
 30
0.0
 11
7901.5033613330133
 21
11939.28091316911
 31
0.0
  0
ARC
  5
7E12
  8
FUTO
 10
7962.601505333012
 20
11988.029692169121
 30
0.0
 40
20.0
 50
180.0
 51
199.9997250000097
  0
ARC
  5
7E13
  8
FUTO
 10
7933.601505333012
 20
11950.754302169111
 30
0.0
 40
20.0
 50
0.000000000000007
 51
20.000046000015249
  0
LINE
  5
7E14
  8
FUTO
 10
7953.6015053330111
 20
11902.091744918151
 30
0.0
 11
7951.7797283330119
 21
11904.280913169119
 31
0.0
  0
LINE
  5
7E15
  8
FUTO
 10
7912.101505333012
 20
11546.28097416912
 30
0.0
 11
7750.101505333012
 21
11546.28097416912
 31
0.0
  0
LINE
  5
7E16
  8
FUTO
 10
7902.7274823330117
 20
11478.587126169121
 30
0.0
 11
7814.1361733330132
 21
11473.94430416911
 31
0.0
  0
LINE
  5
7E17
  8
FUTO
 10
7940.1015053330111
 20
11541.28097416912
 30
0.0
 11
7750.101505333012
 21
11541.28097416912
 31
0.0
  0
LINE
  5
7E18
  8
FUTO
 10
7912.101505333012
 20
11546.28097416912
 30
0.0
 11
7750.101505333012
 21
11546.28097416912
 31
0.0
  0
LINE
  5
7E19
  8
FUTO
 10
7720.101505333012
 20
11449.78097416912
 30
0.0
 11
7720.101505333012
 21
11309.78097416912
 31
0.0
  0
LINE
  5
7E1A
  8
FUTO
 10
7780.101505333012
 20
11449.78097416912
 30
0.0
 11
7780.101505333012
 21
11309.78097416912
 31
0.0
  0
LINE
  5
7E1B
  8
FUTO
 10
7828.101505333012
 20
11459.78097416912
 30
0.0
 11
7750.101505333012
 21
11459.78097416912
 31
0.0
  0
LINE
  5
7E1C
  8
FUTO
 10
7717.601505333012
 20
11449.78097416912
 30
0.0
 11
7782.601505333012
 21
11449.78097416912
 31
0.0
  0
LINE
  5
7E1D
  8
FUTO
 10
7717.601505333012
 20
11449.78097416912
 30
0.0
 11
7717.601505333012
 21
11459.78097416912
 31
0.0
  0
LINE
  5
7E1E
  8
FUTO
 10
7782.601505333012
 20
11449.78097416912
 30
0.0
 11
7782.601505333012
 21
11459.78097416912
 31
0.0
  0
LINE
  5
7E1F
  8
FUTO
 10
7830.1015053330111
 20
11471.93405016912
 30
0.0
 11
7830.1015053330111
 21
11461.78097416912
 31
0.0
  0
ARC
  5
7E20
  8
FUTO
 10
7833.1015053330111
 20
11471.93405016912
 30
0.0
 40
2.9999599999999988
 50
92.999556999983326
 51
180.0
  0
ARC
  5
7E21
  8
FUTO
 10
7828.101505333012
 20
11461.78097416912
 30
0.0
 40
2.0
 50
270.0
 51
0.000000000000007
  0
LINE
  5
7E22
  8
FUTO
 10
7780.101505333012
 20
11309.78097416912
 30
0.0
 11
7720.101505333012
 21
11309.78097416912
 31
0.0
  0
LINE
  5
7E23
  8
FUTO
 10
7953.6015053330111
 20
11568.470061169121
 30
0.0
 11
7947.1015053330102
 21
11560.65914816911
 31
0.0
  0
LINE
  5
7E24
  8
FUTO
 10
7940.1015053330111
 20
11541.28097416912
 30
0.0
 11
7939.1913493330112
 21
11515.21774216911
 31
0.0
  0
LINE
  5
7E25
  8
FUTO
 10
7947.1015053330102
 20
11560.65914816911
 30
0.0
 11
7912.101505333012
 21
11551.28097416912
 31
0.0
  0
LINE
  5
7E26
  8
FUTO
 10
7912.101505333012
 20
11546.28097416912
 30
0.0
 11
7912.101505333012
 21
11551.28097416912
 31
0.0
  0
LINE
  5
7E27
  8
FUTO
 10
7912.101505333012
 20
11541.28097416912
 30
0.0
 11
7912.101505333012
 21
11546.28097416912
 31
0.0
  0
LINE
  5
7E28
  8
FUTO
 10
7936.2684983330128
 20
11508.49557416911
 30
0.0
 11
7909.275333333012
 21
11481.502410169111
 31
0.0
  0
ARC
  5
7E29
  8
FUTO
 10
7902.2042893330117
 20
11488.573454169111
 30
0.0
 40
10.000024
 50
272.99903899998708
 51
314.99999999999989
  0
ARC
  5
7E2A
  8
FUTO
 10
7929.1974533330122
 20
11515.566619169111
 30
0.0
 40
9.9999679999999991
 50
314.99999999999989
 51
358.00067099997602
  0
CIRCLE
  5
7E2B
  8
FUTO
 10
7750.101505333012
 20
8048.4438367356688
 30
0.0
 40
30.0
  0
LINE
  5
7E2C
  8
KL
 10
11854.12880402442
 20
7868.4438367356706
 30
0.0
 11
11868.80823494873
 21
7868.4438367356706
 31
0.0
  0
LINE
  5
7E2D
  8
KL
 10
11856.808295948729
 20
7848.4438367356697
 30
0.0
 11
11891.808295948729
 21
7848.4438367356697
 31
0.0
  0
LINE
  5
7E2E
  8
KL
 10
11529.48778787304
 20
7868.4438367356706
 30
0.0
 11
11514.808295948729
 21
7868.4438367356706
 31
0.0
  0
LINE
  5
7E2F
  8
KL
 10
11526.808295948729
 20
7848.4438367356697
 30
0.0
 11
11491.808295948729
 21
7848.4438367356697
 31
0.0
  0
LINE
  5
7E30
  8
CT
 10
7590.1015053330129
 20
7838.4438367356697
 30
0.0
 11
7590.1015053330129
 21
7768.4438367356697
 31
0.0
  0
LINE
  5
7E31
  8
KL
 10
11591.808295948729
 20
7843.4438367356697
 30
0.0
 11
11591.808295948729
 21
7848.4438367356697
 31
0.0
  0
LINE
  5
7E32
  8
KL
 10
11791.808295948729
 20
7848.4438367356697
 30
0.0
 11
11791.808295948729
 21
7843.4438367356697
 31
0.0
  0
LINE
  5
7E3B
  8
FUTO
 10
7818.1015053330129
 20
7848.4438367356697
 30
0.0
 11
7818.1015053330129
 21
7843.4438367356697
 31
0.0
  0
LINE
  5
7E3C
  8
FUTO
 10
7682.1013833330117
 20
7843.4438367356697
 30
0.0
 11
7682.1013833330117
 21
7848.4438367356697
 31
0.0
  0
LINE
  5
7E3D
  8
KL
 10
11546.808295948729
 20
7876.9194227356711
 30
0.0
 11
11530.808295948729
 21
7867.6821187356709
 31
0.0
  0
LINE
  5
7E3E
  8
KL
 10
11562.808295948729
 20
7867.6821187356709
 30
0.0
 11
11546.808295948729
 21
7876.9194227356711
 31
0.0
  0
LINE
  5
7E3F
  8
KL
 10
11546.808295948729
 20
7839.9692277356708
 30
0.0
 11
11530.808295948729
 21
7849.2065327356713
 31
0.0
  0
LINE
  5
7E40
  8
KL
 10
11562.808295948729
 20
7849.2065327356713
 30
0.0
 11
11546.808295948729
 21
7839.9692277356708
 31
0.0
  0
LINE
  5
7E41
  8
KL
 10
11516.808295948729
 20
7858.4438367356706
 30
0.0
 11
11576.808295948729
 21
7858.4438367356706
 31
0.0
  0
CIRCLE
  5
7E42
  8
KL
 10
11546.808295948729
 20
7858.4438367356706
 30
0.0
 40
16.0
  0
LINE
  5
7E43
  8
KL
 10
11562.808295948729
 20
7849.2065327356713
 30
0.0
 11
11562.808295948729
 21
7867.6821187356709
 31
0.0
  0
LINE
  5
7E44
  8
KL
 10
11530.808295948729
 20
7849.2065327356713
 30
0.0
 11
11530.808295948729
 21
7867.6821187356709
 31
0.0
  0
ARC
  5
7E45
  8
KL
 10
11546.808295948729
 20
7858.4438367356706
 30
0.0
 40
20.0
 50
0.000000000000007
 51
180.0
  0
ARC
  5
7E46
  8
KL
 10
11439.808295948729
 20
7815.4438367356706
 30
0.0
 40
3.0
 50
90.0
 51
180.0
  0
LINE
  5
7E47
  8
KL
 10
11488.683295948729
 20
7818.4438367356706
 30
0.0
 11
11439.808295948729
 21
7818.4438367356706
 31
0.0
  0
LINE
  5
7E48
  8
KL
 10
11493.808295948729
 20
7788.4438367356697
 30
0.0
 11
11493.808295948729
 21
7793.4438367356697
 31
0.0
  0
LINE
  5
7E49
  8
KL
 10
11483.808295948729
 20
7800.4438367356706
 30
0.0
 11
11483.808295948729
 21
7793.4438367356697
 31
0.0
  0
LINE
  5
7E4A
  8
KL
 10
11493.808295948729
 20
7788.4438367356697
 30
0.0
 11
11436.808295948729
 21
7788.4438367356697
 31
0.0
  0
LINE
  5
7E4B
  8
KL
 10
11436.808295948729
 20
7788.4438367356697
 30
0.0
 11
11436.808295948729
 21
7815.4438367356706
 31
0.0
  0
LINE
  5
7E4C
  8
CT
 10
11461.808295948729
 20
7838.4438367356697
 30
0.0
 11
11461.808295948729
 21
7768.4438367356697
 31
0.0
  0
LINE
  5
7E4D
  8
KL
 10
11483.808295948729
 20
7800.4438367356706
 30
0.0
 11
11526.808295948729
 21
7800.4438367356706
 31
0.0
  0
LINE
  5
7E4E
  8
KL
 10
11491.808295948729
 20
7848.4438367356697
 30
0.0
 11
11486.808295948729
 21
7800.4438367356706
 31
0.0
  0
LINE
  5
7E4F
  8
KL
 10
11566.808295948729
 20
7858.4438367356706
 30
0.0
 11
11566.808295948729
 21
7793.4438367356697
 31
0.0
  0
LINE
  5
7E50
  8
KL
 10
11526.808295948729
 20
7793.4438367356697
 30
0.0
 11
11526.808295948729
 21
7858.4438367356706
 31
0.0
  0
LINE
  5
7E51
  8
CT
 10
11546.808295948729
 20
7783.4438367356706
 30
0.0
 11
11546.808295948729
 21
7888.4438367356706
 31
0.0
  0
LINE
  5
7E52
  8
KL
 10
11820.808295948729
 20
7867.6821187356709
 30
0.0
 11
11836.808295948729
 21
7876.9194227356711
 31
0.0
  0
LINE
  5
7E53
  8
KL
 10
11820.808295948729
 20
7849.2065327356713
 30
0.0
 11
11836.808295948729
 21
7839.9692277356708
 31
0.0
  0
LINE
  5
7E54
  8
KL
 10
11820.808295948729
 20
7849.2065327356713
 30
0.0
 11
11820.808295948729
 21
7867.6821187356709
 31
0.0
  0
LINE
  5
7E55
  8
KL
 10
11852.808295948729
 20
7849.2065327356713
 30
0.0
 11
11852.808295948729
 21
7867.6821187356709
 31
0.0
  0
CIRCLE
  5
7E56
  8
KL
 10
11836.808295948729
 20
7858.4438367356706
 30
0.0
 40
16.0
  0
LINE
  5
7E57
  8
KL
 10
11836.808295948729
 20
7876.9194227356711
 30
0.0
 11
11852.808295948729
 21
7867.6821187356709
 31
0.0
  0
LINE
  5
7E58
  8
KL
 10
11836.808295948729
 20
7839.9692277356708
 30
0.0
 11
11852.808295948729
 21
7849.2065327356713
 31
0.0
  0
ARC
  5
7E59
  8
KL
 10
11836.808295948729
 20
7858.4438367356706
 30
0.0
 40
20.0
 50
0.000000000000007
 51
180.0
  0
LINE
  5
7E5A
  8
KL
 10
11866.808295948729
 20
7858.4438367356706
 30
0.0
 11
11806.808295948729
 21
7858.4438367356706
 31
0.0
  0
LINE
  5
7E5B
  8
KL
 10
11591.808295948729
 20
7843.4438367356697
 30
0.0
 11
11791.808295948729
 21
7843.4438367356697
 31
0.0
  0
LINE
  5
7E5C
  8
KL
 10
11889.808295948729
 20
7788.4438367356697
 30
0.0
 11
11889.808295948729
 21
7793.4438367356697
 31
0.0
  0
LINE
  5
7E5D
  8
KL
 10
11899.808295948729
 20
7800.4438367356706
 30
0.0
 11
11899.808295948729
 21
7793.4438367356697
 31
0.0
  0
LINE
  5
7E5E
  8
KL
 10
11899.808295948729
 20
7800.4438367356706
 30
0.0
 11
11856.808295948729
 21
7800.4438367356706
 31
0.0
  0
LINE
  5
7E5F
  8
CT
 10
11921.808295948729
 20
7838.4438367356697
 30
0.0
 11
11921.808295948729
 21
7768.4438367356697
 31
0.0
  0
ARC
  5
7E60
  8
KL
 10
11943.808295948729
 20
7815.4438367356706
 30
0.0
 40
3.0
 50
0.000000000000007
 51
90.0
  0
LINE
  5
7E61
  8
KL
 10
11946.808295948729
 20
7788.4438367356697
 30
0.0
 11
11946.808295948729
 21
7815.4438367356706
 31
0.0
  0
LINE
  5
7E62
  8
KL
 10
11894.933295948729
 20
7818.4438367356706
 30
0.0
 11
11943.808295948729
 21
7818.4438367356706
 31
0.0
  0
LINE
  5
7E63
  8
KL
 10
11889.808295948729
 20
7788.4438367356697
 30
0.0
 11
11946.808295948729
 21
7788.4438367356697
 31
0.0
  0
LINE
  5
7E64
  8
KL
 10
11891.808295948729
 20
7848.4438367356697
 30
0.0
 11
11896.808295948729
 21
7800.4438367356706
 31
0.0
  0
LINE
  5
7E65
  8
KL
 10
11816.808295948729
 20
7858.4438367356706
 30
0.0
 11
11816.808295948729
 21
7793.4438367356697
 31
0.0
  0
LINE
  5
7E66
  8
KL
 10
11856.808295948729
 20
7793.4438367356697
 30
0.0
 11
11856.808295948729
 21
7858.4438367356706
 31
0.0
  0
LINE
  5
7E67
  8
CT
 10
11836.808295948729
 20
7783.4438367356706
 30
0.0
 11
11836.808295948729
 21
7888.4438367356706
 31
0.0
  0
LINE
  5
7E68
  8
FUTO
 10
7390.6469153330117
 20
7868.1489147356706
 30
0.0
 11
7389.0469393330131
 21
7866.5493057356707
 31
0.0
  0
LINE
  5
7E69
  8
FUTO
 10
7390.6469153330117
 20
7868.1489147356706
 30
0.0
 11
7389.0469393330131
 21
7869.749500735672
 31
0.0
  0
LINE
  5
7E6A
  8
FUTO
 10
7390.6469153330117
 20
7868.1489147356706
 30
0.0
 11
7402.7468903330118
 21
7868.1489147356706
 31
0.0
  0
LINE
  5
7E6B
  8
FUTO
 10
7389.0470613330126
 20
7874.4340717356718
 30
0.0
 11
7390.6470373330121
 21
7876.0336807356707
 31
0.0
  0
LINE
  5
7E6C
  8
FUTO
 10
7390.6469153330117
 20
7876.0336807356707
 30
0.0
 11
7402.7468903330118
 21
7876.0336807356707
 31
0.0
  0
LINE
  5
7E6D
  8
FUTO
 10
7390.6469153330117
 20
7848.7387587356716
 30
0.0
 11
7389.0469393330131
 21
7850.3393447356702
 31
0.0
  0
LINE
  5
7E6E
  8
FUTO
 10
7390.6469153330117
 20
7848.7387587356716
 30
0.0
 11
7389.0469393330131
 21
7847.1391497356708
 31
0.0
  0
LINE
  5
7E6F
  8
FUTO
 10
7390.6469153330117
 20
7848.7387587356716
 30
0.0
 11
7402.7468903330118
 21
7848.7387587356716
 31
0.0
  0
LINE
  5
7E70
  8
FUTO
 10
7390.6469153330117
 20
7840.85399373567
 30
0.0
 11
7402.7468903330118
 21
7840.85399373567
 31
0.0
  0
LINE
  5
7E71
  8
FUTO
 10
7390.6469153330117
 20
7840.85399373567
 30
0.0
 11
7389.0469393330131
 21
7842.4545787356701
 31
0.0
  0
LINE
  5
7E72
  8
FUTO
 10
7389.0470613330126
 20
7874.4340717356718
 30
0.0
 11
7389.0470613330126
 21
7842.4545787356701
 31
0.0
  0
LINE
  5
7E73
  8
FUTO
 10
7402.7470123330131
 20
7876.0336807356707
 30
0.0
 11
7402.7470123330131
 21
7840.85399373567
 31
0.0
  0
LINE
  5
7E74
  8
HOSO
 10
7465.1013833330126
 20
7851.4438367356697
 30
0.0
 11
7402.747256333012
 21
7851.4438367356697
 31
0.0
  0
LINE
  5
7E75
  8
FUTO
 10
7465.1013833330126
 20
7867.4438367356706
 30
0.0
 11
7402.747256333012
 21
7867.4438367356706
 31
0.0
  0
LINE
  5
7E76
  8
HOSO
 10
7402.7470123330131
 20
7865.4438367356697
 30
0.0
 11
7465.1013833330126
 21
7865.4438367356697
 31
0.0
  0
LINE
  5
7E77
  8
FUTO
 10
7402.7470123330131
 20
7849.4438367356697
 30
0.0
 11
7465.1013833330126
 21
7849.4438367356697
 31
0.0
  0
LINE
  5
7E78
  8
FUTO
 10
7561.101505333012
 20
7865.4438367356697
 30
0.0
 11
7559.101505333012
 21
7867.4438367356706
 31
0.0
  0
LINE
  5
7E79
  8
HOSO
 10
7497.2680499996786
 20
7865.4438367356697
 30
0.0
 11
7561.1013823330131
 21
7865.4438367356697
 31
0.0
  0
LINE
  5
7E7A
  8
FUTO
 10
7559.101505333012
 20
7867.4438367356706
 30
0.0
 11
7496.9347166663474
 21
7867.4438367356706
 31
0.0
  0
LINE
  5
7E7B
  8
FUTO
 10
7559.101505333012
 20
7849.4438367356697
 30
0.0
 11
7561.101505333012
 21
7851.4438367356697
 31
0.0
  0
LINE
  5
7E7C
  8
FUTO
 10
7499.9347166663474
 20
7849.4438367356697
 30
0.0
 11
7559.101505333012
 21
7849.4438367356697
 31
0.0
  0
LINE
  5
7E7D
  8
HOSO
 10
7561.101505333012
 20
7851.4438367356697
 30
0.0
 11
7499.6013833330117
 21
7851.4438367356697
 31
0.0
  0
LINE
  5
7E7E
  8
FUTO
 10
7559.101505333012
 20
7867.4438367356706
 30
0.0
 11
7559.101505333012
 21
7849.4438367356697
 31
0.0
  0
LINE
  5
7E7F
  8
FUTO
 10
7495.1013833330117
 20
7878.4438367356706
 30
0.0
 11
7500.1013833330144
 21
7848.4438367356697
 31
0.0
  0
LINE
  5
7E80
  8
FUTO
 10
7818.1015053330129
 20
7843.4438367356697
 30
0.0
 11
7682.1013833330117
 21
7843.4438367356697
 31
0.0
  0
LINE
  5
7E81
  8
FUTO
 10
7498.1013833330117
 20
7848.4438367356697
 30
0.0
 11
7682.1013833330117
 21
7848.4438367356697
 31
0.0
  0
LINE
  5
7E82
  8
FUTO
 10
7495.1013833330117
 20
7878.4438367356706
 30
0.0
 11
7465.1013833330126
 21
7878.4438367356706
 31
0.0
  0
LINE
  5
7E83
  8
CT
 10
7561.101505333012
 20
7858.4438367356706
 30
0.0
 11
7379.0470613330126
 21
7858.4438367356706
 31
0.0
  0
LINE
  5
7E84
  8
FUTO
 10
7490.1013833330117
 20
7793.4438367356697
 30
0.0
 11
7465.1013833330126
 21
7793.4438367356697
 31
0.0
  0
LINE
  5
7E85
  8
FUTO
 10
7493.1013833330117
 20
7800.4438367356706
 30
0.0
 11
7490.1013833330117
 21
7800.4438367356706
 31
0.0
  0
LINE
  5
7E86
  8
FUTO
 10
7490.1013833330117
 20
7800.4438367356706
 30
0.0
 11
7490.1013833330117
 21
7793.4438367356697
 31
0.0
  0
ARC
  5
7E87
  8
FUTO
 10
7543.1011393330118
 20
7815.4438367356706
 30
0.0
 40
3.0
 50
89.997664999998861
 51
180.0
  0
LINE
  5
7E88
  8
FUTO
 10
7540.1013833330126
 20
7788.4438367356697
 30
0.0
 11
7540.1013833330126
 21
7815.4438367356706
 31
0.0
  0
ARC
  5
7E89
  8
FUTO
 10
7637.1013833330117
 20
7815.4438367356706
 30
0.0
 40
3.0
 50
0.000000000000007
 51
90.002335000001125
  0
LINE
  5
7E8A
  8
FUTO
 10
7640.1013833330117
 20
7788.4438367356697
 30
0.0
 11
7640.1013833330117
 21
7815.4438367356706
 31
0.0
  0
LINE
  5
7E8B
  8
FUTO
 10
7637.1013833330117
 20
7818.4438367356706
 30
0.0
 11
7543.1013833330126
 21
7818.4438367356706
 31
0.0
  0
LINE
  5
7E8C
  8
FUTO
 10
7640.1013833330117
 20
7788.4438367356697
 30
0.0
 11
7540.1013833330126
 21
7788.4438367356697
 31
0.0
  0
LINE
  5
7E8D
  8
FUTO
 10
7490.1013833330117
 20
7793.4438367356697
 30
0.0
 11
7540.1013833330126
 21
7793.4438367356697
 31
0.0
  0
LINE
  5
7E8E
  8
FUTO
 10
7498.1013833330117
 20
7848.4438367356697
 30
0.0
 11
7493.1013833330117
 21
7800.4438367356706
 31
0.0
  0
LINE
  5
7E8F
  8
FUTO
 10
7465.1013833330126
 20
7878.4438367356706
 30
0.0
 11
7465.1013833330126
 21
7793.4438367356697
 31
0.0
  0
LINE
  5
7E90
  8
FUTO
 10
7939.101505333012
 20
7865.4438367356697
 30
0.0
 11
7941.101505333012
 21
7867.4438367356706
 31
0.0
  0
LINE
  5
7E91
  8
HOSO
 10
8002.9347776663453
 20
7865.4438367356734
 30
0.0
 11
7939.101505333012
 21
7865.4438367356697
 31
0.0
  0
LINE
  5
7E92
  8
FUTO
 10
7941.101505333012
 20
7867.4438367356706
 30
0.0
 11
8003.2681109996802
 21
7867.4438367356706
 31
0.0
  0
LINE
  5
7E93
  8
FUTO
 10
7941.101505333012
 20
7849.4438367356697
 30
0.0
 11
7939.101505333012
 21
7851.4438367356697
 31
0.0
  0
LINE
  5
7E94
  8
FUTO
 10
8000.2681109996802
 20
7849.4438367356697
 30
0.0
 11
7941.101505333012
 21
7849.4438367356697
 31
0.0
  0
LINE
  5
7E95
  8
HOSO
 10
7939.101505333012
 20
7851.4438367356697
 30
0.0
 11
8000.6014443330123
 21
7851.4438367356697
 31
0.0
  0
LINE
  5
7E96
  8
FUTO
 10
7941.101505333012
 20
7867.4438367356706
 30
0.0
 11
7941.101505333012
 21
7849.4438367356697
 31
0.0
  0
LINE
  5
7E97
  8
FUTO
 10
8005.1014443330123
 20
7878.4438367356706
 30
0.0
 11
8000.1014443330132
 21
7848.4438367356697
 31
0.0
  0
LINE
  5
7E98
  8
FUTO
 10
8035.1014443330132
 20
7867.4438367356706
 30
0.0
 11
8097.4559973330124
 21
7867.4438367356706
 31
0.0
  0
LINE
  5
7E99
  8
HOSO
 10
8097.4559363330109
 20
7865.4438367356697
 30
0.0
 11
8035.1014443330132
 21
7865.4438367356697
 31
0.0
  0
LINE
  5
7E9A
  8
HOSO
 10
8035.1014443330132
 20
7851.4438367356734
 30
0.0
 11
8097.4559973330124
 21
7851.4438367356697
 31
0.0
  0
LINE
  5
7E9B
  8
FUTO
 10
8097.4559363330109
 20
7849.4438367356697
 30
0.0
 11
8035.1014443330132
 21
7849.4438367356697
 31
0.0
  0
LINE
  5
7E9C
  8
FUTO
 10
8097.4559363330109
 20
7876.0336807356707
 30
0.0
 11
8097.4559363330109
 21
7840.85399373567
 31
0.0
  0
LINE
  5
7E9D
  8
FUTO
 10
8109.5559123330122
 20
7868.1489147356706
 30
0.0
 11
8111.1558873330123
 21
7866.5493057356707
 31
0.0
  0
LINE
  5
7E9E
  8
FUTO
 10
8109.5559123330122
 20
7868.1489147356706
 30
0.0
 11
8111.1558873330123
 21
7869.749500735672
 31
0.0
  0
LINE
  5
7E9F
  8
FUTO
 10
8111.1558873330123
 20
7874.4340717356718
 30
0.0
 11
8109.5559123330122
 21
7876.0336807356707
 31
0.0
  0
LINE
  5
7EA0
  8
FUTO
 10
8109.5559123330122
 20
7848.7387587356716
 30
0.0
 11
8111.1558873330123
 21
7850.3393447356702
 31
0.0
  0
LINE
  5
7EA1
  8
FUTO
 10
8109.5559123330122
 20
7848.7387587356716
 30
0.0
 11
8111.1558873330123
 21
7847.1391497356708
 31
0.0
  0
LINE
  5
7EA2
  8
FUTO
 10
8109.5559123330122
 20
7840.85399373567
 30
0.0
 11
8111.1558873330123
 21
7842.4545787356701
 31
0.0
  0
LINE
  5
7EA3
  8
FUTO
 10
8111.1558873330123
 20
7874.4340717356718
 30
0.0
 11
8111.1558873330123
 21
7842.4545787356701
 31
0.0
  0
LINE
  5
7EA4
  8
FUTO
 10
8109.5559123330122
 20
7848.7387587356716
 30
0.0
 11
8097.4559363330109
 21
7848.7387587356716
 31
0.0
  0
LINE
  5
7EA5
  8
FUTO
 10
8109.5559123330122
 20
7868.1489147356706
 30
0.0
 11
8097.4559363330109
 21
7868.1489147356706
 31
0.0
  0
LINE
  5
7EA6
  8
FUTO
 10
8109.5559123330122
 20
7840.85399373567
 30
0.0
 11
8097.4559363330109
 21
7840.85399373567
 31
0.0
  0
LINE
  5
7EA7
  8
FUTO
 10
8109.5559123330122
 20
7876.0336807356707
 30
0.0
 11
8097.4559363330109
 21
7876.0336807356707
 31
0.0
  0
LINE
  5
7EA8
  8
FUTO
 10
8005.1014443330123
 20
7878.4438367356706
 30
0.0
 11
8035.1014443330132
 21
7878.4438367356706
 31
0.0
  0
LINE
  5
7EA9
  8
CT
 10
7939.101505333012
 20
7858.4438367356706
 30
0.0
 11
8121.1558873330123
 21
7858.4438367356706
 31
0.0
  0
ARC
  5
7EAA
  8
FUTO
 10
7863.1013833330126
 20
7815.4438367356706
 30
0.0
 40
2.999938999999999
 50
89.998833000023183
 51
180.0
  0
LINE
  5
7EAB
  8
FUTO
 10
7860.101505333012
 20
7788.4438367356697
 30
0.0
 11
7860.101505333012
 21
7815.4438367356706
 31
0.0
  0
ARC
  5
7EAC
  8
FUTO
 10
7957.1015053330129
 20
7815.4438367356706
 30
0.0
 40
3.0
 50
0.000000000000007
 51
90.001167000028914
  0
LINE
  5
7EAD
  8
FUTO
 10
8007.1014443330132
 20
7800.4438367356706
 30
0.0
 11
8010.1014443330132
 21
7800.4438367356706
 31
0.0
  0
LINE
  5
7EAE
  8
FUTO
 10
8010.1014443330132
 20
7800.4438367356706
 30
0.0
 11
8010.1014443330132
 21
7793.4438367356697
 31
0.0
  0
LINE
  5
7EAF
  8
FUTO
 10
8010.1014443330132
 20
7793.4438367356697
 30
0.0
 11
7960.1015053330111
 21
7793.4438367356697
 31
0.0
  0
LINE
  5
7EB0
  8
FUTO
 10
7960.1015053330111
 20
7788.4438367356697
 30
0.0
 11
7960.1015053330111
 21
7815.4438367356706
 31
0.0
  0
LINE
  5
7EB1
  8
FUTO
 10
7863.101505333012
 20
7818.4438367356706
 30
0.0
 11
7957.1015053330129
 21
7818.4438367356706
 31
0.0
  0
LINE
  5
7EB2
  8
FUTO
 10
7860.101505333012
 20
7788.4438367356697
 30
0.0
 11
7960.1015053330111
 21
7788.4438367356697
 31
0.0
  0
LINE
  5
7EB3
  8
FUTO
 10
8010.1014443330132
 20
7793.4438367356697
 30
0.0
 11
8035.1014443330132
 21
7793.4438367356697
 31
0.0
  0
LINE
  5
7EB4
  8
FUTO
 10
8002.1014443330123
 20
7848.4438367356697
 30
0.0
 11
8007.1014443330132
 21
7800.4438367356706
 31
0.0
  0
LINE
  5
7EB5
  8
FUTO
 10
8035.1014443330132
 20
7878.4438367356706
 30
0.0
 11
8035.1014443330132
 21
7793.4438367356697
 31
0.0
  0
LINE
  5
7EB6
  8
CT
 10
7910.1015053330111
 20
7838.4438367356697
 30
0.0
 11
7910.1015053330111
 21
7768.4438367356697
 31
0.0
  0
LINE
  5
7EB7
  8
FUTO
 10
8002.1014443330123
 20
7848.4438367356697
 30
0.0
 11
7818.1015053330129
 21
7848.4438367356697
 31
0.0
  0
LINE
  5
7EB8
  8
FUTO
 10
7860.101505333012
 20
7793.4438367356697
 30
0.0
 11
7640.1015053330129
 21
7793.4438367356697
 31
0.0
  0
LINE
  5
7EB9
  8
KL
 10
11566.808295948729
 20
7800.4438367356706
 30
0.0
 11
11816.808295948729
 21
7800.4438367356706
 31
0.0
  0
LINE
  5
7EBA
  8
KL
 10
11483.808295948729
 20
7793.4438367356697
 30
0.0
 11
11899.808295948729
 21
7793.4438367356697
 31
0.0
  0
LINE
  5
7EBB
  8
KL
 10
11507.808295948729
 20
8210.4438367356706
 30
0.0
 11
11507.808295948729
 21
8173.4438367356688
 31
0.0
  0
ARC
  5
7EBC
  8
KL
 10
11472.093940948729
 20
8227.5397847356726
 30
0.0
 40
9.9999679999999991
 50
91.999329000023934
 51
135.0
  0
ARC
  5
7EBD
  8
FUTO
 10
11445.100775948729
 20
8200.5466207356694
 30
0.0
 40
10.000024
 50
135.0
 51
177.00096100001281
  0
LINE
  5
7EBE
  8
KL
 10
11465.02289594873
 20
8234.6108297356695
 30
0.0
 11
11438.029731948731
 21
8207.6176647356697
 31
0.0
  0
LINE
  5
7EBF
  8
KL
 10
11497.808295948729
 20
8210.4438367356706
 30
0.0
 11
11502.808295948729
 21
8210.4438367356706
 31
0.0
  0
LINE
  5
7EC0
  8
KL
 10
11502.808295948729
 20
8210.4438367356706
 30
0.0
 11
11507.808295948729
 21
8210.4438367356706
 31
0.0
  0
LINE
  5
7EC1
  8
KL
 10
11517.186469948731
 20
8245.4438367356706
 30
0.0
 11
11507.808295948729
 21
8210.4438367356706
 31
0.0
  0
LINE
  5
7EC2
  8
KL
 10
11497.808295948729
 20
8238.4438367356706
 30
0.0
 11
11471.745063948731
 21
8237.5336807356707
 31
0.0
  0
LINE
  5
7EC4
  8
KL
 10
11532.808295948729
 20
8258.4438367356706
 30
0.0
 11
11517.186469948731
 21
8245.4438367356706
 31
0.0
  0
LINE
  5
7EC5
  8
FUTO
 10
11266.308295948729
 20
8082.4438367356697
 30
0.0
 11
11266.308295948729
 21
8018.4438367356697
 31
0.0
  0
ARC
  5
7EC6
  8
FUTO
 10
11418.308295948729
 20
8126.4438367356706
 30
0.0
 40
2.0
 50
90.0
 51
180.0
  0
ARC
  5
7ED5
  8
KL
 10
11517.808295948729
 20
8173.4438367356688
 30
0.0
 40
10.0
 50
90.0
 51
180.0
  0
ARC
  5
7ED8
  8
FUTO
 10
11428.46137194873
 20
8131.4438367356706
 30
0.0
 40
2.9999599999999988
 50
270.0
 51
357.00044300001662
  0
LINE
  5
7ED9
  8
FUTO
 10
11428.46137194873
 20
8128.4438367356706
 30
0.0
 11
11418.308295948729
 21
8128.4438367356706
 31
0.0
  0
LINE
  5
7EDA
  8
FUTO
 10
11376.308295948729
 20
8082.4438367356697
 30
0.0
 11
11376.308295948729
 21
8078.4438367356706
 31
0.0
  0
LINE
  5
7EDB
  8
FUTO
 10
11406.308295948729
 20
8080.9438367356697
 30
0.0
 11
11416.308295948729
 21
8080.9438367356697
 31
0.0
  0
LINE
  5
7EDC
  8
FUTO
 10
11406.308295948729
 20
8015.9438367356706
 30
0.0
 11
11416.308295948729
 21
8015.9438367356706
 31
0.0
  0
LINE
  5
7EDD
  8
FUTO
 10
11406.308295948729
 20
8015.9438367356706
 30
0.0
 11
11406.308295948729
 21
8080.9438367356697
 31
0.0
  0
ARC
  5
7EDE
  8
KL
 10
11517.808295948729
 20
8073.4438367356697
 30
0.0
 40
10.0
 50
180.0
 51
270.0
  0
LINE
  5
7EDF
  8
FUTO
 10
11416.308295948729
 20
8126.4438367356706
 30
0.0
 11
11416.308295948729
 21
8048.4438367356688
 31
0.0
  0
LINE
  5
7EE0
  8
KL
 10
11507.808295948729
 20
8073.4438367356697
 30
0.0
 11
11507.808295948729
 21
8173.4438367356688
 31
0.0
  0
LINE
  5
7EE1
  8
FUTO
 10
11406.308295948729
 20
8078.4438367356706
 30
0.0
 11
11266.308295948729
 21
8078.4438367356706
 31
0.0
  0
LINE
  5
7EE2
  8
FUTO
 10
11406.308295948729
 20
8018.4438367356697
 30
0.0
 11
11266.308295948729
 21
8018.4438367356697
 31
0.0
  0
LINE
  5
7EE3
  8
FUTO
 10
11376.308295948729
 20
8082.4438367356697
 30
0.0
 11
11266.308295948729
 21
8082.4438367356697
 31
0.0
  0
LINE
  5
7EE4
  8
KL
 10
11502.808295948729
 20
8210.4438367356706
 30
0.0
 11
11502.808295948729
 21
8048.4438367356688
 31
0.0
  0
LINE
  5
7EE5
  8
KL
 10
11497.808295948729
 20
8238.4438367356706
 30
0.0
 11
11497.808295948729
 21
8048.4438367356688
 31
0.0
  0
LINE
  5
7EE6
  8
FUTO
 10
11435.11444794873
 20
8201.0698137356685
 30
0.0
 11
11430.47162594873
 21
8112.4785047356709
 31
0.0
  0
LINE
  5
7EE8
  8
KL
 10
11502.808295948729
 20
8210.4438367356706
 30
0.0
 11
11502.808295948729
 21
8048.4438367356688
 31
0.0
  0
ARC
  5
7EE9
  8
KL
 10
11680.57331094873
 20
8266.7229507356715
 30
0.0
 40
2.9999909999999992
 50
96.115172999988943
 51
174.80557099997009
  0
LINE
  5
7EEA
  8
KL
 10
11677.585639948729
 20
8266.9945577356684
 30
0.0
 11
11676.808295948729
 21
8258.4438367356706
 31
0.0
  0
ARC
  5
7EEB
  8
KL
 10
11670.849921948729
 20
8259.1736347356727
 30
0.0
 40
5.9999760000000002
 50
354.80557299999322
 51
54.396263000016731
  0
ARC
  5
7EEC
  8
KL
 10
11703.04328094873
 20
8266.7229507356715
 30
0.0
 40
2.999981
 50
5.194427000006832
 51
83.884827000011072
  0
ARC
  5
7EED
  8
KL
 10
11691.808295948729
 20
8288.4438367356706
 30
0.0
 40
30.0
 50
305.19004800002568
 51
305.60386699999998
  0
LINE
  5
7EEE
  8
KL
 10
11691.808295948729
 20
8270.9438367356706
 30
0.0
 11
11703.36286094873
 21
8269.7058607356703
 31
0.0
  0
LINE
  5
7EEF
  8
KL
 10
11706.030951948729
 20
8266.9945577356684
 30
0.0
 11
11706.808295948729
 21
8258.4438367356706
 31
0.0
  0
ARC
  5
7EF0
  8
KL
 10
11712.766669948731
 20
8259.1736347356727
 30
0.0
 40
5.9999820000000001
 50
125.6037369999832
 51
185.19442700000681
  0
LINE
  5
7EF1
  8
KL
 10
11691.808295948729
 20
8270.9438367356706
 30
0.0
 11
11680.253730948731
 21
8269.7058607356703
 31
0.0
  0
LINE
  5
7EF2
  8
KL
 10
11680.253730948731
 20
8269.7058607356703
 30
0.0
 11
11703.36286094873
 21
8269.7058607356703
 31
0.0
  0
LINE
  5
7EF3
  8
KL
 10
11731.808295948729
 20
8288.4438367356706
 30
0.0
 11
11651.808295948729
 21
8288.4438367356706
 31
0.0
  0
LINE
  5
7EF4
  8
KL
 10
11632.808295948729
 20
8197.4438367356706
 30
0.0
 11
11750.808295948729
 21
8197.4438367356706
 31
0.0
  0
CIRCLE
  5
7EF5
  8
KL
 10
11691.808295948729
 20
8288.4438367356706
 30
0.0
 40
17.5
  0
ARC
  5
7EF6
  8
KL
 10
11691.808295948729
 20
8288.4438367356706
 30
0.0
 40
30.0
 50
305.60386699999998
 51
234.39614899998969
  0
LINE
  5
7EF7
  8
KL
 10
11850.80823494873
 20
8258.4438367356706
 30
0.0
 11
11860.80823494873
 21
8250.1220597356696
 31
0.0
  0
ARC
  5
7EF8
  8
KL
 10
11907.281623948729
 20
8231.9438367356724
 30
0.0
 40
20.0
 50
69.99995399998474
 51
90.0
  0
ARC
  5
7EF9
  8
KL
 10
11944.55701394873
 20
8260.9438367356706
 30
0.0
 40
20.0
 50
250.00027499999021
 51
270.0
  0
LINE
  5
7EFC
  8
KL
 10
11914.12207794873
 20
8250.7377827356704
 30
0.0
 11
11937.71668194873
 21
8242.1498917356694
 31
0.0
  0
LINE
  5
7EFD
  8
KL
 10
11860.80823494873
 20
8251.9438367356706
 30
0.0
 11
11907.281623948729
 21
8251.9438367356706
 31
0.0
  0
LINE
  5
7EFE
  8
KL
 10
11850.80823494873
 20
8258.4438367356706
 30
0.0
 11
11691.808295948729
 21
8258.4438367356706
 31
0.0
  0
LINE
  5
7EFF
  8
KL
 10
11753.80823494873
 20
8190.4438367356706
 30
0.0
 11
11629.808295948729
 21
8190.4438367356706
 31
0.0
  0
ARC
  5
7F00
  8
KL
 10
11629.808295948729
 20
8015.7460827356717
 30
0.0
 40
20.0
 50
180.0
 51
270.0
  0
CIRCLE
  5
7F01
  8
KL
 10
11691.808295948729
 20
7982.7460827356717
 30
0.0
 40
3.5
  0
LINE
  5
7F02
  8
KL
 10
11698.26117694873
 20
7982.7460827356717
 30
0.0
 11
11683.672065948729
 21
7982.7460827356717
 31
0.0
  0
LINE
  5
7F03
  8
KL
 10
11629.808295948729
 20
7995.7460827356708
 30
0.0
 11
11753.808295948729
 21
7995.7460827356708
 31
0.0
  0
LINE
  5
7F04
  8
KL
 10
11750.80823494873
 20
7975.7460827356708
 30
0.0
 11
11632.808295948729
 21
7975.7460827356708
 31
0.0
  0
LINE
  5
7F05
  8
KL
 10
11609.808295948729
 20
8170.4438367356688
 30
0.0
 11
11609.808295948729
 21
8015.7460827356717
 31
0.0
  0
LINE
  5
7F06
  8
KL
 10
11602.808295948729
 20
8167.4438367356706
 30
0.0
 11
11602.808295948729
 21
8005.7460827356708
 31
0.0
  0
LINE
  5
7F07
  8
KL
 10
11860.80823494873
 20
8183.4438367356706
 30
0.0
 11
11776.18543194873
 21
8183.4438367356706
 31
0.0
  0
LINE
  5
7F0B
  8
KL
 10
11860.80823494873
 20
8063.4438367356697
 30
0.0
 11
11780.80823494873
 21
8063.4438367356697
 31
0.0
  0
LINE
  5
7F0C
  8
KL
 10
11773.80823494873
 20
8170.4438367356688
 30
0.0
 11
11773.80823494873
 21
8015.7460827356717
 31
0.0
  0
LINE
  5
7F0D
  8
KL
 10
11780.80823494873
 20
8167.4438367356706
 30
0.0
 11
11780.80823494873
 21
8005.7460827356708
 31
0.0
  0
ARC
  5
7F0E
  8
KL
 10
11753.80823494873
 20
8015.7460827356717
 30
0.0
 40
20.0
 50
270.0
 51
0.000000000000007
  0
LINE
  5
7F0F
  8
KL
 10
11800.80823494873
 20
8123.4438367356697
 30
0.0
 11
11582.808295948729
 21
8123.4438367356697
 31
0.0
  0
ARC
  5
7F10
  8
KL
 10
11753.80823494873
 20
8170.4438367356688
 30
0.0
 40
20.0
 50
0.000000000000007
 51
90.0
  0
ARC
  5
7F11
  8
KL
 10
11629.808295948729
 20
8170.4438367356688
 30
0.0
 40
20.0
 50
90.0
 51
180.0
  0
ARC
  5
7F12
  8
KL
 10
11632.808295948729
 20
8167.4438367356706
 30
0.0
 40
30.0
 50
90.0
 51
180.0
  0
ARC
  5
7F13
  8
KL
 10
11750.80823494873
 20
8167.4438367356706
 30
0.0
 40
30.0
 50
0.000000000000007
 51
90.0
  0
LINE
  5
7F18
  8
KL
 10
11532.808295948729
 20
8258.4438367356706
 30
0.0
 11
11691.808295948729
 21
8258.4438367356706
 31
0.0
  0
LINE
  5
7F19
  8
KL
 10
11517.808295948729
 20
8183.4438367356706
 30
0.0
 11
11607.431098948729
 21
8183.4438367356706
 31
0.0
  0
LINE
  5
7F1A
  8
KL
 10
11517.808295948729
 20
8063.4438367356697
 30
0.0
 11
11602.808295948729
 21
8063.4438367356697
 31
0.0
  0
ARC
  5
7F1B
  8
FUTO
 10
11418.308295948729
 20
7970.4438367356697
 30
0.0
 40
2.0
 50
180.0
 51
270.0
  0
ARC
  5
7F1C
  8
FUTO
 10
11428.46137194873
 20
7965.4438367356697
 30
0.0
 40
3.0
 50
2.9995570000354208
 51
90.0
  0
ARC
  5
7F1D
  8
FUTO
 10
11443.15790494873
 20
7933.412098735671
 30
0.0
 40
10.000139999999989
 50
183.00042699998181
 51
225.00097699998821
  0
ARC
  5
7F2C
  8
FUTO
 10
11445.100775948729
 20
7896.3410537356713
 30
0.0
 40
9.9999679999999991
 50
182.9990540000266
 51
225.0
  0
LINE
  5
7F2D
  8
KL
 10
11507.808295948729
 20
7896.6830947356702
 30
0.0
 11
11526.896918948731
 21
7896.6830947356702
 31
0.0
  0
LINE
  5
7F2E
  8
KL
 10
11508.84418494873
 20
7886.4438367356706
 30
0.0
 11
11502.808295948729
 21
7886.4438367356706
 31
0.0
  0
LINE
  5
7F2F
  8
KL
 10
11497.808295948729
 20
7886.4438367356706
 30
0.0
 11
11502.808295948729
 21
7886.4438367356706
 31
0.0
  0
ARC
  5
7F30
  8
KL
 10
11514.808295948729
 20
7865.4438367356697
 30
0.0
 40
3.0
 50
90.0
 51
180.0
  0
ARC
  5
7F31
  8
KL
 10
11521.896918948731
 20
7873.4438367356697
 30
0.0
 40
5.0
 50
270.0
 51
0.000000000000007
  0
LINE
  5
7F32
  8
KL
 10
11507.808295948729
 20
7889.5703017356709
 30
0.0
 11
11510.366889948729
 21
7889.5703017356709
 31
0.0
  0
LINE
  5
7F33
  8
KL
 10
11514.808295948729
 20
7868.4438367356706
 30
0.0
 11
11507.808295948729
 21
7889.5703017356709
 31
0.0
  0
LINE
  5
7F34
  8
KL
 10
11526.896918948731
 20
7873.4438367356697
 30
0.0
 11
11526.896918948731
 21
7896.6830947356702
 31
0.0
  0
LINE
  5
7F35
  8
KL
 10
11517.96649894873
 20
7868.4438367356706
 30
0.0
 11
11507.808295948729
 21
7896.6830947356702
 31
0.0
  0
LINE
  5
7F38
  8
FUTO
 10
11431.43964394873
 20
7965.9390767356708
 30
0.0
 11
11435.11444794873
 21
7895.8178607356704
 31
0.0
  0
LINE
  5
7F3A
  8
KL
 10
11464.87934094873
 20
7897.5485737356703
 30
0.0
 11
11436.086859948729
 21
7926.3408097356696
 31
0.0
  0
LINE
  5
7F3D
  8
FUTO
 10
11428.46137194873
 20
7968.4438367356697
 30
0.0
 11
11418.308295948729
 21
7968.4438367356697
 31
0.0
  0
ARC
  5
7F3E
  8
KL
 10
11472.093940948729
 20
7869.3478897356708
 30
0.0
 40
9.9999839999999995
 50
225.0
 51
268.00067099997602
  0
LINE
  5
7F3F
  8
KL
 10
11497.808295948729
 20
7858.4438367356706
 30
0.0
 11
11471.745063948731
 21
7859.3539937356709
 31
0.0
  0
LINE
  5
7F40
  8
KL
 10
11511.808295948729
 20
7848.4438367356697
 30
0.0
 11
11511.808295948729
 21
7865.4438367356697
 31
0.0
  0
LINE
  5
7F41
  8
KL
 10
11465.02289594873
 20
7862.2768447356711
 30
0.0
 11
11438.029731948731
 21
7889.2700087356707
 31
0.0
  0
LINE
  5
7F42
  8
KL
 10
11652.20819794873
 20
7870.0517477356707
 30
0.0
 11
11571.808295948729
 21
7868.4438367356706
 31
0.0
  0
ARC
  5
7F43
  8
KL
 10
11666.808295948729
 20
7930.9399307356716
 30
0.0
 40
5.0
 50
0.000000000000007
 51
90.0
  0
ARC
  5
7F44
  8
KL
 10
11716.808295948729
 20
7930.9399307356716
 30
0.0
 40
5.0
 50
90.0
 51
180.0
  0
ARC
  5
7F45
  8
KL
 10
11731.80823494873
 20
7890.0478407356704
 30
0.0
 40
20.000091999999999
 50
180.0
 51
268.85427899999053
  0
LINE
  5
7F46
  8
KL
 10
11711.808295948729
 20
7930.9399307356716
 30
0.0
 11
11711.808295948729
 21
7890.0478407356704
 31
0.0
  0
LINE
  5
7F47
  8
KL
 10
11671.808295948729
 20
7930.9399307356716
 30
0.0
 11
11671.808295948729
 21
7890.0478407356704
 31
0.0
  0
ARC
  5
7F48
  8
KL
 10
11651.808295948729
 20
7890.0478407356704
 30
0.0
 40
20.0
 50
271.14572100000942
 51
0.000000000000007
  0
LINE
  5
7F49
  8
KL
 10
11591.808295948729
 20
7848.4438367356697
 30
0.0
 11
11591.808295948729
 21
7849.4438367356697
 31
0.0
  0
ARC
  5
7F4A
  8
KL
 10
11596.808295948729
 20
7849.4438367356697
 30
0.0
 40
5.0
 50
90.0
 51
180.0
  0
LINE
  5
7F4B
  8
KL
 10
11596.808295948729
 20
7854.4438367356697
 30
0.0
 11
11691.808295948729
 21
7854.4438367356697
 31
0.0
  0
ARC
  5
7F4C
  8
KL
 10
11868.80823494873
 20
7865.4438367356697
 30
0.0
 40
3.0
 50
0.000000000000007
 51
90.0
  0
LINE
  5
7F4D
  8
KL
 10
11811.80823494873
 20
7868.4438367356706
 30
0.0
 11
11819.48778787304
 21
7868.4438367356706
 31
0.0
  0
ARC
  5
7F57
  8
KL
 10
11786.80823494873
 20
7849.4438367356697
 30
0.0
 40
5.0
 50
0.000000000000007
 51
90.0
  0
LINE
  5
7F58
  8
KL
 10
11791.80823494873
 20
7848.4438367356697
 30
0.0
 11
11791.80823494873
 21
7849.4438367356697
 31
0.0
  0
LINE
  5
7F59
  8
KL
 10
11791.80823494873
 20
7848.4438367356697
 30
0.0
 11
11816.808295948729
 21
7848.4438367356697
 31
0.0
  0
LINE
  5
7F5A
  8
KL
 10
11931.41431394873
 20
7852.4438367356706
 30
0.0
 11
11941.030280948729
 21
7855.9438367356697
 31
0.0
  0
LINE
  5
7F5B
  8
KL
 10
11931.41431394873
 20
7852.4438367356706
 30
0.0
 11
11871.80823494873
 21
7852.4438367356706
 31
0.0
  0
LINE
  5
7F5C
  8
KL
 10
11871.80823494873
 20
7848.4438367356697
 30
0.0
 11
11871.80823494873
 21
7865.4438367356697
 31
0.0
  0
LINE
  5
7F5D
  8
KL
 10
11731.408332948729
 20
7870.0517477356707
 30
0.0
 11
11811.80823494873
 21
7868.4438367356706
 31
0.0
  0
LINE
  5
7F5E
  8
KL
 10
11786.80823494873
 20
7854.4438367356697
 30
0.0
 11
11691.808295948729
 21
7854.4438367356697
 31
0.0
  0
LINE
  5
7F5F
  8
KL
 10
11571.808295948729
 20
7868.4438367356706
 30
0.0
 11
11564.12880402442
 21
7868.4438367356706
 31
0.0
  0
LINE
  5
7F60
  8
KL
 10
11591.808295948729
 20
7848.4438367356697
 30
0.0
 11
11566.808295948729
 21
7848.4438367356697
 31
0.0
  0
ARC
  5
7F61
  8
KL
 10
11750.80823494873
 20
8005.7460827356708
 30
0.0
 40
30.0
 50
270.0
 51
0.000000000000007
  0
ARC
  5
7F62
  8
KL
 10
11632.808295948729
 20
8005.7460827356708
 30
0.0
 40
30.0
 50
180.0
 51
270.0
  0
LINE
  5
7F63
  8
CT
 10
11691.808295948729
 20
8338.4438367356706
 30
0.0
 11
11691.808295948729
 21
7768.4438367356697
 31
0.0
  0
LINE
  5
7F64
  8
KL
 10
11502.808295948729
 20
7886.4438367356706
 30
0.0
 11
11502.808295948729
 21
8048.4438367356688
 31
0.0
  0
LINE
  5
7F65
  8
KL
 10
11860.80823494873
 20
8251.9438367356706
 30
0.0
 11
11860.80823494873
 21
7868.4438367356706
 31
0.0
  0
LINE
  5
7F66
  8
KL
 10
11910.80823494873
 20
8251.6303607356713
 30
0.0
 11
11910.80823494873
 21
7852.4438367356706
 31
0.0
  0
LINE
  5
7F67
  8
KL
 10
11941.008185948731
 20
8241.2612197356702
 30
0.0
 11
11941.008185948731
 21
7855.9438367356697
 31
0.0
  0
LINE
  5
7F68
  8
KL
 10
11502.808295948729
 20
7886.4438367356706
 30
0.0
 11
11502.808295948729
 21
8048.4438367356688
 31
0.0
  0
LINE
  5
7F69
  8
KL
 10
11497.808295948729
 20
7858.4438367356706
 30
0.0
 11
11497.808295948729
 21
8048.4438367356688
 31
0.0
  0
LINE
  5
7F6A
  8
FUTO
 10
11416.308295948729
 20
7970.4438367356697
 30
0.0
 11
11416.308295948729
 21
8048.4438367356688
 31
0.0
  0
ARC
  5
7F6B
  8
KL
 10
12005.497321948729
 20
8225.9438367356706
 30
0.0
 40
15.0
 50
60.00018299999563
 51
90.0
  0
ARC
  5
7F6C
  8
KL
 10
12060.80823494873
 20
8205.5571187356709
 30
0.0
 40
4.9999580000000003
 50
0.000000000000007
 51
59.999718000001181
  0
LINE
  5
7F6D
  8
KL
 10
12063.30823494873
 20
8209.8871967356718
 30
0.0
 11
12012.997321948729
 21
8238.9343157356707
 31
0.0
  0
LINE
  5
7F6E
  8
FUTO
 10
7519.0416913330118
 20
8194.6728407356713
 30
0.0
 11
7520.4492843330108
 21
8193.912098735671
 31
0.0
  0
ARC
  5
7F6F
  8
FUTO
 10
7518.5662273330117
 20
8193.7929577356717
 30
0.0
 40
1.000079999999999
 50
61.614464000024142
 51
151.6049860000241
  0
ARC
  5
7F70
  8
FUTO
 10
7519.9738203330126
 20
8193.0322157356713
 30
0.0
 40
1.0001299999999991
 50
331.6139680000237
 51
61.614464000024142
  0
LINE
  5
7F71
  8
FUTO
 10
7599.8800703330126
 20
8193.198963735671
 30
0.0
 11
7599.0314373330139
 21
8193.198963735671
 31
0.0
  0
LINE
  5
7F72
  8
FUTO
 10
7599.8800703330126
 20
8193.198963735671
 30
0.0
 11
7599.8800703330126
 21
8194.0475967356706
 31
0.0
  0
LINE
  5
7F73
  8
FUTO
 10
7607.6336103330123
 20
8200.952625735672
 30
0.0
 11
7611.2257733330107
 21
8197.3605847356703
 31
0.0
  0
LINE
  5
7F74
  8
FUTO
 10
7606.785099333013
 20
8200.952625735672
 30
0.0
 11
7607.6336103330123
 21
8200.952625735672
 31
0.0
  0
LINE
  5
7F75
  8
FUTO
 10
7605.3462563330131
 20
8198.6652727356723
 30
0.0
 11
7605.3462563330131
 21
8199.5139057356719
 31
0.0
  0
LINE
  5
7F76
  8
FUTO
 10
7605.3462563330131
 20
8198.6652727356723
 30
0.0
 11
7608.9384193330116
 21
8195.0732317356706
 31
0.0
  0
LINE
  5
7F77
  8
FUTO
 10
7605.3462563330131
 20
8198.6652727356723
 30
0.0
 11
7604.4977463330133
 21
8198.6652727356723
 31
0.0
  0
LINE
  5
7F78
  8
FUTO
 10
7404.0458413330134
 20
7984.0143937356706
 30
0.0
 11
7401.2475013330131
 21
7985.5268447356702
 31
0.0
  0
ARC
  5
7F79
  8
FUTO
 10
7399.6951333330126
 20
7973.8620497356724
 30
0.0
 40
1.0001299999999991
 50
151.61727900002231
 51
241.61447099997949
  0
ARC
  5
7F7A
  8
FUTO
 10
8398.4723553330114
 20
8059.9750867356697
 30
0.0
 40
1000.0
 50
174.84371900001099
 51
184.2695309999898
  0
LINE
  5
7F7B
  8
FUTO
 10
7519.1323893330118
 20
8189.3725477356702
 30
0.0
 11
7527.4788253330116
 21
8184.8613177356719
 31
0.0
  0
ARC
  5
7F7C
  8
FUTO
 10
7525.101505333012
 20
8180.4626357356719
 30
0.0
 40
5.000062999999999
 50
0.000000000000007
 51
61.609245000013807
  0
LINE
  5
7F7D
  8
CT
 10
7547.5463303330134
 20
8123.4438367356697
 30
0.0
 11
7511.1129803330132
 21
8123.4438367356697
 31
0.0
  0
LINE
  5
7F7E
  8
FUTO
 10
7597.5927163330134
 20
8190.9116107356713
 30
0.0
 11
7601.1847573330133
 21
8187.3195697356723
 31
0.0
  0
LINE
  5
7F7F
  8
FUTO
 10
7597.5927163330134
 20
8190.9116107356713
 30
0.0
 11
7597.5927163330134
 21
8191.76024373567
 31
0.0
  0
LINE
  5
7F80
  8
FUTO
 10
7529.115604333012
 20
8183.4438367356706
 30
0.0
 11
7597.8278243330114
 21
8183.4438367356706
 31
0.0
  0
LINE
  5
7F81
  8
FUTO
 10
7530.101505333012
 20
8063.4438367356697
 30
0.0
 11
7547.1549723330108
 21
8063.4438367356697
 31
0.0
  0
ARC
  5
7F82
  8
FUTO
 10
7511.2736253330131
 20
7993.4438367356706
 30
0.0
 40
10.000057999999999
 50
270.0
 51
352.87567099997028
  0
LINE
  5
7F83
  8
FUTO
 10
7530.101505333012
 20
8063.4438367356697
 30
0.0
 11
7521.1964763330134
 21
7992.2036027356717
 31
0.0
  0
LINE
  5
7F84
  8
FUTO
 10
7540.101505333012
 20
8063.4438367356697
 30
0.0
 11
7540.101505333012
 21
8183.4438367356706
 31
0.0
  0
LINE
  5
7F85
  8
FUTO
 10
7530.101505333012
 20
8063.4438367356697
 30
0.0
 11
7530.101505333012
 21
8180.4626357356719
 31
0.0
  0
LINE
  5
7F86
  8
FUTO
 10
7407.8294723330127
 20
7983.4438367356706
 30
0.0
 11
7511.2736253330131
 21
7983.4438367356706
 31
0.0
  0
LINE
  5
7F87
  8
FUTO
 10
7515.9653973330123
 20
8191.0842177356708
 30
0.0
 11
7439.7821693330106
 21
8186.1696667356719
 31
0.0
  0
ARC
  5
7F88
  8
FUTO
 10
7442.3571213330124
 20
8146.2526747356724
 30
0.0
 40
40.000011000000001
 50
93.690902999999693
 51
174.8436270000314
  0
LINE
  5
7F89
  8
FUTO
 10
7517.6864663330116
 20
8194.2685437356704
 30
0.0
 11
7398.8153733330118
 21
7974.3373917356721
 31
0.0
  0
LINE
  5
7F8A
  8
FUTO
 10
7611.2257733330107
 20
8197.3605847356703
 30
0.0
 11
7601.1847573330133
 21
8187.3195697356723
 31
0.0
  0
LINE
  5
7F8B
  8
CT
 10
7601.6604653330114
 20
8196.8847547356727
 30
0.0
 11
7606.9086343330127
 21
8191.6367077356726
 31
0.0
  0
LINE
  5
7F8C
  8
FUTO
 10
7606.785099333013
 20
8200.952625735672
 30
0.0
 11
7597.5927163330134
 21
8191.76024373567
 31
0.0
  0
LINE
  5
7F8D
  8
FUTO
 10
7599.8800703330126
 20
8193.198963735671
 30
0.0
 11
7603.4721113330124
 21
8189.606922735672
 31
0.0
  0
ARC
  5
7F8E
  8
FUTO
 10
7750.101505333012
 20
8312.1938367356706
 30
0.0
 40
6.25
 50
0.000000000000007
 51
180.0
  0
LINE
  5
7F8F
  8
FUTO
 10
7733.5047493330139
 20
8254.8626607356709
 30
0.0
 11
7733.664814333014
 21
8251.2788587356717
 31
0.0
  0
LINE
  5
7F90
  8
FUTO
 10
7743.851505333012
 20
8270.2742207356714
 30
0.0
 11
7738.5469403330117
 21
8269.7058607356703
 31
0.0
  0
ARC
  5
7F91
  8
FUTO
 10
7738.8665353330134
 20
8266.7229507356715
 30
0.0
 40
3.0000059999999991
 50
96.115463000033785
 51
174.8055969999956
  0
LINE
  5
7F92
  8
FUTO
 10
7756.351505333012
 20
8270.2742207356714
 30
0.0
 11
7761.6560713330127
 21
8269.7058607356703
 31
0.0
  0
ARC
  5
7F93
  8
FUTO
 10
7737.101505333012
 20
8255.4438367356706
 30
0.0
 40
3.0
 50
90.0
 51
133.8690379999866
  0
ARC
  5
7F94
  8
FUTO
 10
7750.101505333012
 20
8048.4438367356688
 30
0.0
 40
209.99987799999991
 50
93.733024999983584
 51
93.766990999962644
  0
ARC
  5
7F95
  8
FUTO
 10
7736.6243023330107
 20
8255.0045667356717
 30
0.0
 40
3.0001099999999989
 50
4.9449460000082901
 51
93.734192000008321
  0
ARC
  5
7F96
  8
FUTO
 10
7737.101505333012
 20
8255.4438367356706
 30
0.0
 40
3.0
 50
90.0
 51
132.5596429999928
  0
LINE
  5
7F97
  8
FUTO
 10
7739.6130723330107
 20
8255.2631117356705
 30
0.0
 11
7739.9221543330132
 21
8251.6890157356684
 31
0.0
  0
LINE
  5
7F98
  8
FUTO
 10
7760.5898173330124
 20
8255.2631117356705
 30
0.0
 11
7760.2807353330118
 21
8251.6890157356684
 31
0.0
  0
ARC
  5
7F99
  8
FUTO
 10
7759.351505333012
 20
8263.8764547356714
 30
0.0
 40
3.0
 50
180.0
 51
270.0
  0
ARC
  5
7F9A
  8
FUTO
 10
7740.851505333012
 20
8264.1646627356713
 30
0.0
 40
3.0
 50
270.0
 51
0.000000000000007
  0
LINE
  5
7F9B
  8
FUTO
 10
7735.8788493330121
 20
8266.9945577356684
 30
0.0
 11
7735.101505333012
 21
8258.4438367356706
 31
0.0
  0
ARC
  5
7F9C
  8
FUTO
 10
7736.5017283330126
 20
8254.9965717356718
 30
0.0
 40
3.000081999999999
 50
93.765747000020752
 51
182.55828900003789
  0
ARC
  5
7F9D
  8
FUTO
 10
7750.101505333012
 20
8048.4438367356688
 30
0.0
 40
209.99998500000001
 50
86.233009000037313
 51
86.267005999973264
  0
ARC
  5
7F9E
  8
FUTO
 10
7763.7011613330133
 20
8254.9965107356693
 30
0.0
 40
2.9999649999999991
 50
357.44277999999088
 51
86.232139999971935
  0
LINE
  5
7F9F
  8
FUTO
 10
7766.6981393330116
 20
8254.8626607356709
 30
0.0
 11
7766.5380753330128
 21
8251.2788587356717
 31
0.0
  0
LINE
  5
7FA0
  8
FUTO
 10
7764.3241623330132
 20
8266.9945577356684
 30
0.0
 11
7765.1015053330129
 21
8258.4438367356706
 31
0.0
  0
ARC
  5
7FA1
  8
FUTO
 10
7763.1015053330111
 20
8255.4438367356706
 30
0.0
 40
3.0
 50
46.112625000024657
 51
90.0
  0
LINE
  5
7FA2
  8
FUTO
 10
7735.101505333012
 20
8258.4438367356706
 30
0.0
 11
7765.1015053330129
 21
8258.4438367356706
 31
0.0
  0
ARC
  5
7FA3
  8
FUTO
 10
7763.1015053330111
 20
8255.4438367356706
 30
0.0
 40
3.0
 50
46.168487999999194
 51
90.0
  0
ARC
  5
7FA4
  8
FUTO
 10
7761.3364753330115
 20
8266.7229507356715
 30
0.0
 40
2.9999820000000001
 50
5.1943969999919046
 51
83.884536999966215
  0
ARC
  5
7FA5
  8
FUTO
 10
7763.5787093330118
 20
8255.0045667356717
 30
0.0
 40
3.0000490000000002
 50
86.268058999992206
 51
175.0561099999934
  0
LINE
  5
7FA6
  8
FUTO
 10
7892.5692793330127
 20
8200.952625735672
 30
0.0
 11
7888.9772383330119
 21
8197.3605847356703
 31
0.0
  0
LINE
  5
7FA7
  8
FUTO
 10
7892.5692793330127
 20
8200.952625735672
 30
0.0
 11
7893.4179123330132
 21
8200.952625735672
 31
0.0
  0
LINE
  5
7FA8
  8
FUTO
 10
7900.3229413330118
 20
8193.1992077356717
 30
0.0
 11
7901.1715743330114
 21
8193.1992077356717
 31
0.0
  0
LINE
  5
7FA9
  8
FUTO
 10
7900.3229413330118
 20
8193.1992077356717
 30
0.0
 11
7900.3229413330118
 21
8194.0475967356706
 31
0.0
  0
LINE
  5
7FAA
  8
FUTO
 10
7894.8566323330133
 20
8198.6652727356723
 30
0.0
 11
7894.8566323330133
 21
8199.5139057356719
 31
0.0
  0
LINE
  5
7FAB
  8
FUTO
 10
7894.8566323330133
 20
8198.6652727356723
 30
0.0
 11
7895.705265333012
 21
8198.6652727356723
 31
0.0
  0
LINE
  5
7FAC
  8
FUTO
 10
7894.8566323330133
 20
8198.6652727356723
 30
0.0
 11
7891.2645913330116
 21
8195.0732317356706
 31
0.0
  0
LINE
  5
7FAD
  8
FUTO
 10
7756.351505333012
 20
8312.1938367356706
 30
0.0
 11
7756.351505333012
 21
8263.8764547356714
 31
0.0
  0
LINE
  5
7FAE
  8
FUTO
 10
7743.851505333012
 20
8312.1938367356706
 30
0.0
 11
7743.851505333012
 21
8264.1646627356713
 31
0.0
  0
LINE
  5
7FAF
  8
FUTO
 10
7902.6102943330116
 20
8190.9116107356713
 30
0.0
 11
7899.0182533330108
 21
8187.3195697356723
 31
0.0
  0
LINE
  5
7FB0
  8
FUTO
 10
7902.6102943330116
 20
8191.76024373567
 30
0.0
 11
7902.6102943330116
 21
8190.9116107356713
 31
0.0
  0
LINE
  5
7FB1
  8
FUTO
 10
7899.0182533330108
 20
8187.3195697356723
 30
0.0
 11
7888.9772383330119
 21
8197.3605847356703
 31
0.0
  0
LINE
  5
7FB2
  8
CT
 10
7898.5424233330123
 20
8196.8847547356727
 30
0.0
 11
7893.2943763330131
 21
8191.6367077356726
 31
0.0
  0
LINE
  5
7FB3
  8
FUTO
 10
7902.6102943330116
 20
8191.76024373567
 30
0.0
 11
7893.4179123330132
 21
8200.952625735672
 31
0.0
  0
LINE
  5
7FB4
  8
FUTO
 10
7900.3229413330118
 20
8193.1992077356717
 30
0.0
 11
7896.730900333011
 21
8189.606922735672
 31
0.0
  0
LINE
  5
7FB5
  8
CT
 10
7973.601505333012
 20
8048.4438367356688
 30
0.0
 11
7526.601505333012
 21
8048.4438367356688
 31
0.0
  0
ARC
  5
7FB6
  8
KL
 10
12060.80823494873
 20
7891.3305557356698
 30
0.0
 40
5.0
 50
300.00027499997202
 51
0.000000000000007
  0
ARC
  5
7FB7
  8
FUTO
 10
7401.1027263330116
 20
7973.1013077356711
 30
0.0
 40
1.000079999999999
 50
241.61447099997949
 51
331.60498000002087
  0
ARC
  5
7FB8
  8
KL
 10
12005.497321948729
 20
7870.9438367356706
 30
0.0
 40
15.000085
 50
270.0
 51
299.99981700000433
  0
LINE
  5
7FB9
  8
KL
 10
12063.30823494873
 20
7887.0004777356708
 30
0.0
 11
12012.997321948729
 21
7857.95335873567
 31
0.0
  0
ARC
  5
7FBA
  8
FUTO
 10
7566.101505333012
 20
7922.7704977356716
 30
0.0
 40
5.0
 50
124.94366100000759
 51
180.0
  0
LINE
  5
7FBB
  8
FUTO
 10
7563.237614333013
 20
7926.8691297356709
 30
0.0
 11
7579.1754803330132
 21
7938.0056047356702
 31
0.0
  0
ARC
  5
7FBC
  8
FUTO
 10
7564.101505333012
 20
7865.4438367356697
 30
0.0
 40
3.0
 50
90.0
 51
180.0
  0
LINE
  5
7FBD
  8
FUTO
 10
7597.5927163330134
 20
7905.9760637356703
 30
0.0
 11
7601.1847573330133
 21
7909.5681047356702
 31
0.0
  0
LINE
  5
7FBE
  8
FUTO
 10
7597.5927163330134
 20
7905.1274307356707
 30
0.0
 11
7597.5927163330134
 21
7905.9760637356703
 31
0.0
  0
LINE
  5
7FBF
  8
FUTO
 10
7599.8800703330126
 20
7903.6884657356713
 30
0.0
 11
7599.0314373330139
 21
7903.6884657356713
 31
0.0
  0
LINE
  5
7FC0
  8
FUTO
 10
7599.8800703330126
 20
7903.6884657356713
 30
0.0
 11
7599.8800703330126
 21
7902.840077735671
 31
0.0
  0
LINE
  5
7FC1
  8
FUTO
 10
7607.6337323330117
 20
7895.9350477356711
 30
0.0
 11
7611.2257733330107
 21
7899.527088735671
 31
0.0
  0
LINE
  5
7FC2
  8
FUTO
 10
7607.6337323330117
 20
7895.9350477356711
 30
0.0
 11
7606.785099333013
 21
7895.9350477356711
 31
0.0
  0
LINE
  5
7FC3
  8
FUTO
 10
7605.3463783330108
 20
7898.2224017356712
 30
0.0
 11
7605.3463783330108
 21
7897.3737687356715
 31
0.0
  0
LINE
  5
7FC4
  8
FUTO
 10
7605.3463783330108
 20
7898.2224017356712
 30
0.0
 11
7608.9384193330116
 21
7901.8144427356719
 31
0.0
  0
LINE
  5
7FC5
  8
FUTO
 10
7605.3463783330108
 20
7898.2224017356712
 30
0.0
 11
7604.4977463330133
 21
7898.2224017356712
 31
0.0
  0
LINE
  5
7FC6
  8
FUTO
 10
7601.1847573330133
 20
7909.5681047356702
 30
0.0
 11
7611.2257733330107
 21
7899.527088735671
 31
0.0
  0
LINE
  5
7FC7
  8
CT
 10
7601.6605873330118
 20
7900.0029187356704
 30
0.0
 11
7606.9086343330127
 21
7905.2509657356713
 31
0.0
  0
LINE
  5
7FC8
  8
FUTO
 10
7597.5927163330134
 20
7905.1274307356707
 30
0.0
 11
7606.785099333013
 21
7895.9350477356711
 31
0.0
  0
LINE
  5
7FC9
  8
FUTO
 10
7599.8800703330126
 20
7903.6884657356713
 30
0.0
 11
7603.4721113330124
 21
7907.280750735672
 31
0.0
  0
ARC
  5
7FCA
  8
FUTO
 10
7637.601505333012
 20
7865.4438367356697
 30
0.0
 40
3.0
 50
0.000000000000007
 51
90.0
  0
LINE
  5
7FCB
  8
FUTO
 10
7637.601505333012
 20
7868.4438367356706
 30
0.0
 11
7564.101505333012
 21
7868.4438367356706
 31
0.0
  0
LINE
  5
7FCC
  8
FUTO
 10
7561.101505333012
 20
7848.4438367356697
 30
0.0
 11
7640.601505333012
 21
7848.4438367356697
 31
0.0
  0
LINE
  5
7FCD
  8
FUTO
 10
7640.601505333012
 20
7865.4438367356697
 30
0.0
 11
7640.601505333012
 21
7848.4438367356697
 31
0.0
  0
LINE
  5
7FCE
  8
FUTO
 10
7645.9987223330108
 20
7873.5871477356714
 30
0.0
 11
7640.601505333012
 21
7853.4438367356706
 31
0.0
  0
LINE
  5
7FCF
  8
CT
 10
7591.1015053330111
 20
7878.4438367356706
 30
0.0
 11
7591.1015053330111
 21
7838.4438367356697
 31
0.0
  0
LINE
  5
7FD0
  8
FUTO
 10
7561.101505333012
 20
7922.7704977356716
 30
0.0
 11
7561.101505333012
 21
7848.4438367356697
 31
0.0
  0
LINE
  5
7FD1
  8
FUTO
 10
7936.965275333012
 20
7926.8691297356709
 30
0.0
 11
7921.0274093330108
 21
7938.0056047356702
 31
0.0
  0
ARC
  5
7FD2
  8
FUTO
 10
7862.601505333012
 20
7865.4438367356697
 30
0.0
 40
3.0
 50
90.0
 51
180.0
  0
LINE
  5
7FD3
  8
FUTO
 10
7902.6102943330116
 20
7905.9760637356703
 30
0.0
 11
7899.0182533330108
 21
7909.5681047356702
 31
0.0
  0
LINE
  5
7FD4
  8
FUTO
 10
7902.6102943330116
 20
7905.9760637356703
 30
0.0
 11
7902.6102943330116
 21
7905.1274307356707
 31
0.0
  0
LINE
  5
7FD5
  8
FUTO
 10
7892.5692793330127
 20
7895.9350477356711
 30
0.0
 11
7888.9772383330119
 21
7899.527088735671
 31
0.0
  0
LINE
  5
7FD6
  8
FUTO
 10
7893.4179123330132
 20
7895.9350477356711
 30
0.0
 11
7892.5692793330127
 21
7895.9350477356711
 31
0.0
  0
LINE
  5
7FD7
  8
FUTO
 10
7894.8568763330131
 20
7898.2224017356712
 30
0.0
 11
7894.8568763330131
 21
7897.3737687356715
 31
0.0
  0
LINE
  5
7FD8
  8
FUTO
 10
7894.8568763330131
 20
7898.2224017356712
 30
0.0
 11
7895.705265333012
 21
7898.2224017356712
 31
0.0
  0
LINE
  5
7FD9
  8
FUTO
 10
7900.3229413330118
 20
7903.6887097356712
 30
0.0
 11
7901.1715743330114
 21
7903.6887097356712
 31
0.0
  0
LINE
  5
7FDA
  8
FUTO
 10
7900.3229413330118
 20
7903.6887097356712
 30
0.0
 11
7900.3229413330118
 21
7902.840077735671
 31
0.0
  0
LINE
  5
7FDB
  8
FUTO
 10
7894.8568763330131
 20
7898.2224017356712
 30
0.0
 11
7891.2645913330116
 21
7901.8144427356719
 31
0.0
  0
LINE
  5
7FDC
  8
FUTO
 10
7888.9772383330119
 20
7899.527088735671
 30
0.0
 11
7899.0182533330108
 21
7909.5681047356702
 31
0.0
  0
LINE
  5
7FDD
  8
CT
 10
7898.5424233330123
 20
7900.0029187356704
 30
0.0
 11
7893.2943763330131
 21
7905.2509657356713
 31
0.0
  0
LINE
  5
7FDE
  8
FUTO
 10
7893.4179123330132
 20
7895.9350477356711
 30
0.0
 11
7902.6102943330116
 21
7905.1274307356707
 31
0.0
  0
LINE
  5
7FDF
  8
FUTO
 10
7900.3229413330118
 20
7903.6887097356712
 30
0.0
 11
7896.730900333011
 21
7907.280750735672
 31
0.0
  0
LINE
  5
7FE0
  8
FUTO
 10
7862.601505333012
 20
7868.4438367356706
 30
0.0
 11
7936.101505333012
 21
7868.4438367356706
 31
0.0
  0
LINE
  5
7FE1
  8
FUTO
 10
7859.601505333012
 20
7865.4438367356697
 30
0.0
 11
7859.601505333012
 21
7848.4438367356697
 31
0.0
  0
LINE
  5
7FE2
  8
FUTO
 10
7854.204075333012
 20
7873.587025735671
 30
0.0
 11
7859.601505333012
 21
7853.4438367356706
 31
0.0
  0
LINE
  5
7FE3
  8
CT
 10
7909.101505333012
 20
7878.4438367356706
 30
0.0
 11
7909.101505333012
 21
7838.4438367356697
 31
0.0
  0
LINE
  5
7FE4
  8
FUTO
 10
7939.101505333012
 20
7922.7704977356716
 30
0.0
 11
7939.101505333012
 21
7848.4438367356697
 31
0.0
  0
LINE
  5
7FE5
  8
FUTO
 10
7939.101505333012
 20
7848.4438367356697
 30
0.0
 11
7859.601505333012
 21
7848.4438367356697
 31
0.0
  0
ARC
  5
7FE6
  8
FUTO
 10
7934.101505333012
 20
7922.7704977356716
 30
0.0
 40
5.0000669999999987
 50
0.000000000000007
 51
55.056335000025037
  0
ARC
  5
7FE7
  8
FUTO
 10
7936.101505333012
 20
7865.4438367356697
 30
0.0
 40
3.0
 50
0.000000000000007
 51
90.0
  0
LINE
  5
7FE8
  8
FUTO
 10
7695.3634683330129
 20
7852.4438367356706
 30
0.0
 11
7804.839542333013
 21
7852.4438367356706
 31
0.0
  0
LINE
  5
7FE9
  8
CT
 10
7750.101505333012
 20
8338.4438367356706
 30
0.0
 11
7750.101505333012
 21
7768.4438367356697
 31
0.0
  0
ARC
  5
7FEA
  8
FUTO
 10
7750.101505333012
 20
8048.4438367356688
 30
0.0
 40
203.5
 50
285.6036990000095
 51
254.3962400000253
  0
LINE
  5
7FEB
  8
KL
 10
12006.708258948731
 20
7855.9438367356697
 30
0.0
 11
12006.708258948731
 21
8240.8947647356708
 31
0.0
  0
LINE
  5
7FEC
  8
CT
 10
7460.1015053330111
 20
8000.8381237356716
 30
0.0
 11
7460.1015053330111
 21
7961.8442277356717
 31
0.0
  0
LINE
  5
7FED
  8
FUTO
 10
7520.8534583330129
 20
8192.5566297356709
 30
0.0
 11
7401.9823653330131
 21
7972.6257217356706
 31
0.0
  0
LINE
  5
7FEE
  8
FUTO
 10
7400.6272623330124
 20
7972.2214247356706
 30
0.0
 11
7399.2196693330106
 21
7972.9821667356719
 31
0.0
  0
LINE
  5
7FEF
  8
KL
 10
12065.808295948729
 20
8206.0938007356708
 30
0.0
 11
12065.808295948729
 21
7891.303486735671
 31
0.0
  0
LINE
  5
7FF0
  8
CT
 10
11246.308295948729
 20
8048.4438367356688
 30
0.0
 11
12085.808295948729
 21
8048.4438367356688
 31
0.0
  0
LINE
  5
7FF1
  8
KL
 10
11944.55701394873
 20
8240.9438367356724
 30
0.0
 11
12005.497321948729
 21
8240.9438367356724
 31
0.0
  0
LINE
  5
7FF2
  8
KL
 10
11941.008185948731
 20
7855.9438367356697
 30
0.0
 11
12005.497321948729
 21
7855.9438367356697
 31
0.0
  0
LINE
  5
7FF3
  8
FUTO
 10
7741.1015053330129
 20
8082.4438367356697
 30
0.0
 11
7759.1015053330129
 21
8082.4438367356697
 31
0.0
  0
LINE
  5
7FF4
  8
FUTO
 10
7741.101505333012
 20
8071.4438367356706
 30
0.0
 11
7759.1015053330129
 21
8071.4438367356734
 31
0.0
  0
LINE
  5
7FF5
  8
FUTO
 10
7741.1015053330129
 20
8082.4438367356724
 30
0.0
 11
7741.101505333012
 21
8071.4438367356706
 31
0.0
  0
LINE
  5
7FF6
  8
FUTO
 10
7759.1015053330129
 20
8082.4438367356724
 30
0.0
 11
7759.1015053330129
 21
8071.4438367356706
 31
0.0
  0
LINE
  5
7FF7
  8
CT
 10
7885.1015053330111
 20
11505.28097416912
 30
0.0
 11
7935.1015053330129
 21
11505.28097416912
 31
0.0
  0
LINE
  5
7FF8
  8
CT
 10
7910.1015053330111
 20
11480.28097416912
 30
0.0
 11
7910.1015053330111
 21
11530.28097416912
 31
0.0
  0
LINE
  5
7FF9
  8
CT
 10
7590.1015053330129
 20
11480.28097416912
 30
0.0
 11
7590.1015053330129
 21
11530.28097416912
 31
0.0
  0
LINE
  5
7FFA
  8
CT
 10
7615.101505333012
 20
11505.28097416912
 30
0.0
 11
7565.1015053330111
 21
11505.28097416912
 31
0.0
  0
LINE
  5
7FFB
  8
CT
 10
7615.101505333012
 20
11965.28097416912
 30
0.0
 11
7565.1015053330111
 21
11965.28097416912
 31
0.0
  0
LINE
  5
7FFC
  8
CT
 10
7590.1015053330129
 20
11990.28097416912
 30
0.0
 11
7590.1015053330129
 21
11940.280974169111
 31
0.0
  0
LINE
  5
7FFD
  8
CT
 10
7910.1015053330111
 20
11990.28097416912
 30
0.0
 11
7910.1015053330111
 21
11940.280974169111
 31
0.0
  0
LINE
  5
7FFE
  8
CT
 10
7885.1015053330111
 20
11965.28097416912
 30
0.0
 11
7935.1015053330129
 21
11965.28097416912
 31
0.0
  0
LINE
  5
8000
  8
SL
 10
7617.6015053330129
 20
11309.78097416912
 30
0.0
 11
7617.6015053330129
 21
11407.780974169111
 31
0.0
  0
LINE
  5
8001
  8
FUTO
 10
7546.601505333012
 20
11170.78097416912
 30
0.0
 11
7546.601505333012
 21
11459.78097416912
 31
0.0
  0
LINE
  5
8002
  8
SL
 10
7882.6015053330111
 20
11309.78097416912
 30
0.0
 11
7882.6015053330111
 21
11407.780974169111
 31
0.0
  0
LINE
  5
8003
  8
SL
 10
7560.101505333012
 20
12057.31953179727
 30
0.0
 11
7560.101505333012
 21
11494.78097416912
 31
0.0
  0
LINE
  5
8004
  8
SL
 10
7625.101505333012
 20
12109.28097416912
 30
0.0
 11
7625.101505333012
 21
11494.78097416912
 31
0.0
  0
LINE
  5
8005
  8
SL
 10
7875.1015053330129
 20
12109.28097416912
 30
0.0
 11
7875.101505333012
 21
11494.78097416912
 31
0.0
  0
LINE
  5
8006
  8
SL
 10
7940.1015053330129
 20
12050.180937169111
 30
0.0
 11
7940.1015053330129
 21
11494.78097416912
 31
0.0
  0
LINE
  5
8007
  8
FUTO
 10
7237.101505333012
 20
12391.78097416912
 30
0.0
 11
7237.101505333012
 21
13709.78097416912
 31
0.0
  0
LINE
  5
8008
  8
FUTO
 10
7302.1015053330129
 20
12456.78097416912
 30
0.0
 11
7302.1015053330129
 21
13644.78097416912
 31
0.0
  0
LINE
  5
8009
  8
FUTO
 10
9023.1015053330138
 20
12391.780974169111
 30
0.0
 11
9023.1015053330138
 21
13709.78097416912
 31
0.0
  0
LINE
  5
8017
  8
FUTO
 10
8958.1015053330102
 20
12456.78097416912
 30
0.0
 11
8958.1015053330102
 21
13644.78097416912
 31
0.0
  0
LINE
  5
8018
  8
FUTO
 10
7237.101505333012
 20
13709.78097416912
 30
0.0
 11
9023.1015053330138
 21
13709.78097416912
 31
0.0
  0
LINE
  5
8019
  8
FUTO
 10
7237.101505333012
 20
12391.78097416912
 30
0.0
 11
9023.1015053330138
 21
12391.780974169111
 31
0.0
  0
LINE
  5
801A
  8
FUTO
 10
8050.101505333012
 20
12391.780974169111
 30
0.0
 11
8050.101505333012
 21
12381.78097416912
 31
0.0
  0
LINE
  5
801C
  8
FUTO
 10
9023.1015053330138
 20
12456.78097416912
 30
0.0
 11
10139.10150533301
 21
12456.78097416912
 31
0.0
  0
LINE
  5
801D
  8
FUTO
 10
9023.1015053330138
 20
13644.78097416912
 30
0.0
 11
10139.10150533301
 21
13644.78097416912
 31
0.0
  0
LINE
  5
801E
  8
FUTO
 10
10139.10150533301
 20
12456.78097416912
 30
0.0
 11
10139.10150533301
 21
13644.78097416912
 31
0.0
  0
LINE
  5
801F
  8
FUTO
 10
10189.10150533301
 20
12406.78097416912
 30
0.0
 11
10189.10150533301
 21
13694.78097416912
 31
0.0
  0
LINE
  5
8020
  8
FUTO
 10
9023.1015053330138
 20
12406.78097416912
 30
0.0
 11
10189.10150533301
 21
12406.78097416912
 31
0.0
  0
LINE
  5
8021
  8
FUTO
 10
9023.1015053330138
 20
13694.78097416912
 30
0.0
 11
10189.10150533301
 21
13694.78097416912
 31
0.0
  0
LINE
  5
8022
  8
FUTO
 10
9950.101505333012
 20
12406.78097416912
 30
0.0
 11
9950.101505333012
 21
12381.78097416912
 31
0.0
  0
LINE
  5
8023
  8
SL
 10
7302.1015053330129
 20
13644.78097416912
 30
0.0
 11
8958.1015053330102
 21
12456.78097416912
 31
0.0
  0
LINE
  5
8024
  8
SL
 10
8958.1015053330102
 20
13644.78097416912
 30
0.0
 11
7302.1015053330129
 21
12456.78097416912
 31
0.0
  0
LINE
  5
8025
  8
FUTO
 10
8614.4496324422907
 20
11494.78097416912
 30
0.0
 11
8614.4496324422907
 21
12381.78097416912
 31
0.0
  0
LINE
  5
8027
  8
FUTO
 10
9385.7533782237333
 20
11494.78097416912
 30
0.0
 11
9385.7533782237333
 21
12381.78097416912
 31
0.0
  0
DIMENSION
  5
8028
  8
SP
  2
*D12
 10
7237.101505333012
 20
10433.61022781754
 30
0.0
 11
8118.601505333012
 21
10521.11022781754
 31
0.0
 70
     0
 13
9000.1015053330102
 23
10191.075697249031
 33
0.0
 14
7237.101505333012
 24
10083.443836735671
 34
0.0
 50
180.0
1001
ACAD
1000
DSTYLE
1002
{
1070
    40
1040
35.0
1070
    41
1040
2.5
1070
   147
1040
1.0
1002
}
  0
DIMENSION
  5
8046
  8
SP
  2
*D13
 10
6983.9063390852643
 20
9038.4438367356706
 30
0.0
 11
6896.4063390852634
 21
8338.4438367356724
 31
0.0
 70
     0
 13
7450.101505333012
 23
7638.4438367356706
 33
0.0
 14
7166.7433833631612
 24
9038.4438367356706
 34
0.0
 50
90.0
1001
ACAD
1000
DSTYLE
1002
{
1070
    40
1040
35.0
1070
    41
1040
2.5
1070
   147
1040
1.0
1002
}
  0
DIMENSION
  5
8053
  8
SP
  2
*D14
 10
6983.9063390852643
 20
10083.443836735671
 30
0.0
 11
6896.4063390852634
 21
9560.9438367356724
 31
0.0
 70
     0
 13
7166.7433833631612
 23
9038.4438367356706
 33
0.0
 14
7237.101505333012
 24
10083.443836735671
 34
0.0
 50
90.0
1001
ACAD
1000
DSTYLE
1002
{
1070
    40
1040
35.0
1070
    41
1040
2.5
1070
   147
1040
1.0
1002
}
  0
DIMENSION
  5
807B
  8
SP
  2
*D15
 10
7237.101505333012
 20
14095.931641624829
 30
0.0
 11
8118.601505333012
 21
14183.431641624829
 31
0.0
 70
     0
 13
9000.1015053330102
 23
13820.55888598598
 33
0.0
 14
7237.101505333012
 24
13709.78097416912
 34
0.0
 50
180.0
1001
ACAD
1000
DSTYLE
1002
{
1070
    40
1040
35.0
1070
    41
1040
2.5
1070
   147
1040
1.0
1002
}
  0
DIMENSION
  5
8088
  8
SP
  2
*D16
 10
10189.10150533301
 20
14095.931641624829
 30
0.0
 11
9594.6015053330138
 21
14183.431641624829
 31
0.0
 70
     0
 13
9000.1015053330102
 23
13855.55888598598
 33
0.0
 14
10189.10150533301
 24
13694.78097416912
 34
0.0
 50
180.0
1001
ACAD
1000
DSTYLE
1002
{
1070
    40
1040
35.0
1070
    41
1040
2.5
1070
   147
1040
1.0
1002
}
  0
DIMENSION
  5
8095
  8
SP
  2
*D17
 10
6894.4817450194141
 20
13775.78097416912
 30
0.0
 11
6806.9817450194114
 21
13413.28097416912
 31
0.0
 70
     0
 13
7237.101505333012
 23
13050.78097416912
 33
0.0
 14
8135.1015053330111
 24
13775.78097416912
 34
0.0
 50
90.0
1001
ACAD
1000
DSTYLE
1002
{
1070
    40
1040
35.0
1070
    41
1040
2.5
1070
   147
1040
1.0
1002
}
  0
DIMENSION
  5
80A2
  8
SP
  2
*D18
 10
6894.4817450194141
 20
11170.78097416912
 30
0.0
 11
6806.9817450194114
 21
12110.78097416912
 31
0.0
 70
     0
 13
7237.101505333012
 23
13050.78097416912
 33
0.0
 14
7546.601505333012
 24
11170.78097416912
 34
0.0
 50
90.0
1001
ACAD
1000
DSTYLE
1002
{
1070
    40
1040
35.0
1070
    41
1040
2.5
1070
   147
1040
1.0
1002
}
  0
LINE
  5
80D3
  8
FUTO
 10
8470.4979558491887
 20
8248.3159750372379
 30
0.0
 11
8375.1015053330102
 21
7796.2713837946121
 31
0.0
  0
LINE
  5
80D4
  8
FUTO
 10
8060.101505333012
 20
7985.6507364470726
 30
0.0
 11
8060.101505333012
 21
7788.4438367356697
 31
0.0
  0
LINE
  5
80D5
  8
FUTO
 10
8069.101505333012
 20
7991.4109888672338
 30
0.0
 11
8069.101505333012
 21
7788.4438367356697
 31
0.0
  0
LINE
  5
80D6
  8
KL
 10
8060.101505333012
 20
8655.8045731749626
 30
0.0
 11
8060.101505333012
 21
7985.6507364470726
 31
0.0
  0
LINE
  5
80D7
  8
KL
 10
8069.101505333012
 20
8664.5377816175769
 30
0.0
 11
8069.101505333012
 21
7991.4109888672338
 31
0.0
  0
LINE
  5
80D8
  8
FUTO
 10
8463.7049914065992
 20
9047.4438367356724
 30
0.0
 11
7351.6329559195692
 21
9047.4438367356724
 31
0.0
  0
LINE
  5
80D9
  8
FUTO
 10
8445.1551078140456
 20
9029.4438367356706
 30
0.0
 11
7351.6329559195692
 21
9029.4438367356706
 31
0.0
  0
LINE
  5
80DA
  8
KL
 10
9379.9949114353039
 20
9047.4438367356724
 30
0.0
 11
9200.101505333012
 21
9047.4438367356724
 31
0.0
  0
LINE
  5
80DB
  8
KL
 10
9379.9949114353039
 20
9029.4438367356706
 30
0.0
 11
9200.101505333012
 21
9029.4438367356706
 31
0.0
  0
LINE
  5
81CD
  8
FUTO
 10
7450.101505333012
 20
7510.4473367356723
 30
0.0
 11
9950.101505333012
 21
7510.4473367356723
 31
0.0
  0
LINE
  5
81CE
  8
FUTO
 10
7450.101505333012
 20
7386.4403367356708
 30
0.0
 11
9950.101505333012
 21
7386.4403367356708
 31
0.0
  0
LINE
  5
81CF
  8
FUTO
 10
7450.101505333012
 20
7523.4438367356697
 30
0.0
 11
9950.101505333012
 21
7523.4438367356697
 31
0.0
  0
LINE
  5
81D0
  8
FUTO
 10
7450.101505333012
 20
7373.4438367356697
 30
0.0
 11
9950.101505333012
 21
7373.4438367356697
 31
0.0
  0
LINE
  5
81D3
  8
FUTO
 10
7450.101505333012
 20
7523.4438367356697
 30
0.0
 11
7450.101505333012
 21
7373.4438367356706
 31
0.0
  0
LINE
  5
81E8
  8
FUTO
 10
9625.1015053330138
 20
7523.4438367356697
 30
0.0
 11
9625.1015053330138
 21
7373.4438367356697
 31
0.0
  0
LINE
  5
81EA
  8
FUTO
 10
9950.101505333012
 20
7523.4438367356697
 30
0.0
 11
9950.101505333012
 21
7373.4438367356697
 31
0.0
  0
LINE
  5
81EB
  8
CT
 10
9760.1015053330102
 20
7703.4660480440416
 30
0.0
 11
9760.1015053330102
 21
7478.591545626241
 31
0.0
  0
LINE
  5
81EC
  8
FUTO
 10
9720.101505333012
 20
7638.4438367356706
 30
0.0
 11
9720.101505333012
 21
7523.4438367356697
 31
0.0
  0
LINE
  5
81ED
  8
FUTO
 10
9800.101505333012
 20
7638.4438367356706
 30
0.0
 11
9800.101505333012
 21
7523.4438367356697
 31
0.0
  0
LINE
  5
8219
  8
SP
 10
7415.101505333012
 20
7523.4438367356697
 30
0.0
 11
6948.9063390852652
 21
7523.4438367356724
 31
0.0
  0
LINE
  5
821A
  8
SP
 10
7415.101505333012
 20
7373.4438367356697
 30
0.0
 11
6948.9063390852652
 21
7373.4438367356706
 31
0.0
  0
LINE
  5
821B
  8
SP
 10
6983.9063390852643
 20
7705.9438367356724
 30
0.0
 11
6983.9063390852643
 21
7793.4438367356724
 31
0.0
  0
LINE
  5
821C
  8
SP
 10
6983.9063390852643
 20
7285.9438367356724
 30
0.0
 11
6983.9063390852643
 21
6883.4438367356706
 31
0.0
  0
LINE
  5
821D
  8
SP
 10
6983.9063390852643
 20
7523.4438367356724
 30
0.0
 11
6983.9063390852643
 21
7373.4438367356706
 31
0.0
  0
INSERT
  5
821F
  8
SP
  2
_OPEN
 10
6983.9063390852643
 20
7373.4438367356706
 30
0.0
 41
87.5
 42
87.5
 43
87.5
 50
90.0
  0
TEXT
  5
8220
  8
FUTO
 10
6948.9063390852652
 20
6895.668155379024
 30
0.0
 40
105.0
  1
150
 50
90.0
 51
15.0
  0
LINE
  5
8221
  8
SP
 10
7415.101505333012
 20
7638.4438367356706
 30
0.0
 11
6948.9063390852652
 21
7638.4438367356724
 31
0.0
  0
LINE
  5
8222
  8
SP
 10
7415.101505333012
 20
7523.4438367356697
 30
0.0
 11
6948.9063390852652
 21
7523.4438367356724
 31
0.0
  0
LINE
  5
8223
  8
SP
 10
6983.9063390852643
 20
7725.9438367356724
 30
0.0
 11
6983.9063390852643
 21
7813.4438367356724
 31
0.0
  0
LINE
  5
8224
  8
SP
 10
6983.9063390852643
 20
7435.9438367356706
 30
0.0
 11
6983.9063390852643
 21
7090.6681553790258
 31
0.0
  0
LINE
  5
8225
  8
SP
 10
6983.9063390852643
 20
7638.4438367356724
 30
0.0
 11
6983.9063390852643
 21
7523.4438367356724
 31
0.0
  0
INSERT
  5
8226
  8
SP
  2
_OPEN
 10
6983.9063390852643
 20
7638.4438367356724
 30
0.0
 41
87.5
 42
87.5
 43
87.5
 50
270.0
  0
TEXT
  5
8228
  8
FUTO
 10
6898.494269838593
 20
7454.4459659237073
 30
0.0
 40
105.0
  1
115
 50
90.0
 51
15.0
  0
CIRCLE
  5
8229
  8
SP
 10
6983.9063390852643
 20
7523.4438367356724
 30
0.0
 40
13.643502505863619
  0
INSERT
  5
823A
  8
SP
  6
CONTINUOUS
  2
*U19
 10
0.0
 20
0.0
 30
0.0
1001
ACAD
1002
{
1000
R14_HATCH_DATA
1000
823A
1011
1.0
1021
0.0
1031
0.0
1021
0.0
1031
0.0
1011
0.0
1021
0.0
1031
0.0
1021
1.0
1031
0.0
1011
0.0
1021
0.0
1031
0.0
1021
0.0
1031
1.0
1040
0.0
1010
0.0
1020
0.0
1030
1.0
1000
SOLID
1070
     1
1070
     0
1071
        4
1071
        7
1070
     1
1070
     1
1071
        3
1040
6970.2628365794008
1040
7523.4438367356724
1040
0.0
1040
6983.9063390852643
1040
7523.4438367356724
1040
0.0
1040
6983.9063390852643
1040
7537.0873392415342
1040
0.4142135623730979
1071
        0
1071
        7
1070
     1
1070
     1
1071
        3
1040
6983.9063390852643
1040
7523.4438367356724
1040
0.0
1040
6997.549841591127
1040
7523.4438367356724
1040
0.4142135623730931
1040
6983.9063390852643
1040
7537.0873392415342
1040
0.0
1071
        0
1071
        7
1070
     1
1070
     1
1071
        3
1040
6983.9063390852643
1040
7523.4438367356724
1040
0.0
1040
6983.9063390852643
1040
7509.800334229808
1040
0.4142135623730882
1040
6997.549841591127
1040
7523.4438367356724
1040
0.0
1071
        0
1071
        7
1070
     1
1070
     1
1071
        3
1040
6970.2628365794008
1040
7523.4438367356724
1040
0.4142135623730931
1040
6983.9063390852643
1040
7509.800334229808
1040
0.0
1040
6983.9063390852643
1040
7523.4438367356724
1040
0.0
1071
        0
1070
     0
1070
     1
1040
0.2937377776614256
1071
        4
1040
6977.368681404223
1040
7529.9255162904183
1040
0.0
1040
6987.6569733432307
1040
7530.2192612389281
1040
0.0
1040
6988.5388340474856
1040
7519.6446950035479
1040
0.0
1040
6976.4868206999636
1040
7518.7634937461462
1040
0.0
1002
}
  0
LINE
  5
8245
  8
FUTO
 10
13601.308295948729
 20
7510.4473367356723
 30
0.0
 11
11451.30829594874
 21
7510.4473367356723
 31
0.0
  0
LINE
  5
8246
  8
FUTO
 10
13601.308295948729
 20
7386.4403367356708
 30
0.0
 11
11451.30829594874
 21
7386.4403367356708
 31
0.0
  0
LINE
  5
8247
  8
FUTO
 10
13601.308295948729
 20
7373.4438367356697
 30
0.0
 11
11451.30829594874
 21
7373.4438367356697
 31
0.0
  0
LINE
  5
8248
  8
FUTO
 10
13601.308295948729
 20
7523.4438367356697
 30
0.0
 11
11451.30829594874
 21
7523.4438367356697
 31
0.0
  0
LINE
  5
824A
  8
FUTO
 10
11441.156918919731
 20
7386.1208693651361
 30
0.0
 11
11379.95967297774
 21
7380.7668041062052
 31
0.0
  0
LINE
  5
824B
  8
FUTO
 10
11451.308295948729
 20
7373.4438367356697
 30
0.0
 11
11376.308295948729
 21
7373.4438367356697
 31
0.0
  0
LINE
  5
824C
  8
FUTO
 10
11441.156918919731
 20
7510.7668041062043
 30
0.0
 11
11379.95967297774
 21
7516.1208693651361
 31
0.0
  0
LINE
  5
824D
  8
FUTO
 10
11451.308295948729
 20
7523.4438367356697
 30
0.0
 11
11376.308295948729
 21
7523.4438367356697
 31
0.0
  0
ARC
  5
824E
  8
FUTO
 10
11380.308295948729
 20
7376.7820253138379
 30
0.0
 40
4.0
 50
95.000000000000554
 51
179.9999999999921
  0
LINE
  5
824F
  8
FUTO
 10
11376.308295948729
 20
7373.4438367356697
 30
0.0
 11
11376.308295948729
 21
7376.7820253138379
 31
0.0
  0
ARC
  5
8250
  8
FUTO
 10
11380.308295948729
 20
7520.1056481575033
 30
0.0
 40
4.0
 50
180.00000000000779
 51
264.99999999999949
  0
LINE
  5
8251
  8
FUTO
 10
11376.308295948729
 20
7523.4438367356697
 30
0.0
 11
11376.308295948729
 21
7520.1056481575024
 31
0.0
  0
LINE
  5
8252
  8
FUTO
 10
11451.308295948729
 20
7373.4438367356697
 30
0.0
 11
11451.308295948729
 21
7523.4438367356697
 31
0.0
  0
LINE
  5
8253
  8
FUTO
 10
11444.808295948729
 20
7390.1056481575042
 30
0.0
 11
11444.808295948729
 21
7506.7820253138379
 31
0.0
  0
ARC
  5
8254
  8
FUTO
 10
11440.808295948729
 20
7390.1056481575042
 30
0.0
 40
4.0
 50
275.0
 51
0.0
  0
ARC
  5
8256
  8
FUTO
 10
11440.808295948729
 20
7506.7820253138379
 30
0.0
 40
4.0
 50
0.0
 51
84.999999999999943
  0
LINE
  5
8264
  8
FUTO
 10
13601.308295948729
 20
7523.4438367356697
 30
0.0
 11
13601.308295948729
 21
7373.4438367356697
 31
0.0
  0
LINE
  5
8265
  8
FUTO
 10
13607.808295948729
 20
7506.7820253138379
 30
0.0
 11
13607.808295948729
 21
7390.1056481575042
 31
0.0
  0
LINE
  5
8266
  8
FUTO
 10
13601.308295948729
 20
7373.4438367356697
 30
0.0
 11
13676.308295948729
 21
7373.4438367356697
 31
0.0
  0
ARC
  5
8268
  8
FUTO
 10
13672.308295948729
 20
7376.7820253138379
 30
0.0
 40
4.0
 50
0.0000000000078369
 51
84.999999999999503
  0
LINE
  5
8269
  8
FUTO
 10
13676.308295948729
 20
7373.4438367356697
 30
0.0
 11
13676.308295948729
 21
7376.7820253138379
 31
0.0
  0
ARC
  5
826A
  8
FUTO
 10
13611.808295948729
 20
7390.1056481575042
 30
0.0
 40
4.0
 50
180.0
 51
264.99999999999989
  0
LINE
  5
826B
  8
FUTO
 10
13611.45967297774
 20
7386.1208693651361
 30
0.0
 11
13672.656918919731
 21
7380.7668041062052
 31
0.0
  0
LINE
  5
826C
  8
FUTO
 10
13601.308295948729
 20
7523.4438367356697
 30
0.0
 11
13676.308295948729
 21
7523.4438367356697
 31
0.0
  0
ARC
  5
826D
  8
FUTO
 10
13672.308295948729
 20
7520.1056481575033
 30
0.0
 40
4.0
 50
275.00000000000051
 51
359.9999999999921
  0
LINE
  5
826E
  8
FUTO
 10
13676.308295948729
 20
7523.4438367356697
 30
0.0
 11
13676.308295948729
 21
7520.1056481575033
 31
0.0
  0
ARC
  5
826F
  8
FUTO
 10
13611.808295948729
 20
7506.7820253138379
 30
0.0
 40
4.0
 50
95.000000000000057
 51
180.0
  0
LINE
  5
8270
  8
FUTO
 10
13611.45967297774
 20
7510.7668041062043
 30
0.0
 11
13672.656918919731
 21
7516.1208693651361
 31
0.0
  0
INSERT
  5
82B7
  8
FUTO
  6
CONTINUOUS
  2
*U20
 10
0.0
 20
0.0
 30
0.0
1001
ACAD
1002
{
1000
R14_HATCH_DATA
1000
82B7
1011
1.0
1021
0.0
1031
0.0
1021
0.0
1031
0.0
1011
0.0
1021
0.0
1031
0.0
1021
1.0
1031
0.0
1011
0.0
1021
0.0
1031
0.0
1021
0.0
1031
1.0
1040
0.0
1010
0.0
1020
0.0
1030
1.0
1000
SOLID
1070
     1
1070
     0
1071
        2
1071
        7
1070
     0
1070
     1
1071
        4
1040
9760.1015053330102
1040
7638.4438367356706
1040
9720.101505333012
1040
7638.4438367356706
1040
9720.101505333012
1040
7523.4438367356697
1040
9760.1015053330102
1040
7523.4438367356697
1071
        0
1071
        7
1070
     0
1070
     1
1071
        4
1040
9800.101505333012
1040
7638.4438367356706
1040
9760.1015053330102
1040
7638.4438367356706
1040
9760.1015053330102
1040
7523.4438367356697
1040
9800.101505333012
1040
7523.4438367356697
1071
        0
1070
     0
1070
     1
1040
1.8147263682105821
1071
        2
1040
9741.5606413910537
1040
7574.7720517858561
1040
0.0
1040
9786.9617487095511
1040
7574.7720517858561
1040
0.0
1002
}
  0
TEXT
  5
8DCB
  8
SP
 10
15197.41110304938
 20
9243.1342665202901
 30
0.0
 40
100.0
  1
 
  0
LINE
  5
8DCC
  8
4
 10
14298.66153407622
 20
5642.0810392317526
 30
0.0
 11
14298.66153407622
 21
4642.0810392317517
 31
0.0
  0
LINE
  5
8DCD
  8
4
 10
10798.66153407622
 20
5642.0810392317526
 30
0.0
 11
10798.66153407622
 21
4642.0810392317517
 31
0.0
  0
LINE
  5
8DCE
  8
4
 10
8298.6615340762219
 20
5642.0810392317526
 30
0.0
 11
8298.6615340762219
 21
4642.0810392317517
 31
0.0
  0
LINE
  5
8DD1
  8
4
 10
8298.6615340762219
 20
4642.0810392317517
 30
0.0
 11
14298.66153407622
 21
4642.0810392317517
 31
0.0
  0
LINE
  5
8DD2
  8
4
 10
8298.6615340762219
 20
5142.0810392317526
 30
0.0
 11
14298.66153407622
 21
5142.0810392317526
 31
0.0
  0
TEXT
  5
8DD3
  8
4
 10
8491.1719383107393
 20
5299.7961685648206
 30
0.0
 40
250.0
  1
機器名称
  0
TEXT
  5
8DD4
  8
4
 10
8479.9520642002171
 20
4750.3068228918073
 30
0.0
 40
250.0
  1
機器型番
  0
TEXT
  5
8DD5
  8
4
 10
10822.626842581431
 20
5253.01755101649
 30
0.0
 40
225.0
  1
ミツヤリミットロードファン
  0
TEXT
  5
8DD6
  8
4
 10
10981.93401200363
 20
4727.8789606314695
 30
0.0
 40
250.0
  1
LL#10-1
  0
TEXT
  5
8DD8
  8
4
 10
9061.7603256253333
 20
15059.225245894329
 30
0.0
 40
270.0
  1
床置防振ベット
  0
TEXT
  5
8DD9
  8
4
 10
6629.4995007234529
 20
15811.485920228241
 30
0.0
 40
360.0
  1
遠心式片吸込片持リミットロードファン
  0
LINE
  5
8DDA
  8
4
 10
6298.6615340762219
 20
15489.12481055577
 30
0.0
 11
14298.66153407622
 21
15489.12481055577
 31
0.0
  0
LINE
  5
8DDB
  8
4
 10
6298.6615340762219
 20
16489.124810555772
 30
0.0
 11
14298.66153407622
 21
16489.124810555772
 31
0.0
  0
LINE
  5
8DDC
  8
4
 10
8298.6615340762219
 20
5642.0810392317526
 30
0.0
 11
14298.66153407622
 21
5642.0810392317526
 31
0.0
  0
LINE
  5
8DDD
  8
4
 10
6298.6615340762219
 20
16489.124810555772
 30
0.0
 11
6298.6615340762219
 21
15489.12481055577
 31
0.0
  0
TEXT
  5
8DDE
  8
4
 10
6744.5291148315891
 20
15053.67842696347
 30
0.0
 40
270.0
  1
右回転上向
  0
TEXT
  5
8DDF
  8
4
 10
12393.509330322669
 20
16672.3864467083
 30
0.0
 40
280.0
  1
No.
  0
TEXT
  5
8DE0
  8
4
 10
12460.44075733299
 20
14562.96040288413
 30
0.0
 40
270.0
  1
縮尺：1/50
  0
LINE
  5
8DE1
  8
4
 10
14298.66153407622
 20
16489.124810555772
 30
0.0
 11
14298.66153407622
 21
15489.12481055577
 31
0.0
  0
LINE
  5
8DE2
  8
4
 10
15548.66153407622
 20
17892.081039231751
 30
0.0
 11
15548.66153407622
 21
17892.081039231751
 31
0.0
  0
LINE
  5
8DE3
  8
4
 10
12251.748645875539
 20
16548.39895485876
 30
0.0
 11
12251.748645875539
 21
17075.342346980509
 31
0.0
  0
LINE
  5
8DE4
  8
4
 10
12251.748645875539
 20
17075.342346980509
 30
0.0
 11
14298.66153407622
 21
17075.342346980509
 31
0.0
  0
LINE
  5
8DE5
  8
4
 10
14298.66153407622
 20
17075.342346980509
 30
0.0
 11
14298.66153407622
 21
16548.39895485876
 31
0.0
  0
LINE
  5
8DE6
  8
4
 10
14298.66153407622
 20
16548.39895485876
 30
0.0
 11
12251.748645875539
 21
16548.39895485876
 31
0.0
  0
LINE
  5
8DE7
  8
4
 10
5048.6615340762219
 20
3142.0810392317512
 30
0.0
 11
5048.6615340762219
 21
17892.081039231751
 31
0.0
  0
LINE
  5
8DE8
  8
4
 10
5048.6615340762219
 20
17892.081039231751
 30
0.0
 11
15548.66153407622
 21
17892.081039231751
 31
0.0
  0
LINE
  5
8DE9
  8
4
 10
15548.66153407622
 20
17892.081039231751
 30
0.0
 11
15548.66153407622
 21
3142.0810392317512
 31
0.0
  0
LINE
  5
8DEA
  8
4
 10
15548.66153407622
 20
3142.0810392317512
 30
0.0
 11
5048.6615340762219
 21
3142.0810392317512
 31
0.0
  0
ENDSEC
  0
EOF
