  0
SECTION
  2
HEADER
  9
$ACADVER
  1
AC1009
  9
$INSBASE
 10
0.0
 20
0.0
 30
0.0
  9
$EXTMIN
 10
7687.0925744009646
 20
4533.1249574973117
 30
0.0
  9
$EXTMAX
 10
18187.092574400958
 20
19283.124957497312
 30
0.0
  9
$LIMMIN
 10
0.0
 20
0.0
  9
$LIMMAX
 10
297.0
 20
210.0
  9
$ORTHOMODE
 70
     0
  9
$REGENMODE
 70
     1
  9
$FILLMODE
 70
     1
  9
$QTEXTMODE
 70
     0
  9
$MIRRTEXT
 70
     0
  9
$DRAGMODE
 70
     2
  9
$LTSCALE
 40
175.0
  9
$OSMODE
 70
    37
  9
$ATTMODE
 70
     1
  9
$TEXTSIZE
 40
150.0
  9
$TRACEWID
 40
0.05
  9
$TEXTSTYLE
  7
STANDARD
  9
$CLAYER
  8
FUTO
  9
$CELTYPE
  6
BYLAYER
  9
$CECOLOR
 62
   256
  9
$DIMSCALE
 40
35.0
  9
$DIMASZ
 40
2.5
  9
$DIMEXO
 40
1.0
  9
$DIMDLI
 40
10.0
  9
$DIMRND
 40
0.0
  9
$DIMDLE
 40
0.0
  9
$DIMEXE
 40
1.0
  9
$DIMTP
 40
0.0
  9
$DIMTM
 40
0.0
  9
$DIMTXT
 40
3.0
  9
$DIMCEN
 40
0.0
  9
$DIMTSZ
 40
0.0
  9
$DIMTOL
 70
     0
  9
$DIMLIM
 70
     0
  9
$DIMTIH
 70
     0
  9
$DIMTOH
 70
     0
  9
$DIMSE1
 70
     0
  9
$DIMSE2
 70
     0
  9
$DIMTAD
 70
     1
  9
$DIMZIN
 70
     8
  9
$DIMBLK
  1

  9
$DIMASO
 70
     1
  9
$DIMSHO
 70
     1
  9
$DIMPOST
  1

  9
$DIMAPOST
  1

  9
$DIMALT
 70
     0
  9
$DIMALTD
 70
     2
  9
$DIMALTF
 40
0.03937
  9
$DIMLFAC
 40
1.0
  9
$DIMTOFL
 70
     1
  9
$DIMTVP
 40
0.0
  9
$DIMTIX
 70
     0
  9
$DIMSOXD
 70
     0
  9
$DIMSAH
 70
     1
  9
$DIMBLK1
  1
OPEN
  9
$DIMBLK2
  1
OPEN
  9
$DIMSTYLE
  2
MATSU
  9
$DIMCLRD
 70
   256
  9
$DIMCLRE
 70
   256
  9
$DIMCLRT
 70
   256
  9
$DIMTFAC
 40
1.0
  9
$DIMGAP
 40
1.0
  9
$LUNITS
 70
     2
  9
$LUPREC
 70
     4
  9
$SKETCHINC
 40
0.1
  9
$FILLETRAD
 40
30.0
  9
$AUNITS
 70
     0
  9
$AUPREC
 70
     2
  9
$MENU
  1
acad
  9
$ELEVATION
 40
0.0
  9
$PELEVATION
 40
0.0
  9
$THICKNESS
 40
0.0
  9
$LIMCHECK
 70
     0
  9
$BLIPMODE
 70
     0
  9
$CHAMFERA
 40
8.0
  9
$CHAMFERB
 40
8.0
  9
$SKPOLY
 70
     0
  9
$TDCREATE
 40
2453957.375965347
  9
$TDUPDATE
 40
2454953.6499251272
  9
$TDINDWG
 40
0.161940463
  9
$TDUSRTIMER
 40
0.161940463
  9
$USRTIMER
 70
     1
  9
$ANGBASE
 50
0.0
  9
$ANGDIR
 70
     0
  9
$PDMODE
 70
     0
  9
$PDSIZE
 40
1.0
  9
$PLINEWID
 40
0.0
  9
$COORDS
 70
     1
  9
$SPLFRAME
 70
     0
  9
$SPLINETYPE
 70
     6
  9
$SPLINESEGS
 70
     8
  9
$ATTDIA
 70
     0
  9
$ATTREQ
 70
     1
  9
$HANDLING
 70
 10241
  9
$HANDSEED
  5
8F09
  9
$SURFTAB1
 70
     6
  9
$SURFTAB2
 70
     6
  9
$SURFTYPE
 70
     6
  9
$SURFU
 70
     6
  9
$SURFV
 70
     6
  9
$UCSNAME
  2

  9
$UCSORG
 10
0.0
 20
-0.0000000000000142
 30
0.0
  9
$UCSXDIR
 10
1.0
 20
0.0
 30
0.0
  9
$UCSYDIR
 10
0.0
 20
1.0
 30
0.0
  9
$PUCSNAME
  2

  9
$PUCSORG
 10
0.0
 20
0.0
 30
0.0
  9
$PUCSXDIR
 10
1.0
 20
0.0
 30
0.0
  9
$PUCSYDIR
 10
0.0
 20
1.0
 30
0.0
  9
$USERI1
 70
     0
  9
$USERI2
 70
     0
  9
$USERI3
 70
     0
  9
$USERI4
 70
     0
  9
$USERI5
 70
     0
  9
$USERR1
 40
0.0
  9
$USERR2
 40
0.0
  9
$USERR3
 40
0.0
  9
$USERR4
 40
0.0
  9
$USERR5
 40
0.0
  9
$WORLDVIEW
 70
     1
  9
$SHADEDGE
 70
     3
  9
$SHADEDIF
 70
    70
  9
$TILEMODE
 70
     1
  9
$MAXACTVP
 70
    16
  9
$PLIMCHECK
 70
     0
  9
$PEXTMIN
 10
1.0000000000000000E+020
 20
1.0000000000000000E+020
 30
1.0000000000000000E+020
  9
$PEXTMAX
 10
-1.0000000000000000E+020
 20
-1.0000000000000000E+020
 30
-1.0000000000000000E+020
  9
$PLIMMIN
 10
0.0
 20
0.0
  9
$PLIMMAX
 10
12.0
 20
9.0
  9
$UNITMODE
 70
     0
  9
$VISRETAIN
 70
     0
  9
$PLINEGEN
 70
     0
  9
$PSLTSCALE
 70
     0
  0
ENDSEC
  0
SECTION
  2
TABLES
  0
TABLE
  2
VPORT
 70
     2
  0
VPORT
  2
*ACTIVE
 70
     0
 10
0.0
 20
0.0
 11
1.0
 21
1.0
 12
17616.000545622312
 22
6197.4795598354176
 13
0.0
 23
0.0
 14
5.0
 24
5.0
 15
0.0
 25
0.0
 16
0.0
 26
0.0
 36
1.0
 17
0.0
 27
0.0
 37
0.0
 40
4629.52279663438
 41
3.1666666666666661
 42
50.0
 43
0.0
 44
0.0
 50
0.0
 51
0.0
 71
     0
 72
   100
 73
     1
 74
     0
 75
     0
 76
     0
 77
     0
 78
     0
  0
ENDTAB
  0
TABLE
  2
LTYPE
 70
     4
  0
LTYPE
  2
CONTINUOUS
 70
     0
  3
Solid line
 72
    65
 73
     0
 40
0.0
  0
LTYPE
  2
CENTER
 70
     0
  3
____ _ ____ _ ____ _ ____ _ ____ _ ____ _ ____ 
 72
    65
 73
     4
 40
2.0
 49
1.25
 49
-0.25
 49
0.25
 49
-0.25
  0
LTYPE
  2
HIDDEN
 70
     0
  3
__ __ __ __ __ __ __ __ __ __ __ __ __ __ __ __
 72
    65
 73
     2
 40
0.375
 49
0.25
 49
-0.125
  0
LTYPE
  2
PHANTOM
 70
     0
  3
______  __  __  ______  __  __  ______  __  __ 
 72
    65
 73
     6
 40
2.5
 49
1.25
 49
-0.25
 49
0.25
 49
-0.25
 49
0.25
 49
-0.25
  0
ENDTAB
  0
TABLE
  2
LAYER
 70
     9
  0
LAYER
  2
0
 70
     0
 62
     7
  6
CONTINUOUS
  0
LAYER
  2
CT
 70
     0
 62
     3
  6
CENTER
  0
LAYER
  2
FUTO
 70
     0
 62
     4
  6
CONTINUOUS
  0
LAYER
  2
HOSO
 70
     0
 62
     7
  6
CONTINUOUS
  0
LAYER
  2
KL
 70
     0
 62
     7
  6
HIDDEN
  0
LAYER
  2
SL
 70
     0
 62
     1
  6
PHANTOM
  0
LAYER
  2
SP
 70
     0
 62
     2
  6
CONTINUOUS
  0
LAYER
  2
DEFPOINTS
 70
     0
 62
     7
  6
CONTINUOUS
  0
LAYER
  2
4
 70
     0
 62
     7
  6
CONTINUOUS
  0
ENDTAB
  0
TABLE
  2
STYLE
 70
     1
  0
STYLE
  2
STANDARD
 70
     0
 40
0.0
 41
1.0
 50
15.0
 71
     0
 42
150.0
  3
C:\Program Files\AutoCAD LT\simplex.shx
  4
extfont.shx
  0
ENDTAB
  0
TABLE
  2
VIEW
 70
     0
  0
ENDTAB
  0
TABLE
  2
UCS
 70
     0
  0
ENDTAB
  0
TABLE
  2
APPID
 70
     1
  0
APPID
  2
ACAD
 70
     0
  0
ENDTAB
  0
TABLE
  2
DIMSTYLE
 70
     2
  0
DIMSTYLE
  2
STANDARD
 70
     0
  3

  4

  5

  6

  7

 40
1.0
 41
0.18
 42
0.0625
 43
0.38
 44
0.18
 45
0.0
 46
0.0
 47
0.0
 48
0.0
140
0.18
141
0.09
142
0.0
143
25.399999999999999
144
1.0
145
0.0
146
1.0
147
0.09
 71
     0
 72
     0
 73
     1
 74
     1
 75
     0
 76
     0
 77
     0
 78
     0
170
     0
171
     2
172
     0
173
     0
174
     0
175
     0
176
     0
177
     0
178
     0
  0
DIMSTYLE
  2
MATSU
 70
     0
  3

  4

  5

  6
OPEN
  7
OPEN
 40
1.0
 41
2.0
 42
1.0
 43
10.0
 44
1.0
 45
0.0
 46
0.0
 47
0.0
 48
0.0
140
3.0
141
0.0
142
0.0
143
0.03937
144
1.0
145
0.0
146
1.0
147
0.5
 71
     0
 72
     0
 73
     0
 74
     0
 75
     0
 76
     0
 77
     1
 78
     8
170
     0
171
     2
172
     1
173
     1
174
     0
175
     0
176
   256
177
   256
178
   256
  0
ENDTAB
  0
ENDSEC
  0
SECTION
  2
BLOCKS
  0
BLOCK
  8
0
  2
$MODEL_SPACE
 70
     0
 10
0.0
 20
0.0
 30
0.0
  3
$MODEL_SPACE
  1

  0
ENDBLK
  5
1B
  8
0
  0
BLOCK
 67
     1
  8
0
  2
$PAPER_SPACE
 70
     0
 10
0.0
 20
0.0
 30
0.0
  3
$PAPER_SPACE
  1

  0
ENDBLK
  5
18
 67
     1
  8
0
  0
BLOCK
  8
0
  2
_OPEN
 70
     0
 10
0.0
 20
0.0
 30
0.0
  3
_OPEN
  1

  0
LINE
  5
28
  8
0
  6
BYBLOCK
 62
     0
 10
-1.0
 20
0.1666666666666666
 30
0.0
 11
0.0
 21
0.0
 31
0.0
  0
LINE
  5
29
  8
0
  6
BYBLOCK
 62
     0
 10
0.0
 20
0.0
 30
0.0
 11
-1.0
 21
-0.1666666666666666
 31
0.0
  0
LINE
  5
2A
  8
0
  6
BYBLOCK
 62
     0
 10
0.0
 20
0.0
 30
0.0
 11
-1.0
 21
0.0
 31
0.0
  0
ENDBLK
  5
2B
  8
0
  0
BLOCK
  8
0
  2
まっすぐの矢印
 70
     0
 10
0.0
 20
0.0
 30
0.0
  3
まっすぐの矢印
  1

  0
LINE
  5
56E2
  8
SP
 10
0.6962157491662495
 20
-2.216890595009601
 30
0.0
 11
0.6962157491662495
 21
-5.0
 31
0.0
  0
LINE
  5
56E3
  8
SP
 10
0.6962157491662495
 20
-5.0
 30
0.0
 11
-0.6962157491662495
 21
-5.0
 31
0.0
  0
LINE
  5
56E4
  8
SP
 10
-0.6962157491662495
 20
-5.0
 30
0.0
 11
-0.6962157491662495
 21
-2.216890595009601
 31
0.0
  0
LINE
  5
56E5
  8
SP
 10
-0.6962157491662495
 20
-2.216890595009601
 30
0.0
 11
-1.7145256852758151
 21
-2.216890595009601
 31
0.0
  0
LINE
  5
56E6
  8
SP
 10
-1.7145256852758151
 20
-2.216890595009601
 30
0.0
 11
0.0
 21
0.0
 31
0.0
  0
LINE
  5
56E7
  8
SP
 10
0.0
 20
0.0
 30
0.0
 11
1.7145256852758151
 21
-2.216890595009601
 31
0.0
  0
LINE
  5
56E8
  8
SP
 10
1.7145256852758151
 20
-2.216890595009601
 30
0.0
 11
0.6962157491662495
 21
-2.216890595009601
 31
0.0
  0
ENDBLK
  5
56EA
  8
0
  0
BLOCK
  8
0
  2
右回転矢印
 70
     0
 10
0.0
 20
0.0
 30
0.0
  3
右回転矢印
  1

  0
LINE
  5
56EC
  8
SP
 10
-2.7705290305565882
 20
1.567794835092901
 30
0.0
 11
-2.4288000558398148
 21
2.8051227455822878
 31
0.0
  0
LINE
  5
56ED
  8
SP
 10
-2.4288000558398148
 20
2.8051227455822878
 30
0.0
 11
0.0
 21
0.0
 31
0.0
  0
LINE
  5
56EE
  8
SP
 10
0.0
 20
0.0
 30
0.0
 11
-3.3160037613098718
 21
-0.4072531086382499
 31
0.0
  0
LINE
  5
56EF
  8
SP
 10
-3.3160037613098718
 20
-0.4072531086382499
 30
0.0
 11
-3.0391574735299112
 21
0.5951483970269315
 31
0.0
  0
ARC
  5
56F0
  8
SP
 10
-5.9215210782018062
 20
-9.8412769578768184
 30
0.0
 40
10.82714154973578
 50
74.560750721316467
 51
112.11861101078711
  0
LINE
  5
56F1
  8
SP
 10
-9.9982127316752951
 20
0.1890560027239694
 30
0.0
 11
-10.37814929817227
 21
1.1238557349100611
 31
0.0
  0
ARC
  5
56F2
  8
SP
 10
-5.9215210782018062
 20
-9.8412769578768291
 30
0.0
 40
11.83620167374065
 50
74.560750721316396
 51
112.11861101078701
  0
ENDBLK
  5
56F4
  8
0
  0
BLOCK
  8
0
  2
*D3
 70
     1
 10
0.0
 20
0.0
 30
0.0
  3
*D3
  1

  0
LINE
  5
8E6B
  8
SP
 10
9775.964669173447
 20
8843.9531069810873
 30
0.0
 11
9775.964669173447
 21
8593.4407967979823
 31
0.0
  0
LINE
  5
8E6C
  8
SP
 10
10725.96466917344
 20
8843.9531069810873
 30
0.0
 11
10725.96466917344
 21
8593.4407967979823
 31
0.0
  0
LINE
  5
8E6D
  8
SP
 10
9863.464669173447
 20
8628.4407967979841
 30
0.0
 11
10638.46466917344
 21
8628.4407967979841
 31
0.0
  0
INSERT
  5
8E6E
  8
SP
  2
_OPEN
 10
9775.964669173447
 20
8628.4407967979841
 30
0.0
 41
87.5
 42
87.5
 43
87.5
 50
180.0
  0
INSERT
  5
8E6F
  8
SP
  2
_OPEN
 10
10725.96466917344
 20
8628.4407967979841
 30
0.0
 41
87.5
 42
87.5
 43
87.5
  0
TEXT
  5
8E70
  8
FUTO
 10
10102.567209551889
 20
8663.4407967979823
 30
0.0
 40
105.0
  1
950
 51
15.0
  0
POINT
  5
8E71
  8
DEFPOINTS
 62
     0
 10
9775.964669173447
 20
8878.9531069810873
 30
0.0
  0
POINT
  5
8E72
  8
DEFPOINTS
 62
     0
 10
10725.96466917344
 20
8878.9531069810873
 30
0.0
  0
POINT
  5
8E73
  8
DEFPOINTS
 62
     0
 10
10725.96466917344
 20
8628.4407967979841
 30
0.0
  0
ENDBLK
  5
6A60
  8
0
  0
BLOCK
  8
0
  2
*D4
 70
     1
 10
0.0
 20
0.0
 30
0.0
  3
*D4
  1

  0
LINE
  5
8E7D
  8
SP
 10
10725.96466917344
 20
8843.9531069810873
 30
0.0
 11
10725.96466917344
 21
8593.4407967979823
 31
0.0
  0
LINE
  5
8E7E
  8
SP
 10
12275.96466917344
 20
8843.9531069810873
 30
0.0
 11
12275.96466917344
 21
8593.4407967979823
 31
0.0
  0
LINE
  5
8E7F
  8
SP
 10
10813.46466917344
 20
8628.4407967979841
 30
0.0
 11
12188.46466917344
 21
8628.4407967979841
 31
0.0
  0
INSERT
  5
8E80
  8
SP
  2
_OPEN
 10
10725.96466917344
 20
8628.4407967979841
 30
0.0
 41
87.5
 42
87.5
 43
87.5
 50
180.0
  0
INSERT
  5
8E81
  8
SP
  2
_OPEN
 10
12275.96466917344
 20
8628.4407967979841
 30
0.0
 41
87.5
 42
87.5
 43
87.5
  0
TEXT
  5
8E82
  8
FUTO
 10
11305.6889878168
 20
8663.4407967979823
 30
0.0
 40
105.0
  1
1550
 51
15.0
  0
POINT
  5
8E83
  8
DEFPOINTS
 62
     0
 10
10725.96466917344
 20
8878.9531069810873
 30
0.0
  0
POINT
  5
8E84
  8
DEFPOINTS
 62
     0
 10
12275.96466917344
 20
8878.9531069810873
 30
0.0
  0
POINT
  5
8E85
  8
DEFPOINTS
 62
     0
 10
12275.96466917344
 20
8628.4407967979841
 30
0.0
  0
ENDBLK
  5
6A6D
  8
0
  0
BLOCK
  8
0
  2
*D5
 70
     1
 10
0.0
 20
0.0
 30
0.0
  3
*D5
  1

  0
LINE
  5
8E62
  8
SP
 10
9775.964669173447
 20
8843.9531069810873
 30
0.0
 11
9775.964669173447
 21
8343.3530528003284
 31
0.0
  0
LINE
  5
8E63
  8
SP
 10
12275.96466917344
 20
8843.9531069810873
 30
0.0
 11
12275.96466917344
 21
8343.3530528003284
 31
0.0
  0
LINE
  5
8E64
  8
SP
 10
9863.464669173447
 20
8378.3530528003266
 30
0.0
 11
12188.46466917344
 21
8378.3530528003266
 31
0.0
  0
INSERT
  5
8E65
  8
SP
  2
_OPEN
 10
9775.964669173447
 20
8378.3530528003266
 30
0.0
 41
87.5
 42
87.5
 43
87.5
 50
180.0
  0
INSERT
  5
8E66
  8
SP
  2
_OPEN
 10
12275.96466917344
 20
8378.3530528003266
 30
0.0
 41
87.5
 42
87.5
 43
87.5
  0
TEXT
  5
8E67
  8
FUTO
 10
10832.076828495119
 20
8413.3530528003266
 30
0.0
 40
105.0
  1
2500
 51
15.0
  0
POINT
  5
8E68
  8
DEFPOINTS
 62
     0
 10
9775.964669173447
 20
8878.9531069810873
 30
0.0
  0
POINT
  5
8E69
  8
DEFPOINTS
 62
     0
 10
12275.96466917344
 20
8878.9531069810873
 30
0.0
  0
POINT
  5
8E6A
  8
DEFPOINTS
 62
     0
 10
12275.96466917344
 20
8378.3530528003266
 30
0.0
  0
ENDBLK
  5
6A7A
  8
0
  0
BLOCK
  8
0
  2
*D6
 70
     1
 10
0.0
 20
0.0
 30
0.0
  3
*D6
  1

  0
LINE
  5
8ECD
  8
SP
 10
14086.973219255469
 20
8843.9531069810873
 30
0.0
 11
14086.973219255469
 21
8593.4407734101442
 31
0.0
  0
LINE
  5
8ECE
  8
SP
 10
15717.973219255469
 20
8843.9531069810873
 30
0.0
 11
15717.973219255469
 21
8593.4407734101442
 31
0.0
  0
LINE
  5
8ECF
  8
SP
 10
14174.473219255469
 20
8628.440773410146
 30
0.0
 11
15630.473219255469
 21
8628.440773410146
 31
0.0
  0
INSERT
  5
8ED0
  8
SP
  2
_OPEN
 10
14086.973219255469
 20
8628.440773410146
 30
0.0
 41
87.5
 42
87.5
 43
87.5
 50
180.0
  0
INSERT
  5
8ED1
  8
SP
  2
_OPEN
 10
15717.973219255469
 20
8628.440773410146
 30
0.0
 41
87.5
 42
87.5
 43
87.5
  0
TEXT
  5
8ED2
  8
FUTO
 10
14724.518045974521
 20
8663.440773410146
 30
0.0
 40
105.0
  1
1631
 51
15.0
  0
POINT
  5
8ED3
  8
DEFPOINTS
 62
     0
 10
14086.973219255469
 20
8878.9531069810873
 30
0.0
  0
POINT
  5
8ED4
  8
DEFPOINTS
 62
     0
 10
15717.973219255469
 20
8878.9531069810873
 30
0.0
  0
POINT
  5
8ED5
  8
DEFPOINTS
 62
     0
 10
15717.973219255469
 20
8628.440773410146
 30
0.0
  0
ENDBLK
  5
6A87
  8
0
  0
BLOCK
  8
0
  2
*D7
 70
     1
 10
0.0
 20
0.0
 30
0.0
  3
*D7
  1

  0
LINE
  5
8ED6
  8
SP
 10
15717.973219255469
 20
8843.9531069810873
 30
0.0
 11
15717.973219255469
 21
8593.4407734101442
 31
0.0
  0
LINE
  5
8ED7
  8
SP
 10
16386.973219255469
 20
8843.9531069810873
 30
0.0
 11
16386.973219255469
 21
8593.4407734101442
 31
0.0
  0
LINE
  5
8ED8
  8
SP
 10
15805.473219255469
 20
8628.440773410146
 30
0.0
 11
16299.473219255469
 21
8628.440773410146
 31
0.0
  0
INSERT
  5
8ED9
  8
SP
  2
_OPEN
 10
15717.973219255469
 20
8628.440773410146
 30
0.0
 41
87.5
 42
87.5
 43
87.5
 50
180.0
  0
INSERT
  5
8EDA
  8
SP
  2
_OPEN
 10
16386.973219255469
 20
8628.440773410146
 30
0.0
 41
87.5
 42
87.5
 43
87.5
  0
TEXT
  5
8EDB
  8
FUTO
 10
15905.905886652839
 20
8663.440773410146
 30
0.0
 40
105.0
  1
669
 51
15.0
  0
POINT
  5
8EDC
  8
DEFPOINTS
 62
     0
 10
15717.973219255469
 20
8878.9531069810873
 30
0.0
  0
POINT
  5
8EDD
  8
DEFPOINTS
 62
     0
 10
16386.973219255469
 20
8878.9531069810873
 30
0.0
  0
POINT
  5
8EDE
  8
DEFPOINTS
 62
     0
 10
16386.973219255469
 20
8628.440773410146
 30
0.0
  0
ENDBLK
  5
6A94
  8
0
  0
BLOCK
  8
0
  2
*D8
 70
     1
 10
0.0
 20
0.0
 30
0.0
  3
*D8
  1

  0
LINE
  5
8EC4
  8
SP
 10
14086.973219255469
 20
8843.9531069810873
 30
0.0
 11
14086.973219255469
 21
8343.3530294124885
 31
0.0
  0
LINE
  5
8EC5
  8
SP
 10
16386.973219255469
 20
8843.9531069810873
 30
0.0
 11
16386.973219255469
 21
8343.3530294124885
 31
0.0
  0
LINE
  5
8EC6
  8
SP
 10
14174.473219255469
 20
8378.3530294124885
 30
0.0
 11
16299.473219255469
 21
8378.3530294124885
 31
0.0
  0
INSERT
  5
8EC7
  8
SP
  2
_OPEN
 10
14086.973219255469
 20
8378.3530294124885
 30
0.0
 41
87.5
 42
87.5
 43
87.5
 50
180.0
  0
INSERT
  5
8EC8
  8
SP
  2
_OPEN
 10
16386.973219255469
 20
8378.3530294124885
 30
0.0
 41
87.5
 42
87.5
 43
87.5
  0
TEXT
  5
8EC9
  8
FUTO
 10
15043.085378577151
 20
8413.3530294124885
 30
0.0
 40
105.0
  1
2300
 51
15.0
  0
POINT
  5
8ECA
  8
DEFPOINTS
 62
     0
 10
14086.973219255469
 20
8878.9531069810873
 30
0.0
  0
POINT
  5
8ECB
  8
DEFPOINTS
 62
     0
 10
16386.973219255469
 20
8878.9531069810873
 30
0.0
  0
POINT
  5
8ECC
  8
DEFPOINTS
 62
     0
 10
16386.973219255469
 20
8378.3530294124885
 30
0.0
  0
ENDBLK
  5
6AA1
  8
0
  0
BLOCK
  8
0
  2
*D9
 70
     1
 10
0.0
 20
0.0
 30
0.0
  3
*D9
  1

  0
LINE
  5
8EBB
  8
SP
 10
15717.973219255469
 20
11901.212109109931
 30
0.0
 11
15717.973219255469
 21
11947.184488658901
 31
0.0
  0
LINE
  5
8EBC
  8
SP
 10
16442.973219255469
 20
11443.95310698108
 30
0.0
 11
16442.973219255469
 21
11947.184488658901
 31
0.0
  0
LINE
  5
8EBD
  8
SP
 10
15805.473219255469
 20
11912.184488658901
 30
0.0
 11
16355.473219255469
 21
11912.184488658901
 31
0.0
  0
INSERT
  5
8EBE
  8
SP
  2
_OPEN
 10
15717.973219255469
 20
11912.184488658901
 30
0.0
 41
87.5
 42
87.5
 43
87.5
 50
180.0
  0
INSERT
  5
8EBF
  8
SP
  2
_OPEN
 10
16442.973219255469
 20
11912.184488658901
 30
0.0
 41
87.5
 42
87.5
 43
87.5
  0
TEXT
  5
8EC0
  8
FUTO
 10
15926.405886652839
 20
11947.184488658901
 30
0.0
 40
105.0
  1
725
 51
15.0
  0
POINT
  5
8EC1
  8
DEFPOINTS
 62
     0
 10
15717.973219255469
 20
11866.212109109931
 30
0.0
  0
POINT
  5
8EC2
  8
DEFPOINTS
 62
     0
 10
16442.973219255469
 20
11408.95310698108
 30
0.0
  0
POINT
  5
8EC3
  8
DEFPOINTS
 62
     0
 10
16442.973219255469
 20
11912.184488658901
 30
0.0
  0
ENDBLK
  5
6AFF
  8
0
  0
BLOCK
  8
0
  2
*D10
 70
     1
 10
0.0
 20
0.0
 30
0.0
  3
*D10
  1

  0
LINE
  5
8EDF
  8
SP
 10
16477.973219255469
 20
11343.95310698108
 30
0.0
 11
16757.166620457348
 21
11343.95310698108
 31
0.0
  0
LINE
  5
8EE0
  8
SP
 10
16477.973219255469
 20
9743.9531069810873
 30
0.0
 11
16757.166620457348
 21
9743.9531069810873
 31
0.0
  0
LINE
  5
8EE1
  8
SP
 10
16722.166620457348
 20
11256.45310698108
 30
0.0
 11
16722.166620457348
 21
9831.4531069810855
 31
0.0
  0
INSERT
  5
8EE2
  8
SP
  2
_OPEN
 10
16722.166620457348
 20
11343.95310698108
 30
0.0
 41
87.5
 42
87.5
 43
87.5
 50
90.0
  0
INSERT
  5
8EE3
  8
SP
  2
_OPEN
 10
16722.166620457348
 20
9743.9531069810873
 30
0.0
 41
87.5
 42
87.5
 43
87.5
 50
270.0
  0
TEXT
  5
8EE4
  8
FUTO
 10
16687.166620457348
 20
10312.254377170309
 30
0.0
 40
105.0
  1
φ1600
 50
90.0
 51
15.0
  0
POINT
  5
8EE5
  8
DEFPOINTS
 62
     0
 10
16442.973219255469
 20
11343.95310698108
 30
0.0
  0
POINT
  5
8EE6
  8
DEFPOINTS
 62
     0
 10
16442.973219255469
 20
9743.9531069810873
 30
0.0
  0
POINT
  5
8EE7
  8
DEFPOINTS
 62
     0
 10
16722.166620457348
 20
9743.9531069810873
 30
0.0
  0
ENDBLK
  5
6F63
  8
0
  0
BLOCK
  8
0
  2
*D11
 70
     1
 10
0.0
 20
0.0
 30
0.0
  3
*D11
  1

  0
LINE
  5
8EB3
  8
SP
 10
13837.973219255469
 20
10958.95310698108
 30
0.0
 11
13837.973219255469
 21
11947.184488658901
 31
0.0
  0
LINE
  5
8EB4
  8
SP
 10
13925.473219255469
 20
11912.184488658901
 30
0.0
 11
15630.473219255469
 21
11912.184488658901
 31
0.0
  0
INSERT
  5
8EB5
  8
SP
  2
_OPEN
 10
13837.973219255469
 20
11912.184488658901
 30
0.0
 41
87.5
 42
87.5
 43
87.5
 50
180.0
  0
INSERT
  5
8EB6
  8
SP
  2
_OPEN
 10
15717.973219255469
 20
11912.184488658901
 30
0.0
 41
87.5
 42
87.5
 43
87.5
  0
TEXT
  5
8EB7
  8
FUTO
 10
14582.69753789883
 20
11947.184488658901
 30
0.0
 40
105.0
  1
1880
 51
15.0
  0
POINT
  5
8EB8
  8
DEFPOINTS
 62
     0
 10
13837.973219255469
 20
10923.95310698108
 30
0.0
  0
POINT
  5
8EB9
  8
DEFPOINTS
 62
     0
 10
15717.973219255469
 20
11912.184488658901
 30
0.0
  0
POINT
  5
8EBA
  8
DEFPOINTS
 62
     0
 10
15717.973219255469
 20
11912.184488658901
 30
0.0
  0
ENDBLK
  5
6FBD
  8
0
  0
BLOCK
  8
0
  2
*D12
 70
     1
 10
0.0
 20
0.0
 30
0.0
  3
*D12
  1

  0
LINE
  5
8E59
  8
SP
 10
10725.96466917344
 20
11731.584967494449
 30
0.0
 11
10725.96466917344
 21
11974.119498062961
 31
0.0
  0
LINE
  5
8E5A
  8
SP
 10
12488.96466917344
 20
11623.95310698108
 30
0.0
 11
12488.96466917344
 21
11974.119498062961
 31
0.0
  0
LINE
  5
8E5B
  8
SP
 10
10813.46466917344
 20
11939.119498062961
 30
0.0
 11
12401.46466917344
 21
11939.119498062961
 31
0.0
  0
INSERT
  5
8E5C
  8
SP
  2
_OPEN
 10
10725.96466917344
 20
11939.119498062961
 30
0.0
 41
87.5
 42
87.5
 43
87.5
 50
180.0
  0
INSERT
  5
8E5D
  8
SP
  2
_OPEN
 10
12488.96466917344
 20
11939.119498062961
 30
0.0
 41
87.5
 42
87.5
 43
87.5
  0
TEXT
  5
8E5E
  8
FUTO
 10
11409.509495892489
 20
11974.119498062961
 30
0.0
 40
105.0
  1
1763
 51
15.0
  0
POINT
  5
8E5F
  8
DEFPOINTS
 62
     0
 10
10725.96466917344
 20
11696.584967494449
 30
0.0
  0
POINT
  5
8E60
  8
DEFPOINTS
 62
     0
 10
12488.96466917344
 20
11588.95310698108
 30
0.0
  0
POINT
  5
8E61
  8
DEFPOINTS
 62
     0
 10
12488.96466917344
 20
11939.119498062961
 30
0.0
  0
ENDBLK
  5
8034
  8
0
  0
BLOCK
  8
0
  2
*D13
 70
     1
 10
0.0
 20
0.0
 30
0.0
  3
*D13
  1

  0
LINE
  5
8E74
  8
SP
 10
12310.96466917344
 20
9143.9531069810855
 30
0.0
 11
12777.159835421189
 21
9143.9531069810855
 31
0.0
  0
LINE
  5
8E75
  8
SP
 10
12594.32279114329
 20
10543.95310698108
 30
0.0
 11
12777.159835421189
 21
10543.95310698108
 31
0.0
  0
LINE
  5
8E76
  8
SP
 10
12742.159835421189
 20
9231.4531069810855
 30
0.0
 11
12742.159835421189
 21
10456.45310698108
 31
0.0
  0
INSERT
  5
8E77
  8
SP
  2
_OPEN
 10
12742.159835421189
 20
9143.9531069810855
 30
0.0
 41
87.5
 42
87.5
 43
87.5
 50
270.0
  0
INSERT
  5
8E78
  8
SP
  2
_OPEN
 10
12742.159835421189
 20
10543.95310698108
 30
0.0
 41
87.5
 42
87.5
 43
87.5
 50
90.0
  0
TEXT
  5
8E79
  8
FUTO
 10
12707.159835421189
 20
9648.6774256244462
 30
0.0
 40
105.0
  1
1400
 50
90.0
 51
15.0
  0
POINT
  5
8E7A
  8
DEFPOINTS
 62
     0
 10
12275.96466917344
 20
9143.9531069810855
 30
0.0
  0
POINT
  5
8E7B
  8
DEFPOINTS
 62
     0
 10
12559.32279114329
 20
10543.95310698108
 30
0.0
  0
POINT
  5
8E7C
  8
DEFPOINTS
 62
     0
 10
12742.159835421189
 20
10543.95310698108
 30
0.0
  0
ENDBLK
  5
8052
  8
0
  0
BLOCK
  8
0
  2
*D14
 70
     1
 10
0.0
 20
0.0
 30
0.0
  3
*D14
  1

  0
LINE
  5
8E86
  8
SP
 10
12594.32279114329
 20
10543.95310698108
 30
0.0
 11
12777.159835421189
 21
10543.95310698108
 31
0.0
  0
LINE
  5
8E87
  8
SP
 10
12523.96466917344
 20
11588.95310698108
 30
0.0
 11
12777.159835421189
 21
11588.95310698108
 31
0.0
  0
LINE
  5
8E88
  8
SP
 10
12742.159835421189
 20
10631.45310698108
 30
0.0
 11
12742.159835421189
 21
11501.45310698108
 31
0.0
  0
INSERT
  5
8E89
  8
SP
  2
_OPEN
 10
12742.159835421189
 20
10543.95310698108
 30
0.0
 41
87.5
 42
87.5
 43
87.5
 50
270.0
  0
INSERT
  5
8E8A
  8
SP
  2
_OPEN
 10
12742.159835421189
 20
11588.95310698108
 30
0.0
 41
87.5
 42
87.5
 43
87.5
 50
90.0
  0
TEXT
  5
8E8B
  8
FUTO
 10
12707.159835421189
 20
10870.99793370013
 30
0.0
 40
105.0
  1
1045
 50
90.0
 51
15.0
  0
POINT
  5
8E8C
  8
DEFPOINTS
 62
     0
 10
12559.32279114329
 20
10543.95310698108
 30
0.0
  0
POINT
  5
8E8D
  8
DEFPOINTS
 62
     0
 10
12488.96466917344
 20
11588.95310698108
 30
0.0
  0
POINT
  5
8E8E
  8
DEFPOINTS
 62
     0
 10
12742.159835421189
 20
11588.95310698108
 30
0.0
  0
ENDBLK
  5
805F
  8
0
  0
BLOCK
  8
0
  2
*D15
 70
     1
 10
0.0
 20
0.0
 30
0.0
  3
*D15
  1

  0
LINE
  5
8EAA
  8
SP
 10
10725.96466917344
 20
15110.26271826345
 30
0.0
 11
10725.96466917344
 21
15385.63547390229
 31
0.0
  0
LINE
  5
8EAB
  8
SP
 10
12488.96466917344
 20
14999.48480644658
 30
0.0
 11
12488.96466917344
 21
15385.63547390229
 31
0.0
  0
LINE
  5
8EAC
  8
SP
 10
10813.46466917344
 20
15350.63547390229
 30
0.0
 11
12401.46466917344
 21
15350.63547390229
 31
0.0
  0
INSERT
  5
8EAD
  8
SP
  2
_OPEN
 10
10725.96466917344
 20
15350.63547390229
 30
0.0
 41
87.5
 42
87.5
 43
87.5
 50
180.0
  0
INSERT
  5
8EAE
  8
SP
  2
_OPEN
 10
12488.96466917344
 20
15350.63547390229
 30
0.0
 41
87.5
 42
87.5
 43
87.5
  0
TEXT
  5
8EAF
  8
FUTO
 10
11409.509495892489
 20
15385.63547390229
 30
0.0
 40
105.0
  1
1763
 51
15.0
  0
POINT
  5
8EB0
  8
DEFPOINTS
 62
     0
 10
10725.96466917344
 20
15075.26271826345
 30
0.0
  0
POINT
  5
8EB1
  8
DEFPOINTS
 62
     0
 10
12488.96466917344
 20
14964.48480644658
 30
0.0
  0
POINT
  5
8EB2
  8
DEFPOINTS
 62
     0
 10
12488.96466917344
 20
15350.63547390229
 30
0.0
  0
ENDBLK
  5
8087
  8
0
  0
BLOCK
  8
0
  2
*D16
 70
     1
 10
0.0
 20
0.0
 30
0.0
  3
*D16
  1

  0
LINE
  5
8E8F
  8
SP
 10
10725.96466917344
 20
15145.26271826345
 30
0.0
 11
10725.96466917344
 21
15385.63547390229
 31
0.0
  0
LINE
  5
8E90
  8
SP
 10
9536.9646691734488
 20
14984.48480644658
 30
0.0
 11
9536.9646691734488
 21
15385.63547390229
 31
0.0
  0
LINE
  5
8E91
  8
SP
 10
10638.46466917344
 20
15350.63547390229
 30
0.0
 11
9624.4646691734488
 21
15350.63547390229
 31
0.0
  0
INSERT
  5
8E92
  8
SP
  2
_OPEN
 10
10725.96466917344
 20
15350.63547390229
 30
0.0
 41
87.5
 42
87.5
 43
87.5
  0
INSERT
  5
8E93
  8
SP
  2
_OPEN
 10
9536.9646691734488
 20
15350.63547390229
 30
0.0
 41
87.5
 42
87.5
 43
87.5
 50
180.0
  0
TEXT
  5
8E94
  8
FUTO
 10
9948.0191148357244
 20
15385.63547390229
 30
0.0
 40
105.0
  1
1189
 51
15.0
  0
POINT
  5
8E95
  8
DEFPOINTS
 62
     0
 10
10725.96466917344
 20
15110.26271826345
 30
0.0
  0
POINT
  5
8E96
  8
DEFPOINTS
 62
     0
 10
9536.9646691734488
 20
14949.48480644658
 30
0.0
  0
POINT
  5
8E97
  8
DEFPOINTS
 62
     0
 10
9536.9646691734488
 20
15350.63547390229
 30
0.0
  0
ENDBLK
  5
8094
  8
0
  0
BLOCK
  8
0
  2
*D17
 70
     1
 10
0.0
 20
0.0
 30
0.0
  3
*D17
  1

  0
LINE
  5
8EA1
  8
SP
 10
12523.96466917344
 20
14305.48480644658
 30
0.0
 11
12866.58442948704
 21
14305.48480644658
 31
0.0
  0
LINE
  5
8EA2
  8
SP
 10
11625.96466917344
 20
15030.48480644658
 30
0.0
 11
12866.58442948704
 21
15030.48480644658
 31
0.0
  0
LINE
  5
8EA3
  8
SP
 10
12831.58442948704
 20
14392.98480644658
 30
0.0
 11
12831.58442948704
 21
14942.98480644658
 31
0.0
  0
INSERT
  5
8EA4
  8
SP
  2
_OPEN
 10
12831.58442948704
 20
14305.48480644658
 30
0.0
 41
87.5
 42
87.5
 43
87.5
 50
270.0
  0
INSERT
  5
8EA5
  8
SP
  2
_OPEN
 10
12831.58442948704
 20
15030.48480644658
 30
0.0
 41
87.5
 42
87.5
 43
87.5
 50
90.0
  0
TEXT
  5
8EA6
  8
FUTO
 10
12796.58442948704
 20
14513.917473843951
 30
0.0
 40
105.0
  1
725
 50
90.0
 51
15.0
  0
POINT
  5
8EA7
  8
DEFPOINTS
 62
     0
 10
12488.96466917344
 20
14305.48480644658
 30
0.0
  0
POINT
  5
8EA8
  8
DEFPOINTS
 62
     0
 10
11590.96466917344
 20
15030.48480644658
 30
0.0
  0
POINT
  5
8EA9
  8
DEFPOINTS
 62
     0
 10
12831.58442948704
 20
15030.48480644658
 30
0.0
  0
ENDBLK
  5
80A1
  8
0
  0
BLOCK
  8
0
  2
*D18
 70
     1
 10
0.0
 20
0.0
 30
0.0
  3
*D18
  1

  0
LINE
  5
8E98
  8
SP
 10
12523.96466917344
 20
14305.48480644658
 30
0.0
 11
12866.58442948704
 21
14305.48480644658
 31
0.0
  0
LINE
  5
8E99
  8
SP
 10
12214.46466917344
 20
12425.48480644658
 30
0.0
 11
12866.58442948704
 21
12425.48480644658
 31
0.0
  0
LINE
  5
8E9A
  8
SP
 10
12831.58442948704
 20
14217.98480644658
 30
0.0
 11
12831.58442948704
 21
12512.98480644658
 31
0.0
  0
INSERT
  5
8E9B
  8
SP
  2
_OPEN
 10
12831.58442948704
 20
14305.48480644658
 30
0.0
 41
87.5
 42
87.5
 43
87.5
 50
90.0
  0
INSERT
  5
8E9C
  8
SP
  2
_OPEN
 10
12831.58442948704
 20
12425.48480644658
 30
0.0
 41
87.5
 42
87.5
 43
87.5
 50
270.0
  0
TEXT
  5
8E9D
  8
FUTO
 10
12796.58442948704
 20
13170.209125089939
 30
0.0
 40
105.0
  1
1880
 50
90.0
 51
15.0
  0
POINT
  5
8E9E
  8
DEFPOINTS
 62
     0
 10
12488.96466917344
 20
14305.48480644658
 30
0.0
  0
POINT
  5
8E9F
  8
DEFPOINTS
 62
     0
 10
12179.46466917344
 20
12425.48480644658
 30
0.0
  0
POINT
  5
8EA0
  8
DEFPOINTS
 62
     0
 10
12831.58442948704
 20
12425.48480644658
 30
0.0
  0
ENDBLK
  5
80AE
  8
0
  0
BLOCK
  8
0
  2
*U19
 70
     1
 10
0.0
 20
0.0
 30
0.0
  3
*U19
  1

  0
SOLID
  5
8EFF
  8
SP
  6
CONTINUOUS
 10
12725.35294744179
 20
9028.9531069810873
 30
0.0
 11
12742.159835421189
 21
9028.9531069810873
 31
0.0
 12
12730.27557096031
 22
9040.8373714419631
 32
0.0
 13
12730.27557096031
 23
9040.8373714419631
 33
0.0
210
0.0
220
0.0
230
1.0
  0
SOLID
  5
8F00
  8
SP
  6
CONTINUOUS
 10
12742.159835421189
 20
9045.7599949604883
 30
0.0
 11
12730.27557096031
 21
9040.8373714419631
 31
0.0
 12
12742.159835421189
 22
9028.9531069810873
 32
0.0
 13
12742.159835421189
 23
9028.9531069810873
 33
0.0
210
0.0
220
0.0
230
1.0
  0
SOLID
  5
8F01
  8
SP
  6
CONTINUOUS
 10
12742.159835421189
 20
9045.7599949604883
 30
0.0
 11
12742.159835421189
 21
9028.9531069810873
 31
0.0
 12
12754.04409988207
 22
9040.8373714419631
 32
0.0
 13
12754.04409988207
 23
9040.8373714419631
 33
0.0
210
0.0
220
0.0
230
1.0
  0
SOLID
  5
8F02
  8
SP
  6
CONTINUOUS
 10
12758.96672340059
 20
9028.9531069810873
 30
0.0
 11
12754.04409988207
 21
9040.8373714419631
 31
0.0
 12
12742.159835421189
 22
9028.9531069810873
 32
0.0
 13
12742.159835421189
 23
9028.9531069810873
 33
0.0
210
0.0
220
0.0
230
1.0
  0
SOLID
  5
8F03
  8
SP
  6
CONTINUOUS
 10
12742.159835421189
 20
9028.9531069810873
 30
0.0
 11
12742.159835421189
 21
9012.1462190016864
 31
0.0
 12
12758.96672340059
 22
9028.9531069810873
 32
0.0
 13
12758.96672340059
 23
9028.9531069810873
 33
0.0
210
0.0
220
0.0
230
1.0
  0
SOLID
  5
8F04
  8
SP
  6
CONTINUOUS
 10
12754.04409988207
 20
9017.0688425202115
 30
0.0
 11
12758.96672340059
 21
9028.9531069810873
 31
0.0
 12
12742.159835421189
 22
9012.1462190016864
 32
0.0
 13
12742.159835421189
 23
9012.1462190016864
 33
0.0
210
0.0
220
0.0
230
1.0
  0
SOLID
  5
8F05
  8
SP
  6
CONTINUOUS
 10
12742.159835421189
 20
9028.9531069810873
 30
0.0
 11
12725.35294744179
 21
9028.9531069810873
 31
0.0
 12
12742.159835421189
 22
9012.1462190016864
 32
0.0
 13
12742.159835421189
 23
9012.1462190016864
 33
0.0
210
0.0
220
0.0
230
1.0
  0
SOLID
  5
8F06
  8
SP
  6
CONTINUOUS
 10
12730.27557096031
 20
9017.0688425202097
 30
0.0
 11
12742.159835421189
 21
9012.1462190016864
 31
0.0
 12
12725.35294744179
 22
9028.9531069810873
 32
0.0
 13
12725.35294744179
 23
9028.9531069810873
 33
0.0
210
0.0
220
0.0
230
1.0
  0
ENDBLK
  5
8F08
  8
0
  0
ENDSEC
  0
SECTION
  2
ENTITIES
  0
LINE
  5
522D
  8
CT
 10
9416.3018329060742
 20
10543.95310698108
 30
0.0
 11
12559.32279114329
 21
10543.95310698108
 31
0.0
  0
LINE
  5
522E
  8
CT
 10
10725.96466917344
 20
11696.584967494449
 30
0.0
 11
10725.96466917344
 21
8824.4854230216133
 31
0.0
  0
ARC
  5
5232
  8
KL
 10
10841.96466917344
 20
10659.95310698108
 30
0.0
 40
1487.0
 50
270.0
 51
355.52584402394382
  0
ARC
  5
5234
  8
KL
 10
10841.96466917344
 20
10427.95310698108
 30
0.0
 40
1255.0
 50
180.0
 51
270.0
  0
ARC
  5
5238
  8
KL
 10
10628.96466917344
 20
10446.95310698108
 30
0.0
 40
1042.0
 50
90.0
 51
180.0
  0
ARC
  5
5239
  8
KL
 10
10628.96466917344
 20
10640.95310698108
 30
0.0
 40
848.0
 50
56.2952570492711
 51
90.0
  0
LINE
  5
523A
  8
FUTO
 10
10767.96466917344
 20
11588.95310698108
 30
0.0
 11
12423.96466917344
 21
11588.95310698108
 31
0.0
  0
LINE
  5
523C
  8
KL
 10
10770.96466917344
 20
11588.95310698108
 30
0.0
 11
10770.96466917344
 21
11476.97942235638
 31
0.0
  0
LINE
  5
523D
  8
KL
 10
12324.433218586881
 20
10543.95310698108
 30
0.0
 11
12420.96466917344
 21
11588.95310698108
 31
0.0
  0
LINE
  5
523F
  8
FUTO
 10
10752.96466917344
 20
11523.95310698108
 30
0.0
 11
12433.03695502825
 21
11523.95310698108
 31
0.0
  0
LINE
  5
5251
  8
FUTO
 10
10767.96466917344
 20
11588.95310698108
 30
0.0
 11
10702.96466917344
 21
11588.95310698108
 31
0.0
  0
LINE
  5
5252
  8
FUTO
 10
10767.96466917344
 20
11588.95310698108
 30
0.0
 11
10767.96466917344
 21
11523.95310698108
 31
0.0
  0
LINE
  5
5253
  8
FUTO
 10
10702.96466917344
 20
11588.95310698108
 30
0.0
 11
10702.96466917344
 21
11586.95310698108
 31
0.0
  0
LINE
  5
5254
  8
FUTO
 10
10767.96466917344
 20
11523.95310698108
 30
0.0
 11
10765.96466917344
 21
11523.95310698108
 31
0.0
  0
LINE
  5
5255
  8
FUTO
 10
10761.96466917344
 20
11574.45310698108
 30
0.0
 11
10761.96466917344
 21
11527.95310698108
 31
0.0
  0
LINE
  5
5256
  8
FUTO
 10
10753.46466917344
 20
11582.95310698108
 30
0.0
 11
10706.96466917344
 21
11582.95310698108
 31
0.0
  0
ARC
  5
5257
  8
FUTO
 10
10706.96466917344
 20
11586.95310698108
 30
0.0
 40
4.0
 50
180.0
 51
270.0
  0
ARC
  5
5258
  8
FUTO
 10
10765.96466917344
 20
11527.95310698108
 30
0.0
 40
4.0
 50
180.0
 51
269.9999999999992
  0
ARC
  5
5259
  8
FUTO
 10
10753.46466917344
 20
11574.45310698108
 30
0.0
 40
8.5
 50
0.0
 51
90.0
  0
LINE
  5
525A
  8
FUTO
 10
12423.96466917344
 20
11588.95310698108
 30
0.0
 11
12423.96466917344
 21
11523.95310698108
 31
0.0
  0
LINE
  5
525B
  8
FUTO
 10
12423.96466917344
 20
11588.95310698108
 30
0.0
 11
12488.96466917344
 21
11588.95310698108
 31
0.0
  0
LINE
  5
525C
  8
FUTO
 10
12423.96466917344
 20
11523.95310698108
 30
0.0
 11
12425.96466917344
 21
11523.95310698108
 31
0.0
  0
LINE
  5
525D
  8
FUTO
 10
12488.96466917344
 20
11588.95310698108
 30
0.0
 11
12488.96466917344
 21
11586.95310698108
 31
0.0
  0
LINE
  5
525E
  8
FUTO
 10
12438.46466917344
 20
11582.95310698108
 30
0.0
 11
12484.96466917344
 21
11582.95310698108
 31
0.0
  0
LINE
  5
525F
  8
FUTO
 10
12429.96466917344
 20
11574.45310698108
 30
0.0
 11
12429.96466917344
 21
11527.95310698108
 31
0.0
  0
ARC
  5
5260
  8
FUTO
 10
12425.96466917344
 20
11527.95310698108
 30
0.0
 40
4.0
 50
270.0
 51
0.0
  0
ARC
  5
5261
  8
FUTO
 10
12484.96466917344
 20
11586.95310698108
 30
0.0
 40
4.0
 50
270.0
 51
359.9999999999992
  0
ARC
  5
5262
  8
FUTO
 10
12438.46466917344
 20
11574.45310698108
 30
0.0
 40
8.5
 50
90.0
 51
180.0
  0
LINE
  5
5263
  8
FUTO
 10
10767.96466917344
 20
11582.95310698108
 30
0.0
 11
12423.96466917344
 21
11582.95310698108
 31
0.0
  0
ARC
  5
5264
  8
FUTO
 10
10628.96466917344
 20
10640.95310698108
 30
0.0
 40
866.0
 50
81.76768968499718
 51
90.0
  0
LINE
  5
5265
  8
FUTO
 10
10752.96466917344
 20
11523.95310698108
 30
0.0
 11
10752.96466917344
 21
11498.0295329782
 31
0.0
  0
ARC
  5
5266
  8
FUTO
 10
10628.96466917344
 20
10446.95310698108
 30
0.0
 40
1060.0
 50
90.0
 51
174.26082952273319
  0
LINE
  5
5267
  8
KL
 10
9586.964669173447
 20
10427.95310698108
 30
0.0
 11
9586.964669173447
 21
10446.95310698108
 31
0.0
  0
LINE
  5
5268
  8
FUTO
 10
9568.9646691734451
 20
10427.95310698108
 30
0.0
 11
9568.9646691734451
 21
10446.95310698108
 31
0.0
  0
ARC
  5
5269
  8
FUTO
 10
10841.96466917344
 20
10427.95310698108
 30
0.0
 40
1273.0
 50
180.0
 51
235.32328429597999
  0
ARC
  5
526A
  8
FUTO
 10
10841.96466917344
 20
10659.95310698108
 30
0.0
 40
1505.0
 50
294.8186092054417
 51
306.34329300028338
  0
LINE
  5
526B
  8
FUTO
 10
12343.34122438753
 20
10552.95310698108
 30
0.0
 11
12433.03695502825
 21
11523.95310698108
 31
0.0
  0
CIRCLE
  5
526C
  8
KL
 10
11108.96466917344
 20
11360.55369063843
 30
0.0
 40
17.0
  0
LINE
  5
526D
  8
FUTO
 10
12275.96466917344
 20
9143.9531069810855
 30
0.0
 11
9775.964669173447
 21
9143.9531069810855
 31
0.0
  0
LINE
  5
526E
  8
FUTO
 10
12275.96466917344
 20
9293.9531069810873
 30
0.0
 11
9775.964669173447
 21
9293.9531069810873
 31
0.0
  0
LINE
  5
526F
  8
FUTO
 10
9775.964669173447
 20
9293.9531069810873
 30
0.0
 11
9775.964669173447
 21
9143.9531069810855
 31
0.0
  0
LINE
  5
5270
  8
FUTO
 10
12275.96466917344
 20
9293.9531069810873
 30
0.0
 11
12275.96466917344
 21
9143.9531069810855
 31
0.0
  0
LINE
  5
5273
  8
FUTO
 10
9785.964669173447
 20
11073.95310698108
 30
0.0
 11
9785.964669173447
 21
10552.95310698108
 31
0.0
  0
LINE
  5
5274
  8
FUTO
 10
11665.96466917344
 20
11523.95310698108
 30
0.0
 11
11665.96466917344
 21
10552.95310698108
 31
0.0
  0
LINE
  5
5275
  8
FUTO
 10
11656.96466917344
 20
11523.95310698108
 30
0.0
 11
11656.96466917344
 21
10552.95310698108
 31
0.0
  0
LINE
  5
5276
  8
FUTO
 10
9794.964669173447
 20
11073.95310698108
 30
0.0
 11
9794.964669173447
 21
10552.95310698108
 31
0.0
  0
LINE
  5
5277
  8
FUTO
 10
9785.964669173447
 20
11073.95310698108
 30
0.0
 11
9794.964669173447
 21
11073.95310698108
 31
0.0
  0
LINE
  5
52EB
  8
CT
 10
11739.508311888299
 20
9553.9531069810873
 30
0.0
 11
12368.30138963414
 21
9553.9531069810873
 31
0.0
  0
LINE
  5
52F4
  8
CT
 10
11975.96466917344
 20
9143.9531069810855
 30
0.0
 11
11975.96466917344
 21
9784.0511211776884
 31
0.0
  0
LINE
  5
5391
  8
CT
 10
10580.96466917344
 20
10423.95310698108
 30
0.0
 11
10580.96466917344
 21
10497.95310698108
 31
0.0
  0
LINE
  5
5393
  8
CT
 10
10870.96466917344
 20
10423.95310698108
 30
0.0
 11
10870.96466917344
 21
10497.95310698108
 31
0.0
  0
ARC
  5
53C8
  8
FUTO
 10
10902.96466917344
 20
10474.95310698108
 30
0.0
 40
3.0
 50
0.0
 51
90.0
  0
LINE
  5
53C9
  8
FUTO
 10
10905.96466917344
 20
10474.95310698108
 30
0.0
 11
10905.96466917344
 21
10443.95310698108
 31
0.0
  0
ARC
  5
53CA
  8
FUTO
 10
10773.46466917344
 20
10626.225520340609
 30
0.0
 40
15.00000000000038
 50
325.47193698619282
 51
154.52806301381281
  0
LINE
  5
53CB
  8
FUTO
 10
10741.646331871239
 20
10637.649880965209
 30
0.0
 11
10741.646331871239
 21
10643.95310698108
 31
0.0
  0
LINE
  5
53CC
  8
FUTO
 10
10710.28300647564
 20
10637.649880965209
 30
0.0
 11
10710.28300647564
 21
10643.95310698108
 31
0.0
  0
LINE
  5
53CD
  8
FUTO
 10
10710.28300647564
 20
10643.95310698108
 30
0.0
 11
10741.646331871239
 21
10643.95310698108
 31
0.0
  0
ARC
  5
53CE
  8
FUTO
 10
10725.96466917344
 20
10543.95310698108
 30
0.0
 40
95.000000000000057
 50
9.0561260276173101
 51
50.943873972382391
  0
LINE
  5
53CF
  8
FUTO
 10
10820.96466917344
 20
10528.95310698108
 30
0.0
 11
10820.96466917344
 21
10493.95310698108
 31
0.0
  0
LINE
  5
53D0
  8
FUTO
 10
10815.96466917344
 20
10443.95310698108
 30
0.0
 11
10815.96466917344
 21
10446.95310698108
 31
0.0
  0
ARC
  5
53D1
  8
FUTO
 10
10836.96466917344
 20
10493.95310698108
 30
0.0
 40
16.0
 50
180.0
 51
270.0
  0
ARC
  5
53D2
  8
FUTO
 10
10773.46466917344
 20
10461.68069362156
 30
0.0
 40
14.999999999999909
 50
205.47193698618469
 51
34.528063013809451
  0
ARC
  5
53D3
  8
FUTO
 10
10725.96466917344
 20
10543.95310698108
 30
0.0
 40
95.000000000000966
 50
309.05612602761738
 51
350.94387397238222
  0
ARC
  5
53D4
  8
FUTO
 10
10820.96466917344
 20
10543.95310698108
 30
0.0
 40
15.00000000000011
 50
265.47193698619139
 51
94.528063013808264
  0
LINE
  5
53D5
  8
FUTO
 10
10836.96466917344
 20
10477.95310698108
 30
0.0
 11
10902.96466917344
 21
10477.95310698108
 31
0.0
  0
ARC
  5
53D7
  8
FUTO
 10
10678.46466917344
 20
10626.225520340609
 30
0.0
 40
15.00000000000006
 50
25.471936986186069
 51
214.52806301380949
  0
ARC
  5
53D8
  8
FUTO
 10
10725.96466917344
 20
10543.95310698108
 30
0.0
 40
94.999999999999375
 50
129.0561260276167
 51
170.94387397238259
  0
LINE
  5
53D9
  8
FUTO
 10
10630.96466917344
 20
10528.95310698108
 30
0.0
 11
10630.96466917344
 21
10493.95310698108
 31
0.0
  0
ARC
  5
53DA
  8
FUTO
 10
10678.46466917344
 20
10461.68069362156
 30
0.0
 40
14.99999999999978
 50
145.47193698619111
 51
334.52806301381349
  0
LINE
  5
53DB
  8
FUTO
 10
10635.96466917344
 20
10443.95310698108
 30
0.0
 11
10635.96466917344
 21
10446.95310698108
 31
0.0
  0
ARC
  5
53DC
  8
FUTO
 10
10725.96466917344
 20
10543.95310698108
 30
0.0
 40
95.000000000000057
 50
189.05612602761681
 51
230.94387397238239
  0
ARC
  5
53DD
  8
FUTO
 10
10548.96466917344
 20
10474.95310698108
 30
0.0
 40
3.0
 50
90.0
 51
180.0
  0
LINE
  5
53DE
  8
FUTO
 10
10545.96466917344
 20
10474.95310698108
 30
0.0
 11
10545.96466917344
 21
10443.95310698108
 31
0.0
  0
LINE
  5
53DF
  8
FUTO
 10
10614.96466917344
 20
10477.95310698108
 30
0.0
 11
10548.96466917344
 21
10477.95310698108
 31
0.0
  0
ARC
  5
53E0
  8
FUTO
 10
10614.96466917344
 20
10493.95310698108
 30
0.0
 40
16.0
 50
270.0
 51
0.0
  0
LINE
  5
53E1
  8
FUTO
 10
10530.96466917344
 20
10443.95310698108
 30
0.0
 11
10920.96466917344
 21
10443.95310698108
 31
0.0
  0
ARC
  5
53E2
  8
FUTO
 10
10630.96466917344
 20
10543.95310698108
 30
0.0
 40
14.999999999999879
 50
85.471936986191025
 51
274.52806301380912
  0
CIRCLE
  5
53E3
  8
FUTO
 10
10725.96466917344
 20
10543.95310698108
 30
0.0
 40
36.5
  0
LINE
  5
53E4
  8
FUTO
 10
10635.96466917344
 20
10446.95310698108
 30
0.0
 11
10815.96466917344
 21
10446.95310698108
 31
0.0
  0
ARC
  5
53E5
  8
FUTO
 10
10725.96466917344
 20
10543.95310698108
 30
0.0
 40
94.999999999998266
 50
249.05612602761619
 51
290.94387397238302
  0
ARC
  5
53E6
  8
FUTO
 10
10725.96466917344
 20
10543.95310698108
 30
0.0
 40
94.999999999998053
 50
69.056126027616386
 51
110.94387397238231
  0
LINE
  5
53E7
  8
FUTO
 10
14301.973219255469
 20
10623.95310698108
 30
0.0
 11
14306.973219255469
 21
10623.95310698108
 31
0.0
  0
ARC
  5
53E8
  8
FUTO
 10
14295.973219255469
 20
10632.95310698108
 30
0.0
 40
6.0
 50
0.0
 51
90.0
  0
LINE
  5
53E9
  8
FUTO
 10
14286.973219255469
 20
10638.95310698108
 30
0.0
 11
14295.973219255469
 21
10638.95310698108
 31
0.0
  0
LINE
  5
53EA
  8
FUTO
 10
14306.973219255469
 20
10463.95310698108
 30
0.0
 11
14301.973219255469
 21
10463.95310698108
 31
0.0
  0
ARC
  5
53EB
  8
FUTO
 10
14295.973219255469
 20
10454.95310698108
 30
0.0
 40
6.0
 50
270.0
 51
0.0
  0
ARC
  5
53EC
  8
FUTO
 10
14280.973219255469
 20
10471.95310698108
 30
0.0
 40
6.0
 50
0.0
 51
90.0
  0
LINE
  5
53ED
  8
FUTO
 10
14295.973219255469
 20
10448.95310698108
 30
0.0
 11
14286.973219255469
 21
10448.95310698108
 31
0.0
  0
LINE
  5
53EE
  8
FUTO
 10
14306.973219255469
 20
10623.95310698108
 30
0.0
 11
14306.973219255469
 21
10463.95310698108
 31
0.0
  0
LINE
  5
53EF
  8
FUTO
 10
14301.973219255469
 20
10632.95310698108
 30
0.0
 11
14301.973219255469
 21
10454.95310698108
 31
0.0
  0
LINE
  5
53F0
  8
FUTO
 10
14286.973219255469
 20
10443.95310698108
 30
0.0
 11
14286.973219255469
 21
10643.95310698108
 31
0.0
  0
LINE
  5
53F1
  8
FUTO
 10
14186.973219255469
 20
10638.95310698108
 30
0.0
 11
14177.973219255469
 21
10638.95310698108
 31
0.0
  0
ARC
  5
53F2
  8
FUTO
 10
14177.973219255469
 20
10632.95310698108
 30
0.0
 40
6.0
 50
90.0
 51
180.0
  0
LINE
  5
53F3
  8
FUTO
 10
14171.973219255469
 20
10623.95310698108
 30
0.0
 11
14166.973219255469
 21
10623.95310698108
 31
0.0
  0
ARC
  5
53F4
  8
FUTO
 10
14192.973219255469
 20
10471.95310698108
 30
0.0
 40
6.0
 50
90.0
 51
180.0
  0
ARC
  5
53F5
  8
FUTO
 10
14177.973219255469
 20
10454.95310698108
 30
0.0
 40
6.0
 50
180.0
 51
270.0
  0
LINE
  5
53F6
  8
FUTO
 10
14177.973219255469
 20
10448.95310698108
 30
0.0
 11
14186.973219255469
 21
10448.95310698108
 31
0.0
  0
LINE
  5
53F7
  8
FUTO
 10
14166.973219255469
 20
10463.95310698108
 30
0.0
 11
14171.973219255469
 21
10463.95310698108
 31
0.0
  0
LINE
  5
53F8
  8
FUTO
 10
14171.973219255469
 20
10632.95310698108
 30
0.0
 11
14171.973219255469
 21
10454.95310698108
 31
0.0
  0
LINE
  5
53F9
  8
FUTO
 10
14166.973219255469
 20
10623.95310698108
 30
0.0
 11
14166.973219255469
 21
10463.95310698108
 31
0.0
  0
LINE
  5
53FA
  8
FUTO
 10
14186.973219255469
 20
10643.95310698108
 30
0.0
 11
14186.973219255469
 21
10443.95310698108
 31
0.0
  0
LINE
  5
53FB
  8
FUTO
 10
14286.973219255469
 20
10643.95310698108
 30
0.0
 11
14186.973219255469
 21
10643.95310698108
 31
0.0
  0
LINE
  5
53FC
  8
FUTO
 10
14181.973219255469
 20
10443.95310698108
 30
0.0
 11
14291.973219255469
 21
10443.95310698108
 31
0.0
  0
LINE
  5
53FD
  8
FUTO
 10
14280.973219255469
 20
10477.95310698108
 30
0.0
 11
14192.973219255469
 21
10477.95310698108
 31
0.0
  0
LINE
  5
53FE
  8
KL
 10
11111.616542064159
 20
10435.953106981089
 30
0.0
 11
10340.31279628272
 21
10435.95310698108
 31
0.0
  0
LINE
  5
53FF
  8
FUTO
 10
10530.96466917344
 20
10443.95310698108
 30
0.0
 11
10530.96466917344
 21
10435.95310698108
 31
0.0
  0
LINE
  5
5400
  8
FUTO
 10
10920.96466917344
 20
10443.95310698108
 30
0.0
 11
10920.96466917344
 21
10435.95310698108
 31
0.0
  0
LINE
  5
5405
  8
FUTO
 10
10100.96466917344
 20
9301.7806540400288
 30
0.0
 11
10100.96466917344
 21
9293.9531069810873
 31
0.0
  0
LINE
  5
5408
  8
FUTO
 10
10340.31279628272
 20
10435.95310698108
 30
0.0
 11
10100.96466917344
 21
9301.7806540400288
 31
0.0
  0
LINE
  5
540B
  8
KL
 10
11111.616542064159
 20
10435.953106981089
 30
0.0
 11
11255.56821865727
 21
9753.8252452826546
 31
0.0
  0
LINE
  5
540E
  8
FUTO
 10
11350.96466917344
 20
9301.7806540400288
 30
0.0
 11
11350.96466917344
 21
9293.9531069810873
 31
0.0
  0
LINE
  5
5411
  8
FUTO
 10
10100.96466917344
 20
9293.9531069810873
 30
0.0
 11
10100.96466917344
 21
9143.9531069810855
 31
0.0
  0
LINE
  5
5412
  8
KL
 10
10525.96466917344
 20
10552.95310698108
 30
0.0
 11
10525.96466917344
 21
10534.95310698108
 31
0.0
  0
LINE
  5
5413
  8
KL
 10
10925.96466917344
 20
10552.95310698108
 30
0.0
 11
10925.96466917344
 21
10534.95310698108
 31
0.0
  0
LINE
  5
5414
  8
FUTO
 10
9541.4893682626243
 20
10552.95310698108
 30
0.0
 11
10346.07126307115
 21
10552.95310698108
 31
0.0
  0
LINE
  5
5415
  8
FUTO
 10
9541.4893682626243
 20
10534.95310698108
 30
0.0
 11
10346.07126307115
 21
10534.95310698108
 31
0.0
  0
LINE
  5
5416
  8
KL
 10
10925.96466917344
 20
10534.95310698108
 30
0.0
 11
11280.91106669241
 21
10534.95310698108
 31
0.0
  0
LINE
  5
5417
  8
KL
 10
10925.96466917344
 20
10552.95310698108
 30
0.0
 11
11262.36118309986
 21
10552.95310698108
 31
0.0
  0
LINE
  5
5418
  8
FUTO
 10
9541.4893682626243
 20
10534.95310698108
 30
0.0
 11
9541.4893682626243
 21
10552.95310698108
 31
0.0
  0
LINE
  5
5419
  8
CT
 10
9566.4893682626243
 20
10513.95310698108
 30
0.0
 11
9566.4893682626243
 21
10573.95310698108
 31
0.0
  0
ARC
  5
541E
  8
FUTO
 10
10628.96466917344
 20
10446.95310698108
 30
0.0
 40
1060.0
 50
175.2378883439155
 51
180.0
  0
LINE
  5
541F
  8
FUTO
 10
9785.964669173447
 20
10534.95310698108
 30
0.0
 11
9785.964669173447
 21
9293.9531069810873
 31
0.0
  0
LINE
  5
5420
  8
FUTO
 10
9794.964669173447
 20
10534.95310698108
 30
0.0
 11
9794.964669173447
 21
9293.9531069810873
 31
0.0
  0
LINE
  5
5421
  8
FUTO
 10
12374.43321858689
 20
10552.95310698108
 30
0.0
 11
12374.43321858689
 21
10534.95310698108
 31
0.0
  0
LINE
  5
5422
  8
FUTO
 10
12349.433218586881
 20
10573.95310698108
 30
0.0
 11
12349.433218586881
 21
10513.95310698108
 31
0.0
  0
LINE
  5
5425
  8
FUTO
 10
11665.96466917344
 20
10534.95310698108
 30
0.0
 11
11665.96466917344
 21
10161.31384342037
 31
0.0
  0
LINE
  5
5426
  8
FUTO
 10
11656.96466917344
 20
10534.95310698108
 30
0.0
 11
11656.96466917344
 21
10170.04705186299
 31
0.0
  0
ARC
  5
543E
  8
FUTO
 10
10841.96466917344
 20
10659.95310698108
 30
0.0
 40
1505.0
 50
324.11245044793139
 51
355.2357259540903
  0
CIRCLE
  5
544F
  8
SL
 10
10725.96466917344
 20
10543.95310698108
 30
0.0
 40
315.0
  0
ARC
  5
5451
  8
FUTO
 10
10725.96466917344
 20
10543.95310698108
 30
0.0
 40
380.0
 50
45.861935230285411
 51
237.37961693434451
  0
CIRCLE
  5
5453
  8
SL
 10
11975.96466917344
 20
9553.9531069810873
 30
0.0
 40
132.49999999999989
  0
ARC
  5
5454
  8
FUTO
 10
11975.96466917344
 20
9553.9531069810873
 30
0.0
 40
220.0
 50
237.37961693434451
 51
45.861935230285411
  0
LINE
  5
5455
  8
SL
 10
10948.513704791019
 20
10766.8811822558
 30
0.0
 11
12069.57656510782
 21
9647.7244402315628
 31
0.0
  0
LINE
  5
5456
  8
SL
 10
10559.93995904946
 20
10276.25776591545
 30
0.0
 11
11906.128878407
 21
9441.3510984376044
 31
0.0
  0
LINE
  5
5457
  8
FUTO
 10
10521.117896386801
 20
10223.8940504323
 30
0.0
 11
11857.36916913907
 21
9368.6557584528418
 31
0.0
  0
LINE
  5
5458
  8
FUTO
 10
10990.59276816161
 20
10816.665353178259
 30
0.0
 11
12129.17041069291
 21
9711.8391442531392
 31
0.0
  0
LINE
  5
5459
  8
CT
 10
13837.973219255469
 20
10543.95310698108
 30
0.0
 11
16487.751131072338
 21
10543.95310698108
 31
0.0
  0
LINE
  5
545A
  8
CT
 10
15717.973219255469
 20
11912.184488658901
 30
0.0
 11
15717.973219255469
 21
8832.8706648774587
 31
0.0
  0
LINE
  5
545B
  8
FUTO
 10
16311.973219255469
 20
9293.9531069810873
 30
0.0
 11
14161.973219255469
 21
9293.9531069810873
 31
0.0
  0
LINE
  5
545C
  8
FUTO
 10
16311.973219255469
 20
9143.9531069810855
 30
0.0
 11
14161.973219255469
 21
9143.9531069810855
 31
0.0
  0
LINE
  5
5505
  8
FUTO
 10
16311.973219255469
 20
9143.9531069810855
 30
0.0
 11
16386.973219255469
 21
9143.9531069810855
 31
0.0
  0
LINE
  5
5506
  8
FUTO
 10
16322.124596284481
 20
9156.6301396105519
 30
0.0
 11
16383.32184222646
 21
9151.276074351621
 31
0.0
  0
LINE
  5
5507
  8
FUTO
 10
16311.973219255469
 20
9293.9531069810873
 30
0.0
 11
16386.973219255469
 21
9293.9531069810873
 31
0.0
  0
LINE
  5
5508
  8
FUTO
 10
16322.124596284481
 20
9281.276074351621
 30
0.0
 11
16383.32184222646
 21
9286.6301396105537
 31
0.0
  0
LINE
  5
5509
  8
FUTO
 10
16318.473219255469
 20
9277.2912955592546
 30
0.0
 11
16318.473219255469
 21
9160.61491840292
 31
0.0
  0
ARC
  5
550A
  8
FUTO
 10
16322.473219255469
 20
9160.61491840292
 30
0.0
 40
4.0
 50
180.0
 51
264.99999999999989
  0
LINE
  5
550B
  8
FUTO
 10
16311.973219255469
 20
9293.9531069810873
 30
0.0
 11
16311.973219255469
 21
9143.9531069810855
 31
0.0
  0
ARC
  5
550C
  8
FUTO
 10
16322.473219255469
 20
9277.2912955592546
 30
0.0
 40
4.0
 50
95.000000000000057
 51
180.0
  0
LINE
  5
550D
  8
FUTO
 10
16386.973219255469
 20
9143.9531069810855
 30
0.0
 11
16386.973219255469
 21
9147.2912955592546
 31
0.0
  0
LINE
  5
550E
  8
FUTO
 10
16386.973219255469
 20
9293.9531069810873
 30
0.0
 11
16386.973219255469
 21
9290.6149184029218
 31
0.0
  0
ARC
  5
550F
  8
FUTO
 10
16382.973219255469
 20
9290.6149184029218
 30
0.0
 40
4.0
 50
275.00000000000051
 51
359.9999999999921
  0
ARC
  5
5510
  8
FUTO
 10
16382.973219255469
 20
9147.2912955592546
 30
0.0
 40
4.0
 50
0.0000000000078369
 51
84.999999999999503
  0
LINE
  5
5511
  8
FUTO
 10
14161.973219255469
 20
9293.9531069810873
 30
0.0
 11
14086.973219255469
 21
9293.9531069810873
 31
0.0
  0
LINE
  5
5512
  8
FUTO
 10
14151.82184222646
 20
9281.276074351621
 30
0.0
 11
14090.624596284481
 21
9286.6301396105537
 31
0.0
  0
LINE
  5
5513
  8
FUTO
 10
14161.973219255469
 20
9143.9531069810855
 30
0.0
 11
14086.973219255469
 21
9143.9531069810855
 31
0.0
  0
LINE
  5
5514
  8
FUTO
 10
14151.82184222646
 20
9156.6301396105519
 30
0.0
 11
14090.624596284481
 21
9151.276074351621
 31
0.0
  0
LINE
  5
5515
  8
FUTO
 10
14155.473219255469
 20
9160.61491840292
 30
0.0
 11
14155.473219255469
 21
9277.2912955592546
 31
0.0
  0
ARC
  5
5516
  8
FUTO
 10
14151.473219255469
 20
9277.2912955592546
 30
0.0
 40
4.0
 50
0.0
 51
84.999999999999943
  0
LINE
  5
5517
  8
FUTO
 10
14161.973219255469
 20
9143.9531069810855
 30
0.0
 11
14161.973219255469
 21
9293.9531069810873
 31
0.0
  0
ARC
  5
5518
  8
FUTO
 10
14151.473219255469
 20
9160.61491840292
 30
0.0
 40
4.0
 50
275.0
 51
0.0
  0
LINE
  5
5519
  8
FUTO
 10
14086.973219255469
 20
9293.9531069810873
 30
0.0
 11
14086.973219255469
 21
9290.6149184029218
 31
0.0
  0
LINE
  5
551A
  8
FUTO
 10
14086.973219255469
 20
9143.9531069810855
 30
0.0
 11
14086.973219255469
 21
9147.2912955592546
 31
0.0
  0
ARC
  5
551B
  8
FUTO
 10
14090.973219255469
 20
9147.2912955592546
 30
0.0
 40
4.0
 50
95.000000000000554
 51
179.9999999999921
  0
ARC
  5
551C
  8
FUTO
 10
14090.973219255469
 20
9290.6149184029218
 30
0.0
 40
4.0
 50
180.00000000000779
 51
264.99999999999949
  0
LINE
  5
551D
  8
FUTO
 10
16311.973219255469
 20
9156.9496069810884
 30
0.0
 11
14161.973219255469
 21
9156.9496069810884
 31
0.0
  0
LINE
  5
551E
  8
FUTO
 10
16311.973219255469
 20
9280.9566069810899
 30
0.0
 11
14161.973219255469
 21
9280.9566069810899
 31
0.0
  0
LINE
  5
551F
  8
FUTO
 10
12275.96466917344
 20
9156.9496069810884
 30
0.0
 11
9775.964669173447
 21
9156.9496069810884
 31
0.0
  0
LINE
  5
5520
  8
FUTO
 10
12275.96466917344
 20
9280.9566069810899
 30
0.0
 11
9775.964669173447
 21
9280.9566069810899
 31
0.0
  0
LINE
  5
5521
  8
FUTO
 10
15058.973219255469
 20
11588.95310698108
 30
0.0
 11
16376.973219255469
 21
11588.95310698108
 31
0.0
  0
LINE
  5
5522
  8
FUTO
 10
15127.973219255469
 20
11588.95310698108
 30
0.0
 11
15127.973219255469
 21
10552.95310698108
 31
0.0
  0
LINE
  5
5523
  8
FUTO
 10
16307.973219255469
 20
11588.95310698108
 30
0.0
 11
16307.973219255469
 21
10552.95310698108
 31
0.0
  0
LINE
  5
5524
  8
FUTO
 10
16311.17321925547
 20
11588.95310698108
 30
0.0
 11
16311.17321925547
 21
10552.95310698108
 31
0.0
  0
LINE
  5
5525
  8
FUTO
 10
15124.77321925547
 20
11588.95310698108
 30
0.0
 11
15124.77321925547
 21
10552.95310698108
 31
0.0
  0
LINE
  5
5526
  8
FUTO
 10
15049.77321925547
 20
11523.95310698108
 30
0.0
 11
16386.17321925547
 21
11523.95310698108
 31
0.0
  0
LINE
  5
5527
  8
FUTO
 10
15058.973219255469
 20
11582.95310698108
 30
0.0
 11
16376.973219255469
 21
11582.95310698108
 31
0.0
  0
LINE
  5
5528
  8
FUTO
 10
15058.973219255469
 20
11588.95310698108
 30
0.0
 11
15058.973219255469
 21
11523.95310698108
 31
0.0
  0
LINE
  5
5529
  8
FUTO
 10
16376.973219255469
 20
11588.95310698108
 30
0.0
 11
16376.973219255469
 21
11523.95310698108
 31
0.0
  0
LINE
  5
552A
  8
FUTO
 10
16386.17321925547
 20
11523.95310698108
 30
0.0
 11
16386.17321925547
 21
10562.953106981089
 31
0.0
  0
LINE
  5
552B
  8
FUTO
 10
15049.77321925547
 20
11523.95310698108
 30
0.0
 11
15049.77321925547
 21
10562.95310698108
 31
0.0
  0
LINE
  5
552C
  8
KL
 10
15127.973219255469
 20
9172.9531069810873
 30
0.0
 11
16307.973219255469
 21
9172.9531069810873
 31
0.0
  0
LINE
  5
552D
  8
KL
 10
15124.773219255479
 20
9154.9531069810873
 30
0.0
 11
15127.973219255469
 21
9154.9531069810873
 31
0.0
  0
LINE
  5
552E
  8
KL
 10
16307.973219255469
 20
9154.9531069810873
 30
0.0
 11
16311.17321925547
 21
9154.9531069810873
 31
0.0
  0
LINE
  5
552F
  8
KL
 10
15127.973219255469
 20
9293.9531069810873
 30
0.0
 11
15127.973219255469
 21
9154.9531069810873
 31
0.0
  0
LINE
  5
5530
  8
KL
 10
15124.77321925547
 20
9293.9531069810873
 30
0.0
 11
15124.77321925547
 21
9154.9531069810873
 31
0.0
  0
LINE
  5
5531
  8
KL
 10
16307.973219255469
 20
9293.9531069810873
 30
0.0
 11
16307.973219255469
 21
9154.9531069810873
 31
0.0
  0
LINE
  5
5532
  8
KL
 10
16311.17321925547
 20
9293.9531069810873
 30
0.0
 11
16311.17321925547
 21
9154.9531069810873
 31
0.0
  0
LINE
  5
5533
  8
CT
 10
14916.973219255469
 20
10704.320065017049
 30
0.0
 11
14916.973219255469
 21
10372.274016243549
 31
0.0
  0
LINE
  5
5534
  8
CT
 10
14236.973219255469
 20
10704.320065017049
 30
0.0
 11
14236.973219255469
 21
10372.274016243549
 31
0.0
  0
LINE
  5
5537
  8
CT
 10
14871.973219255469
 20
10475.895963760349
 30
0.0
 11
14871.973219255469
 21
10385.895963760349
 31
0.0
  0
LINE
  5
5538
  8
CT
 10
14961.973219255469
 20
10475.895963760349
 30
0.0
 11
14961.973219255469
 21
10385.895963760349
 31
0.0
  0
LINE
  5
5548
  8
FUTO
 10
14944.473219255469
 20
10663.95310698108
 30
0.0
 11
14980.973219255469
 21
10663.95310698108
 31
0.0
  0
LINE
  5
5549
  8
FUTO
 10
14944.473219255469
 20
10676.95310698108
 30
0.0
 11
14944.473219255469
 21
10463.95310698108
 31
0.0
  0
LINE
  5
554A
  8
FUTO
 10
14889.473219255469
 20
10676.95310698108
 30
0.0
 11
14889.473219255469
 21
10463.95310698108
 31
0.0
  0
ARC
  5
554B
  8
FUTO
 10
14983.973219255469
 20
10460.95310698108
 30
0.0
 40
3.0
 50
0.0
 51
90.0
  0
ARC
  5
554C
  8
FUTO
 10
14849.973219255469
 20
10460.95310698108
 30
0.0
 40
3.0
 50
90.000000000000028
 51
180.0
  0
LINE
  5
554D
  8
FUTO
 10
14994.973219255469
 20
10663.95310698108
 30
0.0
 11
14980.973219255469
 21
10663.95310698108
 31
0.0
  0
LINE
  5
554E
  8
FUTO
 10
14970.973219255469
 20
10676.95310698108
 30
0.0
 11
14970.973219255469
 21
10663.95310698108
 31
0.0
  0
LINE
  5
554F
  8
FUTO
 10
14852.973219255469
 20
10663.95310698108
 30
0.0
 11
14889.473219255469
 21
10663.95310698108
 31
0.0
  0
LINE
  5
5550
  8
FUTO
 10
14862.973219255469
 20
10676.95310698108
 30
0.0
 11
14862.973219255469
 21
10663.95310698108
 31
0.0
  0
LINE
  5
5551
  8
FUTO
 10
14838.973219255469
 20
10663.95310698108
 30
0.0
 11
14852.973219255469
 21
10663.95310698108
 31
0.0
  0
LINE
  5
5552
  8
FUTO
 10
14862.973219255469
 20
10676.95310698108
 30
0.0
 11
14970.973219255469
 21
10676.95310698108
 31
0.0
  0
LINE
  5
5553
  8
FUTO
 10
14994.973219255469
 20
10423.95310698108
 30
0.0
 11
14986.973219255469
 21
10423.95310698108
 31
0.0
  0
LINE
  5
5554
  8
FUTO
 10
15002.973219255469
 20
10463.95310698108
 30
0.0
 11
14994.973219255469
 21
10443.95310698108
 31
0.0
  0
LINE
  5
5555
  8
FUTO
 10
14986.973219255469
 20
10460.95310698108
 30
0.0
 11
14986.973219255469
 21
10413.95310698108
 31
0.0
  0
LINE
  5
5556
  8
FUTO
 10
15002.973219255469
 20
10623.95310698108
 30
0.0
 11
15002.973219255469
 21
10463.95310698108
 31
0.0
  0
LINE
  5
5557
  8
FUTO
 10
14838.973219255469
 20
10423.95310698108
 30
0.0
 11
14846.973219255469
 21
10423.95310698108
 31
0.0
  0
LINE
  5
5558
  8
FUTO
 10
14830.973219255469
 20
10463.95310698108
 30
0.0
 11
14838.973219255469
 21
10443.95310698108
 31
0.0
  0
LINE
  5
5559
  8
FUTO
 10
14846.973219255469
 20
10460.95310698108
 30
0.0
 11
14846.973219255469
 21
10413.95310698108
 31
0.0
  0
LINE
  5
555A
  8
FUTO
 10
14830.973219255469
 20
10623.95310698108
 30
0.0
 11
14830.973219255469
 21
10463.95310698108
 31
0.0
  0
LINE
  5
555B
  8
FUTO
 10
14849.973219255469
 20
10463.95310698108
 30
0.0
 11
14983.973219255469
 21
10463.95310698108
 31
0.0
  0
LINE
  5
555C
  8
FUTO
 10
14836.973219255469
 20
10413.95310698108
 30
0.0
 11
14996.973219255469
 21
10413.95310698108
 31
0.0
  0
LINE
  5
555D
  8
FUTO
 10
14980.973219255469
 20
10663.95310698108
 30
0.0
 11
14980.973219255469
 21
10463.95310698108
 31
0.0
  0
LINE
  5
555E
  8
FUTO
 10
14994.973219255469
 20
10663.95310698108
 30
0.0
 11
14994.973219255469
 21
10423.95310698108
 31
0.0
  0
LINE
  5
555F
  8
FUTO
 10
15002.973219255469
 20
10623.95310698108
 30
0.0
 11
14994.973219255469
 21
10643.95310698108
 31
0.0
  0
LINE
  5
5560
  8
FUTO
 10
14830.973219255469
 20
10623.95310698108
 30
0.0
 11
14838.973219255469
 21
10643.95310698108
 31
0.0
  0
LINE
  5
5561
  8
FUTO
 10
14838.973219255469
 20
10663.95310698108
 30
0.0
 11
14838.973219255469
 21
10423.95310698108
 31
0.0
  0
LINE
  5
5562
  8
FUTO
 10
14980.973219255469
 20
10663.95310698108
 30
0.0
 11
14980.973219255469
 21
10463.95310698108
 31
0.0
  0
LINE
  5
5563
  8
FUTO
 10
14852.973219255469
 20
10663.95310698108
 30
0.0
 11
14852.973219255469
 21
10463.95310698108
 31
0.0
  0
LINE
  5
55BF
  8
FUTO
 10
14311.973219255469
 20
10435.95310698108
 30
0.0
 11
14161.973219255469
 21
10435.95310698108
 31
0.0
  0
LINE
  5
55C1
  8
FUTO
 10
14311.973219255469
 20
10435.95310698108
 30
0.0
 11
14311.973219255469
 21
10395.95310698108
 31
0.0
  0
LINE
  5
55C6
  8
FUTO
 10
14161.973219255469
 20
10435.95310698108
 30
0.0
 11
14161.973219255469
 21
9293.9531069810873
 31
0.0
  0
LINE
  5
55CC
  8
FUTO
 10
14181.973219255469
 20
10443.95310698108
 30
0.0
 11
14181.973219255469
 21
10435.95310698108
 31
0.0
  0
LINE
  5
55CD
  8
FUTO
 10
14291.973219255469
 20
10443.95310698108
 30
0.0
 11
14291.973219255469
 21
10435.95310698108
 31
0.0
  0
LINE
  5
55DF
  8
FUTO
 10
14826.973219255469
 20
10405.95310698108
 30
0.0
 11
15006.973219255469
 21
10405.95310698108
 31
0.0
  0
LINE
  5
55E0
  8
FUTO
 10
15006.973219255469
 20
10405.95310698108
 30
0.0
 11
15006.973219255469
 21
9293.9531069810873
 31
0.0
  0
LINE
  5
55E6
  8
FUTO
 10
14826.973219255469
 20
10405.95310698108
 30
0.0
 11
14826.973219255469
 21
10395.95310698108
 31
0.0
  0
LINE
  5
55ED
  8
FUTO
 10
14836.973219255469
 20
10413.95310698108
 30
0.0
 11
14836.973219255469
 21
10405.95310698108
 31
0.0
  0
LINE
  5
55EE
  8
FUTO
 10
14996.973219255469
 20
10413.95310698108
 30
0.0
 11
14996.973219255469
 21
10405.95310698108
 31
0.0
  0
LINE
  5
55F3
  8
FUTO
 10
14826.973219255469
 20
10395.95310698108
 30
0.0
 11
14311.973219255469
 21
10395.95310698108
 31
0.0
  0
LINE
  5
5600
  8
FUTO
 10
15059.77321925547
 20
10552.95310698108
 30
0.0
 11
16376.17321925547
 21
10552.95310698108
 31
0.0
  0
LINE
  5
5601
  8
FUTO
 10
15059.77321925547
 20
10534.95310698108
 30
0.0
 11
16376.17321925547
 21
10534.95310698108
 31
0.0
  0
LINE
  5
5602
  8
FUTO
 10
15059.77321925547
 20
10552.95310698108
 30
0.0
 11
15059.773219255479
 21
10534.95310698108
 31
0.0
  0
LINE
  5
5603
  8
FUTO
 10
15127.973219255469
 20
10534.95310698108
 30
0.0
 11
15127.973219255469
 21
9293.9531069810873
 31
0.0
  0
LINE
  5
5604
  8
FUTO
 10
15124.77321925547
 20
10534.95310698108
 30
0.0
 11
15124.773219255479
 21
9293.9531069810873
 31
0.0
  0
LINE
  5
5605
  8
FUTO
 10
16311.17321925547
 20
10534.95310698108
 30
0.0
 11
16311.17321925547
 21
9293.9531069810873
 31
0.0
  0
LINE
  5
5606
  8
FUTO
 10
16307.973219255469
 20
10534.95310698108
 30
0.0
 11
16307.973219255469
 21
9293.9531069810873
 31
0.0
  0
LINE
  5
5608
  8
FUTO
 10
16376.17321925547
 20
10552.95310698108
 30
0.0
 11
16386.17321925547
 21
10562.953106981089
 31
0.0
  0
LINE
  5
5609
  8
FUTO
 10
16376.17321925547
 20
10534.95310698108
 30
0.0
 11
16386.17321925547
 21
10524.95310698108
 31
0.0
  0
LINE
  5
560A
  8
FUTO
 10
16386.17321925547
 20
10524.95310698108
 30
0.0
 11
16386.17321925547
 21
9293.9531069810873
 31
0.0
  0
LINE
  5
560B
  8
FUTO
 10
15059.77321925547
 20
10552.95310698108
 30
0.0
 11
15049.77321925547
 21
10562.95310698108
 31
0.0
  0
LINE
  5
560C
  8
FUTO
 10
15059.77321925547
 20
10534.95310698108
 30
0.0
 11
15049.77321925547
 21
10524.95310698108
 31
0.0
  0
LINE
  5
560D
  8
FUTO
 10
15049.77321925547
 20
10524.95310698108
 30
0.0
 11
15049.77321925547
 21
9293.9531069810873
 31
0.0
  0
LINE
  5
560E
  8
SL
 10
13976.973219255469
 20
10858.95310698108
 30
0.0
 11
13976.973219255469
 21
9421.4531069810873
 31
0.0
  0
LINE
  5
560F
  8
SL
 10
13976.973219255469
 20
10858.95310698108
 30
0.0
 11
14054.873219255471
 21
10858.95310698108
 31
0.0
  0
LINE
  5
5610
  8
SL
 10
13976.973219255469
 20
10228.95310698108
 30
0.0
 11
14054.873219255471
 21
10228.95310698108
 31
0.0
  0
LINE
  5
5611
  8
SL
 10
14054.873219255471
 20
10858.95310698108
 30
0.0
 11
14054.873219255471
 21
10623.95310698108
 31
0.0
  0
LINE
  5
5613
  8
SL
 10
14076.973219255469
 20
10623.95310698108
 30
0.0
 11
14076.973219255469
 21
10463.95310698108
 31
0.0
  0
LINE
  5
5614
  8
SL
 10
14054.873219255471
 20
10623.95310698108
 30
0.0
 11
14076.973219255469
 21
10623.95310698108
 31
0.0
  0
LINE
  5
5615
  8
SL
 10
14054.873219255471
 20
10463.95310698108
 30
0.0
 11
14076.973219255469
 21
10463.95310698108
 31
0.0
  0
LINE
  5
5616
  8
SL
 10
14054.873219255471
 20
10463.95310698108
 30
0.0
 11
14054.873219255471
 21
10228.95310698108
 31
0.0
  0
LINE
  5
5617
  8
CT
 10
13837.973219255469
 20
9553.9531069810873
 30
0.0
 11
14153.973219255469
 21
9553.9531069810873
 31
0.0
  0
LINE
  5
5618
  8
SL
 10
13976.973219255469
 20
9686.4531069810891
 30
0.0
 11
14054.873219255471
 21
9686.4531069810891
 31
0.0
  0
LINE
  5
5619
  8
SL
 10
13976.973219255469
 20
9421.4531069810873
 30
0.0
 11
14054.873219255471
 21
9421.4531069810873
 31
0.0
  0
LINE
  5
561A
  8
SL
 10
14054.873219255471
 20
10858.95310698108
 30
0.0
 11
14054.873219255471
 21
9623.9531069810891
 31
0.0
  0
LINE
  5
561B
  8
SL
 10
14074.973219255469
 20
9623.9531069810891
 30
0.0
 11
14074.973219255469
 21
9483.9531069810873
 31
0.0
  0
LINE
  5
561C
  8
SL
 10
14054.873219255471
 20
9623.9531069810891
 30
0.0
 11
14074.973219255469
 21
9623.9531069810891
 31
0.0
  0
LINE
  5
561D
  8
SL
 10
14054.873219255471
 20
9483.9531069810873
 30
0.0
 11
14074.973219255469
 21
9483.9531069810873
 31
0.0
  0
LINE
  5
561E
  8
SL
 10
14054.873219255471
 20
9483.9531069810873
 30
0.0
 11
14054.873219255471
 21
9421.4531069810873
 31
0.0
  0
LINE
  5
561F
  8
FUTO
 10
13837.973219255469
 20
10923.95310698108
 30
0.0
 11
14126.973219255469
 21
10923.95310698108
 31
0.0
  0
LINE
  5
5620
  8
FUTO
 10
13837.973219255469
 20
9333.9531069810873
 30
0.0
 11
14126.973219255469
 21
9333.9531069810873
 31
0.0
  0
LINE
  5
5621
  8
FUTO
 10
13837.973219255469
 20
10923.95310698108
 30
0.0
 11
13837.973219255469
 21
9333.9531069810873
 31
0.0
  0
LINE
  5
5622
  8
FUTO
 10
14126.973219255469
 20
10923.95310698108
 30
0.0
 11
14126.973219255469
 21
9333.9531069810873
 31
0.0
  0
LINE
  5
5623
  8
FUTO
 10
14306.973219255469
 20
10593.95310698108
 30
0.0
 11
14830.973219255469
 21
10593.95310698108
 31
0.0
  0
LINE
  5
5624
  8
FUTO
 10
14306.973219255469
 20
10493.95310698108
 30
0.0
 11
14830.973219255469
 21
10493.95310698108
 31
0.0
  0
LINE
  5
5625
  8
KL
 10
15002.973219255469
 20
10593.95310698108
 30
0.0
 11
15124.77321925547
 21
10593.95310698108
 31
0.0
  0
LINE
  5
5626
  8
KL
 10
15002.973219255469
 20
10493.95310698108
 30
0.0
 11
15124.77321925547
 21
10493.95310698108
 31
0.0
  0
LINE
  5
5627
  8
FUTO
 10
14076.973219255469
 20
10586.45310698108
 30
0.0
 11
14166.973219255469
 21
10586.45310698108
 31
0.0
  0
LINE
  5
5628
  8
FUTO
 10
14076.973219255469
 20
10501.45310698108
 30
0.0
 11
14166.973219255469
 21
10501.45310698108
 31
0.0
  0
LINE
  5
5694
  8
FUTO
 10
12275.96466917344
 20
12674.48480644658
 30
0.0
 11
10100.96466917344
 21
12674.48480644658
 31
0.0
  0
LINE
  5
5695
  8
FUTO
 10
11675.96466917344
 20
14974.48480644658
 30
0.0
 11
9775.964669173447
 21
14974.48480644658
 31
0.0
  0
LINE
  5
5696
  8
FUTO
 10
9775.964669173447
 20
14974.48480644658
 30
0.0
 11
9775.964669173447
 21
14949.48480644658
 31
0.0
  0
LINE
  5
5699
  8
FUTO
 10
12423.96466917344
 20
13711.48480644658
 30
0.0
 11
10767.96466917344
 21
13711.48480644658
 31
0.0
  0
LINE
  5
569A
  8
FUTO
 10
12275.96466917344
 20
13636.48480644658
 30
0.0
 11
9775.964669173447
 21
13636.48480644658
 31
0.0
  0
LINE
  5
569B
  8
FUTO
 10
12275.96466917344
 20
12749.48480644658
 30
0.0
 11
10100.96466917344
 21
12749.48480644658
 31
0.0
  0
LINE
  5
569C
  8
FUTO
 10
12423.96466917344
 20
14899.48480644658
 30
0.0
 11
10767.96466917344
 21
14899.48480644658
 31
0.0
  0
LINE
  5
56A0
  8
FUTO
 10
10100.96466917344
 20
13636.48480644658
 30
0.0
 11
10100.96466917344
 21
12674.48480644658
 31
0.0
  0
LINE
  5
56A2
  8
FUTO
 10
10175.96466917344
 20
13636.48480644658
 30
0.0
 11
10175.96466917344
 21
12749.48480644658
 31
0.0
  0
LINE
  5
56A4
  8
FUTO
 10
11350.96466917344
 20
13636.48480644658
 30
0.0
 11
11350.96466917344
 21
12749.48480644658
 31
0.0
  0
LINE
  5
56A6
  8
FUTO
 10
11675.96466917344
 20
14974.48480644658
 30
0.0
 11
11675.96466917344
 21
14964.48480644658
 31
0.0
  0
LINE
  5
56A7
  8
FUTO
 10
11275.96466917344
 20
13636.48480644658
 30
0.0
 11
11275.96466917344
 21
12749.48480644658
 31
0.0
  0
LINE
  5
56A8
  8
FUTO
 10
12275.96466917344
 20
13646.48480644658
 30
0.0
 11
12275.96466917344
 21
13636.48480644658
 31
0.0
  0
LINE
  5
56A9
  8
FUTO
 10
12275.96466917344
 20
12749.48480644658
 30
0.0
 11
12275.96466917344
 21
12674.48480644658
 31
0.0
  0
LINE
  5
56AA
  8
CT
 10
11975.96466917344
 20
13586.48480644658
 30
0.0
 11
11975.96466917344
 21
12169.027978571959
 31
0.0
  0
LINE
  5
56AC
  8
FUTO
 10
12165.96466917344
 20
13636.48480644658
 30
0.0
 11
12165.96466917344
 21
13312.023364074739
 31
0.0
  0
LINE
  5
56AD
  8
FUTO
 10
12100.96466917344
 20
13636.48480644658
 30
0.0
 11
12100.96466917344
 21
13363.98480644658
 31
0.0
  0
LINE
  5
56AE
  8
FUTO
 10
11850.96466917344
 20
13636.48480644658
 30
0.0
 11
11850.96466917344
 21
13363.98480644658
 31
0.0
  0
LINE
  5
56AF
  8
FUTO
 10
11785.96466917344
 20
13636.48480644658
 30
0.0
 11
11785.96466917344
 21
13304.88476944658
 31
0.0
  0
LINE
  5
56B0
  8
CT
 10
12500.551129452861
 20
14305.48480644658
 30
0.0
 11
9375.4486672433814
 21
14305.48480644658
 31
0.0
  0
LINE
  5
69CC
  8
CT
 10
16287.973219255469
 20
11383.95310698108
 30
0.0
 11
16331.17321925547
 21
11383.95310698108
 31
0.0
  0
DIMENSION
  5
6A61
  8
SP
  2
*D3
 10
10725.96466917344
 20
8628.4407967979841
 30
0.0
 11
10250.96466917344
 21
8715.9407967979841
 31
0.0
 70
     0
 13
9775.964669173447
 23
8878.9531069810873
 33
0.0
 14
10725.96466917344
 24
8878.9531069810873
 34
0.0
1001
ACAD
1000
DSTYLE
1002
{
1070
    40
1040
35.0
1070
   147
1040
1.0
1070
    41
1040
2.5
1002
}
  0
DIMENSION
  5
6A6E
  8
SP
  2
*D4
 10
12275.96466917344
 20
8628.4407967979841
 30
0.0
 11
11500.96466917344
 21
8715.9407967979841
 31
0.0
 70
     0
 13
10725.96466917344
 23
8878.9531069810873
 33
0.0
 14
12275.96466917344
 24
8878.9531069810873
 34
0.0
1001
ACAD
1000
DSTYLE
1002
{
1070
    40
1040
35.0
1070
   147
1040
1.0
1070
    41
1040
2.5
1002
}
  0
DIMENSION
  5
6A7B
  8
SP
  2
*D5
 10
12275.96466917344
 20
8378.3530528003266
 30
0.0
 11
11025.96466917344
 21
8465.8530528003266
 31
0.0
 70
     0
 13
9775.964669173447
 23
8878.9531069810873
 33
0.0
 14
12275.96466917344
 24
8878.9531069810873
 34
0.0
1001
ACAD
1000
DSTYLE
1002
{
1070
    40
1040
35.0
1070
   147
1040
1.0
1070
    41
1040
2.5
1002
}
  0
DIMENSION
  5
6A88
  8
SP
  2
*D6
 10
15717.973219255469
 20
8628.440773410146
 30
0.0
 11
14902.473219255469
 21
8715.940773410146
 31
0.0
 70
     0
 13
14086.973219255469
 23
8878.9531069810873
 33
0.0
 14
15717.973219255469
 24
8878.9531069810873
 34
0.0
1001
ACAD
1000
DSTYLE
1002
{
1070
    40
1040
35.0
1070
   147
1040
1.0
1070
    41
1040
2.5
1002
}
  0
DIMENSION
  5
6A95
  8
SP
  2
*D7
 10
16386.973219255469
 20
8628.440773410146
 30
0.0
 11
16052.473219255469
 21
8715.940773410146
 31
0.0
 70
     0
 13
15717.973219255469
 23
8878.9531069810873
 33
0.0
 14
16386.973219255469
 24
8878.9531069810873
 34
0.0
1001
ACAD
1000
DSTYLE
1002
{
1070
    40
1040
35.0
1070
   147
1040
1.0
1070
    41
1040
2.5
1002
}
  0
DIMENSION
  5
6AA2
  8
SP
  2
*D8
 10
16386.973219255469
 20
8378.3530294124885
 30
0.0
 11
15236.973219255469
 21
8465.8530294124885
 31
0.0
 70
     0
 13
14086.973219255469
 23
8878.9531069810873
 33
0.0
 14
16386.973219255469
 24
8878.9531069810873
 34
0.0
1001
ACAD
1000
DSTYLE
1002
{
1070
    40
1040
35.0
1070
   147
1040
1.0
1070
    41
1040
2.5
1002
}
  0
LINE
  5
6AB0
  8
SP
 10
15717.973219255469
 20
11866.212109109931
 30
0.0
 11
15717.973219255469
 21
11901.212109109931
 31
0.0
  0
LINE
  5
6ADF
  8
FUTO
 10
16442.973219255469
 20
11408.95310698108
 30
0.0
 11
16442.973219255469
 21
9678.9531069810873
 31
0.0
  0
LINE
  5
6AE1
  8
KL
 10
16311.17321925547
 20
11343.95310698108
 30
0.0
 11
16442.973219255469
 21
11343.95310698108
 31
0.0
  0
LINE
  5
6AE5
  8
KL
 10
16311.17321925547
 20
11408.95310698108
 30
0.0
 11
16317.17321925547
 21
11408.95310698108
 31
0.0
  0
LINE
  5
6AE7
  8
FUTO
 10
16436.973219255469
 20
11408.95310698108
 30
0.0
 11
16436.973219255469
 21
9678.9531069810873
 31
0.0
  0
LINE
  5
6AE8
  8
FUTO
 10
16386.17321925547
 20
11349.95310698108
 30
0.0
 11
16436.973219255469
 21
11349.95310698108
 31
0.0
  0
LINE
  5
6AEA
  8
KL
 10
16317.17321925547
 20
11408.95310698108
 30
0.0
 11
16317.17321925547
 21
10552.95310698108
 31
0.0
  0
LINE
  5
6AEB
  8
FUTO
 10
16436.973219255469
 20
11408.95310698108
 30
0.0
 11
16442.973219255469
 21
11408.95310698108
 31
0.0
  0
LINE
  5
6AEC
  8
CT
 10
16417.973219255469
 20
11383.95310698108
 30
0.0
 11
16461.17321925547
 21
11383.95310698108
 31
0.0
  0
LINE
  5
6AED
  8
KL
 10
16311.17321925547
 20
9743.9531069810873
 30
0.0
 11
16442.973219255469
 21
9743.9531069810873
 31
0.0
  0
LINE
  5
6AEE
  8
CT
 10
16287.973219255469
 20
9703.9531069810891
 30
0.0
 11
16331.17321925547
 21
9703.9531069810891
 31
0.0
  0
LINE
  5
6AEF
  8
KL
 10
16311.17321925547
 20
9678.9531069810873
 30
0.0
 11
16317.17321925547
 21
9678.9531069810873
 31
0.0
  0
LINE
  5
6AF0
  8
CT
 10
16417.973219255469
 20
9703.9531069810891
 30
0.0
 11
16461.17321925547
 21
9703.9531069810891
 31
0.0
  0
LINE
  5
6AF1
  8
FUTO
 10
16386.17321925547
 20
9737.9531069810873
 30
0.0
 11
16436.973219255469
 21
9737.9531069810873
 31
0.0
  0
LINE
  5
6AF2
  8
FUTO
 10
16436.973219255469
 20
9678.9531069810873
 30
0.0
 11
16442.973219255469
 21
9678.9531069810873
 31
0.0
  0
LINE
  5
6AF3
  8
KL
 10
16317.17321925547
 20
10534.95310698108
 30
0.0
 11
16317.17321925547
 21
9678.9531069810873
 31
0.0
  0
DIMENSION
  5
6B00
  8
SP
  2
*D9
 10
16442.973219255469
 20
11912.184488658901
 30
0.0
 11
16080.473219255469
 21
11999.684488658901
 31
0.0
 70
     0
 13
15717.973219255469
 23
11866.212109109931
 33
0.0
 14
16442.973219255469
 24
11408.95310698108
 34
0.0
1001
ACAD
1000
DSTYLE
1002
{
1070
    40
1040
35.0
1070
   147
1040
1.0
1070
    41
1040
2.5
1002
}
  0
LINE
  5
6E16
  8
SL
 10
14328.19320530989
 20
10395.95310698108
 30
0.0
 11
14328.19320530989
 21
10700.77046558467
 31
0.0
  0
LINE
  5
6E17
  8
SL
 10
14328.19320530989
 20
10700.77046558467
 30
0.0
 11
14814.14857773865
 21
10700.77046558467
 31
0.0
  0
LINE
  5
6E18
  8
SL
 10
14814.14857773865
 20
10700.77046558467
 30
0.0
 11
14814.14857773865
 21
10395.95310698108
 31
0.0
  0
INSERT
  5
6E51
  8
FUTO
  2
右回転矢印
 10
10515.45896940216
 20
11156.754431228321
 30
0.0
 41
-35.0
 42
35.0
 43
35.0
  0
INSERT
  5
6EE2
  8
FUTO
  2
まっすぐの矢印
 10
11122.882169844041
 20
11819.83963072491
 30
0.0
 41
35.0
 42
35.0
 43
35.0
  0
INSERT
  5
6EEC
  8
FUTO
  2
まっすぐの矢印
 10
16489.441198826629
 20
11071.65480732465
 30
0.0
 41
35.0
 42
35.0
 43
35.0
 50
90.0
  0
DIMENSION
  5
6F64
  8
SP
  2
*D10
 10
16722.166620457348
 20
9743.9531069810873
 30
0.0
 11
16634.666620457348
 21
10543.95310698108
 31
0.0
 70
     0
 13
16442.973219255469
 23
11343.95310698108
 33
0.0
 14
16442.973219255469
 24
9743.9531069810873
 34
0.0
 50
90.0
1001
ACAD
1000
DSTYLE
1002
{
1070
    40
1040
35.0
1070
     3
1000
φ<>
1070
   147
1040
1.0
1070
    41
1040
2.5
1002
}
  0
DIMENSION
  5
6FB2
  8
SP
  2
*D11
 10
15717.973219255469
 20
11912.184488658901
 30
0.0
 11
14777.973219255469
 21
11999.684488658901
 31
0.0
 70
     0
 13
13837.973219255469
 23
10923.95310698108
 33
0.0
 14
15717.973219255469
 24
11912.184488658901
 34
0.0
1001
ACAD
1000
DSTYLE
1002
{
1070
    40
1040
35.0
1070
    41
1040
2.5
1070
   147
1040
1.0
1002
}
  0
LINE
  5
6FD7
  8
CT
 10
10725.96466917344
 20
12425.48480644658
 30
0.0
 11
10725.96466917344
 21
15075.26271826345
 31
0.0
  0
LINE
  5
6FDA
  8
FUTO
 10
10345.96466917344
 20
12425.48480644658
 30
0.0
 11
12179.46466917344
 21
12425.48480644658
 31
0.0
  0
LINE
  5
6FDB
  8
FUTO
 10
10345.96466917344
 20
12714.48480644658
 30
0.0
 11
12179.46466917344
 21
12714.48480644659
 31
0.0
  0
LINE
  5
6FDC
  8
SL
 10
10410.96466917344
 20
12642.38480644658
 30
0.0
 11
11843.46466917344
 21
12642.38480644658
 31
0.0
  0
LINE
  5
6FDD
  8
SL
 10
10410.96466917344
 20
12564.48480644658
 30
0.0
 11
12108.46466917344
 21
12564.48480644658
 31
0.0
  0
LINE
  5
6FE5
  8
SL
 10
11843.46466917344
 20
12662.48480644658
 30
0.0
 11
12108.46466917344
 21
12662.48480644658
 31
0.0
  0
LINE
  5
6FE8
  8
FUTO
 10
10345.96466917344
 20
12425.48480644658
 30
0.0
 11
10345.96466917344
 21
12714.48480644658
 31
0.0
  0
LINE
  5
6FE9
  8
SL
 10
10805.96466917344
 20
12642.38480644658
 30
0.0
 11
10805.96466917344
 21
12664.48480644658
 31
0.0
  0
LINE
  5
6FEA
  8
SL
 10
10645.96466917344
 20
12642.38480644658
 30
0.0
 11
10645.96466917344
 21
12664.48480644658
 31
0.0
  0
LINE
  5
6FEB
  8
SL
 10
10410.96466917344
 20
12642.38480644658
 30
0.0
 11
10645.96466917344
 21
12642.38480644658
 31
0.0
  0
LINE
  5
6FEC
  8
SL
 10
10805.96466917344
 20
12642.38480644658
 30
0.0
 11
11040.96466917344
 21
12642.38480644658
 31
0.0
  0
LINE
  5
6FED
  8
SL
 10
11040.96466917344
 20
12564.48480644658
 30
0.0
 11
11040.96466917344
 21
12642.38480644658
 31
0.0
  0
LINE
  5
6FEE
  8
SL
 10
10410.96466917344
 20
12564.48480644658
 30
0.0
 11
10410.96466917344
 21
12642.38480644658
 31
0.0
  0
LINE
  5
6FF1
  8
FUTO
 10
10775.96466917344
 20
12894.48480644658
 30
0.0
 11
10775.96466917344
 21
13418.48480644658
 31
0.0
  0
LINE
  5
6FF2
  8
FUTO
 10
10675.96466917344
 20
12894.48480644658
 30
0.0
 11
10675.96466917344
 21
13418.48480644658
 31
0.0
  0
LINE
  5
6FF5
  8
CT
 10
10565.59771113748
 20
12824.48480644658
 30
0.0
 11
10897.643759910979
 21
12824.48480644658
 31
0.0
  0
LINE
  5
6FF6
  8
FUTO
 10
10625.96466917344
 20
12774.48480644658
 30
0.0
 11
10825.96466917344
 21
12774.48480644658
 31
0.0
  0
ARC
  5
6FF7
  8
FUTO
 10
10814.96466917344
 20
12765.48480644658
 30
0.0
 40
6.0
 50
270.0
 51
0.0
  0
LINE
  5
6FF8
  8
FUTO
 10
10825.96466917344
 20
12874.48480644658
 30
0.0
 11
10625.96466917344
 21
12874.48480644658
 31
0.0
  0
ARC
  5
6FF9
  8
FUTO
 10
10814.96466917344
 20
12883.48480644658
 30
0.0
 40
6.0
 50
0.0
 51
90.0
  0
LINE
  5
6FFD
  8
FUTO
 10
10820.96466917344
 20
12765.48480644658
 30
0.0
 11
10820.96466917344
 21
12774.48480644658
 31
0.0
  0
LINE
  5
7000
  8
FUTO
 10
10820.96466917344
 20
12883.48480644658
 30
0.0
 11
10820.96466917344
 21
12874.48480644658
 31
0.0
  0
ARC
  5
7001
  8
FUTO
 10
10636.96466917344
 20
12765.48480644658
 30
0.0
 40
6.0
 50
180.0
 51
270.0
  0
ARC
  5
7002
  8
FUTO
 10
10636.96466917344
 20
12883.48480644658
 30
0.0
 40
6.0
 50
90.0
 51
180.0
  0
LINE
  5
7004
  8
FUTO
 10
10768.46466917344
 20
12664.48480644658
 30
0.0
 11
10768.46466917344
 21
12754.48480644658
 31
0.0
  0
LINE
  5
7005
  8
FUTO
 10
10683.46466917344
 20
12664.48480644658
 30
0.0
 11
10683.46466917344
 21
12754.48480644658
 31
0.0
  0
LINE
  5
7006
  8
SL
 10
10645.96466917344
 20
12664.48480644658
 30
0.0
 11
10805.96466917344
 21
12664.48480644658
 31
0.0
  0
LINE
  5
7007
  8
FUTO
 10
10645.96466917344
 20
12754.48480644658
 30
0.0
 11
10805.96466917344
 21
12754.48480644658
 31
0.0
  0
LINE
  5
7008
  8
FUTO
 10
10636.96466917344
 20
12759.48480644658
 30
0.0
 11
10814.96466917344
 21
12759.48480644658
 31
0.0
  0
LINE
  5
7009
  8
FUTO
 10
10805.96466917344
 20
12754.48480644658
 30
0.0
 11
10805.96466917344
 21
12759.48480644658
 31
0.0
  0
LINE
  5
700B
  8
FUTO
 10
10645.96466917344
 20
12759.48480644658
 30
0.0
 11
10645.96466917344
 21
12754.48480644658
 31
0.0
  0
LINE
  5
700C
  8
FUTO
 10
10636.96466917344
 20
12889.48480644658
 30
0.0
 11
10814.96466917344
 21
12889.48480644658
 31
0.0
  0
LINE
  5
700D
  8
FUTO
 10
10645.96466917344
 20
12894.48480644658
 30
0.0
 11
10805.96466917344
 21
12894.48480644658
 31
0.0
  0
LINE
  5
700F
  8
FUTO
 10
10805.96466917344
 20
12894.48480644658
 30
0.0
 11
10805.96466917344
 21
12889.48480644658
 31
0.0
  0
LINE
  5
7010
  8
FUTO
 10
10645.96466917344
 20
12889.48480644658
 30
0.0
 11
10645.96466917344
 21
12894.48480644658
 31
0.0
  0
LINE
  5
7011
  8
FUTO
 10
10625.96466917344
 20
12874.48480644658
 30
0.0
 11
10625.96466917344
 21
12774.48480644658
 31
0.0
  0
LINE
  5
7012
  8
FUTO
 10
10630.96466917344
 20
12774.48480644658
 30
0.0
 11
10630.96466917344
 21
12765.48480644658
 31
0.0
  0
LINE
  5
7013
  8
FUTO
 10
10630.96466917344
 20
12874.48480644658
 30
0.0
 11
10630.96466917344
 21
12883.48480644658
 31
0.0
  0
LINE
  5
7015
  8
FUTO
 10
10605.96466917344
 20
13426.48480644658
 30
0.0
 11
10845.96466917344
 21
13426.48480644658
 31
0.0
  0
LINE
  5
7016
  8
FUTO
 10
10605.96466917344
 20
13582.48480644658
 30
0.0
 11
10845.96466917344
 21
13582.48480644658
 31
0.0
  0
LINE
  5
7018
  8
FUTO
 10
10805.96466917344
 20
13418.48480644658
 30
0.0
 11
10825.96466917344
 21
13426.48480644658
 31
0.0
  0
LINE
  5
701A
  8
FUTO
 10
10805.96466917344
 20
13590.48480644658
 30
0.0
 11
10825.96466917344
 21
13582.48480644658
 31
0.0
  0
LINE
  5
701D
  8
CT
 10
10565.59771113748
 20
13504.48480644658
 30
0.0
 11
10897.643759910979
 21
13504.48480644658
 31
0.0
  0
LINE
  5
7022
  8
FUTO
 10
10845.96466917344
 20
13426.48480644658
 30
0.0
 11
10845.96466917344
 21
13434.48480644658
 31
0.0
  0
LINE
  5
7024
  8
FUTO
 10
10845.96466917344
 20
13582.48480644658
 30
0.0
 11
10845.96466917344
 21
13574.48480644658
 31
0.0
  0
LINE
  5
7026
  8
FUTO
 10
10592.96466917344
 20
13450.48480644658
 30
0.0
 11
10592.96466917344
 21
13558.48480644658
 31
0.0
  0
LINE
  5
7027
  8
FUTO
 10
10605.96466917344
 20
13440.48480644658
 30
0.0
 11
10845.96466917344
 21
13440.48480644658
 31
0.0
  0
LINE
  5
7028
  8
FUTO
 10
10645.96466917344
 20
13418.48480644658
 30
0.0
 11
10625.96466917344
 21
13426.48480644658
 31
0.0
  0
LINE
  5
7029
  8
FUTO
 10
10592.96466917344
 20
13476.98480644658
 30
0.0
 11
10858.96466917344
 21
13476.98480644658
 31
0.0
  0
LINE
  5
702A
  8
FUTO
 10
10645.96466917344
 20
13418.48480644658
 30
0.0
 11
10805.96466917344
 21
13418.48480644658
 31
0.0
  0
LINE
  5
702C
  8
FUTO
 10
10605.96466917344
 20
13426.48480644658
 30
0.0
 11
10605.96466917344
 21
13440.48480644658
 31
0.0
  0
LINE
  5
702D
  8
FUTO
 10
10592.96466917344
 20
13450.48480644658
 30
0.0
 11
10605.96466917344
 21
13450.48480644658
 31
0.0
  0
LINE
  5
702E
  8
FUTO
 10
10605.96466917344
 20
13440.48480644658
 30
0.0
 11
10605.96466917344
 21
13476.98480644658
 31
0.0
  0
LINE
  5
702F
  8
FUTO
 10
10605.96466917344
 20
13568.48480644658
 30
0.0
 11
10805.96466917344
 21
13568.48480644658
 31
0.0
  0
LINE
  5
7030
  8
FUTO
 10
10645.96466917344
 20
13590.48480644658
 30
0.0
 11
10625.96466917344
 21
13582.48480644658
 31
0.0
  0
LINE
  5
7031
  8
FUTO
 10
10605.96466917344
 20
13568.48480644658
 30
0.0
 11
10845.96466917344
 21
13568.48480644658
 31
0.0
  0
LINE
  5
7032
  8
FUTO
 10
10592.96466917344
 20
13531.98480644658
 30
0.0
 11
10858.96466917344
 21
13531.98480644658
 31
0.0
  0
LINE
  5
7033
  8
KL
 10
10775.96466917344
 20
13590.48480644658
 30
0.0
 11
10775.96466917344
 21
13712.28480644658
 31
0.0
  0
LINE
  5
7034
  8
KL
 10
10675.96466917344
 20
13590.48480644658
 30
0.0
 11
10675.96466917344
 21
13712.28480644658
 31
0.0
  0
LINE
  5
7035
  8
FUTO
 10
10645.96466917344
 20
13590.48480644658
 30
0.0
 11
10805.96466917344
 21
13590.48480644658
 31
0.0
  0
LINE
  5
703A
  8
FUTO
 10
10592.96466917344
 20
13558.48480644658
 30
0.0
 11
10605.96466917344
 21
13558.48480644658
 31
0.0
  0
LINE
  5
703B
  8
FUTO
 10
10605.96466917344
 20
13582.48480644658
 30
0.0
 11
10605.96466917344
 21
13568.48480644658
 31
0.0
  0
LINE
  5
703C
  8
FUTO
 10
10605.96466917344
 20
13531.98480644658
 30
0.0
 11
10605.96466917344
 21
13568.48480644658
 31
0.0
  0
LINE
  5
703F
  8
KL
 10
10734.96466917344
 20
14904.684806446579
 30
0.0
 11
11590.96466917344
 21
14904.684806446579
 31
0.0
  0
LINE
  5
7040
  8
FUTO
 10
9860.9646691734488
 20
15024.48480644658
 30
0.0
 11
11590.96466917344
 21
15024.48480644658
 31
0.0
  0
LINE
  5
7041
  8
FUTO
 10
9860.9646691734488
 20
15030.48480644658
 30
0.0
 11
11590.96466917344
 21
15030.48480644658
 31
0.0
  0
LINE
  5
7045
  8
KL
 10
11590.96466917344
 20
14898.684806446579
 30
0.0
 11
11590.96466917344
 21
14904.684806446579
 31
0.0
  0
LINE
  5
7046
  8
FUTO
 10
11590.96466917344
 20
15024.48480644658
 30
0.0
 11
11590.96466917344
 21
15030.48480644658
 31
0.0
  0
LINE
  5
7047
  8
FUTO
 10
11531.96466917344
 20
14973.684806446579
 30
0.0
 11
11531.96466917344
 21
15024.48480644658
 31
0.0
  0
LINE
  5
7048
  8
KL
 10
11525.96466917344
 20
14898.684806446579
 30
0.0
 11
11525.96466917344
 21
15030.48480644658
 31
0.0
  0
LINE
  5
7049
  8
CT
 10
11565.96466917344
 20
14875.48480644658
 30
0.0
 11
11565.96466917344
 21
14918.684806446579
 31
0.0
  0
LINE
  5
704A
  8
CT
 10
11565.96466917344
 20
15005.48480644658
 30
0.0
 11
11565.96466917344
 21
15048.684806446579
 31
0.0
  0
LINE
  5
704E
  8
KL
 10
9860.9646691734488
 20
14904.684806446579
 30
0.0
 11
10716.96466917344
 21
14904.684806446579
 31
0.0
  0
INSERT
  5
7052
  8
FUTO
  2
まっすぐの矢印
 10
10469.10341688247
 20
15076.95278601774
 30
0.0
 41
35.0
 42
35.0
 43
35.0
 50
180.0
  0
LINE
  5
7053
  8
FUTO
 10
9919.964669173447
 20
14973.684806446579
 30
0.0
 11
9919.964669173447
 21
15024.48480644658
 31
0.0
  0
LINE
  5
7054
  8
KL
 10
9925.964669173447
 20
14898.684806446579
 30
0.0
 11
9925.964669173447
 21
15030.48480644658
 31
0.0
  0
LINE
  5
7055
  8
CT
 10
9885.9646691734451
 20
14875.48480644658
 30
0.0
 11
9885.9646691734451
 21
14918.684806446579
 31
0.0
  0
LINE
  5
7056
  8
CT
 10
9885.9646691734451
 20
15005.48480644658
 30
0.0
 11
9885.9646691734451
 21
15048.684806446579
 31
0.0
  0
LINE
  5
7057
  8
KL
 10
9860.9646691734488
 20
14898.684806446579
 30
0.0
 11
9860.9646691734488
 21
14904.684806446579
 31
0.0
  0
LINE
  5
7058
  8
FUTO
 10
9860.9646691734488
 20
15024.48480644658
 30
0.0
 11
9860.9646691734488
 21
15030.48480644658
 31
0.0
  0
LINE
  5
7096
  8
FUTO
 10
10825.96466917344
 20
12874.48480644658
 30
0.0
 11
10825.96466917344
 21
12774.48480644658
 31
0.0
  0
LINE
  5
7097
  8
FUTO
 10
10858.96466917344
 20
13450.48480644658
 30
0.0
 11
10858.96466917344
 21
13558.48480644658
 31
0.0
  0
LINE
  5
7098
  8
FUTO
 10
10845.96466917344
 20
13440.48480644658
 30
0.0
 11
10845.96466917344
 21
13476.98480644658
 31
0.0
  0
LINE
  5
7099
  8
FUTO
 10
10858.96466917344
 20
13450.48480644658
 30
0.0
 11
10845.96466917344
 21
13450.48480644658
 31
0.0
  0
LINE
  5
709A
  8
FUTO
 10
10845.96466917344
 20
13426.48480644658
 30
0.0
 11
10845.96466917344
 21
13440.48480644658
 31
0.0
  0
LINE
  5
709B
  8
FUTO
 10
10845.96466917344
 20
13531.98480644658
 30
0.0
 11
10845.96466917344
 21
13568.48480644658
 31
0.0
  0
LINE
  5
709C
  8
FUTO
 10
10845.96466917344
 20
13582.48480644658
 30
0.0
 11
10845.96466917344
 21
13568.48480644658
 31
0.0
  0
LINE
  5
709D
  8
FUTO
 10
10858.96466917344
 20
13558.48480644658
 30
0.0
 11
10845.96466917344
 21
13558.48480644658
 31
0.0
  0
ARC
  5
7D1A
  8
FUTO
 10
11975.96466917344
 20
12665.48480644658
 30
0.0
 40
9.0
 50
0.000000000000007
 51
180.0
  0
LINE
  5
7D1B
  8
FUTO
 10
11984.96466917344
 20
12564.48480644658
 30
0.0
 11
11984.96466917344
 21
12665.48480644658
 31
0.0
  0
LINE
  5
7D1C
  8
FUTO
 10
11966.96466917344
 20
12564.48480644658
 30
0.0
 11
11966.96466917344
 21
12665.48480644658
 31
0.0
  0
LINE
  5
7D1D
  8
FUTO
 10
12232.964608173441
 20
13078.98474544658
 30
0.0
 11
12232.964608173441
 21
13114.98480644658
 31
0.0
  0
LINE
  5
7D1E
  8
FUTO
 10
12235.964608173441
 20
13078.98474544658
 30
0.0
 11
12235.964608173441
 21
13114.98480644658
 31
0.0
  0
LINE
  5
7D1F
  8
FUTO
 10
12227.964608173441
 20
13078.98474544658
 30
0.0
 11
12227.964608173441
 21
13125.98480644658
 31
0.0
  0
LINE
  5
7D20
  8
FUTO
 10
12185.96466917344
 20
12739.98480644658
 30
0.0
 11
12185.96466917344
 21
12786.85980644658
 31
0.0
  0
LINE
  5
7D21
  8
FUTO
 10
12133.656304168961
 20
12734.98480644658
 30
0.0
 11
12180.96466917344
 21
12734.98480644658
 31
0.0
  0
ARC
  5
7D22
  8
FUTO
 10
12180.96466917344
 20
12739.98480644658
 30
0.0
 40
5.0
 50
270.0
 51
0.000000000000007
  0
LINE
  5
7D23
  8
FUTO
 10
12165.64601439187
 20
12786.85980644658
 30
0.0
 11
12185.96466917344
 21
12786.85980644658
 31
0.0
  0
LINE
  5
7D24
  8
FUTO
 10
12185.96466917344
 20
12784.98480644658
 30
0.0
 11
12232.964608173441
 21
12784.98480644658
 31
0.0
  0
LINE
  5
7D25
  8
FUTO
 10
12185.96466917344
 20
12781.98480644658
 30
0.0
 11
12235.964608173441
 21
12781.98480644658
 31
0.0
  0
LINE
  5
7D26
  8
FUTO
 10
12165.75514274172
 20
12789.98480644658
 30
0.0
 11
12227.964608173441
 21
12789.98480644658
 31
0.0
  0
LINE
  5
7D27
  8
FUTO
 10
12227.964608173441
 20
12789.98480644658
 30
0.0
 11
12232.964608173441
 21
12784.98480644658
 31
0.0
  0
LINE
  5
7D28
  8
FUTO
 10
12260.964608173441
 20
12824.98480644658
 30
0.0
 11
12260.964608173441
 21
12864.98480644658
 31
0.0
  0
LINE
  5
7D29
  8
FUTO
 10
12230.964608173441
 20
12824.98480644658
 30
0.0
 11
12230.964608173441
 21
12864.98480644658
 31
0.0
  0
LINE
  5
7D2A
  8
FUTO
 10
12260.964608173441
 20
12864.98480644658
 30
0.0
 11
12230.964608173441
 21
12864.98480644658
 31
0.0
  0
LINE
  5
7D2B
  8
FUTO
 10
12230.964608173441
 20
12824.98480644658
 30
0.0
 11
12260.964608173441
 21
12824.98480644658
 31
0.0
  0
LINE
  5
7D2C
  8
CT
 10
12179.46466917344
 20
12844.98480644658
 30
0.0
 11
12347.01905117344
 21
12844.98480644658
 31
0.0
  0
LINE
  5
7D2D
  8
FUTO
 10
12335.419076173441
 20
12862.574650446581
 30
0.0
 11
12323.319100173439
 21
12862.574650446581
 31
0.0
  0
LINE
  5
7D2E
  8
FUTO
 10
12335.419076173441
 20
12827.394963446581
 30
0.0
 11
12323.319100173439
 21
12827.394963446581
 31
0.0
  0
LINE
  5
7D2F
  8
FUTO
 10
12335.419076173441
 20
12854.68988444658
 30
0.0
 11
12323.319100173439
 21
12854.68988444658
 31
0.0
  0
LINE
  5
7D30
  8
FUTO
 10
12335.419076173441
 20
12835.27972844658
 30
0.0
 11
12323.319100173439
 21
12835.27972844658
 31
0.0
  0
LINE
  5
7D31
  8
FUTO
 10
12337.01905117344
 20
12860.97504144658
 30
0.0
 11
12337.01905117344
 21
12828.995548446581
 31
0.0
  0
LINE
  5
7D32
  8
FUTO
 10
12335.419076173441
 20
12827.394963446581
 30
0.0
 11
12337.01905117344
 21
12828.995548446581
 31
0.0
  0
LINE
  5
7D33
  8
FUTO
 10
12335.419076173441
 20
12835.27972844658
 30
0.0
 11
12337.01905117344
 21
12833.680119446581
 31
0.0
  0
LINE
  5
7D34
  8
FUTO
 10
12335.419076173441
 20
12835.27972844658
 30
0.0
 11
12337.01905117344
 21
12836.88031444658
 31
0.0
  0
LINE
  5
7D35
  8
FUTO
 10
12337.01905117344
 20
12860.97504144658
 30
0.0
 11
12335.419076173441
 21
12862.574650446581
 31
0.0
  0
LINE
  5
7D36
  8
FUTO
 10
12335.419076173441
 20
12854.68988444658
 30
0.0
 11
12337.01905117344
 21
12856.29047044658
 31
0.0
  0
LINE
  5
7D37
  8
FUTO
 10
12335.419076173441
 20
12854.68988444658
 30
0.0
 11
12337.01905117344
 21
12853.090275446581
 31
0.0
  0
LINE
  5
7D38
  8
FUTO
 10
12323.319100173439
 20
12862.574650446581
 30
0.0
 11
12323.319100173439
 21
12827.394963446581
 31
0.0
  0
LINE
  5
7D39
  8
FUTO
 10
12323.319100173439
 20
12835.98480644658
 30
0.0
 11
12260.964608173441
 21
12835.98480644658
 31
0.0
  0
LINE
  5
7D3A
  8
HOSO
 10
12260.964608173441
 20
12837.98480644658
 30
0.0
 11
12323.31916117344
 21
12837.98480644658
 31
0.0
  0
LINE
  5
7D3B
  8
HOSO
 10
12323.319100173439
 20
12851.98480644658
 30
0.0
 11
12260.964608173441
 21
12851.98480644658
 31
0.0
  0
LINE
  5
7D3C
  8
FUTO
 10
12260.964608173441
 20
12853.98480644658
 30
0.0
 11
12323.31916117344
 21
12853.98480644658
 31
0.0
  0
LINE
  5
7D3D
  8
FUTO
 10
12230.964608173441
 20
12835.98480644658
 30
0.0
 11
12179.46466917344
 21
12835.98480644658
 31
0.0
  0
LINE
  5
7D3E
  8
HOSO
 10
12179.46466917344
 20
12837.98480644658
 30
0.0
 11
12230.964608173441
 21
12837.98480644658
 31
0.0
  0
LINE
  5
7D3F
  8
FUTO
 10
12179.46466917344
 20
12853.98480644658
 30
0.0
 11
12230.964608173441
 21
12853.98480644658
 31
0.0
  0
LINE
  5
7D40
  8
HOSO
 10
12230.964608173441
 20
12851.98480644658
 30
0.0
 11
12179.46466917344
 21
12851.98480644658
 31
0.0
  0
LINE
  5
7D41
  8
FUTO
 10
12235.964608173441
 20
12781.98480644658
 30
0.0
 11
12235.964608173441
 21
12824.98480644658
 31
0.0
  0
LINE
  5
7D42
  8
FUTO
 10
12232.964608173441
 20
12784.98480644658
 30
0.0
 11
12232.964608173441
 21
12824.98480644658
 31
0.0
  0
LINE
  5
7D43
  8
FUTO
 10
12227.964608173441
 20
12789.98480644658
 30
0.0
 11
12227.964608173441
 21
12835.98480644658
 31
0.0
  0
LINE
  5
7D44
  8
FUTO
 10
12235.964608173441
 20
12864.98480644658
 30
0.0
 11
12235.964608173441
 21
12900.98480644658
 31
0.0
  0
LINE
  5
7D45
  8
FUTO
 10
12232.964608173441
 20
12864.98480644658
 30
0.0
 11
12232.964608173441
 21
12900.98480644658
 31
0.0
  0
LINE
  5
7D46
  8
FUTO
 10
12227.964608173441
 20
12853.98480644658
 30
0.0
 11
12227.964608173441
 21
12900.98480644658
 31
0.0
  0
LINE
  5
7D47
  8
FUTO
 10
12260.964608173441
 20
13125.98480644658
 30
0.0
 11
12323.31916117344
 21
13125.98480644658
 31
0.0
  0
LINE
  5
7D48
  8
HOSO
 10
12323.319100173439
 20
13127.98480644658
 30
0.0
 11
12260.964608173441
 21
13127.98480644658
 31
0.0
  0
LINE
  5
7D49
  8
HOSO
 10
12260.964608173441
 20
13141.98480644658
 30
0.0
 11
12323.31916117344
 21
13141.98480644658
 31
0.0
  0
LINE
  5
7D4A
  8
FUTO
 10
12323.319100173439
 20
13143.98480644658
 30
0.0
 11
12260.964608173441
 21
13143.98480644658
 31
0.0
  0
LINE
  5
7D4B
  8
FUTO
 10
12323.319100173439
 20
13117.39496244658
 30
0.0
 11
12323.319100173439
 21
13152.57464944658
 31
0.0
  0
LINE
  5
7D4C
  8
FUTO
 10
12335.419076173441
 20
13125.27972844658
 30
0.0
 11
12337.01905117344
 21
13126.87933744658
 31
0.0
  0
LINE
  5
7D4D
  8
FUTO
 10
12335.419076173441
 20
13125.27972844658
 30
0.0
 11
12337.01905117344
 21
13123.679142446579
 31
0.0
  0
LINE
  5
7D4E
  8
FUTO
 10
12337.01905117344
 20
13118.994571446579
 30
0.0
 11
12335.419076173441
 21
13117.39496244658
 31
0.0
  0
LINE
  5
7D4F
  8
FUTO
 10
12335.419076173441
 20
13144.68988444658
 30
0.0
 11
12337.01905117344
 21
13143.089298446581
 31
0.0
  0
LINE
  5
7D50
  8
FUTO
 10
12335.419076173441
 20
13144.68988444658
 30
0.0
 11
12337.01905117344
 21
13146.28949344658
 31
0.0
  0
LINE
  5
7D51
  8
FUTO
 10
12335.419076173441
 20
13152.57464944658
 30
0.0
 11
12337.01905117344
 21
13150.97406444658
 31
0.0
  0
LINE
  5
7D52
  8
FUTO
 10
12337.01905117344
 20
13118.994571446579
 30
0.0
 11
12337.01905117344
 21
13150.97406444658
 31
0.0
  0
LINE
  5
7D53
  8
FUTO
 10
12335.419076173441
 20
13144.68988444658
 30
0.0
 11
12323.319100173439
 21
13144.68988444658
 31
0.0
  0
LINE
  5
7D54
  8
FUTO
 10
12335.419076173441
 20
13125.27972844658
 30
0.0
 11
12323.319100173439
 21
13125.27972844658
 31
0.0
  0
LINE
  5
7D55
  8
FUTO
 10
12335.419076173441
 20
13152.57464944658
 30
0.0
 11
12323.319100173439
 21
13152.57464944658
 31
0.0
  0
LINE
  5
7D56
  8
FUTO
 10
12335.419076173441
 20
13117.39496244658
 30
0.0
 11
12323.319100173439
 21
13117.39496244658
 31
0.0
  0
LINE
  5
7D57
  8
FUTO
 10
12230.964608173441
 20
13154.98480644658
 30
0.0
 11
12260.964608173441
 21
13154.98480644658
 31
0.0
  0
LINE
  5
7D58
  8
FUTO
 10
12260.964608173441
 20
13114.98480644658
 30
0.0
 11
12230.964608173441
 21
13114.98480644658
 31
0.0
  0
LINE
  5
7D59
  8
FUTO
 10
12230.964608173441
 20
13154.98480644658
 30
0.0
 11
12230.964608173441
 21
13114.98480644658
 31
0.0
  0
LINE
  5
7D5A
  8
FUTO
 10
12260.964608173441
 20
13154.98480644658
 30
0.0
 11
12260.964608173441
 21
13114.98480644658
 31
0.0
  0
LINE
  5
7D5B
  8
HOSO
 10
12230.964608173441
 20
13127.98480644658
 30
0.0
 11
12179.46466917344
 21
13127.98480644658
 31
0.0
  0
LINE
  5
7D5C
  8
FUTO
 10
12179.46466917344
 20
13125.98480644658
 30
0.0
 11
12230.964608173441
 21
13125.98480644658
 31
0.0
  0
LINE
  5
7D5D
  8
HOSO
 10
12179.46466917344
 20
13141.98480644658
 30
0.0
 11
12230.964608173441
 21
13141.98480644658
 31
0.0
  0
LINE
  5
7D5E
  8
FUTO
 10
12230.964608173441
 20
13143.98480644658
 30
0.0
 11
12179.46466917344
 21
13143.98480644658
 31
0.0
  0
LINE
  5
7D5F
  8
CT
 10
12179.46466917344
 20
13134.98480644658
 30
0.0
 11
12347.01905117344
 21
13134.98480644658
 31
0.0
  0
LINE
  5
7D60
  8
FUTO
 10
12227.964608173441
 20
13189.98480644658
 30
0.0
 11
12232.964608173441
 21
13194.98480644658
 31
0.0
  0
LINE
  5
7D61
  8
FUTO
 10
12185.96466917344
 20
13197.98480644658
 30
0.0
 11
12235.964608173441
 21
13197.98480644658
 31
0.0
  0
LINE
  5
7D62
  8
FUTO
 10
12185.96466917344
 20
13194.98480644658
 30
0.0
 11
12232.964608173441
 21
13194.98480644658
 31
0.0
  0
LINE
  5
7D63
  8
FUTO
 10
12179.46466917344
 20
13193.10980644658
 30
0.0
 11
12185.96466917344
 21
13193.10980644658
 31
0.0
  0
LINE
  5
7D64
  8
FUTO
 10
12179.46466917344
 20
13189.98480644658
 30
0.0
 11
12227.964608173441
 21
13189.98480644658
 31
0.0
  0
LINE
  5
7D65
  8
FUTO
 10
12227.964608173441
 20
13189.98480644658
 30
0.0
 11
12227.964608173441
 21
13143.98480644658
 31
0.0
  0
LINE
  5
7D66
  8
FUTO
 10
12232.964608173441
 20
13194.98480644658
 30
0.0
 11
12232.964608173441
 21
13154.98480644658
 31
0.0
  0
LINE
  5
7D67
  8
FUTO
 10
12235.964608173441
 20
13197.98480644658
 30
0.0
 11
12235.964608173441
 21
13154.98480644658
 31
0.0
  0
ARC
  5
7D68
  8
FUTO
 10
12180.96466917344
 20
13239.98480644658
 30
0.0
 40
5.0
 50
0.000000000000007
 51
90.000000000000028
  0
LINE
  5
7D69
  8
FUTO
 10
12185.96466917344
 20
13239.98480644658
 30
0.0
 11
12185.96466917344
 21
13193.10980644658
 31
0.0
  0
LINE
  5
7D6A
  8
FUTO
 10
12168.46466917344
 20
13244.98480644658
 30
0.0
 11
12180.96466917344
 21
13244.98480644658
 31
0.0
  0
LINE
  5
7D6B
  8
CT
 10
11772.46466917344
 20
13134.98480644658
 30
0.0
 11
11604.910287173439
 21
13134.98480644658
 31
0.0
  0
LINE
  5
7D6C
  8
FUTO
 10
11720.96473017344
 20
13143.98480644658
 30
0.0
 11
11772.464669173451
 21
13143.98480644658
 31
0.0
  0
LINE
  5
7D6D
  8
HOSO
 10
11772.464669173451
 20
13141.98480644658
 30
0.0
 11
11720.96473017344
 21
13141.98480644658
 31
0.0
  0
LINE
  5
7D6E
  8
FUTO
 10
11772.464669173451
 20
13125.98480644658
 30
0.0
 11
11720.96473017344
 21
13125.98480644658
 31
0.0
  0
LINE
  5
7D6F
  8
HOSO
 10
11720.96473017344
 20
13127.98480644658
 30
0.0
 11
11772.464669173451
 21
13127.98480644658
 31
0.0
  0
LINE
  5
7D70
  8
FUTO
 10
11690.96473017344
 20
13154.98480644658
 30
0.0
 11
11690.96473017344
 21
13114.98480644658
 31
0.0
  0
LINE
  5
7D71
  8
FUTO
 10
11720.96473017344
 20
13154.98480644658
 30
0.0
 11
11720.96473017344
 21
13114.98480644658
 31
0.0
  0
LINE
  5
7D72
  8
FUTO
 10
11690.96473017344
 20
13114.98480644658
 30
0.0
 11
11720.96473017344
 21
13114.98480644658
 31
0.0
  0
LINE
  5
7D73
  8
FUTO
 10
11720.96473017344
 20
13154.98480644658
 30
0.0
 11
11690.96473017344
 21
13154.98480644658
 31
0.0
  0
LINE
  5
7D74
  8
FUTO
 10
11616.51026217344
 20
13117.39496244658
 30
0.0
 11
11628.61023817344
 21
13117.39496244658
 31
0.0
  0
LINE
  5
7D75
  8
FUTO
 10
11616.51026217344
 20
13152.57464944658
 30
0.0
 11
11628.61023817344
 21
13152.57464944658
 31
0.0
  0
LINE
  5
7D76
  8
FUTO
 10
11616.51026217344
 20
13125.27972844658
 30
0.0
 11
11628.61023817344
 21
13125.27972844658
 31
0.0
  0
LINE
  5
7D77
  8
FUTO
 10
11616.51026217344
 20
13144.68988444658
 30
0.0
 11
11628.61023817344
 21
13144.68988444658
 31
0.0
  0
LINE
  5
7D78
  8
FUTO
 10
11614.910287173439
 20
13118.994571446579
 30
0.0
 11
11614.910287173439
 21
13150.97406444658
 31
0.0
  0
LINE
  5
7D79
  8
FUTO
 10
11616.51026217344
 20
13152.57464944658
 30
0.0
 11
11614.910287173439
 21
13150.97406444658
 31
0.0
  0
LINE
  5
7D7A
  8
FUTO
 10
11616.51026217344
 20
13144.68988444658
 30
0.0
 11
11614.910287173439
 21
13146.28949344658
 31
0.0
  0
LINE
  5
7D7B
  8
FUTO
 10
11616.51026217344
 20
13144.68988444658
 30
0.0
 11
11614.910287173439
 21
13143.089298446581
 31
0.0
  0
LINE
  5
7D7C
  8
FUTO
 10
11614.910287173439
 20
13118.994571446579
 30
0.0
 11
11616.51026217344
 21
13117.39496244658
 31
0.0
  0
LINE
  5
7D7D
  8
FUTO
 10
11616.51026217344
 20
13125.27972844658
 30
0.0
 11
11614.910287173439
 21
13123.679142446579
 31
0.0
  0
LINE
  5
7D7E
  8
FUTO
 10
11616.51026217344
 20
13125.27972844658
 30
0.0
 11
11614.910287173439
 21
13126.87933744658
 31
0.0
  0
LINE
  5
7D7F
  8
FUTO
 10
11628.61023817344
 20
13117.39496244658
 30
0.0
 11
11628.61023817344
 21
13152.57464944658
 31
0.0
  0
LINE
  5
7D80
  8
FUTO
 10
11628.61023817344
 20
13143.98480644658
 30
0.0
 11
11690.96473017344
 21
13143.98480644658
 31
0.0
  0
LINE
  5
7D81
  8
HOSO
 10
11690.96473017344
 20
13141.98480644658
 30
0.0
 11
11628.610177173439
 21
13141.98480644658
 31
0.0
  0
LINE
  5
7D82
  8
HOSO
 10
11628.61023817344
 20
13127.98480644658
 30
0.0
 11
11690.96473017344
 21
13127.98480644658
 31
0.0
  0
LINE
  5
7D83
  8
FUTO
 10
11690.96473017344
 20
13125.98480644658
 30
0.0
 11
11628.610177173439
 21
13125.98480644658
 31
0.0
  0
LINE
  5
7D84
  8
FUTO
 10
11715.96473017344
 20
13197.98480644658
 30
0.0
 11
11715.96473017344
 21
13154.98480644658
 31
0.0
  0
LINE
  5
7D85
  8
FUTO
 10
11718.96473017344
 20
13194.98480644658
 30
0.0
 11
11718.96473017344
 21
13154.98480644658
 31
0.0
  0
LINE
  5
7D86
  8
FUTO
 10
11723.96473017344
 20
13189.98480644658
 30
0.0
 11
11723.96473017344
 21
13143.98480644658
 31
0.0
  0
LINE
  5
7D87
  8
FUTO
 10
11783.46466917344
 20
13244.98480644658
 30
0.0
 11
11770.96466917344
 21
13244.98480644658
 31
0.0
  0
LINE
  5
7D88
  8
FUTO
 10
11772.464669173451
 20
13189.98480644658
 30
0.0
 11
11723.96473017344
 21
13189.98480644658
 31
0.0
  0
LINE
  5
7D89
  8
FUTO
 10
11772.464669173451
 20
13193.10980644658
 30
0.0
 11
11765.96466917344
 21
13193.10980644658
 31
0.0
  0
LINE
  5
7D8A
  8
FUTO
 10
11765.96466917344
 20
13239.98480644658
 30
0.0
 11
11765.96466917344
 21
13193.10980644658
 31
0.0
  0
LINE
  5
7D8B
  8
FUTO
 10
11765.96466917344
 20
13194.98480644658
 30
0.0
 11
11718.96473017344
 21
13194.98480644658
 31
0.0
  0
LINE
  5
7D8C
  8
FUTO
 10
11765.96466917344
 20
13197.98480644658
 30
0.0
 11
11715.96473017344
 21
13197.98480644658
 31
0.0
  0
ARC
  5
7D8D
  8
FUTO
 10
11770.96466917344
 20
13239.98480644658
 30
0.0
 40
5.0
 50
90.000000000000028
 51
180.0
  0
LINE
  5
7D8E
  8
FUTO
 10
11723.96473017344
 20
13189.98480644658
 30
0.0
 11
11718.96473017344
 21
13194.98480644658
 31
0.0
  0
LINE
  5
7D8F
  8
FUTO
 10
11786.28332395502
 20
12786.85980644658
 30
0.0
 11
11765.96466917344
 21
12786.85980644658
 31
0.0
  0
LINE
  5
7D90
  8
FUTO
 10
11723.96473017344
 20
12853.98480644658
 30
0.0
 11
11723.96473017344
 21
13125.98480644658
 31
0.0
  0
LINE
  5
7D91
  8
FUTO
 10
11723.96473017344
 20
12789.98480644658
 30
0.0
 11
11718.96473017344
 21
12784.98480644658
 31
0.0
  0
LINE
  5
7D92
  8
FUTO
 10
11723.96473017344
 20
12789.98480644658
 30
0.0
 11
11723.96473017344
 21
12835.98480644658
 31
0.0
  0
LINE
  5
7D93
  8
FUTO
 10
11786.174195605159
 20
12789.98480644658
 30
0.0
 11
11723.96473017344
 21
12789.98480644658
 31
0.0
  0
ARC
  5
7D94
  8
FUTO
 10
11770.96466917344
 20
12739.98480644658
 30
0.0
 40
5.0
 50
180.0
 51
270.0
  0
LINE
  5
7D95
  8
FUTO
 10
11765.96466917344
 20
12781.98480644658
 30
0.0
 11
11715.96473017344
 21
12781.98480644658
 31
0.0
  0
LINE
  5
7D96
  8
FUTO
 10
11765.96466917344
 20
12784.98480644658
 30
0.0
 11
11718.96473017344
 21
12784.98480644658
 31
0.0
  0
LINE
  5
7D97
  8
FUTO
 10
11818.273034177921
 20
12734.98480644658
 30
0.0
 11
11770.96466917344
 21
12734.98480644658
 31
0.0
  0
LINE
  5
7D98
  8
FUTO
 10
11765.96466917344
 20
12739.98480644658
 30
0.0
 11
11765.96466917344
 21
12786.85980644658
 31
0.0
  0
LINE
  5
7D99
  8
FUTO
 10
11718.96473017344
 20
12864.98480644658
 30
0.0
 11
11718.96473017344
 21
13114.98480644658
 31
0.0
  0
LINE
  5
7D9A
  8
FUTO
 10
11715.96473017344
 20
12864.98480644658
 30
0.0
 11
11715.96473017344
 21
13114.98480644658
 31
0.0
  0
LINE
  5
7D9B
  8
FUTO
 10
11718.96473017344
 20
12784.98480644658
 30
0.0
 11
11718.96473017344
 21
12824.98480644658
 31
0.0
  0
LINE
  5
7D9C
  8
FUTO
 10
11715.96473017344
 20
12781.98480644658
 30
0.0
 11
11715.96473017344
 21
12824.98480644658
 31
0.0
  0
LINE
  5
7D9D
  8
HOSO
 10
11720.96473017344
 20
12851.98480644658
 30
0.0
 11
11772.464669173451
 21
12851.98480644658
 31
0.0
  0
LINE
  5
7D9E
  8
FUTO
 10
11772.464669173451
 20
12853.98480644658
 30
0.0
 11
11720.96473017344
 21
12853.98480644658
 31
0.0
  0
LINE
  5
7D9F
  8
HOSO
 10
11772.464669173451
 20
12837.98480644658
 30
0.0
 11
11720.96473017344
 21
12837.98480644658
 31
0.0
  0
LINE
  5
7DA0
  8
FUTO
 10
11720.96473017344
 20
12835.98480644658
 30
0.0
 11
11772.464669173451
 21
12835.98480644658
 31
0.0
  0
LINE
  5
7DA1
  8
FUTO
 10
11690.96473017344
 20
12853.98480644658
 30
0.0
 11
11628.610177173439
 21
12853.98480644658
 31
0.0
  0
LINE
  5
7DA2
  8
HOSO
 10
11628.61023817344
 20
12851.98480644658
 30
0.0
 11
11690.96473017344
 21
12851.98480644658
 31
0.0
  0
LINE
  5
7DA3
  8
HOSO
 10
11690.96473017344
 20
12837.98480644658
 30
0.0
 11
11628.610177173439
 21
12837.98480644658
 31
0.0
  0
LINE
  5
7DA4
  8
FUTO
 10
11628.61023817344
 20
12835.98480644658
 30
0.0
 11
11690.96473017344
 21
12835.98480644658
 31
0.0
  0
LINE
  5
7DA5
  8
FUTO
 10
11628.61023817344
 20
12862.574650446581
 30
0.0
 11
11628.61023817344
 21
12827.394963446581
 31
0.0
  0
LINE
  5
7DA6
  8
FUTO
 10
11616.51026217344
 20
12854.68988444658
 30
0.0
 11
11614.910287173439
 21
12853.090275446581
 31
0.0
  0
LINE
  5
7DA7
  8
FUTO
 10
11616.51026217344
 20
12854.68988444658
 30
0.0
 11
11614.910287173439
 21
12856.29047044658
 31
0.0
  0
LINE
  5
7DA8
  8
FUTO
 10
11614.910287173439
 20
12860.97504144658
 30
0.0
 11
11616.51026217344
 21
12862.574650446581
 31
0.0
  0
LINE
  5
7DA9
  8
FUTO
 10
11616.51026217344
 20
12835.27972844658
 30
0.0
 11
11614.910287173439
 21
12836.88031444658
 31
0.0
  0
LINE
  5
7DAA
  8
FUTO
 10
11616.51026217344
 20
12835.27972844658
 30
0.0
 11
11614.910287173439
 21
12833.680119446581
 31
0.0
  0
LINE
  5
7DAB
  8
FUTO
 10
11616.51026217344
 20
12827.394963446581
 30
0.0
 11
11614.910287173439
 21
12828.995548446581
 31
0.0
  0
LINE
  5
7DAC
  8
FUTO
 10
11614.910287173439
 20
12860.97504144658
 30
0.0
 11
11614.910287173439
 21
12828.995548446581
 31
0.0
  0
LINE
  5
7DAD
  8
FUTO
 10
11616.51026217344
 20
12835.27972844658
 30
0.0
 11
11628.61023817344
 21
12835.27972844658
 31
0.0
  0
LINE
  5
7DAE
  8
FUTO
 10
11616.51026217344
 20
12854.68988444658
 30
0.0
 11
11628.61023817344
 21
12854.68988444658
 31
0.0
  0
LINE
  5
7DAF
  8
FUTO
 10
11616.51026217344
 20
12827.394963446581
 30
0.0
 11
11628.61023817344
 21
12827.394963446581
 31
0.0
  0
LINE
  5
7DB0
  8
FUTO
 10
11616.51026217344
 20
12862.574650446581
 30
0.0
 11
11628.61023817344
 21
12862.574650446581
 31
0.0
  0
LINE
  5
7DB1
  8
CT
 10
11772.46466917344
 20
12844.98480644658
 30
0.0
 11
11604.910287173439
 21
12844.98480644658
 31
0.0
  0
LINE
  5
7DB2
  8
FUTO
 10
11720.96473017344
 20
12824.98480644658
 30
0.0
 11
11690.96473017344
 21
12824.98480644658
 31
0.0
  0
LINE
  5
7DB3
  8
FUTO
 10
11690.96473017344
 20
12864.98480644658
 30
0.0
 11
11720.96473017344
 21
12864.98480644658
 31
0.0
  0
LINE
  5
7DB4
  8
FUTO
 10
11720.96473017344
 20
12824.98480644658
 30
0.0
 11
11720.96473017344
 21
12864.98480644658
 31
0.0
  0
LINE
  5
7DB5
  8
FUTO
 10
11690.96473017344
 20
12824.98480644658
 30
0.0
 11
11690.96473017344
 21
12864.98480644658
 31
0.0
  0
ARC
  5
7DB6
  8
FUTO
 10
12307.59381917344
 20
13051.98474544658
 30
0.0
 40
20.0
 50
0.000000000000007
 51
90.000000000000028
  0
ARC
  5
7DB7
  8
FUTO
 10
12307.59381917344
 20
12927.98480644658
 30
0.0
 40
20.0
 50
270.0
 51
0.000000000000007
  0
ARC
  5
7DB8
  8
FUTO
 10
12317.59381917344
 20
12910.98480644658
 30
0.0
 40
10.0
 50
270.0
 51
0.000000000000007
  0
ARC
  5
7DB9
  8
FUTO
 10
12317.59381917344
 20
13068.98474544658
 30
0.0
 40
10.0
 50
0.000000000000007
 51
90.000000000000028
  0
ARC
  5
7DBA
  8
FUTO
 10
12214.737094274549
 20
12910.98480644658
 30
0.0
 40
10.0
 50
180.0
 51
270.0
  0
ARC
  5
7DBB
  8
FUTO
 10
12217.904209812879
 20
12910.98480644658
 30
0.0
 40
10.0
 50
180.0
 51
270.0
  0
ARC
  5
7DBC
  8
FUTO
 10
12214.737094274549
 20
13068.98474544658
 30
0.0
 40
10.0
 50
90.000000000000028
 51
180.0
  0
ARC
  5
7DBD
  8
FUTO
 10
12217.904209812879
 20
13068.98474544658
 30
0.0
 40
10.0
 50
90.000000000000028
 51
180.0
  0
LINE
  5
7DBE
  8
FUTO
 10
12215.10081309234
 20
12907.98480644658
 30
0.0
 11
12307.59381917344
 21
12907.98480644658
 31
0.0
  0
LINE
  5
7DBF
  8
FUTO
 10
12215.10081309234
 20
13071.98474544658
 30
0.0
 11
12307.59381917344
 21
13071.98474544658
 31
0.0
  0
ARC
  5
7DC0
  8
FUTO
 10
12200.96466917344
 20
12912.98480644658
 30
0.0
 40
5.0
 50
180.0
 51
270.0
  0
ARC
  5
7DC1
  8
FUTO
 10
12200.96466917344
 20
13066.98474544658
 30
0.0
 40
5.0
 50
90.000000000000028
 51
180.0
  0
ARC
  5
7DC2
  8
FUTO
 10
12215.10081309234
 20
12912.98480644658
 30
0.0
 40
5.0
 50
180.0
 51
270.0
  0
ARC
  5
7DC3
  8
FUTO
 10
12215.10081309234
 20
13066.98474544658
 30
0.0
 40
5.0
 50
90.000000000000028
 51
180.0
  0
LINE
  5
7DC4
  8
FUTO
 10
12214.737094274549
 20
12900.98480644658
 30
0.0
 11
12317.59381917344
 21
12900.98480644658
 31
0.0
  0
LINE
  5
7DC5
  8
FUTO
 10
12200.96466917344
 20
12907.98480644658
 30
0.0
 11
12204.737094274549
 21
12907.98480644658
 31
0.0
  0
LINE
  5
7DC6
  8
FUTO
 10
12214.737094274549
 20
13078.98474544658
 30
0.0
 11
12317.59381917344
 21
13078.98474544658
 31
0.0
  0
LINE
  5
7DC7
  8
FUTO
 10
12200.96466917344
 20
13071.98474544658
 30
0.0
 11
12204.737094274549
 21
13071.98474544658
 31
0.0
  0
LINE
  5
7DC8
  8
FUTO
 10
12179.46466917344
 20
13049.98480644658
 30
0.0
 11
12179.46466917344
 21
13156.795577195609
 31
0.0
  0
LINE
  5
7DC9
  8
FUTO
 10
12195.96466917344
 20
12929.98480644658
 30
0.0
 11
12128.23827161326
 21
12929.98480644658
 31
0.0
  0
LINE
  5
7DCA
  8
FUTO
 10
12195.96466917344
 20
13049.98480644658
 30
0.0
 11
12128.23827161326
 21
13049.98480644658
 31
0.0
  0
LINE
  5
7DCB
  8
FUTO
 10
12286.28400517344
 20
12927.98480644658
 30
0.0
 11
12286.28400517344
 21
13051.98474544658
 31
0.0
  0
LINE
  5
7DCC
  8
FUTO
 10
12210.10081309234
 20
12912.98480644658
 30
0.0
 11
12210.10081309234
 21
13066.98474544658
 31
0.0
  0
LINE
  5
7DCD
  8
FUTO
 10
12207.904209812879
 20
12910.98480644658
 30
0.0
 11
12207.904209812879
 21
13068.98474544658
 31
0.0
  0
LINE
  5
7DCE
  8
FUTO
 10
12204.737094274549
 20
12910.98480644658
 30
0.0
 11
12204.737094274549
 21
13068.98474544658
 31
0.0
  0
LINE
  5
7DCF
  8
FUTO
 10
12195.96466917344
 20
12912.98480644658
 30
0.0
 11
12195.96466917344
 21
13066.98474544658
 31
0.0
  0
LINE
  5
7DD0
  8
FUTO
 10
12185.964669173451
 20
12929.98480644658
 30
0.0
 11
12185.964669173451
 21
13049.98480644658
 31
0.0
  0
LINE
  5
7DD1
  8
FUTO
 10
12128.23827161326
 20
12929.98480644658
 30
0.0
 11
12128.23827161326
 21
13049.98480644658
 31
0.0
  0
LINE
  5
7DD2
  8
FUTO
 10
12327.59381917344
 20
12910.98480644658
 30
0.0
 11
12327.59381917344
 21
13068.98474544658
 31
0.0
  0
LINE
  5
7DD3
  8
FUTO
 10
11982.21466917344
 20
12966.23480644658
 30
0.0
 11
11982.21466917344
 21
13013.73480644658
 31
0.0
  0
ARC
  5
7DD4
  8
FUTO
 10
11975.96466917344
 20
12966.23480644658
 30
0.0
 40
6.25
 50
180.0
 51
0.000000000000007
  0
ARC
  5
7DD5
  8
FUTO
 10
11975.96466917344
 20
13013.73480644658
 30
0.0
 40
6.25
 50
0.000000000000007
 51
180.0
  0
LINE
  5
7DD6
  8
CT
 10
12347.59381917344
 20
12989.98480644658
 30
0.0
 11
11695.96473017344
 21
12989.98480644658
 31
0.0
  0
LINE
  5
7DD7
  8
FUTO
 10
11969.71466917344
 20
12966.23480644658
 30
0.0
 11
11969.71466917344
 21
13013.73480644658
 31
0.0
  0
LINE
  5
7DD8
  8
FUTO
 10
12179.46466917344
 20
13156.79557719562
 30
0.0
 11
12177.64289217344
 21
13158.98474544658
 31
0.0
  0
LINE
  5
7DD9
  8
FUTO
 10
12179.46466917344
 20
12823.173893446579
 30
0.0
 11
12172.96466917344
 21
12815.36298044658
 31
0.0
  0
LINE
  5
7DDA
  8
FUTO
 10
12179.46466917344
 20
12823.173893446579
 30
0.0
 11
12179.46466917344
 21
12929.98480644658
 31
0.0
  0
LINE
  5
7DDB
  8
FUTO
 10
11772.464669173451
 20
12823.173893446579
 30
0.0
 11
11772.46466917344
 21
13156.795577195609
 31
0.0
  0
ARC
  5
7DDC
  8
FUTO
 10
12053.96466917344
 20
12716.48480644658
 30
0.0
 40
2.0
 50
270.0
 51
0.000000000000007
  0
ARC
  5
7DDD
  8
FUTO
 10
12058.96466917344
 20
12726.637882446579
 30
0.0
 40
2.9999599999999988
 50
92.999557000035409
 51
180.0
  0
LINE
  5
7DDE
  8
FUTO
 10
12055.96466917344
 20
12726.637882446579
 30
0.0
 11
12055.96466917344
 21
12716.48480644658
 31
0.0
  0
ARC
  5
7DDF
  8
FUTO
 10
12155.06061717344
 20
12770.27045144658
 30
0.0
 40
9.9999679999999991
 50
315.0
 51
358.00067099997602
  0
ARC
  5
7DE0
  8
FUTO
 10
12128.06745317344
 20
12743.277286446581
 30
0.0
 40
10.000024
 50
272.99903899998708
 51
315.0
  0
LINE
  5
7DE1
  8
FUTO
 10
12162.13166217344
 20
12763.19940644658
 30
0.0
 11
12135.138497173441
 21
12736.20624244658
 31
0.0
  0
LINE
  5
7DE2
  8
FUTO
 10
12165.96466917344
 20
12795.98480644658
 30
0.0
 11
12165.05451317344
 21
12769.92157444658
 31
0.0
  0
LINE
  5
7DE3
  8
FUTO
 10
12128.590646173439
 20
12733.29095844658
 30
0.0
 11
12039.99933717344
 21
12728.64813644658
 31
0.0
  0
LINE
  5
7DE4
  8
FUTO
 10
12137.96466917344
 20
12805.98480644658
 30
0.0
 11
11813.96466917344
 21
12805.98480644658
 31
0.0
  0
LINE
  5
7DE5
  8
FUTO
 10
12137.96466917344
 20
12795.98480644658
 30
0.0
 11
12137.96466917344
 21
12800.98480644658
 31
0.0
  0
LINE
  5
7DE6
  8
FUTO
 10
12137.96466917344
 20
12800.98480644658
 30
0.0
 11
12137.96466917344
 21
12805.98480644658
 31
0.0
  0
LINE
  5
7DE7
  8
FUTO
 10
12172.96466917344
 20
12815.36298044658
 30
0.0
 11
12137.96466917344
 21
12805.98480644658
 31
0.0
  0
ARC
  5
7DE8
  8
FUTO
 10
12159.46466917344
 20
13205.458134446581
 30
0.0
 40
20.0
 50
0.000000000000007
 51
20.000046000015271
  0
ARC
  5
7DE9
  8
FUTO
 10
12188.46466917344
 20
13242.733524446579
 30
0.0
 40
20.0
 50
180.0
 51
199.99972500000979
  0
LINE
  5
7DEA
  8
FUTO
 10
12123.61359517344
 20
13187.48474544658
 30
0.0
 11
12127.36652517344
 21
13193.98474544658
 31
0.0
  0
LINE
  5
7DEB
  8
FUTO
 10
12127.36652517344
 20
13193.98474544658
 30
0.0
 11
12123.61359517344
 21
13200.48474544658
 31
0.0
  0
LINE
  5
7DEC
  8
FUTO
 10
12178.258615173439
 20
13212.29858844658
 30
0.0
 11
12169.67072417344
 21
13235.89319244658
 31
0.0
  0
LINE
  5
7DED
  8
FUTO
 10
12179.46466917344
 20
13158.98474544658
 30
0.0
 11
12179.46466917344
 21
13205.458134446581
 31
0.0
  0
LINE
  5
7DEE
  8
FUTO
 10
12112.35529417344
 20
13193.98474544658
 30
0.0
 11
12116.10822417344
 21
13200.48474544658
 31
0.0
  0
LINE
  5
7DEF
  8
FUTO
 10
12116.10822417344
 20
13187.48474544658
 30
0.0
 11
12112.35529417344
 21
13193.98474544658
 31
0.0
  0
LINE
  5
7DF0
  8
CT
 10
12119.86091017344
 20
13186.542606446579
 30
0.0
 11
12119.86091017344
 21
13200.99866144658
 31
0.0
  0
LINE
  5
7DF1
  8
CT
 10
12111.47028517344
 20
13193.98474544658
 30
0.0
 11
12128.29181817344
 21
13193.98474544658
 31
0.0
  0
LINE
  5
7DF2
  8
FUTO
 10
12116.10822417344
 20
13200.48474544658
 30
0.0
 11
12123.61359517344
 21
13200.48474544658
 31
0.0
  0
LINE
  5
7DF3
  8
FUTO
 10
12116.10822417344
 20
13187.48474544658
 30
0.0
 11
12123.61359517344
 21
13187.48474544658
 31
0.0
  0
CIRCLE
  5
7DF4
  8
FUTO
 10
12119.86091017344
 20
13193.98474544658
 30
0.0
 40
6.5
  0
ARC
  5
7DF5
  8
FUTO
 10
12153.46466917344
 20
13303.67383244658
 30
0.0
 40
15.0
 50
0.000000000000007
 51
29.999817000004409
  0
ARC
  5
7DF6
  8
FUTO
 10
12133.07795117344
 20
13358.98474544658
 30
0.0
 40
4.9999580000000003
 50
30.000281999998801
 51
90.000000000000028
  0
LINE
  5
7DF7
  8
FUTO
 10
12137.408029173441
 20
13361.48474544658
 30
0.0
 11
12166.45514817344
 21
13311.17383244658
 31
0.0
  0
LINE
  5
7DF8
  8
FUTO
 10
12168.46466917344
 20
13242.733524446579
 30
0.0
 11
12168.46466917344
 21
13303.67383244658
 31
0.0
  0
LINE
  5
7DF9
  8
FUTO
 10
11783.46466917344
 20
13242.733524446579
 30
0.0
 11
11783.46466917344
 21
13303.67383244658
 31
0.0
  0
LINE
  5
7DFA
  8
CT
 10
11975.96466917344
 20
12544.48480644658
 30
0.0
 11
11975.96466917344
 21
13383.98480644658
 31
0.0
  0
LINE
  5
7DFB
  8
FUTO
 10
11818.31470517344
 20
13363.98480644658
 30
0.0
 11
12133.105019173439
 21
13363.98480644658
 31
0.0
  0
LINE
  5
7DFC
  8
FUTO
 10
12168.46466917344
 20
13304.88476944658
 30
0.0
 11
11783.513741173439
 21
13304.88476944658
 31
0.0
  0
LINE
  5
7DFD
  8
FUTO
 10
11814.52130917344
 20
13361.48474544658
 30
0.0
 11
11785.47419017344
 21
13311.17383244658
 31
0.0
  0
ARC
  5
7DFE
  8
FUTO
 10
11818.851387173439
 20
13358.98474544658
 30
0.0
 40
4.9999580000000003
 50
90.000000000000028
 51
149.99971800000111
  0
ARC
  5
7DFF
  8
FUTO
 10
11798.46466917344
 20
13303.67383244658
 30
0.0
 40
15.0
 50
150.00018299999559
 51
180.0
  0
LINE
  5
7E00
  8
FUTO
 10
12053.96466917344
 20
12714.48480644658
 30
0.0
 11
11975.96466917344
 21
12714.48480644658
 31
0.0
  0
LINE
  5
7E01
  8
FUTO
 10
12165.96466917344
 20
12795.98480644658
 30
0.0
 11
11975.96466917344
 21
12795.98480644658
 31
0.0
  0
LINE
  5
7E02
  8
FUTO
 10
12137.96466917344
 20
12800.98480644658
 30
0.0
 11
11975.96466917344
 21
12800.98480644658
 31
0.0
  0
LINE
  5
7E03
  8
FUTO
 10
11783.14728617344
 20
13239.18469644658
 30
0.0
 11
12168.46466917344
 21
13239.18469644658
 31
0.0
  0
LINE
  5
7E04
  8
FUTO
 10
11772.778145173441
 20
13208.98474544658
 30
0.0
 11
12179.151289372319
 21
13208.98474544658
 31
0.0
  0
LINE
  5
7E05
  8
FUTO
 10
11772.464669173451
 20
13158.98474544658
 30
0.0
 11
12177.64289217344
 21
13158.98474544658
 31
0.0
  0
LINE
  5
7E06
  8
FUTO
 10
12137.96466917344
 20
12800.98480644658
 30
0.0
 11
11975.96466917344
 21
12800.98480644658
 31
0.0
  0
CIRCLE
  5
7E07
  8
FUTO
 10
11832.068428173439
 20
13193.98474544658
 30
0.0
 40
6.5
  0
LINE
  5
7E08
  8
FUTO
 10
11835.821114173439
 20
13187.48474544658
 30
0.0
 11
11828.31574317344
 21
13187.48474544658
 31
0.0
  0
LINE
  5
7E09
  8
FUTO
 10
11835.821114173439
 20
13200.48474544658
 30
0.0
 11
11828.31574317344
 21
13200.48474544658
 31
0.0
  0
LINE
  5
7E0A
  8
CT
 10
11840.459053173439
 20
13193.98474544658
 30
0.0
 11
11823.637520173441
 21
13193.98474544658
 31
0.0
  0
LINE
  5
7E0B
  8
CT
 10
11832.068428173439
 20
13186.542606446579
 30
0.0
 11
11832.068428173439
 21
13200.99866144658
 31
0.0
  0
LINE
  5
7E0C
  8
FUTO
 10
11835.821114173439
 20
13187.48474544658
 30
0.0
 11
11839.57404417344
 21
13193.98474544658
 31
0.0
  0
LINE
  5
7E0D
  8
FUTO
 10
11839.57404417344
 20
13193.98474544658
 30
0.0
 11
11835.821114173439
 21
13200.48474544658
 31
0.0
  0
LINE
  5
7E0E
  8
FUTO
 10
11772.464669173451
 20
13158.98474544658
 30
0.0
 11
11772.464669173451
 21
13205.458134446581
 31
0.0
  0
LINE
  5
7E0F
  8
FUTO
 10
11773.67072317344
 20
13212.29858844658
 30
0.0
 11
11782.258614173439
 21
13235.89319244658
 31
0.0
  0
LINE
  5
7E10
  8
FUTO
 10
11824.562813173439
 20
13193.98474544658
 30
0.0
 11
11828.31574317344
 21
13200.48474544658
 31
0.0
  0
LINE
  5
7E11
  8
FUTO
 10
11828.31574317344
 20
13187.48474544658
 30
0.0
 11
11824.562813173439
 21
13193.98474544658
 31
0.0
  0
ARC
  5
7E12
  8
FUTO
 10
11763.46466917344
 20
13242.733524446579
 30
0.0
 40
20.0
 50
340.00027499999021
 51
0.000000000000007
  0
ARC
  5
7E13
  8
FUTO
 10
11792.46466917344
 20
13205.458134446581
 30
0.0
 40
20.0
 50
159.99995399998471
 51
180.0
  0
LINE
  5
7E14
  8
FUTO
 10
11772.464669173451
 20
13156.79557719562
 30
0.0
 11
11774.286446173441
 21
13158.98474544658
 31
0.0
  0
LINE
  5
7E15
  8
FUTO
 10
11813.96466917344
 20
12800.98480644658
 30
0.0
 11
11975.96466917344
 21
12800.98480644658
 31
0.0
  0
LINE
  5
7E16
  8
FUTO
 10
11823.33869217344
 20
12733.29095844658
 30
0.0
 11
11911.930001173439
 21
12728.64813644658
 31
0.0
  0
LINE
  5
7E17
  8
FUTO
 10
11785.96466917344
 20
12795.98480644658
 30
0.0
 11
11975.96466917344
 21
12795.98480644658
 31
0.0
  0
LINE
  5
7E18
  8
FUTO
 10
11813.96466917344
 20
12800.98480644658
 30
0.0
 11
11975.96466917344
 21
12800.98480644658
 31
0.0
  0
LINE
  5
7E19
  8
FUTO
 10
12005.96466917344
 20
12704.48480644658
 30
0.0
 11
12005.96466917344
 21
12564.48480644658
 31
0.0
  0
LINE
  5
7E1A
  8
FUTO
 10
11945.96466917344
 20
12704.48480644658
 30
0.0
 11
11945.96466917344
 21
12564.48480644658
 31
0.0
  0
LINE
  5
7E1B
  8
FUTO
 10
11897.96466917344
 20
12714.48480644658
 30
0.0
 11
11975.96466917344
 21
12714.48480644658
 31
0.0
  0
LINE
  5
7E1C
  8
FUTO
 10
12008.46466917344
 20
12704.48480644658
 30
0.0
 11
11943.46466917344
 21
12704.48480644658
 31
0.0
  0
LINE
  5
7E1D
  8
FUTO
 10
12008.46466917344
 20
12704.48480644658
 30
0.0
 11
12008.46466917344
 21
12714.48480644658
 31
0.0
  0
LINE
  5
7E1E
  8
FUTO
 10
11943.46466917344
 20
12704.48480644658
 30
0.0
 11
11943.46466917344
 21
12714.48480644658
 31
0.0
  0
LINE
  5
7E1F
  8
FUTO
 10
11895.96466917344
 20
12726.637882446579
 30
0.0
 11
11895.96466917344
 21
12716.48480644658
 31
0.0
  0
ARC
  5
7E20
  8
FUTO
 10
11892.96466917344
 20
12726.637882446579
 30
0.0
 40
2.9999599999999988
 50
0.000000000000007
 51
87.000443000016659
  0
ARC
  5
7E21
  8
FUTO
 10
11897.96466917344
 20
12716.48480644658
 30
0.0
 40
2.0
 50
180.0
 51
270.0
  0
LINE
  5
7E22
  8
FUTO
 10
11945.96466917344
 20
12564.48480644658
 30
0.0
 11
12005.96466917344
 21
12564.48480644658
 31
0.0
  0
LINE
  5
7E23
  8
FUTO
 10
11772.464669173451
 20
12823.173893446579
 30
0.0
 11
11778.96466917344
 21
12815.36298044658
 31
0.0
  0
LINE
  5
7E24
  8
FUTO
 10
11785.96466917344
 20
12795.98480644658
 30
0.0
 11
11786.87482517344
 21
12769.92157444658
 31
0.0
  0
LINE
  5
7E25
  8
FUTO
 10
11778.96466917344
 20
12815.36298044658
 30
0.0
 11
11813.96466917344
 21
12805.98480644658
 31
0.0
  0
LINE
  5
7E26
  8
FUTO
 10
11813.96466917344
 20
12800.98480644658
 30
0.0
 11
11813.96466917344
 21
12805.98480644658
 31
0.0
  0
LINE
  5
7E27
  8
FUTO
 10
11813.96466917344
 20
12795.98480644658
 30
0.0
 11
11813.96466917344
 21
12800.98480644658
 31
0.0
  0
LINE
  5
7E28
  8
FUTO
 10
11789.797676173441
 20
12763.19940644658
 30
0.0
 11
11816.790841173441
 21
12736.20624244658
 31
0.0
  0
ARC
  5
7E29
  8
FUTO
 10
11823.861885173441
 20
12743.277286446581
 30
0.0
 40
10.000024
 50
225.0
 51
267.00096100001281
  0
ARC
  5
7E2A
  8
FUTO
 10
11796.86872117344
 20
12770.27045144658
 30
0.0
 40
9.9999679999999991
 50
181.99932900002389
 51
225.0
  0
CIRCLE
  5
7E2B
  8
FUTO
 10
11975.96466917344
 20
9553.9531069810873
 30
0.0
 40
30.0
  0
LINE
  5
7E2C
  8
FUTO
 10
14564.79372733116
 20
9373.9531069810891
 30
0.0
 11
14579.47315825547
 21
9373.9531069810891
 31
0.0
  0
LINE
  5
7E2D
  8
FUTO
 10
14567.473219255469
 20
9353.9531069810873
 30
0.0
 11
14602.473219255469
 21
9353.9531069810873
 31
0.0
  0
LINE
  5
7E2E
  8
FUTO
 10
14240.15271117978
 20
9373.9531069810891
 30
0.0
 11
14225.473219255469
 21
9373.9531069810891
 31
0.0
  0
LINE
  5
7E2F
  8
FUTO
 10
14237.473219255469
 20
9353.9531069810873
 30
0.0
 11
14202.473219255469
 21
9353.9531069810873
 31
0.0
  0
LINE
  5
7E30
  8
CT
 10
12135.96466917344
 20
9343.9531069810873
 30
0.0
 11
12135.96466917344
 21
9273.9531069810873
 31
0.0
  0
LINE
  5
7E31
  8
FUTO
 10
14302.473219255469
 20
9348.9531069810873
 30
0.0
 11
14302.473219255469
 21
9353.9531069810873
 31
0.0
  0
LINE
  5
7E32
  8
FUTO
 10
14502.473219255469
 20
9353.9531069810873
 30
0.0
 11
14502.473219255469
 21
9348.9531069810873
 31
0.0
  0
LINE
  5
7E33
  8
FUTO
 10
14572.473219255469
 20
9348.9531069810873
 30
0.0
 11
14572.473219255469
 21
9353.9531069810873
 31
0.0
  0
LINE
  5
7E34
  8
FUTO
 10
14572.473219255469
 20
9348.9531069810873
 30
0.0
 11
14567.473219255469
 21
9348.9531069810873
 31
0.0
  0
LINE
  5
7E35
  8
FUTO
 10
14522.473219255469
 20
9348.9531069810873
 30
0.0
 11
14522.473219255469
 21
9353.9531069810873
 31
0.0
  0
LINE
  5
7E36
  8
FUTO
 10
14527.473219255469
 20
9348.9531069810873
 30
0.0
 11
14522.473219255469
 21
9348.9531069810873
 31
0.0
  0
LINE
  5
7E37
  8
FUTO
 10
14277.473219255469
 20
9348.9531069810873
 30
0.0
 11
14282.473219255469
 21
9348.9531069810873
 31
0.0
  0
LINE
  5
7E38
  8
FUTO
 10
14232.473219255469
 20
9348.9531069810873
 30
0.0
 11
14237.473219255469
 21
9348.9531069810873
 31
0.0
  0
LINE
  5
7E39
  8
FUTO
 10
14282.473219255469
 20
9348.9531069810873
 30
0.0
 11
14282.473219255469
 21
9353.9531069810873
 31
0.0
  0
LINE
  5
7E3A
  8
FUTO
 10
14232.473219255469
 20
9348.9531069810873
 30
0.0
 11
14232.473219255469
 21
9353.9531069810873
 31
0.0
  0
LINE
  5
7E3B
  8
FUTO
 10
11907.96466917344
 20
9353.9531069810873
 30
0.0
 11
11907.96466917344
 21
9348.9531069810873
 31
0.0
  0
LINE
  5
7E3C
  8
FUTO
 10
12043.964791173439
 20
9348.9531069810873
 30
0.0
 11
12043.964791173439
 21
9353.9531069810873
 31
0.0
  0
LINE
  5
7E3D
  8
FUTO
 10
14257.473219255469
 20
9382.4286929810878
 30
0.0
 11
14241.473219255469
 21
9373.1913889810894
 31
0.0
  0
LINE
  5
7E3E
  8
FUTO
 10
14273.473219255469
 20
9373.1913889810894
 30
0.0
 11
14257.473219255469
 21
9382.4286929810878
 31
0.0
  0
LINE
  5
7E3F
  8
FUTO
 10
14257.473219255469
 20
9345.4784979810865
 30
0.0
 11
14241.473219255469
 21
9354.7158029810871
 31
0.0
  0
LINE
  5
7E40
  8
FUTO
 10
14273.473219255469
 20
9354.7158029810871
 30
0.0
 11
14257.473219255469
 21
9345.4784979810865
 31
0.0
  0
LINE
  5
7E41
  8
CT
 10
14227.473219255469
 20
9363.9531069810873
 30
0.0
 11
14287.473219255469
 21
9363.9531069810873
 31
0.0
  0
CIRCLE
  5
7E42
  8
FUTO
 10
14257.473219255469
 20
9363.9531069810873
 30
0.0
 40
16.0
  0
LINE
  5
7E43
  8
FUTO
 10
14273.473219255469
 20
9354.7158029810871
 30
0.0
 11
14273.473219255469
 21
9373.1913889810894
 31
0.0
  0
LINE
  5
7E44
  8
FUTO
 10
14241.473219255469
 20
9354.7158029810871
 30
0.0
 11
14241.473219255469
 21
9373.1913889810894
 31
0.0
  0
ARC
  5
7E45
  8
FUTO
 10
14257.473219255469
 20
9363.9531069810873
 30
0.0
 40
20.0
 50
0.000000000000007
 51
180.0
  0
ARC
  5
7E46
  8
FUTO
 10
14150.473219255469
 20
9320.9531069810873
 30
0.0
 40
3.0
 50
90.0
 51
180.0
  0
LINE
  5
7E47
  8
FUTO
 10
14199.348219255469
 20
9323.9531069810873
 30
0.0
 11
14150.473219255469
 21
9323.9531069810873
 31
0.0
  0
LINE
  5
7E48
  8
FUTO
 10
14204.473219255469
 20
9293.9531069810873
 30
0.0
 11
14204.473219255469
 21
9298.9531069810873
 31
0.0
  0
LINE
  5
7E49
  8
FUTO
 10
14194.473219255469
 20
9305.9531069810873
 30
0.0
 11
14194.473219255469
 21
9298.9531069810873
 31
0.0
  0
LINE
  5
7E4A
  8
FUTO
 10
14204.473219255469
 20
9293.9531069810873
 30
0.0
 11
14147.473219255469
 21
9293.9531069810873
 31
0.0
  0
LINE
  5
7E4B
  8
FUTO
 10
14147.473219255469
 20
9293.9531069810873
 30
0.0
 11
14147.473219255469
 21
9320.9531069810873
 31
0.0
  0
LINE
  5
7E4C
  8
CT
 10
14172.473219255469
 20
9343.9531069810873
 30
0.0
 11
14172.473219255469
 21
9273.9531069810873
 31
0.0
  0
LINE
  5
7E4D
  8
FUTO
 10
14194.473219255469
 20
9305.9531069810873
 30
0.0
 11
14237.473219255469
 21
9305.9531069810873
 31
0.0
  0
LINE
  5
7E4E
  8
FUTO
 10
14202.473219255469
 20
9353.9531069810873
 30
0.0
 11
14197.473219255469
 21
9305.9531069810873
 31
0.0
  0
LINE
  5
7E4F
  8
FUTO
 10
14277.473219255469
 20
9363.9531069810873
 30
0.0
 11
14277.473219255469
 21
9298.9531069810873
 31
0.0
  0
LINE
  5
7E50
  8
FUTO
 10
14237.473219255469
 20
9298.9531069810873
 30
0.0
 11
14237.473219255469
 21
9363.9531069810873
 31
0.0
  0
LINE
  5
7E51
  8
CT
 10
14257.473219255469
 20
9288.9531069810873
 30
0.0
 11
14257.473219255469
 21
9393.9531069810855
 31
0.0
  0
LINE
  5
7E52
  8
FUTO
 10
14531.473219255469
 20
9373.1913889810894
 30
0.0
 11
14547.473219255469
 21
9382.4286929810878
 31
0.0
  0
LINE
  5
7E53
  8
FUTO
 10
14531.473219255469
 20
9354.7158029810871
 30
0.0
 11
14547.473219255469
 21
9345.4784979810865
 31
0.0
  0
LINE
  5
7E54
  8
FUTO
 10
14531.473219255469
 20
9354.7158029810871
 30
0.0
 11
14531.473219255469
 21
9373.1913889810894
 31
0.0
  0
LINE
  5
7E55
  8
FUTO
 10
14563.473219255469
 20
9354.7158029810871
 30
0.0
 11
14563.473219255469
 21
9373.1913889810894
 31
0.0
  0
CIRCLE
  5
7E56
  8
FUTO
 10
14547.473219255469
 20
9363.9531069810873
 30
0.0
 40
16.0
  0
LINE
  5
7E57
  8
FUTO
 10
14547.473219255469
 20
9382.4286929810878
 30
0.0
 11
14563.473219255469
 21
9373.1913889810894
 31
0.0
  0
LINE
  5
7E58
  8
FUTO
 10
14547.473219255469
 20
9345.4784979810865
 30
0.0
 11
14563.473219255469
 21
9354.7158029810871
 31
0.0
  0
ARC
  5
7E59
  8
FUTO
 10
14547.473219255469
 20
9363.9531069810873
 30
0.0
 40
20.0
 50
0.000000000000007
 51
180.0
  0
LINE
  5
7E5A
  8
CT
 10
14577.473219255469
 20
9363.9531069810873
 30
0.0
 11
14517.473219255469
 21
9363.9531069810873
 31
0.0
  0
LINE
  5
7E5B
  8
FUTO
 10
14302.473219255469
 20
9348.9531069810873
 30
0.0
 11
14502.473219255469
 21
9348.9531069810873
 31
0.0
  0
LINE
  5
7E5C
  8
FUTO
 10
14600.473219255469
 20
9293.9531069810873
 30
0.0
 11
14600.473219255469
 21
9298.9531069810873
 31
0.0
  0
LINE
  5
7E5D
  8
FUTO
 10
14610.473219255469
 20
9305.9531069810873
 30
0.0
 11
14610.473219255469
 21
9298.9531069810873
 31
0.0
  0
LINE
  5
7E5E
  8
FUTO
 10
14610.473219255469
 20
9305.9531069810873
 30
0.0
 11
14567.473219255469
 21
9305.9531069810873
 31
0.0
  0
LINE
  5
7E5F
  8
CT
 10
14632.473219255469
 20
9343.9531069810873
 30
0.0
 11
14632.473219255469
 21
9273.9531069810873
 31
0.0
  0
ARC
  5
7E60
  8
FUTO
 10
14654.473219255469
 20
9320.9531069810873
 30
0.0
 40
3.0
 50
0.000000000000007
 51
90.0
  0
LINE
  5
7E61
  8
FUTO
 10
14657.473219255469
 20
9293.9531069810873
 30
0.0
 11
14657.473219255469
 21
9320.9531069810873
 31
0.0
  0
LINE
  5
7E62
  8
FUTO
 10
14605.598219255469
 20
9323.9531069810873
 30
0.0
 11
14654.473219255469
 21
9323.9531069810873
 31
0.0
  0
LINE
  5
7E63
  8
FUTO
 10
14600.473219255469
 20
9293.9531069810873
 30
0.0
 11
14657.473219255469
 21
9293.9531069810873
 31
0.0
  0
LINE
  5
7E64
  8
FUTO
 10
14602.473219255469
 20
9353.9531069810873
 30
0.0
 11
14607.473219255469
 21
9305.9531069810873
 31
0.0
  0
LINE
  5
7E65
  8
FUTO
 10
14527.473219255469
 20
9363.9531069810873
 30
0.0
 11
14527.473219255469
 21
9298.9531069810873
 31
0.0
  0
LINE
  5
7E66
  8
FUTO
 10
14567.473219255469
 20
9298.9531069810873
 30
0.0
 11
14567.473219255469
 21
9363.9531069810873
 31
0.0
  0
LINE
  5
7E67
  8
CT
 10
14547.473219255469
 20
9288.9531069810873
 30
0.0
 11
14547.473219255469
 21
9393.9531069810855
 31
0.0
  0
LINE
  5
7E68
  8
FUTO
 10
12335.419259173441
 20
9373.6581849810882
 30
0.0
 11
12337.01923517344
 21
9372.0585759810874
 31
0.0
  0
LINE
  5
7E69
  8
FUTO
 10
12335.419259173441
 20
9373.6581849810882
 30
0.0
 11
12337.01923517344
 21
9375.2587709810887
 31
0.0
  0
LINE
  5
7E6A
  8
FUTO
 10
12335.419259173441
 20
9373.6581849810882
 30
0.0
 11
12323.31928417344
 21
9373.6581849810882
 31
0.0
  0
LINE
  5
7E6B
  8
FUTO
 10
12337.019113173439
 20
9379.9433419810866
 30
0.0
 11
12335.41913717344
 21
9381.5429509810874
 31
0.0
  0
LINE
  5
7E6C
  8
FUTO
 10
12335.419259173441
 20
9381.5429509810874
 30
0.0
 11
12323.31928417344
 21
9381.5429509810874
 31
0.0
  0
LINE
  5
7E6D
  8
FUTO
 10
12335.419259173441
 20
9354.2480289810865
 30
0.0
 11
12337.01923517344
 21
9355.8486149810888
 31
0.0
  0
LINE
  5
7E6E
  8
FUTO
 10
12335.419259173441
 20
9354.2480289810865
 30
0.0
 11
12337.01923517344
 21
9352.6484199810875
 31
0.0
  0
LINE
  5
7E6F
  8
FUTO
 10
12335.419259173441
 20
9354.2480289810865
 30
0.0
 11
12323.31928417344
 21
9354.2480289810865
 31
0.0
  0
LINE
  5
7E70
  8
FUTO
 10
12335.419259173441
 20
9346.3632639810876
 30
0.0
 11
12323.31928417344
 21
9346.3632639810876
 31
0.0
  0
LINE
  5
7E71
  8
FUTO
 10
12335.419259173441
 20
9346.3632639810876
 30
0.0
 11
12337.01923517344
 21
9347.9638489810877
 31
0.0
  0
LINE
  5
7E72
  8
FUTO
 10
12337.019113173439
 20
9379.9433419810866
 30
0.0
 11
12337.019113173439
 21
9347.9638489810877
 31
0.0
  0
LINE
  5
7E73
  8
FUTO
 10
12323.31916217344
 20
9381.5429509810874
 30
0.0
 11
12323.31916217344
 21
9346.3632639810876
 31
0.0
  0
LINE
  5
7E74
  8
HOSO
 10
12260.964791173439
 20
9356.9531069810873
 30
0.0
 11
12323.31891817344
 21
9356.9531069810873
 31
0.0
  0
LINE
  5
7E75
  8
FUTO
 10
12260.964791173439
 20
9372.9531069810873
 30
0.0
 11
12323.31891817344
 21
9372.9531069810873
 31
0.0
  0
LINE
  5
7E76
  8
HOSO
 10
12323.31916217344
 20
9370.9531069810873
 30
0.0
 11
12260.964791173439
 21
9370.9531069810873
 31
0.0
  0
LINE
  5
7E77
  8
FUTO
 10
12323.31916217344
 20
9354.9531069810873
 30
0.0
 11
12260.964791173439
 21
9354.9531069810873
 31
0.0
  0
LINE
  5
7E78
  8
FUTO
 10
12164.96466917344
 20
9370.9531069810873
 30
0.0
 11
12166.96466917344
 21
9372.9531069810873
 31
0.0
  0
LINE
  5
7E79
  8
HOSO
 10
12228.79812450678
 20
9370.9531069810873
 30
0.0
 11
12164.964792173439
 21
9370.9531069810873
 31
0.0
  0
LINE
  5
7E7A
  8
FUTO
 10
12166.96466917344
 20
9372.9531069810873
 30
0.0
 11
12229.131457840111
 21
9372.9531069810873
 31
0.0
  0
LINE
  5
7E7B
  8
FUTO
 10
12166.96466917344
 20
9354.9531069810873
 30
0.0
 11
12164.96466917344
 21
9356.9531069810873
 31
0.0
  0
LINE
  5
7E7C
  8
FUTO
 10
12226.131457840111
 20
9354.9531069810873
 30
0.0
 11
12166.96466917344
 21
9354.9531069810873
 31
0.0
  0
LINE
  5
7E7D
  8
HOSO
 10
12164.96466917344
 20
9356.9531069810873
 30
0.0
 11
12226.464791173439
 21
9356.9531069810873
 31
0.0
  0
LINE
  5
7E7E
  8
FUTO
 10
12166.96466917344
 20
9372.9531069810873
 30
0.0
 11
12166.96466917344
 21
9354.9531069810873
 31
0.0
  0
LINE
  5
7E7F
  8
FUTO
 10
12230.964791173439
 20
9383.9531069810873
 30
0.0
 11
12225.964791173439
 21
9353.9531069810873
 31
0.0
  0
LINE
  5
7E80
  8
FUTO
 10
11907.96466917344
 20
9348.9531069810873
 30
0.0
 11
12043.964791173439
 21
9348.9531069810873
 31
0.0
  0
LINE
  5
7E81
  8
FUTO
 10
12227.964791173439
 20
9353.9531069810873
 30
0.0
 11
12043.964791173439
 21
9353.9531069810873
 31
0.0
  0
LINE
  5
7E82
  8
FUTO
 10
12230.964791173439
 20
9383.9531069810873
 30
0.0
 11
12260.964791173439
 21
9383.9531069810873
 31
0.0
  0
LINE
  5
7E83
  8
CT
 10
12164.96466917344
 20
9363.9531069810873
 30
0.0
 11
12347.019113173439
 21
9363.9531069810873
 31
0.0
  0
LINE
  5
7E84
  8
FUTO
 10
12235.964791173439
 20
9298.9531069810873
 30
0.0
 11
12260.964791173439
 21
9298.9531069810873
 31
0.0
  0
LINE
  5
7E85
  8
FUTO
 10
12232.964791173439
 20
9305.9531069810873
 30
0.0
 11
12235.964791173439
 21
9305.9531069810873
 31
0.0
  0
LINE
  5
7E86
  8
FUTO
 10
12235.964791173439
 20
9305.9531069810873
 30
0.0
 11
12235.964791173439
 21
9298.9531069810873
 31
0.0
  0
ARC
  5
7E87
  8
FUTO
 10
12182.96503517344
 20
9320.9531069810873
 30
0.0
 40
3.0
 50
0.000000000000007
 51
90.002335000001153
  0
LINE
  5
7E88
  8
FUTO
 10
12185.964791173439
 20
9293.9531069810873
 30
0.0
 11
12185.964791173439
 21
9320.9531069810873
 31
0.0
  0
ARC
  5
7E89
  8
FUTO
 10
12088.964791173439
 20
9320.9531069810873
 30
0.0
 40
3.0
 50
89.997664999998861
 51
180.0
  0
LINE
  5
7E8A
  8
FUTO
 10
12085.964791173439
 20
9293.9531069810873
 30
0.0
 11
12085.964791173439
 21
9320.9531069810873
 31
0.0
  0
LINE
  5
7E8B
  8
FUTO
 10
12088.964791173439
 20
9323.9531069810873
 30
0.0
 11
12182.964791173439
 21
9323.9531069810873
 31
0.0
  0
LINE
  5
7E8C
  8
FUTO
 10
12085.964791173439
 20
9293.9531069810873
 30
0.0
 11
12185.964791173439
 21
9293.9531069810873
 31
0.0
  0
LINE
  5
7E8D
  8
FUTO
 10
12235.964791173439
 20
9298.9531069810873
 30
0.0
 11
12185.964791173439
 21
9298.9531069810873
 31
0.0
  0
LINE
  5
7E8E
  8
FUTO
 10
12227.964791173439
 20
9353.9531069810873
 30
0.0
 11
12232.964791173439
 21
9305.9531069810873
 31
0.0
  0
LINE
  5
7E8F
  8
FUTO
 10
12260.964791173439
 20
9383.9531069810873
 30
0.0
 11
12260.964791173439
 21
9298.9531069810873
 31
0.0
  0
LINE
  5
7E90
  8
FUTO
 10
11786.96466917344
 20
9370.9531069810873
 30
0.0
 11
11784.96466917344
 21
9372.9531069810873
 31
0.0
  0
LINE
  5
7E91
  8
HOSO
 10
11723.13139684011
 20
9370.9531069810873
 30
0.0
 11
11786.96466917344
 21
9370.9531069810873
 31
0.0
  0
LINE
  5
7E92
  8
FUTO
 10
11784.96466917344
 20
9372.9531069810873
 30
0.0
 11
11722.79806350678
 21
9372.9531069810873
 31
0.0
  0
LINE
  5
7E93
  8
FUTO
 10
11784.96466917344
 20
9354.9531069810873
 30
0.0
 11
11786.96466917344
 21
9356.9531069810873
 31
0.0
  0
LINE
  5
7E94
  8
FUTO
 10
11725.79806350678
 20
9354.9531069810873
 30
0.0
 11
11784.96466917344
 21
9354.9531069810873
 31
0.0
  0
LINE
  5
7E95
  8
HOSO
 10
11786.96466917344
 20
9356.9531069810873
 30
0.0
 11
11725.46473017344
 21
9356.9531069810873
 31
0.0
  0
LINE
  5
7E96
  8
FUTO
 10
11784.96466917344
 20
9372.9531069810873
 30
0.0
 11
11784.96466917344
 21
9354.9531069810873
 31
0.0
  0
LINE
  5
7E97
  8
FUTO
 10
11720.96473017344
 20
9383.9531069810873
 30
0.0
 11
11725.96473017344
 21
9353.9531069810873
 31
0.0
  0
LINE
  5
7E98
  8
FUTO
 10
11690.96473017344
 20
9372.9531069810873
 30
0.0
 11
11628.610177173439
 21
9372.9531069810873
 31
0.0
  0
LINE
  5
7E99
  8
HOSO
 10
11628.61023817344
 20
9370.9531069810873
 30
0.0
 11
11690.96473017344
 21
9370.9531069810873
 31
0.0
  0
LINE
  5
7E9A
  8
HOSO
 10
11690.96473017344
 20
9356.9531069810891
 30
0.0
 11
11628.610177173439
 21
9356.9531069810873
 31
0.0
  0
LINE
  5
7E9B
  8
FUTO
 10
11628.61023817344
 20
9354.9531069810873
 30
0.0
 11
11690.96473017344
 21
9354.9531069810873
 31
0.0
  0
LINE
  5
7E9C
  8
FUTO
 10
11628.61023817344
 20
9381.5429509810874
 30
0.0
 11
11628.61023817344
 21
9346.3632639810876
 31
0.0
  0
LINE
  5
7E9D
  8
FUTO
 10
11616.51026217344
 20
9373.6581849810882
 30
0.0
 11
11614.910287173439
 21
9372.0585759810874
 31
0.0
  0
LINE
  5
7E9E
  8
FUTO
 10
11616.51026217344
 20
9373.6581849810882
 30
0.0
 11
11614.910287173439
 21
9375.2587709810887
 31
0.0
  0
LINE
  5
7E9F
  8
FUTO
 10
11614.910287173439
 20
9379.9433419810866
 30
0.0
 11
11616.51026217344
 21
9381.5429509810874
 31
0.0
  0
LINE
  5
7EA0
  8
FUTO
 10
11616.51026217344
 20
9354.2480289810865
 30
0.0
 11
11614.910287173439
 21
9355.8486149810888
 31
0.0
  0
LINE
  5
7EA1
  8
FUTO
 10
11616.51026217344
 20
9354.2480289810865
 30
0.0
 11
11614.910287173439
 21
9352.6484199810875
 31
0.0
  0
LINE
  5
7EA2
  8
FUTO
 10
11616.51026217344
 20
9346.3632639810876
 30
0.0
 11
11614.910287173439
 21
9347.9638489810877
 31
0.0
  0
LINE
  5
7EA3
  8
FUTO
 10
11614.910287173439
 20
9379.9433419810866
 30
0.0
 11
11614.910287173439
 21
9347.9638489810877
 31
0.0
  0
LINE
  5
7EA4
  8
FUTO
 10
11616.51026217344
 20
9354.2480289810865
 30
0.0
 11
11628.61023817344
 21
9354.2480289810865
 31
0.0
  0
LINE
  5
7EA5
  8
FUTO
 10
11616.51026217344
 20
9373.6581849810882
 30
0.0
 11
11628.61023817344
 21
9373.6581849810882
 31
0.0
  0
LINE
  5
7EA6
  8
FUTO
 10
11616.51026217344
 20
9346.3632639810876
 30
0.0
 11
11628.61023817344
 21
9346.3632639810876
 31
0.0
  0
LINE
  5
7EA7
  8
FUTO
 10
11616.51026217344
 20
9381.5429509810874
 30
0.0
 11
11628.61023817344
 21
9381.5429509810874
 31
0.0
  0
LINE
  5
7EA8
  8
FUTO
 10
11720.96473017344
 20
9383.9531069810873
 30
0.0
 11
11690.96473017344
 21
9383.9531069810873
 31
0.0
  0
LINE
  5
7EA9
  8
CT
 10
11786.96466917344
 20
9363.9531069810873
 30
0.0
 11
11604.910287173439
 21
9363.9531069810873
 31
0.0
  0
ARC
  5
7EAA
  8
FUTO
 10
11862.964791173439
 20
9320.9531069810873
 30
0.0
 40
2.999938999999999
 50
0.000000000000007
 51
90.001166999976832
  0
LINE
  5
7EAB
  8
FUTO
 10
11865.96466917344
 20
9293.9531069810873
 30
0.0
 11
11865.96466917344
 21
9320.9531069810873
 31
0.0
  0
ARC
  5
7EAC
  8
FUTO
 10
11768.96466917344
 20
9320.9531069810873
 30
0.0
 40
3.0
 50
89.998832999971086
 51
180.0
  0
LINE
  5
7EAD
  8
FUTO
 10
11718.96473017344
 20
9305.9531069810873
 30
0.0
 11
11715.96473017344
 21
9305.9531069810873
 31
0.0
  0
LINE
  5
7EAE
  8
FUTO
 10
11715.96473017344
 20
9305.9531069810873
 30
0.0
 11
11715.96473017344
 21
9298.9531069810873
 31
0.0
  0
LINE
  5
7EAF
  8
FUTO
 10
11715.96473017344
 20
9298.9531069810873
 30
0.0
 11
11765.96466917344
 21
9298.9531069810873
 31
0.0
  0
LINE
  5
7EB0
  8
FUTO
 10
11765.96466917344
 20
9293.9531069810873
 30
0.0
 11
11765.96466917344
 21
9320.9531069810873
 31
0.0
  0
LINE
  5
7EB1
  8
FUTO
 10
11862.96466917344
 20
9323.9531069810873
 30
0.0
 11
11768.96466917344
 21
9323.9531069810873
 31
0.0
  0
LINE
  5
7EB2
  8
FUTO
 10
11865.96466917344
 20
9293.9531069810873
 30
0.0
 11
11765.96466917344
 21
9293.9531069810873
 31
0.0
  0
LINE
  5
7EB3
  8
FUTO
 10
11715.96473017344
 20
9298.9531069810873
 30
0.0
 11
11690.96473017344
 21
9298.9531069810873
 31
0.0
  0
LINE
  5
7EB4
  8
FUTO
 10
11723.96473017344
 20
9353.9531069810873
 30
0.0
 11
11718.96473017344
 21
9305.9531069810873
 31
0.0
  0
LINE
  5
7EB5
  8
FUTO
 10
11690.96473017344
 20
9383.9531069810873
 30
0.0
 11
11690.96473017344
 21
9298.9531069810873
 31
0.0
  0
LINE
  5
7EB6
  8
CT
 10
11815.96466917344
 20
9343.9531069810873
 30
0.0
 11
11815.96466917344
 21
9273.9531069810873
 31
0.0
  0
LINE
  5
7EB7
  8
FUTO
 10
11723.96473017344
 20
9353.9531069810873
 30
0.0
 11
11907.96466917344
 21
9353.9531069810873
 31
0.0
  0
LINE
  5
7EB8
  8
FUTO
 10
11865.96466917344
 20
9298.9531069810873
 30
0.0
 11
12085.96466917344
 21
9298.9531069810873
 31
0.0
  0
LINE
  5
7EB9
  8
FUTO
 10
14277.473219255469
 20
9305.9531069810873
 30
0.0
 11
14527.473219255469
 21
9305.9531069810873
 31
0.0
  0
LINE
  5
7EBA
  8
FUTO
 10
14194.473219255469
 20
9298.9531069810873
 30
0.0
 11
14610.473219255469
 21
9298.9531069810873
 31
0.0
  0
LINE
  5
7EBB
  8
FUTO
 10
14218.473219255469
 20
9715.9531069810891
 30
0.0
 11
14218.473219255469
 21
9678.9531069810873
 31
0.0
  0
ARC
  5
7EBC
  8
FUTO
 10
14182.758864255469
 20
9733.0490549810875
 30
0.0
 40
9.9999679999999991
 50
91.999329000023934
 51
135.0
  0
ARC
  5
7EBD
  8
FUTO
 10
14155.765699255469
 20
9706.0558909810861
 30
0.0
 40
10.000024
 50
135.0
 51
177.00096100001281
  0
LINE
  5
7EBE
  8
FUTO
 10
14175.68781925547
 20
9740.1200999810862
 30
0.0
 11
14148.694655255469
 21
9713.1269349810864
 31
0.0
  0
LINE
  5
7EBF
  8
FUTO
 10
14208.473219255469
 20
9715.9531069810891
 30
0.0
 11
14213.473219255469
 21
9715.9531069810891
 31
0.0
  0
LINE
  5
7EC0
  8
FUTO
 10
14213.473219255469
 20
9715.9531069810891
 30
0.0
 11
14218.473219255469
 21
9715.9531069810891
 31
0.0
  0
LINE
  5
7EC1
  8
FUTO
 10
14227.851393255471
 20
9750.9531069810873
 30
0.0
 11
14218.473219255469
 21
9715.9531069810891
 31
0.0
  0
LINE
  5
7EC2
  8
FUTO
 10
14208.473219255469
 20
9743.9531069810873
 30
0.0
 11
14182.409987255471
 21
9743.0429509810874
 31
0.0
  0
LINE
  5
7EC3
  8
FUTO
 10
14183.473219255469
 20
9705.6484199810875
 30
0.0
 11
14208.473219255469
 21
9705.6484199810875
 31
0.0
  0
LINE
  5
7EC4
  8
FUTO
 10
14243.473219255469
 20
9763.9531069810873
 30
0.0
 11
14227.851393255471
 21
9750.9531069810873
 31
0.0
  0
LINE
  5
7EC5
  8
FUTO
 10
13976.973219255469
 20
9587.9531069810873
 30
0.0
 11
13976.973219255469
 21
9523.9531069810873
 31
0.0
  0
ARC
  5
7EC6
  8
FUTO
 10
14128.973219255469
 20
9631.9531069810873
 30
0.0
 40
2.0
 50
90.0
 51
180.0
  0
LINE
  5
7EC7
  8
FUTO
 10
14176.213209255469
 20
9684.7153139810871
 30
0.0
 11
14183.473219255469
 21
9684.7153139810871
 31
0.0
  0
LINE
  5
7EC8
  8
FUTO
 10
14176.213209255469
 20
9679.9843569810873
 30
0.0
 11
14183.473219255469
 21
9679.9843569810873
 31
0.0
  0
LINE
  5
7EC9
  8
CT
 10
14187.64485025547
 20
9674.1613589810877
 30
0.0
 11
14172.07063125547
 21
9674.1613589810877
 31
0.0
  0
LINE
  5
7ECA
  8
FUTO
 10
14176.213209255469
 20
9679.9843569810873
 30
0.0
 11
14175.253248255471
 21
9680.9443179810878
 31
0.0
  0
LINE
  5
7ECB
  8
FUTO
 10
14176.213209255469
 20
9679.9843569810873
 30
0.0
 11
14175.253248255471
 21
9679.0243959810869
 31
0.0
  0
LINE
  5
7ECC
  8
FUTO
 10
14176.213209255469
 20
9684.7153139810871
 30
0.0
 11
14175.253248255471
 21
9683.7553529810866
 31
0.0
  0
LINE
  5
7ECD
  8
FUTO
 10
14175.253248255471
 20
9668.9531069810873
 30
0.0
 11
14170.56281925547
 21
9668.9531069810873
 31
0.0
  0
LINE
  5
7ECE
  8
FUTO
 10
14176.213209255469
 20
9663.6071599810875
 30
0.0
 11
14183.473219255469
 21
9663.6071599810875
 31
0.0
  0
LINE
  5
7ECF
  8
FUTO
 10
14176.213209255469
 20
9668.3381169810873
 30
0.0
 11
14183.473219255469
 21
9668.3381169810873
 31
0.0
  0
LINE
  5
7ED0
  8
FUTO
 10
14175.253248255471
 20
9664.5673649810888
 30
0.0
 11
14176.213209255469
 21
9663.6071599810875
 31
0.0
  0
LINE
  5
7ED1
  8
FUTO
 10
14176.213209255469
 20
9668.3381169810873
 30
0.0
 11
14175.253248255471
 21
9667.3781559810905
 31
0.0
  0
LINE
  5
7ED2
  8
FUTO
 10
14176.213209255469
 20
9668.3381169810873
 30
0.0
 11
14175.253248255471
 21
9669.2980779810878
 31
0.0
  0
LINE
  5
7ED3
  8
FUTO
 10
14183.473219255469
 20
9663.6071599810875
 30
0.0
 11
14183.473219255469
 21
9684.7153139810871
 31
0.0
  0
LINE
  5
7ED4
  8
FUTO
 10
14175.253248255471
 20
9664.5673649810888
 30
0.0
 11
14175.253248255471
 21
9683.7553529810866
 31
0.0
  0
ARC
  5
7ED5
  8
FUTO
 10
14228.473219255469
 20
9678.9531069810873
 30
0.0
 40
10.0
 50
90.0
 51
180.0
  0
LINE
  5
7ED6
  8
FUTO
 10
14183.473219255469
 20
9684.1742989810882
 30
0.0
 11
14208.473219255469
 21
9684.1742989810882
 31
0.0
  0
LINE
  5
7ED7
  8
FUTO
 10
14183.473219255469
 20
9660.3688789810876
 30
0.0
 11
14208.473219255469
 21
9660.3688789810876
 31
0.0
  0
ARC
  5
7ED8
  8
FUTO
 10
14139.12629525547
 20
9636.9531069810873
 30
0.0
 40
2.9999599999999988
 50
270.0
 51
357.00044300001662
  0
LINE
  5
7ED9
  8
FUTO
 10
14139.12629525547
 20
9633.9531069810873
 30
0.0
 11
14128.973219255469
 21
9633.9531069810873
 31
0.0
  0
LINE
  5
7EDA
  8
FUTO
 10
14086.973219255469
 20
9587.9531069810873
 30
0.0
 11
14086.973219255469
 21
9583.9531069810873
 31
0.0
  0
LINE
  5
7EDB
  8
FUTO
 10
14116.973219255469
 20
9586.4531069810873
 30
0.0
 11
14126.973219255469
 21
9586.4531069810873
 31
0.0
  0
LINE
  5
7EDC
  8
FUTO
 10
14116.973219255469
 20
9521.4531069810873
 30
0.0
 11
14126.973219255469
 21
9521.4531069810873
 31
0.0
  0
LINE
  5
7EDD
  8
FUTO
 10
14116.973219255469
 20
9521.4531069810873
 30
0.0
 11
14116.973219255469
 21
9586.4531069810873
 31
0.0
  0
ARC
  5
7EDE
  8
FUTO
 10
14228.473219255469
 20
9578.9531069810873
 30
0.0
 40
10.0
 50
180.0
 51
270.0
  0
LINE
  5
7EDF
  8
FUTO
 10
14126.973219255469
 20
9631.9531069810873
 30
0.0
 11
14126.973219255469
 21
9553.9531069810873
 31
0.0
  0
LINE
  5
7EE0
  8
FUTO
 10
14218.473219255469
 20
9578.9531069810873
 30
0.0
 11
14218.473219255469
 21
9678.9531069810873
 31
0.0
  0
LINE
  5
7EE1
  8
FUTO
 10
14116.973219255469
 20
9583.9531069810873
 30
0.0
 11
13976.973219255469
 21
9583.9531069810873
 31
0.0
  0
LINE
  5
7EE2
  8
FUTO
 10
14116.973219255469
 20
9523.9531069810873
 30
0.0
 11
13976.973219255469
 21
9523.9531069810873
 31
0.0
  0
LINE
  5
7EE3
  8
FUTO
 10
14086.973219255469
 20
9587.9531069810873
 30
0.0
 11
13976.973219255469
 21
9587.9531069810873
 31
0.0
  0
LINE
  5
7EE4
  8
FUTO
 10
14213.473219255469
 20
9715.9531069810891
 30
0.0
 11
14213.473219255469
 21
9553.9531069810873
 31
0.0
  0
LINE
  5
7EE5
  8
FUTO
 10
14208.473219255469
 20
9743.9531069810873
 30
0.0
 11
14208.473219255469
 21
9553.9531069810873
 31
0.0
  0
LINE
  5
7EE6
  8
FUTO
 10
14145.77937125547
 20
9706.5790839810888
 30
0.0
 11
14141.136549255471
 21
9617.9877749810876
 31
0.0
  0
LINE
  5
7EE7
  8
FUTO
 10
14183.473219255469
 20
9705.6484199810875
 30
0.0
 11
14183.473219255469
 21
9660.3688789810876
 31
0.0
  0
LINE
  5
7EE8
  8
FUTO
 10
14213.473219255469
 20
9715.9531069810891
 30
0.0
 11
14213.473219255469
 21
9553.9531069810873
 31
0.0
  0
ARC
  5
7EE9
  8
FUTO
 10
14391.23823425547
 20
9772.2322209810882
 30
0.0
 40
2.9999909999999992
 50
96.115172999988943
 51
174.80557099997009
  0
LINE
  5
7EEA
  8
FUTO
 10
14388.250563255469
 20
9772.5038279810888
 30
0.0
 11
14387.473219255469
 21
9763.9531069810873
 31
0.0
  0
ARC
  5
7EEB
  8
FUTO
 10
14381.514845255469
 20
9764.6829049810876
 30
0.0
 40
5.9999760000000002
 50
354.80557299999322
 51
54.396263000016731
  0
ARC
  5
7EEC
  8
FUTO
 10
14413.70820425547
 20
9772.2322209810882
 30
0.0
 40
2.999981
 50
5.194427000006832
 51
83.884827000011072
  0
ARC
  5
7EED
  8
FUTO
 10
14402.473219255469
 20
9793.9531069810873
 30
0.0
 40
30.0
 50
305.19004800002568
 51
305.60386699999998
  0
LINE
  5
7EEE
  8
FUTO
 10
14402.473219255469
 20
9776.4531069810873
 30
0.0
 11
14414.02778425547
 21
9775.2151309810888
 31
0.0
  0
LINE
  5
7EEF
  8
FUTO
 10
14416.695875255469
 20
9772.5038279810888
 30
0.0
 11
14417.473219255469
 21
9763.9531069810873
 31
0.0
  0
ARC
  5
7EF0
  8
FUTO
 10
14423.431593255469
 20
9764.6829049810876
 30
0.0
 40
5.9999820000000001
 50
125.6037369999832
 51
185.19442700000681
  0
LINE
  5
7EF1
  8
FUTO
 10
14402.473219255469
 20
9776.4531069810873
 30
0.0
 11
14390.918654255471
 21
9775.2151309810888
 31
0.0
  0
LINE
  5
7EF2
  8
FUTO
 10
14390.918654255471
 20
9775.2151309810888
 30
0.0
 11
14414.02778425547
 21
9775.2151309810888
 31
0.0
  0
LINE
  5
7EF3
  8
CT
 10
14442.473219255469
 20
9793.9531069810873
 30
0.0
 11
14362.473219255469
 21
9793.9531069810873
 31
0.0
  0
LINE
  5
7EF4
  8
FUTO
 10
14343.473219255469
 20
9702.9531069810873
 30
0.0
 11
14461.473219255469
 21
9702.9531069810873
 31
0.0
  0
CIRCLE
  5
7EF5
  8
FUTO
 10
14402.473219255469
 20
9793.9531069810873
 30
0.0
 40
17.5
  0
ARC
  5
7EF6
  8
FUTO
 10
14402.473219255469
 20
9793.9531069810873
 30
0.0
 40
30.0
 50
305.60386699999998
 51
234.39614899998969
  0
LINE
  5
7EF7
  8
FUTO
 10
14561.47315825547
 20
9763.9531069810873
 30
0.0
 11
14571.47315825547
 21
9755.6313299810863
 31
0.0
  0
ARC
  5
7EF8
  8
FUTO
 10
14617.946547255469
 20
9737.4531069810873
 30
0.0
 40
20.0
 50
69.99995399998474
 51
90.0
  0
ARC
  5
7EF9
  8
FUTO
 10
14655.22193725547
 20
9766.4531069810891
 30
0.0
 40
20.0
 50
250.00027499999021
 51
270.0
  0
LINE
  5
7EFA
  8
FUTO
 10
14599.97315825547
 20
9701.6020329810872
 30
0.0
 11
14606.47315825547
 21
9705.3549629810877
 31
0.0
  0
LINE
  5
7EFB
  8
FUTO
 10
14606.47315825547
 20
9705.3549629810877
 30
0.0
 11
14612.97315825547
 21
9701.6020329810872
 31
0.0
  0
LINE
  5
7EFC
  8
FUTO
 10
14624.78700125547
 20
9756.2470529810871
 30
0.0
 11
14648.38160525547
 21
9747.6591619810861
 31
0.0
  0
LINE
  5
7EFD
  8
FUTO
 10
14571.47315825547
 20
9757.4531069810873
 30
0.0
 11
14617.946547255469
 21
9757.4531069810873
 31
0.0
  0
LINE
  5
7EFE
  8
FUTO
 10
14561.47315825547
 20
9763.9531069810873
 30
0.0
 11
14402.473219255469
 21
9763.9531069810873
 31
0.0
  0
LINE
  5
7EFF
  8
FUTO
 10
14464.47315825547
 20
9695.9531069810873
 30
0.0
 11
14340.473219255469
 21
9695.9531069810873
 31
0.0
  0
ARC
  5
7F00
  8
FUTO
 10
14340.473219255469
 20
9521.2553529810866
 30
0.0
 40
20.0
 50
180.0
 51
270.0
  0
CIRCLE
  5
7F01
  8
FUTO
 10
14402.473219255469
 20
9488.2553529810866
 30
0.0
 40
3.5
  0
LINE
  5
7F02
  8
CT
 10
14408.92610025547
 20
9488.2553529810866
 30
0.0
 11
14394.336989255469
 21
9488.2553529810866
 31
0.0
  0
LINE
  5
7F03
  8
FUTO
 10
14340.473219255469
 20
9501.2553529810884
 30
0.0
 11
14464.473219255469
 21
9501.2553529810884
 31
0.0
  0
LINE
  5
7F04
  8
FUTO
 10
14461.47315825547
 20
9481.2553529810866
 30
0.0
 11
14343.473219255469
 21
9481.2553529810866
 31
0.0
  0
LINE
  5
7F05
  8
FUTO
 10
14320.473219255469
 20
9675.9531069810873
 30
0.0
 11
14320.473219255469
 21
9521.2553529810866
 31
0.0
  0
LINE
  5
7F06
  8
FUTO
 10
14313.473219255469
 20
9672.9531069810873
 30
0.0
 11
14313.473219255469
 21
9511.2553529810866
 31
0.0
  0
LINE
  5
7F07
  8
FUTO
 10
14571.47315825547
 20
9688.9531069810873
 30
0.0
 11
14486.85035525547
 21
9688.9531069810873
 31
0.0
  0
LINE
  5
7F08
  8
FUTO
 10
14606.47315825547
 20
9690.3437319810873
 30
0.0
 11
14612.97315825547
 21
9694.0966619810861
 31
0.0
  0
LINE
  5
7F09
  8
FUTO
 10
14599.97315825547
 20
9694.0966619810861
 30
0.0
 11
14606.47315825547
 21
9690.3437319810873
 31
0.0
  0
LINE
  5
7F0A
  8
CT
 10
14599.03101925547
 20
9697.8493479810877
 30
0.0
 11
14613.48707425547
 21
9697.8493479810877
 31
0.0
  0
LINE
  5
7F0B
  8
FUTO
 10
14571.47315825547
 20
9568.9531069810873
 30
0.0
 11
14491.47315825547
 21
9568.9531069810873
 31
0.0
  0
LINE
  5
7F0C
  8
FUTO
 10
14484.47315825547
 20
9675.9531069810873
 30
0.0
 11
14484.47315825547
 21
9521.2553529810866
 31
0.0
  0
LINE
  5
7F0D
  8
FUTO
 10
14491.47315825547
 20
9672.9531069810873
 30
0.0
 11
14491.47315825547
 21
9511.2553529810866
 31
0.0
  0
ARC
  5
7F0E
  8
FUTO
 10
14464.47315825547
 20
9521.2553529810866
 30
0.0
 40
20.0
 50
270.0
 51
0.000000000000007
  0
LINE
  5
7F0F
  8
CT
 10
14511.47315825547
 20
9628.9531069810873
 30
0.0
 11
14293.473219255469
 21
9628.9531069810873
 31
0.0
  0
ARC
  5
7F10
  8
FUTO
 10
14464.47315825547
 20
9675.9531069810873
 30
0.0
 40
20.0
 50
0.000000000000007
 51
90.0
  0
ARC
  5
7F11
  8
FUTO
 10
14340.473219255469
 20
9675.9531069810873
 30
0.0
 40
20.0
 50
90.0
 51
180.0
  0
ARC
  5
7F12
  8
FUTO
 10
14343.473219255469
 20
9672.9531069810873
 30
0.0
 40
30.0
 50
90.0
 51
180.0
  0
ARC
  5
7F13
  8
FUTO
 10
14461.47315825547
 20
9672.9531069810873
 30
0.0
 40
30.0
 50
0.000000000000007
 51
90.0
  0
LINE
  5
7F14
  8
CT
 10
14606.47315825547
 20
9689.4587229810877
 30
0.0
 11
14606.47315825547
 21
9706.280255981088
 31
0.0
  0
LINE
  5
7F15
  8
FUTO
 10
14612.97315825547
 20
9694.0966619810861
 30
0.0
 11
14612.97315825547
 21
9701.6020329810872
 31
0.0
  0
LINE
  5
7F16
  8
FUTO
 10
14599.97315825547
 20
9694.0966619810861
 30
0.0
 11
14599.97315825547
 21
9701.6020329810872
 31
0.0
  0
CIRCLE
  5
7F17
  8
FUTO
 10
14606.47315825547
 20
9697.8493479810877
 30
0.0
 40
6.5
  0
LINE
  5
7F18
  8
FUTO
 10
14243.473219255469
 20
9763.9531069810873
 30
0.0
 11
14402.473219255469
 21
9763.9531069810873
 31
0.0
  0
LINE
  5
7F19
  8
FUTO
 10
14228.473219255469
 20
9688.9531069810873
 30
0.0
 11
14318.09602225547
 21
9688.9531069810873
 31
0.0
  0
LINE
  5
7F1A
  8
FUTO
 10
14228.473219255469
 20
9568.9531069810873
 30
0.0
 11
14313.473219255469
 21
9568.9531069810873
 31
0.0
  0
ARC
  5
7F1B
  8
FUTO
 10
14128.973219255469
 20
9475.9531069810873
 30
0.0
 40
2.0
 50
180.0
 51
270.0
  0
ARC
  5
7F1C
  8
FUTO
 10
14139.12629525547
 20
9470.9531069810873
 30
0.0
 40
3.0
 50
2.9995570000354208
 51
90.0
  0
ARC
  5
7F1D
  8
FUTO
 10
14153.82282825547
 20
9438.9213689810877
 30
0.0
 40
10.000139999999989
 50
183.00042699998181
 51
225.00097699998821
  0
LINE
  5
7F1E
  8
FUTO
 10
14176.213209255469
 20
9444.2990549810875
 30
0.0
 11
14183.473219255469
 21
9444.2990549810875
 31
0.0
  0
LINE
  5
7F1F
  8
FUTO
 10
14176.213209255469
 20
9439.5680979810877
 30
0.0
 11
14183.473219255469
 21
9439.5680979810877
 31
0.0
  0
LINE
  5
7F20
  8
FUTO
 10
14175.253248255471
 20
9443.3388499810862
 30
0.0
 11
14176.213209255469
 21
9444.2990549810875
 31
0.0
  0
LINE
  5
7F21
  8
FUTO
 10
14176.213209255469
 20
9439.5680979810877
 30
0.0
 11
14175.253248255471
 21
9440.5280589810864
 31
0.0
  0
LINE
  5
7F22
  8
FUTO
 10
14176.213209255469
 20
9439.5680979810877
 30
0.0
 11
14175.253248255471
 21
9438.6081369810854
 31
0.0
  0
LINE
  5
7F23
  8
FUTO
 10
14176.213209255469
 20
9427.9218569810873
 30
0.0
 11
14183.473219255469
 21
9427.9218569810873
 31
0.0
  0
LINE
  5
7F24
  8
CT
 10
14187.64485025547
 20
9433.744854981087
 30
0.0
 11
14172.07063125547
 21
9433.744854981087
 31
0.0
  0
LINE
  5
7F25
  8
FUTO
 10
14176.213209255469
 20
9427.9218569810873
 30
0.0
 11
14175.253248255471
 21
9426.9618959810869
 31
0.0
  0
LINE
  5
7F26
  8
FUTO
 10
14176.213209255469
 20
9427.9218569810873
 30
0.0
 11
14175.253248255471
 21
9428.8818179810878
 31
0.0
  0
LINE
  5
7F27
  8
FUTO
 10
14175.253248255471
 20
9443.3388499810862
 30
0.0
 11
14175.253248255471
 21
9424.150860981088
 31
0.0
  0
LINE
  5
7F28
  8
FUTO
 10
14183.473219255469
 20
9423.7319159810868
 30
0.0
 11
14208.473219255469
 21
9423.7319159810868
 31
0.0
  0
LINE
  5
7F29
  8
FUTO
 10
14183.473219255469
 20
9447.5373359810874
 30
0.0
 11
14208.473219255469
 21
9447.5373359810874
 31
0.0
  0
LINE
  5
7F2A
  8
FUTO
 10
14176.213209255469
 20
9423.1908999810876
 30
0.0
 11
14183.473219255469
 21
9423.1908999810876
 31
0.0
  0
ARC
  5
7F2B
  8
FUTO
 10
14182.61530925547
 20
9410.1288889810876
 30
0.0
 40
10.0
 50
225.0
 51
270.0
  0
ARC
  5
7F2C
  8
FUTO
 10
14155.765699255469
 20
9401.8503239810852
 30
0.0
 40
9.9999679999999991
 50
182.9990540000266
 51
225.0
  0
LINE
  5
7F2D
  8
FUTO
 10
14218.473219255469
 20
9402.1923649810888
 30
0.0
 11
14237.561842255471
 21
9402.1923649810888
 31
0.0
  0
LINE
  5
7F2E
  8
FUTO
 10
14219.50910825547
 20
9391.9531069810873
 30
0.0
 11
14213.473219255469
 21
9391.9531069810873
 31
0.0
  0
LINE
  5
7F2F
  8
FUTO
 10
14208.473219255469
 20
9391.9531069810873
 30
0.0
 11
14213.473219255469
 21
9391.9531069810873
 31
0.0
  0
ARC
  5
7F30
  8
FUTO
 10
14225.473219255469
 20
9370.9531069810873
 30
0.0
 40
3.0
 50
90.0
 51
180.0
  0
ARC
  5
7F31
  8
FUTO
 10
14232.561842255471
 20
9378.9531069810873
 30
0.0
 40
5.0
 50
270.0
 51
0.000000000000007
  0
LINE
  5
7F32
  8
FUTO
 10
14218.473219255469
 20
9395.0795719810885
 30
0.0
 11
14221.031813255469
 21
9395.0795719810885
 31
0.0
  0
LINE
  5
7F33
  8
FUTO
 10
14225.473219255469
 20
9373.9531069810891
 30
0.0
 11
14218.473219255469
 21
9395.0795719810885
 31
0.0
  0
LINE
  5
7F34
  8
FUTO
 10
14237.561842255471
 20
9378.9531069810873
 30
0.0
 11
14237.561842255471
 21
9402.1923649810888
 31
0.0
  0
LINE
  5
7F35
  8
FUTO
 10
14228.63142225547
 20
9373.9531069810891
 30
0.0
 11
14218.473219255469
 21
9402.1923649810888
 31
0.0
  0
LINE
  5
7F36
  8
FUTO
 10
14182.61530925547
 20
9400.1288889810876
 30
0.0
 11
14208.473219255469
 21
9400.1288889810876
 31
0.0
  0
LINE
  5
7F37
  8
FUTO
 10
14183.473219255469
 20
9402.2577949810875
 30
0.0
 11
14208.473219255469
 21
9402.2577949810875
 31
0.0
  0
LINE
  5
7F38
  8
FUTO
 10
14142.10456725547
 20
9471.4483469810875
 30
0.0
 11
14145.77937125547
 21
9401.3271309810862
 31
0.0
  0
LINE
  5
7F39
  8
FUTO
 10
14183.473219255469
 20
9402.2577949810875
 30
0.0
 11
14183.473219255469
 21
9447.5373359810874
 31
0.0
  0
LINE
  5
7F3A
  8
FUTO
 10
14175.54426425547
 20
9403.0578439810852
 30
0.0
 11
14146.751783255469
 21
9431.8500799810863
 31
0.0
  0
LINE
  5
7F3B
  8
FUTO
 10
14176.213209255469
 20
9423.1908999810876
 30
0.0
 11
14175.253248255471
 21
9424.150860981088
 31
0.0
  0
LINE
  5
7F3C
  8
FUTO
 10
14183.473219255469
 20
9444.2990549810875
 30
0.0
 11
14183.473219255469
 21
9423.1908999810876
 31
0.0
  0
LINE
  5
7F3D
  8
FUTO
 10
14139.12629525547
 20
9473.9531069810873
 30
0.0
 11
14128.973219255469
 21
9473.9531069810873
 31
0.0
  0
ARC
  5
7F3E
  8
FUTO
 10
14182.758864255469
 20
9374.8571599810875
 30
0.0
 40
9.9999839999999995
 50
225.0
 51
268.00067099997602
  0
LINE
  5
7F3F
  8
FUTO
 10
14208.473219255469
 20
9363.9531069810873
 30
0.0
 11
14182.409987255471
 21
9364.8632639810894
 31
0.0
  0
LINE
  5
7F40
  8
FUTO
 10
14222.473219255469
 20
9353.9531069810873
 30
0.0
 11
14222.473219255469
 21
9370.9531069810873
 31
0.0
  0
LINE
  5
7F41
  8
FUTO
 10
14175.68781925547
 20
9367.7861149810851
 30
0.0
 11
14148.694655255469
 21
9394.7792789810883
 31
0.0
  0
LINE
  5
7F42
  8
FUTO
 10
14362.87312125547
 20
9375.5610179810865
 30
0.0
 11
14282.473219255469
 21
9373.9531069810891
 31
0.0
  0
ARC
  5
7F43
  8
FUTO
 10
14377.473219255469
 20
9436.4492009810874
 30
0.0
 40
5.0
 50
0.000000000000007
 51
90.0
  0
ARC
  5
7F44
  8
FUTO
 10
14427.473219255469
 20
9436.4492009810874
 30
0.0
 40
5.0
 50
90.0
 51
180.0
  0
ARC
  5
7F45
  8
FUTO
 10
14442.47315825547
 20
9395.5571109810862
 30
0.0
 40
20.000091999999999
 50
180.0
 51
268.85427899999053
  0
LINE
  5
7F46
  8
FUTO
 10
14422.473219255469
 20
9436.4492009810874
 30
0.0
 11
14422.473219255469
 21
9395.5571109810862
 31
0.0
  0
LINE
  5
7F47
  8
FUTO
 10
14382.473219255469
 20
9436.4492009810874
 30
0.0
 11
14382.473219255469
 21
9395.5571109810862
 31
0.0
  0
ARC
  5
7F48
  8
FUTO
 10
14362.473219255469
 20
9395.5571109810862
 30
0.0
 40
20.0
 50
271.14572100000942
 51
0.000000000000007
  0
LINE
  5
7F49
  8
FUTO
 10
14302.473219255469
 20
9353.9531069810873
 30
0.0
 11
14302.473219255469
 21
9354.9531069810873
 31
0.0
  0
ARC
  5
7F4A
  8
FUTO
 10
14307.473219255469
 20
9354.9531069810873
 30
0.0
 40
5.0
 50
90.0
 51
180.0
  0
LINE
  5
7F4B
  8
FUTO
 10
14307.473219255469
 20
9359.9531069810873
 30
0.0
 11
14402.473219255469
 21
9359.9531069810873
 31
0.0
  0
ARC
  5
7F4C
  8
FUTO
 10
14579.47315825547
 20
9370.9531069810873
 30
0.0
 40
3.0
 50
0.000000000000007
 51
90.0
  0
LINE
  5
7F4D
  8
FUTO
 10
14522.47315825547
 20
9373.9531069810891
 30
0.0
 11
14530.15271117978
 21
9373.9531069810891
 31
0.0
  0
LINE
  5
7F4E
  8
FUTO
 10
14606.47315825547
 20
9417.5624819810873
 30
0.0
 11
14612.97315825547
 21
9413.8095529810871
 31
0.0
  0
LINE
  5
7F4F
  8
FUTO
 10
14599.97315825547
 20
9413.8095529810871
 30
0.0
 11
14606.47315825547
 21
9417.5624819810873
 31
0.0
  0
LINE
  5
7F50
  8
CT
 10
14599.03101925547
 20
9410.0568669810855
 30
0.0
 11
14613.48707425547
 21
9410.0568669810855
 31
0.0
  0
LINE
  5
7F51
  8
FUTO
 10
14599.97315825547
 20
9406.304181981086
 30
0.0
 11
14606.47315825547
 21
9402.5512519810873
 31
0.0
  0
LINE
  5
7F52
  8
FUTO
 10
14606.47315825547
 20
9402.5512519810873
 30
0.0
 11
14612.97315825547
 21
9406.304181981086
 31
0.0
  0
LINE
  5
7F53
  8
CT
 10
14606.47315825547
 20
9418.4474919810891
 30
0.0
 11
14606.47315825547
 21
9401.625958981087
 31
0.0
  0
LINE
  5
7F54
  8
FUTO
 10
14612.97315825547
 20
9413.8095529810871
 30
0.0
 11
14612.97315825547
 21
9406.304181981086
 31
0.0
  0
LINE
  5
7F55
  8
FUTO
 10
14599.97315825547
 20
9413.8095529810871
 30
0.0
 11
14599.97315825547
 21
9406.304181981086
 31
0.0
  0
CIRCLE
  5
7F56
  8
FUTO
 10
14606.47315825547
 20
9410.0568669810855
 30
0.0
 40
6.5
  0
ARC
  5
7F57
  8
FUTO
 10
14497.47315825547
 20
9354.9531069810873
 30
0.0
 40
5.0
 50
0.000000000000007
 51
90.0
  0
LINE
  5
7F58
  8
FUTO
 10
14502.47315825547
 20
9353.9531069810873
 30
0.0
 11
14502.47315825547
 21
9354.9531069810873
 31
0.0
  0
LINE
  5
7F59
  8
FUTO
 10
14502.47315825547
 20
9353.9531069810873
 30
0.0
 11
14527.473219255469
 21
9353.9531069810873
 31
0.0
  0
LINE
  5
7F5A
  8
FUTO
 10
14642.07923725547
 20
9357.9531069810873
 30
0.0
 11
14651.695204255469
 21
9361.4531069810873
 31
0.0
  0
LINE
  5
7F5B
  8
FUTO
 10
14642.07923725547
 20
9357.9531069810873
 30
0.0
 11
14582.47315825547
 21
9357.9531069810873
 31
0.0
  0
LINE
  5
7F5C
  8
FUTO
 10
14582.47315825547
 20
9353.9531069810873
 30
0.0
 11
14582.47315825547
 21
9370.9531069810873
 31
0.0
  0
LINE
  5
7F5D
  8
FUTO
 10
14442.073256255469
 20
9375.5610179810865
 30
0.0
 11
14522.47315825547
 21
9373.9531069810891
 31
0.0
  0
LINE
  5
7F5E
  8
FUTO
 10
14497.47315825547
 20
9359.9531069810873
 30
0.0
 11
14402.473219255469
 21
9359.9531069810873
 31
0.0
  0
LINE
  5
7F5F
  8
FUTO
 10
14282.473219255469
 20
9373.9531069810891
 30
0.0
 11
14274.79372733116
 21
9373.9531069810891
 31
0.0
  0
LINE
  5
7F60
  8
FUTO
 10
14302.473219255469
 20
9353.9531069810873
 30
0.0
 11
14277.473219255469
 21
9353.9531069810873
 31
0.0
  0
ARC
  5
7F61
  8
FUTO
 10
14461.47315825547
 20
9511.2553529810866
 30
0.0
 40
30.0
 50
270.0
 51
0.000000000000007
  0
ARC
  5
7F62
  8
FUTO
 10
14343.473219255469
 20
9511.2553529810866
 30
0.0
 40
30.0
 50
180.0
 51
270.0
  0
LINE
  5
7F63
  8
CT
 10
14402.473219255469
 20
9843.9531069810873
 30
0.0
 11
14402.473219255469
 21
9273.9531069810873
 31
0.0
  0
LINE
  5
7F64
  8
FUTO
 10
14213.473219255469
 20
9391.9531069810873
 30
0.0
 11
14213.473219255469
 21
9553.9531069810873
 31
0.0
  0
LINE
  5
7F65
  8
FUTO
 10
14571.47315825547
 20
9757.4531069810873
 30
0.0
 11
14571.47315825547
 21
9373.9531069810891
 31
0.0
  0
LINE
  5
7F66
  8
FUTO
 10
14621.47315825547
 20
9757.139630981088
 30
0.0
 11
14621.47315825547
 21
9357.9531069810873
 31
0.0
  0
LINE
  5
7F67
  8
FUTO
 10
14651.673109255469
 20
9746.7704899810888
 30
0.0
 11
14651.673109255469
 21
9361.4531069810873
 31
0.0
  0
LINE
  5
7F68
  8
FUTO
 10
14213.473219255469
 20
9391.9531069810873
 30
0.0
 11
14213.473219255469
 21
9553.9531069810873
 31
0.0
  0
LINE
  5
7F69
  8
FUTO
 10
14208.473219255469
 20
9363.9531069810873
 30
0.0
 11
14208.473219255469
 21
9553.9531069810873
 31
0.0
  0
LINE
  5
7F6A
  8
FUTO
 10
14126.973219255469
 20
9475.9531069810873
 30
0.0
 11
14126.973219255469
 21
9553.9531069810873
 31
0.0
  0
ARC
  5
7F6B
  8
FUTO
 10
14716.162245255469
 20
9731.4531069810873
 30
0.0
 40
15.0
 50
60.00018299999563
 51
90.0
  0
ARC
  5
7F6C
  8
FUTO
 10
14771.47315825547
 20
9711.0663889810876
 30
0.0
 40
4.9999580000000003
 50
0.000000000000007
 51
59.999718000001181
  0
LINE
  5
7F6D
  8
FUTO
 10
14773.97315825547
 20
9715.3964669810903
 30
0.0
 11
14723.662245255469
 21
9744.4435859810874
 31
0.0
  0
LINE
  5
7F6E
  8
FUTO
 10
12207.02448317344
 20
9700.1821109810899
 30
0.0
 11
12205.61689017344
 21
9699.4213689810877
 31
0.0
  0
ARC
  5
7F6F
  8
FUTO
 10
12207.499947173441
 20
9699.3022279810884
 30
0.0
 40
1.000079999999999
 50
28.39501399997588
 51
118.3855359999758
  0
ARC
  5
7F70
  8
FUTO
 10
12206.092354173439
 20
9698.541485981088
 30
0.0
 40
1.0001299999999991
 50
118.3855359999758
 51
208.3860319999763
  0
LINE
  5
7F71
  8
FUTO
 10
12126.186104173439
 20
9698.7082339810877
 30
0.0
 11
12127.034737173441
 21
9698.7082339810877
 31
0.0
  0
LINE
  5
7F72
  8
FUTO
 10
12126.186104173439
 20
9698.7082339810877
 30
0.0
 11
12126.186104173439
 21
9699.5568669810873
 31
0.0
  0
LINE
  5
7F73
  8
FUTO
 10
12118.432564173439
 20
9706.4618959810887
 30
0.0
 11
12114.84040117344
 21
9702.8698549810888
 31
0.0
  0
LINE
  5
7F74
  8
FUTO
 10
12119.28107517344
 20
9706.4618959810887
 30
0.0
 11
12118.432564173439
 21
9706.4618959810887
 31
0.0
  0
LINE
  5
7F75
  8
FUTO
 10
12120.71991817344
 20
9704.1745429810871
 30
0.0
 11
12120.71991817344
 21
9705.0231759810886
 31
0.0
  0
LINE
  5
7F76
  8
FUTO
 10
12120.71991817344
 20
9704.1745429810871
 30
0.0
 11
12117.12775517344
 21
9700.5825019810873
 31
0.0
  0
LINE
  5
7F77
  8
FUTO
 10
12120.71991817344
 20
9704.1745429810871
 30
0.0
 11
12121.568428173439
 21
9704.1745429810871
 31
0.0
  0
LINE
  5
7F78
  8
FUTO
 10
12322.020333173439
 20
9489.5236639810882
 30
0.0
 11
12324.81867317344
 21
9491.0361149810869
 31
0.0
  0
ARC
  5
7F79
  8
FUTO
 10
12326.371041173439
 20
9479.3713199810882
 30
0.0
 40
1.0001299999999991
 50
298.38552900002043
 51
28.382720999977689
  0
ARC
  5
7F7A
  8
FUTO
 10
11327.59381917344
 20
9565.4843569810873
 30
0.0
 40
1000.0
 50
355.7304690000102
 51
5.1562809999889501
  0
LINE
  5
7F7B
  8
FUTO
 10
12206.93378517344
 20
9694.8818179810896
 30
0.0
 11
12198.58734917344
 21
9690.3705879810896
 31
0.0
  0
ARC
  5
7F7C
  8
FUTO
 10
12200.96466917344
 20
9685.9719059810886
 30
0.0
 40
5.000062999999999
 50
118.3907549999861
 51
180.0
  0
LINE
  5
7F7D
  8
CT
 10
12178.519844173439
 20
9628.9531069810873
 30
0.0
 11
12214.95319417344
 21
9628.9531069810873
 31
0.0
  0
LINE
  5
7F7E
  8
FUTO
 10
12128.473458173439
 20
9696.420880981088
 30
0.0
 11
12124.881417173439
 21
9692.8288399810881
 31
0.0
  0
LINE
  5
7F7F
  8
FUTO
 10
12128.473458173439
 20
9696.420880981088
 30
0.0
 11
12128.473458173439
 21
9697.2695139810894
 31
0.0
  0
LINE
  5
7F80
  8
FUTO
 10
12196.95057017344
 20
9688.9531069810873
 30
0.0
 11
12128.23835017344
 21
9688.9531069810873
 31
0.0
  0
LINE
  5
7F81
  8
FUTO
 10
12195.96466917344
 20
9568.9531069810873
 30
0.0
 11
12178.91120217344
 21
9568.9531069810873
 31
0.0
  0
ARC
  5
7F82
  8
FUTO
 10
12214.79254917344
 20
9498.9531069810891
 30
0.0
 40
10.000057999999999
 50
187.1243290000296
 51
270.0
  0
LINE
  5
7F83
  8
FUTO
 10
12195.96466917344
 20
9568.9531069810873
 30
0.0
 11
12204.869698173439
 21
9497.7128729810884
 31
0.0
  0
LINE
  5
7F84
  8
FUTO
 10
12185.96466917344
 20
9568.9531069810873
 30
0.0
 11
12185.96466917344
 21
9688.9531069810873
 31
0.0
  0
LINE
  5
7F85
  8
FUTO
 10
12195.96466917344
 20
9568.9531069810873
 30
0.0
 11
12195.96466917344
 21
9685.9719059810886
 31
0.0
  0
LINE
  5
7F86
  8
FUTO
 10
12318.236702173441
 20
9488.9531069810873
 30
0.0
 11
12214.79254917344
 21
9488.9531069810873
 31
0.0
  0
LINE
  5
7F87
  8
FUTO
 10
12210.10077717344
 20
9696.5934879810902
 30
0.0
 11
12286.28400517344
 21
9691.6789369810886
 31
0.0
  0
ARC
  5
7F88
  8
FUTO
 10
12283.709053173439
 20
9651.7619449810882
 30
0.0
 40
40.000011000000001
 50
5.1563729999685757
 51
86.309097000000307
  0
LINE
  5
7F89
  8
FUTO
 10
12208.379708173439
 20
9699.7778139810871
 30
0.0
 11
12327.250801173441
 21
9479.8466619810879
 31
0.0
  0
LINE
  5
7F8A
  8
FUTO
 10
12114.84040117344
 20
9702.8698549810888
 30
0.0
 11
12124.881417173439
 21
9692.8288399810881
 31
0.0
  0
LINE
  5
7F8B
  8
CT
 10
12124.405709173439
 20
9702.3940249810894
 30
0.0
 11
12119.157540173441
 21
9697.1459779810884
 31
0.0
  0
LINE
  5
7F8C
  8
FUTO
 10
12119.28107517344
 20
9706.4618959810887
 30
0.0
 11
12128.473458173439
 21
9697.2695139810894
 31
0.0
  0
LINE
  5
7F8D
  8
FUTO
 10
12126.186104173439
 20
9698.7082339810877
 30
0.0
 11
12122.594063173439
 21
9695.1161929810896
 31
0.0
  0
ARC
  5
7F8E
  8
FUTO
 10
11975.96466917344
 20
9817.7031069810873
 30
0.0
 40
6.25
 50
0.000000000000007
 51
180.0
  0
LINE
  5
7F8F
  8
FUTO
 10
11992.561425173441
 20
9760.3719309810876
 30
0.0
 11
11992.40136017344
 21
9756.7881289810884
 31
0.0
  0
LINE
  5
7F90
  8
FUTO
 10
11982.21466917344
 20
9775.7834909810881
 30
0.0
 11
11987.51923417344
 21
9775.2151309810888
 31
0.0
  0
ARC
  5
7F91
  8
FUTO
 10
11987.199639173439
 20
9772.2322209810882
 30
0.0
 40
3.0000059999999991
 50
5.1944030000043186
 51
83.884536999966215
  0
LINE
  5
7F92
  8
FUTO
 10
11969.71466917344
 20
9775.7834909810881
 30
0.0
 11
11964.410103173441
 21
9775.2151309810888
 31
0.0
  0
ARC
  5
7F93
  8
FUTO
 10
11988.96466917344
 20
9760.9531069810873
 30
0.0
 40
3.0
 50
46.130962000013298
 51
90.0
  0
ARC
  5
7F94
  8
FUTO
 10
11975.96466917344
 20
9553.9531069810873
 30
0.0
 40
209.99987799999991
 50
86.233009000037313
 51
86.266975000016402
  0
ARC
  5
7F95
  8
FUTO
 10
11989.44187217344
 20
9760.5138369810902
 30
0.0
 40
3.0001099999999989
 50
86.265807999991665
 51
175.05505399999171
  0
ARC
  5
7F96
  8
FUTO
 10
11988.96466917344
 20
9760.9531069810873
 30
0.0
 40
3.0
 50
47.440357000007118
 51
90.0
  0
LINE
  5
7F97
  8
FUTO
 10
11986.45310217344
 20
9760.7723819810872
 30
0.0
 11
11986.14402017344
 21
9757.1982859810887
 31
0.0
  0
LINE
  5
7F98
  8
FUTO
 10
11965.47635717344
 20
9760.7723819810872
 30
0.0
 11
11965.78543917344
 21
9757.1982859810887
 31
0.0
  0
ARC
  5
7F99
  8
FUTO
 10
11966.71466917344
 20
9769.3857249810899
 30
0.0
 40
3.0
 50
270.0
 51
0.000000000000007
  0
ARC
  5
7F9A
  8
FUTO
 10
11985.21466917344
 20
9769.673932981088
 30
0.0
 40
3.0
 50
180.0
 51
270.0
  0
LINE
  5
7F9B
  8
FUTO
 10
11990.18732517344
 20
9772.5038279810888
 30
0.0
 11
11990.96466917344
 21
9763.9531069810873
 31
0.0
  0
ARC
  5
7F9C
  8
FUTO
 10
11989.564446173439
 20
9760.5058419810885
 30
0.0
 40
3.000081999999999
 50
357.44171099996208
 51
86.234252999979233
  0
ARC
  5
7F9D
  8
FUTO
 10
11975.96466917344
 20
9553.9531069810873
 30
0.0
 40
209.99998500000001
 50
93.732994000026736
 51
93.766990999962673
  0
ARC
  5
7F9E
  8
FUTO
 10
11962.365013173439
 20
9760.5057809810896
 30
0.0
 40
2.9999649999999991
 50
93.767860000028065
 51
182.55722000000901
  0
LINE
  5
7F9F
  8
FUTO
 10
11959.36803517344
 20
9760.3719309810876
 30
0.0
 11
11959.52809917344
 21
9756.7881289810884
 31
0.0
  0
LINE
  5
7FA0
  8
FUTO
 10
11961.742012173439
 20
9772.5038279810888
 30
0.0
 11
11960.96466917344
 21
9763.9531069810873
 31
0.0
  0
ARC
  5
7FA1
  8
FUTO
 10
11962.96466917344
 20
9760.9531069810873
 30
0.0
 40
3.0
 50
90.0
 51
133.88737499997529
  0
LINE
  5
7FA2
  8
FUTO
 10
11990.96466917344
 20
9763.9531069810873
 30
0.0
 11
11960.96466917344
 21
9763.9531069810873
 31
0.0
  0
ARC
  5
7FA3
  8
FUTO
 10
11962.96466917344
 20
9760.9531069810873
 30
0.0
 40
3.0
 50
90.0
 51
133.8315120000008
  0
ARC
  5
7FA4
  8
FUTO
 10
11964.72969917344
 20
9772.2322209810882
 30
0.0
 40
2.9999820000000001
 50
96.115463000033799
 51
174.80560300000801
  0
ARC
  5
7FA5
  8
FUTO
 10
11962.487465173441
 20
9760.5138369810902
 30
0.0
 40
3.0000490000000002
 50
4.9438900000065571
 51
93.731941000007794
  0
LINE
  5
7FA6
  8
FUTO
 10
11833.496895173441
 20
9706.4618959810887
 30
0.0
 11
11837.088936173441
 21
9702.8698549810888
 31
0.0
  0
LINE
  5
7FA7
  8
FUTO
 10
11833.496895173441
 20
9706.4618959810887
 30
0.0
 11
11832.648262173439
 21
9706.4618959810887
 31
0.0
  0
LINE
  5
7FA8
  8
FUTO
 10
11825.74323317344
 20
9698.7084779810884
 30
0.0
 11
11824.89460017344
 21
9698.7084779810884
 31
0.0
  0
LINE
  5
7FA9
  8
FUTO
 10
11825.74323317344
 20
9698.7084779810884
 30
0.0
 11
11825.74323317344
 21
9699.5568669810873
 31
0.0
  0
LINE
  5
7FAA
  8
FUTO
 10
11831.209542173439
 20
9704.1745429810871
 30
0.0
 11
11831.209542173439
 21
9705.0231759810886
 31
0.0
  0
LINE
  5
7FAB
  8
FUTO
 10
11831.209542173439
 20
9704.1745429810871
 30
0.0
 11
11830.36090917344
 21
9704.1745429810871
 31
0.0
  0
LINE
  5
7FAC
  8
FUTO
 10
11831.209542173439
 20
9704.1745429810871
 30
0.0
 11
11834.801583173439
 21
9700.5825019810873
 31
0.0
  0
LINE
  5
7FAD
  8
FUTO
 10
11969.71466917344
 20
9817.7031069810873
 30
0.0
 11
11969.71466917344
 21
9769.3857249810899
 31
0.0
  0
LINE
  5
7FAE
  8
FUTO
 10
11982.21466917344
 20
9817.7031069810873
 30
0.0
 11
11982.21466917344
 21
9769.673932981088
 31
0.0
  0
LINE
  5
7FAF
  8
FUTO
 10
11823.45588017344
 20
9696.420880981088
 30
0.0
 11
11827.04792117344
 21
9692.8288399810881
 31
0.0
  0
LINE
  5
7FB0
  8
FUTO
 10
11823.45588017344
 20
9697.2695139810894
 30
0.0
 11
11823.45588017344
 21
9696.420880981088
 31
0.0
  0
LINE
  5
7FB1
  8
FUTO
 10
11827.04792117344
 20
9692.8288399810881
 30
0.0
 11
11837.088936173441
 21
9702.8698549810888
 31
0.0
  0
LINE
  5
7FB2
  8
CT
 10
11827.523751173439
 20
9702.3940249810894
 30
0.0
 11
11832.77179817344
 21
9697.1459779810884
 31
0.0
  0
LINE
  5
7FB3
  8
FUTO
 10
11823.45588017344
 20
9697.2695139810894
 30
0.0
 11
11832.648262173439
 21
9706.4618959810887
 31
0.0
  0
LINE
  5
7FB4
  8
FUTO
 10
11825.74323317344
 20
9698.7084779810884
 30
0.0
 11
11829.33527417344
 21
9695.1161929810896
 31
0.0
  0
LINE
  5
7FB5
  8
CT
 10
11752.46466917344
 20
9553.9531069810873
 30
0.0
 11
12199.46466917344
 21
9553.9531069810873
 31
0.0
  0
ARC
  5
7FB6
  8
FUTO
 10
14771.47315825547
 20
9396.8398259810874
 30
0.0
 40
5.0
 50
300.00027499997202
 51
0.000000000000007
  0
ARC
  5
7FB7
  8
FUTO
 10
12324.963448173439
 20
9478.6105779810878
 30
0.0
 40
1.000079999999999
 50
208.39501999997901
 51
298.38552900002043
  0
ARC
  5
7FB8
  8
FUTO
 10
14716.162245255469
 20
9376.4531069810855
 30
0.0
 40
15.000085
 50
270.0
 51
299.99981700000433
  0
LINE
  5
7FB9
  8
FUTO
 10
14773.97315825547
 20
9392.5097479810865
 30
0.0
 11
14723.662245255469
 21
9363.4626289810876
 31
0.0
  0
ARC
  5
7FBA
  8
FUTO
 10
12159.96466917344
 20
9428.2797679810883
 30
0.0
 40
5.0
 50
0.000000000000007
 51
55.056338999992313
  0
LINE
  5
7FBB
  8
FUTO
 10
12162.828560173441
 20
9432.3783999810876
 30
0.0
 11
12146.89069417344
 21
9443.5148749810869
 31
0.0
  0
ARC
  5
7FBC
  8
FUTO
 10
12161.96466917344
 20
9370.9531069810873
 30
0.0
 40
3.0
 50
0.000000000000007
 51
90.0
  0
LINE
  5
7FBD
  8
FUTO
 10
12128.473458173439
 20
9411.4853339810888
 30
0.0
 11
12124.881417173439
 21
9415.0773749810869
 31
0.0
  0
LINE
  5
7FBE
  8
FUTO
 10
12128.473458173439
 20
9410.6367009810874
 30
0.0
 11
12128.473458173439
 21
9411.4853339810888
 31
0.0
  0
LINE
  5
7FBF
  8
FUTO
 10
12126.186104173439
 20
9409.197735981088
 30
0.0
 11
12127.034737173441
 21
9409.197735981088
 31
0.0
  0
LINE
  5
7FC0
  8
FUTO
 10
12126.186104173439
 20
9409.197735981088
 30
0.0
 11
12126.186104173439
 21
9408.3493479810877
 31
0.0
  0
LINE
  5
7FC1
  8
FUTO
 10
12118.43244217344
 20
9401.4443179810878
 30
0.0
 11
12114.84040117344
 21
9405.0363589810895
 31
0.0
  0
LINE
  5
7FC2
  8
FUTO
 10
12118.43244217344
 20
9401.4443179810878
 30
0.0
 11
12119.28107517344
 21
9401.4443179810878
 31
0.0
  0
LINE
  5
7FC3
  8
FUTO
 10
12120.71979617344
 20
9403.7316719810879
 30
0.0
 11
12120.71979617344
 21
9402.8830389810864
 31
0.0
  0
LINE
  5
7FC4
  8
FUTO
 10
12120.71979617344
 20
9403.7316719810879
 30
0.0
 11
12117.12775517344
 21
9407.3237129810877
 31
0.0
  0
LINE
  5
7FC5
  8
FUTO
 10
12120.71979617344
 20
9403.7316719810879
 30
0.0
 11
12121.568428173439
 21
9403.7316719810879
 31
0.0
  0
LINE
  5
7FC6
  8
FUTO
 10
12124.881417173439
 20
9415.0773749810869
 30
0.0
 11
12114.84040117344
 21
9405.0363589810895
 31
0.0
  0
LINE
  5
7FC7
  8
CT
 10
12124.40558717344
 20
9405.5121889810871
 30
0.0
 11
12119.157540173441
 21
9410.760235981088
 31
0.0
  0
LINE
  5
7FC8
  8
FUTO
 10
12128.473458173439
 20
9410.6367009810874
 30
0.0
 11
12119.28107517344
 21
9401.4443179810878
 31
0.0
  0
LINE
  5
7FC9
  8
FUTO
 10
12126.186104173439
 20
9409.197735981088
 30
0.0
 11
12122.594063173439
 21
9412.7900209810887
 31
0.0
  0
ARC
  5
7FCA
  8
FUTO
 10
12088.46466917344
 20
9370.9531069810873
 30
0.0
 40
3.0
 50
90.0
 51
180.0
  0
LINE
  5
7FCB
  8
FUTO
 10
12088.46466917344
 20
9373.9531069810891
 30
0.0
 11
12161.96466917344
 21
9373.9531069810891
 31
0.0
  0
LINE
  5
7FCC
  8
FUTO
 10
12164.96466917344
 20
9353.9531069810873
 30
0.0
 11
12085.46466917344
 21
9353.9531069810873
 31
0.0
  0
LINE
  5
7FCD
  8
FUTO
 10
12085.46466917344
 20
9370.9531069810873
 30
0.0
 11
12085.46466917344
 21
9353.9531069810873
 31
0.0
  0
LINE
  5
7FCE
  8
FUTO
 10
12080.06745217344
 20
9379.0964179810853
 30
0.0
 11
12085.46466917344
 21
9358.9531069810873
 31
0.0
  0
LINE
  5
7FCF
  8
CT
 10
12134.96466917344
 20
9383.9531069810873
 30
0.0
 11
12134.96466917344
 21
9343.9531069810873
 31
0.0
  0
LINE
  5
7FD0
  8
FUTO
 10
12164.96466917344
 20
9428.2797679810883
 30
0.0
 11
12164.96466917344
 21
9353.9531069810873
 31
0.0
  0
LINE
  5
7FD1
  8
FUTO
 10
11789.10089917344
 20
9432.3783999810876
 30
0.0
 11
11805.03876517344
 21
9443.5148749810869
 31
0.0
  0
ARC
  5
7FD2
  8
FUTO
 10
11863.46466917344
 20
9370.9531069810873
 30
0.0
 40
3.0
 50
0.000000000000007
 51
90.0
  0
LINE
  5
7FD3
  8
FUTO
 10
11823.45588017344
 20
9411.4853339810888
 30
0.0
 11
11827.04792117344
 21
9415.0773749810869
 31
0.0
  0
LINE
  5
7FD4
  8
FUTO
 10
11823.45588017344
 20
9411.4853339810888
 30
0.0
 11
11823.45588017344
 21
9410.6367009810874
 31
0.0
  0
LINE
  5
7FD5
  8
FUTO
 10
11833.496895173441
 20
9401.4443179810878
 30
0.0
 11
11837.088936173441
 21
9405.0363589810895
 31
0.0
  0
LINE
  5
7FD6
  8
FUTO
 10
11832.648262173439
 20
9401.4443179810878
 30
0.0
 11
11833.496895173441
 21
9401.4443179810878
 31
0.0
  0
LINE
  5
7FD7
  8
FUTO
 10
11831.20929817344
 20
9403.7316719810879
 30
0.0
 11
11831.20929817344
 21
9402.8830389810864
 31
0.0
  0
LINE
  5
7FD8
  8
FUTO
 10
11831.20929817344
 20
9403.7316719810879
 30
0.0
 11
11830.36090917344
 21
9403.7316719810879
 31
0.0
  0
LINE
  5
7FD9
  8
FUTO
 10
11825.74323317344
 20
9409.197979981087
 30
0.0
 11
11824.89460017344
 21
9409.197979981087
 31
0.0
  0
LINE
  5
7FDA
  8
FUTO
 10
11825.74323317344
 20
9409.197979981087
 30
0.0
 11
11825.74323317344
 21
9408.3493479810877
 31
0.0
  0
LINE
  5
7FDB
  8
FUTO
 10
11831.20929817344
 20
9403.7316719810879
 30
0.0
 11
11834.801583173439
 21
9407.3237129810877
 31
0.0
  0
LINE
  5
7FDC
  8
FUTO
 10
11837.088936173441
 20
9405.0363589810895
 30
0.0
 11
11827.04792117344
 21
9415.0773749810869
 31
0.0
  0
LINE
  5
7FDD
  8
CT
 10
11827.523751173439
 20
9405.5121889810871
 30
0.0
 11
11832.77179817344
 21
9410.760235981088
 31
0.0
  0
LINE
  5
7FDE
  8
FUTO
 10
11832.648262173439
 20
9401.4443179810878
 30
0.0
 11
11823.45588017344
 21
9410.6367009810874
 31
0.0
  0
LINE
  5
7FDF
  8
FUTO
 10
11825.74323317344
 20
9409.197979981087
 30
0.0
 11
11829.33527417344
 21
9412.7900209810887
 31
0.0
  0
LINE
  5
7FE0
  8
FUTO
 10
11863.46466917344
 20
9373.9531069810891
 30
0.0
 11
11789.96466917344
 21
9373.9531069810891
 31
0.0
  0
LINE
  5
7FE1
  8
FUTO
 10
11866.46466917344
 20
9370.9531069810873
 30
0.0
 11
11866.46466917344
 21
9353.9531069810873
 31
0.0
  0
LINE
  5
7FE2
  8
FUTO
 10
11871.862099173441
 20
9379.0962959810895
 30
0.0
 11
11866.46466917344
 21
9358.9531069810873
 31
0.0
  0
LINE
  5
7FE3
  8
CT
 10
11816.96466917344
 20
9383.9531069810873
 30
0.0
 11
11816.96466917344
 21
9343.9531069810873
 31
0.0
  0
LINE
  5
7FE4
  8
FUTO
 10
11786.96466917344
 20
9428.2797679810883
 30
0.0
 11
11786.96466917344
 21
9353.9531069810873
 31
0.0
  0
LINE
  5
7FE5
  8
FUTO
 10
11786.96466917344
 20
9353.9531069810873
 30
0.0
 11
11866.46466917344
 21
9353.9531069810873
 31
0.0
  0
ARC
  5
7FE6
  8
FUTO
 10
11791.96466917344
 20
9428.2797679810883
 30
0.0
 40
5.0000669999999987
 50
124.9436649999749
 51
180.0
  0
ARC
  5
7FE7
  8
FUTO
 10
11789.96466917344
 20
9370.9531069810873
 30
0.0
 40
3.0
 50
90.0
 51
180.0
  0
LINE
  5
7FE8
  8
FUTO
 10
12030.702706173441
 20
9357.9531069810873
 30
0.0
 11
11921.226632173441
 21
9357.9531069810873
 31
0.0
  0
LINE
  5
7FE9
  8
CT
 10
11975.96466917344
 20
9843.9531069810873
 30
0.0
 11
11975.96466917344
 21
9273.9531069810873
 31
0.0
  0
ARC
  5
7FEA
  8
FUTO
 10
11975.96466917344
 20
9553.9531069810873
 30
0.0
 40
203.5
 50
285.60375999997461
 51
254.39630099999039
  0
LINE
  5
7FEB
  8
FUTO
 10
14717.373182255469
 20
9361.4531069810873
 30
0.0
 11
14717.373182255469
 21
9746.4040349810875
 31
0.0
  0
LINE
  5
7FEC
  8
CT
 10
12265.96466917344
 20
9506.3473939810883
 30
0.0
 11
12265.96466917344
 21
9467.3534979810884
 31
0.0
  0
LINE
  5
7FED
  8
FUTO
 10
12205.212716173441
 20
9698.0658999810876
 30
0.0
 11
12324.08380917344
 21
9478.1349919810873
 31
0.0
  0
LINE
  5
7FEE
  8
FUTO
 10
12325.43891217344
 20
9477.7306949810882
 30
0.0
 11
12326.84650517344
 21
9478.4914369810886
 31
0.0
  0
LINE
  5
7FEF
  8
FUTO
 10
14776.473219255469
 20
9711.6030709810875
 30
0.0
 11
14776.473219255469
 21
9396.8127569810877
 31
0.0
  0
LINE
  5
7FF0
  8
CT
 10
13956.973219255469
 20
9553.9531069810873
 30
0.0
 11
14796.473219255469
 21
9553.9531069810873
 31
0.0
  0
LINE
  5
7FF1
  8
FUTO
 10
14655.22193725547
 20
9746.4531069810873
 30
0.0
 11
14716.162245255469
 21
9746.4531069810873
 31
0.0
  0
LINE
  5
7FF2
  8
FUTO
 10
14651.673109255469
 20
9361.4531069810873
 30
0.0
 11
14716.162245255469
 21
9361.4531069810873
 31
0.0
  0
LINE
  5
7FF3
  8
FUTO
 10
11984.96466917344
 20
9587.9531069810873
 30
0.0
 11
11966.96466917344
 21
9587.9531069810873
 31
0.0
  0
LINE
  5
7FF4
  8
FUTO
 10
11984.96466917344
 20
9576.9531069810873
 30
0.0
 11
11966.96466917344
 21
9576.9531069810873
 31
0.0
  0
LINE
  5
7FF5
  8
FUTO
 10
11984.96466917344
 20
9587.9531069810873
 30
0.0
 11
11984.96466917344
 21
9576.9531069810873
 31
0.0
  0
LINE
  5
7FF6
  8
FUTO
 10
11966.96466917344
 20
9587.9531069810873
 30
0.0
 11
11966.96466917344
 21
9576.9531069810873
 31
0.0
  0
LINE
  5
7FF7
  8
CT
 10
11840.96466917344
 20
12759.98480644658
 30
0.0
 11
11790.96466917344
 21
12759.98480644658
 31
0.0
  0
LINE
  5
7FF8
  8
CT
 10
11815.96466917344
 20
12734.98480644658
 30
0.0
 11
11815.96466917344
 21
12784.98480644658
 31
0.0
  0
LINE
  5
7FF9
  8
CT
 10
12135.96466917344
 20
12734.98480644658
 30
0.0
 11
12135.96466917344
 21
12784.98480644658
 31
0.0
  0
LINE
  5
7FFA
  8
CT
 10
12110.96466917344
 20
12759.98480644658
 30
0.0
 11
12160.96466917344
 21
12759.98480644658
 31
0.0
  0
LINE
  5
7FFB
  8
CT
 10
12110.96466917344
 20
13219.98480644658
 30
0.0
 11
12160.96466917344
 21
13219.98480644658
 31
0.0
  0
LINE
  5
7FFC
  8
CT
 10
12135.96466917344
 20
13244.98480644658
 30
0.0
 11
12135.96466917344
 21
13194.98480644658
 31
0.0
  0
LINE
  5
7FFD
  8
CT
 10
11815.96466917344
 20
13244.98480644658
 30
0.0
 11
11815.96466917344
 21
13194.98480644658
 31
0.0
  0
LINE
  5
7FFE
  8
CT
 10
11840.96466917344
 20
13219.98480644658
 30
0.0
 11
11790.96466917344
 21
13219.98480644658
 31
0.0
  0
LINE
  5
8000
  8
SL
 10
12108.46466917344
 20
12564.48480644658
 30
0.0
 11
12108.46466917344
 21
12662.48480644658
 31
0.0
  0
LINE
  5
8001
  8
FUTO
 10
12179.46466917344
 20
12425.48480644658
 30
0.0
 11
12179.46466917344
 21
12714.48480644659
 31
0.0
  0
LINE
  5
8002
  8
SL
 10
11843.46466917344
 20
12564.48480644658
 30
0.0
 11
11843.46466917344
 21
12662.48480644658
 31
0.0
  0
LINE
  5
8003
  8
SL
 10
12165.96466917344
 20
13312.023364074739
 30
0.0
 11
12165.96466917344
 21
12749.48480644658
 31
0.0
  0
LINE
  5
8004
  8
SL
 10
12100.96466917344
 20
13363.98480644658
 30
0.0
 11
12100.96466917344
 21
12749.48480644658
 31
0.0
  0
LINE
  5
8005
  8
SL
 10
11850.96466917344
 20
13363.98480644658
 30
0.0
 11
11850.96466917344
 21
12749.48480644658
 31
0.0
  0
LINE
  5
8006
  8
SL
 10
11785.96466917344
 20
13304.88476944658
 30
0.0
 11
11785.96466917344
 21
12749.48480644658
 31
0.0
  0
LINE
  5
8007
  8
FUTO
 10
12488.96466917344
 20
13646.48480644658
 30
0.0
 11
12488.96466917344
 21
14964.48480644658
 31
0.0
  0
LINE
  5
8008
  8
FUTO
 10
12423.96466917344
 20
13711.48480644658
 30
0.0
 11
12423.96466917344
 21
14899.48480644658
 31
0.0
  0
LINE
  5
8009
  8
FUTO
 10
10702.96466917344
 20
13646.48480644658
 30
0.0
 11
10702.96466917344
 21
14964.48480644658
 31
0.0
  0
LINE
  5
8017
  8
FUTO
 10
10767.96466917344
 20
13711.48480644658
 30
0.0
 11
10767.96466917344
 21
14899.48480644658
 31
0.0
  0
LINE
  5
8018
  8
FUTO
 10
12488.96466917344
 20
14964.48480644658
 30
0.0
 11
10702.96466917344
 21
14964.48480644658
 31
0.0
  0
LINE
  5
8019
  8
FUTO
 10
12488.96466917344
 20
13646.48480644658
 30
0.0
 11
10702.96466917344
 21
13646.48480644658
 31
0.0
  0
LINE
  5
801A
  8
FUTO
 10
11675.96466917344
 20
13646.48480644658
 30
0.0
 11
11675.96466917344
 21
13636.48480644658
 31
0.0
  0
LINE
  5
801C
  8
FUTO
 10
10702.96466917344
 20
13711.48480644658
 30
0.0
 11
9586.964669173447
 21
13711.48480644658
 31
0.0
  0
LINE
  5
801D
  8
FUTO
 10
10702.96466917344
 20
14899.48480644658
 30
0.0
 11
9586.964669173447
 21
14899.48480644658
 31
0.0
  0
LINE
  5
801E
  8
FUTO
 10
9586.964669173447
 20
13711.48480644658
 30
0.0
 11
9586.964669173447
 21
14899.48480644658
 31
0.0
  0
LINE
  5
801F
  8
FUTO
 10
9536.9646691734488
 20
13661.48480644658
 30
0.0
 11
9536.9646691734488
 21
14949.48480644658
 31
0.0
  0
LINE
  5
8020
  8
FUTO
 10
10702.96466917344
 20
13661.48480644658
 30
0.0
 11
9536.9646691734488
 21
13661.48480644658
 31
0.0
  0
LINE
  5
8021
  8
FUTO
 10
10702.96466917344
 20
14949.48480644658
 30
0.0
 11
9536.9646691734488
 21
14949.48480644658
 31
0.0
  0
LINE
  5
8022
  8
FUTO
 10
9775.964669173447
 20
13661.48480644658
 30
0.0
 11
9775.964669173447
 21
13636.48480644658
 31
0.0
  0
LINE
  5
8023
  8
SL
 10
12423.96466917344
 20
14899.48480644658
 30
0.0
 11
10767.96466917344
 21
13711.48480644658
 31
0.0
  0
LINE
  5
8024
  8
SL
 10
10767.96466917344
 20
14899.48480644658
 30
0.0
 11
12423.96466917344
 21
13711.48480644658
 31
0.0
  0
LINE
  5
8025
  8
FUTO
 10
11111.61654206417
 20
12749.48480644658
 30
0.0
 11
11111.61654206417
 21
13636.48480644658
 31
0.0
  0
LINE
  5
8027
  8
FUTO
 10
10340.31279628272
 20
12749.48480644658
 30
0.0
 11
10340.31279628272
 21
13636.48480644658
 31
0.0
  0
DIMENSION
  5
8028
  8
SP
  2
*D12
 10
12488.96466917344
 20
11939.119498062961
 30
0.0
 11
11607.46466917344
 21
12026.619498062961
 31
0.0
 70
     0
 13
10725.96466917344
 23
11696.584967494449
 33
0.0
 14
12488.96466917344
 24
11588.95310698108
 34
0.0
1001
ACAD
1000
DSTYLE
1002
{
1070
    40
1040
35.0
1070
    41
1040
2.5
1070
   147
1040
1.0
1002
}
  0
DIMENSION
  5
8046
  8
SP
  2
*D13
 10
12742.159835421189
 20
10543.95310698108
 30
0.0
 11
12654.659835421189
 21
9843.953106981091
 31
0.0
 70
     0
 13
12275.96466917344
 23
9143.9531069810855
 33
0.0
 14
12559.32279114329
 24
10543.95310698108
 34
0.0
 50
90.0
1001
ACAD
1000
DSTYLE
1002
{
1070
    40
1040
35.0
1070
    41
1040
2.5
1070
   147
1040
1.0
1002
}
  0
DIMENSION
  5
8053
  8
SP
  2
*D14
 10
12742.159835421189
 20
11588.95310698108
 30
0.0
 11
12654.659835421189
 21
11066.453106981089
 31
0.0
 70
     0
 13
12559.32279114329
 23
10543.95310698108
 33
0.0
 14
12488.96466917344
 24
11588.95310698108
 34
0.0
 50
90.0
1001
ACAD
1000
DSTYLE
1002
{
1070
    40
1040
35.0
1070
    41
1040
2.5
1070
   147
1040
1.0
1002
}
  0
DIMENSION
  5
807B
  8
SP
  2
*D15
 10
12488.96466917344
 20
15350.63547390229
 30
0.0
 11
11607.46466917344
 21
15438.13547390229
 31
0.0
 70
     0
 13
10725.96466917344
 23
15075.26271826345
 33
0.0
 14
12488.96466917344
 24
14964.48480644658
 34
0.0
1001
ACAD
1000
DSTYLE
1002
{
1070
    40
1040
35.0
1070
    41
1040
2.5
1070
   147
1040
1.0
1002
}
  0
DIMENSION
  5
8088
  8
SP
  2
*D16
 10
9536.9646691734488
 20
15350.63547390229
 30
0.0
 11
10131.46466917344
 21
15438.13547390229
 31
0.0
 70
     0
 13
10725.96466917344
 23
15110.26271826345
 33
0.0
 14
9536.9646691734488
 24
14949.48480644658
 34
0.0
1001
ACAD
1000
DSTYLE
1002
{
1070
    40
1040
35.0
1070
    41
1040
2.5
1070
   147
1040
1.0
1002
}
  0
DIMENSION
  5
8095
  8
SP
  2
*D17
 10
12831.58442948704
 20
15030.48480644658
 30
0.0
 11
12744.08442948704
 21
14667.98480644659
 31
0.0
 70
     0
 13
12488.96466917344
 23
14305.48480644658
 33
0.0
 14
11590.96466917344
 24
15030.48480644658
 34
0.0
 50
90.0
1001
ACAD
1000
DSTYLE
1002
{
1070
    40
1040
35.0
1070
    41
1040
2.5
1070
   147
1040
1.0
1002
}
  0
DIMENSION
  5
80A2
  8
SP
  2
*D18
 10
12831.58442948704
 20
12425.48480644658
 30
0.0
 11
12744.08442948704
 21
13365.48480644658
 31
0.0
 70
     0
 13
12488.96466917344
 23
14305.48480644658
 33
0.0
 14
12179.46466917344
 24
12425.48480644658
 34
0.0
 50
90.0
1001
ACAD
1000
DSTYLE
1002
{
1070
    40
1040
35.0
1070
    41
1040
2.5
1070
   147
1040
1.0
1002
}
  0
LINE
  5
80D3
  8
FUTO
 10
11255.56821865727
 20
9753.8252452826546
 30
0.0
 11
11350.96466917344
 21
9301.7806540400288
 31
0.0
  0
LINE
  5
80D4
  8
FUTO
 10
11665.96466917344
 20
9491.1600066924893
 30
0.0
 11
11665.96466917344
 21
9293.9531069810873
 31
0.0
  0
LINE
  5
80D5
  8
FUTO
 10
11656.96466917344
 20
9496.9202591126505
 30
0.0
 11
11656.96466917344
 21
9293.9531069810873
 31
0.0
  0
LINE
  5
80D6
  8
KL
 10
11665.96466917344
 20
10161.31384342037
 30
0.0
 11
11665.96466917344
 21
9491.1600066924893
 31
0.0
  0
LINE
  5
80D7
  8
KL
 10
11656.96466917344
 20
10170.04705186299
 30
0.0
 11
11656.96466917344
 21
9496.9202591126505
 31
0.0
  0
LINE
  5
80D8
  8
FUTO
 10
11262.36118309986
 20
10552.95310698108
 30
0.0
 11
12374.43321858689
 21
10552.95310698108
 31
0.0
  0
LINE
  5
80D9
  8
FUTO
 10
11280.91106669241
 20
10534.95310698108
 30
0.0
 11
12374.43321858689
 21
10534.95310698108
 31
0.0
  0
LINE
  5
80DA
  8
KL
 10
10346.07126307115
 20
10552.95310698108
 30
0.0
 11
10525.96466917344
 21
10552.95310698108
 31
0.0
  0
LINE
  5
80DB
  8
KL
 10
10346.07126307115
 20
10534.95310698108
 30
0.0
 11
10525.96466917344
 21
10534.95310698108
 31
0.0
  0
LINE
  5
813C
  8
FUTO
 10
12275.96466917344
 20
9015.956606981088
 30
0.0
 11
9775.964669173447
 21
9015.956606981088
 31
0.0
  0
LINE
  5
813D
  8
FUTO
 10
12275.96466917344
 20
8891.9496069810884
 30
0.0
 11
9775.964669173447
 21
8891.9496069810884
 31
0.0
  0
LINE
  5
813E
  8
FUTO
 10
12275.96466917344
 20
9028.9531069810873
 30
0.0
 11
9775.964669173447
 21
9028.9531069810873
 31
0.0
  0
LINE
  5
813F
  8
FUTO
 10
12275.96466917344
 20
8878.9531069810873
 30
0.0
 11
9775.964669173447
 21
8878.9531069810873
 31
0.0
  0
LINE
  5
8140
  8
FUTO
 10
9775.964669173447
 20
9028.9531069810873
 30
0.0
 11
9775.964669173447
 21
8878.9531069810873
 31
0.0
  0
LINE
  5
8141
  8
FUTO
 10
10100.96466917344
 20
9028.9531069810873
 30
0.0
 11
10100.96466917344
 21
8878.9531069810873
 31
0.0
  0
LINE
  5
814C
  8
FUTO
 10
12275.96466917344
 20
9028.9531069810873
 30
0.0
 11
12275.96466917344
 21
8878.9531069810873
 31
0.0
  0
LINE
  5
816E
  8
SP
 10
12310.96466917344
 20
9028.9531069810873
 30
0.0
 11
12777.159835421189
 21
9028.9531069810873
 31
0.0
  0
LINE
  5
816F
  8
SP
 10
12310.96466917344
 20
8878.9531069810873
 30
0.0
 11
12777.159835421189
 21
8878.9531069810873
 31
0.0
  0
LINE
  5
8170
  8
SP
 10
12742.159835421189
 20
9211.4531069810873
 30
0.0
 11
12742.159835421189
 21
9298.9531069810873
 31
0.0
  0
LINE
  5
8171
  8
SP
 10
12742.159835421189
 20
8791.4531069810873
 30
0.0
 11
12742.159835421189
 21
8388.9531069810873
 31
0.0
  0
LINE
  5
8172
  8
SP
 10
12742.159835421189
 20
9028.9531069810873
 30
0.0
 11
12742.159835421189
 21
8878.9531069810873
 31
0.0
  0
INSERT
  5
8174
  8
SP
  2
_OPEN
 10
12742.159835421189
 20
8878.9531069810873
 30
0.0
 41
87.5
 42
87.5
 43
87.5
 50
90.0
  0
TEXT
  5
8175
  8
FUTO
 10
12707.159835421189
 20
8401.1774256244425
 30
0.0
 40
105.0
  1
150
 50
90.0
 51
15.0
  0
LINE
  5
8176
  8
SP
 10
12310.96466917344
 20
9143.9531069810855
 30
0.0
 11
12777.159835421189
 21
9143.9531069810855
 31
0.0
  0
LINE
  5
8177
  8
SP
 10
12310.96466917344
 20
9028.9531069810873
 30
0.0
 11
12777.159835421189
 21
9028.9531069810873
 31
0.0
  0
LINE
  5
8178
  8
SP
 10
12742.159835421189
 20
9231.4531069810873
 30
0.0
 11
12742.159835421189
 21
9318.9531069810873
 31
0.0
  0
LINE
  5
8179
  8
SP
 10
12742.159835421189
 20
8941.4531069810873
 30
0.0
 11
12742.159835421189
 21
8596.1774256244425
 31
0.0
  0
LINE
  5
817A
  8
SP
 10
12742.159835421189
 20
9143.9531069810855
 30
0.0
 11
12742.159835421189
 21
9028.9531069810873
 31
0.0
  0
INSERT
  5
817B
  8
SP
  2
_OPEN
 10
12742.159835421189
 20
9143.9531069810855
 30
0.0
 41
87.5
 42
87.5
 43
87.5
 50
270.0
  0
TEXT
  5
817D
  8
FUTO
 10
12942.1822380348
 20
8957.4374120367538
 30
0.0
 40
105.0
  1
115
 50
90.0
 51
15.0
  0
CIRCLE
  5
817E
  8
SP
 10
12742.159835421189
 20
9028.9531069810873
 30
0.0
 40
16.806887979400472
  0
INSERT
  5
8194
  8
SP
  6
CONTINUOUS
  2
*U19
 10
0.0
 20
0.0
 30
0.0
1001
ACAD
1002
{
1000
R14_HATCH_DATA
1000
8194
1011
1.0
1021
0.0
1031
0.0
1021
0.0
1031
0.0
1011
0.0
1021
0.0
1031
0.0
1021
1.0
1031
0.0
1011
0.0
1021
0.0
1031
0.0
1021
0.0
1031
1.0
1040
0.0
1010
0.0
1020
0.0
1030
1.0
1000
SOLID
1070
     1
1070
     0
1071
        4
1071
        7
1070
     1
1070
     1
1071
        3
1040
12725.35294744179
1040
9028.9531069810873
1040
0.0
1040
12742.159835421189
1040
9028.9531069810873
1040
0.0
1040
12742.159835421189
1040
9045.7599949604883
1040
0.4142135623730951
1071
        0
1071
        7
1070
     1
1070
     1
1071
        3
1040
12742.159835421189
1040
9045.7599949604883
1040
0.0
1040
12742.159835421189
1040
9028.9531069810873
1040
0.0
1040
12758.96672340059
1040
9028.9531069810873
1040
0.4142135623730951
1071
        0
1071
        7
1070
     1
1070
     1
1071
        3
1040
12742.159835421189
1040
9028.9531069810873
1040
0.0
1040
12742.159835421189
1040
9012.1462190016864
1040
0.4142135623730871
1040
12758.96672340059
1040
9028.9531069810873
1040
0.0
1071
        0
1071
        7
1070
     1
1070
     1
1071
        3
1040
12742.159835421189
1040
9028.9531069810873
1040
0.0
1040
12725.35294744179
1040
9028.9531069810873
1040
0.4142135623730951
1040
12742.159835421189
1040
9012.1462190016864
1040
0.0
1071
        0
1070
     0
1070
     1
1040
0.487381141900096
1071
        4
1040
12736.570848186269
1040
9038.7588353414158
1040
0.0
1040
12751.20291787942
1040
9039.2462158314174
1040
0.0
1040
12747.78874893074
1040
9025.59954531722
1040
0.0
1040
12737.54632502875
1040
9023.1626428671952
1040
0.0
1002
}
  0
LINE
  5
819F
  8
FUTO
 10
16311.973219255469
 20
9015.956606981088
 30
0.0
 11
14161.973219255469
 21
9015.956606981088
 31
0.0
  0
LINE
  5
81A0
  8
FUTO
 10
16311.973219255469
 20
8891.9496069810884
 30
0.0
 11
14161.973219255469
 21
8891.9496069810884
 31
0.0
  0
LINE
  5
81A1
  8
FUTO
 10
16311.973219255469
 20
8878.9531069810873
 30
0.0
 11
14161.973219255469
 21
8878.9531069810873
 31
0.0
  0
LINE
  5
81A2
  8
FUTO
 10
16311.973219255469
 20
9028.9531069810873
 30
0.0
 11
14161.973219255469
 21
9028.9531069810873
 31
0.0
  0
LINE
  5
81A5
  8
FUTO
 10
14161.973219255469
 20
8878.9531069810873
 30
0.0
 11
14161.973219255469
 21
9028.9531069810873
 31
0.0
  0
LINE
  5
81A6
  8
FUTO
 10
14155.473219255469
 20
8895.61491840292
 30
0.0
 11
14155.473219255469
 21
9012.2912955592565
 31
0.0
  0
LINE
  5
81A7
  8
FUTO
 10
14151.82184222646
 20
8891.6301396105537
 30
0.0
 11
14090.624596284481
 21
8886.2760743516192
 31
0.0
  0
LINE
  5
81A8
  8
FUTO
 10
14161.973219255469
 20
8878.9531069810873
 30
0.0
 11
14086.973219255469
 21
8878.9531069810873
 31
0.0
  0
ARC
  5
81A9
  8
FUTO
 10
14090.973219255469
 20
8882.2912955592528
 30
0.0
 40
4.0
 50
95.000000000000554
 51
179.9999999999921
  0
LINE
  5
81AA
  8
FUTO
 10
14086.973219255469
 20
8878.9531069810873
 30
0.0
 11
14086.973219255469
 21
8882.2912955592528
 31
0.0
  0
ARC
  5
81AB
  8
FUTO
 10
14151.473219255469
 20
8895.61491840292
 30
0.0
 40
4.0
 50
275.0
 51
0.0
  0
LINE
  5
81AC
  8
FUTO
 10
14204.473219255469
 20
9028.9531069810873
 30
0.0
 11
14147.473219255469
 21
9028.9531069810873
 31
0.0
  0
LINE
  5
81AD
  8
FUTO
 10
14151.82184222646
 20
9016.276074351621
 30
0.0
 11
14090.624596284481
 21
9021.6301396105519
 31
0.0
  0
LINE
  5
81AE
  8
FUTO
 10
14161.973219255469
 20
9028.9531069810873
 30
0.0
 11
14086.973219255469
 21
9028.9531069810873
 31
0.0
  0
ARC
  5
81AF
  8
FUTO
 10
14090.973219255469
 20
9025.61491840292
 30
0.0
 40
4.0
 50
180.00000000000779
 51
264.99999999999949
  0
LINE
  5
81B0
  8
FUTO
 10
14086.973219255469
 20
9028.9531069810873
 30
0.0
 11
14086.973219255469
 21
9025.61491840292
 31
0.0
  0
ARC
  5
81B3
  8
FUTO
 10
14151.473219255469
 20
9012.2912955592565
 30
0.0
 40
4.0
 50
0.0
 51
84.999999999999943
  0
ARC
  5
81BC
  8
FUTO
 10
16382.973219255469
 20
8882.2912955592528
 30
0.0
 40
4.0
 50
0.0000000000078369
 51
84.999999999999503
  0
ARC
  5
81BD
  8
FUTO
 10
16382.973219255469
 20
9025.61491840292
 30
0.0
 40
4.0
 50
275.00000000000051
 51
359.9999999999921
  0
LINE
  5
81BE
  8
FUTO
 10
16311.973219255469
 20
9028.9531069810873
 30
0.0
 11
16386.973219255469
 21
9028.9531069810873
 31
0.0
  0
LINE
  5
81BF
  8
FUTO
 10
16311.973219255469
 20
8878.9531069810873
 30
0.0
 11
16386.973219255469
 21
8878.9531069810873
 31
0.0
  0
LINE
  5
81C2
  8
FUTO
 10
16311.973219255469
 20
9028.9531069810873
 30
0.0
 11
16311.973219255469
 21
8878.9531069810873
 31
0.0
  0
LINE
  5
81C3
  8
FUTO
 10
16318.473219255469
 20
9012.2912955592565
 30
0.0
 11
16318.473219255469
 21
8895.61491840292
 31
0.0
  0
ARC
  5
81C5
  8
FUTO
 10
16322.473219255469
 20
8895.61491840292
 30
0.0
 40
4.0
 50
180.0
 51
264.99999999999989
  0
LINE
  5
81C6
  8
FUTO
 10
16322.124596284481
 20
8891.6301396105537
 30
0.0
 11
16383.32184222646
 21
8886.2760743516192
 31
0.0
  0
ARC
  5
81C7
  8
FUTO
 10
16322.473219255469
 20
9012.2912955592565
 30
0.0
 40
4.0
 50
95.000000000000057
 51
180.0
  0
LINE
  5
81C8
  8
FUTO
 10
16322.124596284481
 20
9016.276074351621
 30
0.0
 11
16383.32184222646
 21
9021.6301396105519
 31
0.0
  0
LINE
  5
81C9
  8
FUTO
 10
16386.973219255469
 20
8878.9531069810873
 30
0.0
 11
16386.973219255469
 21
8882.2912955592528
 31
0.0
  0
LINE
  5
81CA
  8
FUTO
 10
16386.973219255469
 20
9028.9531069810873
 30
0.0
 11
16386.973219255469
 21
9025.61491840292
 31
0.0
  0
TEXT
  5
8CEB
  8
SP
 10
17835.842143374131
 20
10634.17818478584
 30
0.0
 40
100.0
  1
 
  0
LINE
  5
8CEC
  8
4
 10
16937.092574400958
 20
7033.1249574973108
 30
0.0
 11
16937.092574400958
 21
6033.1249574973099
 31
0.0
  0
LINE
  5
8CED
  8
4
 10
13437.09257440096
 20
7033.1249574973108
 30
0.0
 11
13437.09257440096
 21
6033.1249574973099
 31
0.0
  0
LINE
  5
8CEE
  8
4
 10
10937.09257440096
 20
7033.1249574973108
 30
0.0
 11
10937.09257440096
 21
6033.1249574973099
 31
0.0
  0
LINE
  5
8CF1
  8
4
 10
10937.09257440096
 20
6033.1249574973117
 30
0.0
 11
16937.092574400958
 21
6033.1249574973117
 31
0.0
  0
LINE
  5
8CF2
  8
4
 10
10937.09257440096
 20
6533.1249574973108
 30
0.0
 11
16937.092574400958
 21
6533.1249574973108
 31
0.0
  0
TEXT
  5
8CF3
  8
4
 10
11129.602978635479
 20
6690.8400868303797
 30
0.0
 40
250.0
  1
機器名称
  0
TEXT
  5
8CF4
  8
4
 10
11118.383104524961
 20
6141.3507411573673
 30
0.0
 40
250.0
  1
機器型番
  0
TEXT
  5
8CF5
  8
4
 10
13461.057882906171
 20
6644.0614692820491
 30
0.0
 40
225.0
  1
ミツヤリミットロードファン
  0
TEXT
  5
8CF6
  8
4
 10
13620.36505232838
 20
6118.9228788970286
 30
0.0
 40
250.0
  1
LL#10-1
  0
TEXT
  5
8CF8
  8
4
 10
11700.19136595007
 20
16450.26916415989
 30
0.0
 40
270.0
  1
床置防振ベット
  0
TEXT
  5
8CF9
  8
4
 10
9267.9305410481975
 20
17202.5298384938
 30
0.0
 40
360.0
  1
遠心式片吸込片持リミットロードファン
  0
LINE
  5
8CFA
  8
4
 10
8937.0925744009655
 20
16880.168728821329
 30
0.0
 11
16937.092574400958
 21
16880.168728821329
 31
0.0
  0
LINE
  5
8CFB
  8
4
 10
8937.0925744009655
 20
17880.168728821329
 30
0.0
 11
16937.092574400958
 21
17880.168728821329
 31
0.0
  0
LINE
  5
8CFC
  8
4
 10
10937.09257440096
 20
7033.1249574973108
 30
0.0
 11
16937.092574400958
 21
7033.1249574973108
 31
0.0
  0
LINE
  5
8CFD
  8
4
 10
8937.0925744009655
 20
17880.168728821329
 30
0.0
 11
8937.0925744009655
 21
16880.168728821329
 31
0.0
  0
TEXT
  5
8CFE
  8
4
 10
9382.9601551563319
 20
16444.722345229031
 30
0.0
 40
270.0
  1
左回転上向
  0
TEXT
  5
8CFF
  8
4
 10
15031.94037064741
 20
18063.43036497385
 30
0.0
 40
280.0
  1
No.
  0
TEXT
  5
8D00
  8
4
 10
15098.87179765773
 20
15954.00432114969
 30
0.0
 40
270.0
  1
縮尺：1/50
  0
LINE
  5
8D01
  8
4
 10
16937.092574400958
 20
17880.168728821329
 30
0.0
 11
16937.092574400958
 21
16880.168728821329
 31
0.0
  0
LINE
  5
8D02
  8
4
 10
18187.092574400958
 20
19283.124957497312
 30
0.0
 11
18187.092574400958
 21
19283.124957497312
 31
0.0
  0
LINE
  5
8D03
  8
4
 10
14890.179686200279
 20
17939.44287312431
 30
0.0
 11
14890.179686200279
 21
18466.38626524607
 31
0.0
  0
LINE
  5
8D04
  8
4
 10
14890.179686200279
 20
18466.38626524607
 30
0.0
 11
16937.092574400958
 21
18466.38626524607
 31
0.0
  0
LINE
  5
8D05
  8
4
 10
16937.092574400958
 20
18466.38626524607
 30
0.0
 11
16937.092574400958
 21
17939.44287312431
 31
0.0
  0
LINE
  5
8D06
  8
4
 10
16937.092574400958
 20
17939.44287312431
 30
0.0
 11
14890.179686200279
 21
17939.44287312431
 31
0.0
  0
LINE
  5
8D07
  8
4
 10
7687.0925744009646
 20
4533.1249574973117
 30
0.0
 11
7687.0925744009646
 21
19283.124957497312
 31
0.0
  0
LINE
  5
8D08
  8
4
 10
7687.0925744009646
 20
19283.124957497312
 30
0.0
 11
18187.092574400958
 21
19283.124957497312
 31
0.0
  0
LINE
  5
8D09
  8
4
 10
18187.092574400958
 20
19283.124957497312
 30
0.0
 11
18187.092574400958
 21
4533.1249574973117
 31
0.0
  0
LINE
  5
8D0A
  8
4
 10
18187.092574400958
 20
4533.1249574973117
 30
0.0
 11
7687.0925744009646
 21
4533.1249574973117
 31
0.0
  0
ENDSEC
  0
EOF
