  0
SECTION
  2
HEADER
  9
$ACADVER
  1
AC1009
  9
$INSBASE
 10
0.0
 20
0.0
 30
0.0
  9
$EXTMIN
 10
9122.7278734868505
 20
4811.3890010321547
 30
0.0
  9
$EXTMAX
 10
19622.727873486841
 20
19561.389001032148
 30
0.0
  9
$LIMMIN
 10
0.0
 20
0.0
  9
$LIMMAX
 10
297.0
 20
210.0
  9
$ORTHOMODE
 70
     0
  9
$REGENMODE
 70
     1
  9
$FILLMODE
 70
     1
  9
$QTEXTMODE
 70
     0
  9
$MIRRTEXT
 70
     0
  9
$DRAGMODE
 70
     2
  9
$LTSCALE
 40
175.0
  9
$OSMODE
 70
    37
  9
$ATTMODE
 70
     1
  9
$TEXTSIZE
 40
150.0
  9
$TRACEWID
 40
0.05
  9
$TEXTSTYLE
  7
STANDARD
  9
$CLAYER
  8
FUTO
  9
$CELTYPE
  6
BYLAYER
  9
$CECOLOR
 62
   256
  9
$DIMSCALE
 40
35.0
  9
$DIMASZ
 40
2.5
  9
$DIMEXO
 40
1.0
  9
$DIMDLI
 40
10.0
  9
$DIMRND
 40
0.0
  9
$DIMDLE
 40
0.0
  9
$DIMEXE
 40
1.0
  9
$DIMTP
 40
0.0
  9
$DIMTM
 40
0.0
  9
$DIMTXT
 40
3.0
  9
$DIMCEN
 40
0.0
  9
$DIMTSZ
 40
0.0
  9
$DIMTOL
 70
     0
  9
$DIMLIM
 70
     0
  9
$DIMTIH
 70
     0
  9
$DIMTOH
 70
     0
  9
$DIMSE1
 70
     0
  9
$DIMSE2
 70
     0
  9
$DIMTAD
 70
     1
  9
$DIMZIN
 70
     8
  9
$DIMBLK
  1

  9
$DIMASO
 70
     1
  9
$DIMSHO
 70
     1
  9
$DIMPOST
  1

  9
$DIMAPOST
  1

  9
$DIMALT
 70
     0
  9
$DIMALTD
 70
     2
  9
$DIMALTF
 40
0.03937
  9
$DIMLFAC
 40
1.0
  9
$DIMTOFL
 70
     1
  9
$DIMTVP
 40
0.0
  9
$DIMTIX
 70
     0
  9
$DIMSOXD
 70
     0
  9
$DIMSAH
 70
     1
  9
$DIMBLK1
  1
OPEN
  9
$DIMBLK2
  1
OPEN
  9
$DIMSTYLE
  2
MATSU
  9
$DIMCLRD
 70
   256
  9
$DIMCLRE
 70
   256
  9
$DIMCLRT
 70
   256
  9
$DIMTFAC
 40
1.0
  9
$DIMGAP
 40
1.0
  9
$LUNITS
 70
     2
  9
$LUPREC
 70
     4
  9
$SKETCHINC
 40
0.1
  9
$FILLETRAD
 40
30.0
  9
$AUNITS
 70
     0
  9
$AUPREC
 70
     2
  9
$MENU
  1
acad
  9
$ELEVATION
 40
0.0
  9
$PELEVATION
 40
0.0
  9
$THICKNESS
 40
0.0
  9
$LIMCHECK
 70
     0
  9
$BLIPMODE
 70
     0
  9
$CHAMFERA
 40
8.0
  9
$CHAMFERB
 40
8.0
  9
$SKPOLY
 70
     0
  9
$TDCREATE
 40
2453957.375965347
  9
$TDUPDATE
 40
2454953.6498741321
  9
$TDINDWG
 40
0.1953987616
  9
$TDUSRTIMER
 40
0.1953987616
  9
$USRTIMER
 70
     1
  9
$ANGBASE
 50
0.0
  9
$ANGDIR
 70
     0
  9
$PDMODE
 70
     0
  9
$PDSIZE
 40
1.0
  9
$PLINEWID
 40
0.0
  9
$COORDS
 70
     1
  9
$SPLFRAME
 70
     0
  9
$SPLINETYPE
 70
     6
  9
$SPLINESEGS
 70
     8
  9
$ATTDIA
 70
     0
  9
$ATTREQ
 70
     1
  9
$HANDLING
 70
 10241
  9
$HANDSEED
  5
9197
  9
$SURFTAB1
 70
     6
  9
$SURFTAB2
 70
     6
  9
$SURFTYPE
 70
     6
  9
$SURFU
 70
     6
  9
$SURFV
 70
     6
  9
$UCSNAME
  2

  9
$UCSORG
 10
0.0
 20
-0.0000000000000142
 30
0.0
  9
$UCSXDIR
 10
1.0
 20
0.0
 30
0.0
  9
$UCSYDIR
 10
0.0
 20
1.0
 30
0.0
  9
$PUCSNAME
  2

  9
$PUCSORG
 10
0.0
 20
0.0
 30
0.0
  9
$PUCSXDIR
 10
1.0
 20
0.0
 30
0.0
  9
$PUCSYDIR
 10
0.0
 20
1.0
 30
0.0
  9
$USERI1
 70
     0
  9
$USERI2
 70
     0
  9
$USERI3
 70
     0
  9
$USERI4
 70
     0
  9
$USERI5
 70
     0
  9
$USERR1
 40
0.0
  9
$USERR2
 40
0.0
  9
$USERR3
 40
0.0
  9
$USERR4
 40
0.0
  9
$USERR5
 40
0.0
  9
$WORLDVIEW
 70
     1
  9
$SHADEDGE
 70
     3
  9
$SHADEDIF
 70
    70
  9
$TILEMODE
 70
     1
  9
$MAXACTVP
 70
    16
  9
$PLIMCHECK
 70
     0
  9
$PEXTMIN
 10
1.0000000000000000E+020
 20
1.0000000000000000E+020
 30
1.0000000000000000E+020
  9
$PEXTMAX
 10
-1.0000000000000000E+020
 20
-1.0000000000000000E+020
 30
-1.0000000000000000E+020
  9
$PLIMMIN
 10
0.0
 20
0.0
  9
$PLIMMAX
 10
12.0
 20
9.0
  9
$UNITMODE
 70
     0
  9
$VISRETAIN
 70
     0
  9
$PLINEGEN
 70
     0
  9
$PSLTSCALE
 70
     0
  0
ENDSEC
  0
SECTION
  2
TABLES
  0
TABLE
  2
VPORT
 70
     2
  0
VPORT
  2
*ACTIVE
 70
     0
 10
0.0
 20
0.0
 11
1.0
 21
1.0
 12
18711.982931700339
 22
6531.0282432760823
 13
0.0
 23
0.0
 14
5.0
 24
5.0
 15
0.0
 25
0.0
 16
0.0
 26
0.0
 36
1.0
 17
0.0
 27
0.0
 37
0.0
 40
4105.7366771875641
 41
3.1666666666666661
 42
50.0
 43
0.0
 44
0.0
 50
0.0
 51
0.0
 71
     0
 72
   100
 73
     1
 74
     0
 75
     0
 76
     0
 77
     0
 78
     0
  0
ENDTAB
  0
TABLE
  2
LTYPE
 70
     4
  0
LTYPE
  2
CONTINUOUS
 70
     0
  3
Solid line
 72
    65
 73
     0
 40
0.0
  0
LTYPE
  2
CENTER
 70
     0
  3
____ _ ____ _ ____ _ ____ _ ____ _ ____ _ ____ 
 72
    65
 73
     4
 40
2.0
 49
1.25
 49
-0.25
 49
0.25
 49
-0.25
  0
LTYPE
  2
HIDDEN
 70
     0
  3
__ __ __ __ __ __ __ __ __ __ __ __ __ __ __ __
 72
    65
 73
     2
 40
0.375
 49
0.25
 49
-0.125
  0
LTYPE
  2
PHANTOM
 70
     0
  3
______  __  __  ______  __  __  ______  __  __ 
 72
    65
 73
     6
 40
2.5
 49
1.25
 49
-0.25
 49
0.25
 49
-0.25
 49
0.25
 49
-0.25
  0
ENDTAB
  0
TABLE
  2
LAYER
 70
     9
  0
LAYER
  2
0
 70
     0
 62
     7
  6
CONTINUOUS
  0
LAYER
  2
CT
 70
     0
 62
     3
  6
CENTER
  0
LAYER
  2
FUTO
 70
     0
 62
     4
  6
CONTINUOUS
  0
LAYER
  2
HOSO
 70
     0
 62
     7
  6
CONTINUOUS
  0
LAYER
  2
KL
 70
     0
 62
     7
  6
HIDDEN
  0
LAYER
  2
SL
 70
     0
 62
     1
  6
PHANTOM
  0
LAYER
  2
SP
 70
     0
 62
     2
  6
CONTINUOUS
  0
LAYER
  2
DEFPOINTS
 70
     0
 62
     7
  6
CONTINUOUS
  0
LAYER
  2
4
 70
     0
 62
     7
  6
CONTINUOUS
  0
ENDTAB
  0
TABLE
  2
STYLE
 70
     1
  0
STYLE
  2
STANDARD
 70
     0
 40
0.0
 41
1.0
 50
15.0
 71
     0
 42
150.0
  3
C:\Program Files\AutoCAD LT\simplex.shx
  4
extfont.shx
  0
ENDTAB
  0
TABLE
  2
VIEW
 70
     0
  0
ENDTAB
  0
TABLE
  2
UCS
 70
     0
  0
ENDTAB
  0
TABLE
  2
APPID
 70
     1
  0
APPID
  2
ACAD
 70
     0
  0
ENDTAB
  0
TABLE
  2
DIMSTYLE
 70
     2
  0
DIMSTYLE
  2
STANDARD
 70
     0
  3

  4

  5

  6

  7

 40
1.0
 41
0.18
 42
0.0625
 43
0.38
 44
0.18
 45
0.0
 46
0.0
 47
0.0
 48
0.0
140
0.18
141
0.09
142
0.0
143
25.399999999999999
144
1.0
145
0.0
146
1.0
147
0.09
 71
     0
 72
     0
 73
     1
 74
     1
 75
     0
 76
     0
 77
     0
 78
     0
170
     0
171
     2
172
     0
173
     0
174
     0
175
     0
176
     0
177
     0
178
     0
  0
DIMSTYLE
  2
MATSU
 70
     0
  3

  4

  5

  6
OPEN
  7
OPEN
 40
1.0
 41
2.0
 42
1.0
 43
10.0
 44
1.0
 45
0.0
 46
0.0
 47
0.0
 48
0.0
140
3.0
141
0.0
142
0.0
143
0.03937
144
1.0
145
0.0
146
1.0
147
0.5
 71
     0
 72
     0
 73
     0
 74
     0
 75
     0
 76
     0
 77
     1
 78
     8
170
     0
171
     2
172
     1
173
     1
174
     0
175
     0
176
   256
177
   256
178
   256
  0
ENDTAB
  0
ENDSEC
  0
SECTION
  2
BLOCKS
  0
BLOCK
  8
0
  2
$MODEL_SPACE
 70
     0
 10
0.0
 20
0.0
 30
0.0
  3
$MODEL_SPACE
  1

  0
ENDBLK
  5
1B
  8
0
  0
BLOCK
 67
     1
  8
0
  2
$PAPER_SPACE
 70
     0
 10
0.0
 20
0.0
 30
0.0
  3
$PAPER_SPACE
  1

  0
ENDBLK
  5
18
 67
     1
  8
0
  0
BLOCK
  8
0
  2
_OPEN
 70
     0
 10
0.0
 20
0.0
 30
0.0
  3
_OPEN
  1

  0
LINE
  5
28
  8
0
  6
BYBLOCK
 62
     0
 10
-1.0
 20
0.1666666666666666
 30
0.0
 11
0.0
 21
0.0
 31
0.0
  0
LINE
  5
29
  8
0
  6
BYBLOCK
 62
     0
 10
0.0
 20
0.0
 30
0.0
 11
-1.0
 21
-0.1666666666666666
 31
0.0
  0
LINE
  5
2A
  8
0
  6
BYBLOCK
 62
     0
 10
0.0
 20
0.0
 30
0.0
 11
-1.0
 21
0.0
 31
0.0
  0
ENDBLK
  5
2B
  8
0
  0
BLOCK
  8
0
  2
まっすぐの矢印
 70
     0
 10
0.0
 20
0.0
 30
0.0
  3
まっすぐの矢印
  1

  0
LINE
  5
56E2
  8
SP
 10
0.6962157491662495
 20
-2.216890595009601
 30
0.0
 11
0.6962157491662495
 21
-5.0
 31
0.0
  0
LINE
  5
56E3
  8
SP
 10
0.6962157491662495
 20
-5.0
 30
0.0
 11
-0.6962157491662495
 21
-5.0
 31
0.0
  0
LINE
  5
56E4
  8
SP
 10
-0.6962157491662495
 20
-5.0
 30
0.0
 11
-0.6962157491662495
 21
-2.216890595009601
 31
0.0
  0
LINE
  5
56E5
  8
SP
 10
-0.6962157491662495
 20
-2.216890595009601
 30
0.0
 11
-1.7145256852758151
 21
-2.216890595009601
 31
0.0
  0
LINE
  5
56E6
  8
SP
 10
-1.7145256852758151
 20
-2.216890595009601
 30
0.0
 11
0.0
 21
0.0
 31
0.0
  0
LINE
  5
56E7
  8
SP
 10
0.0
 20
0.0
 30
0.0
 11
1.7145256852758151
 21
-2.216890595009601
 31
0.0
  0
LINE
  5
56E8
  8
SP
 10
1.7145256852758151
 20
-2.216890595009601
 30
0.0
 11
0.6962157491662495
 21
-2.216890595009601
 31
0.0
  0
ENDBLK
  5
56EA
  8
0
  0
BLOCK
  8
0
  2
右回転矢印
 70
     0
 10
0.0
 20
0.0
 30
0.0
  3
右回転矢印
  1

  0
LINE
  5
56EC
  8
SP
 10
-2.7705290305565882
 20
1.567794835092901
 30
0.0
 11
-2.4288000558398148
 21
2.8051227455822878
 31
0.0
  0
LINE
  5
56ED
  8
SP
 10
-2.4288000558398148
 20
2.8051227455822878
 30
0.0
 11
0.0
 21
0.0
 31
0.0
  0
LINE
  5
56EE
  8
SP
 10
0.0
 20
0.0
 30
0.0
 11
-3.3160037613098718
 21
-0.4072531086382499
 31
0.0
  0
LINE
  5
56EF
  8
SP
 10
-3.3160037613098718
 20
-0.4072531086382499
 30
0.0
 11
-3.0391574735299112
 21
0.5951483970269315
 31
0.0
  0
ARC
  5
56F0
  8
SP
 10
-5.9215210782018062
 20
-9.8412769578768184
 30
0.0
 40
10.82714154973578
 50
74.560750721316467
 51
112.11861101078711
  0
LINE
  5
56F1
  8
SP
 10
-9.9982127316752951
 20
0.1890560027239694
 30
0.0
 11
-10.37814929817227
 21
1.1238557349100611
 31
0.0
  0
ARC
  5
56F2
  8
SP
 10
-5.9215210782018062
 20
-9.8412769578768291
 30
0.0
 40
11.83620167374065
 50
74.560750721316396
 51
112.11861101078701
  0
ENDBLK
  5
56F4
  8
0
  0
BLOCK
  8
0
  2
*D3
 70
     1
 10
0.0
 20
0.0
 30
0.0
  3
*D3
  1

  0
LINE
  5
90FA
  8
SP
 10
11634.622805936269
 20
8898.2616573486393
 30
0.0
 11
11634.622805936269
 21
8647.7493471655343
 31
0.0
  0
LINE
  5
90FB
  8
SP
 10
12584.622805936269
 20
8898.2616573486393
 30
0.0
 11
12584.622805936269
 21
8647.7493471655343
 31
0.0
  0
LINE
  5
90FC
  8
SP
 10
11722.122805936269
 20
8682.7493471655343
 30
0.0
 11
12497.122805936269
 21
8682.7493471655343
 31
0.0
  0
INSERT
  5
90FD
  8
SP
  2
_OPEN
 10
11634.622805936269
 20
8682.7493471655343
 30
0.0
 41
87.5
 42
87.5
 43
87.5
 50
180.0
  0
INSERT
  5
90FE
  8
SP
  2
_OPEN
 10
12584.622805936269
 20
8682.7493471655343
 30
0.0
 41
87.5
 42
87.5
 43
87.5
  0
TEXT
  5
90FF
  8
FUTO
 10
11961.225346314721
 20
8717.7493471655343
 30
0.0
 40
105.0
  1
950
 51
15.0
  0
POINT
  5
9100
  8
DEFPOINTS
 62
     0
 10
11634.622805936269
 20
8933.2616573486375
 30
0.0
  0
POINT
  5
9101
  8
DEFPOINTS
 62
     0
 10
12584.622805936269
 20
8933.2616573486375
 30
0.0
  0
POINT
  5
9102
  8
DEFPOINTS
 62
     0
 10
12584.622805936269
 20
8682.7493471655343
 30
0.0
  0
ENDBLK
  5
6A60
  8
0
  0
BLOCK
  8
0
  2
*D4
 70
     1
 10
0.0
 20
0.0
 30
0.0
  3
*D4
  1

  0
LINE
  5
9115
  8
SP
 10
12584.622805936269
 20
8898.2616573486393
 30
0.0
 11
12584.622805936269
 21
8647.7493471655343
 31
0.0
  0
LINE
  5
9116
  8
SP
 10
14134.622805936269
 20
8898.2616573486393
 30
0.0
 11
14134.622805936269
 21
8647.7493471655343
 31
0.0
  0
LINE
  5
9117
  8
SP
 10
12672.122805936269
 20
8682.7493471655343
 30
0.0
 11
14047.122805936269
 21
8682.7493471655343
 31
0.0
  0
INSERT
  5
9118
  8
SP
  2
_OPEN
 10
12584.622805936269
 20
8682.7493471655343
 30
0.0
 41
87.5
 42
87.5
 43
87.5
 50
180.0
  0
INSERT
  5
9119
  8
SP
  2
_OPEN
 10
14134.622805936269
 20
8682.7493471655343
 30
0.0
 41
87.5
 42
87.5
 43
87.5
  0
TEXT
  5
911A
  8
FUTO
 10
13164.34712457963
 20
8717.7493471655343
 30
0.0
 40
105.0
  1
1550
 51
15.0
  0
POINT
  5
911B
  8
DEFPOINTS
 62
     0
 10
12584.622805936269
 20
8933.2616573486375
 30
0.0
  0
POINT
  5
911C
  8
DEFPOINTS
 62
     0
 10
14134.622805936269
 20
8933.2616573486375
 30
0.0
  0
POINT
  5
911D
  8
DEFPOINTS
 62
     0
 10
14134.622805936269
 20
8682.7493471655343
 30
0.0
  0
ENDBLK
  5
6A6D
  8
0
  0
BLOCK
  8
0
  2
*D5
 70
     1
 10
0.0
 20
0.0
 30
0.0
  3
*D5
  1

  0
LINE
  5
90F1
  8
SP
 10
11634.622805936269
 20
8898.2616573486393
 30
0.0
 11
11634.622805936269
 21
8397.6616031678768
 31
0.0
  0
LINE
  5
90F2
  8
SP
 10
14134.622805936269
 20
8898.2616573486393
 30
0.0
 11
14134.622805936269
 21
8397.6616031678768
 31
0.0
  0
LINE
  5
90F3
  8
SP
 10
11722.122805936269
 20
8432.6616031678768
 30
0.0
 11
14047.122805936269
 21
8432.6616031678768
 31
0.0
  0
INSERT
  5
90F4
  8
SP
  2
_OPEN
 10
11634.622805936269
 20
8432.6616031678768
 30
0.0
 41
87.5
 42
87.5
 43
87.5
 50
180.0
  0
INSERT
  5
90F5
  8
SP
  2
_OPEN
 10
14134.622805936269
 20
8432.6616031678768
 30
0.0
 41
87.5
 42
87.5
 43
87.5
  0
TEXT
  5
90F6
  8
FUTO
 10
12690.734965257951
 20
8467.6616031678768
 30
0.0
 40
105.0
  1
2500
 51
15.0
  0
POINT
  5
90F7
  8
DEFPOINTS
 62
     0
 10
11634.622805936269
 20
8933.2616573486375
 30
0.0
  0
POINT
  5
90F8
  8
DEFPOINTS
 62
     0
 10
14134.622805936269
 20
8933.2616573486375
 30
0.0
  0
POINT
  5
90F9
  8
DEFPOINTS
 62
     0
 10
14134.622805936269
 20
8432.6616031678768
 30
0.0
  0
ENDBLK
  5
6A7A
  8
0
  0
BLOCK
  8
0
  2
*D6
 70
     1
 10
0.0
 20
0.0
 30
0.0
  3
*D6
  1

  0
LINE
  5
9154
  8
SP
 10
15109.780322280099
 20
8898.2616573486393
 30
0.0
 11
15109.780322280099
 21
8647.7493237776962
 31
0.0
  0
LINE
  5
9155
  8
SP
 10
16740.780322280101
 20
8898.2616573486393
 30
0.0
 11
16740.780322280101
 21
8647.7493237776962
 31
0.0
  0
LINE
  5
9156
  8
SP
 10
15197.280322280099
 20
8682.7493237776962
 30
0.0
 11
16653.280322280101
 21
8682.7493237776962
 31
0.0
  0
INSERT
  5
9157
  8
SP
  2
_OPEN
 10
15109.780322280099
 20
8682.7493237776962
 30
0.0
 41
87.5
 42
87.5
 43
87.5
 50
180.0
  0
INSERT
  5
9158
  8
SP
  2
_OPEN
 10
16740.780322280101
 20
8682.7493237776962
 30
0.0
 41
87.5
 42
87.5
 43
87.5
  0
TEXT
  5
9159
  8
FUTO
 10
15747.325148999151
 20
8717.7493237776944
 30
0.0
 40
105.0
  1
1631
 51
15.0
  0
POINT
  5
915A
  8
DEFPOINTS
 62
     0
 10
15109.780322280099
 20
8933.2616573486375
 30
0.0
  0
POINT
  5
915B
  8
DEFPOINTS
 62
     0
 10
16740.780322280101
 20
8933.2616573486375
 30
0.0
  0
POINT
  5
915C
  8
DEFPOINTS
 62
     0
 10
16740.780322280101
 20
8682.7493237776962
 30
0.0
  0
ENDBLK
  5
6A87
  8
0
  0
BLOCK
  8
0
  2
*D7
 70
     1
 10
0.0
 20
0.0
 30
0.0
  3
*D7
  1

  0
LINE
  5
915D
  8
SP
 10
16740.780322280101
 20
8898.2616573486393
 30
0.0
 11
16740.780322280101
 21
8647.7493237776962
 31
0.0
  0
LINE
  5
915E
  8
SP
 10
17409.780322280101
 20
8898.2616573486393
 30
0.0
 11
17409.780322280101
 21
8647.7493237776962
 31
0.0
  0
LINE
  5
915F
  8
SP
 10
16828.280322280101
 20
8682.7493237776962
 30
0.0
 11
17322.280322280109
 21
8682.7493237776962
 31
0.0
  0
INSERT
  5
9160
  8
SP
  2
_OPEN
 10
16740.780322280101
 20
8682.7493237776962
 30
0.0
 41
87.5
 42
87.5
 43
87.5
 50
180.0
  0
INSERT
  5
9161
  8
SP
  2
_OPEN
 10
17409.780322280101
 20
8682.7493237776962
 30
0.0
 41
87.5
 42
87.5
 43
87.5
  0
TEXT
  5
9162
  8
FUTO
 10
16928.712989677471
 20
8717.7493237776944
 30
0.0
 40
105.0
  1
669
 51
15.0
  0
POINT
  5
9163
  8
DEFPOINTS
 62
     0
 10
16740.780322280101
 20
8933.2616573486375
 30
0.0
  0
POINT
  5
9164
  8
DEFPOINTS
 62
     0
 10
17409.780322280101
 20
8933.2616573486375
 30
0.0
  0
POINT
  5
9165
  8
DEFPOINTS
 62
     0
 10
17409.780322280101
 20
8682.7493237776962
 30
0.0
  0
ENDBLK
  5
6A94
  8
0
  0
BLOCK
  8
0
  2
*D8
 70
     1
 10
0.0
 20
0.0
 30
0.0
  3
*D8
  1

  0
LINE
  5
914B
  8
SP
 10
15109.780322280099
 20
8898.2616573486393
 30
0.0
 11
15109.780322280099
 21
8397.6615797800405
 31
0.0
  0
LINE
  5
914C
  8
SP
 10
17409.780322280101
 20
8898.2616573486393
 30
0.0
 11
17409.780322280101
 21
8397.6615797800405
 31
0.0
  0
LINE
  5
914D
  8
SP
 10
15197.280322280099
 20
8432.6615797800387
 30
0.0
 11
17322.280322280109
 21
8432.6615797800387
 31
0.0
  0
INSERT
  5
914E
  8
SP
  2
_OPEN
 10
15109.780322280099
 20
8432.6615797800387
 30
0.0
 41
87.5
 42
87.5
 43
87.5
 50
180.0
  0
INSERT
  5
914F
  8
SP
  2
_OPEN
 10
17409.780322280101
 20
8432.6615797800387
 30
0.0
 41
87.5
 42
87.5
 43
87.5
  0
TEXT
  5
9150
  8
FUTO
 10
16065.892481601781
 20
8467.6615797800405
 30
0.0
 40
105.0
  1
2300
 51
15.0
  0
POINT
  5
9151
  8
DEFPOINTS
 62
     0
 10
15109.780322280099
 20
8933.2616573486375
 30
0.0
  0
POINT
  5
9152
  8
DEFPOINTS
 62
     0
 10
17409.780322280101
 20
8933.2616573486375
 30
0.0
  0
POINT
  5
9153
  8
DEFPOINTS
 62
     0
 10
17409.780322280101
 20
8432.6615797800387
 30
0.0
  0
ENDBLK
  5
6AA1
  8
0
  0
BLOCK
  8
0
  2
*D9
 70
     1
 10
0.0
 20
0.0
 30
0.0
  3
*D9
  1

  0
LINE
  5
9142
  8
SP
 10
16740.780322280101
 20
12363.821035739051
 30
0.0
 11
16740.780322280101
 21
12409.793415288021
 31
0.0
  0
LINE
  5
9143
  8
SP
 10
17465.780322280101
 20
11253.798530955861
 30
0.0
 11
17465.780322280101
 21
12409.793415288021
 31
0.0
  0
LINE
  5
9144
  8
SP
 10
16828.280322280101
 20
12374.793415288021
 30
0.0
 11
17378.280322280101
 21
12374.793415288021
 31
0.0
  0
INSERT
  5
9145
  8
SP
  2
_OPEN
 10
16740.780322280101
 20
12374.793415288021
 30
0.0
 41
87.5
 42
87.5
 43
87.5
 50
180.0
  0
INSERT
  5
9146
  8
SP
  2
_OPEN
 10
17465.780322280101
 20
12374.793415288021
 30
0.0
 41
87.5
 42
87.5
 43
87.5
  0
TEXT
  5
9147
  8
FUTO
 10
16949.212989677471
 20
12409.793415288021
 30
0.0
 40
105.0
  1
725
 51
15.0
  0
POINT
  5
9148
  8
DEFPOINTS
 62
     0
 10
16740.780322280101
 20
12328.82103573906
 30
0.0
  0
POINT
  5
9149
  8
DEFPOINTS
 62
     0
 10
17465.780322280101
 20
11218.798530955861
 30
0.0
  0
POINT
  5
914A
  8
DEFPOINTS
 62
     0
 10
17465.780322280101
 20
12374.793415288021
 30
0.0
  0
ENDBLK
  5
6AFF
  8
0
  0
BLOCK
  8
0
  2
*D10
 70
     1
 10
0.0
 20
0.0
 30
0.0
  3
*D10
  1

  0
LINE
  5
9166
  8
SP
 10
17500.780322280101
 20
11168.26165734863
 30
0.0
 11
17779.97372348198
 21
11168.26165734863
 31
0.0
  0
LINE
  5
9167
  8
SP
 10
17500.780322280101
 20
9568.2616573486375
 30
0.0
 11
17779.97372348198
 21
9568.2616573486375
 31
0.0
  0
LINE
  5
9168
  8
SP
 10
17744.97372348198
 20
11080.76165734863
 30
0.0
 11
17744.97372348198
 21
9655.7616573486375
 31
0.0
  0
INSERT
  5
9169
  8
SP
  2
_OPEN
 10
17744.97372348198
 20
11168.26165734863
 30
0.0
 41
87.5
 42
87.5
 43
87.5
 50
90.0
  0
INSERT
  5
916A
  8
SP
  2
_OPEN
 10
17744.97372348198
 20
9568.2616573486375
 30
0.0
 41
87.5
 42
87.5
 43
87.5
 50
270.0
  0
TEXT
  5
916B
  8
FUTO
 10
17709.97372348198
 20
10136.56292753786
 30
0.0
 40
105.0
  1
φ1600
 50
90.0
 51
15.0
  0
POINT
  5
916C
  8
DEFPOINTS
 62
     0
 10
17465.780322280101
 20
11168.26165734863
 30
0.0
  0
POINT
  5
916D
  8
DEFPOINTS
 62
     0
 10
17465.780322280101
 20
9568.2616573486375
 30
0.0
  0
POINT
  5
916E
  8
DEFPOINTS
 62
     0
 10
17744.97372348198
 20
9568.2616573486375
 30
0.0
  0
ENDBLK
  5
6F63
  8
0
  0
BLOCK
  8
0
  2
*D11
 70
     1
 10
0.0
 20
0.0
 30
0.0
  3
*D11
  1

  0
LINE
  5
90E0
  8
SP
 10
14860.780322280099
 20
10768.530248661509
 30
0.0
 11
14860.780322280099
 21
12409.793415288021
 31
0.0
  0
LINE
  5
90E1
  8
SP
 10
14948.280322280099
 20
12374.793415288021
 30
0.0
 11
16653.280322280101
 21
12374.793415288021
 31
0.0
  0
INSERT
  5
90E2
  8
SP
  2
_OPEN
 10
14860.780322280099
 20
12374.793415288021
 30
0.0
 41
87.5
 42
87.5
 43
87.5
 50
180.0
  0
INSERT
  5
90E3
  8
SP
  2
_OPEN
 10
16740.780322280101
 20
12374.793415288021
 30
0.0
 41
87.5
 42
87.5
 43
87.5
  0
TEXT
  5
90E4
  8
FUTO
 10
15605.50464092346
 20
12409.793415288021
 30
0.0
 40
105.0
  1
1880
 51
15.0
  0
POINT
  5
90E5
  8
DEFPOINTS
 62
     0
 10
14860.780322280099
 20
10733.530248661509
 30
0.0
  0
POINT
  5
90E6
  8
DEFPOINTS
 62
     0
 10
16740.780322280101
 20
12374.793415288021
 30
0.0
  0
POINT
  5
90E7
  8
DEFPOINTS
 62
     0
 10
16740.780322280101
 20
12374.793415288021
 30
0.0
  0
ENDBLK
  5
6FBD
  8
0
  0
BLOCK
  8
0
  2
*D12
 70
     1
 10
0.0
 20
0.0
 30
0.0
  3
*D12
  1

  0
LINE
  5
9103
  8
SP
 10
11396.9909454229
 20
10368.26165734863
 30
0.0
 11
11154.45641485439
 21
10368.26165734863
 31
0.0
  0
LINE
  5
9104
  8
SP
 10
11504.622805936269
 20
12131.26165734863
 30
0.0
 11
11154.45641485439
 21
12131.26165734863
 31
0.0
  0
LINE
  5
9105
  8
SP
 10
11189.45641485439
 20
10455.76165734863
 30
0.0
 11
11189.45641485439
 21
12043.76165734863
 31
0.0
  0
INSERT
  5
9106
  8
SP
  2
_OPEN
 10
11189.45641485439
 20
10368.26165734863
 30
0.0
 41
87.5
 42
87.5
 43
87.5
 50
270.0
  0
INSERT
  5
9107
  8
SP
  2
_OPEN
 10
11189.45641485439
 20
12131.26165734863
 30
0.0
 41
87.5
 42
87.5
 43
87.5
 50
90.0
  0
TEXT
  5
9108
  8
FUTO
 10
11154.45641485439
 20
11051.80648406768
 30
0.0
 40
105.0
  1
1763
 50
90.0
 51
15.0
  0
POINT
  5
9109
  8
DEFPOINTS
 62
     0
 10
11431.9909454229
 20
10368.26165734863
 30
0.0
  0
POINT
  5
910A
  8
DEFPOINTS
 62
     0
 10
11539.622805936269
 20
12131.26165734863
 30
0.0
  0
POINT
  5
910B
  8
DEFPOINTS
 62
     0
 10
11189.45641485439
 20
12131.26165734863
 30
0.0
  0
ENDBLK
  5
8034
  8
0
  0
BLOCK
  8
0
  2
*D13
 70
     1
 10
0.0
 20
0.0
 30
0.0
  3
*D13
  1

  0
LINE
  5
90E8
  8
SP
 10
12584.622805936269
 20
12236.61977931848
 30
0.0
 11
12584.622805936269
 21
12419.45682359638
 31
0.0
  0
LINE
  5
90E9
  8
SP
 10
11539.622805936269
 20
12166.26165734863
 30
0.0
 11
11539.622805936269
 21
12419.45682359638
 31
0.0
  0
LINE
  5
90EA
  8
SP
 10
12497.122805936269
 20
12384.45682359638
 30
0.0
 11
11627.122805936269
 21
12384.45682359638
 31
0.0
  0
INSERT
  5
90EB
  8
SP
  2
_OPEN
 10
12584.622805936269
 20
12384.45682359638
 30
0.0
 41
87.5
 42
87.5
 43
87.5
  0
INSERT
  5
90EC
  8
SP
  2
_OPEN
 10
11539.622805936269
 20
12384.45682359638
 30
0.0
 41
87.5
 42
87.5
 43
87.5
 50
180.0
  0
TEXT
  5
90ED
  8
FUTO
 10
11866.667632655321
 20
12419.45682359638
 30
0.0
 40
105.0
  1
1045
 51
15.0
  0
POINT
  5
90EE
  8
DEFPOINTS
 62
     0
 10
12584.622805936269
 20
12201.61977931848
 30
0.0
  0
POINT
  5
90EF
  8
DEFPOINTS
 62
     0
 10
11539.622805936269
 20
12131.26165734863
 30
0.0
  0
POINT
  5
90F0
  8
DEFPOINTS
 62
     0
 10
11539.622805936269
 20
12384.45682359638
 30
0.0
  0
ENDBLK
  5
805F
  8
0
  0
BLOCK
  8
0
  2
*D14
 70
     1
 10
0.0
 20
0.0
 30
0.0
  3
*D14
  1

  0
LINE
  5
9139
  8
SP
 10
14382.622805936269
 20
14742.626151380109
 30
0.0
 11
14725.24256624987
 21
14742.626151380109
 31
0.0
  0
LINE
  5
913A
  8
SP
 10
13484.622805936269
 20
15467.626151380109
 30
0.0
 11
14725.24256624987
 21
15467.626151380109
 31
0.0
  0
LINE
  5
913B
  8
SP
 10
14690.24256624987
 20
14830.126151380109
 30
0.0
 11
14690.24256624987
 21
15380.126151380109
 31
0.0
  0
INSERT
  5
913C
  8
SP
  2
_OPEN
 10
14690.24256624987
 20
14742.626151380109
 30
0.0
 41
87.5
 42
87.5
 43
87.5
 50
270.0
  0
INSERT
  5
913D
  8
SP
  2
_OPEN
 10
14690.24256624987
 20
15467.626151380109
 30
0.0
 41
87.5
 42
87.5
 43
87.5
 50
90.0
  0
TEXT
  5
913E
  8
FUTO
 10
14655.24256624987
 20
14951.058818777479
 30
0.0
 40
105.0
  1
725
 50
90.0
 51
15.0
  0
POINT
  5
913F
  8
DEFPOINTS
 62
     0
 10
14347.622805936269
 20
14742.626151380109
 30
0.0
  0
POINT
  5
9140
  8
DEFPOINTS
 62
     0
 10
13449.622805936269
 20
15467.626151380109
 30
0.0
  0
POINT
  5
9141
  8
DEFPOINTS
 62
     0
 10
14690.24256624987
 20
15467.626151380109
 30
0.0
  0
ENDBLK
  5
80A1
  8
0
  0
BLOCK
  8
0
  2
*D15
 70
     1
 10
0.0
 20
0.0
 30
0.0
  3
*D15
  1

  0
LINE
  5
9130
  8
SP
 10
14382.622805936269
 20
14742.626151380109
 30
0.0
 11
14725.24256624987
 21
14742.626151380109
 31
0.0
  0
LINE
  5
9131
  8
SP
 10
14073.122805936269
 20
12862.626151380109
 30
0.0
 11
14725.24256624987
 21
12862.626151380109
 31
0.0
  0
LINE
  5
9132
  8
SP
 10
14690.24256624987
 20
14655.126151380109
 30
0.0
 11
14690.24256624987
 21
12950.126151380109
 31
0.0
  0
INSERT
  5
9133
  8
SP
  2
_OPEN
 10
14690.24256624987
 20
14742.626151380109
 30
0.0
 41
87.5
 42
87.5
 43
87.5
 50
90.0
  0
INSERT
  5
9134
  8
SP
  2
_OPEN
 10
14690.24256624987
 20
12862.626151380109
 30
0.0
 41
87.5
 42
87.5
 43
87.5
 50
270.0
  0
TEXT
  5
9135
  8
FUTO
 10
14655.24256624987
 20
13607.35047002347
 30
0.0
 40
105.0
  1
1880
 50
90.0
 51
15.0
  0
POINT
  5
9136
  8
DEFPOINTS
 62
     0
 10
14347.622805936269
 20
14742.626151380109
 30
0.0
  0
POINT
  5
9137
  8
DEFPOINTS
 62
     0
 10
14038.122805936269
 20
12862.626151380109
 30
0.0
  0
POINT
  5
9138
  8
DEFPOINTS
 62
     0
 10
14690.24256624987
 20
12862.626151380109
 30
0.0
  0
ENDBLK
  5
80AE
  8
0
  0
BLOCK
  8
0
  2
*D16
 70
     1
 10
0.0
 20
0.0
 30
0.0
  3
*D16
  1

  0
LINE
  5
9127
  8
SP
 10
12584.622805936269
 20
15547.40406319698
 30
0.0
 11
12584.622805936269
 21
15813.55704035863
 31
0.0
  0
LINE
  5
9128
  8
SP
 10
14134.62280593628
 20
14183.626151380109
 30
0.0
 11
14134.62280593628
 21
15813.55704035863
 31
0.0
  0
LINE
  5
9129
  8
SP
 10
12672.122805936269
 20
15778.55704035863
 30
0.0
 11
14047.12280593628
 21
15778.55704035863
 31
0.0
  0
INSERT
  5
912A
  8
SP
  2
_OPEN
 10
12584.622805936269
 20
15778.55704035863
 30
0.0
 41
87.5
 42
87.5
 43
87.5
 50
180.0
  0
INSERT
  5
912B
  8
SP
  2
_OPEN
 10
14134.62280593628
 20
15778.55704035863
 30
0.0
 41
87.5
 42
87.5
 43
87.5
  0
TEXT
  5
912C
  8
FUTO
 10
13164.34712457963
 20
15813.55704035863
 30
0.0
 40
105.0
  1
1550
 51
15.0
  0
POINT
  5
912D
  8
DEFPOINTS
 62
     0
 10
12584.622805936269
 20
15512.40406319698
 30
0.0
  0
POINT
  5
912E
  8
DEFPOINTS
 62
     0
 10
14134.62280593628
 20
14148.626151380109
 30
0.0
  0
POINT
  5
912F
  8
DEFPOINTS
 62
     0
 10
14134.62280593628
 20
15778.55704035863
 30
0.0
  0
ENDBLK
  5
8221
  8
0
  0
BLOCK
  8
0
  2
*D17
 70
     1
 10
0.0
 20
0.0
 30
0.0
  3
*D17
  1

  0
LINE
  5
911E
  8
SP
 10
12584.622805936269
 20
15547.40406319698
 30
0.0
 11
12584.622805936269
 21
15813.55704035863
 31
0.0
  0
LINE
  5
911F
  8
SP
 10
11539.622805936269
 20
15421.626151380109
 30
0.0
 11
11539.622805936269
 21
15813.55704035863
 31
0.0
  0
LINE
  5
9120
  8
SP
 10
12497.122805936269
 20
15778.55704035863
 30
0.0
 11
11627.122805936269
 21
15778.55704035863
 31
0.0
  0
INSERT
  5
9121
  8
SP
  2
_OPEN
 10
12584.622805936269
 20
15778.55704035863
 30
0.0
 41
87.5
 42
87.5
 43
87.5
  0
INSERT
  5
9122
  8
SP
  2
_OPEN
 10
11539.622805936269
 20
15778.55704035863
 30
0.0
 41
87.5
 42
87.5
 43
87.5
 50
180.0
  0
TEXT
  5
9123
  8
FUTO
 10
11866.667632655321
 20
15813.55704035863
 30
0.0
 40
105.0
  1
1045
 51
15.0
  0
POINT
  5
9124
  8
DEFPOINTS
 62
     0
 10
12584.622805936269
 20
15512.40406319698
 30
0.0
  0
POINT
  5
9125
  8
DEFPOINTS
 62
     0
 10
11539.622805936269
 20
15386.626151380109
 30
0.0
  0
POINT
  5
9126
  8
DEFPOINTS
 62
     0
 10
11539.622805936269
 20
15778.55704035863
 30
0.0
  0
ENDBLK
  5
822E
  8
0
  0
BLOCK
  8
0
  2
*D18
 70
     1
 10
0.0
 20
0.0
 30
0.0
  3
*D18
  1

  0
LINE
  5
910C
  8
SP
 10
11239.9599696689
 20
10368.26165734863
 30
0.0
 11
11154.45641485439
 21
10368.26165734863
 31
0.0
  0
LINE
  5
910D
  8
SP
 10
11599.622805936269
 20
9198.2616573486375
 30
0.0
 11
11154.45641485439
 21
9198.2616573486375
 31
0.0
  0
LINE
  5
910E
  8
SP
 10
11189.45641485439
 20
10280.76165734863
 30
0.0
 11
11189.45641485439
 21
9285.7616573486375
 31
0.0
  0
INSERT
  5
910F
  8
SP
  2
_OPEN
 10
11189.45641485439
 20
10368.26165734863
 30
0.0
 41
87.5
 42
87.5
 43
87.5
 50
90.0
  0
INSERT
  5
9110
  8
SP
  2
_OPEN
 10
11189.45641485439
 20
9198.2616573486375
 30
0.0
 41
87.5
 42
87.5
 43
87.5
 50
270.0
  0
TEXT
  5
9111
  8
FUTO
 10
11154.45641485439
 20
9597.9859759919946
 30
0.0
 40
105.0
  1
1170
 50
90.0
 51
15.0
  0
POINT
  5
9112
  8
DEFPOINTS
 62
     0
 10
11274.9599696689
 20
10368.26165734863
 30
0.0
  0
POINT
  5
9113
  8
DEFPOINTS
 62
     0
 10
11634.622805936269
 20
9198.2616573486375
 30
0.0
  0
POINT
  5
9114
  8
DEFPOINTS
 62
     0
 10
11189.45641485439
 20
9198.2616573486375
 30
0.0
  0
ENDBLK
  5
829D
  8
0
  0
BLOCK
  8
0
  2
*U19
 70
     1
 10
0.0
 20
0.0
 30
0.0
  3
*U19
  1

  0
SOLID
  5
9186
  8
FUTO
  6
CONTINUOUS
 10
11824.622805936269
 20
9198.2616573486375
 30
0.0
 11
11784.622805936269
 21
9198.2616573486375
 31
0.0
 12
11824.622805936269
 22
9083.2616573486375
 32
0.0
 13
11824.622805936269
 23
9083.2616573486375
 33
0.0
210
0.0
220
0.0
230
1.0
  0
SOLID
  5
9187
  8
FUTO
  6
CONTINUOUS
 10
11784.622805936269
 20
9083.2616573486375
 30
0.0
 11
11824.622805936269
 21
9083.2616573486375
 31
0.0
 12
11784.622805936269
 22
9198.2616573486375
 32
0.0
 13
11784.622805936269
 23
9198.2616573486375
 33
0.0
210
0.0
220
0.0
230
1.0
  0
SOLID
  5
9188
  8
FUTO
  6
CONTINUOUS
 10
11864.622805936269
 20
9198.2616573486375
 30
0.0
 11
11824.622805936269
 21
9198.2616573486375
 31
0.0
 12
11864.622805936269
 22
9083.2616573486375
 32
0.0
 13
11864.622805936269
 23
9083.2616573486375
 33
0.0
210
0.0
220
0.0
230
1.0
  0
SOLID
  5
9189
  8
FUTO
  6
CONTINUOUS
 10
11824.622805936269
 20
9083.2616573486375
 30
0.0
 11
11864.622805936269
 21
9083.2616573486375
 31
0.0
 12
11824.622805936269
 22
9198.2616573486375
 32
0.0
 13
11824.622805936269
 23
9198.2616573486375
 33
0.0
210
0.0
220
0.0
230
1.0
  0
ENDBLK
  5
918B
  8
0
  0
BLOCK
  8
0
  2
*U20
 70
     1
 10
0.0
 20
0.0
 30
0.0
  3
*U20
  1

  0
SOLID
  5
918D
  8
SP
  6
CONTINUOUS
 10
11189.45641485439
 20
9083.2616573486375
 30
0.0
 11
11189.45641485439
 21
9099.3686927518702
 31
0.0
 12
11173.34937945116
 22
9083.2616573486375
 32
0.0
 13
11173.34937945116
 23
9083.2616573486375
 33
0.0
210
0.0
220
0.0
230
1.0
  0
SOLID
  5
918E
  8
SP
  6
CONTINUOUS
 10
11178.06702089596
 20
9094.6510513070789
 30
0.0
 11
11173.34937945116
 21
9083.2616573486375
 31
0.0
 12
11189.45641485439
 22
9099.3686927518702
 32
0.0
 13
11189.45641485439
 23
9099.3686927518702
 33
0.0
210
0.0
220
0.0
230
1.0
  0
SOLID
  5
918F
  8
SP
  6
CONTINUOUS
 10
11189.45641485439
 20
9083.2616573486375
 30
0.0
 11
11205.56345025763
 21
9083.2616573486375
 31
0.0
 12
11189.45641485439
 22
9099.3686927518702
 32
0.0
 13
11189.45641485439
 23
9099.3686927518702
 33
0.0
210
0.0
220
0.0
230
1.0
  0
SOLID
  5
9190
  8
SP
  6
CONTINUOUS
 10
11200.845808812839
 20
9094.6510513070789
 30
0.0
 11
11189.45641485439
 21
9099.3686927518702
 31
0.0
 12
11205.56345025763
 22
9083.2616573486375
 32
0.0
 13
11205.56345025763
 23
9083.2616573486375
 33
0.0
210
0.0
220
0.0
230
1.0
  0
SOLID
  5
9191
  8
SP
  6
CONTINUOUS
 10
11189.45641485439
 20
9083.2616573486375
 30
0.0
 11
11189.45641485439
 21
9067.1546219454049
 31
0.0
 12
11205.56345025763
 22
9083.2616573486375
 32
0.0
 13
11205.56345025763
 23
9083.2616573486375
 33
0.0
210
0.0
220
0.0
230
1.0
  0
SOLID
  5
9192
  8
SP
  6
CONTINUOUS
 10
11200.845808812839
 20
9071.8722633901962
 30
0.0
 11
11205.56345025763
 21
9083.2616573486375
 31
0.0
 12
11189.45641485439
 22
9067.1546219454049
 32
0.0
 13
11189.45641485439
 23
9067.1546219454049
 33
0.0
210
0.0
220
0.0
230
1.0
  0
SOLID
  5
9193
  8
SP
  6
CONTINUOUS
 10
11173.34937945116
 20
9083.2616573486375
 30
0.0
 11
11178.06702089596
 21
9071.8722633901962
 31
0.0
 12
11189.45641485439
 22
9083.2616573486375
 32
0.0
 13
11189.45641485439
 23
9083.2616573486375
 33
0.0
210
0.0
220
0.0
230
1.0
  0
SOLID
  5
9194
  8
SP
  6
CONTINUOUS
 10
11189.45641485439
 20
9067.1546219454049
 30
0.0
 11
11189.45641485439
 21
9083.2616573486375
 31
0.0
 12
11178.06702089596
 22
9071.8722633901962
 32
0.0
 13
11178.06702089596
 23
9071.8722633901962
 33
0.0
210
0.0
220
0.0
230
1.0
  0
ENDBLK
  5
9196
  8
0
  0
ENDSEC
  0
SECTION
  2
ENTITIES
  0
LINE
  5
522D
  8
CT
 10
11274.9599696689
 20
10368.26165734863
 30
0.0
 11
14077.542296076979
 21
10368.26165734863
 31
0.0
  0
LINE
  5
522E
  8
CT
 10
12584.622805936269
 20
12207.954546581779
 30
0.0
 11
12584.622805936269
 21
8873.2616573486375
 31
0.0
  0
ARC
  5
5232
  8
KL
 10
12468.622805936269
 20
10484.26165734863
 30
0.0
 40
1487.0
 50
0.000000000000007
 51
85.525844023943904
  0
ARC
  5
5234
  8
KL
 10
12700.622805936269
 20
10484.26165734863
 30
0.0
 40
1255.0
 50
270.0
 51
0.000000000000007
  0
ARC
  5
5238
  8
KL
 10
12681.622805936269
 20
10271.26165734863
 30
0.0
 40
1042.0
 50
180.0
 51
270.0
  0
ARC
  5
5239
  8
KL
 10
12487.622805936269
 20
10271.26165734863
 30
0.0
 40
848.0
 50
146.2952570492711
 51
180.0
  0
LINE
  5
523A
  8
FUTO
 10
11539.622805936269
 20
10410.26165734863
 30
0.0
 11
11539.622805936269
 21
12066.26165734863
 31
0.0
  0
LINE
  5
523C
  8
KL
 10
11539.622805936269
 20
10413.26165734863
 30
0.0
 11
11651.596490560971
 21
10413.26165734863
 31
0.0
  0
LINE
  5
523D
  8
KL
 10
12584.622805936269
 20
11966.73020676208
 30
0.0
 11
11539.622805936269
 21
12063.26165734863
 31
0.0
  0
LINE
  5
523F
  8
FUTO
 10
11604.622805936269
 20
10395.26165734863
 30
0.0
 11
11604.622805936269
 21
12075.333943203441
 31
0.0
  0
LINE
  5
5251
  8
FUTO
 10
11539.622805936269
 20
10410.26165734863
 30
0.0
 11
11539.622805936269
 21
10345.26165734863
 31
0.0
  0
LINE
  5
5252
  8
FUTO
 10
11539.622805936269
 20
10410.26165734863
 30
0.0
 11
11604.622805936269
 21
10410.26165734863
 31
0.0
  0
LINE
  5
5253
  8
FUTO
 10
11539.622805936269
 20
10345.26165734863
 30
0.0
 11
11541.622805936269
 21
10345.26165734863
 31
0.0
  0
LINE
  5
5254
  8
FUTO
 10
11604.622805936269
 20
10410.26165734863
 30
0.0
 11
11604.622805936269
 21
10408.26165734863
 31
0.0
  0
LINE
  5
5255
  8
FUTO
 10
11554.122805936269
 20
10404.26165734863
 30
0.0
 11
11600.622805936269
 21
10404.26165734863
 31
0.0
  0
LINE
  5
5256
  8
FUTO
 10
11545.622805936269
 20
10395.76165734863
 30
0.0
 11
11545.622805936269
 21
10349.26165734863
 31
0.0
  0
ARC
  5
5257
  8
FUTO
 10
11541.622805936269
 20
10349.26165734863
 30
0.0
 40
4.0
 50
270.0
 51
0.000000000000007
  0
ARC
  5
5258
  8
FUTO
 10
11600.622805936269
 20
10408.26165734863
 30
0.0
 40
4.0
 50
270.0
 51
359.9999999999992
  0
ARC
  5
5259
  8
FUTO
 10
11554.122805936269
 20
10395.76165734863
 30
0.0
 40
8.5
 50
90.000000000000028
 51
180.0
  0
LINE
  5
525A
  8
FUTO
 10
11539.622805936269
 20
12066.26165734863
 30
0.0
 11
11604.622805936269
 21
12066.26165734863
 31
0.0
  0
LINE
  5
525B
  8
FUTO
 10
11539.622805936269
 20
12066.26165734863
 30
0.0
 11
11539.622805936269
 21
12131.26165734863
 31
0.0
  0
LINE
  5
525C
  8
FUTO
 10
11604.622805936269
 20
12066.26165734863
 30
0.0
 11
11604.622805936269
 21
12068.26165734863
 31
0.0
  0
LINE
  5
525D
  8
FUTO
 10
11539.622805936269
 20
12131.26165734863
 30
0.0
 11
11541.622805936269
 21
12131.26165734863
 31
0.0
  0
LINE
  5
525E
  8
FUTO
 10
11545.622805936269
 20
12080.76165734863
 30
0.0
 11
11545.622805936269
 21
12127.26165734863
 31
0.0
  0
LINE
  5
525F
  8
FUTO
 10
11554.122805936269
 20
12072.26165734863
 30
0.0
 11
11600.622805936269
 21
12072.26165734863
 31
0.0
  0
ARC
  5
5260
  8
FUTO
 10
11600.622805936269
 20
12068.26165734863
 30
0.0
 40
4.0
 50
0.000000000000007
 51
90.000000000000028
  0
ARC
  5
5261
  8
FUTO
 10
11541.622805936269
 20
12127.26165734863
 30
0.0
 40
4.0
 50
0.000000000000007
 51
89.999999999999204
  0
ARC
  5
5262
  8
FUTO
 10
11554.122805936269
 20
12080.76165734863
 30
0.0
 40
8.5
 50
180.0
 51
270.0
  0
LINE
  5
5263
  8
FUTO
 10
11545.622805936269
 20
10410.26165734863
 30
0.0
 11
11545.622805936269
 21
12066.26165734863
 31
0.0
  0
ARC
  5
5264
  8
FUTO
 10
12487.622805936269
 20
10271.26165734863
 30
0.0
 40
866.0
 50
171.76768968499709
 51
180.0
  0
LINE
  5
5265
  8
FUTO
 10
11604.622805936269
 20
10395.26165734863
 30
0.0
 11
11630.546379939149
 21
10395.26165734863
 31
0.0
  0
ARC
  5
5266
  8
FUTO
 10
12681.622805936269
 20
10271.26165734863
 30
0.0
 40
1060.0
 50
180.0
 51
229.33222794572171
  0
LINE
  5
5267
  8
KL
 10
12700.622805936269
 20
9229.2616573486375
 30
0.0
 11
12681.622805936269
 21
9229.2616573486375
 31
0.0
  0
LINE
  5
5268
  8
FUTO
 10
12700.622805936269
 20
9211.2616573486375
 30
0.0
 11
12681.622805936269
 21
9211.2616573486375
 31
0.0
  0
ARC
  5
5269
  8
FUTO
 10
12700.622805936269
 20
10484.26165734863
 30
0.0
 40
1273.0
 50
332.25096260178509
 51
354.77176523186739
  0
LINE
  5
526B
  8
FUTO
 10
12575.622805936269
 20
11985.638212562721
 30
0.0
 11
11604.622805936269
 21
12075.333943203441
 31
0.0
  0
CIRCLE
  5
526C
  8
KL
 10
11768.02222227892
 20
10751.26165734863
 30
0.0
 40
17.0
  0
LINE
  5
526D
  8
FUTO
 10
14134.622805936269
 20
9198.2616573486375
 30
0.0
 11
11634.622805936269
 21
9198.2616573486375
 31
0.0
  0
LINE
  5
526E
  8
FUTO
 10
14134.622805936269
 20
9348.2616573486375
 30
0.0
 11
11634.622805936269
 21
9348.2616573486375
 31
0.0
  0
LINE
  5
526F
  8
FUTO
 10
11634.622805936269
 20
9348.2616573486375
 30
0.0
 11
11634.622805936269
 21
9198.2616573486375
 31
0.0
  0
LINE
  5
5270
  8
FUTO
 10
14134.622805936269
 20
9348.2616573486375
 30
0.0
 11
14134.622805936269
 21
9198.2616573486375
 31
0.0
  0
LINE
  5
5273
  8
FUTO
 10
11644.622805936269
 20
12071.63895944893
 30
0.0
 11
11644.622805936269
 21
10377.26165734863
 31
0.0
  0
LINE
  5
5274
  8
FUTO
 10
13524.622805936269
 20
11556.590431559231
 30
0.0
 11
13524.622805936269
 21
10377.26165734863
 31
0.0
  0
LINE
  5
5275
  8
FUTO
 10
13515.622805936269
 20
11565.37959726083
 30
0.0
 11
13515.622805936269
 21
10377.26165734863
 31
0.0
  0
LINE
  5
5276
  8
FUTO
 10
11653.622805936269
 20
12070.80758810416
 30
0.0
 11
11653.622805936269
 21
10377.26165734863
 31
0.0
  0
LINE
  5
52EB
  8
CT
 10
13598.166448651131
 20
9378.2616573486375
 30
0.0
 11
14226.95952639697
 21
9378.2616573486375
 31
0.0
  0
LINE
  5
52F4
  8
CT
 10
13834.622805936269
 20
8963.2616573486375
 30
0.0
 11
13834.622805936269
 21
9608.3596715452386
 31
0.0
  0
LINE
  5
5391
  8
CT
 10
12439.622805936269
 20
10248.26165734863
 30
0.0
 11
12439.622805936269
 21
10322.26165734863
 31
0.0
  0
LINE
  5
5393
  8
CT
 10
12729.622805936269
 20
10248.26165734863
 30
0.0
 11
12729.622805936269
 21
10322.26165734863
 31
0.0
  0
ARC
  5
53C8
  8
FUTO
 10
12761.622805936269
 20
10299.26165734863
 30
0.0
 40
3.0
 50
0.000000000000007
 51
90.0
  0
LINE
  5
53C9
  8
FUTO
 10
12764.622805936269
 20
10299.26165734863
 30
0.0
 11
12764.622805936269
 21
10268.26165734863
 31
0.0
  0
ARC
  5
53CA
  8
FUTO
 10
12632.122805936269
 20
10450.53407070815
 30
0.0
 40
15.00000000000038
 50
325.47193698619282
 51
154.52806301381281
  0
LINE
  5
53CB
  8
FUTO
 10
12600.304468634071
 20
10461.95843133276
 30
0.0
 11
12600.304468634071
 21
10468.26165734863
 31
0.0
  0
LINE
  5
53CC
  8
FUTO
 10
12568.94114323847
 20
10461.95843133276
 30
0.0
 11
12568.94114323847
 21
10468.26165734863
 31
0.0
  0
LINE
  5
53CD
  8
FUTO
 10
12568.94114323847
 20
10468.26165734863
 30
0.0
 11
12600.304468634071
 21
10468.26165734863
 31
0.0
  0
ARC
  5
53CE
  8
FUTO
 10
12584.622805936269
 20
10368.26165734863
 30
0.0
 40
95.000000000000057
 50
9.0561260276173208
 51
50.943873972382391
  0
LINE
  5
53CF
  8
FUTO
 10
12679.622805936269
 20
10353.26165734863
 30
0.0
 11
12679.622805936269
 21
10318.26165734863
 31
0.0
  0
LINE
  5
53D0
  8
FUTO
 10
12674.622805936269
 20
10268.26165734863
 30
0.0
 11
12674.622805936269
 21
10271.26165734863
 31
0.0
  0
ARC
  5
53D1
  8
FUTO
 10
12695.622805936269
 20
10318.26165734863
 30
0.0
 40
16.0
 50
180.0
 51
270.0
  0
ARC
  5
53D2
  8
FUTO
 10
12632.122805936269
 20
10285.98924398911
 30
0.0
 40
14.999999999999909
 50
205.47193698618469
 51
34.528063013809451
  0
ARC
  5
53D3
  8
FUTO
 10
12584.622805936269
 20
10368.261657348639
 30
0.0
 40
95.000000000000966
 50
309.05612602761732
 51
350.94387397238222
  0
ARC
  5
53D4
  8
FUTO
 10
12679.622805936269
 20
10368.26165734863
 30
0.0
 40
15.00000000000011
 50
265.47193698619139
 51
94.528063013808236
  0
LINE
  5
53D5
  8
FUTO
 10
12695.622805936269
 20
10302.26165734863
 30
0.0
 11
12761.622805936269
 21
10302.26165734863
 31
0.0
  0
ARC
  5
53D7
  8
FUTO
 10
12537.122805936269
 20
10450.53407070815
 30
0.0
 40
15.00000000000006
 50
25.47193698618608
 51
214.5280630138096
  0
ARC
  5
53D8
  8
FUTO
 10
12584.622805936269
 20
10368.26165734863
 30
0.0
 40
94.999999999999375
 50
129.0561260276167
 51
170.94387397238259
  0
LINE
  5
53D9
  8
FUTO
 10
12489.622805936269
 20
10353.26165734863
 30
0.0
 11
12489.622805936269
 21
10318.26165734863
 31
0.0
  0
ARC
  5
53DA
  8
FUTO
 10
12537.122805936269
 20
10285.98924398911
 30
0.0
 40
14.99999999999978
 50
145.47193698619111
 51
334.52806301381349
  0
LINE
  5
53DB
  8
FUTO
 10
12494.622805936269
 20
10268.26165734863
 30
0.0
 11
12494.622805936269
 21
10271.26165734863
 31
0.0
  0
ARC
  5
53DC
  8
FUTO
 10
12584.622805936269
 20
10368.26165734863
 30
0.0
 40
95.000000000000057
 50
189.05612602761681
 51
230.94387397238239
  0
ARC
  5
53DD
  8
FUTO
 10
12407.622805936269
 20
10299.26165734863
 30
0.0
 40
3.0
 50
90.0
 51
180.0
  0
LINE
  5
53DE
  8
FUTO
 10
12404.622805936269
 20
10299.26165734863
 30
0.0
 11
12404.622805936269
 21
10268.26165734863
 31
0.0
  0
LINE
  5
53DF
  8
FUTO
 10
12473.622805936269
 20
10302.26165734863
 30
0.0
 11
12407.622805936269
 21
10302.26165734863
 31
0.0
  0
ARC
  5
53E0
  8
FUTO
 10
12473.622805936269
 20
10318.26165734863
 30
0.0
 40
16.0
 50
270.0
 51
0.000000000000007
  0
LINE
  5
53E1
  8
FUTO
 10
12389.622805936269
 20
10268.26165734863
 30
0.0
 11
12779.622805936269
 21
10268.26165734863
 31
0.0
  0
ARC
  5
53E2
  8
FUTO
 10
12489.622805936269
 20
10368.26165734863
 30
0.0
 40
14.999999999999879
 50
85.471936986191025
 51
274.52806301380912
  0
CIRCLE
  5
53E3
  8
FUTO
 10
12584.622805936269
 20
10368.26165734863
 30
0.0
 40
36.5
  0
LINE
  5
53E4
  8
FUTO
 10
12494.622805936269
 20
10271.26165734863
 30
0.0
 11
12674.622805936269
 21
10271.26165734863
 31
0.0
  0
ARC
  5
53E5
  8
FUTO
 10
12584.622805936269
 20
10368.26165734863
 30
0.0
 40
94.999999999998266
 50
249.0561260276163
 51
290.94387397238302
  0
ARC
  5
53E6
  8
FUTO
 10
12584.622805936269
 20
10368.261657348639
 30
0.0
 40
94.999999999998053
 50
69.056126027616386
 51
110.94387397238231
  0
LINE
  5
53E7
  8
FUTO
 10
15324.780322280099
 20
10448.26165734863
 30
0.0
 11
15329.780322280099
 21
10448.26165734863
 31
0.0
  0
ARC
  5
53E8
  8
FUTO
 10
15318.780322280099
 20
10457.26165734863
 30
0.0
 40
6.0
 50
0.0
 51
90.0
  0
LINE
  5
53E9
  8
FUTO
 10
15309.780322280099
 20
10463.26165734863
 30
0.0
 11
15318.780322280099
 21
10463.26165734863
 31
0.0
  0
LINE
  5
53EA
  8
FUTO
 10
15329.780322280099
 20
10288.26165734863
 30
0.0
 11
15324.780322280099
 21
10288.26165734863
 31
0.0
  0
ARC
  5
53EB
  8
FUTO
 10
15318.780322280099
 20
10279.26165734863
 30
0.0
 40
6.0
 50
270.0
 51
0.0
  0
ARC
  5
53EC
  8
FUTO
 10
15303.780322280099
 20
10296.26165734863
 30
0.0
 40
6.0
 50
0.0
 51
90.0
  0
LINE
  5
53ED
  8
FUTO
 10
15318.780322280099
 20
10273.26165734863
 30
0.0
 11
15309.780322280099
 21
10273.26165734863
 31
0.0
  0
LINE
  5
53EE
  8
FUTO
 10
15329.780322280099
 20
10448.26165734863
 30
0.0
 11
15329.780322280099
 21
10288.26165734863
 31
0.0
  0
LINE
  5
53EF
  8
FUTO
 10
15324.780322280099
 20
10457.26165734863
 30
0.0
 11
15324.780322280099
 21
10279.26165734863
 31
0.0
  0
LINE
  5
53F0
  8
FUTO
 10
15309.780322280099
 20
10268.26165734863
 30
0.0
 11
15309.780322280099
 21
10468.26165734863
 31
0.0
  0
LINE
  5
53F1
  8
FUTO
 10
15209.780322280099
 20
10463.26165734863
 30
0.0
 11
15200.780322280099
 21
10463.26165734863
 31
0.0
  0
ARC
  5
53F2
  8
FUTO
 10
15200.780322280099
 20
10457.26165734863
 30
0.0
 40
6.0
 50
90.0
 51
180.0
  0
LINE
  5
53F3
  8
FUTO
 10
15194.780322280099
 20
10448.26165734863
 30
0.0
 11
15189.780322280099
 21
10448.26165734863
 31
0.0
  0
ARC
  5
53F4
  8
FUTO
 10
15215.780322280099
 20
10296.26165734863
 30
0.0
 40
6.0
 50
90.0
 51
180.0
  0
ARC
  5
53F5
  8
FUTO
 10
15200.780322280099
 20
10279.26165734863
 30
0.0
 40
6.0
 50
180.0
 51
270.0
  0
LINE
  5
53F6
  8
FUTO
 10
15200.780322280099
 20
10273.26165734863
 30
0.0
 11
15209.780322280099
 21
10273.26165734863
 31
0.0
  0
LINE
  5
53F7
  8
FUTO
 10
15189.780322280099
 20
10288.26165734863
 30
0.0
 11
15194.780322280099
 21
10288.26165734863
 31
0.0
  0
LINE
  5
53F8
  8
FUTO
 10
15194.780322280099
 20
10457.26165734863
 30
0.0
 11
15194.780322280099
 21
10279.26165734863
 31
0.0
  0
LINE
  5
53F9
  8
FUTO
 10
15189.780322280099
 20
10448.26165734863
 30
0.0
 11
15189.780322280099
 21
10288.26165734863
 31
0.0
  0
LINE
  5
53FA
  8
FUTO
 10
15209.780322280099
 20
10468.26165734863
 30
0.0
 11
15209.780322280099
 21
10268.26165734863
 31
0.0
  0
LINE
  5
53FB
  8
FUTO
 10
15309.780322280099
 20
10468.26165734863
 30
0.0
 11
15209.780322280099
 21
10468.26165734863
 31
0.0
  0
LINE
  5
53FC
  8
FUTO
 10
15204.780322280099
 20
10268.26165734863
 30
0.0
 11
15314.780322280099
 21
10268.26165734863
 31
0.0
  0
LINE
  5
53FD
  8
FUTO
 10
15303.780322280099
 20
10302.26165734863
 30
0.0
 11
15215.780322280099
 21
10302.26165734863
 31
0.0
  0
LINE
  5
53FE
  8
KL
 10
12970.274678826991
 20
10260.26165734863
 30
0.0
 11
12198.97093304555
 21
10260.26165734863
 31
0.0
  0
LINE
  5
53FF
  8
FUTO
 10
12389.622805936269
 20
10268.26165734863
 30
0.0
 11
12389.622805936269
 21
10260.26165734863
 31
0.0
  0
LINE
  5
5400
  8
FUTO
 10
12779.622805936269
 20
10268.26165734863
 30
0.0
 11
12779.622805936269
 21
10260.26165734863
 31
0.0
  0
LINE
  5
5405
  8
FUTO
 10
11959.622805936269
 20
9356.089204407579
 30
0.0
 11
11959.622805936269
 21
9348.2616573486375
 31
0.0
  0
LINE
  5
540E
  8
FUTO
 10
13209.622805936269
 20
9356.089204407579
 30
0.0
 11
13209.622805936269
 21
9348.2616573486375
 31
0.0
  0
LINE
  5
5411
  8
FUTO
 10
11959.622805936269
 20
9348.2616573486375
 30
0.0
 11
11959.622805936269
 21
9198.2616573486375
 31
0.0
  0
LINE
  5
5412
  8
KL
 10
12384.96845759727
 20
10353.458239184931
 30
0.0
 11
12387.105038765911
 21
10335.58549398701
 31
0.0
  0
LINE
  5
5413
  8
KL
 10
12784.622805936269
 20
10377.26165734863
 30
0.0
 11
12784.622805936269
 21
10359.26165734863
 31
0.0
  0
LINE
  5
5414
  8
FUTO
 10
11581.213131697899
 20
10257.648589571159
 30
0.0
 11
12206.346845927699
 21
10332.105080082671
 31
0.0
  0
LINE
  5
5415
  8
FUTO
 10
11583.34971286654
 20
10239.77584437324
 30
0.0
 11
12208.483427096329
 21
10314.232334884749
 31
0.0
  0
LINE
  5
5416
  8
KL
 10
12784.622805936269
 20
10359.26165734863
 30
0.0
 11
13219.42241468035
 21
10359.26165734863
 31
0.0
  0
LINE
  5
5417
  8
KL
 10
12784.622805936269
 20
10377.26165734863
 30
0.0
 11
13196.03092969004
 21
10377.26165734863
 31
0.0
  0
LINE
  5
541F
  8
FUTO
 10
11644.622805936269
 20
10359.26165734863
 30
0.0
 11
11644.622805936269
 21
9348.2616573486375
 31
0.0
  0
LINE
  5
5420
  8
FUTO
 10
11653.622805936269
 20
10359.26165734863
 30
0.0
 11
11653.622805936269
 21
9348.2616573486375
 31
0.0
  0
LINE
  5
5425
  8
FUTO
 10
13524.622805936269
 20
10359.26165734863
 30
0.0
 11
13524.622805936269
 21
10124.406664393669
 31
0.0
  0
LINE
  5
5426
  8
FUTO
 10
13515.622805936269
 20
10359.26165734863
 30
0.0
 11
13515.622805936269
 21
10131.33226146744
 31
0.0
  0
ARC
  5
543E
  8
FUTO
 10
12468.622805936269
 20
10484.26165734863
 30
0.0
 40
1505.0
 50
355.57946260306431
 51
85.235725954090256
  0
CIRCLE
  5
544F
  8
SL
 10
12584.622805936269
 20
10368.26165734863
 30
0.0
 40
315.0
  0
ARC
  5
5451
  8
FUTO
 10
12584.622805936269
 20
10368.26165734863
 30
0.0
 40
380.0
 50
52.421329787095857
 51
244.97946754364699
  0
CIRCLE
  5
5453
  8
SL
 10
13834.622805936269
 20
9608.2616573486375
 30
0.0
 40
132.49999999999989
  0
ARC
  5
5454
  8
FUTO
 10
13834.622805936269
 20
9608.2616573486375
 30
0.0
 40
220.0
 50
244.97946754364699
 51
52.421329787095878
  0
LINE
  5
5459
  8
CT
 10
14824.4149611752
 20
10368.26165734863
 30
0.0
 11
17510.55823409697
 21
10368.26165734863
 31
0.0
  0
LINE
  5
545A
  8
CT
 10
16740.780322280101
 20
12374.793415288021
 30
0.0
 11
16740.780322280101
 21
8873.2616573486375
 31
0.0
  0
LINE
  5
545B
  8
FUTO
 10
17334.780322280109
 20
9348.2616573486375
 30
0.0
 11
15184.780322280099
 21
9348.2616573486375
 31
0.0
  0
LINE
  5
545C
  8
FUTO
 10
17334.780322280109
 20
9198.2616573486375
 30
0.0
 11
15184.780322280099
 21
9198.2616573486375
 31
0.0
  0
LINE
  5
5505
  8
FUTO
 10
17334.780322280109
 20
9198.2616573486375
 30
0.0
 11
17409.780322280101
 21
9198.2616573486375
 31
0.0
  0
LINE
  5
5506
  8
FUTO
 10
17344.931699309109
 20
9210.9386899781039
 30
0.0
 11
17406.12894525109
 21
9205.5846247191694
 31
0.0
  0
LINE
  5
5507
  8
FUTO
 10
17334.780322280109
 20
9348.2616573486375
 30
0.0
 11
17409.780322280101
 21
9348.2616573486375
 31
0.0
  0
LINE
  5
5508
  8
FUTO
 10
17344.931699309109
 20
9335.5846247191712
 30
0.0
 11
17406.12894525109
 21
9340.938689978102
 31
0.0
  0
LINE
  5
5509
  8
FUTO
 10
17341.280322280109
 20
9331.5998459268048
 30
0.0
 11
17341.280322280109
 21
9214.9234687704702
 31
0.0
  0
ARC
  5
550A
  8
FUTO
 10
17345.280322280101
 20
9214.9234687704702
 30
0.0
 40
4.0
 50
180.0
 51
264.99999999999989
  0
LINE
  5
550B
  8
FUTO
 10
17334.780322280109
 20
9348.2616573486375
 30
0.0
 11
17334.780322280109
 21
9198.2616573486375
 31
0.0
  0
ARC
  5
550C
  8
FUTO
 10
17345.280322280101
 20
9331.5998459268048
 30
0.0
 40
4.0
 50
95.000000000000057
 51
180.0
  0
LINE
  5
550D
  8
FUTO
 10
17409.780322280101
 20
9198.2616573486375
 30
0.0
 11
17409.780322280101
 21
9201.5998459268048
 31
0.0
  0
LINE
  5
550E
  8
FUTO
 10
17409.780322280101
 20
9348.2616573486375
 30
0.0
 11
17409.780322280101
 21
9344.9234687704702
 31
0.0
  0
ARC
  5
550F
  8
FUTO
 10
17405.780322280101
 20
9344.9234687704702
 30
0.0
 40
4.0
 50
275.00000000000051
 51
359.9999999999921
  0
ARC
  5
5510
  8
FUTO
 10
17405.780322280101
 20
9201.5998459268048
 30
0.0
 40
4.0
 50
0.0000000000078369
 51
84.999999999999503
  0
LINE
  5
5511
  8
FUTO
 10
15184.780322280099
 20
9348.2616573486375
 30
0.0
 11
15109.780322280099
 21
9348.2616573486375
 31
0.0
  0
LINE
  5
5512
  8
FUTO
 10
15174.62894525109
 20
9335.5846247191712
 30
0.0
 11
15113.431699309111
 21
9340.938689978102
 31
0.0
  0
LINE
  5
5513
  8
FUTO
 10
15184.780322280099
 20
9198.2616573486375
 30
0.0
 11
15109.780322280099
 21
9198.2616573486375
 31
0.0
  0
LINE
  5
5514
  8
FUTO
 10
15174.62894525109
 20
9210.9386899781039
 30
0.0
 11
15113.431699309111
 21
9205.5846247191694
 31
0.0
  0
LINE
  5
5515
  8
FUTO
 10
15178.280322280099
 20
9214.9234687704702
 30
0.0
 11
15178.280322280099
 21
9331.5998459268048
 31
0.0
  0
ARC
  5
5516
  8
FUTO
 10
15174.280322280099
 20
9331.5998459268048
 30
0.0
 40
4.0
 50
0.0
 51
84.999999999999943
  0
LINE
  5
5517
  8
FUTO
 10
15184.780322280099
 20
9198.2616573486375
 30
0.0
 11
15184.780322280099
 21
9348.2616573486375
 31
0.0
  0
ARC
  5
5518
  8
FUTO
 10
15174.280322280099
 20
9214.9234687704702
 30
0.0
 40
4.0
 50
275.0
 51
0.0
  0
LINE
  5
5519
  8
FUTO
 10
15109.780322280099
 20
9348.2616573486375
 30
0.0
 11
15109.780322280099
 21
9344.9234687704702
 31
0.0
  0
LINE
  5
551A
  8
FUTO
 10
15109.780322280099
 20
9198.2616573486375
 30
0.0
 11
15109.780322280099
 21
9201.5998459268048
 31
0.0
  0
ARC
  5
551B
  8
FUTO
 10
15113.780322280099
 20
9201.5998459268048
 30
0.0
 40
4.0
 50
95.000000000000554
 51
179.9999999999921
  0
ARC
  5
551C
  8
FUTO
 10
15113.780322280099
 20
9344.9234687704702
 30
0.0
 40
4.0
 50
180.00000000000779
 51
264.99999999999949
  0
LINE
  5
551D
  8
FUTO
 10
17334.780322280109
 20
9211.2581573486386
 30
0.0
 11
15184.780322280099
 21
9211.2581573486386
 31
0.0
  0
LINE
  5
551E
  8
FUTO
 10
17334.780322280109
 20
9335.2651573486382
 30
0.0
 11
15184.780322280099
 21
9335.2651573486382
 31
0.0
  0
LINE
  5
551F
  8
FUTO
 10
14134.622805936269
 20
9211.2581573486386
 30
0.0
 11
11634.622805936269
 21
9211.2581573486386
 31
0.0
  0
LINE
  5
5520
  8
FUTO
 10
14134.622805936269
 20
9335.2651573486382
 30
0.0
 11
11634.622805936269
 21
9335.2651573486382
 31
0.0
  0
LINE
  5
5522
  8
FUTO
 10
16150.780322280099
 20
12066.26165734863
 30
0.0
 11
16150.780322280099
 21
10368.26165734863
 31
0.0
  0
LINE
  5
5523
  8
FUTO
 10
17330.780322280109
 20
12066.26165734863
 30
0.0
 11
17330.780322280101
 21
10368.26165734863
 31
0.0
  0
LINE
  5
5524
  8
FUTO
 10
17333.980322280098
 20
12066.26165734863
 30
0.0
 11
17333.980322280098
 21
10368.26165734863
 31
0.0
  0
LINE
  5
5525
  8
FUTO
 10
16147.580322280101
 20
12066.26165734863
 30
0.0
 11
16147.580322280101
 21
10368.26165734863
 31
0.0
  0
LINE
  5
5528
  8
FUTO
 10
16081.78032228011
 20
12131.26165734863
 30
0.0
 11
16081.78032228011
 21
12066.26165734863
 31
0.0
  0
LINE
  5
5529
  8
FUTO
 10
17399.780322280101
 20
12131.26165734863
 30
0.0
 11
17399.780322280101
 21
12066.26165734863
 31
0.0
  0
LINE
  5
552A
  8
FUTO
 10
17408.980322280098
 20
12066.26165734863
 30
0.0
 11
17408.980322280098
 21
10387.261657348639
 31
0.0
  0
LINE
  5
552B
  8
FUTO
 10
16072.580322280101
 20
12066.26165734863
 30
0.0
 11
16072.580322280101
 21
10387.26165734863
 31
0.0
  0
LINE
  5
552C
  8
KL
 10
16150.780322280099
 20
9227.2616573486375
 30
0.0
 11
17330.780322280101
 21
9227.2616573486375
 31
0.0
  0
LINE
  5
552D
  8
KL
 10
16147.580322280101
 20
9209.2616573486393
 30
0.0
 11
16150.780322280099
 21
9209.2616573486393
 31
0.0
  0
LINE
  5
552E
  8
KL
 10
17330.780322280101
 20
9209.2616573486393
 30
0.0
 11
17333.980322280098
 21
9209.2616573486393
 31
0.0
  0
LINE
  5
552F
  8
KL
 10
16150.780322280099
 20
9348.2616573486375
 30
0.0
 11
16150.780322280099
 21
9209.2616573486393
 31
0.0
  0
LINE
  5
5530
  8
KL
 10
16147.580322280101
 20
9348.2616573486375
 30
0.0
 11
16147.580322280101
 21
9209.2616573486393
 31
0.0
  0
LINE
  5
5531
  8
KL
 10
17330.780322280101
 20
9348.2616573486375
 30
0.0
 11
17330.780322280101
 21
9209.2616573486393
 31
0.0
  0
LINE
  5
5532
  8
KL
 10
17333.980322280098
 20
9348.2616573486375
 30
0.0
 11
17333.980322280098
 21
9209.2616573486393
 31
0.0
  0
LINE
  5
5533
  8
CT
 10
15939.780322280099
 20
10528.628615384599
 30
0.0
 11
15939.780322280099
 21
10196.5825666111
 31
0.0
  0
LINE
  5
5534
  8
CT
 10
15259.780322280099
 20
10528.628615384599
 30
0.0
 11
15259.780322280099
 21
10196.5825666111
 31
0.0
  0
LINE
  5
5537
  8
CT
 10
15894.780322280099
 20
10300.2045141279
 30
0.0
 11
15894.780322280099
 21
10210.2045141279
 31
0.0
  0
LINE
  5
5538
  8
CT
 10
15984.780322280099
 20
10300.2045141279
 30
0.0
 11
15984.780322280099
 21
10210.2045141279
 31
0.0
  0
LINE
  5
5548
  8
FUTO
 10
15967.280322280099
 20
10488.26165734863
 30
0.0
 11
16003.780322280099
 21
10488.26165734863
 31
0.0
  0
LINE
  5
5549
  8
FUTO
 10
15967.280322280099
 20
10501.26165734863
 30
0.0
 11
15967.280322280099
 21
10288.26165734863
 31
0.0
  0
LINE
  5
554A
  8
FUTO
 10
15912.280322280099
 20
10501.26165734863
 30
0.0
 11
15912.280322280099
 21
10288.26165734863
 31
0.0
  0
ARC
  5
554B
  8
FUTO
 10
16006.780322280099
 20
10285.26165734863
 30
0.0
 40
3.0
 50
0.0
 51
90.0
  0
ARC
  5
554C
  8
FUTO
 10
15872.780322280099
 20
10285.26165734863
 30
0.0
 40
3.0
 50
90.000000000000028
 51
180.0
  0
LINE
  5
554D
  8
FUTO
 10
16017.780322280099
 20
10488.26165734863
 30
0.0
 11
16003.780322280099
 21
10488.26165734863
 31
0.0
  0
LINE
  5
554E
  8
FUTO
 10
15993.780322280099
 20
10501.26165734863
 30
0.0
 11
15993.780322280099
 21
10488.26165734863
 31
0.0
  0
LINE
  5
554F
  8
FUTO
 10
15875.780322280099
 20
10488.26165734863
 30
0.0
 11
15912.280322280099
 21
10488.26165734863
 31
0.0
  0
LINE
  5
5550
  8
FUTO
 10
15885.780322280099
 20
10501.26165734863
 30
0.0
 11
15885.780322280099
 21
10488.26165734863
 31
0.0
  0
LINE
  5
5551
  8
FUTO
 10
15861.780322280099
 20
10488.26165734863
 30
0.0
 11
15875.780322280099
 21
10488.26165734863
 31
0.0
  0
LINE
  5
5552
  8
FUTO
 10
15885.780322280099
 20
10501.26165734863
 30
0.0
 11
15993.780322280099
 21
10501.26165734863
 31
0.0
  0
LINE
  5
5553
  8
FUTO
 10
16017.780322280099
 20
10248.26165734863
 30
0.0
 11
16009.780322280099
 21
10248.26165734863
 31
0.0
  0
LINE
  5
5554
  8
FUTO
 10
16025.780322280099
 20
10288.26165734863
 30
0.0
 11
16017.780322280099
 21
10268.26165734863
 31
0.0
  0
LINE
  5
5555
  8
FUTO
 10
16009.780322280099
 20
10285.26165734863
 30
0.0
 11
16009.780322280099
 21
10238.26165734863
 31
0.0
  0
LINE
  5
5556
  8
FUTO
 10
16025.780322280099
 20
10448.26165734863
 30
0.0
 11
16025.780322280099
 21
10288.26165734863
 31
0.0
  0
LINE
  5
5557
  8
FUTO
 10
15861.780322280099
 20
10248.26165734863
 30
0.0
 11
15869.780322280099
 21
10248.26165734863
 31
0.0
  0
LINE
  5
5558
  8
FUTO
 10
15853.780322280099
 20
10288.26165734863
 30
0.0
 11
15861.780322280099
 21
10268.26165734863
 31
0.0
  0
LINE
  5
5559
  8
FUTO
 10
15869.780322280099
 20
10285.26165734863
 30
0.0
 11
15869.780322280099
 21
10238.26165734863
 31
0.0
  0
LINE
  5
555A
  8
FUTO
 10
15853.780322280099
 20
10448.26165734863
 30
0.0
 11
15853.780322280099
 21
10288.26165734863
 31
0.0
  0
LINE
  5
555B
  8
FUTO
 10
15872.780322280099
 20
10288.26165734863
 30
0.0
 11
16006.780322280099
 21
10288.26165734863
 31
0.0
  0
LINE
  5
555C
  8
FUTO
 10
15859.780322280099
 20
10238.26165734863
 30
0.0
 11
16019.780322280099
 21
10238.26165734863
 31
0.0
  0
LINE
  5
555D
  8
FUTO
 10
16003.780322280099
 20
10488.26165734863
 30
0.0
 11
16003.780322280099
 21
10288.26165734863
 31
0.0
  0
LINE
  5
555E
  8
FUTO
 10
16017.780322280099
 20
10488.26165734863
 30
0.0
 11
16017.780322280099
 21
10248.26165734863
 31
0.0
  0
LINE
  5
555F
  8
FUTO
 10
16025.780322280099
 20
10448.26165734863
 30
0.0
 11
16017.780322280099
 21
10468.26165734863
 31
0.0
  0
LINE
  5
5560
  8
FUTO
 10
15853.780322280099
 20
10448.26165734863
 30
0.0
 11
15861.780322280099
 21
10468.26165734863
 31
0.0
  0
LINE
  5
5561
  8
FUTO
 10
15861.780322280099
 20
10488.26165734863
 30
0.0
 11
15861.780322280099
 21
10248.26165734863
 31
0.0
  0
LINE
  5
5562
  8
FUTO
 10
16003.780322280099
 20
10488.26165734863
 30
0.0
 11
16003.780322280099
 21
10288.26165734863
 31
0.0
  0
LINE
  5
5563
  8
FUTO
 10
15875.780322280099
 20
10488.26165734863
 30
0.0
 11
15875.780322280099
 21
10288.26165734863
 31
0.0
  0
LINE
  5
55BF
  8
FUTO
 10
15334.780322280099
 20
10260.26165734863
 30
0.0
 11
15184.780322280099
 21
10260.26165734863
 31
0.0
  0
LINE
  5
55C1
  8
FUTO
 10
15334.780322280099
 20
10260.26165734863
 30
0.0
 11
15334.780322280099
 21
10220.26165734863
 31
0.0
  0
LINE
  5
55C6
  8
FUTO
 10
15184.780322280099
 20
10260.26165734863
 30
0.0
 11
15184.780322280099
 21
9348.2616573486375
 31
0.0
  0
LINE
  5
55CC
  8
FUTO
 10
15204.780322280099
 20
10268.26165734863
 30
0.0
 11
15204.780322280099
 21
10260.26165734863
 31
0.0
  0
LINE
  5
55CD
  8
FUTO
 10
15314.780322280099
 20
10268.26165734863
 30
0.0
 11
15314.780322280099
 21
10260.26165734863
 31
0.0
  0
LINE
  5
55DF
  8
FUTO
 10
15849.780322280099
 20
10230.26165734863
 30
0.0
 11
16029.780322280099
 21
10230.26165734863
 31
0.0
  0
LINE
  5
55E0
  8
FUTO
 10
16029.780322280099
 20
10230.26165734863
 30
0.0
 11
16029.780322280099
 21
9348.2616573486375
 31
0.0
  0
LINE
  5
55E6
  8
FUTO
 10
15849.780322280099
 20
10230.26165734863
 30
0.0
 11
15849.780322280099
 21
10220.26165734863
 31
0.0
  0
LINE
  5
55ED
  8
FUTO
 10
15859.780322280099
 20
10238.26165734863
 30
0.0
 11
15859.780322280099
 21
10230.26165734863
 31
0.0
  0
LINE
  5
55EE
  8
FUTO
 10
16019.780322280099
 20
10238.26165734863
 30
0.0
 11
16019.780322280099
 21
10230.26165734863
 31
0.0
  0
LINE
  5
55F3
  8
FUTO
 10
15849.780322280099
 20
10220.26165734863
 30
0.0
 11
15334.780322280099
 21
10220.26165734863
 31
0.0
  0
LINE
  5
5600
  8
FUTO
 10
16082.580322280101
 20
10377.26165734863
 30
0.0
 11
17398.980322280098
 21
10377.26165734863
 31
0.0
  0
LINE
  5
5601
  8
FUTO
 10
16082.580322280101
 20
10359.26165734863
 30
0.0
 11
17398.980322280098
 21
10359.26165734863
 31
0.0
  0
LINE
  5
5602
  8
FUTO
 10
16082.580322280101
 20
10377.26165734863
 30
0.0
 11
16082.580322280101
 21
10359.26165734863
 31
0.0
  0
LINE
  5
5603
  8
FUTO
 10
16150.780322280099
 20
10368.26165734863
 30
0.0
 11
16150.780322280099
 21
9348.2616573486375
 31
0.0
  0
LINE
  5
5604
  8
FUTO
 10
16147.580322280101
 20
10368.26165734863
 30
0.0
 11
16147.580322280101
 21
9348.2616573486375
 31
0.0
  0
LINE
  5
5605
  8
FUTO
 10
17333.980322280098
 20
10368.26165734863
 30
0.0
 11
17333.980322280098
 21
9348.2616573486375
 31
0.0
  0
LINE
  5
5606
  8
FUTO
 10
17330.780322280101
 20
10368.26165734863
 30
0.0
 11
17330.780322280101
 21
9348.2616573486375
 31
0.0
  0
LINE
  5
5608
  8
FUTO
 10
17398.980322280098
 20
10377.26165734863
 30
0.0
 11
17408.980322280098
 21
10387.261657348639
 31
0.0
  0
LINE
  5
5609
  8
FUTO
 10
17398.980322280098
 20
10359.26165734863
 30
0.0
 11
17408.980322280098
 21
10349.26165734863
 31
0.0
  0
LINE
  5
560A
  8
FUTO
 10
17408.980322280098
 20
10349.26165734863
 30
0.0
 11
17408.980322280098
 21
10267.71221697221
 31
0.0
  0
LINE
  5
560B
  8
FUTO
 10
16082.580322280101
 20
10377.26165734863
 30
0.0
 11
16072.580322280101
 21
10387.26165734863
 31
0.0
  0
LINE
  5
560C
  8
FUTO
 10
16082.580322280101
 20
10359.26165734863
 30
0.0
 11
16072.580322280101
 21
10349.26165734863
 31
0.0
  0
LINE
  5
560D
  8
FUTO
 10
16072.580322280101
 20
10349.26165734863
 30
0.0
 11
16072.580322280101
 21
10267.712216972201
 31
0.0
  0
LINE
  5
560E
  8
SL
 10
14999.780322280099
 20
10683.26165734863
 30
0.0
 11
14999.780322280099
 21
9475.7616573486375
 31
0.0
  0
LINE
  5
560F
  8
SL
 10
14999.780322280099
 20
10683.26165734863
 30
0.0
 11
15077.680322280101
 21
10683.26165734863
 31
0.0
  0
LINE
  5
5610
  8
SL
 10
14999.780322280099
 20
10053.26165734863
 30
0.0
 11
15077.680322280101
 21
10053.26165734863
 31
0.0
  0
LINE
  5
5611
  8
SL
 10
15077.680322280101
 20
10683.26165734863
 30
0.0
 11
15077.680322280101
 21
10448.26165734863
 31
0.0
  0
LINE
  5
5613
  8
SL
 10
15099.780322280099
 20
10448.26165734863
 30
0.0
 11
15099.780322280099
 21
10288.26165734863
 31
0.0
  0
LINE
  5
5614
  8
SL
 10
15077.680322280101
 20
10448.26165734863
 30
0.0
 11
15099.780322280099
 21
10448.26165734863
 31
0.0
  0
LINE
  5
5615
  8
SL
 10
15077.680322280101
 20
10288.26165734863
 30
0.0
 11
15099.780322280099
 21
10288.26165734863
 31
0.0
  0
LINE
  5
5616
  8
SL
 10
15077.680322280101
 20
10288.26165734863
 30
0.0
 11
15077.680322280101
 21
10053.26165734863
 31
0.0
  0
LINE
  5
5617
  8
CT
 10
14838.196078306401
 20
9608.2616573486375
 30
0.0
 11
15176.780322280099
 21
9608.2616573486375
 31
0.0
  0
LINE
  5
5618
  8
SL
 10
14999.780322280099
 20
9740.7616573486375
 30
0.0
 11
15077.680322280101
 21
9740.7616573486375
 31
0.0
  0
LINE
  5
5619
  8
SL
 10
14999.780322280099
 20
9475.7616573486375
 30
0.0
 11
15077.680322280101
 21
9475.7616573486375
 31
0.0
  0
LINE
  5
561A
  8
SL
 10
15077.680322280101
 20
10683.26165734863
 30
0.0
 11
15077.680322280101
 21
9475.7616573486375
 31
0.0
  0
LINE
  5
561B
  8
SL
 10
15097.780322280099
 20
9678.2616573486375
 30
0.0
 11
15097.780322280099
 21
9538.2616573486375
 31
0.0
  0
LINE
  5
561C
  8
SL
 10
15077.680322280101
 20
9678.2616573486375
 30
0.0
 11
15097.780322280099
 21
9678.2616573486375
 31
0.0
  0
LINE
  5
561D
  8
SL
 10
15077.680322280101
 20
9538.2616573486375
 30
0.0
 11
15097.780322280099
 21
9538.2616573486375
 31
0.0
  0
LINE
  5
561E
  8
SL
 10
15077.680322280101
 20
9538.2616573486375
 30
0.0
 11
15077.680322280101
 21
9475.7616573486375
 31
0.0
  0
LINE
  5
561F
  8
FUTO
 10
14860.780322280099
 20
10748.26165734863
 30
0.0
 11
15149.780322280099
 21
10748.26165734863
 31
0.0
  0
LINE
  5
5620
  8
FUTO
 10
14860.780322280099
 20
9388.2616573486375
 30
0.0
 11
15149.780322280099
 21
9388.2616573486375
 31
0.0
  0
LINE
  5
5621
  8
FUTO
 10
14860.780322280099
 20
10748.26165734863
 30
0.0
 11
14860.780322280099
 21
9388.2616573486375
 31
0.0
  0
LINE
  5
5622
  8
FUTO
 10
15149.780322280099
 20
10748.26165734863
 30
0.0
 11
15149.780322280099
 21
9388.2616573486375
 31
0.0
  0
LINE
  5
5623
  8
FUTO
 10
15329.780322280099
 20
10418.26165734863
 30
0.0
 11
15853.780322280099
 21
10418.26165734863
 31
0.0
  0
LINE
  5
5624
  8
FUTO
 10
15329.780322280099
 20
10318.26165734863
 30
0.0
 11
15853.780322280099
 21
10318.26165734863
 31
0.0
  0
LINE
  5
5625
  8
KL
 10
16025.780322280099
 20
10418.26165734863
 30
0.0
 11
16147.580322280101
 21
10418.26165734863
 31
0.0
  0
LINE
  5
5626
  8
KL
 10
16025.780322280099
 20
10318.26165734863
 30
0.0
 11
16147.580322280101
 21
10318.26165734863
 31
0.0
  0
LINE
  5
5627
  8
FUTO
 10
15099.780322280099
 20
10410.76165734863
 30
0.0
 11
15189.780322280099
 21
10410.76165734863
 31
0.0
  0
LINE
  5
5628
  8
FUTO
 10
15099.780322280099
 20
10325.76165734863
 30
0.0
 11
15189.780322280099
 21
10325.76165734863
 31
0.0
  0
LINE
  5
5694
  8
FUTO
 10
14134.622805936269
 20
13111.626151380109
 30
0.0
 11
11959.622805936269
 21
13111.626151380109
 31
0.0
  0
LINE
  5
5695
  8
FUTO
 10
13534.622805936269
 20
15411.62615138012
 30
0.0
 11
11634.622805936269
 21
15411.626151380109
 31
0.0
  0
LINE
  5
5696
  8
FUTO
 10
11634.622805936269
 20
15411.626151380109
 30
0.0
 11
11634.622805936269
 21
15386.626151380109
 31
0.0
  0
LINE
  5
5699
  8
FUTO
 10
13955.622805936269
 20
14148.626151380109
 30
0.0
 11
12584.622805936269
 21
14148.626151380109
 31
0.0
  0
LINE
  5
569A
  8
FUTO
 10
14134.622805936269
 20
14073.626151380109
 30
0.0
 11
11634.622805936269
 21
14073.626151380109
 31
0.0
  0
LINE
  5
569B
  8
FUTO
 10
14134.622805936269
 20
13186.626151380109
 30
0.0
 11
11959.622805936269
 21
13186.626151380109
 31
0.0
  0
LINE
  5
569C
  8
FUTO
 10
13955.622805936269
 20
15336.626151380109
 30
0.0
 11
12584.622805936269
 21
15336.626151380109
 31
0.0
  0
LINE
  5
56A0
  8
FUTO
 10
11959.622805936269
 20
14073.626151380109
 30
0.0
 11
11959.622805936269
 21
13111.626151380109
 31
0.0
  0
LINE
  5
56A2
  8
FUTO
 10
12034.622805936269
 20
14073.626151380109
 30
0.0
 11
12034.622805936269
 21
13186.626151380109
 31
0.0
  0
LINE
  5
56A4
  8
FUTO
 10
13209.622805936269
 20
14073.626151380109
 30
0.0
 11
13209.622805936269
 21
13186.626151380109
 31
0.0
  0
LINE
  5
56A6
  8
FUTO
 10
13534.622805936269
 20
15411.626151380109
 30
0.0
 11
13534.622805936269
 21
15386.626151380109
 31
0.0
  0
LINE
  5
56A7
  8
FUTO
 10
13134.622805936269
 20
14073.626151380109
 30
0.0
 11
13134.622805936269
 21
13186.626151380109
 31
0.0
  0
LINE
  5
56A8
  8
FUTO
 10
14134.62280593628
 20
14148.626151380109
 30
0.0
 11
14134.622805936269
 21
14073.626151380109
 31
0.0
  0
LINE
  5
56A9
  8
FUTO
 10
14134.622805936269
 20
13186.626151380109
 30
0.0
 11
14134.622805936269
 21
13111.626151380109
 31
0.0
  0
LINE
  5
56AC
  8
FUTO
 10
14024.622805936269
 20
14073.626151380109
 30
0.0
 11
14024.622805936269
 21
13749.16470900827
 31
0.0
  0
LINE
  5
56AD
  8
FUTO
 10
13959.622805936269
 20
14073.626151380109
 30
0.0
 11
13959.622805936269
 21
13801.126151380109
 31
0.0
  0
LINE
  5
56AE
  8
FUTO
 10
13709.622805936269
 20
14073.626151380109
 30
0.0
 11
13709.622805936269
 21
13801.126151380109
 31
0.0
  0
LINE
  5
56AF
  8
FUTO
 10
13644.622805936269
 20
14073.626151380109
 30
0.0
 11
13644.622805936269
 21
13742.026114380111
 31
0.0
  0
LINE
  5
56B0
  8
CT
 10
14359.20926621569
 20
14742.626151380109
 30
0.0
 11
11384.58248134114
 21
14742.626151380109
 31
0.0
  0
LINE
  5
69CC
  8
CT
 10
17310.780322280109
 20
11208.26165734863
 30
0.0
 11
17353.980322280098
 21
11208.26165734863
 31
0.0
  0
DIMENSION
  5
6A61
  8
SP
  2
*D3
 10
12584.622805936269
 20
8682.7493471655343
 30
0.0
 11
12109.622805936269
 21
8770.2493471655343
 31
0.0
 70
     0
 13
11634.622805936269
 23
8933.2616573486375
 33
0.0
 14
12584.622805936269
 24
8933.2616573486375
 34
0.0
1001
ACAD
1000
DSTYLE
1002
{
1070
    40
1040
35.0
1070
   147
1040
1.0
1070
    41
1040
2.5
1002
}
  0
DIMENSION
  5
6A6E
  8
SP
  2
*D4
 10
14134.622805936269
 20
8682.7493471655343
 30
0.0
 11
13359.622805936269
 21
8770.2493471655343
 31
0.0
 70
     0
 13
12584.622805936269
 23
8933.2616573486375
 33
0.0
 14
14134.622805936269
 24
8933.2616573486375
 34
0.0
1001
ACAD
1000
DSTYLE
1002
{
1070
    40
1040
35.0
1070
   147
1040
1.0
1070
    41
1040
2.5
1002
}
  0
DIMENSION
  5
6A7B
  8
SP
  2
*D5
 10
14134.622805936269
 20
8432.6616031678768
 30
0.0
 11
12884.622805936269
 21
8520.1616031678768
 31
0.0
 70
     0
 13
11634.622805936269
 23
8933.2616573486375
 33
0.0
 14
14134.622805936269
 24
8933.2616573486375
 34
0.0
1001
ACAD
1000
DSTYLE
1002
{
1070
    40
1040
35.0
1070
   147
1040
1.0
1070
    41
1040
2.5
1002
}
  0
DIMENSION
  5
6A88
  8
SP
  2
*D6
 10
16740.780322280101
 20
8682.7493237776962
 30
0.0
 11
15925.280322280099
 21
8770.2493237776944
 31
0.0
 70
     0
 13
15109.780322280099
 23
8933.2616573486375
 33
0.0
 14
16740.780322280101
 24
8933.2616573486375
 34
0.0
1001
ACAD
1000
DSTYLE
1002
{
1070
    40
1040
35.0
1070
   147
1040
1.0
1070
    41
1040
2.5
1002
}
  0
DIMENSION
  5
6A95
  8
SP
  2
*D7
 10
17409.780322280101
 20
8682.7493237776962
 30
0.0
 11
17075.280322280101
 21
8770.2493237776944
 31
0.0
 70
     0
 13
16740.780322280101
 23
8933.2616573486375
 33
0.0
 14
17409.780322280101
 24
8933.2616573486375
 34
0.0
1001
ACAD
1000
DSTYLE
1002
{
1070
    40
1040
35.0
1070
   147
1040
1.0
1070
    41
1040
2.5
1002
}
  0
DIMENSION
  5
6AA2
  8
SP
  2
*D8
 10
17409.780322280101
 20
8432.6615797800387
 30
0.0
 11
16259.780322280099
 21
8520.1615797800387
 31
0.0
 70
     0
 13
15109.780322280099
 23
8933.2616573486375
 33
0.0
 14
17409.780322280101
 24
8933.2616573486375
 34
0.0
1001
ACAD
1000
DSTYLE
1002
{
1070
    40
1040
35.0
1070
   147
1040
1.0
1070
    41
1040
2.5
1002
}
  0
LINE
  5
6ADF
  8
FUTO
 10
17465.780322280101
 20
11233.26165734863
 30
0.0
 11
17465.780322280101
 21
9503.2616573486375
 31
0.0
  0
LINE
  5
6AE1
  8
KL
 10
17333.980322280098
 20
11168.26165734863
 30
0.0
 11
17465.780322280101
 21
11168.26165734863
 31
0.0
  0
LINE
  5
6AE5
  8
KL
 10
17333.980322280098
 20
11233.26165734863
 30
0.0
 11
17339.980322280098
 21
11233.26165734863
 31
0.0
  0
LINE
  5
6AE7
  8
FUTO
 10
17459.780322280101
 20
11233.26165734863
 30
0.0
 11
17459.780322280101
 21
9503.2616573486375
 31
0.0
  0
LINE
  5
6AE8
  8
FUTO
 10
17408.980322280098
 20
11174.26165734863
 30
0.0
 11
17459.780322280101
 21
11174.26165734863
 31
0.0
  0
LINE
  5
6AEA
  8
KL
 10
17339.980322280098
 20
11233.26165734863
 30
0.0
 11
17339.980322280098
 21
10377.26165734863
 31
0.0
  0
LINE
  5
6AEB
  8
FUTO
 10
17459.780322280101
 20
11233.26165734863
 30
0.0
 11
17465.780322280101
 21
11233.26165734863
 31
0.0
  0
LINE
  5
6AEC
  8
CT
 10
17440.780322280101
 20
11208.26165734863
 30
0.0
 11
17483.980322280098
 21
11208.26165734863
 31
0.0
  0
LINE
  5
6AED
  8
KL
 10
17333.980322280098
 20
9568.2616573486375
 30
0.0
 11
17465.780322280101
 21
9568.2616573486375
 31
0.0
  0
LINE
  5
6AEE
  8
CT
 10
17310.780322280109
 20
9528.2616573486375
 30
0.0
 11
17353.980322280098
 21
9528.2616573486375
 31
0.0
  0
LINE
  5
6AEF
  8
KL
 10
17333.980322280098
 20
9503.2616573486375
 30
0.0
 11
17339.980322280098
 21
9503.2616573486375
 31
0.0
  0
LINE
  5
6AF0
  8
CT
 10
17440.780322280101
 20
9528.2616573486375
 30
0.0
 11
17483.980322280098
 21
9528.2616573486375
 31
0.0
  0
LINE
  5
6AF1
  8
FUTO
 10
17408.980322280098
 20
9562.2616573486375
 30
0.0
 11
17459.780322280101
 21
9562.2616573486375
 31
0.0
  0
LINE
  5
6AF2
  8
FUTO
 10
17459.780322280101
 20
9503.2616573486375
 30
0.0
 11
17465.780322280101
 21
9503.2616573486375
 31
0.0
  0
LINE
  5
6AF3
  8
KL
 10
17339.980322280098
 20
10359.26165734863
 30
0.0
 11
17339.980322280098
 21
9503.2616573486375
 31
0.0
  0
DIMENSION
  5
6B00
  8
SP
  2
*D9
 10
17465.780322280101
 20
12374.793415288021
 30
0.0
 11
17103.280322280101
 21
12462.293415288021
 31
0.0
 70
     0
 13
16740.780322280101
 23
12328.82103573906
 33
0.0
 14
17465.780322280101
 24
11218.798530955861
 34
0.0
1001
ACAD
1000
DSTYLE
1002
{
1070
    40
1040
35.0
1070
   147
1040
1.0
1070
    41
1040
2.5
1002
}
  0
LINE
  5
6E16
  8
SL
 10
15351.00030833452
 20
10220.26165734863
 30
0.0
 11
15351.00030833452
 21
10525.07901595222
 31
0.0
  0
LINE
  5
6E17
  8
SL
 10
15351.00030833452
 20
10525.07901595222
 30
0.0
 11
15836.95568076328
 21
10525.07901595222
 31
0.0
  0
LINE
  5
6E18
  8
SL
 10
15836.95568076328
 20
10525.07901595222
 30
0.0
 11
15836.95568076328
 21
10220.26165734863
 31
0.0
  0
INSERT
  5
6E51
  8
FUTO
  2
右回転矢印
 10
12374.117106164989
 20
10981.062981595869
 30
0.0
 41
-35.0
 42
35.0
 43
35.0
  0
INSERT
  5
6EE2
  8
FUTO
  2
まっすぐの矢印
 10
11308.73628219244
 20
10765.179158019229
 30
0.0
 41
35.0
 42
35.0
 43
35.0
 50
90.0
  0
INSERT
  5
6EEC
  8
FUTO
  2
まっすぐの矢印
 10
17512.248301851261
 20
10895.963357692201
 30
0.0
 41
35.0
 42
35.0
 43
35.0
 50
90.0
  0
DIMENSION
  5
6F64
  8
SP
  2
*D10
 10
17744.97372348198
 20
9568.2616573486375
 30
0.0
 11
17657.47372348198
 21
10368.261657348639
 31
0.0
 70
     0
 13
17465.780322280101
 23
11168.26165734863
 33
0.0
 14
17465.780322280101
 24
9568.2616573486375
 34
0.0
 50
90.0
1001
ACAD
1000
DSTYLE
1002
{
1070
    40
1040
35.0
1070
     3
1000
φ<>
1070
   147
1040
1.0
1070
    41
1040
2.5
1002
}
  0
DIMENSION
  5
6FB2
  8
SP
  2
*D11
 10
16740.780322280101
 20
12374.793415288021
 30
0.0
 11
15800.780322280099
 21
12462.293415288021
 31
0.0
 70
     0
 13
14860.780322280099
 23
10733.530248661509
 33
0.0
 14
16740.780322280101
 24
12374.793415288021
 34
0.0
1001
ACAD
1000
DSTYLE
1002
{
1070
    40
1040
35.0
1070
    41
1040
2.5
1070
   147
1040
1.0
1002
}
  0
LINE
  5
6FD7
  8
CT
 10
12584.622805936269
 20
12748.762954594409
 30
0.0
 11
12584.622805936269
 21
15512.40406319698
 31
0.0
  0
LINE
  5
6FDA
  8
FUTO
 10
12204.622805936269
 20
12862.626151380109
 30
0.0
 11
14038.122805936269
 21
12862.626151380109
 31
0.0
  0
LINE
  5
6FDB
  8
FUTO
 10
12204.622805936269
 20
13151.626151380109
 30
0.0
 11
14038.122805936269
 21
13151.62615138012
 31
0.0
  0
LINE
  5
6FDC
  8
SL
 10
12269.622805936269
 20
13079.52615138012
 30
0.0
 11
13702.122805936269
 21
13079.526151380111
 31
0.0
  0
LINE
  5
6FDD
  8
SL
 10
12269.622805936269
 20
13001.626151380109
 30
0.0
 11
13967.122805936269
 21
13001.626151380109
 31
0.0
  0
LINE
  5
6FE5
  8
SL
 10
13702.122805936269
 20
13099.626151380109
 30
0.0
 11
13967.122805936269
 21
13099.626151380109
 31
0.0
  0
LINE
  5
6FE8
  8
FUTO
 10
12204.622805936269
 20
12862.626151380109
 30
0.0
 11
12204.622805936269
 21
13151.626151380109
 31
0.0
  0
LINE
  5
6FE9
  8
SL
 10
12664.622805936269
 20
13079.526151380111
 30
0.0
 11
12664.622805936269
 21
13101.626151380109
 31
0.0
  0
LINE
  5
6FEA
  8
SL
 10
12504.622805936269
 20
13079.52615138012
 30
0.0
 11
12504.622805936269
 21
13101.626151380109
 31
0.0
  0
LINE
  5
6FEB
  8
SL
 10
12269.622805936269
 20
13079.52615138012
 30
0.0
 11
12504.622805936269
 21
13079.52615138012
 31
0.0
  0
LINE
  5
6FEC
  8
SL
 10
12664.622805936269
 20
13079.52615138012
 30
0.0
 11
12899.622805936269
 21
13079.526151380111
 31
0.0
  0
LINE
  5
6FED
  8
SL
 10
12899.622805936269
 20
13001.626151380109
 30
0.0
 11
12899.622805936269
 21
13079.526151380111
 31
0.0
  0
LINE
  5
6FEE
  8
SL
 10
12269.622805936269
 20
13001.626151380109
 30
0.0
 11
12269.622805936269
 21
13079.52615138012
 31
0.0
  0
LINE
  5
6FF1
  8
FUTO
 10
12634.622805936269
 20
13331.626151380109
 30
0.0
 11
12634.622805936269
 21
13855.626151380109
 31
0.0
  0
LINE
  5
6FF2
  8
FUTO
 10
12534.622805936269
 20
13331.626151380109
 30
0.0
 11
12534.622805936269
 21
13855.626151380109
 31
0.0
  0
LINE
  5
6FF5
  8
CT
 10
12424.255847900309
 20
13261.626151380109
 30
0.0
 11
12756.3018966738
 21
13261.626151380109
 31
0.0
  0
LINE
  5
6FF6
  8
FUTO
 10
12484.622805936269
 20
13211.626151380109
 30
0.0
 11
12684.622805936269
 21
13211.626151380109
 31
0.0
  0
ARC
  5
6FF7
  8
FUTO
 10
12673.622805936269
 20
13202.626151380109
 30
0.0
 40
6.0
 50
270.0
 51
0.000000000000007
  0
LINE
  5
6FF8
  8
FUTO
 10
12684.622805936269
 20
13311.626151380109
 30
0.0
 11
12484.622805936269
 21
13311.626151380109
 31
0.0
  0
ARC
  5
6FF9
  8
FUTO
 10
12673.622805936269
 20
13320.626151380109
 30
0.0
 40
6.0
 50
0.000000000000007
 51
90.0
  0
LINE
  5
6FFD
  8
FUTO
 10
12679.622805936269
 20
13202.626151380109
 30
0.0
 11
12679.622805936269
 21
13211.626151380109
 31
0.0
  0
LINE
  5
7000
  8
FUTO
 10
12679.622805936269
 20
13320.626151380109
 30
0.0
 11
12679.622805936269
 21
13311.626151380109
 31
0.0
  0
ARC
  5
7001
  8
FUTO
 10
12495.622805936269
 20
13202.626151380109
 30
0.0
 40
6.0
 50
180.0
 51
270.0
  0
ARC
  5
7002
  8
FUTO
 10
12495.622805936269
 20
13320.626151380109
 30
0.0
 40
6.0
 50
90.0
 51
180.0
  0
LINE
  5
7004
  8
FUTO
 10
12627.122805936269
 20
13101.626151380109
 30
0.0
 11
12627.122805936269
 21
13191.626151380109
 31
0.0
  0
LINE
  5
7005
  8
FUTO
 10
12542.122805936269
 20
13101.626151380109
 30
0.0
 11
12542.122805936269
 21
13191.626151380109
 31
0.0
  0
LINE
  5
7006
  8
SL
 10
12504.622805936269
 20
13101.626151380109
 30
0.0
 11
12664.622805936269
 21
13101.626151380109
 31
0.0
  0
LINE
  5
7007
  8
FUTO
 10
12504.622805936269
 20
13191.626151380109
 30
0.0
 11
12664.622805936269
 21
13191.626151380109
 31
0.0
  0
LINE
  5
7008
  8
FUTO
 10
12495.622805936269
 20
13196.626151380109
 30
0.0
 11
12673.622805936269
 21
13196.626151380109
 31
0.0
  0
LINE
  5
7009
  8
FUTO
 10
12664.622805936269
 20
13191.626151380109
 30
0.0
 11
12664.622805936269
 21
13196.626151380109
 31
0.0
  0
LINE
  5
700B
  8
FUTO
 10
12504.622805936269
 20
13196.626151380109
 30
0.0
 11
12504.622805936269
 21
13191.626151380109
 31
0.0
  0
LINE
  5
700C
  8
FUTO
 10
12495.622805936269
 20
13326.626151380109
 30
0.0
 11
12673.622805936269
 21
13326.626151380109
 31
0.0
  0
LINE
  5
700D
  8
FUTO
 10
12504.622805936269
 20
13331.626151380109
 30
0.0
 11
12664.622805936269
 21
13331.626151380109
 31
0.0
  0
LINE
  5
700F
  8
FUTO
 10
12664.622805936269
 20
13331.626151380109
 30
0.0
 11
12664.622805936269
 21
13326.626151380109
 31
0.0
  0
LINE
  5
7010
  8
FUTO
 10
12504.622805936269
 20
13326.626151380109
 30
0.0
 11
12504.622805936269
 21
13331.626151380109
 31
0.0
  0
LINE
  5
7011
  8
FUTO
 10
12484.622805936269
 20
13311.626151380109
 30
0.0
 11
12484.622805936269
 21
13211.626151380109
 31
0.0
  0
LINE
  5
7012
  8
FUTO
 10
12489.622805936269
 20
13211.626151380109
 30
0.0
 11
12489.622805936269
 21
13202.626151380109
 31
0.0
  0
LINE
  5
7013
  8
FUTO
 10
12489.622805936269
 20
13311.626151380109
 30
0.0
 11
12489.622805936269
 21
13320.626151380109
 31
0.0
  0
LINE
  5
7015
  8
FUTO
 10
12464.622805936269
 20
13863.626151380109
 30
0.0
 11
12704.622805936269
 21
13863.626151380109
 31
0.0
  0
LINE
  5
7016
  8
FUTO
 10
12464.622805936269
 20
14019.626151380109
 30
0.0
 11
12704.622805936269
 21
14019.626151380109
 31
0.0
  0
LINE
  5
7018
  8
FUTO
 10
12664.622805936269
 20
13855.626151380109
 30
0.0
 11
12684.622805936269
 21
13863.626151380109
 31
0.0
  0
LINE
  5
701A
  8
FUTO
 10
12664.622805936269
 20
14027.626151380109
 30
0.0
 11
12684.622805936269
 21
14019.626151380109
 31
0.0
  0
LINE
  5
701D
  8
CT
 10
12424.255847900309
 20
13941.626151380109
 30
0.0
 11
12756.3018966738
 21
13941.626151380109
 31
0.0
  0
LINE
  5
7022
  8
FUTO
 10
12704.622805936269
 20
13863.626151380109
 30
0.0
 11
12704.622805936269
 21
13871.626151380109
 31
0.0
  0
LINE
  5
7024
  8
FUTO
 10
12704.622805936269
 20
14019.626151380109
 30
0.0
 11
12704.622805936269
 21
14011.626151380109
 31
0.0
  0
LINE
  5
7026
  8
FUTO
 10
12451.622805936269
 20
13887.626151380109
 30
0.0
 11
12451.622805936269
 21
13995.626151380109
 31
0.0
  0
LINE
  5
7027
  8
FUTO
 10
12464.622805936269
 20
13877.626151380109
 30
0.0
 11
12704.622805936269
 21
13877.626151380109
 31
0.0
  0
LINE
  5
7028
  8
FUTO
 10
12504.622805936269
 20
13855.626151380109
 30
0.0
 11
12484.622805936269
 21
13863.626151380109
 31
0.0
  0
LINE
  5
7029
  8
FUTO
 10
12451.622805936269
 20
13914.126151380109
 30
0.0
 11
12717.622805936269
 21
13914.126151380109
 31
0.0
  0
LINE
  5
702A
  8
FUTO
 10
12504.622805936269
 20
13855.626151380109
 30
0.0
 11
12664.622805936269
 21
13855.626151380109
 31
0.0
  0
LINE
  5
702C
  8
FUTO
 10
12464.622805936269
 20
13863.626151380109
 30
0.0
 11
12464.622805936269
 21
13877.626151380109
 31
0.0
  0
LINE
  5
702D
  8
FUTO
 10
12451.622805936269
 20
13887.626151380109
 30
0.0
 11
12464.622805936269
 21
13887.626151380109
 31
0.0
  0
LINE
  5
702E
  8
FUTO
 10
12464.622805936269
 20
13877.626151380109
 30
0.0
 11
12464.622805936269
 21
13914.126151380109
 31
0.0
  0
LINE
  5
702F
  8
FUTO
 10
12464.622805936269
 20
14005.626151380109
 30
0.0
 11
12664.622805936269
 21
14005.626151380109
 31
0.0
  0
LINE
  5
7030
  8
FUTO
 10
12504.622805936269
 20
14027.626151380109
 30
0.0
 11
12484.622805936269
 21
14019.626151380109
 31
0.0
  0
LINE
  5
7031
  8
FUTO
 10
12464.622805936269
 20
14005.626151380109
 30
0.0
 11
12704.622805936269
 21
14005.626151380109
 31
0.0
  0
LINE
  5
7032
  8
FUTO
 10
12451.622805936269
 20
13969.126151380109
 30
0.0
 11
12717.622805936269
 21
13969.126151380109
 31
0.0
  0
LINE
  5
7033
  8
KL
 10
12634.622805936269
 20
14027.626151380109
 30
0.0
 11
12634.622805936269
 21
14149.42615138011
 31
0.0
  0
LINE
  5
7034
  8
KL
 10
12534.622805936269
 20
14027.626151380109
 30
0.0
 11
12534.622805936269
 21
14149.42615138011
 31
0.0
  0
LINE
  5
7035
  8
FUTO
 10
12504.622805936269
 20
14027.626151380109
 30
0.0
 11
12664.622805936269
 21
14027.626151380109
 31
0.0
  0
LINE
  5
703A
  8
FUTO
 10
12451.622805936269
 20
13995.626151380109
 30
0.0
 11
12464.622805936269
 21
13995.626151380109
 31
0.0
  0
LINE
  5
703B
  8
FUTO
 10
12464.622805936269
 20
14019.626151380109
 30
0.0
 11
12464.622805936269
 21
14005.626151380109
 31
0.0
  0
LINE
  5
703C
  8
FUTO
 10
12464.622805936269
 20
13969.126151380109
 30
0.0
 11
12464.622805936269
 21
14005.626151380109
 31
0.0
  0
LINE
  5
703F
  8
KL
 10
12593.622805936269
 20
15341.82615138011
 30
0.0
 11
13449.622805936269
 21
15341.82615138011
 31
0.0
  0
LINE
  5
7040
  8
FUTO
 10
11719.622805936269
 20
15461.626151380109
 30
0.0
 11
13449.622805936269
 21
15461.626151380109
 31
0.0
  0
LINE
  5
7041
  8
FUTO
 10
11719.622805936269
 20
15467.626151380109
 30
0.0
 11
13449.622805936269
 21
15467.626151380109
 31
0.0
  0
LINE
  5
7045
  8
KL
 10
13449.622805936269
 20
15335.82615138011
 30
0.0
 11
13449.622805936269
 21
15341.826151380121
 31
0.0
  0
LINE
  5
7046
  8
FUTO
 10
13449.622805936269
 20
15461.626151380109
 30
0.0
 11
13449.622805936269
 21
15467.626151380109
 31
0.0
  0
LINE
  5
7047
  8
FUTO
 10
13390.622805936269
 20
15410.82615138011
 30
0.0
 11
13390.622805936269
 21
15461.626151380109
 31
0.0
  0
LINE
  5
7048
  8
KL
 10
13384.622805936269
 20
15335.82615138011
 30
0.0
 11
13384.622805936269
 21
15467.626151380109
 31
0.0
  0
LINE
  5
7049
  8
CT
 10
13424.622805936269
 20
15312.626151380109
 30
0.0
 11
13424.622805936269
 21
15355.82615138011
 31
0.0
  0
LINE
  5
704A
  8
CT
 10
13424.622805936269
 20
15442.626151380109
 30
0.0
 11
13424.622805936269
 21
15485.826151380121
 31
0.0
  0
LINE
  5
704E
  8
KL
 10
11719.622805936269
 20
15341.826151380121
 30
0.0
 11
12575.622805936269
 21
15341.82615138011
 31
0.0
  0
INSERT
  5
7052
  8
FUTO
  2
まっすぐの矢印
 10
12327.7615536453
 20
15514.094130951269
 30
0.0
 41
35.0
 42
35.0
 43
35.0
 50
180.0
  0
LINE
  5
7053
  8
FUTO
 10
11778.622805936269
 20
15410.82615138011
 30
0.0
 11
11778.622805936269
 21
15461.626151380109
 31
0.0
  0
LINE
  5
7054
  8
KL
 10
11784.622805936269
 20
15335.82615138011
 30
0.0
 11
11784.622805936269
 21
15467.626151380109
 31
0.0
  0
LINE
  5
7055
  8
CT
 10
11744.622805936269
 20
15312.626151380109
 30
0.0
 11
11744.622805936269
 21
15355.82615138011
 31
0.0
  0
LINE
  5
7056
  8
CT
 10
11744.622805936269
 20
15442.626151380109
 30
0.0
 11
11744.622805936269
 21
15485.826151380121
 31
0.0
  0
LINE
  5
7057
  8
KL
 10
11719.622805936269
 20
15335.82615138011
 30
0.0
 11
11719.622805936269
 21
15341.826151380121
 31
0.0
  0
LINE
  5
7058
  8
FUTO
 10
11719.622805936269
 20
15461.626151380109
 30
0.0
 11
11719.622805936269
 21
15467.626151380109
 31
0.0
  0
LINE
  5
7096
  8
FUTO
 10
12684.622805936269
 20
13311.626151380109
 30
0.0
 11
12684.622805936269
 21
13211.626151380109
 31
0.0
  0
LINE
  5
7097
  8
FUTO
 10
12717.622805936269
 20
13887.626151380109
 30
0.0
 11
12717.622805936269
 21
13995.626151380109
 31
0.0
  0
LINE
  5
7098
  8
FUTO
 10
12704.622805936269
 20
13877.626151380109
 30
0.0
 11
12704.622805936269
 21
13914.126151380109
 31
0.0
  0
LINE
  5
7099
  8
FUTO
 10
12717.622805936269
 20
13887.626151380109
 30
0.0
 11
12704.622805936269
 21
13887.626151380109
 31
0.0
  0
LINE
  5
709A
  8
FUTO
 10
12704.622805936269
 20
13863.626151380109
 30
0.0
 11
12704.622805936269
 21
13877.626151380109
 31
0.0
  0
LINE
  5
709B
  8
FUTO
 10
12704.622805936269
 20
13969.126151380109
 30
0.0
 11
12704.622805936269
 21
14005.626151380109
 31
0.0
  0
LINE
  5
709C
  8
FUTO
 10
12704.622805936269
 20
14019.626151380109
 30
0.0
 11
12704.622805936269
 21
14005.626151380109
 31
0.0
  0
LINE
  5
709D
  8
FUTO
 10
12717.622805936269
 20
13995.626151380109
 30
0.0
 11
12704.622805936269
 21
13995.626151380109
 31
0.0
  0
ARC
  5
7D1A
  8
FUTO
 10
13834.622805936269
 20
13102.626151380109
 30
0.0
 40
9.0
 50
0.000000000000007
 51
180.0
  0
LINE
  5
7D1B
  8
FUTO
 10
13843.622805936269
 20
13001.626151380109
 30
0.0
 11
13843.622805936269
 21
13102.626151380109
 31
0.0
  0
LINE
  5
7D1C
  8
FUTO
 10
13825.622805936269
 20
13001.626151380109
 30
0.0
 11
13825.622805936269
 21
13102.626151380109
 31
0.0
  0
LINE
  5
7D1D
  8
FUTO
 10
14091.62274493627
 20
13516.12609038011
 30
0.0
 11
14091.62274493627
 21
13552.126151380109
 31
0.0
  0
LINE
  5
7D1E
  8
FUTO
 10
14094.62274493627
 20
13516.12609038011
 30
0.0
 11
14094.62274493627
 21
13552.126151380109
 31
0.0
  0
LINE
  5
7D1F
  8
FUTO
 10
14086.62274493627
 20
13516.12609038011
 30
0.0
 11
14086.62274493627
 21
13563.126151380109
 31
0.0
  0
LINE
  5
7D20
  8
FUTO
 10
14044.622805936269
 20
13177.126151380109
 30
0.0
 11
14044.622805936269
 21
13224.001151380109
 31
0.0
  0
LINE
  5
7D21
  8
FUTO
 10
13992.314440931799
 20
13172.126151380109
 30
0.0
 11
14039.622805936269
 21
13172.126151380109
 31
0.0
  0
ARC
  5
7D22
  8
FUTO
 10
14039.622805936269
 20
13177.126151380109
 30
0.0
 40
5.0
 50
270.0
 51
0.000000000000007
  0
LINE
  5
7D23
  8
FUTO
 10
14024.3041511547
 20
13224.001151380109
 30
0.0
 11
14044.622805936269
 21
13224.001151380109
 31
0.0
  0
LINE
  5
7D24
  8
FUTO
 10
14044.622805936269
 20
13222.126151380109
 30
0.0
 11
14091.62274493627
 21
13222.126151380109
 31
0.0
  0
LINE
  5
7D25
  8
FUTO
 10
14044.622805936269
 20
13219.126151380109
 30
0.0
 11
14094.62274493627
 21
13219.126151380109
 31
0.0
  0
LINE
  5
7D26
  8
FUTO
 10
14024.41327950455
 20
13227.126151380109
 30
0.0
 11
14086.62274493627
 21
13227.126151380109
 31
0.0
  0
LINE
  5
7D27
  8
FUTO
 10
14086.62274493627
 20
13227.126151380109
 30
0.0
 11
14091.62274493627
 21
13222.126151380109
 31
0.0
  0
LINE
  5
7D28
  8
FUTO
 10
14119.62274493627
 20
13262.126151380109
 30
0.0
 11
14119.62274493627
 21
13302.126151380109
 31
0.0
  0
LINE
  5
7D29
  8
FUTO
 10
14089.62274493627
 20
13262.126151380109
 30
0.0
 11
14089.62274493627
 21
13302.126151380109
 31
0.0
  0
LINE
  5
7D2A
  8
FUTO
 10
14119.62274493627
 20
13302.126151380109
 30
0.0
 11
14089.62274493627
 21
13302.126151380109
 31
0.0
  0
LINE
  5
7D2B
  8
FUTO
 10
14089.62274493627
 20
13262.126151380109
 30
0.0
 11
14119.62274493627
 21
13262.126151380109
 31
0.0
  0
LINE
  5
7D2C
  8
CT
 10
14038.122805936269
 20
13282.126151380109
 30
0.0
 11
14205.67718793627
 21
13282.126151380109
 31
0.0
  0
LINE
  5
7D2D
  8
FUTO
 10
14194.07721293627
 20
13299.715995380109
 30
0.0
 11
14181.977236936271
 21
13299.715995380109
 31
0.0
  0
LINE
  5
7D2E
  8
FUTO
 10
14194.07721293627
 20
13264.536308380109
 30
0.0
 11
14181.977236936271
 21
13264.536308380109
 31
0.0
  0
LINE
  5
7D2F
  8
FUTO
 10
14194.07721293627
 20
13291.83122938011
 30
0.0
 11
14181.977236936271
 21
13291.83122938011
 31
0.0
  0
LINE
  5
7D30
  8
FUTO
 10
14194.07721293627
 20
13272.42107338011
 30
0.0
 11
14181.977236936271
 21
13272.42107338011
 31
0.0
  0
LINE
  5
7D31
  8
FUTO
 10
14195.67718793627
 20
13298.11638638011
 30
0.0
 11
14195.67718793627
 21
13266.13689338011
 31
0.0
  0
LINE
  5
7D32
  8
FUTO
 10
14194.07721293627
 20
13264.536308380109
 30
0.0
 11
14195.67718793627
 21
13266.13689338011
 31
0.0
  0
LINE
  5
7D33
  8
FUTO
 10
14194.07721293627
 20
13272.42107338011
 30
0.0
 11
14195.67718793627
 21
13270.821464380109
 31
0.0
  0
LINE
  5
7D34
  8
FUTO
 10
14194.07721293627
 20
13272.42107338011
 30
0.0
 11
14195.67718793627
 21
13274.021659380111
 31
0.0
  0
LINE
  5
7D35
  8
FUTO
 10
14195.67718793627
 20
13298.11638638011
 30
0.0
 11
14194.07721293627
 21
13299.715995380109
 31
0.0
  0
LINE
  5
7D36
  8
FUTO
 10
14194.07721293627
 20
13291.83122938011
 30
0.0
 11
14195.67718793627
 21
13293.43181538011
 31
0.0
  0
LINE
  5
7D37
  8
FUTO
 10
14194.07721293627
 20
13291.83122938011
 30
0.0
 11
14195.67718793627
 21
13290.231620380109
 31
0.0
  0
LINE
  5
7D38
  8
FUTO
 10
14181.977236936271
 20
13299.715995380109
 30
0.0
 11
14181.977236936271
 21
13264.536308380109
 31
0.0
  0
LINE
  5
7D39
  8
FUTO
 10
14181.977236936271
 20
13273.126151380109
 30
0.0
 11
14119.62274493627
 21
13273.126151380109
 31
0.0
  0
LINE
  5
7D3A
  8
HOSO
 10
14119.62274493627
 20
13275.126151380109
 30
0.0
 11
14181.97729793627
 21
13275.126151380109
 31
0.0
  0
LINE
  5
7D3B
  8
HOSO
 10
14181.977236936271
 20
13289.126151380109
 30
0.0
 11
14119.62274493627
 21
13289.126151380109
 31
0.0
  0
LINE
  5
7D3C
  8
FUTO
 10
14119.62274493627
 20
13291.126151380109
 30
0.0
 11
14181.97729793627
 21
13291.126151380109
 31
0.0
  0
LINE
  5
7D3D
  8
FUTO
 10
14089.62274493627
 20
13273.126151380109
 30
0.0
 11
14038.122805936269
 21
13273.126151380109
 31
0.0
  0
LINE
  5
7D3E
  8
HOSO
 10
14038.122805936269
 20
13275.126151380109
 30
0.0
 11
14089.62274493627
 21
13275.126151380109
 31
0.0
  0
LINE
  5
7D3F
  8
FUTO
 10
14038.122805936269
 20
13291.126151380109
 30
0.0
 11
14089.62274493627
 21
13291.126151380109
 31
0.0
  0
LINE
  5
7D40
  8
HOSO
 10
14089.62274493627
 20
13289.126151380109
 30
0.0
 11
14038.122805936269
 21
13289.126151380109
 31
0.0
  0
LINE
  5
7D41
  8
FUTO
 10
14094.62274493627
 20
13219.126151380109
 30
0.0
 11
14094.62274493627
 21
13262.126151380109
 31
0.0
  0
LINE
  5
7D42
  8
FUTO
 10
14091.62274493627
 20
13222.126151380109
 30
0.0
 11
14091.62274493627
 21
13262.126151380109
 31
0.0
  0
LINE
  5
7D43
  8
FUTO
 10
14086.62274493627
 20
13227.126151380109
 30
0.0
 11
14086.62274493627
 21
13273.126151380109
 31
0.0
  0
LINE
  5
7D44
  8
FUTO
 10
14094.62274493627
 20
13302.126151380109
 30
0.0
 11
14094.62274493627
 21
13338.126151380109
 31
0.0
  0
LINE
  5
7D45
  8
FUTO
 10
14091.62274493627
 20
13302.126151380109
 30
0.0
 11
14091.62274493627
 21
13338.126151380109
 31
0.0
  0
LINE
  5
7D46
  8
FUTO
 10
14086.62274493627
 20
13291.126151380109
 30
0.0
 11
14086.62274493627
 21
13338.126151380109
 31
0.0
  0
LINE
  5
7D47
  8
FUTO
 10
14119.62274493627
 20
13563.126151380109
 30
0.0
 11
14181.97729793627
 21
13563.126151380109
 31
0.0
  0
LINE
  5
7D48
  8
HOSO
 10
14181.977236936271
 20
13565.126151380109
 30
0.0
 11
14119.62274493627
 21
13565.126151380109
 31
0.0
  0
LINE
  5
7D49
  8
HOSO
 10
14119.62274493627
 20
13579.126151380109
 30
0.0
 11
14181.97729793627
 21
13579.126151380109
 31
0.0
  0
LINE
  5
7D4A
  8
FUTO
 10
14181.977236936271
 20
13581.126151380109
 30
0.0
 11
14119.62274493627
 21
13581.126151380109
 31
0.0
  0
LINE
  5
7D4B
  8
FUTO
 10
14181.977236936271
 20
13554.536307380111
 30
0.0
 11
14181.977236936271
 21
13589.715994380111
 31
0.0
  0
LINE
  5
7D4C
  8
FUTO
 10
14194.07721293627
 20
13562.42107338011
 30
0.0
 11
14195.67718793627
 21
13564.020682380111
 31
0.0
  0
LINE
  5
7D4D
  8
FUTO
 10
14194.07721293627
 20
13562.42107338011
 30
0.0
 11
14195.67718793627
 21
13560.82048738011
 31
0.0
  0
LINE
  5
7D4E
  8
FUTO
 10
14195.67718793627
 20
13556.13591638011
 30
0.0
 11
14194.07721293627
 21
13554.536307380111
 31
0.0
  0
LINE
  5
7D4F
  8
FUTO
 10
14194.07721293627
 20
13581.83122938011
 30
0.0
 11
14195.67718793627
 21
13580.23064338011
 31
0.0
  0
LINE
  5
7D50
  8
FUTO
 10
14194.07721293627
 20
13581.83122938011
 30
0.0
 11
14195.67718793627
 21
13583.430838380111
 31
0.0
  0
LINE
  5
7D51
  8
FUTO
 10
14194.07721293627
 20
13589.715994380111
 30
0.0
 11
14195.67718793627
 21
13588.115409380111
 31
0.0
  0
LINE
  5
7D52
  8
FUTO
 10
14195.67718793627
 20
13556.13591638011
 30
0.0
 11
14195.67718793627
 21
13588.115409380111
 31
0.0
  0
LINE
  5
7D53
  8
FUTO
 10
14194.07721293627
 20
13581.83122938011
 30
0.0
 11
14181.977236936271
 21
13581.83122938011
 31
0.0
  0
LINE
  5
7D54
  8
FUTO
 10
14194.07721293627
 20
13562.42107338011
 30
0.0
 11
14181.977236936271
 21
13562.42107338011
 31
0.0
  0
LINE
  5
7D55
  8
FUTO
 10
14194.07721293627
 20
13589.715994380111
 30
0.0
 11
14181.977236936271
 21
13589.715994380111
 31
0.0
  0
LINE
  5
7D56
  8
FUTO
 10
14194.07721293627
 20
13554.536307380111
 30
0.0
 11
14181.977236936271
 21
13554.536307380111
 31
0.0
  0
LINE
  5
7D57
  8
FUTO
 10
14089.62274493627
 20
13592.126151380109
 30
0.0
 11
14119.62274493627
 21
13592.126151380109
 31
0.0
  0
LINE
  5
7D58
  8
FUTO
 10
14119.62274493627
 20
13552.126151380109
 30
0.0
 11
14089.62274493627
 21
13552.126151380109
 31
0.0
  0
LINE
  5
7D59
  8
FUTO
 10
14089.62274493627
 20
13592.126151380109
 30
0.0
 11
14089.62274493627
 21
13552.126151380109
 31
0.0
  0
LINE
  5
7D5A
  8
FUTO
 10
14119.62274493627
 20
13592.126151380109
 30
0.0
 11
14119.62274493627
 21
13552.126151380109
 31
0.0
  0
LINE
  5
7D5B
  8
HOSO
 10
14089.62274493627
 20
13565.126151380109
 30
0.0
 11
14038.122805936269
 21
13565.126151380109
 31
0.0
  0
LINE
  5
7D5C
  8
FUTO
 10
14038.122805936269
 20
13563.126151380109
 30
0.0
 11
14089.62274493627
 21
13563.126151380109
 31
0.0
  0
LINE
  5
7D5D
  8
HOSO
 10
14038.122805936269
 20
13579.126151380109
 30
0.0
 11
14089.62274493627
 21
13579.126151380109
 31
0.0
  0
LINE
  5
7D5E
  8
FUTO
 10
14089.62274493627
 20
13581.126151380109
 30
0.0
 11
14038.122805936269
 21
13581.126151380109
 31
0.0
  0
LINE
  5
7D5F
  8
CT
 10
14038.122805936269
 20
13572.126151380109
 30
0.0
 11
14205.67718793627
 21
13572.126151380109
 31
0.0
  0
LINE
  5
7D60
  8
FUTO
 10
14086.62274493627
 20
13627.126151380109
 30
0.0
 11
14091.62274493627
 21
13632.126151380109
 31
0.0
  0
LINE
  5
7D61
  8
FUTO
 10
14044.622805936269
 20
13635.126151380109
 30
0.0
 11
14094.62274493627
 21
13635.126151380109
 31
0.0
  0
LINE
  5
7D62
  8
FUTO
 10
14044.622805936269
 20
13632.126151380109
 30
0.0
 11
14091.62274493627
 21
13632.126151380109
 31
0.0
  0
LINE
  5
7D63
  8
FUTO
 10
14038.122805936269
 20
13630.251151380109
 30
0.0
 11
14044.622805936269
 21
13630.251151380109
 31
0.0
  0
LINE
  5
7D64
  8
FUTO
 10
14038.122805936269
 20
13627.126151380109
 30
0.0
 11
14086.62274493627
 21
13627.126151380109
 31
0.0
  0
LINE
  5
7D65
  8
FUTO
 10
14086.62274493627
 20
13627.126151380109
 30
0.0
 11
14086.62274493627
 21
13581.126151380109
 31
0.0
  0
LINE
  5
7D66
  8
FUTO
 10
14091.62274493627
 20
13632.126151380109
 30
0.0
 11
14091.62274493627
 21
13592.126151380109
 31
0.0
  0
LINE
  5
7D67
  8
FUTO
 10
14094.62274493627
 20
13635.126151380109
 30
0.0
 11
14094.62274493627
 21
13592.126151380109
 31
0.0
  0
ARC
  5
7D68
  8
FUTO
 10
14039.622805936269
 20
13677.126151380109
 30
0.0
 40
5.0
 50
0.000000000000007
 51
90.000000000000028
  0
LINE
  5
7D69
  8
FUTO
 10
14044.622805936269
 20
13677.126151380109
 30
0.0
 11
14044.622805936269
 21
13630.251151380109
 31
0.0
  0
LINE
  5
7D6A
  8
FUTO
 10
14027.122805936269
 20
13682.126151380109
 30
0.0
 11
14039.622805936269
 21
13682.126151380109
 31
0.0
  0
LINE
  5
7D6B
  8
CT
 10
13631.122805936269
 20
13572.126151380109
 30
0.0
 11
13463.568423936271
 21
13572.126151380109
 31
0.0
  0
LINE
  5
7D6C
  8
FUTO
 10
13579.62286693627
 20
13581.126151380109
 30
0.0
 11
13631.122805936269
 21
13581.126151380109
 31
0.0
  0
LINE
  5
7D6D
  8
HOSO
 10
13631.122805936269
 20
13579.126151380109
 30
0.0
 11
13579.62286693627
 21
13579.126151380109
 31
0.0
  0
LINE
  5
7D6E
  8
FUTO
 10
13631.122805936269
 20
13563.126151380109
 30
0.0
 11
13579.62286693627
 21
13563.126151380109
 31
0.0
  0
LINE
  5
7D6F
  8
HOSO
 10
13579.62286693627
 20
13565.126151380109
 30
0.0
 11
13631.122805936269
 21
13565.126151380109
 31
0.0
  0
LINE
  5
7D70
  8
FUTO
 10
13549.62286693627
 20
13592.126151380109
 30
0.0
 11
13549.62286693627
 21
13552.126151380109
 31
0.0
  0
LINE
  5
7D71
  8
FUTO
 10
13579.62286693627
 20
13592.126151380109
 30
0.0
 11
13579.62286693627
 21
13552.126151380109
 31
0.0
  0
LINE
  5
7D72
  8
FUTO
 10
13549.62286693627
 20
13552.126151380109
 30
0.0
 11
13579.62286693627
 21
13552.126151380109
 31
0.0
  0
LINE
  5
7D73
  8
FUTO
 10
13579.62286693627
 20
13592.126151380109
 30
0.0
 11
13549.62286693627
 21
13592.126151380109
 31
0.0
  0
LINE
  5
7D74
  8
FUTO
 10
13475.16839893627
 20
13554.536307380111
 30
0.0
 11
13487.26837493627
 21
13554.536307380111
 31
0.0
  0
LINE
  5
7D75
  8
FUTO
 10
13475.16839893627
 20
13589.715994380111
 30
0.0
 11
13487.26837493627
 21
13589.715994380111
 31
0.0
  0
LINE
  5
7D76
  8
FUTO
 10
13475.16839893627
 20
13562.42107338011
 30
0.0
 11
13487.26837493627
 21
13562.42107338011
 31
0.0
  0
LINE
  5
7D77
  8
FUTO
 10
13475.16839893627
 20
13581.83122938011
 30
0.0
 11
13487.26837493627
 21
13581.83122938011
 31
0.0
  0
LINE
  5
7D78
  8
FUTO
 10
13473.568423936271
 20
13556.13591638011
 30
0.0
 11
13473.568423936271
 21
13588.115409380111
 31
0.0
  0
LINE
  5
7D79
  8
FUTO
 10
13475.16839893627
 20
13589.715994380111
 30
0.0
 11
13473.568423936271
 21
13588.115409380111
 31
0.0
  0
LINE
  5
7D7A
  8
FUTO
 10
13475.16839893627
 20
13581.83122938011
 30
0.0
 11
13473.568423936271
 21
13583.430838380111
 31
0.0
  0
LINE
  5
7D7B
  8
FUTO
 10
13475.16839893627
 20
13581.83122938011
 30
0.0
 11
13473.568423936271
 21
13580.23064338011
 31
0.0
  0
LINE
  5
7D7C
  8
FUTO
 10
13473.568423936271
 20
13556.13591638011
 30
0.0
 11
13475.16839893627
 21
13554.536307380111
 31
0.0
  0
LINE
  5
7D7D
  8
FUTO
 10
13475.16839893627
 20
13562.42107338011
 30
0.0
 11
13473.568423936271
 21
13560.82048738011
 31
0.0
  0
LINE
  5
7D7E
  8
FUTO
 10
13475.16839893627
 20
13562.42107338011
 30
0.0
 11
13473.568423936271
 21
13564.020682380111
 31
0.0
  0
LINE
  5
7D7F
  8
FUTO
 10
13487.26837493627
 20
13554.536307380111
 30
0.0
 11
13487.26837493627
 21
13589.715994380111
 31
0.0
  0
LINE
  5
7D80
  8
FUTO
 10
13487.26837493627
 20
13581.126151380109
 30
0.0
 11
13549.62286693627
 21
13581.126151380109
 31
0.0
  0
LINE
  5
7D81
  8
HOSO
 10
13549.62286693627
 20
13579.126151380109
 30
0.0
 11
13487.268313936271
 21
13579.126151380109
 31
0.0
  0
LINE
  5
7D82
  8
HOSO
 10
13487.26837493627
 20
13565.126151380109
 30
0.0
 11
13549.62286693627
 21
13565.126151380109
 31
0.0
  0
LINE
  5
7D83
  8
FUTO
 10
13549.62286693627
 20
13563.126151380109
 30
0.0
 11
13487.268313936271
 21
13563.126151380109
 31
0.0
  0
LINE
  5
7D84
  8
FUTO
 10
13574.62286693627
 20
13635.126151380109
 30
0.0
 11
13574.62286693627
 21
13592.126151380109
 31
0.0
  0
LINE
  5
7D85
  8
FUTO
 10
13577.62286693627
 20
13632.126151380109
 30
0.0
 11
13577.62286693627
 21
13592.126151380109
 31
0.0
  0
LINE
  5
7D86
  8
FUTO
 10
13582.62286693627
 20
13627.126151380109
 30
0.0
 11
13582.62286693627
 21
13581.126151380109
 31
0.0
  0
LINE
  5
7D87
  8
FUTO
 10
13642.122805936269
 20
13682.126151380109
 30
0.0
 11
13629.622805936269
 21
13682.126151380109
 31
0.0
  0
LINE
  5
7D88
  8
FUTO
 10
13631.122805936269
 20
13627.126151380109
 30
0.0
 11
13582.62286693627
 21
13627.126151380109
 31
0.0
  0
LINE
  5
7D89
  8
FUTO
 10
13631.122805936269
 20
13630.251151380109
 30
0.0
 11
13624.622805936269
 21
13630.251151380109
 31
0.0
  0
LINE
  5
7D8A
  8
FUTO
 10
13624.622805936269
 20
13677.126151380109
 30
0.0
 11
13624.622805936269
 21
13630.251151380109
 31
0.0
  0
LINE
  5
7D8B
  8
FUTO
 10
13624.622805936269
 20
13632.126151380109
 30
0.0
 11
13577.62286693627
 21
13632.126151380109
 31
0.0
  0
LINE
  5
7D8C
  8
FUTO
 10
13624.622805936269
 20
13635.126151380109
 30
0.0
 11
13574.62286693627
 21
13635.126151380109
 31
0.0
  0
ARC
  5
7D8D
  8
FUTO
 10
13629.622805936269
 20
13677.126151380109
 30
0.0
 40
5.0
 50
90.000000000000028
 51
180.0
  0
LINE
  5
7D8E
  8
FUTO
 10
13582.62286693627
 20
13627.126151380109
 30
0.0
 11
13577.62286693627
 21
13632.126151380109
 31
0.0
  0
LINE
  5
7D8F
  8
FUTO
 10
13644.941460717841
 20
13224.001151380109
 30
0.0
 11
13624.622805936269
 21
13224.001151380109
 31
0.0
  0
LINE
  5
7D90
  8
FUTO
 10
13582.62286693627
 20
13291.126151380109
 30
0.0
 11
13582.62286693627
 21
13563.126151380109
 31
0.0
  0
LINE
  5
7D91
  8
FUTO
 10
13582.62286693627
 20
13227.126151380109
 30
0.0
 11
13577.62286693627
 21
13222.126151380109
 31
0.0
  0
LINE
  5
7D92
  8
FUTO
 10
13582.62286693627
 20
13227.126151380109
 30
0.0
 11
13582.62286693627
 21
13273.126151380109
 31
0.0
  0
LINE
  5
7D93
  8
FUTO
 10
13644.832332367991
 20
13227.126151380109
 30
0.0
 11
13582.62286693627
 21
13227.126151380109
 31
0.0
  0
ARC
  5
7D94
  8
FUTO
 10
13629.622805936269
 20
13177.126151380109
 30
0.0
 40
5.0
 50
180.0
 51
270.0
  0
LINE
  5
7D95
  8
FUTO
 10
13624.622805936269
 20
13219.126151380109
 30
0.0
 11
13574.62286693627
 21
13219.126151380109
 31
0.0
  0
LINE
  5
7D96
  8
FUTO
 10
13624.622805936269
 20
13222.126151380109
 30
0.0
 11
13577.62286693627
 21
13222.126151380109
 31
0.0
  0
LINE
  5
7D97
  8
FUTO
 10
13676.93117094075
 20
13172.126151380109
 30
0.0
 11
13629.622805936269
 21
13172.126151380109
 31
0.0
  0
LINE
  5
7D98
  8
FUTO
 10
13624.622805936269
 20
13177.126151380109
 30
0.0
 11
13624.622805936269
 21
13224.001151380109
 31
0.0
  0
LINE
  5
7D99
  8
FUTO
 10
13577.62286693627
 20
13302.126151380109
 30
0.0
 11
13577.62286693627
 21
13552.126151380109
 31
0.0
  0
LINE
  5
7D9A
  8
FUTO
 10
13574.62286693627
 20
13302.126151380109
 30
0.0
 11
13574.62286693627
 21
13552.126151380109
 31
0.0
  0
LINE
  5
7D9B
  8
FUTO
 10
13577.62286693627
 20
13222.126151380109
 30
0.0
 11
13577.62286693627
 21
13262.126151380109
 31
0.0
  0
LINE
  5
7D9C
  8
FUTO
 10
13574.62286693627
 20
13219.126151380109
 30
0.0
 11
13574.62286693627
 21
13262.126151380109
 31
0.0
  0
LINE
  5
7D9D
  8
HOSO
 10
13579.62286693627
 20
13289.126151380109
 30
0.0
 11
13631.122805936269
 21
13289.126151380109
 31
0.0
  0
LINE
  5
7D9E
  8
FUTO
 10
13631.122805936269
 20
13291.126151380109
 30
0.0
 11
13579.62286693627
 21
13291.126151380109
 31
0.0
  0
LINE
  5
7D9F
  8
HOSO
 10
13631.122805936269
 20
13275.126151380109
 30
0.0
 11
13579.62286693627
 21
13275.126151380109
 31
0.0
  0
LINE
  5
7DA0
  8
FUTO
 10
13579.62286693627
 20
13273.126151380109
 30
0.0
 11
13631.122805936269
 21
13273.126151380109
 31
0.0
  0
LINE
  5
7DA1
  8
FUTO
 10
13549.62286693627
 20
13291.126151380109
 30
0.0
 11
13487.268313936271
 21
13291.126151380109
 31
0.0
  0
LINE
  5
7DA2
  8
HOSO
 10
13487.26837493627
 20
13289.126151380109
 30
0.0
 11
13549.62286693627
 21
13289.126151380109
 31
0.0
  0
LINE
  5
7DA3
  8
HOSO
 10
13549.62286693627
 20
13275.126151380109
 30
0.0
 11
13487.268313936271
 21
13275.126151380109
 31
0.0
  0
LINE
  5
7DA4
  8
FUTO
 10
13487.26837493627
 20
13273.126151380109
 30
0.0
 11
13549.62286693627
 21
13273.126151380109
 31
0.0
  0
LINE
  5
7DA5
  8
FUTO
 10
13487.26837493627
 20
13299.715995380109
 30
0.0
 11
13487.26837493627
 21
13264.536308380109
 31
0.0
  0
LINE
  5
7DA6
  8
FUTO
 10
13475.16839893627
 20
13291.83122938011
 30
0.0
 11
13473.568423936271
 21
13290.231620380109
 31
0.0
  0
LINE
  5
7DA7
  8
FUTO
 10
13475.16839893627
 20
13291.83122938011
 30
0.0
 11
13473.568423936271
 21
13293.43181538011
 31
0.0
  0
LINE
  5
7DA8
  8
FUTO
 10
13473.568423936271
 20
13298.11638638011
 30
0.0
 11
13475.16839893627
 21
13299.715995380109
 31
0.0
  0
LINE
  5
7DA9
  8
FUTO
 10
13475.16839893627
 20
13272.42107338011
 30
0.0
 11
13473.568423936271
 21
13274.021659380111
 31
0.0
  0
LINE
  5
7DAA
  8
FUTO
 10
13475.16839893627
 20
13272.42107338011
 30
0.0
 11
13473.568423936271
 21
13270.821464380109
 31
0.0
  0
LINE
  5
7DAB
  8
FUTO
 10
13475.16839893627
 20
13264.536308380109
 30
0.0
 11
13473.568423936271
 21
13266.13689338011
 31
0.0
  0
LINE
  5
7DAC
  8
FUTO
 10
13473.568423936271
 20
13298.11638638011
 30
0.0
 11
13473.568423936271
 21
13266.13689338011
 31
0.0
  0
LINE
  5
7DAD
  8
FUTO
 10
13475.16839893627
 20
13272.42107338011
 30
0.0
 11
13487.26837493627
 21
13272.42107338011
 31
0.0
  0
LINE
  5
7DAE
  8
FUTO
 10
13475.16839893627
 20
13291.83122938011
 30
0.0
 11
13487.26837493627
 21
13291.83122938011
 31
0.0
  0
LINE
  5
7DAF
  8
FUTO
 10
13475.16839893627
 20
13264.536308380109
 30
0.0
 11
13487.26837493627
 21
13264.536308380109
 31
0.0
  0
LINE
  5
7DB0
  8
FUTO
 10
13475.16839893627
 20
13299.715995380109
 30
0.0
 11
13487.26837493627
 21
13299.715995380109
 31
0.0
  0
LINE
  5
7DB1
  8
CT
 10
13631.122805936269
 20
13282.126151380109
 30
0.0
 11
13463.568423936271
 21
13282.126151380109
 31
0.0
  0
LINE
  5
7DB2
  8
FUTO
 10
13579.62286693627
 20
13262.126151380109
 30
0.0
 11
13549.62286693627
 21
13262.126151380109
 31
0.0
  0
LINE
  5
7DB3
  8
FUTO
 10
13549.62286693627
 20
13302.126151380109
 30
0.0
 11
13579.62286693627
 21
13302.126151380109
 31
0.0
  0
LINE
  5
7DB4
  8
FUTO
 10
13579.62286693627
 20
13262.126151380109
 30
0.0
 11
13579.62286693627
 21
13302.126151380109
 31
0.0
  0
LINE
  5
7DB5
  8
FUTO
 10
13549.62286693627
 20
13262.126151380109
 30
0.0
 11
13549.62286693627
 21
13302.126151380109
 31
0.0
  0
ARC
  5
7DB6
  8
FUTO
 10
14166.25195593627
 20
13489.12609038011
 30
0.0
 40
20.0
 50
0.000000000000007
 51
90.000000000000028
  0
ARC
  5
7DB7
  8
FUTO
 10
14166.25195593627
 20
13365.126151380109
 30
0.0
 40
20.0
 50
270.0
 51
0.000000000000007
  0
ARC
  5
7DB8
  8
FUTO
 10
14176.25195593627
 20
13348.126151380109
 30
0.0
 40
10.0
 50
270.0
 51
0.000000000000007
  0
ARC
  5
7DB9
  8
FUTO
 10
14176.25195593627
 20
13506.12609038011
 30
0.0
 40
10.0
 50
0.000000000000007
 51
90.000000000000028
  0
ARC
  5
7DBA
  8
FUTO
 10
14073.395231037381
 20
13348.126151380109
 30
0.0
 40
10.0
 50
180.0
 51
270.0
  0
ARC
  5
7DBB
  8
FUTO
 10
14076.56234657572
 20
13348.126151380109
 30
0.0
 40
10.0
 50
180.0
 51
270.0
  0
ARC
  5
7DBC
  8
FUTO
 10
14073.395231037381
 20
13506.12609038011
 30
0.0
 40
10.0
 50
90.000000000000028
 51
180.0
  0
ARC
  5
7DBD
  8
FUTO
 10
14076.56234657572
 20
13506.12609038011
 30
0.0
 40
10.0
 50
90.000000000000028
 51
180.0
  0
LINE
  5
7DBE
  8
FUTO
 10
14073.75894985517
 20
13345.126151380109
 30
0.0
 11
14166.25195593627
 21
13345.126151380109
 31
0.0
  0
LINE
  5
7DBF
  8
FUTO
 10
14073.75894985517
 20
13509.12609038011
 30
0.0
 11
14166.25195593627
 21
13509.12609038011
 31
0.0
  0
ARC
  5
7DC0
  8
FUTO
 10
14059.622805936269
 20
13350.126151380109
 30
0.0
 40
5.0
 50
180.0
 51
270.0
  0
ARC
  5
7DC1
  8
FUTO
 10
14059.622805936269
 20
13504.12609038011
 30
0.0
 40
5.0
 50
90.000000000000028
 51
180.0
  0
ARC
  5
7DC2
  8
FUTO
 10
14073.75894985517
 20
13350.126151380109
 30
0.0
 40
5.0
 50
180.0
 51
270.0
  0
ARC
  5
7DC3
  8
FUTO
 10
14073.75894985517
 20
13504.12609038011
 30
0.0
 40
5.0
 50
90.000000000000028
 51
180.0
  0
LINE
  5
7DC4
  8
FUTO
 10
14073.395231037381
 20
13338.126151380109
 30
0.0
 11
14176.25195593627
 21
13338.126151380109
 31
0.0
  0
LINE
  5
7DC5
  8
FUTO
 10
14059.622805936269
 20
13345.126151380109
 30
0.0
 11
14063.395231037381
 21
13345.126151380109
 31
0.0
  0
LINE
  5
7DC6
  8
FUTO
 10
14073.395231037381
 20
13516.12609038011
 30
0.0
 11
14176.25195593627
 21
13516.12609038011
 31
0.0
  0
LINE
  5
7DC7
  8
FUTO
 10
14059.622805936269
 20
13509.12609038011
 30
0.0
 11
14063.395231037381
 21
13509.12609038011
 31
0.0
  0
LINE
  5
7DC8
  8
FUTO
 10
14038.122805936269
 20
13487.126151380109
 30
0.0
 11
14038.122805936269
 21
13593.936922129151
 31
0.0
  0
LINE
  5
7DC9
  8
FUTO
 10
14054.622805936269
 20
13367.126151380109
 30
0.0
 11
13986.896408376089
 21
13367.126151380109
 31
0.0
  0
LINE
  5
7DCA
  8
FUTO
 10
14054.622805936269
 20
13487.126151380109
 30
0.0
 11
13986.896408376089
 21
13487.126151380109
 31
0.0
  0
LINE
  5
7DCB
  8
FUTO
 10
14144.94214193627
 20
13365.126151380109
 30
0.0
 11
14144.94214193627
 21
13489.12609038011
 31
0.0
  0
LINE
  5
7DCC
  8
FUTO
 10
14068.75894985517
 20
13350.126151380109
 30
0.0
 11
14068.75894985517
 21
13504.12609038011
 31
0.0
  0
LINE
  5
7DCD
  8
FUTO
 10
14066.562346575711
 20
13348.126151380109
 30
0.0
 11
14066.562346575711
 21
13506.12609038011
 31
0.0
  0
LINE
  5
7DCE
  8
FUTO
 10
14063.395231037381
 20
13348.126151380109
 30
0.0
 11
14063.395231037381
 21
13506.12609038011
 31
0.0
  0
LINE
  5
7DCF
  8
FUTO
 10
14054.622805936269
 20
13350.126151380109
 30
0.0
 11
14054.622805936269
 21
13504.12609038011
 31
0.0
  0
LINE
  5
7DD0
  8
FUTO
 10
14044.622805936269
 20
13367.126151380109
 30
0.0
 11
14044.622805936269
 21
13487.126151380109
 31
0.0
  0
LINE
  5
7DD1
  8
FUTO
 10
13986.896408376089
 20
13367.126151380109
 30
0.0
 11
13986.896408376089
 21
13487.126151380109
 31
0.0
  0
LINE
  5
7DD2
  8
FUTO
 10
14186.25195593627
 20
13348.126151380109
 30
0.0
 11
14186.25195593627
 21
13506.12609038011
 31
0.0
  0
LINE
  5
7DD3
  8
FUTO
 10
13840.872805936269
 20
13403.376151380109
 30
0.0
 11
13840.872805936269
 21
13450.876151380109
 31
0.0
  0
ARC
  5
7DD4
  8
FUTO
 10
13834.622805936269
 20
13403.376151380109
 30
0.0
 40
6.25
 50
180.0
 51
0.000000000000007
  0
ARC
  5
7DD5
  8
FUTO
 10
13834.622805936269
 20
13450.876151380109
 30
0.0
 40
6.25
 50
0.000000000000007
 51
180.0
  0
LINE
  5
7DD6
  8
CT
 10
14206.25195593627
 20
13427.126151380109
 30
0.0
 11
13554.62286693627
 21
13427.126151380109
 31
0.0
  0
LINE
  5
7DD7
  8
FUTO
 10
13828.372805936269
 20
13403.376151380109
 30
0.0
 11
13828.372805936269
 21
13450.876151380109
 31
0.0
  0
LINE
  5
7DD8
  8
FUTO
 10
14038.122805936269
 20
13593.936922129151
 30
0.0
 11
14036.30102893627
 21
13596.12609038011
 31
0.0
  0
LINE
  5
7DD9
  8
FUTO
 10
14038.122805936269
 20
13260.31523838011
 30
0.0
 11
14031.622805936269
 21
13252.50432538011
 31
0.0
  0
LINE
  5
7DDA
  8
FUTO
 10
14038.122805936269
 20
13260.31523838011
 30
0.0
 11
14038.122805936269
 21
13367.126151380109
 31
0.0
  0
LINE
  5
7DDB
  8
FUTO
 10
13631.122805936269
 20
13260.31523838011
 30
0.0
 11
13631.122805936269
 21
13593.936922129151
 31
0.0
  0
ARC
  5
7DDC
  8
FUTO
 10
13912.622805936269
 20
13153.626151380109
 30
0.0
 40
2.0
 50
270.0
 51
0.000000000000007
  0
ARC
  5
7DDD
  8
FUTO
 10
13917.622805936269
 20
13163.77922738011
 30
0.0
 40
2.9999599999999988
 50
92.999557000035395
 51
180.0
  0
LINE
  5
7DDE
  8
FUTO
 10
13914.622805936269
 20
13163.77922738011
 30
0.0
 11
13914.622805936269
 21
13153.626151380109
 31
0.0
  0
ARC
  5
7DDF
  8
FUTO
 10
14013.718753936269
 20
13207.411796380111
 30
0.0
 40
9.9999679999999991
 50
314.99999999999989
 51
358.00067099997602
  0
ARC
  5
7DE0
  8
FUTO
 10
13986.72558993627
 20
13180.418631380109
 30
0.0
 40
10.000024
 50
272.99903899998708
 51
314.99999999999989
  0
LINE
  5
7DE1
  8
FUTO
 10
14020.78979893627
 20
13200.34075138011
 30
0.0
 11
13993.79663393627
 21
13173.347587380111
 31
0.0
  0
LINE
  5
7DE2
  8
FUTO
 10
14024.622805936269
 20
13233.126151380109
 30
0.0
 11
14023.712649936269
 21
13207.062919380111
 31
0.0
  0
LINE
  5
7DE3
  8
FUTO
 10
13987.248782936271
 20
13170.43230338011
 30
0.0
 11
13898.65747393627
 21
13165.78948138011
 31
0.0
  0
LINE
  5
7DE4
  8
FUTO
 10
13996.622805936269
 20
13243.126151380109
 30
0.0
 11
13672.622805936269
 21
13243.126151380109
 31
0.0
  0
LINE
  5
7DE5
  8
FUTO
 10
13996.622805936269
 20
13233.126151380109
 30
0.0
 11
13996.622805936269
 21
13238.126151380109
 31
0.0
  0
LINE
  5
7DE6
  8
FUTO
 10
13996.622805936269
 20
13238.126151380109
 30
0.0
 11
13996.622805936269
 21
13243.126151380109
 31
0.0
  0
LINE
  5
7DE7
  8
FUTO
 10
14031.622805936269
 20
13252.50432538011
 30
0.0
 11
13996.622805936269
 21
13243.126151380109
 31
0.0
  0
ARC
  5
7DE8
  8
FUTO
 10
14018.122805936269
 20
13642.599479380109
 30
0.0
 40
20.0
 50
0.000000000000007
 51
20.000046000015271
  0
ARC
  5
7DE9
  8
FUTO
 10
14047.122805936269
 20
13679.87486938011
 30
0.0
 40
20.0
 50
180.0
 51
199.99972500000979
  0
LINE
  5
7DEA
  8
FUTO
 10
13982.271731936269
 20
13624.62609038011
 30
0.0
 11
13986.02466193627
 21
13631.12609038011
 31
0.0
  0
LINE
  5
7DEB
  8
FUTO
 10
13986.02466193627
 20
13631.12609038011
 30
0.0
 11
13982.271731936269
 21
13637.62609038011
 31
0.0
  0
LINE
  5
7DEC
  8
FUTO
 10
14036.916751936271
 20
13649.43993338011
 30
0.0
 11
14028.32886093627
 21
13673.03453738011
 31
0.0
  0
LINE
  5
7DED
  8
FUTO
 10
14038.122805936269
 20
13596.12609038011
 30
0.0
 11
14038.122805936269
 21
13642.599479380109
 31
0.0
  0
LINE
  5
7DEE
  8
FUTO
 10
13971.013430936269
 20
13631.12609038011
 30
0.0
 11
13974.76636093627
 21
13637.62609038011
 31
0.0
  0
LINE
  5
7DEF
  8
FUTO
 10
13974.76636093627
 20
13624.62609038011
 30
0.0
 11
13971.013430936269
 21
13631.12609038011
 31
0.0
  0
LINE
  5
7DF0
  8
CT
 10
13978.51904693627
 20
13623.68395138011
 30
0.0
 11
13978.51904693627
 21
13638.14000638011
 31
0.0
  0
LINE
  5
7DF1
  8
CT
 10
13970.12842193627
 20
13631.12609038011
 30
0.0
 11
13986.94995493627
 21
13631.12609038011
 31
0.0
  0
LINE
  5
7DF2
  8
FUTO
 10
13974.76636093627
 20
13637.62609038011
 30
0.0
 11
13982.271731936269
 21
13637.62609038011
 31
0.0
  0
LINE
  5
7DF3
  8
FUTO
 10
13974.76636093627
 20
13624.62609038011
 30
0.0
 11
13982.271731936269
 21
13624.62609038011
 31
0.0
  0
CIRCLE
  5
7DF4
  8
FUTO
 10
13978.51904693627
 20
13631.12609038011
 30
0.0
 40
6.5
  0
ARC
  5
7DF5
  8
FUTO
 10
14012.122805936269
 20
13740.815177380109
 30
0.0
 40
15.0
 50
0.000000000000007
 51
29.999817000004409
  0
ARC
  5
7DF6
  8
FUTO
 10
13991.73608793627
 20
13796.12609038011
 30
0.0
 40
4.9999580000000003
 50
30.000281999998801
 51
90.000000000000028
  0
LINE
  5
7DF7
  8
FUTO
 10
13996.06616593627
 20
13798.62609038011
 30
0.0
 11
14025.113284936269
 21
13748.315177380109
 31
0.0
  0
LINE
  5
7DF8
  8
FUTO
 10
14027.122805936269
 20
13679.87486938011
 30
0.0
 11
14027.122805936269
 21
13740.815177380109
 31
0.0
  0
LINE
  5
7DF9
  8
FUTO
 10
13642.122805936269
 20
13679.87486938011
 30
0.0
 11
13642.122805936269
 21
13740.815177380109
 31
0.0
  0
LINE
  5
7DFA
  8
CT
 10
13834.622805936269
 20
12819.33706041416
 30
0.0
 11
13834.622805936269
 21
13821.126151380109
 31
0.0
  0
LINE
  5
7DFB
  8
FUTO
 10
13676.972841936269
 20
13801.126151380109
 30
0.0
 11
13991.763155936271
 21
13801.126151380109
 31
0.0
  0
LINE
  5
7DFC
  8
FUTO
 10
14027.122805936269
 20
13742.026114380111
 30
0.0
 11
13642.171877936271
 21
13742.026114380111
 31
0.0
  0
LINE
  5
7DFD
  8
FUTO
 10
13673.17944593627
 20
13798.62609038011
 30
0.0
 11
13644.132326936269
 21
13748.315177380109
 31
0.0
  0
ARC
  5
7DFE
  8
FUTO
 10
13677.509523936271
 20
13796.12609038011
 30
0.0
 40
4.9999580000000003
 50
90.000000000000028
 51
149.99971800000111
  0
ARC
  5
7DFF
  8
FUTO
 10
13657.122805936269
 20
13740.815177380109
 30
0.0
 40
15.0
 50
150.00018299999559
 51
180.0
  0
LINE
  5
7E00
  8
FUTO
 10
13912.622805936269
 20
13151.626151380109
 30
0.0
 11
13834.622805936269
 21
13151.626151380109
 31
0.0
  0
LINE
  5
7E01
  8
FUTO
 10
14024.622805936269
 20
13233.126151380109
 30
0.0
 11
13834.622805936269
 21
13233.126151380109
 31
0.0
  0
LINE
  5
7E02
  8
FUTO
 10
13996.622805936269
 20
13238.126151380109
 30
0.0
 11
13834.622805936269
 21
13238.126151380109
 31
0.0
  0
LINE
  5
7E03
  8
FUTO
 10
13641.80542293627
 20
13676.326041380111
 30
0.0
 11
14027.122805936269
 21
13676.326041380111
 31
0.0
  0
LINE
  5
7E04
  8
FUTO
 10
13631.43628193627
 20
13646.12609038011
 30
0.0
 11
14037.809426135151
 21
13646.12609038011
 31
0.0
  0
LINE
  5
7E05
  8
FUTO
 10
13631.122805936269
 20
13596.12609038011
 30
0.0
 11
14036.30102893627
 21
13596.12609038011
 31
0.0
  0
LINE
  5
7E06
  8
FUTO
 10
13996.622805936269
 20
13238.126151380109
 30
0.0
 11
13834.622805936269
 21
13238.126151380109
 31
0.0
  0
CIRCLE
  5
7E07
  8
FUTO
 10
13690.726564936271
 20
13631.12609038011
 30
0.0
 40
6.5
  0
LINE
  5
7E08
  8
FUTO
 10
13694.479250936271
 20
13624.62609038011
 30
0.0
 11
13686.973879936269
 21
13624.62609038011
 31
0.0
  0
LINE
  5
7E09
  8
FUTO
 10
13694.479250936271
 20
13637.62609038011
 30
0.0
 11
13686.973879936269
 21
13637.62609038011
 31
0.0
  0
LINE
  5
7E0A
  8
CT
 10
13699.117189936271
 20
13631.12609038011
 30
0.0
 11
13682.29565693627
 21
13631.12609038011
 31
0.0
  0
LINE
  5
7E0B
  8
CT
 10
13690.726564936271
 20
13623.68395138011
 30
0.0
 11
13690.726564936271
 21
13638.14000638011
 31
0.0
  0
LINE
  5
7E0C
  8
FUTO
 10
13694.479250936271
 20
13624.62609038011
 30
0.0
 11
13698.232180936269
 21
13631.12609038011
 31
0.0
  0
LINE
  5
7E0D
  8
FUTO
 10
13698.232180936269
 20
13631.12609038011
 30
0.0
 11
13694.479250936271
 21
13637.62609038011
 31
0.0
  0
LINE
  5
7E0E
  8
FUTO
 10
13631.122805936269
 20
13596.12609038011
 30
0.0
 11
13631.122805936269
 21
13642.599479380109
 31
0.0
  0
LINE
  5
7E0F
  8
FUTO
 10
13632.32885993628
 20
13649.43993338011
 30
0.0
 11
13640.916750936271
 21
13673.03453738011
 31
0.0
  0
LINE
  5
7E10
  8
FUTO
 10
13683.220949936271
 20
13631.12609038011
 30
0.0
 11
13686.973879936269
 21
13637.62609038011
 31
0.0
  0
LINE
  5
7E11
  8
FUTO
 10
13686.973879936269
 20
13624.62609038011
 30
0.0
 11
13683.220949936271
 21
13631.12609038011
 31
0.0
  0
ARC
  5
7E12
  8
FUTO
 10
13622.122805936269
 20
13679.87486938011
 30
0.0
 40
20.0
 50
340.00027499999021
 51
0.000000000000007
  0
ARC
  5
7E13
  8
FUTO
 10
13651.122805936269
 20
13642.599479380109
 30
0.0
 40
20.0
 50
159.99995399998471
 51
180.0
  0
LINE
  5
7E14
  8
FUTO
 10
13631.122805936269
 20
13593.936922129151
 30
0.0
 11
13632.94458293627
 21
13596.12609038011
 31
0.0
  0
LINE
  5
7E15
  8
FUTO
 10
13672.622805936269
 20
13238.126151380109
 30
0.0
 11
13834.622805936269
 21
13238.126151380109
 31
0.0
  0
LINE
  5
7E16
  8
FUTO
 10
13681.99682893627
 20
13170.43230338011
 30
0.0
 11
13770.588137936271
 21
13165.78948138011
 31
0.0
  0
LINE
  5
7E17
  8
FUTO
 10
13644.622805936269
 20
13233.126151380109
 30
0.0
 11
13834.622805936269
 21
13233.126151380109
 31
0.0
  0
LINE
  5
7E18
  8
FUTO
 10
13672.622805936269
 20
13238.126151380109
 30
0.0
 11
13834.622805936269
 21
13238.126151380109
 31
0.0
  0
LINE
  5
7E19
  8
FUTO
 10
13864.622805936269
 20
13141.626151380109
 30
0.0
 11
13864.622805936269
 21
13001.626151380109
 31
0.0
  0
LINE
  5
7E1A
  8
FUTO
 10
13804.622805936269
 20
13141.626151380109
 30
0.0
 11
13804.622805936269
 21
13001.626151380109
 31
0.0
  0
LINE
  5
7E1B
  8
FUTO
 10
13756.622805936269
 20
13151.626151380109
 30
0.0
 11
13834.622805936269
 21
13151.626151380109
 31
0.0
  0
LINE
  5
7E1C
  8
FUTO
 10
13867.122805936269
 20
13141.626151380109
 30
0.0
 11
13802.122805936269
 21
13141.626151380109
 31
0.0
  0
LINE
  5
7E1D
  8
FUTO
 10
13867.122805936269
 20
13141.626151380109
 30
0.0
 11
13867.122805936269
 21
13151.626151380109
 31
0.0
  0
LINE
  5
7E1E
  8
FUTO
 10
13802.122805936269
 20
13141.626151380109
 30
0.0
 11
13802.122805936269
 21
13151.626151380109
 31
0.0
  0
LINE
  5
7E1F
  8
FUTO
 10
13754.622805936269
 20
13163.77922738011
 30
0.0
 11
13754.622805936269
 21
13153.626151380109
 31
0.0
  0
ARC
  5
7E20
  8
FUTO
 10
13751.622805936269
 20
13163.77922738011
 30
0.0
 40
2.9999599999999988
 50
0.000000000000007
 51
87.000443000016674
  0
ARC
  5
7E21
  8
FUTO
 10
13756.622805936269
 20
13153.626151380109
 30
0.0
 40
2.0
 50
180.0
 51
270.0
  0
LINE
  5
7E22
  8
FUTO
 10
13804.622805936269
 20
13001.626151380109
 30
0.0
 11
13864.622805936269
 21
13001.626151380109
 31
0.0
  0
LINE
  5
7E23
  8
FUTO
 10
13631.122805936269
 20
13260.31523838011
 30
0.0
 11
13637.622805936269
 21
13252.50432538011
 31
0.0
  0
LINE
  5
7E24
  8
FUTO
 10
13644.622805936269
 20
13233.126151380109
 30
0.0
 11
13645.532961936269
 21
13207.062919380111
 31
0.0
  0
LINE
  5
7E25
  8
FUTO
 10
13637.622805936269
 20
13252.50432538011
 30
0.0
 11
13672.622805936269
 21
13243.126151380109
 31
0.0
  0
LINE
  5
7E26
  8
FUTO
 10
13672.622805936269
 20
13238.126151380109
 30
0.0
 11
13672.622805936269
 21
13243.126151380109
 31
0.0
  0
LINE
  5
7E27
  8
FUTO
 10
13672.622805936269
 20
13233.126151380109
 30
0.0
 11
13672.622805936269
 21
13238.126151380109
 31
0.0
  0
LINE
  5
7E28
  8
FUTO
 10
13648.45581293627
 20
13200.34075138011
 30
0.0
 11
13675.44897793627
 21
13173.347587380111
 31
0.0
  0
ARC
  5
7E29
  8
FUTO
 10
13682.52002193627
 20
13180.418631380109
 30
0.0
 40
10.000024
 50
225.0
 51
267.00096100001281
  0
ARC
  5
7E2A
  8
FUTO
 10
13655.526857936269
 20
13207.411796380111
 30
0.0
 40
9.9999679999999991
 50
181.99932900002389
 51
225.0
  0
CIRCLE
  5
7E2B
  8
FUTO
 10
13834.622805936269
 20
9608.2616573486375
 30
0.0
 40
30.0
  0
LINE
  5
7E2C
  8
FUTO
 10
15587.60083035579
 20
9428.2616573486375
 30
0.0
 11
15602.280261280101
 21
9428.2616573486375
 31
0.0
  0
LINE
  5
7E2D
  8
FUTO
 10
15590.280322280099
 20
9408.2616573486375
 30
0.0
 11
15625.280322280099
 21
9408.2616573486375
 31
0.0
  0
LINE
  5
7E2E
  8
FUTO
 10
15262.959814204411
 20
9428.2616573486375
 30
0.0
 11
15248.280322280099
 21
9428.2616573486375
 31
0.0
  0
LINE
  5
7E2F
  8
FUTO
 10
15260.280322280099
 20
9408.2616573486375
 30
0.0
 11
15225.280322280099
 21
9408.2616573486375
 31
0.0
  0
LINE
  5
7E30
  8
CT
 10
13994.622805936269
 20
9398.2616573486393
 30
0.0
 11
13994.622805936269
 21
9328.2616573486375
 31
0.0
  0
LINE
  5
7E31
  8
FUTO
 10
15325.280322280099
 20
9403.2616573486375
 30
0.0
 11
15325.280322280099
 21
9408.2616573486375
 31
0.0
  0
LINE
  5
7E32
  8
FUTO
 10
15525.280322280099
 20
9408.2616573486375
 30
0.0
 11
15525.280322280099
 21
9403.2616573486375
 31
0.0
  0
LINE
  5
7E3B
  8
FUTO
 10
13766.622805936269
 20
9408.2616573486375
 30
0.0
 11
13766.622805936269
 21
9403.2616573486375
 31
0.0
  0
LINE
  5
7E3C
  8
FUTO
 10
13902.622927936271
 20
9403.2616573486375
 30
0.0
 11
13902.622927936271
 21
9408.2616573486375
 31
0.0
  0
LINE
  5
7E3D
  8
FUTO
 10
15280.280322280099
 20
9436.737243348638
 30
0.0
 11
15264.280322280099
 21
9427.4999393486378
 31
0.0
  0
LINE
  5
7E3E
  8
FUTO
 10
15296.280322280099
 20
9427.4999393486378
 30
0.0
 11
15280.280322280099
 21
9436.737243348638
 31
0.0
  0
LINE
  5
7E3F
  8
FUTO
 10
15280.280322280099
 20
9399.7870483486367
 30
0.0
 11
15264.280322280099
 21
9409.0243533486373
 31
0.0
  0
LINE
  5
7E40
  8
FUTO
 10
15296.280322280099
 20
9409.0243533486373
 30
0.0
 11
15280.280322280099
 21
9399.7870483486367
 31
0.0
  0
LINE
  5
7E41
  8
FUTO
 10
15250.280322280099
 20
9418.2616573486375
 30
0.0
 11
15310.280322280099
 21
9418.2616573486375
 31
0.0
  0
CIRCLE
  5
7E42
  8
CT
 10
15280.280322280099
 20
9418.2616573486375
 30
0.0
 40
16.0
  0
LINE
  5
7E43
  8
FUTO
 10
15296.280322280099
 20
9409.0243533486373
 30
0.0
 11
15296.280322280099
 21
9427.4999393486378
 31
0.0
  0
LINE
  5
7E44
  8
FUTO
 10
15264.280322280099
 20
9409.0243533486373
 30
0.0
 11
15264.280322280099
 21
9427.4999393486378
 31
0.0
  0
ARC
  5
7E45
  8
FUTO
 10
15280.280322280099
 20
9418.2616573486375
 30
0.0
 40
20.0
 50
0.000000000000007
 51
180.0
  0
ARC
  5
7E46
  8
FUTO
 10
15173.280322280099
 20
9375.2616573486375
 30
0.0
 40
3.0
 50
90.0
 51
180.0
  0
LINE
  5
7E47
  8
FUTO
 10
15222.155322280099
 20
9378.2616573486375
 30
0.0
 11
15173.280322280099
 21
9378.2616573486375
 31
0.0
  0
LINE
  5
7E48
  8
FUTO
 10
15227.280322280099
 20
9348.2616573486375
 30
0.0
 11
15227.280322280099
 21
9353.2616573486375
 31
0.0
  0
LINE
  5
7E49
  8
FUTO
 10
15217.280322280099
 20
9360.2616573486375
 30
0.0
 11
15217.280322280099
 21
9353.2616573486375
 31
0.0
  0
LINE
  5
7E4A
  8
FUTO
 10
15227.280322280099
 20
9348.2616573486375
 30
0.0
 11
15170.280322280099
 21
9348.2616573486375
 31
0.0
  0
LINE
  5
7E4B
  8
FUTO
 10
15170.280322280099
 20
9348.2616573486375
 30
0.0
 11
15170.280322280099
 21
9375.2616573486375
 31
0.0
  0
LINE
  5
7E4C
  8
CT
 10
15195.280322280099
 20
9398.2616573486393
 30
0.0
 11
15195.280322280099
 21
9328.2616573486375
 31
0.0
  0
LINE
  5
7E4D
  8
FUTO
 10
15217.280322280099
 20
9360.2616573486375
 30
0.0
 11
15260.280322280099
 21
9360.2616573486375
 31
0.0
  0
LINE
  5
7E4E
  8
FUTO
 10
15225.280322280099
 20
9408.2616573486375
 30
0.0
 11
15220.280322280099
 21
9360.2616573486375
 31
0.0
  0
LINE
  5
7E4F
  8
FUTO
 10
15300.280322280099
 20
9418.2616573486375
 30
0.0
 11
15300.280322280099
 21
9353.2616573486375
 31
0.0
  0
LINE
  5
7E50
  8
FUTO
 10
15260.280322280099
 20
9353.2616573486375
 30
0.0
 11
15260.280322280099
 21
9418.2616573486375
 31
0.0
  0
LINE
  5
7E51
  8
CT
 10
15280.280322280099
 20
9343.2616573486375
 30
0.0
 11
15280.280322280099
 21
9448.2616573486375
 31
0.0
  0
LINE
  5
7E52
  8
FUTO
 10
15554.280322280099
 20
9427.4999393486378
 30
0.0
 11
15570.280322280099
 21
9436.737243348638
 31
0.0
  0
LINE
  5
7E53
  8
FUTO
 10
15554.280322280099
 20
9409.0243533486373
 30
0.0
 11
15570.280322280099
 21
9399.7870483486367
 31
0.0
  0
LINE
  5
7E54
  8
FUTO
 10
15554.280322280099
 20
9409.0243533486373
 30
0.0
 11
15554.280322280099
 21
9427.4999393486378
 31
0.0
  0
LINE
  5
7E55
  8
FUTO
 10
15586.280322280099
 20
9409.0243533486373
 30
0.0
 11
15586.280322280099
 21
9427.4999393486378
 31
0.0
  0
CIRCLE
  5
7E56
  8
FUTO
 10
15570.280322280099
 20
9418.2616573486375
 30
0.0
 40
16.0
  0
LINE
  5
7E57
  8
FUTO
 10
15570.280322280099
 20
9436.737243348638
 30
0.0
 11
15586.280322280099
 21
9427.4999393486378
 31
0.0
  0
LINE
  5
7E58
  8
FUTO
 10
15570.280322280099
 20
9399.7870483486367
 30
0.0
 11
15586.280322280099
 21
9409.0243533486373
 31
0.0
  0
ARC
  5
7E59
  8
FUTO
 10
15570.280322280099
 20
9418.2616573486375
 30
0.0
 40
20.0
 50
0.000000000000007
 51
180.0
  0
LINE
  5
7E5A
  8
CT
 10
15600.280322280099
 20
9418.2616573486375
 30
0.0
 11
15540.280322280099
 21
9418.2616573486375
 31
0.0
  0
LINE
  5
7E5B
  8
FUTO
 10
15325.280322280099
 20
9403.2616573486375
 30
0.0
 11
15525.280322280099
 21
9403.2616573486375
 31
0.0
  0
LINE
  5
7E5C
  8
FUTO
 10
15623.280322280099
 20
9348.2616573486375
 30
0.0
 11
15623.280322280099
 21
9353.2616573486375
 31
0.0
  0
LINE
  5
7E5D
  8
FUTO
 10
15633.280322280099
 20
9360.2616573486375
 30
0.0
 11
15633.280322280099
 21
9353.2616573486375
 31
0.0
  0
LINE
  5
7E5E
  8
FUTO
 10
15633.280322280099
 20
9360.2616573486375
 30
0.0
 11
15590.280322280099
 21
9360.2616573486375
 31
0.0
  0
LINE
  5
7E5F
  8
CT
 10
15655.280322280099
 20
9398.2616573486393
 30
0.0
 11
15655.280322280099
 21
9328.2616573486375
 31
0.0
  0
ARC
  5
7E60
  8
FUTO
 10
15677.280322280099
 20
9375.2616573486375
 30
0.0
 40
3.0
 50
0.000000000000007
 51
90.0
  0
LINE
  5
7E61
  8
FUTO
 10
15680.280322280099
 20
9348.2616573486375
 30
0.0
 11
15680.280322280099
 21
9375.2616573486375
 31
0.0
  0
LINE
  5
7E62
  8
FUTO
 10
15628.405322280099
 20
9378.2616573486375
 30
0.0
 11
15677.280322280099
 21
9378.2616573486375
 31
0.0
  0
LINE
  5
7E63
  8
FUTO
 10
15623.280322280099
 20
9348.2616573486375
 30
0.0
 11
15680.280322280099
 21
9348.2616573486375
 31
0.0
  0
LINE
  5
7E64
  8
FUTO
 10
15625.280322280099
 20
9408.2616573486375
 30
0.0
 11
15630.280322280099
 21
9360.2616573486375
 31
0.0
  0
LINE
  5
7E65
  8
FUTO
 10
15550.280322280099
 20
9418.2616573486375
 30
0.0
 11
15550.280322280099
 21
9353.2616573486375
 31
0.0
  0
LINE
  5
7E66
  8
FUTO
 10
15590.280322280099
 20
9353.2616573486375
 30
0.0
 11
15590.280322280099
 21
9418.2616573486375
 31
0.0
  0
LINE
  5
7E67
  8
CT
 10
15570.280322280099
 20
9343.2616573486375
 30
0.0
 11
15570.280322280099
 21
9448.2616573486375
 31
0.0
  0
LINE
  5
7E68
  8
FUTO
 10
14194.07739593627
 20
9427.9667353486384
 30
0.0
 11
14195.67737193627
 21
9426.3671263486376
 31
0.0
  0
LINE
  5
7E69
  8
FUTO
 10
14194.07739593627
 20
9427.9667353486384
 30
0.0
 11
14195.67737193627
 21
9429.5673213486407
 31
0.0
  0
LINE
  5
7E6A
  8
FUTO
 10
14194.07739593627
 20
9427.9667353486384
 30
0.0
 11
14181.977420936269
 21
9427.9667353486384
 31
0.0
  0
LINE
  5
7E6B
  8
FUTO
 10
14195.677249936271
 20
9434.2518923486386
 30
0.0
 11
14194.077273936269
 21
9435.8515013486376
 31
0.0
  0
LINE
  5
7E6C
  8
FUTO
 10
14194.07739593627
 20
9435.8515013486376
 30
0.0
 11
14181.977420936269
 21
9435.8515013486376
 31
0.0
  0
LINE
  5
7E6D
  8
FUTO
 10
14194.07739593627
 20
9408.5565793486385
 30
0.0
 11
14195.67737193627
 21
9410.1571653486371
 31
0.0
  0
LINE
  5
7E6E
  8
FUTO
 10
14194.07739593627
 20
9408.5565793486385
 30
0.0
 11
14195.67737193627
 21
9406.9569703486377
 31
0.0
  0
LINE
  5
7E6F
  8
FUTO
 10
14194.07739593627
 20
9408.5565793486385
 30
0.0
 11
14181.977420936269
 21
9408.5565793486385
 31
0.0
  0
LINE
  5
7E70
  8
FUTO
 10
14194.07739593627
 20
9400.6718143486396
 30
0.0
 11
14181.977420936269
 21
9400.6718143486396
 31
0.0
  0
LINE
  5
7E71
  8
FUTO
 10
14194.07739593627
 20
9400.6718143486396
 30
0.0
 11
14195.67737193627
 21
9402.2723993486361
 31
0.0
  0
LINE
  5
7E72
  8
FUTO
 10
14195.677249936271
 20
9434.2518923486386
 30
0.0
 11
14195.677249936271
 21
9402.2723993486361
 31
0.0
  0
LINE
  5
7E73
  8
FUTO
 10
14181.97729893627
 20
9435.8515013486376
 30
0.0
 11
14181.97729893627
 21
9400.6718143486396
 31
0.0
  0
LINE
  5
7E74
  8
HOSO
 10
14119.622927936271
 20
9411.2616573486375
 30
0.0
 11
14181.977054936269
 21
9411.2616573486375
 31
0.0
  0
LINE
  5
7E75
  8
FUTO
 10
14119.622927936271
 20
9427.2616573486375
 30
0.0
 11
14181.977054936269
 21
9427.2616573486375
 31
0.0
  0
LINE
  5
7E76
  8
HOSO
 10
14181.97729893627
 20
9425.2616573486375
 30
0.0
 11
14119.622927936271
 21
9425.2616573486375
 31
0.0
  0
LINE
  5
7E77
  8
FUTO
 10
14181.97729893627
 20
9409.2616573486375
 30
0.0
 11
14119.622927936271
 21
9409.2616573486375
 31
0.0
  0
LINE
  5
7E78
  8
FUTO
 10
14023.622805936269
 20
9425.2616573486375
 30
0.0
 11
14025.622805936269
 21
9427.2616573486375
 31
0.0
  0
LINE
  5
7E79
  8
HOSO
 10
14087.45626126961
 20
9425.2616573486375
 30
0.0
 11
14023.622928936269
 21
9425.2616573486375
 31
0.0
  0
LINE
  5
7E7A
  8
FUTO
 10
14025.622805936269
 20
9427.2616573486375
 30
0.0
 11
14087.78959460294
 21
9427.2616573486375
 31
0.0
  0
LINE
  5
7E7B
  8
FUTO
 10
14025.622805936269
 20
9409.2616573486375
 30
0.0
 11
14023.622805936269
 21
9411.2616573486375
 31
0.0
  0
LINE
  5
7E7C
  8
FUTO
 10
14084.78959460294
 20
9409.2616573486375
 30
0.0
 11
14025.622805936269
 21
9409.2616573486375
 31
0.0
  0
LINE
  5
7E7D
  8
HOSO
 10
14023.622805936269
 20
9411.2616573486375
 30
0.0
 11
14085.122927936271
 21
9411.2616573486375
 31
0.0
  0
LINE
  5
7E7E
  8
FUTO
 10
14025.622805936269
 20
9427.2616573486375
 30
0.0
 11
14025.622805936269
 21
9409.2616573486375
 31
0.0
  0
LINE
  5
7E7F
  8
FUTO
 10
14089.622927936271
 20
9438.2616573486375
 30
0.0
 11
14084.622927936271
 21
9408.2616573486375
 31
0.0
  0
LINE
  5
7E80
  8
FUTO
 10
13766.622805936269
 20
9403.2616573486375
 30
0.0
 11
13902.622927936271
 21
9403.2616573486375
 31
0.0
  0
LINE
  5
7E81
  8
FUTO
 10
14086.622927936271
 20
9408.2616573486375
 30
0.0
 11
13902.622927936271
 21
9408.2616573486375
 31
0.0
  0
LINE
  5
7E82
  8
FUTO
 10
14089.622927936271
 20
9438.2616573486375
 30
0.0
 11
14119.622927936271
 21
9438.2616573486375
 31
0.0
  0
LINE
  5
7E83
  8
CT
 10
14023.622805936269
 20
9418.2616573486375
 30
0.0
 11
14205.677249936271
 21
9418.2616573486375
 31
0.0
  0
LINE
  5
7E84
  8
FUTO
 10
14094.622927936271
 20
9353.2616573486375
 30
0.0
 11
14119.622927936271
 21
9353.2616573486375
 31
0.0
  0
LINE
  5
7E85
  8
FUTO
 10
14091.622927936271
 20
9360.2616573486375
 30
0.0
 11
14094.622927936271
 21
9360.2616573486375
 31
0.0
  0
LINE
  5
7E86
  8
FUTO
 10
14094.622927936271
 20
9360.2616573486375
 30
0.0
 11
14094.622927936271
 21
9353.2616573486375
 31
0.0
  0
ARC
  5
7E87
  8
FUTO
 10
14041.62317193627
 20
9375.2616573486375
 30
0.0
 40
3.0
 50
0.000000000000007
 51
90.002335000001125
  0
LINE
  5
7E88
  8
FUTO
 10
14044.622927936271
 20
9348.2616573486375
 30
0.0
 11
14044.622927936271
 21
9375.2616573486375
 31
0.0
  0
ARC
  5
7E89
  8
FUTO
 10
13947.622927936271
 20
9375.2616573486375
 30
0.0
 40
3.0
 50
89.997664999998889
 51
180.0
  0
LINE
  5
7E8A
  8
FUTO
 10
13944.622927936271
 20
9348.2616573486375
 30
0.0
 11
13944.622927936271
 21
9375.2616573486375
 31
0.0
  0
LINE
  5
7E8B
  8
FUTO
 10
13947.622927936271
 20
9378.2616573486375
 30
0.0
 11
14041.622927936271
 21
9378.2616573486375
 31
0.0
  0
LINE
  5
7E8C
  8
FUTO
 10
13944.622927936271
 20
9348.2616573486375
 30
0.0
 11
14044.622927936271
 21
9348.2616573486375
 31
0.0
  0
LINE
  5
7E8D
  8
FUTO
 10
14094.622927936271
 20
9353.2616573486375
 30
0.0
 11
14044.622927936271
 21
9353.2616573486375
 31
0.0
  0
LINE
  5
7E8E
  8
FUTO
 10
14086.622927936271
 20
9408.2616573486375
 30
0.0
 11
14091.622927936271
 21
9360.2616573486375
 31
0.0
  0
LINE
  5
7E8F
  8
FUTO
 10
14119.622927936271
 20
9438.2616573486375
 30
0.0
 11
14119.622927936271
 21
9353.2616573486375
 31
0.0
  0
LINE
  5
7E90
  8
FUTO
 10
13645.622805936269
 20
9425.2616573486375
 30
0.0
 11
13643.622805936269
 21
9427.2616573486375
 31
0.0
  0
LINE
  5
7E91
  8
HOSO
 10
13581.78953360294
 20
9425.2616573486393
 30
0.0
 11
13645.622805936269
 21
9425.2616573486375
 31
0.0
  0
LINE
  5
7E92
  8
FUTO
 10
13643.622805936269
 20
9427.2616573486375
 30
0.0
 11
13581.456200269609
 21
9427.2616573486375
 31
0.0
  0
LINE
  5
7E93
  8
FUTO
 10
13643.622805936269
 20
9409.2616573486375
 30
0.0
 11
13645.622805936269
 21
9411.2616573486375
 31
0.0
  0
LINE
  5
7E94
  8
FUTO
 10
13584.456200269609
 20
9409.2616573486375
 30
0.0
 11
13643.622805936269
 21
9409.2616573486375
 31
0.0
  0
LINE
  5
7E95
  8
HOSO
 10
13645.622805936269
 20
9411.2616573486375
 30
0.0
 11
13584.12286693627
 21
9411.2616573486375
 31
0.0
  0
LINE
  5
7E96
  8
FUTO
 10
13643.622805936269
 20
9427.2616573486375
 30
0.0
 11
13643.622805936269
 21
9409.2616573486375
 31
0.0
  0
LINE
  5
7E97
  8
FUTO
 10
13579.62286693627
 20
9438.2616573486375
 30
0.0
 11
13584.62286693627
 21
9408.2616573486375
 31
0.0
  0
LINE
  5
7E98
  8
FUTO
 10
13549.62286693627
 20
9427.2616573486375
 30
0.0
 11
13487.268313936271
 21
9427.2616573486375
 31
0.0
  0
LINE
  5
7E99
  8
HOSO
 10
13487.26837493627
 20
9425.2616573486375
 30
0.0
 11
13549.62286693627
 21
9425.2616573486375
 31
0.0
  0
LINE
  5
7E9A
  8
HOSO
 10
13549.62286693627
 20
9411.2616573486393
 30
0.0
 11
13487.268313936271
 21
9411.2616573486375
 31
0.0
  0
LINE
  5
7E9B
  8
FUTO
 10
13487.26837493627
 20
9409.2616573486375
 30
0.0
 11
13549.62286693627
 21
9409.2616573486375
 31
0.0
  0
LINE
  5
7E9C
  8
FUTO
 10
13487.26837493627
 20
9435.8515013486376
 30
0.0
 11
13487.26837493627
 21
9400.6718143486396
 31
0.0
  0
LINE
  5
7E9D
  8
FUTO
 10
13475.16839893627
 20
9427.9667353486384
 30
0.0
 11
13473.568423936271
 21
9426.3671263486376
 31
0.0
  0
LINE
  5
7E9E
  8
FUTO
 10
13475.16839893627
 20
9427.9667353486384
 30
0.0
 11
13473.568423936271
 21
9429.5673213486407
 31
0.0
  0
LINE
  5
7E9F
  8
FUTO
 10
13473.568423936271
 20
9434.2518923486386
 30
0.0
 11
13475.16839893627
 21
9435.8515013486376
 31
0.0
  0
LINE
  5
7EA0
  8
FUTO
 10
13475.16839893627
 20
9408.5565793486385
 30
0.0
 11
13473.568423936271
 21
9410.1571653486371
 31
0.0
  0
LINE
  5
7EA1
  8
FUTO
 10
13475.16839893627
 20
9408.5565793486385
 30
0.0
 11
13473.568423936271
 21
9406.9569703486377
 31
0.0
  0
LINE
  5
7EA2
  8
FUTO
 10
13475.16839893627
 20
9400.6718143486396
 30
0.0
 11
13473.568423936271
 21
9402.2723993486361
 31
0.0
  0
LINE
  5
7EA3
  8
FUTO
 10
13473.568423936271
 20
9434.2518923486386
 30
0.0
 11
13473.568423936271
 21
9402.2723993486361
 31
0.0
  0
LINE
  5
7EA4
  8
FUTO
 10
13475.16839893627
 20
9408.5565793486385
 30
0.0
 11
13487.26837493627
 21
9408.5565793486385
 31
0.0
  0
LINE
  5
7EA5
  8
FUTO
 10
13475.16839893627
 20
9427.9667353486384
 30
0.0
 11
13487.26837493627
 21
9427.9667353486384
 31
0.0
  0
LINE
  5
7EA6
  8
FUTO
 10
13475.16839893627
 20
9400.6718143486396
 30
0.0
 11
13487.26837493627
 21
9400.6718143486396
 31
0.0
  0
LINE
  5
7EA7
  8
FUTO
 10
13475.16839893627
 20
9435.8515013486376
 30
0.0
 11
13487.26837493627
 21
9435.8515013486376
 31
0.0
  0
LINE
  5
7EA8
  8
FUTO
 10
13579.62286693627
 20
9438.2616573486375
 30
0.0
 11
13549.62286693627
 21
9438.2616573486375
 31
0.0
  0
LINE
  5
7EA9
  8
CT
 10
13645.622805936269
 20
9418.2616573486375
 30
0.0
 11
13463.568423936271
 21
9418.2616573486375
 31
0.0
  0
ARC
  5
7EAA
  8
FUTO
 10
13721.622927936271
 20
9375.2616573486375
 30
0.0
 40
2.999938999999999
 50
0.000000000000007
 51
90.001166999976803
  0
LINE
  5
7EAB
  8
FUTO
 10
13724.622805936269
 20
9348.2616573486375
 30
0.0
 11
13724.622805936269
 21
9375.2616573486375
 31
0.0
  0
ARC
  5
7EAC
  8
FUTO
 10
13627.622805936269
 20
9375.2616573486375
 30
0.0
 40
3.0
 50
89.9988329999711
 51
180.0
  0
LINE
  5
7EAD
  8
FUTO
 10
13577.62286693627
 20
9360.2616573486375
 30
0.0
 11
13574.62286693627
 21
9360.2616573486375
 31
0.0
  0
LINE
  5
7EAE
  8
FUTO
 10
13574.62286693627
 20
9360.2616573486375
 30
0.0
 11
13574.62286693627
 21
9353.2616573486375
 31
0.0
  0
LINE
  5
7EAF
  8
FUTO
 10
13574.62286693627
 20
9353.2616573486375
 30
0.0
 11
13624.622805936269
 21
9353.2616573486375
 31
0.0
  0
LINE
  5
7EB0
  8
FUTO
 10
13624.622805936269
 20
9348.2616573486375
 30
0.0
 11
13624.622805936269
 21
9375.2616573486375
 31
0.0
  0
LINE
  5
7EB1
  8
FUTO
 10
13721.622805936269
 20
9378.2616573486375
 30
0.0
 11
13627.622805936269
 21
9378.2616573486375
 31
0.0
  0
LINE
  5
7EB2
  8
FUTO
 10
13724.622805936269
 20
9348.2616573486375
 30
0.0
 11
13624.622805936269
 21
9348.2616573486375
 31
0.0
  0
LINE
  5
7EB3
  8
FUTO
 10
13574.62286693627
 20
9353.2616573486375
 30
0.0
 11
13549.62286693627
 21
9353.2616573486375
 31
0.0
  0
LINE
  5
7EB4
  8
FUTO
 10
13582.62286693627
 20
9408.2616573486375
 30
0.0
 11
13577.62286693627
 21
9360.2616573486375
 31
0.0
  0
LINE
  5
7EB5
  8
FUTO
 10
13549.62286693627
 20
9438.2616573486375
 30
0.0
 11
13549.62286693627
 21
9353.2616573486375
 31
0.0
  0
LINE
  5
7EB6
  8
CT
 10
13674.622805936269
 20
9398.2616573486393
 30
0.0
 11
13674.622805936269
 21
9328.2616573486375
 31
0.0
  0
LINE
  5
7EB7
  8
FUTO
 10
13582.62286693627
 20
9408.2616573486375
 30
0.0
 11
13766.622805936269
 21
9408.2616573486375
 31
0.0
  0
LINE
  5
7EB8
  8
FUTO
 10
13724.622805936269
 20
9353.2616573486375
 30
0.0
 11
13944.622805936269
 21
9353.2616573486375
 31
0.0
  0
LINE
  5
7EB9
  8
FUTO
 10
15300.280322280099
 20
9360.2616573486375
 30
0.0
 11
15550.280322280099
 21
9360.2616573486375
 31
0.0
  0
LINE
  5
7EBA
  8
FUTO
 10
15217.280322280099
 20
9353.2616573486375
 30
0.0
 11
15633.280322280099
 21
9353.2616573486375
 31
0.0
  0
LINE
  5
7EBB
  8
FUTO
 10
15241.280322280099
 20
9770.2616573486393
 30
0.0
 11
15241.280322280099
 21
9733.2616573486375
 31
0.0
  0
ARC
  5
7EBC
  8
FUTO
 10
15205.565967280099
 20
9787.3576053486377
 30
0.0
 40
9.9999679999999991
 50
91.999329000023934
 51
135.0
  0
ARC
  5
7EBD
  8
FUTO
 10
15178.572802280099
 20
9760.3644413486363
 30
0.0
 40
10.000024
 50
135.0
 51
177.00096100001281
  0
LINE
  5
7EBE
  8
FUTO
 10
15198.494922280101
 20
9794.4286503486364
 30
0.0
 11
15171.501758280099
 21
9767.4354853486366
 31
0.0
  0
LINE
  5
7EBF
  8
FUTO
 10
15231.280322280099
 20
9770.2616573486393
 30
0.0
 11
15236.280322280099
 21
9770.2616573486393
 31
0.0
  0
LINE
  5
7EC0
  8
FUTO
 10
15236.280322280099
 20
9770.2616573486393
 30
0.0
 11
15241.280322280099
 21
9770.2616573486393
 31
0.0
  0
LINE
  5
7EC1
  8
FUTO
 10
15250.658496280101
 20
9805.2616573486375
 30
0.0
 11
15241.280322280099
 21
9770.2616573486393
 31
0.0
  0
LINE
  5
7EC2
  8
FUTO
 10
15231.280322280099
 20
9798.2616573486393
 30
0.0
 11
15205.217090280101
 21
9797.3515013486376
 31
0.0
  0
LINE
  5
7EC4
  8
FUTO
 10
15266.280322280099
 20
9818.2616573486375
 30
0.0
 11
15250.658496280101
 21
9805.2616573486375
 31
0.0
  0
LINE
  5
7EC5
  8
FUTO
 10
14999.780322280099
 20
9642.2616573486393
 30
0.0
 11
14999.780322280099
 21
9578.2616573486375
 31
0.0
  0
ARC
  5
7EC6
  8
FUTO
 10
15151.780322280099
 20
9686.2616573486375
 30
0.0
 40
2.0
 50
90.0
 51
180.0
  0
ARC
  5
7ED5
  8
FUTO
 10
15251.280322280099
 20
9733.2616573486375
 30
0.0
 40
10.0
 50
90.0
 51
180.0
  0
ARC
  5
7ED8
  8
FUTO
 10
15161.9333982801
 20
9691.2616573486375
 30
0.0
 40
2.9999599999999988
 50
270.0
 51
357.00044300001662
  0
LINE
  5
7ED9
  8
FUTO
 10
15161.9333982801
 20
9688.2616573486375
 30
0.0
 11
15151.780322280099
 21
9688.2616573486375
 31
0.0
  0
LINE
  5
7EDA
  8
FUTO
 10
15109.780322280099
 20
9642.2616573486393
 30
0.0
 11
15109.780322280099
 21
9638.2616573486375
 31
0.0
  0
LINE
  5
7EDB
  8
FUTO
 10
15139.780322280099
 20
9640.7616573486375
 30
0.0
 11
15149.780322280099
 21
9640.7616573486375
 31
0.0
  0
LINE
  5
7EDC
  8
FUTO
 10
15139.780322280099
 20
9575.7616573486375
 30
0.0
 11
15149.780322280099
 21
9575.7616573486375
 31
0.0
  0
LINE
  5
7EDD
  8
FUTO
 10
15139.780322280099
 20
9575.7616573486375
 30
0.0
 11
15139.780322280099
 21
9640.7616573486375
 31
0.0
  0
ARC
  5
7EDE
  8
FUTO
 10
15251.280322280099
 20
9633.2616573486375
 30
0.0
 40
10.0
 50
180.0
 51
270.0
  0
LINE
  5
7EDF
  8
FUTO
 10
15149.780322280099
 20
9686.2616573486375
 30
0.0
 11
15149.780322280099
 21
9608.2616573486375
 31
0.0
  0
LINE
  5
7EE0
  8
FUTO
 10
15241.280322280099
 20
9633.2616573486375
 30
0.0
 11
15241.280322280099
 21
9733.2616573486375
 31
0.0
  0
LINE
  5
7EE1
  8
FUTO
 10
15139.780322280099
 20
9638.2616573486375
 30
0.0
 11
14999.780322280099
 21
9638.2616573486375
 31
0.0
  0
LINE
  5
7EE2
  8
FUTO
 10
15139.780322280099
 20
9578.2616573486375
 30
0.0
 11
14999.780322280099
 21
9578.2616573486375
 31
0.0
  0
LINE
  5
7EE3
  8
FUTO
 10
15109.780322280099
 20
9642.2616573486393
 30
0.0
 11
14999.780322280099
 21
9642.2616573486393
 31
0.0
  0
LINE
  5
7EE4
  8
FUTO
 10
15236.280322280099
 20
9770.2616573486393
 30
0.0
 11
15236.280322280099
 21
9608.2616573486375
 31
0.0
  0
LINE
  5
7EE5
  8
FUTO
 10
15231.280322280099
 20
9798.2616573486393
 30
0.0
 11
15231.280322280099
 21
9608.2616573486375
 31
0.0
  0
LINE
  5
7EE6
  8
FUTO
 10
15168.5864742801
 20
9760.8876343486372
 30
0.0
 11
15163.943652280101
 21
9672.2963253486396
 31
0.0
  0
LINE
  5
7EE8
  8
FUTO
 10
15236.280322280099
 20
9770.2616573486393
 30
0.0
 11
15236.280322280099
 21
9608.2616573486375
 31
0.0
  0
ARC
  5
7EE9
  8
FUTO
 10
15414.0453372801
 20
9826.5407713486384
 30
0.0
 40
2.9999909999999992
 50
96.115172999988943
 51
174.80557099997009
  0
LINE
  5
7EEA
  8
FUTO
 10
15411.0576662801
 20
9826.8123783486371
 30
0.0
 11
15410.280322280099
 21
9818.2616573486375
 31
0.0
  0
ARC
  5
7EEB
  8
FUTO
 10
15404.3219482801
 20
9818.9914553486378
 30
0.0
 40
5.9999760000000002
 50
354.80557299999322
 51
54.396263000016731
  0
ARC
  5
7EEC
  8
FUTO
 10
15436.5153072801
 20
9826.5407713486384
 30
0.0
 40
2.999981
 50
5.194427000006832
 51
83.884827000011072
  0
ARC
  5
7EED
  8
FUTO
 10
15425.280322280099
 20
9848.2616573486375
 30
0.0
 40
30.0
 50
305.19004800002568
 51
305.60386699999998
  0
LINE
  5
7EEE
  8
FUTO
 10
15425.280322280099
 20
9830.7616573486375
 30
0.0
 11
15436.8348872801
 21
9829.5236813486372
 31
0.0
  0
LINE
  5
7EEF
  8
FUTO
 10
15439.502978280099
 20
9826.8123783486371
 30
0.0
 11
15440.280322280099
 21
9818.2616573486375
 31
0.0
  0
ARC
  5
7EF0
  8
FUTO
 10
15446.238696280099
 20
9818.9914553486378
 30
0.0
 40
5.9999820000000001
 50
125.6037369999832
 51
185.19442700000681
  0
LINE
  5
7EF1
  8
FUTO
 10
15425.280322280099
 20
9830.7616573486375
 30
0.0
 11
15413.725757280101
 21
9829.5236813486372
 31
0.0
  0
LINE
  5
7EF2
  8
FUTO
 10
15413.725757280101
 20
9829.5236813486372
 30
0.0
 11
15436.8348872801
 21
9829.5236813486372
 31
0.0
  0
LINE
  5
7EF3
  8
CT
 10
15465.280322280099
 20
9848.2616573486375
 30
0.0
 11
15385.280322280099
 21
9848.2616573486375
 31
0.0
  0
LINE
  5
7EF4
  8
FUTO
 10
15366.280322280099
 20
9757.2616573486375
 30
0.0
 11
15484.280322280099
 21
9757.2616573486375
 31
0.0
  0
CIRCLE
  5
7EF5
  8
FUTO
 10
15425.280322280099
 20
9848.2616573486375
 30
0.0
 40
17.5
  0
ARC
  5
7EF6
  8
FUTO
 10
15425.280322280099
 20
9848.2616573486375
 30
0.0
 40
30.0
 50
305.60386699999998
 51
234.39614899998969
  0
LINE
  5
7EF7
  8
FUTO
 10
15584.280261280101
 20
9818.2616573486375
 30
0.0
 11
15594.280261280101
 21
9809.9398803486365
 31
0.0
  0
ARC
  5
7EF8
  8
FUTO
 10
15640.753650280099
 20
9791.7616573486375
 30
0.0
 40
20.0
 50
69.99995399998474
 51
90.0
  0
ARC
  5
7EF9
  8
FUTO
 10
15678.0290402801
 20
9820.7616573486375
 30
0.0
 40
20.0
 50
250.00027499999021
 51
270.0
  0
LINE
  5
7EFC
  8
FUTO
 10
15647.594104280101
 20
9810.5556033486391
 30
0.0
 11
15671.1887082801
 21
9801.9677123486363
 31
0.0
  0
LINE
  5
7EFD
  8
FUTO
 10
15594.280261280101
 20
9811.7616573486375
 30
0.0
 11
15640.753650280099
 21
9811.7616573486375
 31
0.0
  0
LINE
  5
7EFE
  8
FUTO
 10
15584.280261280101
 20
9818.2616573486375
 30
0.0
 11
15425.280322280099
 21
9818.2616573486375
 31
0.0
  0
LINE
  5
7EFF
  8
FUTO
 10
15487.280261280101
 20
9750.2616573486375
 30
0.0
 11
15363.280322280099
 21
9750.2616573486375
 31
0.0
  0
ARC
  5
7F00
  8
FUTO
 10
15363.280322280099
 20
9575.5639033486368
 30
0.0
 40
20.0
 50
180.0
 51
270.0
  0
CIRCLE
  5
7F01
  8
FUTO
 10
15425.280322280099
 20
9542.5639033486386
 30
0.0
 40
3.5
  0
LINE
  5
7F02
  8
FUTO
 10
15431.7332032801
 20
9542.5639033486386
 30
0.0
 11
15417.144092280099
 21
9542.5639033486386
 31
0.0
  0
LINE
  5
7F03
  8
FUTO
 10
15363.280322280099
 20
9555.5639033486368
 30
0.0
 11
15487.280322280099
 21
9555.5639033486368
 31
0.0
  0
LINE
  5
7F04
  8
FUTO
 10
15484.280261280101
 20
9535.5639033486368
 30
0.0
 11
15366.280322280099
 21
9535.5639033486368
 31
0.0
  0
LINE
  5
7F05
  8
FUTO
 10
15343.280322280099
 20
9730.2616573486375
 30
0.0
 11
15343.280322280099
 21
9575.5639033486368
 31
0.0
  0
LINE
  5
7F06
  8
FUTO
 10
15336.280322280099
 20
9727.2616573486375
 30
0.0
 11
15336.280322280099
 21
9565.5639033486368
 31
0.0
  0
LINE
  5
7F07
  8
FUTO
 10
15594.280261280101
 20
9743.2616573486375
 30
0.0
 11
15509.6574582801
 21
9743.2616573486375
 31
0.0
  0
LINE
  5
7F0B
  8
FUTO
 10
15594.280261280101
 20
9623.2616573486375
 30
0.0
 11
15514.280261280101
 21
9623.2616573486375
 31
0.0
  0
LINE
  5
7F0C
  8
FUTO
 10
15507.280261280101
 20
9730.2616573486375
 30
0.0
 11
15507.280261280101
 21
9575.5639033486368
 31
0.0
  0
LINE
  5
7F0D
  8
FUTO
 10
15514.280261280101
 20
9727.2616573486375
 30
0.0
 11
15514.280261280101
 21
9565.5639033486368
 31
0.0
  0
ARC
  5
7F0E
  8
FUTO
 10
15487.280261280101
 20
9575.5639033486368
 30
0.0
 40
20.0
 50
270.0
 51
0.000000000000007
  0
LINE
  5
7F0F
  8
CT
 10
15534.280261280101
 20
9683.2616573486375
 30
0.0
 11
15316.280322280099
 21
9683.2616573486375
 31
0.0
  0
ARC
  5
7F10
  8
FUTO
 10
15487.280261280101
 20
9730.2616573486375
 30
0.0
 40
20.0
 50
0.000000000000007
 51
90.0
  0
ARC
  5
7F11
  8
FUTO
 10
15363.280322280099
 20
9730.2616573486375
 30
0.0
 40
20.0
 50
90.0
 51
180.0
  0
ARC
  5
7F12
  8
FUTO
 10
15366.280322280099
 20
9727.2616573486375
 30
0.0
 40
30.0
 50
90.0
 51
180.0
  0
ARC
  5
7F13
  8
FUTO
 10
15484.280261280101
 20
9727.2616573486375
 30
0.0
 40
30.0
 50
0.000000000000007
 51
90.0
  0
LINE
  5
7F18
  8
FUTO
 10
15266.280322280099
 20
9818.2616573486375
 30
0.0
 11
15425.280322280099
 21
9818.2616573486375
 31
0.0
  0
LINE
  5
7F19
  8
FUTO
 10
15251.280322280099
 20
9743.2616573486375
 30
0.0
 11
15340.9031252801
 21
9743.2616573486375
 31
0.0
  0
LINE
  5
7F1A
  8
FUTO
 10
15251.280322280099
 20
9623.2616573486375
 30
0.0
 11
15336.280322280099
 21
9623.2616573486375
 31
0.0
  0
ARC
  5
7F1B
  8
FUTO
 10
15151.780322280099
 20
9530.2616573486375
 30
0.0
 40
2.0
 50
180.0
 51
270.0
  0
ARC
  5
7F1C
  8
FUTO
 10
15161.9333982801
 20
9525.2616573486375
 30
0.0
 40
3.0
 50
2.9995570000354208
 51
90.0
  0
ARC
  5
7F1D
  8
FUTO
 10
15176.6299312801
 20
9493.2299193486397
 30
0.0
 40
10.000139999999989
 50
183.00042699998181
 51
225.00097699998821
  0
ARC
  5
7F2C
  8
FUTO
 10
15178.572802280099
 20
9456.1588743486354
 30
0.0
 40
9.9999679999999991
 50
182.9990540000266
 51
225.0
  0
LINE
  5
7F2D
  8
FUTO
 10
15241.280322280099
 20
9456.5009153486371
 30
0.0
 11
15260.368945280101
 21
9456.5009153486371
 31
0.0
  0
LINE
  5
7F2E
  8
FUTO
 10
15242.3162112801
 20
9446.2616573486375
 30
0.0
 11
15236.280322280099
 21
9446.2616573486375
 31
0.0
  0
LINE
  5
7F2F
  8
FUTO
 10
15231.280322280099
 20
9446.2616573486375
 30
0.0
 11
15236.280322280099
 21
9446.2616573486375
 31
0.0
  0
ARC
  5
7F30
  8
FUTO
 10
15248.280322280099
 20
9425.2616573486375
 30
0.0
 40
3.0
 50
90.0
 51
180.0
  0
ARC
  5
7F31
  8
FUTO
 10
15255.368945280101
 20
9433.2616573486375
 30
0.0
 40
5.0
 50
270.0
 51
0.000000000000007
  0
LINE
  5
7F32
  8
FUTO
 10
15241.280322280099
 20
9449.3881223486387
 30
0.0
 11
15243.8389162801
 21
9449.3881223486387
 31
0.0
  0
LINE
  5
7F33
  8
FUTO
 10
15248.280322280099
 20
9428.2616573486375
 30
0.0
 11
15241.280322280099
 21
9449.3881223486387
 31
0.0
  0
LINE
  5
7F34
  8
FUTO
 10
15260.368945280101
 20
9433.2616573486375
 30
0.0
 11
15260.368945280101
 21
9456.5009153486371
 31
0.0
  0
LINE
  5
7F35
  8
FUTO
 10
15251.4385252801
 20
9428.2616573486375
 30
0.0
 11
15241.280322280099
 21
9456.5009153486371
 31
0.0
  0
LINE
  5
7F38
  8
FUTO
 10
15164.9116702801
 20
9525.7568973486395
 30
0.0
 11
15168.5864742801
 21
9455.6356813486382
 31
0.0
  0
LINE
  5
7F3A
  8
FUTO
 10
15198.3513672801
 20
9457.3663943486372
 30
0.0
 11
15169.5588862801
 21
9486.1586303486365
 31
0.0
  0
LINE
  5
7F3D
  8
FUTO
 10
15161.9333982801
 20
9528.2616573486375
 30
0.0
 11
15151.780322280099
 21
9528.2616573486375
 31
0.0
  0
ARC
  5
7F3E
  8
FUTO
 10
15205.565967280099
 20
9429.1657103486377
 30
0.0
 40
9.9999839999999995
 50
225.0
 51
268.00067099997602
  0
LINE
  5
7F3F
  8
FUTO
 10
15231.280322280099
 20
9418.2616573486375
 30
0.0
 11
15205.217090280101
 21
9419.1718143486378
 31
0.0
  0
LINE
  5
7F40
  8
FUTO
 10
15245.280322280099
 20
9408.2616573486375
 30
0.0
 11
15245.280322280099
 21
9425.2616573486375
 31
0.0
  0
LINE
  5
7F41
  8
FUTO
 10
15198.494922280101
 20
9422.0946653486371
 30
0.0
 11
15171.501758280099
 21
9449.0878293486385
 31
0.0
  0
LINE
  5
7F42
  8
FUTO
 10
15385.6802242801
 20
9429.8695683486367
 30
0.0
 11
15305.280322280099
 21
9428.2616573486375
 31
0.0
  0
ARC
  5
7F43
  8
FUTO
 10
15400.280322280099
 20
9490.7577513486358
 30
0.0
 40
5.0
 50
0.000000000000007
 51
90.0
  0
ARC
  5
7F44
  8
FUTO
 10
15450.280322280099
 20
9490.7577513486358
 30
0.0
 40
5.0
 50
90.0
 51
180.0
  0
ARC
  5
7F45
  8
FUTO
 10
15465.280261280101
 20
9449.8656613486382
 30
0.0
 40
20.000091999999999
 50
180.0
 51
268.85427899999053
  0
LINE
  5
7F46
  8
FUTO
 10
15445.280322280099
 20
9490.7577513486358
 30
0.0
 11
15445.280322280099
 21
9449.8656613486382
 31
0.0
  0
LINE
  5
7F47
  8
FUTO
 10
15405.280322280099
 20
9490.7577513486358
 30
0.0
 11
15405.280322280099
 21
9449.8656613486382
 31
0.0
  0
ARC
  5
7F48
  8
FUTO
 10
15385.280322280099
 20
9449.8656613486382
 30
0.0
 40
20.0
 50
271.14572100000942
 51
0.000000000000007
  0
LINE
  5
7F49
  8
FUTO
 10
15325.280322280099
 20
9408.2616573486375
 30
0.0
 11
15325.280322280099
 21
9409.2616573486375
 31
0.0
  0
ARC
  5
7F4A
  8
FUTO
 10
15330.280322280099
 20
9409.2616573486375
 30
0.0
 40
5.0
 50
90.0
 51
180.0
  0
LINE
  5
7F4B
  8
FUTO
 10
15330.280322280099
 20
9414.2616573486375
 30
0.0
 11
15425.280322280099
 21
9414.2616573486375
 31
0.0
  0
ARC
  5
7F4C
  8
FUTO
 10
15602.280261280101
 20
9425.2616573486375
 30
0.0
 40
3.0
 50
0.000000000000007
 51
90.0
  0
LINE
  5
7F4D
  8
FUTO
 10
15545.280261280101
 20
9428.2616573486375
 30
0.0
 11
15552.959814204411
 21
9428.2616573486375
 31
0.0
  0
ARC
  5
7F57
  8
FUTO
 10
15520.280261280101
 20
9409.2616573486375
 30
0.0
 40
5.0
 50
0.000000000000007
 51
90.0
  0
LINE
  5
7F58
  8
FUTO
 10
15525.280261280101
 20
9408.2616573486375
 30
0.0
 11
15525.280261280101
 21
9409.2616573486375
 31
0.0
  0
LINE
  5
7F59
  8
FUTO
 10
15525.280261280101
 20
9408.2616573486375
 30
0.0
 11
15550.280322280099
 21
9408.2616573486375
 31
0.0
  0
LINE
  5
7F5A
  8
FUTO
 10
15664.8863402801
 20
9412.2616573486375
 30
0.0
 11
15674.5023072801
 21
9415.7616573486375
 31
0.0
  0
LINE
  5
7F5B
  8
FUTO
 10
15664.8863402801
 20
9412.2616573486375
 30
0.0
 11
15605.280261280101
 21
9412.2616573486375
 31
0.0
  0
LINE
  5
7F5C
  8
FUTO
 10
15605.280261280101
 20
9408.2616573486375
 30
0.0
 11
15605.280261280101
 21
9425.2616573486375
 31
0.0
  0
LINE
  5
7F5D
  8
FUTO
 10
15464.8803592801
 20
9429.8695683486367
 30
0.0
 11
15545.280261280101
 21
9428.2616573486375
 31
0.0
  0
LINE
  5
7F5E
  8
FUTO
 10
15520.280261280101
 20
9414.2616573486375
 30
0.0
 11
15425.280322280099
 21
9414.2616573486375
 31
0.0
  0
LINE
  5
7F5F
  8
FUTO
 10
15305.280322280099
 20
9428.2616573486375
 30
0.0
 11
15297.60083035579
 21
9428.2616573486375
 31
0.0
  0
LINE
  5
7F60
  8
FUTO
 10
15325.280322280099
 20
9408.2616573486375
 30
0.0
 11
15300.280322280099
 21
9408.2616573486375
 31
0.0
  0
ARC
  5
7F61
  8
FUTO
 10
15484.280261280101
 20
9565.5639033486368
 30
0.0
 40
30.0
 50
270.0
 51
0.000000000000007
  0
ARC
  5
7F62
  8
FUTO
 10
15366.280322280099
 20
9565.5639033486368
 30
0.0
 40
30.0
 50
180.0
 51
270.0
  0
LINE
  5
7F63
  8
CT
 10
15425.280322280099
 20
9898.2616573486393
 30
0.0
 11
15425.280322280099
 21
9328.2616573486375
 31
0.0
  0
LINE
  5
7F64
  8
FUTO
 10
15236.280322280099
 20
9446.2616573486375
 30
0.0
 11
15236.280322280099
 21
9608.2616573486375
 31
0.0
  0
LINE
  5
7F65
  8
FUTO
 10
15594.280261280101
 20
9811.7616573486375
 30
0.0
 11
15594.280261280101
 21
9428.2616573486375
 31
0.0
  0
LINE
  5
7F66
  8
FUTO
 10
15644.280261280101
 20
9811.4481813486364
 30
0.0
 11
15644.280261280101
 21
9412.2616573486375
 31
0.0
  0
LINE
  5
7F67
  8
FUTO
 10
15674.480212280099
 20
9801.0790403486371
 30
0.0
 11
15674.480212280099
 21
9415.7616573486375
 31
0.0
  0
LINE
  5
7F68
  8
FUTO
 10
15236.280322280099
 20
9446.2616573486375
 30
0.0
 11
15236.280322280099
 21
9608.2616573486375
 31
0.0
  0
LINE
  5
7F69
  8
FUTO
 10
15231.280322280099
 20
9418.2616573486375
 30
0.0
 11
15231.280322280099
 21
9608.2616573486375
 31
0.0
  0
LINE
  5
7F6A
  8
FUTO
 10
15149.780322280099
 20
9530.2616573486375
 30
0.0
 11
15149.780322280099
 21
9608.2616573486375
 31
0.0
  0
ARC
  5
7F6B
  8
FUTO
 10
15738.969348280099
 20
9785.7616573486375
 30
0.0
 40
15.0
 50
60.00018299999563
 51
90.0
  0
ARC
  5
7F6C
  8
FUTO
 10
15794.280261280101
 20
9765.3749393486396
 30
0.0
 40
4.9999580000000003
 50
0.000000000000007
 51
59.999718000001181
  0
LINE
  5
7F6D
  8
FUTO
 10
15796.780261280101
 20
9769.7050173486386
 30
0.0
 11
15746.469348280099
 21
9798.7521363486394
 31
0.0
  0
LINE
  5
7F6E
  8
FUTO
 10
14065.682619936269
 20
9754.4906613486401
 30
0.0
 11
14064.27502693627
 21
9753.7299193486378
 31
0.0
  0
ARC
  5
7F6F
  8
FUTO
 10
14066.15808393627
 20
9753.6107783486386
 30
0.0
 40
1.000079999999999
 50
28.39501399997588
 51
118.3855359999758
  0
ARC
  5
7F70
  8
FUTO
 10
14064.750490936271
 20
9752.8500363486401
 30
0.0
 40
1.0001299999999991
 50
118.3855359999758
 51
208.3860319999763
  0
LINE
  5
7F71
  8
FUTO
 10
13984.844240936271
 20
9753.0167843486379
 30
0.0
 11
13985.69287393627
 21
9753.0167843486379
 31
0.0
  0
LINE
  5
7F72
  8
FUTO
 10
13984.844240936271
 20
9753.0167843486379
 30
0.0
 11
13984.844240936271
 21
9753.8654173486375
 31
0.0
  0
LINE
  5
7F73
  8
FUTO
 10
13977.090700936271
 20
9760.7704463486389
 30
0.0
 11
13973.49853793627
 21
9757.1784053486372
 31
0.0
  0
LINE
  5
7F74
  8
FUTO
 10
13977.939211936269
 20
9760.7704463486389
 30
0.0
 11
13977.090700936271
 21
9760.7704463486389
 31
0.0
  0
LINE
  5
7F75
  8
FUTO
 10
13979.378054936269
 20
9758.4830933486373
 30
0.0
 11
13979.378054936269
 21
9759.3317263486388
 31
0.0
  0
LINE
  5
7F76
  8
FUTO
 10
13979.378054936269
 20
9758.4830933486373
 30
0.0
 11
13975.78589193627
 21
9754.8910523486375
 31
0.0
  0
LINE
  5
7F77
  8
FUTO
 10
13979.378054936269
 20
9758.4830933486373
 30
0.0
 11
13980.226564936271
 21
9758.4830933486373
 31
0.0
  0
LINE
  5
7F78
  8
FUTO
 10
14180.678469936271
 20
9543.8322143486384
 30
0.0
 11
14183.47680993627
 21
9545.3446653486353
 31
0.0
  0
ARC
  5
7F79
  8
FUTO
 10
14185.029177936271
 20
9533.6798703486384
 30
0.0
 40
1.0001299999999991
 50
298.38552900002043
 51
28.382720999977689
  0
ARC
  5
7F7A
  8
FUTO
 10
13186.25195593627
 20
9619.7929073486393
 30
0.0
 40
1000.0
 50
355.7304690000102
 51
5.1562809999889501
  0
LINE
  5
7F7B
  8
FUTO
 10
14065.59192193627
 20
9749.1903683486398
 30
0.0
 11
14057.24548593627
 21
9744.6791383486379
 31
0.0
  0
ARC
  5
7F7C
  8
FUTO
 10
14059.622805936269
 20
9740.2804563486388
 30
0.0
 40
5.000062999999999
 50
118.3907549999861
 51
180.0
  0
LINE
  5
7F7D
  8
CT
 10
14037.177980936271
 20
9683.2616573486375
 30
0.0
 11
14073.61133093627
 21
9683.2616573486375
 31
0.0
  0
LINE
  5
7F7E
  8
FUTO
 10
13987.131594936271
 20
9750.7294313486382
 30
0.0
 11
13983.539553936271
 21
9747.1373903486383
 31
0.0
  0
LINE
  5
7F7F
  8
FUTO
 10
13987.131594936271
 20
9750.7294313486382
 30
0.0
 11
13987.131594936271
 21
9751.5780643486378
 31
0.0
  0
LINE
  5
7F80
  8
FUTO
 10
14055.608706936269
 20
9743.2616573486375
 30
0.0
 11
13986.89648693627
 21
9743.2616573486375
 31
0.0
  0
LINE
  5
7F81
  8
FUTO
 10
14054.622805936269
 20
9623.2616573486375
 30
0.0
 11
14037.56933893627
 21
9623.2616573486375
 31
0.0
  0
ARC
  5
7F82
  8
FUTO
 10
14073.45068593627
 20
9553.2616573486375
 30
0.0
 40
10.000057999999999
 50
187.1243290000296
 51
270.0
  0
LINE
  5
7F83
  8
FUTO
 10
14054.622805936269
 20
9623.2616573486375
 30
0.0
 11
14063.527834936271
 21
9552.0214233486386
 31
0.0
  0
LINE
  5
7F84
  8
FUTO
 10
14044.622805936269
 20
9623.2616573486375
 30
0.0
 11
14044.622805936269
 21
9743.2616573486375
 31
0.0
  0
LINE
  5
7F85
  8
FUTO
 10
14054.622805936269
 20
9623.2616573486375
 30
0.0
 11
14054.622805936269
 21
9740.2804563486388
 31
0.0
  0
LINE
  5
7F86
  8
FUTO
 10
14176.89483893627
 20
9543.2616573486375
 30
0.0
 11
14073.45068593627
 21
9543.2616573486375
 31
0.0
  0
LINE
  5
7F87
  8
FUTO
 10
14068.75891393627
 20
9750.9020383486386
 30
0.0
 11
14144.94214193627
 21
9745.9874873486388
 31
0.0
  0
ARC
  5
7F88
  8
FUTO
 10
14142.367189936271
 20
9706.0704953486384
 30
0.0
 40
40.000011000000001
 50
5.1563729999685757
 51
86.309097000000321
  0
LINE
  5
7F89
  8
FUTO
 10
14067.037844936271
 20
9754.0863643486373
 30
0.0
 11
14185.90893793627
 21
9534.1552123486381
 31
0.0
  0
LINE
  5
7F8A
  8
FUTO
 10
13973.49853793627
 20
9757.1784053486372
 30
0.0
 11
13983.539553936271
 21
9747.1373903486383
 31
0.0
  0
LINE
  5
7F8B
  8
CT
 10
13983.063845936271
 20
9756.7025753486378
 30
0.0
 11
13977.81567693627
 21
9751.4545283486386
 31
0.0
  0
LINE
  5
7F8C
  8
FUTO
 10
13977.939211936269
 20
9760.7704463486389
 30
0.0
 11
13987.131594936271
 21
9751.5780643486378
 31
0.0
  0
LINE
  5
7F8D
  8
FUTO
 10
13984.844240936271
 20
9753.0167843486379
 30
0.0
 11
13981.252199936271
 21
9749.424743348638
 31
0.0
  0
ARC
  5
7F8E
  8
FUTO
 10
13834.622805936269
 20
9872.0116573486375
 30
0.0
 40
6.25
 50
0.000000000000007
 51
180.0
  0
LINE
  5
7F8F
  8
FUTO
 10
13851.21956193627
 20
9814.6804813486378
 30
0.0
 11
13851.05949693627
 21
9811.0966793486386
 31
0.0
  0
LINE
  5
7F90
  8
FUTO
 10
13840.872805936269
 20
9830.0920413486383
 30
0.0
 11
13846.17737093627
 21
9829.5236813486372
 31
0.0
  0
ARC
  5
7F91
  8
FUTO
 10
13845.857775936271
 20
9826.5407713486384
 30
0.0
 40
3.0000059999999991
 50
5.1944030000043186
 51
83.884536999966215
  0
LINE
  5
7F92
  8
FUTO
 10
13828.372805936269
 20
9830.0920413486383
 30
0.0
 11
13823.06823993627
 21
9829.5236813486372
 31
0.0
  0
ARC
  5
7F93
  8
FUTO
 10
13847.622805936269
 20
9815.2616573486393
 30
0.0
 40
3.0
 50
46.130962000013298
 51
90.0
  0
ARC
  5
7F94
  8
FUTO
 10
13834.622805936269
 20
9608.2616573486375
 30
0.0
 40
209.99987799999991
 50
86.233009000037342
 51
86.266975000016416
  0
ARC
  5
7F95
  8
FUTO
 10
13848.10000893627
 20
9814.8223873486386
 30
0.0
 40
3.0001099999999989
 50
86.265807999991694
 51
175.05505399999171
  0
ARC
  5
7F96
  8
FUTO
 10
13847.622805936269
 20
9815.2616573486393
 30
0.0
 40
3.0
 50
47.440357000007118
 51
90.0
  0
LINE
  5
7F97
  8
FUTO
 10
13845.11123893627
 20
9815.0809323486374
 30
0.0
 11
13844.80215693627
 21
9811.5068363486371
 31
0.0
  0
LINE
  5
7F98
  8
FUTO
 10
13824.13449393627
 20
9815.0809323486374
 30
0.0
 11
13824.44357593627
 21
9811.5068363486371
 31
0.0
  0
ARC
  5
7F99
  8
FUTO
 10
13825.372805936269
 20
9823.6942753486383
 30
0.0
 40
3.0
 50
270.0
 51
0.000000000000007
  0
ARC
  5
7F9A
  8
FUTO
 10
13843.872805936269
 20
9823.9824833486382
 30
0.0
 40
3.0
 50
180.0
 51
270.0
  0
LINE
  5
7F9B
  8
FUTO
 10
13848.845461936269
 20
9826.8123783486371
 30
0.0
 11
13849.622805936269
 21
9818.2616573486375
 31
0.0
  0
ARC
  5
7F9C
  8
FUTO
 10
13848.222582936271
 20
9814.8143923486386
 30
0.0
 40
3.000081999999999
 50
357.44171099996208
 51
86.234252999979262
  0
ARC
  5
7F9D
  8
FUTO
 10
13834.622805936269
 20
9608.2616573486375
 30
0.0
 40
209.99998500000001
 50
93.732994000026721
 51
93.766990999962644
  0
ARC
  5
7F9E
  8
FUTO
 10
13821.023149936271
 20
9814.8143313486398
 30
0.0
 40
2.9999649999999991
 50
93.767860000028065
 51
182.55722000000901
  0
LINE
  5
7F9F
  8
FUTO
 10
13818.02617193627
 20
9814.6804813486378
 30
0.0
 11
13818.186235936269
 21
9811.0966793486386
 31
0.0
  0
LINE
  5
7FA0
  8
FUTO
 10
13820.400148936271
 20
9826.8123783486371
 30
0.0
 11
13819.622805936269
 21
9818.2616573486375
 31
0.0
  0
ARC
  5
7FA1
  8
FUTO
 10
13821.622805936269
 20
9815.2616573486393
 30
0.0
 40
3.0
 50
90.0
 51
133.88737499997529
  0
LINE
  5
7FA2
  8
FUTO
 10
13849.622805936269
 20
9818.2616573486375
 30
0.0
 11
13819.622805936269
 21
9818.2616573486375
 31
0.0
  0
ARC
  5
7FA3
  8
FUTO
 10
13821.622805936269
 20
9815.2616573486393
 30
0.0
 40
3.0
 50
90.0
 51
133.8315120000008
  0
ARC
  5
7FA4
  8
FUTO
 10
13823.38783593627
 20
9826.5407713486384
 30
0.0
 40
2.9999820000000001
 50
96.115463000033785
 51
174.80560300000801
  0
ARC
  5
7FA5
  8
FUTO
 10
13821.14560193627
 20
9814.8223873486386
 30
0.0
 40
3.0000490000000002
 50
4.9438900000065571
 51
93.731941000007794
  0
LINE
  5
7FA6
  8
FUTO
 10
13692.15503193627
 20
9760.7704463486389
 30
0.0
 11
13695.74707293627
 21
9757.1784053486372
 31
0.0
  0
LINE
  5
7FA7
  8
FUTO
 10
13692.15503193627
 20
9760.7704463486389
 30
0.0
 11
13691.306398936271
 21
9760.7704463486389
 31
0.0
  0
LINE
  5
7FA8
  8
FUTO
 10
13684.401369936269
 20
9753.0170283486386
 30
0.0
 11
13683.55273693627
 21
9753.0170283486386
 31
0.0
  0
LINE
  5
7FA9
  8
FUTO
 10
13684.401369936269
 20
9753.0170283486386
 30
0.0
 11
13684.401369936269
 21
9753.8654173486375
 31
0.0
  0
LINE
  5
7FAA
  8
FUTO
 10
13689.867678936271
 20
9758.4830933486373
 30
0.0
 11
13689.867678936271
 21
9759.3317263486388
 31
0.0
  0
LINE
  5
7FAB
  8
FUTO
 10
13689.867678936271
 20
9758.4830933486373
 30
0.0
 11
13689.019045936269
 21
9758.4830933486373
 31
0.0
  0
LINE
  5
7FAC
  8
FUTO
 10
13689.867678936271
 20
9758.4830933486373
 30
0.0
 11
13693.459719936271
 21
9754.8910523486375
 31
0.0
  0
LINE
  5
7FAD
  8
FUTO
 10
13828.372805936269
 20
9872.0116573486375
 30
0.0
 11
13828.372805936269
 21
9823.6942753486383
 31
0.0
  0
LINE
  5
7FAE
  8
FUTO
 10
13840.872805936269
 20
9872.0116573486375
 30
0.0
 11
13840.872805936269
 21
9823.9824833486382
 31
0.0
  0
LINE
  5
7FAF
  8
FUTO
 10
13682.11401693627
 20
9750.7294313486382
 30
0.0
 11
13685.70605793627
 21
9747.1373903486383
 31
0.0
  0
LINE
  5
7FB0
  8
FUTO
 10
13682.11401693627
 20
9751.5780643486378
 30
0.0
 11
13682.11401693627
 21
9750.7294313486382
 31
0.0
  0
LINE
  5
7FB1
  8
FUTO
 10
13685.70605793627
 20
9747.1373903486383
 30
0.0
 11
13695.74707293627
 21
9757.1784053486372
 31
0.0
  0
LINE
  5
7FB2
  8
CT
 10
13686.181887936271
 20
9756.7025753486378
 30
0.0
 11
13691.42993493627
 21
9751.4545283486386
 31
0.0
  0
LINE
  5
7FB3
  8
FUTO
 10
13682.11401693627
 20
9751.5780643486378
 30
0.0
 11
13691.306398936271
 21
9760.7704463486389
 31
0.0
  0
LINE
  5
7FB4
  8
FUTO
 10
13684.401369936269
 20
9753.0170283486386
 30
0.0
 11
13687.993410936269
 21
9749.424743348638
 31
0.0
  0
LINE
  5
7FB5
  8
CT
 10
13611.122805936269
 20
9378.2616573486375
 30
0.0
 11
14058.122805936269
 21
9378.2616573486375
 31
0.0
  0
ARC
  5
7FB6
  8
FUTO
 10
15794.280261280101
 20
9451.1483763486394
 30
0.0
 40
5.0
 50
300.00027499997202
 51
0.000000000000007
  0
ARC
  5
7FB7
  8
FUTO
 10
14183.621584936271
 20
9532.919128348638
 30
0.0
 40
1.000079999999999
 50
208.39501999997901
 51
298.38552900002043
  0
ARC
  5
7FB8
  8
FUTO
 10
15738.969348280099
 20
9430.7616573486375
 30
0.0
 40
15.000085
 50
270.0
 51
299.99981700000433
  0
LINE
  5
7FB9
  8
FUTO
 10
15796.780261280101
 20
9446.8182983486367
 30
0.0
 11
15746.469348280099
 21
9417.7711793486396
 31
0.0
  0
ARC
  5
7FBA
  8
FUTO
 10
14018.622805936269
 20
9482.5883183486367
 30
0.0
 40
5.0
 50
0.000000000000007
 51
55.056338999992313
  0
LINE
  5
7FBB
  8
FUTO
 10
14021.48669693627
 20
9486.6869503486396
 30
0.0
 11
14005.54883093627
 21
9497.8234253486371
 31
0.0
  0
ARC
  5
7FBC
  8
FUTO
 10
14020.622805936269
 20
9425.2616573486375
 30
0.0
 40
3.0
 50
0.000000000000007
 51
90.0
  0
LINE
  5
7FBD
  8
FUTO
 10
13987.131594936271
 20
9465.7938843486372
 30
0.0
 11
13983.539553936271
 21
9469.3859253486371
 31
0.0
  0
LINE
  5
7FBE
  8
FUTO
 10
13987.131594936271
 20
9464.9452513486376
 30
0.0
 11
13987.131594936271
 21
9465.7938843486372
 31
0.0
  0
LINE
  5
7FBF
  8
FUTO
 10
13984.844240936271
 20
9463.5062863486364
 30
0.0
 11
13985.69287393627
 21
9463.5062863486364
 31
0.0
  0
LINE
  5
7FC0
  8
FUTO
 10
13984.844240936271
 20
9463.5062863486364
 30
0.0
 11
13984.844240936271
 21
9462.6578983486379
 31
0.0
  0
LINE
  5
7FC1
  8
FUTO
 10
13977.09057893627
 20
9455.7528683486362
 30
0.0
 11
13973.49853793627
 21
9459.3449093486379
 31
0.0
  0
LINE
  5
7FC2
  8
FUTO
 10
13977.09057893627
 20
9455.7528683486362
 30
0.0
 11
13977.939211936269
 21
9455.7528683486362
 31
0.0
  0
LINE
  5
7FC3
  8
FUTO
 10
13979.37793293627
 20
9458.0402223486399
 30
0.0
 11
13979.37793293627
 21
9457.1915893486384
 31
0.0
  0
LINE
  5
7FC4
  8
FUTO
 10
13979.37793293627
 20
9458.0402223486399
 30
0.0
 11
13975.78589193627
 21
9461.6322633486379
 31
0.0
  0
LINE
  5
7FC5
  8
FUTO
 10
13979.37793293627
 20
9458.0402223486399
 30
0.0
 11
13980.226564936271
 21
9458.0402223486399
 31
0.0
  0
LINE
  5
7FC6
  8
FUTO
 10
13983.539553936271
 20
9469.3859253486371
 30
0.0
 11
13973.49853793627
 21
9459.3449093486379
 31
0.0
  0
LINE
  5
7FC7
  8
CT
 10
13983.06372393627
 20
9459.8207393486373
 30
0.0
 11
13977.81567693627
 21
9465.0687863486382
 31
0.0
  0
LINE
  5
7FC8
  8
FUTO
 10
13987.131594936271
 20
9464.9452513486376
 30
0.0
 11
13977.939211936269
 21
9455.7528683486362
 31
0.0
  0
LINE
  5
7FC9
  8
FUTO
 10
13984.844240936271
 20
9463.5062863486364
 30
0.0
 11
13981.252199936271
 21
9467.0985713486389
 31
0.0
  0
ARC
  5
7FCA
  8
FUTO
 10
13947.122805936269
 20
9425.2616573486375
 30
0.0
 40
3.0
 50
90.0
 51
180.0
  0
LINE
  5
7FCB
  8
FUTO
 10
13947.122805936269
 20
9428.2616573486375
 30
0.0
 11
14020.622805936269
 21
9428.2616573486375
 31
0.0
  0
LINE
  5
7FCC
  8
FUTO
 10
14023.622805936269
 20
9408.2616573486375
 30
0.0
 11
13944.122805936269
 21
9408.2616573486375
 31
0.0
  0
LINE
  5
7FCD
  8
FUTO
 10
13944.122805936269
 20
9425.2616573486375
 30
0.0
 11
13944.122805936269
 21
9408.2616573486375
 31
0.0
  0
LINE
  5
7FCE
  8
FUTO
 10
13938.72558893627
 20
9433.4049683486373
 30
0.0
 11
13944.122805936269
 21
9413.2616573486375
 31
0.0
  0
LINE
  5
7FCF
  8
CT
 10
13993.622805936269
 20
9438.2616573486375
 30
0.0
 11
13993.622805936269
 21
9398.2616573486393
 31
0.0
  0
LINE
  5
7FD0
  8
FUTO
 10
14023.622805936269
 20
9482.5883183486367
 30
0.0
 11
14023.622805936269
 21
9408.2616573486375
 31
0.0
  0
LINE
  5
7FD1
  8
FUTO
 10
13647.759035936269
 20
9486.6869503486396
 30
0.0
 11
13663.69690193627
 21
9497.8234253486371
 31
0.0
  0
ARC
  5
7FD2
  8
FUTO
 10
13722.122805936269
 20
9425.2616573486375
 30
0.0
 40
3.0
 50
0.000000000000007
 51
90.0
  0
LINE
  5
7FD3
  8
FUTO
 10
13682.11401693627
 20
9465.7938843486372
 30
0.0
 11
13685.70605793627
 21
9469.3859253486371
 31
0.0
  0
LINE
  5
7FD4
  8
FUTO
 10
13682.11401693627
 20
9465.7938843486372
 30
0.0
 11
13682.11401693627
 21
9464.9452513486376
 31
0.0
  0
LINE
  5
7FD5
  8
FUTO
 10
13692.15503193627
 20
9455.7528683486362
 30
0.0
 11
13695.74707293627
 21
9459.3449093486379
 31
0.0
  0
LINE
  5
7FD6
  8
FUTO
 10
13691.306398936271
 20
9455.7528683486362
 30
0.0
 11
13692.15503193627
 21
9455.7528683486362
 31
0.0
  0
LINE
  5
7FD7
  8
FUTO
 10
13689.86743493627
 20
9458.0402223486399
 30
0.0
 11
13689.86743493627
 21
9457.1915893486384
 31
0.0
  0
LINE
  5
7FD8
  8
FUTO
 10
13689.86743493627
 20
9458.0402223486399
 30
0.0
 11
13689.019045936269
 21
9458.0402223486399
 31
0.0
  0
LINE
  5
7FD9
  8
FUTO
 10
13684.401369936269
 20
9463.5065303486354
 30
0.0
 11
13683.55273693627
 21
9463.5065303486354
 31
0.0
  0
LINE
  5
7FDA
  8
FUTO
 10
13684.401369936269
 20
9463.5065303486354
 30
0.0
 11
13684.401369936269
 21
9462.6578983486379
 31
0.0
  0
LINE
  5
7FDB
  8
FUTO
 10
13689.86743493627
 20
9458.0402223486399
 30
0.0
 11
13693.459719936271
 21
9461.6322633486379
 31
0.0
  0
LINE
  5
7FDC
  8
FUTO
 10
13695.74707293627
 20
9459.3449093486379
 30
0.0
 11
13685.70605793627
 21
9469.3859253486371
 31
0.0
  0
LINE
  5
7FDD
  8
CT
 10
13686.181887936271
 20
9459.8207393486373
 30
0.0
 11
13691.42993493627
 21
9465.0687863486382
 31
0.0
  0
LINE
  5
7FDE
  8
FUTO
 10
13691.306398936271
 20
9455.7528683486362
 30
0.0
 11
13682.11401693627
 21
9464.9452513486376
 31
0.0
  0
LINE
  5
7FDF
  8
FUTO
 10
13684.401369936269
 20
9463.5065303486354
 30
0.0
 11
13687.993410936269
 21
9467.0985713486389
 31
0.0
  0
LINE
  5
7FE0
  8
FUTO
 10
13722.122805936269
 20
9428.2616573486375
 30
0.0
 11
13648.622805936269
 21
9428.2616573486375
 31
0.0
  0
LINE
  5
7FE1
  8
FUTO
 10
13725.122805936269
 20
9425.2616573486375
 30
0.0
 11
13725.122805936269
 21
9408.2616573486375
 31
0.0
  0
LINE
  5
7FE2
  8
FUTO
 10
13730.52023593627
 20
9433.4048463486379
 30
0.0
 11
13725.122805936269
 21
9413.2616573486375
 31
0.0
  0
LINE
  5
7FE3
  8
CT
 10
13675.622805936269
 20
9438.2616573486375
 30
0.0
 11
13675.622805936269
 21
9398.2616573486393
 31
0.0
  0
LINE
  5
7FE4
  8
FUTO
 10
13645.622805936269
 20
9482.5883183486367
 30
0.0
 11
13645.622805936269
 21
9408.2616573486375
 31
0.0
  0
LINE
  5
7FE5
  8
FUTO
 10
13645.622805936269
 20
9408.2616573486375
 30
0.0
 11
13725.122805936269
 21
9408.2616573486375
 31
0.0
  0
ARC
  5
7FE6
  8
FUTO
 10
13650.622805936269
 20
9482.5883183486367
 30
0.0
 40
5.0000669999999987
 50
124.9436649999749
 51
180.0
  0
ARC
  5
7FE7
  8
FUTO
 10
13648.622805936269
 20
9425.2616573486375
 30
0.0
 40
3.0
 50
90.0
 51
180.0
  0
LINE
  5
7FE8
  8
FUTO
 10
13889.36084293627
 20
9412.2616573486375
 30
0.0
 11
13779.88476893627
 21
9412.2616573486375
 31
0.0
  0
LINE
  5
7FE9
  8
CT
 10
13834.622805936269
 20
9898.2616573486393
 30
0.0
 11
13834.622805936269
 21
9328.2616573486375
 31
0.0
  0
ARC
  5
7FEA
  8
FUTO
 10
13834.622805936269
 20
9608.2616573486375
 30
0.0
 40
203.5
 50
285.60375999997461
 51
254.39630099999039
  0
LINE
  5
7FEB
  8
FUTO
 10
15740.180285280099
 20
9415.7616573486375
 30
0.0
 11
15740.180285280099
 21
9800.7125853486395
 31
0.0
  0
LINE
  5
7FEC
  8
CT
 10
14124.622805936269
 20
9560.6559443486385
 30
0.0
 11
14124.622805936269
 21
9521.6620483486386
 31
0.0
  0
LINE
  5
7FED
  8
FUTO
 10
14063.87085293627
 20
9752.3744503486396
 30
0.0
 11
14182.74194593627
 21
9532.4435423486375
 31
0.0
  0
LINE
  5
7FEE
  8
FUTO
 10
14184.09704893627
 20
9532.0392453486402
 30
0.0
 11
14185.50464193627
 21
9532.7999873486388
 31
0.0
  0
LINE
  5
7FEF
  8
FUTO
 10
15799.280322280099
 20
9765.9116213486395
 30
0.0
 11
15799.280322280099
 21
9451.1213073486379
 31
0.0
  0
LINE
  5
7FF0
  8
CT
 10
14979.780322280099
 20
9608.2616573486375
 30
0.0
 11
15819.280322280099
 21
9608.2616573486375
 31
0.0
  0
LINE
  5
7FF1
  8
FUTO
 10
15678.0290402801
 20
9800.7616573486375
 30
0.0
 11
15738.969348280099
 21
9800.7616573486375
 31
0.0
  0
LINE
  5
7FF2
  8
FUTO
 10
15674.480212280099
 20
9415.7616573486375
 30
0.0
 11
15738.969348280099
 21
9415.7616573486375
 31
0.0
  0
LINE
  5
7FF3
  8
FUTO
 10
13843.622805936269
 20
9642.2616573486393
 30
0.0
 11
13825.622805936269
 21
9642.2616573486393
 31
0.0
  0
LINE
  5
7FF4
  8
FUTO
 10
13843.622805936269
 20
9631.2616573486375
 30
0.0
 11
13825.622805936269
 21
9631.2616573486375
 31
0.0
  0
LINE
  5
7FF5
  8
FUTO
 10
13843.622805936269
 20
9642.2616573486393
 30
0.0
 11
13843.622805936269
 21
9631.2616573486375
 31
0.0
  0
LINE
  5
7FF6
  8
FUTO
 10
13825.622805936269
 20
9642.2616573486393
 30
0.0
 11
13825.622805936269
 21
9631.2616573486375
 31
0.0
  0
LINE
  5
7FF7
  8
CT
 10
13699.622805936269
 20
13197.126151380109
 30
0.0
 11
13649.622805936269
 21
13197.126151380109
 31
0.0
  0
LINE
  5
7FF8
  8
CT
 10
13674.622805936269
 20
13172.126151380109
 30
0.0
 11
13674.622805936269
 21
13222.126151380109
 31
0.0
  0
LINE
  5
7FF9
  8
CT
 10
13994.622805936269
 20
13172.126151380109
 30
0.0
 11
13994.622805936269
 21
13222.126151380109
 31
0.0
  0
LINE
  5
7FFA
  8
CT
 10
13969.622805936269
 20
13197.126151380109
 30
0.0
 11
14019.622805936269
 21
13197.126151380109
 31
0.0
  0
LINE
  5
7FFB
  8
CT
 10
13969.622805936269
 20
13657.126151380109
 30
0.0
 11
14019.622805936269
 21
13657.126151380109
 31
0.0
  0
LINE
  5
7FFC
  8
CT
 10
13994.622805936269
 20
13682.126151380109
 30
0.0
 11
13994.622805936269
 21
13632.126151380109
 31
0.0
  0
LINE
  5
7FFD
  8
CT
 10
13674.622805936269
 20
13682.126151380109
 30
0.0
 11
13674.622805936269
 21
13632.126151380109
 31
0.0
  0
LINE
  5
7FFE
  8
CT
 10
13699.622805936269
 20
13657.126151380109
 30
0.0
 11
13649.622805936269
 21
13657.126151380109
 31
0.0
  0
LINE
  5
8000
  8
SL
 10
13967.122805936269
 20
13001.626151380109
 30
0.0
 11
13967.122805936269
 21
13099.626151380109
 31
0.0
  0
LINE
  5
8001
  8
FUTO
 10
14038.122805936269
 20
12862.626151380109
 30
0.0
 11
14038.122805936269
 21
13151.62615138012
 31
0.0
  0
LINE
  5
8002
  8
SL
 10
13702.122805936269
 20
13001.626151380109
 30
0.0
 11
13702.122805936269
 21
13099.626151380109
 31
0.0
  0
LINE
  5
8003
  8
SL
 10
14024.622805936269
 20
13749.16470900827
 30
0.0
 11
14024.622805936269
 21
13186.626151380109
 31
0.0
  0
LINE
  5
8004
  8
SL
 10
13959.622805936269
 20
13801.126151380109
 30
0.0
 11
13959.622805936269
 21
13186.626151380109
 31
0.0
  0
LINE
  5
8005
  8
SL
 10
13709.622805936269
 20
13801.126151380109
 30
0.0
 11
13709.622805936269
 21
13186.626151380109
 31
0.0
  0
LINE
  5
8006
  8
SL
 10
13644.622805936269
 20
13742.026114380111
 30
0.0
 11
13644.622805936269
 21
13186.626151380109
 31
0.0
  0
LINE
  5
8007
  8
FUTO
 10
14005.622805936269
 20
14098.626151380109
 30
0.0
 11
14005.622805936269
 21
15386.626151380109
 31
0.0
  0
LINE
  5
8008
  8
FUTO
 10
13955.622805936269
 20
14148.626151380109
 30
0.0
 11
13955.622805936269
 21
15336.626151380109
 31
0.0
  0
LINE
  5
8018
  8
FUTO
 10
14005.622805936269
 20
15386.626151380109
 30
0.0
 11
11604.622805936269
 21
15386.626151380109
 31
0.0
  0
LINE
  5
8019
  8
FUTO
 10
14005.622805936269
 20
14098.626151380109
 30
0.0
 11
11604.622805936269
 21
14098.626151380109
 31
0.0
  0
LINE
  5
801A
  8
FUTO
 10
13534.622805936269
 20
14098.626151380109
 30
0.0
 11
13534.622805936269
 21
14073.626151380109
 31
0.0
  0
LINE
  5
801C
  8
FUTO
 10
12584.622805936269
 20
14148.626151380109
 30
0.0
 11
11539.622805936269
 21
14148.626151380109
 31
0.0
  0
LINE
  5
801D
  8
FUTO
 10
12584.622805936269
 20
15336.626151380109
 30
0.0
 11
11539.622805936269
 21
15336.626151380109
 31
0.0
  0
LINE
  5
8021
  8
FUTO
 10
11604.622805936269
 20
15401.626151380109
 30
0.0
 11
11539.622805936269
 21
15401.626151380109
 31
0.0
  0
LINE
  5
8022
  8
FUTO
 10
11634.622805936269
 20
14098.626151380109
 30
0.0
 11
11634.622805936269
 21
14073.626151380109
 31
0.0
  0
LINE
  5
8025
  8
FUTO
 10
12970.274678826991
 20
13186.626151380109
 30
0.0
 11
12970.274678826991
 21
14073.626151380109
 31
0.0
  0
LINE
  5
8027
  8
FUTO
 10
12198.97093304555
 20
13186.626151380109
 30
0.0
 11
12198.97093304555
 21
14073.626151380109
 31
0.0
  0
DIMENSION
  5
8028
  8
SP
  2
*D12
 10
11189.45641485439
 20
12131.26165734863
 30
0.0
 11
11101.95641485439
 21
11249.761657348639
 31
0.0
 70
     0
 13
11431.9909454229
 23
10368.26165734863
 33
0.0
 14
11539.622805936269
 24
12131.26165734863
 34
0.0
 50
90.0
1001
ACAD
1000
DSTYLE
1002
{
1070
    40
1040
35.0
1070
    41
1040
2.5
1070
   147
1040
1.0
1002
}
  0
DIMENSION
  5
8053
  8
SP
  2
*D13
 10
11539.622805936269
 20
12384.45682359638
 30
0.0
 11
12062.122805936269
 21
12471.95682359638
 31
0.0
 70
     0
 13
12584.622805936269
 23
12201.61977931848
 33
0.0
 14
11539.622805936269
 24
12131.26165734863
 34
0.0
 50
180.0
1001
ACAD
1000
DSTYLE
1002
{
1070
    40
1040
35.0
1070
    41
1040
2.5
1070
   147
1040
1.0
1002
}
  0
DIMENSION
  5
8095
  8
SP
  2
*D14
 10
14690.24256624987
 20
15467.626151380109
 30
0.0
 11
14602.74256624987
 21
15105.12615138012
 31
0.0
 70
     0
 13
14347.622805936269
 23
14742.626151380109
 33
0.0
 14
13449.622805936269
 24
15467.626151380109
 34
0.0
 50
90.0
1001
ACAD
1000
DSTYLE
1002
{
1070
    40
1040
35.0
1070
    41
1040
2.5
1070
   147
1040
1.0
1002
}
  0
DIMENSION
  5
80A2
  8
SP
  2
*D15
 10
14690.24256624987
 20
12862.626151380109
 30
0.0
 11
14602.74256624987
 21
13802.62615138012
 31
0.0
 70
     0
 13
14347.622805936269
 23
14742.626151380109
 33
0.0
 14
14038.122805936269
 24
12862.626151380109
 34
0.0
 50
90.0
1001
ACAD
1000
DSTYLE
1002
{
1070
    40
1040
35.0
1070
    41
1040
2.5
1070
   147
1040
1.0
1002
}
  0
LINE
  5
80D6
  8
KL
 10
13524.622805936269
 20
10124.406664393669
 30
0.0
 11
13524.622805936269
 21
9348.2616573486375
 31
0.0
  0
LINE
  5
80D7
  8
KL
 10
13515.622805936269
 20
10131.33226146744
 30
0.0
 11
13515.622805936269
 21
9348.2616573486375
 31
0.0
  0
LINE
  5
80D8
  8
FUTO
 10
13196.03092969004
 20
10377.26165734863
 30
0.0
 11
14000.250350447041
 21
10377.26165734863
 31
0.0
  0
LINE
  5
80D9
  8
FUTO
 10
13219.42241468035
 20
10359.26165734863
 30
0.0
 11
14000.250350447041
 21
10359.26165734863
 31
0.0
  0
LINE
  5
80DA
  8
KL
 10
12206.346845927699
 20
10332.105080082671
 30
0.0
 11
12384.96845759727
 21
10353.458239184931
 31
0.0
  0
LINE
  5
80DB
  8
KL
 10
12208.483427096329
 20
10314.232334884749
 30
0.0
 11
12387.105038765911
 21
10335.58549398701
 31
0.0
  0
LINE
  5
81A6
  8
FUTO
 10
11581.213131697899
 20
10257.648589571159
 30
0.0
 11
11583.34971286654
 21
10239.77584437324
 31
0.0
  0
LINE
  5
81A7
  8
CT
 10
11582.28142228222
 20
10248.712216972201
 30
0.0
 11
12386.03674818159
 21
10344.52186658597
 31
0.0
  0
LINE
  5
81A9
  8
FUTO
 10
14000.250350447041
 20
10359.26165734863
 30
0.0
 11
14000.250350447041
 21
10377.26165734863
 31
0.0
  0
LINE
  5
81E0
  8
FUTO
 10
16082.580322280101
 20
10368.26165734863
 30
0.0
 11
17408.980322280098
 21
10368.26165734863
 31
0.0
  0
LINE
  5
81E1
  8
FUTO
 10
17408.980322280098
 20
10349.26165734863
 30
0.0
 11
17408.980322280098
 21
9348.2616573486375
 31
0.0
  0
LINE
  5
81E2
  8
FUTO
 10
17398.980322280098
 20
10377.26165734863
 30
0.0
 11
17398.980322280098
 21
10359.26165734863
 31
0.0
  0
LINE
  5
81E3
  8
FUTO
 10
16072.580322280101
 20
10349.261657348639
 30
0.0
 11
16072.580322280101
 21
9348.2616573486375
 31
0.0
  0
LINE
  5
81E4
  8
FUTO
 10
16081.78032228011
 20
12131.26165734863
 30
0.0
 11
17399.780322280101
 21
12131.26165734863
 31
0.0
  0
LINE
  5
81F6
  8
FUTO
 10
16150.780322280099
 20
12066.26165734863
 30
0.0
 11
16072.580322280101
 21
12066.26165734863
 31
0.0
  0
LINE
  5
81FA
  8
FUTO
 10
17333.980322280098
 20
12066.26165734863
 30
0.0
 11
17408.980322280098
 21
12066.26165734863
 31
0.0
  0
LINE
  5
81FB
  8
FUTO
 10
16147.580322280101
 20
12066.26165734863
 30
0.0
 11
17333.980322280098
 21
12066.26165734863
 31
0.0
  0
LINE
  5
8200
  8
FUTO
 10
11539.622805936269
 20
14083.626151380109
 30
0.0
 11
11539.622805936269
 21
15401.626151380109
 31
0.0
  0
LINE
  5
8201
  8
FUTO
 10
11545.622805936269
 20
14083.626151380109
 30
0.0
 11
11545.622805936269
 21
15401.626151380109
 31
0.0
  0
LINE
  5
8202
  8
FUTO
 10
11604.622805936269
 20
14083.626151380109
 30
0.0
 11
11604.622805936269
 21
15401.626151380109
 31
0.0
  0
LINE
  5
8213
  8
FUTO
 10
14134.622805936269
 20
14148.626151380109
 30
0.0
 11
14005.622805936269
 21
14148.626151380109
 31
0.0
  0
DIMENSION
  5
8215
  8
SP
  2
*D16
 10
14134.62280593628
 20
15778.55704035863
 30
0.0
 11
13359.622805936269
 21
15866.05704035863
 31
0.0
 70
     0
 13
12584.622805936269
 23
15512.40406319698
 33
0.0
 14
14134.62280593628
 24
14148.626151380109
 34
0.0
 50
180.0
1001
ACAD
1000
DSTYLE
1002
{
1070
    40
1040
35.0
1070
    41
1040
2.5
1070
   147
1040
1.0
1002
}
  0
DIMENSION
  5
8222
  8
SP
  2
*D17
 10
11539.622805936269
 20
15778.55704035863
 30
0.0
 11
12062.122805936269
 21
15866.05704035863
 31
0.0
 70
     0
 13
12584.622805936269
 23
15512.40406319698
 33
0.0
 14
11539.622805936269
 24
15386.626151380109
 34
0.0
 50
180.0
1001
ACAD
1000
DSTYLE
1002
{
1070
    40
1040
35.0
1070
    41
1040
2.5
1070
   147
1040
1.0
1002
}
  0
LINE
  5
8288
  8
FUTO
 10
12198.97093304555
 20
10260.26165734863
 30
0.0
 11
11959.622805936269
 21
9348.2616573486375
 31
0.0
  0
LINE
  5
8289
  8
KL
 10
12970.274678826991
 20
10260.26165734863
 30
0.0
 11
13117.22814778616
 21
9700.3175904808577
 31
0.0
  0
LINE
  5
828A
  8
SL
 10
13917.044460636091
 20
9712.0061552101834
 30
0.0
 11
12780.568626543391
 21
10614.899520189279
 31
0.0
  0
LINE
  5
828B
  8
SL
 10
13780.4489550774
 20
9487.3424947518015
 30
0.0
 11
12455.832141630261
 21
10080.79345947691
 31
0.0
  0
LINE
  5
828C
  8
FUTO
 10
13968.78984377423
 20
9782.6153380031828
 30
0.0
 11
12816.36587129275
 21
10669.41801484285
 31
0.0
  0
LINE
  5
828D
  8
FUTO
 10
13741.57534195
 20
9408.9072757922677
 30
0.0
 11
12423.904459050889
 21
10023.92227102399
 31
0.0
  0
LINE
  5
828E
  8
FUTO
 10
13117.22814778616
 20
9700.3175904808577
 30
0.0
 11
13209.622805936269
 21
9348.2616573486375
 31
0.0
  0
ARC
  5
828F
  8
FUTO
 10
12700.622805936269
 20
10484.26165734863
 30
0.0
 40
1273.0
 50
296.82611687829927
 51
310.16890547900431
  0
DIMENSION
  5
8291
  8
SP
  2
*D18
 10
11189.45641485439
 20
9198.2616573486375
 30
0.0
 11
11101.95641485439
 21
9783.2616573486393
 31
0.0
 70
     0
 13
11274.9599696689
 23
10368.26165734863
 33
0.0
 14
11634.622805936269
 24
9198.2616573486375
 34
0.0
 50
90.0
1001
ACAD
1000
DSTYLE
1002
{
1070
    40
1040
35.0
1070
    41
1040
2.5
1070
   147
1040
1.0
1002
}
  0
LINE
  5
82B5
  8
FUTO
 10
11604.622805936269
 20
14083.626151380109
 30
0.0
 11
11539.622805936269
 21
14083.626151380109
 31
0.0
  0
LINE
  5
83C3
  8
FUTO
 10
14134.622805936269
 20
9070.2651573486382
 30
0.0
 11
11634.622805936269
 21
9070.2651573486382
 31
0.0
  0
LINE
  5
83C4
  8
FUTO
 10
14134.622805936269
 20
8946.2581573486386
 30
0.0
 11
11634.622805936269
 21
8946.2581573486386
 31
0.0
  0
LINE
  5
83C5
  8
FUTO
 10
14134.622805936269
 20
9083.2616573486375
 30
0.0
 11
11634.622805936269
 21
9083.2616573486375
 31
0.0
  0
LINE
  5
83C6
  8
FUTO
 10
14134.622805936269
 20
8933.2616573486375
 30
0.0
 11
11634.622805936269
 21
8933.2616573486375
 31
0.0
  0
LINE
  5
83C7
  8
FUTO
 10
11634.622805936269
 20
9083.2616573486375
 30
0.0
 11
11634.622805936269
 21
8933.2616573486375
 31
0.0
  0
LINE
  5
83C8
  8
FUTO
 10
11959.622805936269
 20
9083.2616573486375
 30
0.0
 11
11959.622805936269
 21
8933.2616573486375
 31
0.0
  0
LINE
  5
83D8
  8
FUTO
 10
14134.622805936269
 20
9083.2616573486375
 30
0.0
 11
14134.622805936269
 21
8933.2616573486375
 31
0.0
  0
LINE
  5
83DE
  8
SP
 10
11824.622805936269
 20
9263.1608434955488
 30
0.0
 11
11824.622805936269
 21
9018.1608434955488
 31
0.0
  0
LINE
  5
83DF
  8
FUTO
 10
11784.622805936269
 20
9198.2616573486375
 30
0.0
 11
11784.622805936269
 21
9083.2616573486375
 31
0.0
  0
LINE
  5
83E0
  8
FUTO
 10
11864.622805936269
 20
9198.2616573486375
 30
0.0
 11
11864.622805936269
 21
9083.2616573486375
 31
0.0
  0
INSERT
  5
83EC
  8
FUTO
  6
CONTINUOUS
  2
*U19
 10
0.0
 20
0.0
 30
0.0
1001
ACAD
1002
{
1000
R14_HATCH_DATA
1000
83EC
1011
1.0
1021
0.0
1031
0.0
1021
0.0
1031
0.0
1011
0.0
1021
0.0
1031
0.0
1021
1.0
1031
0.0
1011
0.0
1021
0.0
1031
0.0
1021
0.0
1031
1.0
1040
0.0
1010
0.0
1020
0.0
1030
1.0
1000
SOLID
1070
     1
1070
     0
1071
        2
1071
        7
1070
     0
1070
     1
1071
        4
1040
11824.622805936269
1040
9198.2616573486375
1040
11784.622805936269
1040
9198.2616573486375
1040
11784.622805936269
1040
9083.2616573486375
1040
11824.622805936269
1040
9083.2616573486375
1071
        0
1071
        7
1070
     0
1070
     1
1071
        4
1040
11864.622805936269
1040
9198.2616573486375
1040
11824.622805936269
1040
9198.2616573486375
1040
11824.622805936269
1040
9083.2616573486375
1040
11864.622805936269
1040
9083.2616573486375
1071
        0
1070
     0
1070
     1
1040
0.5641206793754191
1071
        2
1040
11813.111234126831
1040
9098.5146408883211
1040
0.0
1040
11853.19290547847
1040
9099.0787596098671
1040
0.0
1002
}
  0
LINE
  5
840B
  8
SP
 10
11599.622805936269
 20
9083.2616573486375
 30
0.0
 11
11154.45641485439
 21
9083.2616573486375
 31
0.0
  0
LINE
  5
840C
  8
SP
 10
11599.622805936269
 20
8933.2616573486375
 30
0.0
 11
11154.45641485439
 21
8933.2616573486375
 31
0.0
  0
LINE
  5
840D
  8
SP
 10
11189.45641485439
 20
9265.7616573486375
 30
0.0
 11
11189.45641485439
 21
9353.2616573486375
 31
0.0
  0
LINE
  5
840E
  8
SP
 10
11189.45641485439
 20
8845.7616573486375
 30
0.0
 11
11189.45641485439
 21
8443.2616573486375
 31
0.0
  0
LINE
  5
840F
  8
SP
 10
11189.45641485439
 20
9083.2616573486375
 30
0.0
 11
11189.45641485439
 21
8933.2616573486375
 31
0.0
  0
INSERT
  5
8411
  8
SP
  2
_OPEN
 10
11189.45641485439
 20
8933.2616573486375
 30
0.0
 41
87.5
 42
87.5
 43
87.5
 50
90.0
  0
TEXT
  5
8412
  8
FUTO
 10
11154.45641485439
 20
8455.4859759919946
 30
0.0
 40
105.0
  1
150
 50
90.0
 51
15.0
  0
LINE
  5
8413
  8
SP
 10
11599.622805936269
 20
9198.2616573486375
 30
0.0
 11
11154.45641485439
 21
9198.2616573486375
 31
0.0
  0
LINE
  5
8414
  8
SP
 10
11599.622805936269
 20
9083.2616573486375
 30
0.0
 11
11154.45641485439
 21
9083.2616573486375
 31
0.0
  0
LINE
  5
8415
  8
SP
 10
11189.45641485439
 20
9285.7616573486375
 30
0.0
 11
11189.45641485439
 21
9373.2616573486375
 31
0.0
  0
LINE
  5
8416
  8
SP
 10
11189.45641485439
 20
8995.7616573486375
 30
0.0
 11
11189.45641485439
 21
8650.4859759919927
 31
0.0
  0
LINE
  5
8417
  8
SP
 10
11189.45641485439
 20
9198.2616573486375
 30
0.0
 11
11189.45641485439
 21
9083.2616573486375
 31
0.0
  0
INSERT
  5
8418
  8
SP
  2
_OPEN
 10
11189.45641485439
 20
9198.2616573486375
 30
0.0
 41
87.5
 42
87.5
 43
87.5
 50
270.0
  0
TEXT
  5
841A
  8
FUTO
 10
11119.517180818821
 20
9033.7418299933797
 30
0.0
 40
105.0
  1
115
 50
90.0
 51
15.0
  0
CIRCLE
  5
841B
  8
SP
 10
11189.45641485439
 20
9083.2616573486375
 30
0.0
 40
16.107035403234569
  0
INSERT
  5
842C
  8
SP
  6
CONTINUOUS
  2
*U20
 10
0.0
 20
0.0
 30
0.0
1001
ACAD
1002
{
1000
R14_HATCH_DATA
1000
842C
1011
1.0
1021
0.0
1031
0.0
1021
0.0
1031
0.0
1011
0.0
1021
0.0
1031
0.0
1021
1.0
1031
0.0
1011
0.0
1021
0.0
1031
0.0
1021
0.0
1031
1.0
1040
0.0
1010
0.0
1020
0.0
1030
1.0
1000
SOLID
1070
     1
1070
     0
1071
        4
1071
        7
1070
     1
1070
     1
1071
        3
1040
11189.45641485439
1040
9083.2616573486375
1040
0.0
1040
11189.45641485439
1040
9099.3686927518702
1040
0.4142135623730954
1040
11173.34937945116
1040
9083.2616573486375
1040
0.0
1071
        0
1071
        7
1070
     1
1070
     1
1071
        3
1040
11189.45641485439
1040
9083.2616573486375
1040
0.0
1040
11205.56345025763
1040
9083.2616573486375
1040
0.4142135623730873
1040
11189.45641485439
1040
9099.3686927518702
1040
0.0
1071
        0
1071
        7
1070
     1
1070
     1
1071
        3
1040
11189.45641485439
1040
9083.2616573486375
1040
0.0
1040
11189.45641485439
1040
9067.1546219454049
1040
0.4142135623730913
1040
11205.56345025763
1040
9083.2616573486375
1040
0.0
1071
        0
1071
        7
1070
     1
1070
     1
1071
        3
1040
11173.34937945116
1040
9083.2616573486375
1040
0.4142135623730913
1040
11189.45641485439
1040
9067.1546219454049
1040
0.0
1040
11189.45641485439
1040
9083.2616573486375
1040
0.0
1071
        0
1070
     0
1070
     1
1040
0.5035446347995674
1071
        4
1040
11183.54212170559
1040
9088.5002010014432
1040
0.0
1040
11193.620335854481
1040
9089.00375823582
1040
0.0
1040
11195.132067976811
1040
9079.4364099535851
1040
0.0
1040
11183.038210998149
1040
9077.9257724177278
1040
0.0
1002
}
  0
LINE
  5
8453
  8
FUTO
 10
17334.780322280109
 20
9070.2651573486382
 30
0.0
 11
15184.780322280099
 21
9070.2651573486382
 31
0.0
  0
LINE
  5
8454
  8
FUTO
 10
17334.780322280109
 20
8946.2581573486386
 30
0.0
 11
15184.780322280099
 21
8946.2581573486386
 31
0.0
  0
LINE
  5
8455
  8
FUTO
 10
17334.780322280109
 20
8933.2616573486375
 30
0.0
 11
15184.780322280099
 21
8933.2616573486375
 31
0.0
  0
LINE
  5
8456
  8
FUTO
 10
17334.780322280109
 20
9083.2616573486375
 30
0.0
 11
15184.780322280099
 21
9083.2616573486375
 31
0.0
  0
LINE
  5
8459
  8
FUTO
 10
15227.280322280099
 20
9083.2616573486375
 30
0.0
 11
15170.280322280099
 21
9083.2616573486375
 31
0.0
  0
LINE
  5
845A
  8
FUTO
 10
15184.780322280099
 20
8933.2616573486375
 30
0.0
 11
15184.780322280099
 21
9083.2616573486375
 31
0.0
  0
LINE
  5
845B
  8
FUTO
 10
15178.280322280099
 20
8949.9234687704684
 30
0.0
 11
15178.280322280099
 21
9066.5998459268067
 31
0.0
  0
LINE
  5
845C
  8
FUTO
 10
15174.62894525109
 20
8945.9386899781039
 30
0.0
 11
15113.431699309111
 21
8940.5846247191712
 31
0.0
  0
LINE
  5
845D
  8
FUTO
 10
15184.780322280099
 20
8933.2616573486375
 30
0.0
 11
15109.780322280099
 21
8933.2616573486375
 31
0.0
  0
ARC
  5
845E
  8
FUTO
 10
15113.780322280099
 20
8936.5998459268048
 30
0.0
 40
4.0
 50
95.000000000000554
 51
179.9999999999921
  0
LINE
  5
845F
  8
FUTO
 10
15109.780322280099
 20
8933.2616573486375
 30
0.0
 11
15109.780322280099
 21
8936.5998459268048
 31
0.0
  0
ARC
  5
8460
  8
FUTO
 10
15174.280322280099
 20
8949.9234687704684
 30
0.0
 40
4.0
 50
275.0
 51
0.0
  0
LINE
  5
8461
  8
FUTO
 10
15174.62894525109
 20
9070.5846247191712
 30
0.0
 11
15113.431699309111
 21
9075.938689978102
 31
0.0
  0
LINE
  5
8462
  8
FUTO
 10
15184.780322280099
 20
9083.2616573486375
 30
0.0
 11
15109.780322280099
 21
9083.2616573486375
 31
0.0
  0
ARC
  5
8463
  8
FUTO
 10
15113.780322280099
 20
9079.9234687704702
 30
0.0
 40
4.0
 50
180.00000000000779
 51
264.99999999999949
  0
LINE
  5
8464
  8
FUTO
 10
15109.780322280099
 20
9083.2616573486375
 30
0.0
 11
15109.780322280099
 21
9079.9234687704702
 31
0.0
  0
ARC
  5
8465
  8
FUTO
 10
15174.280322280099
 20
9066.5998459268067
 30
0.0
 40
4.0
 50
0.0
 51
84.999999999999943
  0
LINE
  5
8472
  8
FUTO
 10
17334.780322280109
 20
9083.2616573486375
 30
0.0
 11
17334.780322280109
 21
8933.2616573486375
 31
0.0
  0
LINE
  5
8473
  8
FUTO
 10
17341.280322280109
 20
9066.5998459268067
 30
0.0
 11
17341.280322280109
 21
8949.9234687704684
 31
0.0
  0
LINE
  5
8474
  8
FUTO
 10
17344.931699309109
 20
8945.9386899781039
 30
0.0
 11
17406.12894525109
 21
8940.5846247191712
 31
0.0
  0
LINE
  5
8475
  8
FUTO
 10
17334.780322280109
 20
8933.2616573486375
 30
0.0
 11
17409.780322280101
 21
8933.2616573486375
 31
0.0
  0
ARC
  5
8477
  8
FUTO
 10
17345.280322280101
 20
8949.9234687704684
 30
0.0
 40
4.0
 50
180.0
 51
264.99999999999989
  0
ARC
  5
8478
  8
FUTO
 10
17405.780322280101
 20
8936.5998459268048
 30
0.0
 40
4.0
 50
0.0000000000078369
 51
84.999999999999503
  0
LINE
  5
8479
  8
FUTO
 10
17409.780322280101
 20
8933.2616573486375
 30
0.0
 11
17409.780322280101
 21
8936.5998459268048
 31
0.0
  0
LINE
  5
847A
  8
FUTO
 10
17344.931699309109
 20
9070.5846247191712
 30
0.0
 11
17406.12894525109
 21
9075.938689978102
 31
0.0
  0
LINE
  5
847B
  8
FUTO
 10
17334.780322280109
 20
9083.2616573486375
 30
0.0
 11
17409.780322280101
 21
9083.2616573486375
 31
0.0
  0
ARC
  5
847C
  8
FUTO
 10
17345.280322280101
 20
9066.5998459268067
 30
0.0
 40
4.0
 50
95.000000000000057
 51
180.0
  0
ARC
  5
847D
  8
FUTO
 10
17405.780322280101
 20
9079.9234687704702
 30
0.0
 40
4.0
 50
275.00000000000051
 51
359.9999999999921
  0
LINE
  5
847E
  8
FUTO
 10
17409.780322280101
 20
9083.2616573486375
 30
0.0
 11
17409.780322280101
 21
9079.9234687704702
 31
0.0
  0
LINE
  5
849D
  8
CT
 10
13654.890832176299
 20
9608.2616573486375
 30
0.0
 11
14260.98902081708
 21
9608.2616573486375
 31
0.0
  0
TEXT
  5
8F72
  8
SP
 10
19271.477442460011
 20
10912.44222832069
 30
0.0
 40
100.0
  1
 
  0
LINE
  5
8F73
  8
4
 10
18372.727873486841
 20
7311.3890010321547
 30
0.0
 11
18372.727873486841
 21
6311.3890010321566
 31
0.0
  0
LINE
  5
8F74
  8
4
 10
14872.72787348684
 20
7311.3890010321547
 30
0.0
 11
14872.72787348684
 21
6311.3890010321566
 31
0.0
  0
LINE
  5
8F75
  8
4
 10
12372.72787348684
 20
7311.3890010321547
 30
0.0
 11
12372.72787348684
 21
6311.3890010321566
 31
0.0
  0
LINE
  5
8F78
  8
4
 10
12372.72787348684
 20
6311.3890010321547
 30
0.0
 11
18372.727873486841
 21
6311.3890010321547
 31
0.0
  0
LINE
  5
8F79
  8
4
 10
12372.72787348684
 20
6811.3890010321547
 30
0.0
 11
18372.727873486841
 21
6811.3890010321547
 31
0.0
  0
TEXT
  5
8F7A
  8
4
 10
12565.238277721361
 20
6969.1041303652237
 30
0.0
 40
250.0
  1
機器名称
  0
TEXT
  5
8F7B
  8
4
 10
12554.01840361084
 20
6419.6147846922104
 30
0.0
 40
250.0
  1
機器型番
  0
TEXT
  5
8F7C
  8
4
 10
14896.693181992059
 20
6922.325512816893
 30
0.0
 40
225.0
  1
ミツヤリミットロードファン
  0
TEXT
  5
8F7D
  8
4
 10
15056.000351414261
 20
6397.1869224318716
 30
0.0
 40
250.0
  1
LL#10-1
  0
TEXT
  5
8F7F
  8
4
 10
13135.82666503596
 20
16728.533207694731
 30
0.0
 40
270.0
  1
床置防振ベット
  0
TEXT
  5
8F80
  8
4
 10
10703.565840134081
 20
17480.793882028651
 30
0.0
 40
360.0
  1
遠心式片吸込片持リミットロードファン
  0
LINE
  5
8F81
  8
4
 10
10372.72787348684
 20
17158.43277235618
 30
0.0
 11
18372.727873486841
 21
17158.43277235618
 31
0.0
  0
LINE
  5
8F82
  8
4
 10
10372.72787348684
 20
18158.43277235618
 30
0.0
 11
18372.727873486841
 21
18158.43277235618
 31
0.0
  0
LINE
  5
8F83
  8
4
 10
12372.72787348684
 20
7311.3890010321547
 30
0.0
 11
18372.727873486841
 21
7311.3890010321547
 31
0.0
  0
LINE
  5
8F84
  8
4
 10
10372.72787348684
 20
18158.43277235618
 30
0.0
 11
10372.72787348684
 21
17158.43277235618
 31
0.0
  0
TEXT
  5
8F85
  8
4
 10
10818.59545424221
 20
16722.986388763871
 30
0.0
 40
270.0
  1
左回転左横向
  0
TEXT
  5
8F86
  8
4
 10
16467.575669733302
 20
18341.694408508702
 30
0.0
 40
280.0
  1
No.
  0
TEXT
  5
8F87
  8
4
 10
16534.507096743619
 20
16232.268364684531
 30
0.0
 40
270.0
  1
縮尺：1/50
  0
LINE
  5
8F88
  8
4
 10
18372.727873486841
 20
18158.43277235618
 30
0.0
 11
18372.727873486841
 21
17158.43277235618
 31
0.0
  0
LINE
  5
8F89
  8
4
 10
19622.727873486841
 20
19561.389001032148
 30
0.0
 11
19622.727873486841
 21
19561.389001032148
 31
0.0
  0
LINE
  5
8F8A
  8
4
 10
16325.81498528617
 20
18217.706916659161
 30
0.0
 11
16325.81498528617
 21
18744.650308780911
 31
0.0
  0
LINE
  5
8F8B
  8
4
 10
16325.81498528617
 20
18744.650308780911
 30
0.0
 11
18372.727873486841
 21
18744.650308780911
 31
0.0
  0
LINE
  5
8F8C
  8
4
 10
18372.727873486841
 20
18744.650308780911
 30
0.0
 11
18372.727873486841
 21
18217.706916659161
 31
0.0
  0
LINE
  5
8F8D
  8
4
 10
18372.727873486841
 20
18217.706916659161
 30
0.0
 11
16325.81498528617
 21
18217.706916659161
 31
0.0
  0
LINE
  5
8F8E
  8
4
 10
9122.7278734868505
 20
4811.3890010321547
 30
0.0
 11
9122.7278734868505
 21
19561.389001032148
 31
0.0
  0
LINE
  5
8F8F
  8
4
 10
9122.7278734868505
 20
19561.389001032148
 30
0.0
 11
19622.727873486841
 21
19561.389001032148
 31
0.0
  0
LINE
  5
8F90
  8
4
 10
19622.727873486841
 20
19561.389001032148
 30
0.0
 11
19622.727873486841
 21
4811.3890010321547
 31
0.0
  0
LINE
  5
8F91
  8
4
 10
19622.727873486841
 20
4811.3890010321547
 30
0.0
 11
9122.7278734868505
 21
4811.3890010321547
 31
0.0
  0
ENDSEC
  0
EOF
