  0
SECTION
  2
HEADER
  9
$ACADVER
  1
AC1009
  9
$INSBASE
 10
0.0
 20
0.0
 30
0.0
  9
$EXTMIN
 10
1149.1334574838761
 20
3341.2346796508632
 30
0.0
  9
$EXTMAX
 10
11649.133457483869
 20
18091.234679650861
 30
0.0
  9
$LIMMIN
 10
0.0
 20
0.0
  9
$LIMMAX
 10
297.0
 20
210.0
  9
$ORTHOMODE
 70
     0
  9
$REGENMODE
 70
     1
  9
$FILLMODE
 70
     1
  9
$QTEXTMODE
 70
     0
  9
$MIRRTEXT
 70
     0
  9
$DRAGMODE
 70
     2
  9
$LTSCALE
 40
175.0
  9
$OSMODE
 70
    37
  9
$ATTMODE
 70
     1
  9
$TEXTSIZE
 40
150.0
  9
$TRACEWID
 40
0.05
  9
$TEXTSTYLE
  7
STANDARD
  9
$CLAYER
  8
FUTO
  9
$CELTYPE
  6
BYLAYER
  9
$CECOLOR
 62
   256
  9
$DIMSCALE
 40
35.0
  9
$DIMASZ
 40
2.5
  9
$DIMEXO
 40
1.0
  9
$DIMDLI
 40
10.0
  9
$DIMRND
 40
0.0
  9
$DIMDLE
 40
0.0
  9
$DIMEXE
 40
1.0
  9
$DIMTP
 40
0.0
  9
$DIMTM
 40
0.0
  9
$DIMTXT
 40
3.0
  9
$DIMCEN
 40
0.0
  9
$DIMTSZ
 40
0.0
  9
$DIMTOL
 70
     0
  9
$DIMLIM
 70
     0
  9
$DIMTIH
 70
     0
  9
$DIMTOH
 70
     0
  9
$DIMSE1
 70
     0
  9
$DIMSE2
 70
     0
  9
$DIMTAD
 70
     1
  9
$DIMZIN
 70
     8
  9
$DIMBLK
  1

  9
$DIMASO
 70
     1
  9
$DIMSHO
 70
     1
  9
$DIMPOST
  1

  9
$DIMAPOST
  1

  9
$DIMALT
 70
     0
  9
$DIMALTD
 70
     2
  9
$DIMALTF
 40
0.03937
  9
$DIMLFAC
 40
1.0
  9
$DIMTOFL
 70
     1
  9
$DIMTVP
 40
0.0
  9
$DIMTIX
 70
     0
  9
$DIMSOXD
 70
     0
  9
$DIMSAH
 70
     1
  9
$DIMBLK1
  1
OPEN
  9
$DIMBLK2
  1
OPEN
  9
$DIMSTYLE
  2
MATSU
  9
$DIMCLRD
 70
   256
  9
$DIMCLRE
 70
   256
  9
$DIMCLRT
 70
   256
  9
$DIMTFAC
 40
1.0
  9
$DIMGAP
 40
1.0
  9
$LUNITS
 70
     2
  9
$LUPREC
 70
     4
  9
$SKETCHINC
 40
0.1
  9
$FILLETRAD
 40
30.0
  9
$AUNITS
 70
     0
  9
$AUPREC
 70
     2
  9
$MENU
  1
acad
  9
$ELEVATION
 40
0.0
  9
$PELEVATION
 40
0.0
  9
$THICKNESS
 40
0.0
  9
$LIMCHECK
 70
     0
  9
$BLIPMODE
 70
     0
  9
$CHAMFERA
 40
8.0
  9
$CHAMFERB
 40
8.0
  9
$SKPOLY
 70
     0
  9
$TDCREATE
 40
2453957.375965347
  9
$TDUPDATE
 40
2454953.649769051
  9
$TDINDWG
 40
0.1539863657
  9
$TDUSRTIMER
 40
0.1539863657
  9
$USRTIMER
 70
     1
  9
$ANGBASE
 50
0.0
  9
$ANGDIR
 70
     0
  9
$PDMODE
 70
     0
  9
$PDSIZE
 40
1.0
  9
$PLINEWID
 40
0.0
  9
$COORDS
 70
     1
  9
$SPLFRAME
 70
     0
  9
$SPLINETYPE
 70
     6
  9
$SPLINESEGS
 70
     8
  9
$ATTDIA
 70
     0
  9
$ATTREQ
 70
     1
  9
$HANDLING
 70
 10241
  9
$HANDSEED
  5
9009
  9
$SURFTAB1
 70
     6
  9
$SURFTAB2
 70
     6
  9
$SURFTYPE
 70
     6
  9
$SURFU
 70
     6
  9
$SURFV
 70
     6
  9
$UCSNAME
  2

  9
$UCSORG
 10
0.0
 20
-0.0000000000000142
 30
0.0
  9
$UCSXDIR
 10
1.0
 20
0.0
 30
0.0
  9
$UCSYDIR
 10
0.0
 20
1.0
 30
0.0
  9
$PUCSNAME
  2

  9
$PUCSORG
 10
0.0
 20
0.0
 30
0.0
  9
$PUCSXDIR
 10
1.0
 20
0.0
 30
0.0
  9
$PUCSYDIR
 10
0.0
 20
1.0
 30
0.0
  9
$USERI1
 70
     0
  9
$USERI2
 70
     0
  9
$USERI3
 70
     0
  9
$USERI4
 70
     0
  9
$USERI5
 70
     0
  9
$USERR1
 40
0.0
  9
$USERR2
 40
0.0
  9
$USERR3
 40
0.0
  9
$USERR4
 40
0.0
  9
$USERR5
 40
0.0
  9
$WORLDVIEW
 70
     1
  9
$SHADEDGE
 70
     3
  9
$SHADEDIF
 70
    70
  9
$TILEMODE
 70
     1
  9
$MAXACTVP
 70
    16
  9
$PLIMCHECK
 70
     0
  9
$PEXTMIN
 10
1.0000000000000000E+020
 20
1.0000000000000000E+020
 30
1.0000000000000000E+020
  9
$PEXTMAX
 10
-1.0000000000000000E+020
 20
-1.0000000000000000E+020
 30
-1.0000000000000000E+020
  9
$PLIMMIN
 10
0.0
 20
0.0
  9
$PLIMMAX
 10
12.0
 20
9.0
  9
$UNITMODE
 70
     0
  9
$VISRETAIN
 70
     0
  9
$PLINEGEN
 70
     0
  9
$PSLTSCALE
 70
     0
  0
ENDSEC
  0
SECTION
  2
TABLES
  0
TABLE
  2
VPORT
 70
     2
  0
VPORT
  2
*ACTIVE
 70
     0
 10
0.0
 20
0.0
 11
1.0
 21
1.0
 12
11042.32965765044
 22
5016.6284488180108
 13
0.0
 23
0.0
 14
5.0
 24
5.0
 15
0.0
 25
0.0
 16
0.0
 26
0.0
 36
1.0
 17
0.0
 27
0.0
 37
0.0
 40
4382.1565137066236
 41
3.1666666666666661
 42
50.0
 43
0.0
 44
0.0
 50
0.0
 51
0.0
 71
     0
 72
   100
 73
     1
 74
     0
 75
     0
 76
     0
 77
     0
 78
     0
  0
ENDTAB
  0
TABLE
  2
LTYPE
 70
     4
  0
LTYPE
  2
CONTINUOUS
 70
     0
  3
Solid line
 72
    65
 73
     0
 40
0.0
  0
LTYPE
  2
CENTER
 70
     0
  3
____ _ ____ _ ____ _ ____ _ ____ _ ____ _ ____ 
 72
    65
 73
     4
 40
2.0
 49
1.25
 49
-0.25
 49
0.25
 49
-0.25
  0
LTYPE
  2
HIDDEN
 70
     0
  3
__ __ __ __ __ __ __ __ __ __ __ __ __ __ __ __
 72
    65
 73
     2
 40
0.375
 49
0.25
 49
-0.125
  0
LTYPE
  2
PHANTOM
 70
     0
  3
______  __  __  ______  __  __  ______  __  __ 
 72
    65
 73
     6
 40
2.5
 49
1.25
 49
-0.25
 49
0.25
 49
-0.25
 49
0.25
 49
-0.25
  0
ENDTAB
  0
TABLE
  2
LAYER
 70
     9
  0
LAYER
  2
0
 70
     0
 62
     7
  6
CONTINUOUS
  0
LAYER
  2
CT
 70
     0
 62
     3
  6
CENTER
  0
LAYER
  2
FUTO
 70
     0
 62
     4
  6
CONTINUOUS
  0
LAYER
  2
HOSO
 70
     0
 62
     7
  6
CONTINUOUS
  0
LAYER
  2
KL
 70
     0
 62
     7
  6
HIDDEN
  0
LAYER
  2
SL
 70
     0
 62
     1
  6
PHANTOM
  0
LAYER
  2
SP
 70
     0
 62
     2
  6
CONTINUOUS
  0
LAYER
  2
DEFPOINTS
 70
     0
 62
     7
  6
CONTINUOUS
  0
LAYER
  2
4
 70
     0
 62
     7
  6
CONTINUOUS
  0
ENDTAB
  0
TABLE
  2
STYLE
 70
     1
  0
STYLE
  2
STANDARD
 70
     0
 40
0.0
 41
1.0
 50
15.0
 71
     0
 42
150.0
  3
C:\Program Files\AutoCAD LT\simplex.shx
  4
extfont.shx
  0
ENDTAB
  0
TABLE
  2
VIEW
 70
     0
  0
ENDTAB
  0
TABLE
  2
UCS
 70
     0
  0
ENDTAB
  0
TABLE
  2
APPID
 70
     1
  0
APPID
  2
ACAD
 70
     0
  0
ENDTAB
  0
TABLE
  2
DIMSTYLE
 70
     2
  0
DIMSTYLE
  2
STANDARD
 70
     0
  3

  4

  5

  6

  7

 40
1.0
 41
0.18
 42
0.0625
 43
0.38
 44
0.18
 45
0.0
 46
0.0
 47
0.0
 48
0.0
140
0.18
141
0.09
142
0.0
143
25.399999999999999
144
1.0
145
0.0
146
1.0
147
0.09
 71
     0
 72
     0
 73
     1
 74
     1
 75
     0
 76
     0
 77
     0
 78
     0
170
     0
171
     2
172
     0
173
     0
174
     0
175
     0
176
     0
177
     0
178
     0
  0
DIMSTYLE
  2
MATSU
 70
     0
  3

  4

  5

  6
OPEN
  7
OPEN
 40
1.0
 41
2.0
 42
1.0
 43
10.0
 44
1.0
 45
0.0
 46
0.0
 47
0.0
 48
0.0
140
3.0
141
0.0
142
0.0
143
0.03937
144
1.0
145
0.0
146
1.0
147
0.5
 71
     0
 72
     0
 73
     0
 74
     0
 75
     0
 76
     0
 77
     1
 78
     8
170
     0
171
     2
172
     1
173
     1
174
     0
175
     0
176
   256
177
   256
178
   256
  0
ENDTAB
  0
ENDSEC
  0
SECTION
  2
BLOCKS
  0
BLOCK
  8
0
  2
$MODEL_SPACE
 70
     0
 10
0.0
 20
0.0
 30
0.0
  3
$MODEL_SPACE
  1

  0
ENDBLK
  5
1B
  8
0
  0
BLOCK
 67
     1
  8
0
  2
$PAPER_SPACE
 70
     0
 10
0.0
 20
0.0
 30
0.0
  3
$PAPER_SPACE
  1

  0
ENDBLK
  5
18
 67
     1
  8
0
  0
BLOCK
  8
0
  2
_OPEN
 70
     0
 10
0.0
 20
0.0
 30
0.0
  3
_OPEN
  1

  0
LINE
  5
28
  8
0
  6
BYBLOCK
 62
     0
 10
-1.0
 20
0.1666666666666666
 30
0.0
 11
0.0
 21
0.0
 31
0.0
  0
LINE
  5
29
  8
0
  6
BYBLOCK
 62
     0
 10
0.0
 20
0.0
 30
0.0
 11
-1.0
 21
-0.1666666666666666
 31
0.0
  0
LINE
  5
2A
  8
0
  6
BYBLOCK
 62
     0
 10
0.0
 20
0.0
 30
0.0
 11
-1.0
 21
0.0
 31
0.0
  0
ENDBLK
  5
2B
  8
0
  0
BLOCK
  8
0
  2
まっすぐの矢印
 70
     0
 10
0.0
 20
0.0
 30
0.0
  3
まっすぐの矢印
  1

  0
LINE
  5
56E2
  8
SP
 10
0.6962157491662495
 20
-2.216890595009601
 30
0.0
 11
0.6962157491662495
 21
-5.0
 31
0.0
  0
LINE
  5
56E3
  8
SP
 10
0.6962157491662495
 20
-5.0
 30
0.0
 11
-0.6962157491662495
 21
-5.0
 31
0.0
  0
LINE
  5
56E4
  8
SP
 10
-0.6962157491662495
 20
-5.0
 30
0.0
 11
-0.6962157491662495
 21
-2.216890595009601
 31
0.0
  0
LINE
  5
56E5
  8
SP
 10
-0.6962157491662495
 20
-2.216890595009601
 30
0.0
 11
-1.7145256852758151
 21
-2.216890595009601
 31
0.0
  0
LINE
  5
56E6
  8
SP
 10
-1.7145256852758151
 20
-2.216890595009601
 30
0.0
 11
0.0
 21
0.0
 31
0.0
  0
LINE
  5
56E7
  8
SP
 10
0.0
 20
0.0
 30
0.0
 11
1.7145256852758151
 21
-2.216890595009601
 31
0.0
  0
LINE
  5
56E8
  8
SP
 10
1.7145256852758151
 20
-2.216890595009601
 30
0.0
 11
0.6962157491662495
 21
-2.216890595009601
 31
0.0
  0
ENDBLK
  5
56EA
  8
0
  0
BLOCK
  8
0
  2
右回転矢印
 70
     0
 10
0.0
 20
0.0
 30
0.0
  3
右回転矢印
  1

  0
LINE
  5
56EC
  8
SP
 10
-2.7705290305565882
 20
1.567794835092901
 30
0.0
 11
-2.4288000558398148
 21
2.8051227455822878
 31
0.0
  0
LINE
  5
56ED
  8
SP
 10
-2.4288000558398148
 20
2.8051227455822878
 30
0.0
 11
0.0
 21
0.0
 31
0.0
  0
LINE
  5
56EE
  8
SP
 10
0.0
 20
0.0
 30
0.0
 11
-3.3160037613098718
 21
-0.4072531086382499
 31
0.0
  0
LINE
  5
56EF
  8
SP
 10
-3.3160037613098718
 20
-0.4072531086382499
 30
0.0
 11
-3.0391574735299112
 21
0.5951483970269315
 31
0.0
  0
ARC
  5
56F0
  8
SP
 10
-5.9215210782018062
 20
-9.8412769578768184
 30
0.0
 40
10.82714154973578
 50
74.560750721316467
 51
112.11861101078711
  0
LINE
  5
56F1
  8
SP
 10
-9.9982127316752951
 20
0.1890560027239694
 30
0.0
 11
-10.37814929817227
 21
1.1238557349100611
 31
0.0
  0
ARC
  5
56F2
  8
SP
 10
-5.9215210782018062
 20
-9.8412769578768291
 30
0.0
 40
11.83620167374065
 50
74.560750721316396
 51
112.11861101078701
  0
ENDBLK
  5
56F4
  8
0
  0
BLOCK
  8
0
  2
*D3
 70
     1
 10
0.0
 20
0.0
 30
0.0
  3
*D3
  1

  0
LINE
  5
8F80
  8
SP
 10
6536.1344081638808
 20
7911.5688917007292
 30
0.0
 11
6536.1344081638808
 21
7541.056581517626
 31
0.0
  0
LINE
  5
8F81
  8
SP
 10
5586.134408163879
 20
7911.5688917007292
 30
0.0
 11
5586.134408163879
 21
7541.056581517626
 31
0.0
  0
LINE
  5
8F82
  8
SP
 10
6448.6344081638799
 20
7576.0565815176251
 30
0.0
 11
5673.6344081638799
 21
7576.0565815176251
 31
0.0
  0
INSERT
  5
8F83
  8
SP
  2
_OPEN
 10
6536.1344081638808
 20
7576.0565815176251
 30
0.0
 41
87.5
 42
87.5
 43
87.5
  0
INSERT
  5
8F84
  8
SP
  2
_OPEN
 10
5586.134408163879
 20
7576.0565815176251
 30
0.0
 41
87.5
 42
87.5
 43
87.5
 50
180.0
  0
TEXT
  5
8F85
  8
FUTO
 10
5912.7369485423242
 20
7611.056581517626
 30
0.0
 40
105.0
  1
950
 51
15.0
  0
POINT
  5
8F86
  8
DEFPOINTS
 62
     0
 10
6536.1344081638808
 20
7946.5688917007283
 30
0.0
  0
POINT
  5
8F87
  8
DEFPOINTS
 62
     0
 10
5586.134408163879
 20
7946.5688917007283
 30
0.0
  0
POINT
  5
8F88
  8
DEFPOINTS
 62
     0
 10
5586.134408163879
 20
7576.0565815176251
 30
0.0
  0
ENDBLK
  5
6A60
  8
0
  0
BLOCK
  8
0
  2
*D4
 70
     1
 10
0.0
 20
0.0
 30
0.0
  3
*D4
  1

  0
LINE
  5
8F65
  8
SP
 10
5586.134408163879
 20
7791.5688917007292
 30
0.0
 11
5586.134408163879
 21
7541.056581517626
 31
0.0
  0
LINE
  5
8F66
  8
SP
 10
4036.1344081638799
 20
7791.5688917007292
 30
0.0
 11
4036.1344081638799
 21
7541.056581517626
 31
0.0
  0
LINE
  5
8F67
  8
SP
 10
5498.6344081638799
 20
7576.0565815176251
 30
0.0
 11
4123.634408163879
 21
7576.0565815176251
 31
0.0
  0
INSERT
  5
8F68
  8
SP
  2
_OPEN
 10
5586.134408163879
 20
7576.0565815176251
 30
0.0
 41
87.5
 42
87.5
 43
87.5
  0
INSERT
  5
8F69
  8
SP
  2
_OPEN
 10
4036.1344081638799
 20
7576.0565815176251
 30
0.0
 41
87.5
 42
87.5
 43
87.5
 50
180.0
  0
TEXT
  5
8F6A
  8
FUTO
 10
4615.8587268072351
 20
7611.056581517626
 30
0.0
 40
105.0
  1
1550
 51
15.0
  0
POINT
  5
8F6B
  8
DEFPOINTS
 62
     0
 10
5586.134408163879
 20
7826.5688917007283
 30
0.0
  0
POINT
  5
8F6C
  8
DEFPOINTS
 62
     0
 10
4036.1344081638799
 20
7826.5688917007283
 30
0.0
  0
POINT
  5
8F6D
  8
DEFPOINTS
 62
     0
 10
4036.1344081638799
 20
7576.0565815176251
 30
0.0
  0
ENDBLK
  5
6A6D
  8
0
  0
BLOCK
  8
0
  2
*D5
 70
     1
 10
0.0
 20
0.0
 30
0.0
  3
*D5
  1

  0
LINE
  5
8F5C
  8
SP
 10
6536.1344081638808
 20
7791.5688917007292
 30
0.0
 11
6536.1344081638808
 21
7290.9688375199676
 31
0.0
  0
LINE
  5
8F5D
  8
SP
 10
4036.1344081638799
 20
7791.5688917007292
 30
0.0
 11
4036.1344081638799
 21
7290.9688375199676
 31
0.0
  0
LINE
  5
8F5E
  8
SP
 10
6448.6344081638799
 20
7325.9688375199667
 30
0.0
 11
4123.634408163879
 21
7325.9688375199667
 31
0.0
  0
INSERT
  5
8F5F
  8
SP
  2
_OPEN
 10
6536.1344081638808
 20
7325.9688375199667
 30
0.0
 41
87.5
 42
87.5
 43
87.5
  0
INSERT
  5
8F60
  8
SP
  2
_OPEN
 10
4036.1344081638799
 20
7325.9688375199667
 30
0.0
 41
87.5
 42
87.5
 43
87.5
 50
180.0
  0
TEXT
  5
8F61
  8
FUTO
 10
5092.2465674855566
 20
7360.9688375199676
 30
0.0
 40
105.0
  1
2500
 51
15.0
  0
POINT
  5
8F62
  8
DEFPOINTS
 62
     0
 10
6536.1344081638808
 20
7826.5688917007283
 30
0.0
  0
POINT
  5
8F63
  8
DEFPOINTS
 62
     0
 10
4036.1344081638799
 20
7826.5688917007283
 30
0.0
  0
POINT
  5
8F64
  8
DEFPOINTS
 62
     0
 10
4036.1344081638799
 20
7325.9688375199667
 30
0.0
  0
ENDBLK
  5
6A7A
  8
0
  0
BLOCK
  8
0
  2
*D6
 70
     1
 10
0.0
 20
0.0
 30
0.0
  3
*D6
  1

  0
LINE
  5
8FBE
  8
SP
 10
7962.3411987796062
 20
7791.5688917007274
 30
0.0
 11
7962.3411987796062
 21
7541.0565581297869
 31
0.0
  0
LINE
  5
8FBF
  8
SP
 10
9593.3411987796062
 20
7791.5688917007292
 30
0.0
 11
9593.3411987796062
 21
7541.0565581297869
 31
0.0
  0
LINE
  5
8FC0
  8
SP
 10
8049.8411987796062
 20
7576.0565581297869
 30
0.0
 11
9505.8411987796062
 21
7576.0565581297869
 31
0.0
  0
INSERT
  5
8FC1
  8
SP
  2
_OPEN
 10
7962.3411987796062
 20
7576.0565581297869
 30
0.0
 41
87.5
 42
87.5
 43
87.5
 50
180.0
  0
INSERT
  5
8FC2
  8
SP
  2
_OPEN
 10
9593.3411987796062
 20
7576.0565581297869
 30
0.0
 41
87.5
 42
87.5
 43
87.5
  0
TEXT
  5
8FC3
  8
FUTO
 10
8599.8860254986503
 20
7611.0565581297878
 30
0.0
 40
105.0
  1
1631
 51
15.0
  0
POINT
  5
8FC4
  8
DEFPOINTS
 62
     0
 10
7962.3411987796062
 20
7826.5688917007283
 30
0.0
  0
POINT
  5
8FC5
  8
DEFPOINTS
 62
     0
 10
9593.3411987796062
 20
7826.5688917007283
 30
0.0
  0
POINT
  5
8FC6
  8
DEFPOINTS
 62
     0
 10
9593.3411987796062
 20
7576.0565581297869
 30
0.0
  0
ENDBLK
  5
6A87
  8
0
  0
BLOCK
  8
0
  2
*D7
 70
     1
 10
0.0
 20
0.0
 30
0.0
  3
*D7
  1

  0
LINE
  5
8FD0
  8
SP
 10
9593.3411987796062
 20
7791.5688917007292
 30
0.0
 11
9593.3411987796062
 21
7541.0565581297869
 31
0.0
  0
LINE
  5
8FD1
  8
SP
 10
10262.341198779601
 20
7791.5688917007274
 30
0.0
 11
10262.341198779601
 21
7541.0565581297869
 31
0.0
  0
LINE
  5
8FD2
  8
SP
 10
9680.8411987796062
 20
7576.0565581297869
 30
0.0
 11
10174.841198779601
 21
7576.0565581297869
 31
0.0
  0
INSERT
  5
8FD3
  8
SP
  2
_OPEN
 10
9593.3411987796062
 20
7576.0565581297869
 30
0.0
 41
87.5
 42
87.5
 43
87.5
 50
180.0
  0
INSERT
  5
8FD4
  8
SP
  2
_OPEN
 10
10262.341198779601
 20
7576.0565581297869
 30
0.0
 41
87.5
 42
87.5
 43
87.5
  0
TEXT
  5
8FD5
  8
FUTO
 10
9781.2738661769745
 20
7611.0565581297878
 30
0.0
 40
105.0
  1
669
 51
15.0
  0
POINT
  5
8FD6
  8
DEFPOINTS
 62
     0
 10
9593.3411987796062
 20
7826.5688917007283
 30
0.0
  0
POINT
  5
8FD7
  8
DEFPOINTS
 62
     0
 10
10262.341198779601
 20
7826.5688917007283
 30
0.0
  0
POINT
  5
8FD8
  8
DEFPOINTS
 62
     0
 10
10262.341198779601
 20
7576.0565581297869
 30
0.0
  0
ENDBLK
  5
6A94
  8
0
  0
BLOCK
  8
0
  2
*D8
 70
     1
 10
0.0
 20
0.0
 30
0.0
  3
*D8
  1

  0
LINE
  5
8FB5
  8
SP
 10
7962.3411987796062
 20
7791.5688917007274
 30
0.0
 11
7962.3411987796062
 21
7290.9688141321303
 31
0.0
  0
LINE
  5
8FB6
  8
SP
 10
10262.341198779601
 20
7791.5688917007274
 30
0.0
 11
10262.341198779601
 21
7290.9688141321303
 31
0.0
  0
LINE
  5
8FB7
  8
SP
 10
8049.8411987796062
 20
7325.9688141321294
 30
0.0
 11
10174.841198779601
 21
7325.9688141321294
 31
0.0
  0
INSERT
  5
8FB8
  8
SP
  2
_OPEN
 10
7962.3411987796062
 20
7325.9688141321294
 30
0.0
 41
87.5
 42
87.5
 43
87.5
 50
180.0
  0
INSERT
  5
8FB9
  8
SP
  2
_OPEN
 10
10262.341198779601
 20
7325.9688141321294
 30
0.0
 41
87.5
 42
87.5
 43
87.5
  0
TEXT
  5
8FBA
  8
FUTO
 10
8918.4533581012856
 20
7360.9688141321303
 30
0.0
 40
105.0
  1
2300
 51
15.0
  0
POINT
  5
8FBB
  8
DEFPOINTS
 62
     0
 10
7962.3411987796062
 20
7826.5688917007283
 30
0.0
  0
POINT
  5
8FBC
  8
DEFPOINTS
 62
     0
 10
10262.341198779601
 20
7826.5688917007283
 30
0.0
  0
POINT
  5
8FBD
  8
DEFPOINTS
 62
     0
 10
10262.341198779601
 20
7325.9688141321294
 30
0.0
  0
ENDBLK
  5
6AA1
  8
0
  0
BLOCK
  8
0
  2
*D9
 70
     1
 10
0.0
 20
0.0
 30
0.0
  3
*D9
  1

  0
LINE
  5
8FD9
  8
SP
 10
9593.3411987796062
 20
10753.82789382957
 30
0.0
 11
9593.3411987796062
 21
10799.80027337854
 31
0.0
  0
LINE
  5
8FDA
  8
SP
 10
10318.341198779601
 20
10296.568891700719
 30
0.0
 11
10318.341198779601
 21
10799.80027337854
 31
0.0
  0
LINE
  5
8FDB
  8
SP
 10
9680.8411987796062
 20
10764.80027337854
 30
0.0
 11
10230.841198779601
 21
10764.80027337854
 31
0.0
  0
INSERT
  5
8FDC
  8
SP
  2
_OPEN
 10
9593.3411987796062
 20
10764.80027337854
 30
0.0
 41
87.5
 42
87.5
 43
87.5
 50
180.0
  0
INSERT
  5
8FDD
  8
SP
  2
_OPEN
 10
10318.341198779601
 20
10764.80027337854
 30
0.0
 41
87.5
 42
87.5
 43
87.5
  0
TEXT
  5
8FDE
  8
FUTO
 10
9801.7738661769727
 20
10799.80027337854
 30
0.0
 40
105.0
  1
725
 51
15.0
  0
POINT
  5
8FDF
  8
DEFPOINTS
 62
     0
 10
9593.3411987796062
 20
10718.82789382957
 30
0.0
  0
POINT
  5
8FE0
  8
DEFPOINTS
 62
     0
 10
10318.341198779601
 20
10261.568891700719
 30
0.0
  0
POINT
  5
8FE1
  8
DEFPOINTS
 62
     0
 10
10318.341198779601
 20
10764.80027337854
 30
0.0
  0
ENDBLK
  5
6AFF
  8
0
  0
BLOCK
  8
0
  2
*D10
 70
     1
 10
0.0
 20
0.0
 30
0.0
  3
*D10
  1

  0
LINE
  5
8FC7
  8
SP
 10
10353.341198779601
 20
10196.568891700719
 30
0.0
 11
10632.53459998148
 21
10196.568891700719
 31
0.0
  0
LINE
  5
8FC8
  8
SP
 10
10353.341198779601
 20
8596.5688917007283
 30
0.0
 11
10632.53459998148
 21
8596.5688917007283
 31
0.0
  0
LINE
  5
8FC9
  8
SP
 10
10597.53459998148
 20
10109.068891700719
 30
0.0
 11
10597.53459998148
 21
8684.0688917007283
 31
0.0
  0
INSERT
  5
8FCA
  8
SP
  2
_OPEN
 10
10597.53459998148
 20
10196.568891700719
 30
0.0
 41
87.5
 42
87.5
 43
87.5
 50
90.0
  0
INSERT
  5
8FCB
  8
SP
  2
_OPEN
 10
10597.53459998148
 20
8596.5688917007283
 30
0.0
 41
87.5
 42
87.5
 43
87.5
 50
270.0
  0
TEXT
  5
8FCC
  8
FUTO
 10
10562.53459998148
 20
9164.8701618899522
 30
0.0
 40
105.0
  1
φ1600
 50
90.0
 51
15.0
  0
POINT
  5
8FCD
  8
DEFPOINTS
 62
     0
 10
10318.341198779601
 20
10196.568891700719
 30
0.0
  0
POINT
  5
8FCE
  8
DEFPOINTS
 62
     0
 10
10318.341198779601
 20
8596.5688917007283
 30
0.0
  0
POINT
  5
8FCF
  8
DEFPOINTS
 62
     0
 10
10597.53459998148
 20
8596.5688917007283
 30
0.0
  0
ENDBLK
  5
6F63
  8
0
  0
BLOCK
  8
0
  2
*D11
 70
     1
 10
0.0
 20
0.0
 30
0.0
  3
*D11
  1

  0
LINE
  5
8FAD
  8
SP
 10
7713.3411987796062
 20
9811.5688917007301
 30
0.0
 11
7713.3411987796062
 21
10799.80027337854
 31
0.0
  0
LINE
  5
8FAE
  8
SP
 10
7800.8411987796071
 20
10764.80027337854
 30
0.0
 11
9505.8411987796062
 21
10764.80027337854
 31
0.0
  0
INSERT
  5
8FAF
  8
SP
  2
_OPEN
 10
7713.3411987796062
 20
10764.80027337854
 30
0.0
 41
87.5
 42
87.5
 43
87.5
 50
180.0
  0
INSERT
  5
8FB0
  8
SP
  2
_OPEN
 10
9593.3411987796062
 20
10764.80027337854
 30
0.0
 41
87.5
 42
87.5
 43
87.5
  0
TEXT
  5
8FB1
  8
FUTO
 10
8458.0655174229614
 20
10799.80027337854
 30
0.0
 40
105.0
  1
1880
 51
15.0
  0
POINT
  5
8FB2
  8
DEFPOINTS
 62
     0
 10
7713.3411987796062
 20
9776.5688917007283
 30
0.0
  0
POINT
  5
8FB3
  8
DEFPOINTS
 62
     0
 10
9593.3411987796062
 20
10764.80027337854
 30
0.0
  0
POINT
  5
8FB4
  8
DEFPOINTS
 62
     0
 10
9593.3411987796062
 20
10764.80027337854
 30
0.0
  0
ENDBLK
  5
6FBD
  8
0
  0
BLOCK
  8
0
  2
*D12
 70
     1
 10
0.0
 20
0.0
 30
0.0
  3
*D12
  1

  0
LINE
  5
8F53
  8
SP
 10
5586.134408163879
 20
10584.20075221409
 30
0.0
 11
5586.134408163879
 21
10826.7352827826
 31
0.0
  0
LINE
  5
8F54
  8
SP
 10
3823.134408163879
 20
10476.568891700719
 30
0.0
 11
3823.134408163879
 21
10826.7352827826
 31
0.0
  0
LINE
  5
8F55
  8
SP
 10
5498.6344081638799
 20
10791.7352827826
 30
0.0
 11
3910.634408163879
 21
10791.7352827826
 31
0.0
  0
INSERT
  5
8F56
  8
SP
  2
_OPEN
 10
5586.134408163879
 20
10791.7352827826
 30
0.0
 41
87.5
 42
87.5
 43
87.5
  0
INSERT
  5
8F57
  8
SP
  2
_OPEN
 10
3823.134408163879
 20
10791.7352827826
 30
0.0
 41
87.5
 42
87.5
 43
87.5
 50
180.0
  0
TEXT
  5
8F58
  8
FUTO
 10
4506.6792348829222
 20
10826.7352827826
 30
0.0
 40
105.0
  1
1763
 51
15.0
  0
POINT
  5
8F59
  8
DEFPOINTS
 62
     0
 10
5586.134408163879
 20
10549.20075221409
 30
0.0
  0
POINT
  5
8F5A
  8
DEFPOINTS
 62
     0
 10
3823.134408163879
 20
10441.568891700719
 30
0.0
  0
POINT
  5
8F5B
  8
DEFPOINTS
 62
     0
 10
3823.134408163879
 20
10791.7352827826
 30
0.0
  0
ENDBLK
  5
8034
  8
0
  0
BLOCK
  8
0
  2
*D13
 70
     1
 10
0.0
 20
0.0
 30
0.0
  3
*D13
  1

  0
LINE
  5
8F6E
  8
SP
 10
4001.134408163879
 20
7996.5688917007292
 30
0.0
 11
3534.9392419161309
 21
7996.5688917007292
 31
0.0
  0
LINE
  5
8F6F
  8
SP
 10
3717.7762861940291
 20
9396.5688917007283
 30
0.0
 11
3534.9392419161309
 21
9396.5688917007283
 31
0.0
  0
LINE
  5
8F70
  8
SP
 10
3569.93924191613
 20
8084.0688917007292
 30
0.0
 11
3569.9392419161309
 21
9309.0688917007283
 31
0.0
  0
INSERT
  5
8F71
  8
SP
  2
_OPEN
 10
3569.93924191613
 20
7996.5688917007292
 30
0.0
 41
87.5
 42
87.5
 43
87.5
 50
270.0
  0
INSERT
  5
8F72
  8
SP
  2
_OPEN
 10
3569.9392419161309
 20
9396.5688917007283
 30
0.0
 41
87.5
 42
87.5
 43
87.5
 50
90.0
  0
TEXT
  5
8F73
  8
FUTO
 10
3534.939241916129
 20
8501.2932103440835
 30
0.0
 40
105.0
  1
1400
 50
90.0
 51
15.0
  0
POINT
  5
8F74
  8
DEFPOINTS
 62
     0
 10
4036.1344081638799
 20
7996.5688917007292
 30
0.0
  0
POINT
  5
8F75
  8
DEFPOINTS
 62
     0
 10
3752.7762861940291
 20
9396.5688917007283
 30
0.0
  0
POINT
  5
8F76
  8
DEFPOINTS
 62
     0
 10
3569.9392419161309
 20
9396.5688917007283
 30
0.0
  0
ENDBLK
  5
8052
  8
0
  0
BLOCK
  8
0
  2
*D14
 70
     1
 10
0.0
 20
0.0
 30
0.0
  3
*D14
  1

  0
LINE
  5
8F77
  8
SP
 10
3717.7762861940291
 20
9396.5688917007283
 30
0.0
 11
3534.9392419161309
 21
9396.5688917007283
 31
0.0
  0
LINE
  5
8F78
  8
SP
 10
3788.134408163879
 20
10441.568891700719
 30
0.0
 11
3534.9392419161309
 21
10441.568891700719
 31
0.0
  0
LINE
  5
8F79
  8
SP
 10
3569.9392419161309
 20
9484.0688917007283
 30
0.0
 11
3569.9392419161309
 21
10354.068891700719
 31
0.0
  0
INSERT
  5
8F7A
  8
SP
  2
_OPEN
 10
3569.9392419161309
 20
9396.5688917007283
 30
0.0
 41
87.5
 42
87.5
 43
87.5
 50
270.0
  0
INSERT
  5
8F7B
  8
SP
  2
_OPEN
 10
3569.9392419161309
 20
10441.568891700719
 30
0.0
 41
87.5
 42
87.5
 43
87.5
 50
90.0
  0
TEXT
  5
8F7C
  8
FUTO
 10
3534.939241916129
 20
9723.6137184197723
 30
0.0
 40
105.0
  1
1045
 50
90.0
 51
15.0
  0
POINT
  5
8F7D
  8
DEFPOINTS
 62
     0
 10
3752.7762861940291
 20
9396.5688917007283
 30
0.0
  0
POINT
  5
8F7E
  8
DEFPOINTS
 62
     0
 10
3823.134408163879
 20
10441.568891700719
 30
0.0
  0
POINT
  5
8F7F
  8
DEFPOINTS
 62
     0
 10
3569.9392419161309
 20
10441.568891700719
 30
0.0
  0
ENDBLK
  5
805F
  8
0
  0
BLOCK
  8
0
  2
*D15
 70
     1
 10
0.0
 20
0.0
 30
0.0
  3
*D15
  1

  0
LINE
  5
8F92
  8
SP
 10
5586.134408163879
 20
14213.683940951039
 30
0.0
 11
5586.134408163879
 21
14489.056696589891
 31
0.0
  0
LINE
  5
8F93
  8
SP
 10
3823.1344081638799
 20
14102.906029134179
 30
0.0
 11
3823.1344081638799
 21
14489.056696589891
 31
0.0
  0
LINE
  5
8F94
  8
SP
 10
5498.634408163879
 20
14454.056696589891
 30
0.0
 11
3910.6344081638799
 21
14454.056696589891
 31
0.0
  0
INSERT
  5
8F95
  8
SP
  2
_OPEN
 10
5586.134408163879
 20
14454.056696589891
 30
0.0
 41
87.5
 42
87.5
 43
87.5
  0
INSERT
  5
8F96
  8
SP
  2
_OPEN
 10
3823.1344081638799
 20
14454.056696589891
 30
0.0
 41
87.5
 42
87.5
 43
87.5
 50
180.0
  0
TEXT
  5
8F97
  8
FUTO
 10
4506.6792348829222
 20
14489.056696589891
 30
0.0
 40
105.0
  1
1763
 51
15.0
  0
POINT
  5
8F98
  8
DEFPOINTS
 62
     0
 10
5586.134408163879
 20
14178.683940951039
 30
0.0
  0
POINT
  5
8F99
  8
DEFPOINTS
 62
     0
 10
3823.1344081638799
 20
14067.906029134179
 30
0.0
  0
POINT
  5
8F9A
  8
DEFPOINTS
 62
     0
 10
3823.1344081638799
 20
14454.056696589891
 30
0.0
  0
ENDBLK
  5
8087
  8
0
  0
BLOCK
  8
0
  2
*D16
 70
     1
 10
0.0
 20
0.0
 30
0.0
  3
*D16
  1

  0
LINE
  5
8FA4
  8
SP
 10
5586.134408163879
 20
14248.683940951039
 30
0.0
 11
5586.134408163879
 21
14489.056696589891
 31
0.0
  0
LINE
  5
8FA5
  8
SP
 10
6775.134408163879
 20
14087.90602913417
 30
0.0
 11
6775.134408163879
 21
14489.056696589891
 31
0.0
  0
LINE
  5
8FA6
  8
SP
 10
5673.634408163879
 20
14454.056696589891
 30
0.0
 11
6687.634408163879
 21
14454.056696589891
 31
0.0
  0
INSERT
  5
8FA7
  8
SP
  2
_OPEN
 10
5586.134408163879
 20
14454.056696589891
 30
0.0
 41
87.5
 42
87.5
 43
87.5
 50
180.0
  0
INSERT
  5
8FA8
  8
SP
  2
_OPEN
 10
6775.134408163879
 20
14454.056696589891
 30
0.0
 41
87.5
 42
87.5
 43
87.5
  0
TEXT
  5
8FA9
  8
FUTO
 10
5997.1888538261546
 20
14489.056696589891
 30
0.0
 40
105.0
  1
1189
 51
15.0
  0
POINT
  5
8FAA
  8
DEFPOINTS
 62
     0
 10
5586.134408163879
 20
14213.683940951039
 30
0.0
  0
POINT
  5
8FAB
  8
DEFPOINTS
 62
     0
 10
6775.134408163879
 20
14052.90602913417
 30
0.0
  0
POINT
  5
8FAC
  8
DEFPOINTS
 62
     0
 10
6775.134408163879
 20
14454.056696589891
 30
0.0
  0
ENDBLK
  5
8094
  8
0
  0
BLOCK
  8
0
  2
*D17
 70
     1
 10
0.0
 20
0.0
 30
0.0
  3
*D17
  1

  0
LINE
  5
8F89
  8
SP
 10
3788.134408163879
 20
13408.906029134179
 30
0.0
 11
3445.5146478502802
 21
13408.906029134179
 31
0.0
  0
LINE
  5
8F8A
  8
SP
 10
4686.134408163879
 20
14133.906029134179
 30
0.0
 11
3445.5146478502802
 21
14133.906029134179
 31
0.0
  0
LINE
  5
8F8B
  8
SP
 10
3480.5146478502802
 20
13496.406029134179
 30
0.0
 11
3480.5146478502802
 21
14046.406029134179
 31
0.0
  0
INSERT
  5
8F8C
  8
SP
  2
_OPEN
 10
3480.5146478502802
 20
13408.906029134179
 30
0.0
 41
87.5
 42
87.5
 43
87.5
 50
270.0
  0
INSERT
  5
8F8D
  8
SP
  2
_OPEN
 10
3480.5146478502802
 20
14133.906029134179
 30
0.0
 41
87.5
 42
87.5
 43
87.5
 50
90.0
  0
TEXT
  5
8F8E
  8
FUTO
 10
3445.5146478502779
 20
13617.33869653154
 30
0.0
 40
105.0
  1
725
 50
90.0
 51
15.0
  0
POINT
  5
8F8F
  8
DEFPOINTS
 62
     0
 10
3823.134408163879
 20
13408.906029134179
 30
0.0
  0
POINT
  5
8F90
  8
DEFPOINTS
 62
     0
 10
4721.134408163879
 20
14133.906029134179
 30
0.0
  0
POINT
  5
8F91
  8
DEFPOINTS
 62
     0
 10
3480.5146478502802
 20
14133.906029134179
 30
0.0
  0
ENDBLK
  5
80A1
  8
0
  0
BLOCK
  8
0
  2
*D18
 70
     1
 10
0.0
 20
0.0
 30
0.0
  3
*D18
  1

  0
LINE
  5
8F9B
  8
SP
 10
3788.134408163879
 20
13408.906029134179
 30
0.0
 11
3445.5146478502811
 21
13408.906029134179
 31
0.0
  0
LINE
  5
8F9C
  8
SP
 10
4097.634408163879
 20
11528.90602913417
 30
0.0
 11
3445.5146478502802
 21
11528.906029134179
 31
0.0
  0
LINE
  5
8F9D
  8
SP
 10
3480.5146478502811
 20
13321.406029134179
 30
0.0
 11
3480.5146478502802
 21
11616.406029134179
 31
0.0
  0
INSERT
  5
8F9E
  8
SP
  2
_OPEN
 10
3480.5146478502811
 20
13408.906029134179
 30
0.0
 41
87.5
 42
87.5
 43
87.5
 50
90.0
  0
INSERT
  5
8F9F
  8
SP
  2
_OPEN
 10
3480.5146478502802
 20
11528.906029134179
 30
0.0
 41
87.5
 42
87.5
 43
87.5
 50
270.0
  0
TEXT
  5
8FA0
  8
FUTO
 10
3445.5146478502788
 20
12273.630347777529
 30
0.0
 40
105.0
  1
1880
 50
90.0
 51
15.0
  0
POINT
  5
8FA1
  8
DEFPOINTS
 62
     0
 10
3823.134408163879
 20
13408.906029134179
 30
0.0
  0
POINT
  5
8FA2
  8
DEFPOINTS
 62
     0
 10
4132.634408163879
 20
11528.90602913417
 30
0.0
  0
POINT
  5
8FA3
  8
DEFPOINTS
 62
     0
 10
3480.5146478502802
 20
11528.906029134179
 30
0.0
  0
ENDBLK
  5
80AE
  8
0
  0
BLOCK
  8
0
  2
*U19
 70
     1
 10
0.0
 20
0.0
 30
0.0
  3
*U19
  1

  0
SOLID
  5
8FF8
  8
SP
  6
CONTINUOUS
 10
3556.2957394102668
 20
7976.5688917007292
 30
0.0
 11
3569.9392419161309
 21
7976.5688917007292
 31
0.0
 12
3560.291828775099
 22
7986.2163048417606
 32
0.0
 13
3560.291828775099
 23
7986.2163048417606
 33
0.0
210
0.0
220
0.0
230
1.0
  0
SOLID
  5
8FF9
  8
SP
  6
CONTINUOUS
 10
3569.93924191613
 20
7990.2123942065928
 30
0.0
 11
3560.291828775099
 21
7986.2163048417606
 31
0.0
 12
3569.9392419161309
 22
7976.5688917007292
 32
0.0
 13
3569.9392419161309
 23
7976.5688917007292
 33
0.0
210
0.0
220
0.0
230
1.0
  0
SOLID
  5
8FFA
  8
SP
  6
CONTINUOUS
 10
3569.9392419161309
 20
7976.5688917007292
 30
0.0
 11
3583.582744421994
 21
7976.5688917007292
 31
0.0
 12
3569.93924191613
 22
7990.2123942065928
 32
0.0
 13
3569.93924191613
 23
7990.2123942065928
 33
0.0
210
0.0
220
0.0
230
1.0
  0
SOLID
  5
8FFB
  8
SP
  6
CONTINUOUS
 10
3579.5866550571632
 20
7986.2163048417606
 30
0.0
 11
3569.93924191613
 21
7990.2123942065928
 31
0.0
 12
3583.582744421994
 22
7976.5688917007292
 32
0.0
 13
3583.582744421994
 23
7976.5688917007292
 33
0.0
210
0.0
220
0.0
230
1.0
  0
SOLID
  5
8FFC
  8
SP
  6
CONTINUOUS
 10
3569.9392419161309
 20
7976.5688917007283
 30
0.0
 11
3569.9392419161309
 21
7962.9253891948656
 31
0.0
 12
3583.582744421994
 22
7976.5688917007292
 32
0.0
 13
3583.582744421994
 23
7976.5688917007292
 33
0.0
210
0.0
220
0.0
230
1.0
  0
SOLID
  5
8FFD
  8
SP
  6
CONTINUOUS
 10
3579.5866550571632
 20
7966.9214785596969
 30
0.0
 11
3583.582744421994
 21
7976.5688917007292
 31
0.0
 12
3569.9392419161309
 22
7962.9253891948656
 32
0.0
 13
3569.9392419161309
 23
7962.9253891948656
 33
0.0
  0
SOLID
  5
8FFE
  8
SP
  6
CONTINUOUS
 10
3556.2957394102668
 20
7976.5688917007283
 30
0.0
 11
3560.291828775099
 21
7966.921478559696
 31
0.0
 12
3569.9392419161309
 22
7976.5688917007283
 32
0.0
 13
3569.9392419161309
 23
7976.5688917007283
 33
0.0
210
0.0
220
0.0
230
1.0
  0
SOLID
  5
8FFF
  8
SP
  6
CONTINUOUS
 10
3569.93924191613
 20
7962.9253891948656
 30
0.0
 11
3569.9392419161309
 21
7976.5688917007283
 31
0.0
 12
3560.291828775099
 22
7966.921478559696
 32
0.0
 13
3560.291828775099
 23
7966.921478559696
 33
0.0
210
0.0
220
0.0
230
1.0
  0
ENDBLK
  5
9001
  8
0
  0
BLOCK
  8
0
  2
*U20
 70
     1
 10
0.0
 20
0.0
 30
0.0
  3
*U20
  1

  0
SOLID
  5
9003
  8
FUTO
  6
CONTINUOUS
 10
6346.134408163879
 20
7976.5688917007283
 30
0.0
 11
6346.134408163879
 21
7996.5688917007292
 31
0.0
 12
6306.1344081638799
 22
7976.5688917007283
 32
0.0
 13
6306.1344081638799
 23
7976.5688917007283
 33
0.0
210
0.0
220
0.0
230
1.0
  0
SOLID
  5
9004
  8
FUTO
  6
CONTINUOUS
 10
6306.134408163879
 20
7996.5688917007292
 30
0.0
 11
6306.1344081638799
 21
7976.5688917007283
 31
0.0
 12
6346.134408163879
 22
7996.5688917007292
 32
0.0
 13
6346.134408163879
 23
7996.5688917007292
 33
0.0
210
0.0
220
0.0
230
1.0
  0
SOLID
  5
9005
  8
FUTO
  6
CONTINUOUS
 10
6346.134408163879
 20
7996.5688917007301
 30
0.0
 11
6346.134408163879
 21
7976.5688917007283
 31
0.0
 12
6386.134408163879
 22
7996.5688917007292
 32
0.0
 13
6386.134408163879
 23
7996.5688917007292
 33
0.0
210
0.0
220
0.0
230
1.0
  0
SOLID
  5
9006
  8
FUTO
  6
CONTINUOUS
 10
6386.134408163879
 20
7976.5688917007283
 30
0.0
 11
6386.134408163879
 21
7996.5688917007292
 31
0.0
 12
6346.134408163879
 22
7976.5688917007283
 32
0.0
 13
6346.134408163879
 23
7976.5688917007283
 33
0.0
210
0.0
220
0.0
230
1.0
  0
ENDBLK
  5
9008
  8
0
  0
ENDSEC
  0
SECTION
  2
ENTITIES
  0
LINE
  5
522D
  8
CT
 10
6895.7972444312518
 20
9396.5688917007283
 30
0.0
 11
3752.7762861940291
 21
9396.5688917007283
 31
0.0
  0
LINE
  5
522E
  8
CT
 10
5586.134408163879
 20
10549.20075221409
 30
0.0
 11
5586.134408163879
 21
7898.1466000346991
 31
0.0
  0
ARC
  5
5232
  8
KL
 10
5470.1344081638799
 20
9512.5688917007283
 30
0.0
 40
1487.0
 50
184.4741559760561
 51
270.0
  0
ARC
  5
5234
  8
KL
 10
5470.1344081638799
 20
9280.5688917007283
 30
0.0
 40
1255.0
 50
270.0
 51
0.000000000000007
  0
ARC
  5
5238
  8
KL
 10
5683.1344081638799
 20
9299.5688917007283
 30
0.0
 40
1042.0
 50
0.000000000000007
 51
90.0
  0
ARC
  5
5239
  8
KL
 10
5683.1344081638799
 20
9493.5688917007283
 30
0.0
 40
848.0
 50
90.0
 51
123.7047429507289
  0
LINE
  5
523A
  8
FUTO
 10
5544.1344081638808
 20
10441.568891700719
 30
0.0
 11
3888.1344081638799
 21
10441.568891700719
 31
0.0
  0
LINE
  5
523C
  8
KL
 10
5541.1344081638799
 20
10441.568891700719
 30
0.0
 11
5541.1344081638799
 21
10329.59520707602
 31
0.0
  0
LINE
  5
523D
  8
KL
 10
3987.6658587504348
 20
9396.5688917007283
 30
0.0
 11
3891.134408163879
 21
10441.568891700719
 31
0.0
  0
LINE
  5
523F
  8
FUTO
 10
5559.1344081638799
 20
10376.568891700719
 30
0.0
 11
3879.0621223090739
 21
10376.568891700719
 31
0.0
  0
LINE
  5
5251
  8
FUTO
 10
5544.1344081638808
 20
10441.568891700719
 30
0.0
 11
5609.1344081638799
 21
10441.568891700719
 31
0.0
  0
LINE
  5
5252
  8
FUTO
 10
5544.1344081638808
 20
10441.568891700719
 30
0.0
 11
5544.1344081638808
 21
10376.568891700719
 31
0.0
  0
LINE
  5
5253
  8
FUTO
 10
5609.1344081638799
 20
10441.568891700719
 30
0.0
 11
5609.1344081638799
 21
10439.568891700719
 31
0.0
  0
LINE
  5
5254
  8
FUTO
 10
5544.1344081638808
 20
10376.568891700719
 30
0.0
 11
5546.134408163879
 21
10376.568891700719
 31
0.0
  0
LINE
  5
5255
  8
FUTO
 10
5550.1344081638799
 20
10427.068891700719
 30
0.0
 11
5550.1344081638799
 21
10380.568891700719
 31
0.0
  0
LINE
  5
5256
  8
FUTO
 10
5558.6344081638799
 20
10435.568891700719
 30
0.0
 11
5605.1344081638799
 21
10435.568891700719
 31
0.0
  0
ARC
  5
5257
  8
FUTO
 10
5605.1344081638799
 20
10439.568891700719
 30
0.0
 40
4.0
 50
270.0
 51
0.000000000000007
  0
ARC
  5
5258
  8
FUTO
 10
5546.134408163879
 20
10380.568891700719
 30
0.0
 40
4.0
 50
270.0000000000008
 51
0.000000000000007
  0
ARC
  5
5259
  8
FUTO
 10
5558.6344081638799
 20
10427.068891700719
 30
0.0
 40
8.5
 50
90.0
 51
180.0
  0
LINE
  5
525A
  8
FUTO
 10
3888.134408163879
 20
10441.568891700719
 30
0.0
 11
3888.134408163879
 21
10376.568891700719
 31
0.0
  0
LINE
  5
525B
  8
FUTO
 10
3888.134408163879
 20
10441.568891700719
 30
0.0
 11
3823.134408163879
 21
10441.568891700719
 31
0.0
  0
LINE
  5
525C
  8
FUTO
 10
3888.134408163879
 20
10376.568891700719
 30
0.0
 11
3886.134408163879
 21
10376.568891700719
 31
0.0
  0
LINE
  5
525D
  8
FUTO
 10
3823.134408163879
 20
10441.568891700719
 30
0.0
 11
3823.134408163879
 21
10439.568891700719
 31
0.0
  0
LINE
  5
525E
  8
FUTO
 10
3873.6344081638799
 20
10435.568891700719
 30
0.0
 11
3827.134408163879
 21
10435.568891700719
 31
0.0
  0
LINE
  5
525F
  8
FUTO
 10
3882.1344081638799
 20
10427.068891700719
 30
0.0
 11
3882.1344081638799
 21
10380.568891700719
 31
0.0
  0
ARC
  5
5260
  8
FUTO
 10
3886.134408163879
 20
10380.568891700719
 30
0.0
 40
4.0
 50
180.0
 51
270.0
  0
ARC
  5
5261
  8
FUTO
 10
3827.134408163879
 20
10439.568891700719
 30
0.0
 40
4.0
 50
180.0000000000008
 51
270.0
  0
ARC
  5
5262
  8
FUTO
 10
3873.6344081638799
 20
10427.068891700719
 30
0.0
 40
8.5
 50
0.000000000000007
 51
90.0
  0
LINE
  5
5263
  8
FUTO
 10
5544.1344081638808
 20
10435.568891700719
 30
0.0
 11
3888.1344081638799
 21
10435.568891700719
 31
0.0
  0
ARC
  5
5264
  8
FUTO
 10
5683.1344081638799
 20
9493.5688917007283
 30
0.0
 40
866.0
 50
90.0
 51
98.232310315002834
  0
LINE
  5
5265
  8
FUTO
 10
5559.1344081638799
 20
10376.568891700719
 30
0.0
 11
5559.1344081638799
 21
10350.64531769785
 31
0.0
  0
ARC
  5
5266
  8
FUTO
 10
5683.1344081638799
 20
9299.5688917007283
 30
0.0
 40
1060.0
 50
5.7391704772667911
 51
90.0
  0
LINE
  5
5267
  8
KL
 10
6725.1344081638808
 20
9280.5688917007283
 30
0.0
 11
6725.1344081638808
 21
9299.5688917007283
 31
0.0
  0
LINE
  5
5268
  8
FUTO
 10
6743.134408163879
 20
9280.5688917007283
 30
0.0
 11
6743.134408163879
 21
9299.5688917007283
 31
0.0
  0
ARC
  5
5269
  8
FUTO
 10
5470.1344081638799
 20
9280.5688917007283
 30
0.0
 40
1273.0
 50
304.67671570402001
 51
0.000000000000007
  0
ARC
  5
526A
  8
FUTO
 10
5470.1344081638799
 20
9512.5688917007283
 30
0.0
 40
1505.0
 50
233.6567069997165
 51
245.1813907945583
  0
LINE
  5
526B
  8
FUTO
 10
3968.7578529497891
 20
9405.5688917007283
 30
0.0
 11
3879.0621223090739
 21
10376.568891700719
 31
0.0
  0
CIRCLE
  5
526C
  8
KL
 10
5203.134408163879
 20
10213.16947535807
 30
0.0
 40
17.0
  0
LINE
  5
526D
  8
FUTO
 10
4036.1344081638799
 20
7996.5688917007292
 30
0.0
 11
6536.1344081638808
 21
7996.5688917007292
 31
0.0
  0
LINE
  5
526E
  8
FUTO
 10
4036.1344081638799
 20
8146.5688917007292
 30
0.0
 11
6536.1344081638808
 21
8146.5688917007292
 31
0.0
  0
LINE
  5
526F
  8
FUTO
 10
6536.1344081638808
 20
8146.5688917007292
 30
0.0
 11
6536.1344081638808
 21
7996.5688917007292
 31
0.0
  0
LINE
  5
5270
  8
FUTO
 10
4036.1344081638799
 20
8146.5688917007292
 30
0.0
 11
4036.1344081638799
 21
7996.5688917007301
 31
0.0
  0
LINE
  5
5273
  8
FUTO
 10
6526.1344081638799
 20
9926.5688917007283
 30
0.0
 11
6526.1344081638799
 21
9405.5688917007283
 31
0.0
  0
LINE
  5
5274
  8
FUTO
 10
4646.1344081638799
 20
10376.568891700719
 30
0.0
 11
4646.1344081638799
 21
9405.5688917007283
 31
0.0
  0
LINE
  5
5275
  8
FUTO
 10
4655.134408163879
 20
10376.568891700719
 30
0.0
 11
4655.134408163879
 21
9405.5688917007283
 31
0.0
  0
LINE
  5
5276
  8
FUTO
 10
6517.1344081638799
 20
9926.5688917007283
 30
0.0
 11
6517.1344081638799
 21
9405.5688917007283
 31
0.0
  0
LINE
  5
5277
  8
FUTO
 10
6526.1344081638799
 20
9926.5688917007283
 30
0.0
 11
6517.1344081638799
 21
9926.5688917007283
 31
0.0
  0
LINE
  5
52EB
  8
CT
 10
4572.5907654490247
 20
8406.5688917007265
 30
0.0
 11
3943.797687703182
 21
8406.5688917007265
 31
0.0
  0
LINE
  5
52F4
  8
CT
 10
4336.134408163879
 20
7996.5688917007292
 30
0.0
 11
4336.134408163879
 21
8636.6669058973293
 31
0.0
  0
LINE
  5
5391
  8
CT
 10
5731.1344081638799
 20
9276.5688917007283
 30
0.0
 11
5731.1344081638799
 21
9350.5688917007301
 31
0.0
  0
LINE
  5
5393
  8
CT
 10
5441.1344081638799
 20
9276.5688917007283
 30
0.0
 11
5441.1344081638799
 21
9350.5688917007301
 31
0.0
  0
ARC
  5
53C8
  8
FUTO
 10
5409.1344081638799
 20
9327.5688917007283
 30
0.0
 40
3.0
 50
90.0
 51
180.0
  0
LINE
  5
53C9
  8
FUTO
 10
5406.1344081638799
 20
9327.5688917007283
 30
0.0
 11
5406.1344081638799
 21
9296.5688917007283
 31
0.0
  0
ARC
  5
53CA
  8
FUTO
 10
5538.6344081638799
 20
9478.8413050602503
 30
0.0
 40
15.00000000000038
 50
25.471936986187181
 51
214.5280630138071
  0
LINE
  5
53CB
  8
FUTO
 10
5570.4527454660756
 20
9490.2656656848521
 30
0.0
 11
5570.4527454660756
 21
9496.5688917007283
 31
0.0
  0
LINE
  5
53CC
  8
FUTO
 10
5601.8160708616824
 20
9490.2656656848521
 30
0.0
 11
5601.8160708616824
 21
9496.5688917007283
 31
0.0
  0
LINE
  5
53CD
  8
FUTO
 10
5601.8160708616824
 20
9496.5688917007283
 30
0.0
 11
5570.4527454660756
 21
9496.5688917007283
 31
0.0
  0
ARC
  5
53CE
  8
FUTO
 10
5586.134408163879
 20
9396.5688917007283
 30
0.0
 40
95.000000000000057
 50
129.05612602761761
 51
170.94387397238259
  0
LINE
  5
53CF
  8
FUTO
 10
5491.1344081638799
 20
9381.5688917007283
 30
0.0
 11
5491.1344081638799
 21
9346.5688917007283
 31
0.0
  0
LINE
  5
53D0
  8
FUTO
 10
5496.1344081638799
 20
9296.5688917007283
 30
0.0
 11
5496.1344081638799
 21
9299.5688917007283
 31
0.0
  0
ARC
  5
53D1
  8
FUTO
 10
5475.1344081638799
 20
9346.5688917007283
 30
0.0
 40
16.0
 50
270.0
 51
0.000000000000007
  0
ARC
  5
53D2
  8
FUTO
 10
5538.6344081638781
 20
9314.2964783412062
 30
0.0
 40
14.999999999999909
 50
145.47193698619051
 51
334.5280630138152
  0
ARC
  5
53D3
  8
FUTO
 10
5586.134408163879
 20
9396.5688917007283
 30
0.0
 40
95.000000000000966
 50
189.05612602761769
 51
230.9438739723827
  0
ARC
  5
53D4
  8
FUTO
 10
5491.1344081638799
 20
9396.5688917007283
 30
0.0
 40
15.00000000000011
 50
85.471936986191736
 51
274.52806301380838
  0
LINE
  5
53D5
  8
FUTO
 10
5475.1344081638799
 20
9330.5688917007283
 30
0.0
 11
5409.1344081638799
 21
9330.5688917007283
 31
0.0
  0
ARC
  5
53D7
  8
FUTO
 10
5633.634408163879
 20
9478.8413050602503
 30
0.0
 40
15.00000000000006
 50
325.47193698619043
 51
154.52806301381389
  0
ARC
  5
53D8
  8
FUTO
 10
5586.134408163879
 20
9396.5688917007283
 30
0.0
 40
94.999999999999375
 50
9.0561260276173208
 51
50.943873972383258
  0
LINE
  5
53D9
  8
FUTO
 10
5681.1344081638799
 20
9381.5688917007283
 30
0.0
 11
5681.1344081638799
 21
9346.5688917007283
 31
0.0
  0
ARC
  5
53DA
  8
FUTO
 10
5633.6344081638799
 20
9314.2964783412062
 30
0.0
 40
14.99999999999978
 50
205.47193698618639
 51
34.528063013808868
  0
LINE
  5
53DB
  8
FUTO
 10
5676.1344081638799
 20
9296.5688917007283
 30
0.0
 11
5676.1344081638799
 21
9299.5688917007283
 31
0.0
  0
ARC
  5
53DC
  8
FUTO
 10
5586.134408163879
 20
9396.5688917007283
 30
0.0
 40
95.000000000000057
 50
309.05612602761761
 51
350.94387397238319
  0
ARC
  5
53DD
  8
FUTO
 10
5763.1344081638799
 20
9327.5688917007283
 30
0.0
 40
3.0
 50
0.000000000000007
 51
90.0
  0
LINE
  5
53DE
  8
FUTO
 10
5766.1344081638799
 20
9327.5688917007283
 30
0.0
 11
5766.1344081638799
 21
9296.5688917007283
 31
0.0
  0
LINE
  5
53DF
  8
FUTO
 10
5697.134408163879
 20
9330.5688917007283
 30
0.0
 11
5763.1344081638799
 21
9330.5688917007283
 31
0.0
  0
ARC
  5
53E0
  8
FUTO
 10
5697.134408163879
 20
9346.5688917007283
 30
0.0
 40
16.0
 50
180.0
 51
270.0
  0
LINE
  5
53E1
  8
FUTO
 10
5781.1344081638799
 20
9296.5688917007283
 30
0.0
 11
5391.1344081638799
 21
9296.5688917007283
 31
0.0
  0
ARC
  5
53E2
  8
FUTO
 10
5681.1344081638799
 20
9396.5688917007283
 30
0.0
 40
14.999999999999879
 50
265.47193698619083
 51
94.528063013808975
  0
CIRCLE
  5
53E3
  8
FUTO
 10
5586.134408163879
 20
9396.5688917007283
 30
0.0
 40
36.5
  0
LINE
  5
53E4
  8
FUTO
 10
5676.1344081638799
 20
9299.5688917007283
 30
0.0
 11
5496.1344081638799
 21
9299.5688917007283
 31
0.0
  0
ARC
  5
53E5
  8
FUTO
 10
5586.134408163879
 20
9396.5688917007283
 30
0.0
 40
94.999999999998266
 50
249.0561260276169
 51
290.9438739723837
  0
ARC
  5
53E6
  8
FUTO
 10
5586.134408163879
 20
9396.5688917007283
 30
0.0
 40
94.999999999998053
 50
69.056126027617694
 51
110.9438739723836
  0
LINE
  5
53E7
  8
FUTO
 10
8177.3411987796062
 20
9476.5688917007265
 30
0.0
 11
8182.3411987796053
 21
9476.5688917007265
 31
0.0
  0
ARC
  5
53E8
  8
FUTO
 10
8171.3411987796062
 20
9485.5688917007283
 30
0.0
 40
6.0
 50
0.0
 51
90.0
  0
LINE
  5
53E9
  8
FUTO
 10
8162.3411987796053
 20
9491.5688917007283
 30
0.0
 11
8171.3411987796062
 21
9491.5688917007283
 31
0.0
  0
LINE
  5
53EA
  8
FUTO
 10
8182.3411987796053
 20
9316.5688917007283
 30
0.0
 11
8177.3411987796062
 21
9316.5688917007283
 31
0.0
  0
ARC
  5
53EB
  8
FUTO
 10
8171.3411987796062
 20
9307.5688917007283
 30
0.0
 40
6.0
 50
270.0
 51
0.0
  0
ARC
  5
53EC
  8
FUTO
 10
8156.3411987796053
 20
9324.5688917007283
 30
0.0
 40
6.0
 50
0.0
 51
90.0
  0
LINE
  5
53ED
  8
FUTO
 10
8171.3411987796062
 20
9301.5688917007283
 30
0.0
 11
8162.3411987796053
 21
9301.5688917007283
 31
0.0
  0
LINE
  5
53EE
  8
FUTO
 10
8182.3411987796053
 20
9476.5688917007265
 30
0.0
 11
8182.3411987796053
 21
9316.5688917007283
 31
0.0
  0
LINE
  5
53EF
  8
FUTO
 10
8177.3411987796062
 20
9485.5688917007283
 30
0.0
 11
8177.3411987796062
 21
9307.5688917007283
 31
0.0
  0
LINE
  5
53F0
  8
FUTO
 10
8162.3411987796053
 20
9296.5688917007283
 30
0.0
 11
8162.3411987796053
 21
9496.5688917007283
 31
0.0
  0
LINE
  5
53F1
  8
FUTO
 10
8062.3411987796062
 20
9491.5688917007283
 30
0.0
 11
8053.3411987796026
 21
9491.5688917007283
 31
0.0
  0
ARC
  5
53F2
  8
FUTO
 10
8053.3411987796026
 20
9485.5688917007283
 30
0.0
 40
6.0
 50
90.0
 51
180.0
  0
LINE
  5
53F3
  8
FUTO
 10
8047.3411987796053
 20
9476.5688917007265
 30
0.0
 11
8042.3411987796062
 21
9476.5688917007265
 31
0.0
  0
ARC
  5
53F4
  8
FUTO
 10
8068.3411987796044
 20
9324.5688917007283
 30
0.0
 40
6.0
 50
90.0
 51
180.0
  0
ARC
  5
53F5
  8
FUTO
 10
8053.3411987796026
 20
9307.5688917007283
 30
0.0
 40
6.0
 50
180.0
 51
270.0
  0
LINE
  5
53F6
  8
FUTO
 10
8053.3411987796026
 20
9301.5688917007283
 30
0.0
 11
8062.3411987796062
 21
9301.5688917007283
 31
0.0
  0
LINE
  5
53F7
  8
FUTO
 10
8042.3411987796062
 20
9316.5688917007283
 30
0.0
 11
8047.3411987796053
 21
9316.5688917007283
 31
0.0
  0
LINE
  5
53F8
  8
FUTO
 10
8047.3411987796026
 20
9485.5688917007283
 30
0.0
 11
8047.3411987796026
 21
9307.5688917007283
 31
0.0
  0
LINE
  5
53F9
  8
FUTO
 10
8042.3411987796062
 20
9476.5688917007265
 30
0.0
 11
8042.3411987796062
 21
9316.5688917007283
 31
0.0
  0
LINE
  5
53FA
  8
FUTO
 10
8062.3411987796062
 20
9496.5688917007283
 30
0.0
 11
8062.3411987796062
 21
9296.5688917007283
 31
0.0
  0
LINE
  5
53FB
  8
FUTO
 10
8162.3411987796053
 20
9496.5688917007283
 30
0.0
 11
8062.3411987796062
 21
9496.5688917007283
 31
0.0
  0
LINE
  5
53FC
  8
FUTO
 10
8057.3411987796053
 20
9296.5688917007283
 30
0.0
 11
8167.3411987796044
 21
9296.5688917007283
 31
0.0
  0
LINE
  5
53FD
  8
FUTO
 10
8156.3411987796053
 20
9330.5688917007283
 30
0.0
 11
8068.3411987796044
 21
9330.5688917007283
 31
0.0
  0
LINE
  5
53FE
  8
KL
 10
5200.4825352731568
 20
9288.5688917007301
 30
0.0
 11
5971.7862810546021
 21
9288.5688917007283
 31
0.0
  0
LINE
  5
53FF
  8
FUTO
 10
5781.1344081638799
 20
9296.5688917007283
 30
0.0
 11
5781.1344081638799
 21
9288.5688917007283
 31
0.0
  0
LINE
  5
5400
  8
FUTO
 10
5391.1344081638799
 20
9296.5688917007283
 30
0.0
 11
5391.1344081638799
 21
9288.5688917007283
 31
0.0
  0
LINE
  5
5405
  8
FUTO
 10
6211.134408163879
 20
8154.3964387596698
 30
0.0
 11
6211.134408163879
 21
8146.5688917007292
 31
0.0
  0
LINE
  5
5408
  8
FUTO
 10
5971.7862810546021
 20
9288.5688917007283
 30
0.0
 11
6211.134408163879
 21
8154.3964387596698
 31
0.0
  0
LINE
  5
540B
  8
KL
 10
5200.4825352731568
 20
9288.5688917007301
 30
0.0
 11
5056.5308586800547
 21
8606.4410300022955
 31
0.0
  0
LINE
  5
540E
  8
FUTO
 10
4961.134408163879
 20
8154.3964387596698
 30
0.0
 11
4961.134408163879
 21
8146.5688917007292
 31
0.0
  0
LINE
  5
5411
  8
FUTO
 10
6211.134408163879
 20
8146.5688917007292
 30
0.0
 11
6211.134408163879
 21
7996.5688917007292
 31
0.0
  0
LINE
  5
5412
  8
KL
 10
5786.1344081638799
 20
9405.5688917007283
 30
0.0
 11
5786.1344081638799
 21
9387.5688917007283
 31
0.0
  0
LINE
  5
5413
  8
KL
 10
5386.134408163879
 20
9405.5688917007283
 30
0.0
 11
5386.134408163879
 21
9387.5688917007283
 31
0.0
  0
LINE
  5
5414
  8
FUTO
 10
6770.6097090747007
 20
9405.5688917007283
 30
0.0
 11
5966.02781426617
 21
9405.5688917007283
 31
0.0
  0
LINE
  5
5415
  8
FUTO
 10
6770.6097090747007
 20
9387.5688917007283
 30
0.0
 11
5966.02781426617
 21
9387.5688917007283
 31
0.0
  0
LINE
  5
5416
  8
KL
 10
5386.134408163879
 20
9387.5688917007283
 30
0.0
 11
5031.1880106449116
 21
9387.5688917007283
 31
0.0
  0
LINE
  5
5417
  8
KL
 10
5386.134408163879
 20
9405.5688917007283
 30
0.0
 11
5049.7378942374662
 21
9405.5688917007283
 31
0.0
  0
LINE
  5
5418
  8
FUTO
 10
6770.6097090747007
 20
9387.5688917007283
 30
0.0
 11
6770.6097090747007
 21
9405.5688917007283
 31
0.0
  0
LINE
  5
5419
  8
CT
 10
6745.6097090747007
 20
9366.5688917007283
 30
0.0
 11
6745.6097090747007
 21
9426.5688917007283
 31
0.0
  0
ARC
  5
541E
  8
FUTO
 10
5683.1344081638799
 20
9299.5688917007283
 30
0.0
 40
1060.0
 50
0.000000000000007
 51
4.7621116560844801
  0
LINE
  5
541F
  8
FUTO
 10
6526.1344081638799
 20
9387.5688917007283
 30
0.0
 11
6526.1344081638799
 21
8146.5688917007292
 31
0.0
  0
LINE
  5
5420
  8
FUTO
 10
6517.1344081638799
 20
9387.5688917007283
 30
0.0
 11
6517.1344081638799
 21
8146.5688917007292
 31
0.0
  0
LINE
  5
5421
  8
FUTO
 10
3937.6658587504362
 20
9405.5688917007283
 30
0.0
 11
3937.6658587504362
 21
9387.5688917007283
 31
0.0
  0
LINE
  5
5422
  8
FUTO
 10
3962.6658587504348
 20
9426.5688917007283
 30
0.0
 11
3962.6658587504362
 21
9366.5688917007283
 31
0.0
  0
LINE
  5
5425
  8
FUTO
 10
4646.1344081638799
 20
9387.5688917007283
 30
0.0
 11
4646.1344081638799
 21
9013.9296281400202
 31
0.0
  0
LINE
  5
5426
  8
FUTO
 10
4655.134408163879
 20
9387.5688917007283
 30
0.0
 11
4655.134408163879
 21
9022.6628365826346
 31
0.0
  0
ARC
  5
543E
  8
FUTO
 10
5470.1344081638799
 20
9512.5688917007283
 30
0.0
 40
1505.0
 50
184.7642740459097
 51
215.88754955206849
  0
CIRCLE
  5
544F
  8
SL
 10
5586.134408163879
 20
9396.5688917007283
 30
0.0
 40
315.0
  0
ARC
  5
5451
  8
FUTO
 10
5586.134408163879
 20
9396.5688917007283
 30
0.0
 40
380.0
 50
302.62038306565529
 51
134.1380647697145
  0
CIRCLE
  5
5453
  8
SL
 10
4336.134408163879
 20
8406.5688917007265
 30
0.0
 40
132.49999999999989
  0
ARC
  5
5454
  8
FUTO
 10
4336.134408163879
 20
8406.5688917007265
 30
0.0
 40
220.0
 50
134.1380647697145
 51
302.62038306565529
  0
LINE
  5
5455
  8
SL
 10
5363.5853725463066
 20
9619.4969669754428
 30
0.0
 11
4242.5225122295033
 21
8500.3402249512037
 31
0.0
  0
LINE
  5
5456
  8
SL
 10
5752.1591182878628
 20
9128.8735506350931
 30
0.0
 11
4405.9701989303176
 21
8293.9668831572471
 31
0.0
  0
LINE
  5
5457
  8
FUTO
 10
5790.9811809505181
 20
9076.5098351519428
 30
0.0
 11
4454.7299081982492
 21
8221.2715431724828
 31
0.0
  0
LINE
  5
5458
  8
FUTO
 10
5321.5063091757138
 20
9669.2811378979059
 30
0.0
 11
4182.9286666444159
 21
8564.4549289727802
 31
0.0
  0
LINE
  5
5459
  8
CT
 10
7713.3411987796053
 20
9396.5688917007283
 30
0.0
 11
10363.119110596461
 21
9396.5688917007283
 31
0.0
  0
LINE
  5
545A
  8
CT
 10
9593.3411987796062
 20
10764.80027337854
 30
0.0
 11
9593.3411987796062
 21
7753.2805384584699
 31
0.0
  0
LINE
  5
545B
  8
FUTO
 10
10187.341198779601
 20
8146.5688917007292
 30
0.0
 11
8037.3411987796053
 21
8146.5688917007292
 31
0.0
  0
LINE
  5
545C
  8
FUTO
 10
10187.341198779601
 20
7996.5688917007292
 30
0.0
 11
8037.3411987796053
 21
7996.5688917007292
 31
0.0
  0
LINE
  5
5505
  8
FUTO
 10
10187.341198779601
 20
7996.5688917007292
 30
0.0
 11
10262.341198779601
 21
7996.5688917007292
 31
0.0
  0
LINE
  5
5506
  8
FUTO
 10
10197.49257580861
 20
8009.2459243301937
 30
0.0
 11
10258.68982175059
 21
8003.8918590712628
 31
0.0
  0
LINE
  5
5507
  8
FUTO
 10
10187.341198779601
 20
8146.5688917007292
 30
0.0
 11
10262.341198779601
 21
8146.5688917007292
 31
0.0
  0
LINE
  5
5508
  8
FUTO
 10
10197.49257580861
 20
8133.8918590712619
 30
0.0
 11
10258.68982175059
 21
8139.2459243301946
 31
0.0
  0
LINE
  5
5509
  8
FUTO
 10
10193.841198779601
 20
8129.9070802788947
 30
0.0
 11
10193.841198779601
 21
8013.230703122561
 31
0.0
  0
ARC
  5
550A
  8
FUTO
 10
10197.841198779601
 20
8013.230703122561
 30
0.0
 40
4.0
 50
180.0
 51
264.99999999999989
  0
LINE
  5
550B
  8
FUTO
 10
10187.341198779601
 20
8146.5688917007292
 30
0.0
 11
10187.341198779601
 21
7996.5688917007292
 31
0.0
  0
ARC
  5
550C
  8
FUTO
 10
10197.841198779601
 20
8129.9070802788947
 30
0.0
 40
4.0
 50
95.000000000000057
 51
180.0
  0
LINE
  5
550D
  8
FUTO
 10
10262.341198779601
 20
7996.5688917007274
 30
0.0
 11
10262.341198779601
 21
7999.9070802788956
 31
0.0
  0
LINE
  5
550E
  8
FUTO
 10
10262.341198779601
 20
8146.5688917007292
 30
0.0
 11
10262.341198779601
 21
8143.23070312256
 31
0.0
  0
ARC
  5
550F
  8
FUTO
 10
10258.341198779601
 20
8143.23070312256
 30
0.0
 40
4.0
 50
275.00000000000051
 51
359.9999999999921
  0
ARC
  5
5510
  8
FUTO
 10
10258.341198779601
 20
7999.9070802788956
 30
0.0
 40
4.0
 50
0.0000000000078369
 51
84.999999999999503
  0
LINE
  5
5511
  8
FUTO
 10
8037.3411987796053
 20
8146.5688917007292
 30
0.0
 11
7962.3411987796044
 21
8146.5688917007292
 31
0.0
  0
LINE
  5
5512
  8
FUTO
 10
8027.1898217505959
 20
8133.8918590712619
 30
0.0
 11
7965.9925758086156
 21
8139.2459243301946
 31
0.0
  0
LINE
  5
5513
  8
FUTO
 10
8037.3411987796053
 20
7996.5688917007292
 30
0.0
 11
7962.3411987796062
 21
7996.5688917007274
 31
0.0
  0
LINE
  5
5514
  8
FUTO
 10
8027.1898217505959
 20
8009.2459243301937
 30
0.0
 11
7965.9925758086156
 21
8003.8918590712628
 31
0.0
  0
LINE
  5
5515
  8
FUTO
 10
8030.8411987796062
 20
8013.230703122561
 30
0.0
 11
8030.8411987796044
 21
8129.9070802788947
 31
0.0
  0
ARC
  5
5516
  8
FUTO
 10
8026.8411987796053
 20
8129.9070802788947
 30
0.0
 40
4.0
 50
0.0
 51
84.999999999999943
  0
LINE
  5
5517
  8
FUTO
 10
8037.3411987796053
 20
7996.5688917007292
 30
0.0
 11
8037.3411987796053
 21
8146.5688917007292
 31
0.0
  0
ARC
  5
5518
  8
FUTO
 10
8026.8411987796053
 20
8013.230703122561
 30
0.0
 40
4.0
 50
275.0
 51
0.0
  0
LINE
  5
5519
  8
FUTO
 10
7962.3411987796062
 20
8146.5688917007292
 30
0.0
 11
7962.3411987796062
 21
8143.23070312256
 31
0.0
  0
LINE
  5
551A
  8
FUTO
 10
7962.3411987796062
 20
7996.5688917007274
 30
0.0
 11
7962.3411987796062
 21
7999.9070802788956
 31
0.0
  0
ARC
  5
551B
  8
FUTO
 10
7966.3411987796062
 20
7999.9070802788956
 30
0.0
 40
4.0
 50
95.000000000000554
 51
179.9999999999921
  0
ARC
  5
551C
  8
FUTO
 10
7966.3411987796062
 20
8143.23070312256
 30
0.0
 40
4.0
 50
180.00000000000779
 51
264.99999999999949
  0
LINE
  5
551D
  8
FUTO
 10
10187.341198779601
 20
8009.5653917007294
 30
0.0
 11
8037.3411987796053
 21
8009.5653917007294
 31
0.0
  0
LINE
  5
551E
  8
FUTO
 10
10187.341198779601
 20
8133.572391700729
 30
0.0
 11
8037.3411987796053
 21
8133.572391700729
 31
0.0
  0
LINE
  5
551F
  8
FUTO
 10
4036.1344081638799
 20
8009.5653917007294
 30
0.0
 11
6536.1344081638808
 21
8009.5653917007294
 31
0.0
  0
LINE
  5
5520
  8
FUTO
 10
4036.1344081638799
 20
8133.572391700729
 30
0.0
 11
6536.1344081638808
 21
8133.572391700729
 31
0.0
  0
LINE
  5
5521
  8
FUTO
 10
8934.3411987796044
 20
10441.568891700719
 30
0.0
 11
10252.341198779601
 21
10441.568891700719
 31
0.0
  0
LINE
  5
5522
  8
FUTO
 10
9003.3411987796062
 20
10441.568891700719
 30
0.0
 11
9003.3411987796044
 21
9405.5688917007283
 31
0.0
  0
LINE
  5
5523
  8
FUTO
 10
10183.341198779601
 20
10441.568891700719
 30
0.0
 11
10183.341198779601
 21
9405.5688917007283
 31
0.0
  0
LINE
  5
5524
  8
FUTO
 10
10186.5411987796
 20
10441.568891700719
 30
0.0
 11
10186.5411987796
 21
9405.5688917007283
 31
0.0
  0
LINE
  5
5525
  8
FUTO
 10
9000.1411987796073
 20
10441.568891700719
 30
0.0
 11
9000.1411987796073
 21
9405.5688917007283
 31
0.0
  0
LINE
  5
5526
  8
FUTO
 10
8925.1411987796055
 20
10376.568891700719
 30
0.0
 11
10261.5411987796
 21
10376.568891700719
 31
0.0
  0
LINE
  5
5527
  8
FUTO
 10
8934.3411987796044
 20
10435.568891700719
 30
0.0
 11
10252.341198779601
 21
10435.568891700719
 31
0.0
  0
LINE
  5
5528
  8
FUTO
 10
8934.3411987796044
 20
10441.568891700719
 30
0.0
 11
8934.3411987796044
 21
10376.568891700719
 31
0.0
  0
LINE
  5
5529
  8
FUTO
 10
10252.341198779601
 20
10441.568891700719
 30
0.0
 11
10252.341198779601
 21
10376.568891700719
 31
0.0
  0
LINE
  5
552A
  8
FUTO
 10
10261.5411987796
 20
10376.568891700719
 30
0.0
 11
10261.5411987796
 21
9415.5688917007337
 31
0.0
  0
LINE
  5
552B
  8
FUTO
 10
8925.1411987796055
 20
10376.568891700719
 30
0.0
 11
8925.1411987796055
 21
9415.5688917007265
 31
0.0
  0
LINE
  5
552C
  8
KL
 10
9003.3411987796062
 20
8025.5688917007292
 30
0.0
 11
10183.341198779601
 21
8025.5688917007292
 31
0.0
  0
LINE
  5
552D
  8
KL
 10
9000.1411987796073
 20
8007.5688917007283
 30
0.0
 11
9003.3411987796062
 21
8007.5688917007283
 31
0.0
  0
LINE
  5
552E
  8
KL
 10
10183.341198779601
 20
8007.5688917007283
 30
0.0
 11
10186.5411987796
 21
8007.5688917007283
 31
0.0
  0
LINE
  5
552F
  8
KL
 10
9003.3411987796044
 20
8146.5688917007292
 30
0.0
 11
9003.3411987796062
 21
8007.5688917007283
 31
0.0
  0
LINE
  5
5530
  8
KL
 10
9000.1411987796073
 20
8146.5688917007292
 30
0.0
 11
9000.1411987796073
 21
8007.5688917007283
 31
0.0
  0
LINE
  5
5531
  8
KL
 10
10183.341198779601
 20
8146.5688917007292
 30
0.0
 11
10183.341198779601
 21
8007.5688917007283
 31
0.0
  0
LINE
  5
5532
  8
KL
 10
10186.5411987796
 20
8146.5688917007292
 30
0.0
 11
10186.5411987796
 21
8007.5688917007283
 31
0.0
  0
LINE
  5
5533
  8
CT
 10
8792.3411987796062
 20
9556.935849736692
 30
0.0
 11
8792.3411987796062
 21
9224.8898009631957
 31
0.0
  0
LINE
  5
5534
  8
CT
 10
8112.3411987796062
 20
9556.935849736692
 30
0.0
 11
8112.3411987796062
 21
9224.8898009631957
 31
0.0
  0
LINE
  5
5537
  8
CT
 10
8747.3411987796062
 20
9328.5117484799976
 30
0.0
 11
8747.3411987796062
 21
9238.5117484799976
 31
0.0
  0
LINE
  5
5538
  8
CT
 10
8837.3411987796062
 20
9328.5117484799976
 30
0.0
 11
8837.3411987796062
 21
9238.5117484799976
 31
0.0
  0
LINE
  5
5548
  8
FUTO
 10
8819.8411987796062
 20
9516.5688917007283
 30
0.0
 11
8856.3411987796062
 21
9516.5688917007283
 31
0.0
  0
LINE
  5
5549
  8
FUTO
 10
8819.8411987796062
 20
9529.5688917007283
 30
0.0
 11
8819.8411987796062
 21
9316.5688917007283
 31
0.0
  0
LINE
  5
554A
  8
FUTO
 10
8764.8411987796062
 20
9529.5688917007283
 30
0.0
 11
8764.8411987796062
 21
9316.5688917007283
 31
0.0
  0
ARC
  5
554B
  8
FUTO
 10
8859.3411987796062
 20
9313.5688917007283
 30
0.0
 40
3.0
 50
0.0
 51
90.0
  0
ARC
  5
554C
  8
FUTO
 10
8725.341198779608
 20
9313.5688917007283
 30
0.0
 40
3.0
 50
90.000000000000028
 51
180.0
  0
LINE
  5
554D
  8
FUTO
 10
8870.3411987796044
 20
9516.5688917007283
 30
0.0
 11
8856.3411987796062
 21
9516.5688917007283
 31
0.0
  0
LINE
  5
554E
  8
FUTO
 10
8846.3411987796062
 20
9529.5688917007283
 30
0.0
 11
8846.3411987796062
 21
9516.5688917007283
 31
0.0
  0
LINE
  5
554F
  8
FUTO
 10
8728.3411987796062
 20
9516.5688917007283
 30
0.0
 11
8764.8411987796062
 21
9516.5688917007283
 31
0.0
  0
LINE
  5
5550
  8
FUTO
 10
8738.3411987796062
 20
9529.5688917007283
 30
0.0
 11
8738.3411987796062
 21
9516.5688917007283
 31
0.0
  0
LINE
  5
5551
  8
FUTO
 10
8714.3411987796044
 20
9516.5688917007283
 30
0.0
 11
8728.3411987796062
 21
9516.5688917007283
 31
0.0
  0
LINE
  5
5552
  8
FUTO
 10
8738.3411987796062
 20
9529.5688917007283
 30
0.0
 11
8846.3411987796062
 21
9529.5688917007283
 31
0.0
  0
LINE
  5
5553
  8
FUTO
 10
8870.3411987796044
 20
9276.5688917007283
 30
0.0
 11
8862.3411987796062
 21
9276.5688917007283
 31
0.0
  0
LINE
  5
5554
  8
FUTO
 10
8878.3411987796062
 20
9316.5688917007283
 30
0.0
 11
8870.3411987796044
 21
9296.5688917007283
 31
0.0
  0
LINE
  5
5555
  8
FUTO
 10
8862.3411987796062
 20
9313.5688917007283
 30
0.0
 11
8862.3411987796062
 21
9266.5688917007283
 31
0.0
  0
LINE
  5
5556
  8
FUTO
 10
8878.3411987796062
 20
9476.5688917007265
 30
0.0
 11
8878.3411987796062
 21
9316.5688917007283
 31
0.0
  0
LINE
  5
5557
  8
FUTO
 10
8714.3411987796044
 20
9276.5688917007283
 30
0.0
 11
8722.341198779608
 21
9276.5688917007283
 31
0.0
  0
LINE
  5
5558
  8
FUTO
 10
8706.3411987796062
 20
9316.5688917007283
 30
0.0
 11
8714.3411987796044
 21
9296.5688917007283
 31
0.0
  0
LINE
  5
5559
  8
FUTO
 10
8722.341198779608
 20
9313.5688917007283
 30
0.0
 11
8722.341198779608
 21
9266.5688917007283
 31
0.0
  0
LINE
  5
555A
  8
FUTO
 10
8706.3411987796062
 20
9476.5688917007265
 30
0.0
 11
8706.3411987796062
 21
9316.5688917007283
 31
0.0
  0
LINE
  5
555B
  8
FUTO
 10
8725.341198779608
 20
9316.5688917007283
 30
0.0
 11
8859.3411987796062
 21
9316.5688917007283
 31
0.0
  0
LINE
  5
555C
  8
FUTO
 10
8712.3411987796062
 20
9266.5688917007283
 30
0.0
 11
8872.3411987796062
 21
9266.5688917007283
 31
0.0
  0
LINE
  5
555D
  8
FUTO
 10
8856.3411987796062
 20
9516.5688917007283
 30
0.0
 11
8856.3411987796062
 21
9316.5688917007283
 31
0.0
  0
LINE
  5
555E
  8
FUTO
 10
8870.3411987796044
 20
9516.5688917007283
 30
0.0
 11
8870.3411987796044
 21
9276.5688917007283
 31
0.0
  0
LINE
  5
555F
  8
FUTO
 10
8878.3411987796062
 20
9476.5688917007265
 30
0.0
 11
8870.3411987796044
 21
9496.5688917007283
 31
0.0
  0
LINE
  5
5560
  8
FUTO
 10
8706.3411987796062
 20
9476.5688917007265
 30
0.0
 11
8714.3411987796044
 21
9496.5688917007283
 31
0.0
  0
LINE
  5
5561
  8
FUTO
 10
8714.3411987796044
 20
9516.5688917007283
 30
0.0
 11
8714.3411987796044
 21
9276.5688917007283
 31
0.0
  0
LINE
  5
5562
  8
FUTO
 10
8856.3411987796062
 20
9516.5688917007283
 30
0.0
 11
8856.3411987796062
 21
9316.5688917007283
 31
0.0
  0
LINE
  5
5563
  8
FUTO
 10
8728.3411987796062
 20
9516.5688917007283
 30
0.0
 11
8728.3411987796062
 21
9316.5688917007283
 31
0.0
  0
LINE
  5
55BF
  8
FUTO
 10
8187.3411987796062
 20
9288.5688917007283
 30
0.0
 11
8037.3411987796053
 21
9288.5688917007283
 31
0.0
  0
LINE
  5
55C1
  8
FUTO
 10
8187.3411987796062
 20
9288.5688917007283
 30
0.0
 11
8187.3411987796062
 21
9248.5688917007283
 31
0.0
  0
LINE
  5
55C6
  8
FUTO
 10
8037.3411987796053
 20
9288.5688917007283
 30
0.0
 11
8037.3411987796053
 21
8146.5688917007292
 31
0.0
  0
LINE
  5
55CC
  8
FUTO
 10
8057.3411987796053
 20
9296.5688917007283
 30
0.0
 11
8057.3411987796053
 21
9288.5688917007283
 31
0.0
  0
LINE
  5
55CD
  8
FUTO
 10
8167.3411987796044
 20
9296.5688917007283
 30
0.0
 11
8167.3411987796044
 21
9288.5688917007283
 31
0.0
  0
LINE
  5
55DF
  8
FUTO
 10
8702.3411987796062
 20
9258.5688917007283
 30
0.0
 11
8882.3411987796062
 21
9258.5688917007283
 31
0.0
  0
LINE
  5
55E0
  8
FUTO
 10
8882.3411987796062
 20
9258.5688917007283
 30
0.0
 11
8882.3411987796062
 21
8146.5688917007292
 31
0.0
  0
LINE
  5
55E6
  8
FUTO
 10
8702.3411987796062
 20
9258.5688917007283
 30
0.0
 11
8702.3411987796062
 21
9248.5688917007283
 31
0.0
  0
LINE
  5
55ED
  8
FUTO
 10
8712.3411987796062
 20
9266.5688917007283
 30
0.0
 11
8712.3411987796062
 21
9258.5688917007283
 31
0.0
  0
LINE
  5
55EE
  8
FUTO
 10
8872.3411987796062
 20
9266.5688917007283
 30
0.0
 11
8872.3411987796062
 21
9258.5688917007283
 31
0.0
  0
LINE
  5
55F3
  8
FUTO
 10
8702.3411987796062
 20
9248.5688917007283
 30
0.0
 11
8187.3411987796044
 21
9248.5688917007283
 31
0.0
  0
LINE
  5
5600
  8
FUTO
 10
8935.1411987796055
 20
9405.5688917007283
 30
0.0
 11
10251.5411987796
 21
9405.5688917007283
 31
0.0
  0
LINE
  5
5601
  8
FUTO
 10
8935.1411987796055
 20
9387.5688917007283
 30
0.0
 11
10251.5411987796
 21
9387.5688917007283
 31
0.0
  0
LINE
  5
5602
  8
FUTO
 10
8935.1411987796055
 20
9405.5688917007283
 30
0.0
 11
8935.1411987796073
 21
9387.5688917007283
 31
0.0
  0
LINE
  5
5603
  8
FUTO
 10
9003.3411987796044
 20
9387.5688917007283
 30
0.0
 11
9003.3411987796044
 21
8146.5688917007292
 31
0.0
  0
LINE
  5
5604
  8
FUTO
 10
9000.1411987796073
 20
9387.5688917007283
 30
0.0
 11
9000.1411987796073
 21
8146.5688917007292
 31
0.0
  0
LINE
  5
5605
  8
FUTO
 10
10186.5411987796
 20
9387.5688917007283
 30
0.0
 11
10186.5411987796
 21
8146.5688917007292
 31
0.0
  0
LINE
  5
5606
  8
FUTO
 10
10183.341198779601
 20
9387.5688917007283
 30
0.0
 11
10183.341198779601
 21
8146.5688917007292
 31
0.0
  0
LINE
  5
5608
  8
FUTO
 10
10251.5411987796
 20
9405.5688917007283
 30
0.0
 11
10261.5411987796
 21
9415.5688917007337
 31
0.0
  0
LINE
  5
5609
  8
FUTO
 10
10251.5411987796
 20
9387.5688917007283
 30
0.0
 11
10261.5411987796
 21
9377.5688917007283
 31
0.0
  0
LINE
  5
560A
  8
FUTO
 10
10261.5411987796
 20
9377.5688917007283
 30
0.0
 11
10261.5411987796
 21
8146.5688917007292
 31
0.0
  0
LINE
  5
560B
  8
FUTO
 10
8935.1411987796055
 20
9405.5688917007283
 30
0.0
 11
8925.1411987796055
 21
9415.5688917007265
 31
0.0
  0
LINE
  5
560C
  8
FUTO
 10
8935.1411987796055
 20
9387.5688917007283
 30
0.0
 11
8925.1411987796055
 21
9377.5688917007283
 31
0.0
  0
LINE
  5
560D
  8
FUTO
 10
8925.1411987796055
 20
9377.5688917007283
 30
0.0
 11
8925.1411987796055
 21
8146.5688917007292
 31
0.0
  0
LINE
  5
560E
  8
SL
 10
7852.3411987796071
 20
9711.5688917007283
 30
0.0
 11
7852.3411987796044
 21
8274.0688917007283
 31
0.0
  0
LINE
  5
560F
  8
SL
 10
7852.3411987796071
 20
9711.5688917007283
 30
0.0
 11
7930.2411987796058
 21
9711.5688917007283
 31
0.0
  0
LINE
  5
5610
  8
SL
 10
7852.3411987796053
 20
9081.5688917007283
 30
0.0
 11
7930.241198779604
 21
9081.5688917007283
 31
0.0
  0
LINE
  5
5611
  8
SL
 10
7930.2411987796058
 20
9711.5688917007283
 30
0.0
 11
7930.2411987796058
 21
9476.5688917007265
 31
0.0
  0
LINE
  5
5613
  8
SL
 10
7952.3411987796062
 20
9476.5688917007265
 30
0.0
 11
7952.3411987796062
 21
9316.5688917007283
 31
0.0
  0
LINE
  5
5614
  8
SL
 10
7930.2411987796058
 20
9476.5688917007265
 30
0.0
 11
7952.3411987796062
 21
9476.5688917007265
 31
0.0
  0
LINE
  5
5615
  8
SL
 10
7930.2411987796058
 20
9316.5688917007283
 30
0.0
 11
7952.3411987796062
 21
9316.5688917007283
 31
0.0
  0
LINE
  5
5616
  8
SL
 10
7930.2411987796058
 20
9316.5688917007283
 30
0.0
 11
7930.241198779604
 21
9081.5688917007283
 31
0.0
  0
LINE
  5
5617
  8
CT
 10
7713.3411987796017
 20
8406.5688917007265
 30
0.0
 11
8029.3411987796044
 21
8406.5688917007265
 31
0.0
  0
LINE
  5
5618
  8
SL
 10
7852.3411987796044
 20
8539.0688917007265
 30
0.0
 11
7930.241198779604
 21
8539.0688917007265
 31
0.0
  0
LINE
  5
5619
  8
SL
 10
7852.3411987796044
 20
8274.0688917007283
 30
0.0
 11
7930.2411987796031
 21
8274.0688917007283
 31
0.0
  0
LINE
  5
561A
  8
SL
 10
7930.2411987796058
 20
9711.5688917007283
 30
0.0
 11
7930.241198779604
 21
8476.5688917007265
 31
0.0
  0
LINE
  5
561B
  8
SL
 10
7950.3411987796044
 20
8476.5688917007265
 30
0.0
 11
7950.3411987796026
 21
8336.5688917007283
 31
0.0
  0
LINE
  5
561C
  8
SL
 10
7930.2411987796031
 20
8476.5688917007265
 30
0.0
 11
7950.3411987796044
 21
8476.5688917007265
 31
0.0
  0
LINE
  5
561D
  8
SL
 10
7930.2411987796031
 20
8336.5688917007283
 30
0.0
 11
7950.3411987796026
 21
8336.5688917007283
 31
0.0
  0
LINE
  5
561E
  8
SL
 10
7930.241198779604
 20
8336.5688917007283
 30
0.0
 11
7930.2411987796031
 21
8274.0688917007283
 31
0.0
  0
LINE
  5
561F
  8
FUTO
 10
7713.3411987796062
 20
9776.5688917007283
 30
0.0
 11
8002.3411987796071
 21
9776.5688917007283
 31
0.0
  0
LINE
  5
5620
  8
FUTO
 10
7713.3411987796017
 20
8186.5688917007283
 30
0.0
 11
8002.3411987796071
 21
8186.5688917007283
 31
0.0
  0
LINE
  5
5621
  8
FUTO
 10
7713.3411987796062
 20
9776.5688917007283
 30
0.0
 11
7713.3411987796017
 21
8186.5688917007283
 31
0.0
  0
LINE
  5
5622
  8
FUTO
 10
8002.3411987796071
 20
9776.5688917007283
 30
0.0
 11
8002.3411987796071
 21
8186.5688917007283
 31
0.0
  0
LINE
  5
5623
  8
FUTO
 10
8182.3411987796071
 20
9446.5688917007283
 30
0.0
 11
8706.3411987796044
 21
9446.5688917007283
 31
0.0
  0
LINE
  5
5624
  8
FUTO
 10
8182.3411987796071
 20
9346.5688917007283
 30
0.0
 11
8706.3411987796044
 21
9346.5688917007283
 31
0.0
  0
LINE
  5
5625
  8
KL
 10
8878.3411987796062
 20
9446.5688917007283
 30
0.0
 11
9000.1411987796073
 21
9446.5688917007283
 31
0.0
  0
LINE
  5
5626
  8
KL
 10
8878.3411987796062
 20
9346.5688917007283
 30
0.0
 11
9000.1411987796073
 21
9346.5688917007283
 31
0.0
  0
LINE
  5
5627
  8
FUTO
 10
7952.3411987796062
 20
9439.0688917007283
 30
0.0
 11
8042.3411987796062
 21
9439.0688917007283
 31
0.0
  0
LINE
  5
5628
  8
FUTO
 10
7952.3411987796062
 20
9354.0688917007283
 30
0.0
 11
8042.3411987796062
 21
9354.0688917007283
 31
0.0
  0
LINE
  5
5694
  8
FUTO
 10
4036.1344081638799
 20
11777.906029134179
 30
0.0
 11
6211.134408163879
 21
11777.906029134179
 31
0.0
  0
LINE
  5
5695
  8
FUTO
 10
4636.134408163879
 20
14077.906029134179
 30
0.0
 11
6536.134408163879
 21
14077.90602913417
 31
0.0
  0
LINE
  5
5696
  8
FUTO
 10
6536.134408163879
 20
14077.90602913417
 30
0.0
 11
6536.134408163879
 21
14052.90602913417
 31
0.0
  0
LINE
  5
5699
  8
FUTO
 10
3888.134408163879
 20
12814.906029134179
 30
0.0
 11
5544.134408163879
 21
12814.906029134179
 31
0.0
  0
LINE
  5
569A
  8
FUTO
 10
4036.1344081638799
 20
12739.906029134179
 30
0.0
 11
6536.134408163879
 21
12739.906029134179
 31
0.0
  0
LINE
  5
569B
  8
FUTO
 10
4036.1344081638799
 20
11852.906029134179
 30
0.0
 11
6211.134408163879
 21
11852.906029134179
 31
0.0
  0
LINE
  5
569C
  8
FUTO
 10
3888.134408163879
 20
14002.906029134179
 30
0.0
 11
5544.134408163879
 21
14002.90602913417
 31
0.0
  0
LINE
  5
56A0
  8
FUTO
 10
6211.134408163879
 20
12739.906029134179
 30
0.0
 11
6211.134408163879
 21
11777.906029134179
 31
0.0
  0
LINE
  5
56A2
  8
FUTO
 10
6136.134408163879
 20
12739.906029134179
 30
0.0
 11
6136.134408163879
 21
11852.906029134179
 31
0.0
  0
LINE
  5
56A4
  8
FUTO
 10
4961.134408163879
 20
12739.906029134179
 30
0.0
 11
4961.134408163879
 21
11852.906029134179
 31
0.0
  0
LINE
  5
56A6
  8
FUTO
 10
4636.134408163879
 20
14077.90602913417
 30
0.0
 11
4636.134408163879
 21
14067.906029134179
 31
0.0
  0
LINE
  5
56A7
  8
FUTO
 10
5036.134408163879
 20
12739.906029134179
 30
0.0
 11
5036.134408163879
 21
11852.906029134179
 31
0.0
  0
LINE
  5
56A8
  8
FUTO
 10
4036.134408163879
 20
12749.90602913417
 30
0.0
 11
4036.1344081638799
 21
12739.906029134179
 31
0.0
  0
LINE
  5
56A9
  8
FUTO
 10
4036.1344081638799
 20
11852.906029134179
 30
0.0
 11
4036.1344081638799
 21
11777.906029134179
 31
0.0
  0
LINE
  5
56AC
  8
FUTO
 10
4146.134408163879
 20
12739.906029134179
 30
0.0
 11
4146.134408163879
 21
12415.444586762331
 31
0.0
  0
LINE
  5
56AD
  8
FUTO
 10
4211.134408163879
 20
12739.906029134179
 30
0.0
 11
4211.134408163879
 21
12467.40602913417
 31
0.0
  0
LINE
  5
56AE
  8
FUTO
 10
4461.134408163879
 20
12739.906029134179
 30
0.0
 11
4461.134408163879
 21
12467.40602913417
 31
0.0
  0
LINE
  5
56AF
  8
FUTO
 10
4526.1344081638799
 20
12739.906029134179
 30
0.0
 11
4526.1344081638799
 21
12408.30599213417
 31
0.0
  0
LINE
  5
56B0
  8
CT
 10
3811.5479478844582
 20
13408.906029134179
 30
0.0
 11
6936.6504100939428
 21
13408.906029134179
 31
0.0
  0
LINE
  5
69CC
  8
CT
 10
10163.341198779601
 20
10236.568891700719
 30
0.0
 11
10206.5411987796
 21
10236.568891700719
 31
0.0
  0
DIMENSION
  5
6A61
  8
SP
  2
*D3
 10
5586.134408163879
 20
7576.0565815176251
 30
0.0
 11
6061.1344081638799
 21
7663.5565815176242
 31
0.0
 70
     0
 13
6536.1344081638808
 23
7946.5688917007283
 33
0.0
 14
5586.134408163879
 24
7946.5688917007283
 34
0.0
 50
180.0
1001
ACAD
1000
DSTYLE
1002
{
1070
    40
1040
35.0
1070
   147
1040
1.0
1070
    41
1040
2.5
1002
}
  0
DIMENSION
  5
6A6E
  8
SP
  2
*D4
 10
4036.1344081638799
 20
7576.0565815176251
 30
0.0
 11
4811.1344081638799
 21
7663.5565815176242
 31
0.0
 70
     0
 13
5586.134408163879
 23
7826.5688917007283
 33
0.0
 14
4036.1344081638799
 24
7826.5688917007283
 34
0.0
 50
180.0
1001
ACAD
1000
DSTYLE
1002
{
1070
    40
1040
35.0
1070
   147
1040
1.0
1070
    41
1040
2.5
1002
}
  0
DIMENSION
  5
6A7B
  8
SP
  2
*D5
 10
4036.1344081638799
 20
7325.9688375199667
 30
0.0
 11
5286.1344081638799
 21
7413.4688375199667
 31
0.0
 70
     0
 13
6536.1344081638808
 23
7826.5688917007283
 33
0.0
 14
4036.1344081638799
 24
7826.5688917007283
 34
0.0
 50
180.0
1001
ACAD
1000
DSTYLE
1002
{
1070
    40
1040
35.0
1070
   147
1040
1.0
1070
    41
1040
2.5
1002
}
  0
DIMENSION
  5
6A88
  8
SP
  2
*D6
 10
9593.3411987796062
 20
7576.0565581297869
 30
0.0
 11
8777.8411987796062
 21
7663.5565581297869
 31
0.0
 70
     0
 13
7962.3411987796062
 23
7826.5688917007283
 33
0.0
 14
9593.3411987796062
 24
7826.5688917007283
 34
0.0
1001
ACAD
1000
DSTYLE
1002
{
1070
    40
1040
35.0
1070
   147
1040
1.0
1070
    41
1040
2.5
1002
}
  0
DIMENSION
  5
6A95
  8
SP
  2
*D7
 10
10262.341198779601
 20
7576.0565581297869
 30
0.0
 11
9927.8411987796062
 21
7663.5565581297869
 31
0.0
 70
     0
 13
9593.3411987796062
 23
7826.5688917007283
 33
0.0
 14
10262.341198779601
 24
7826.5688917007283
 34
0.0
1001
ACAD
1000
DSTYLE
1002
{
1070
    40
1040
35.0
1070
   147
1040
1.0
1070
    41
1040
2.5
1002
}
  0
DIMENSION
  5
6AA2
  8
SP
  2
*D8
 10
10262.341198779601
 20
7325.9688141321294
 30
0.0
 11
9112.3411987796062
 21
7413.4688141321294
 31
0.0
 70
     0
 13
7962.3411987796062
 23
7826.5688917007283
 33
0.0
 14
10262.341198779601
 24
7826.5688917007283
 34
0.0
1001
ACAD
1000
DSTYLE
1002
{
1070
    40
1040
35.0
1070
   147
1040
1.0
1070
    41
1040
2.5
1002
}
  0
LINE
  5
6AB0
  8
SP
 10
9593.3411987796062
 20
10718.82789382957
 30
0.0
 11
9593.3411987796062
 21
10753.82789382957
 31
0.0
  0
LINE
  5
6ADF
  8
FUTO
 10
10318.341198779601
 20
10261.568891700719
 30
0.0
 11
10318.341198779601
 21
8531.5688917007265
 31
0.0
  0
LINE
  5
6AE1
  8
KL
 10
10186.5411987796
 20
10196.568891700719
 30
0.0
 11
10318.341198779601
 21
10196.568891700719
 31
0.0
  0
LINE
  5
6AE5
  8
KL
 10
10186.5411987796
 20
10261.568891700719
 30
0.0
 11
10192.5411987796
 21
10261.568891700719
 31
0.0
  0
LINE
  5
6AE7
  8
FUTO
 10
10312.341198779601
 20
10261.568891700719
 30
0.0
 11
10312.341198779601
 21
8531.5688917007265
 31
0.0
  0
LINE
  5
6AE8
  8
FUTO
 10
10261.5411987796
 20
10202.568891700719
 30
0.0
 11
10312.341198779601
 21
10202.568891700719
 31
0.0
  0
LINE
  5
6AEA
  8
KL
 10
10192.5411987796
 20
10261.568891700719
 30
0.0
 11
10192.5411987796
 21
9405.5688917007283
 31
0.0
  0
LINE
  5
6AEB
  8
FUTO
 10
10312.341198779601
 20
10261.568891700719
 30
0.0
 11
10318.341198779601
 21
10261.568891700719
 31
0.0
  0
LINE
  5
6AEC
  8
CT
 10
10293.341198779601
 20
10236.568891700719
 30
0.0
 11
10336.5411987796
 21
10236.568891700719
 31
0.0
  0
LINE
  5
6AED
  8
KL
 10
10186.5411987796
 20
8596.5688917007283
 30
0.0
 11
10318.341198779601
 21
8596.5688917007283
 31
0.0
  0
LINE
  5
6AEE
  8
CT
 10
10163.341198779601
 20
8556.5688917007265
 30
0.0
 11
10206.5411987796
 21
8556.5688917007265
 31
0.0
  0
LINE
  5
6AEF
  8
KL
 10
10186.5411987796
 20
8531.5688917007265
 30
0.0
 11
10192.5411987796
 21
8531.5688917007265
 31
0.0
  0
LINE
  5
6AF0
  8
CT
 10
10293.341198779601
 20
8556.5688917007265
 30
0.0
 11
10336.5411987796
 21
8556.5688917007265
 31
0.0
  0
LINE
  5
6AF1
  8
FUTO
 10
10261.5411987796
 20
8590.5688917007283
 30
0.0
 11
10312.341198779601
 21
8590.5688917007283
 31
0.0
  0
LINE
  5
6AF2
  8
FUTO
 10
10312.341198779601
 20
8531.5688917007265
 30
0.0
 11
10318.341198779601
 21
8531.5688917007265
 31
0.0
  0
LINE
  5
6AF3
  8
KL
 10
10192.5411987796
 20
9387.5688917007283
 30
0.0
 11
10192.5411987796
 21
8531.5688917007265
 31
0.0
  0
DIMENSION
  5
6B00
  8
SP
  2
*D9
 10
10318.341198779601
 20
10764.80027337854
 30
0.0
 11
9955.8411987796062
 21
10852.30027337854
 31
0.0
 70
     0
 13
9593.3411987796062
 23
10718.82789382957
 33
0.0
 14
10318.341198779601
 24
10261.568891700719
 34
0.0
1001
ACAD
1000
DSTYLE
1002
{
1070
    40
1040
35.0
1070
   147
1040
1.0
1070
    41
1040
2.5
1002
}
  0
LINE
  5
6E16
  8
SL
 10
8203.5611848340195
 20
9248.5688917007283
 30
0.0
 11
8203.5611848340195
 21
9553.3862503043183
 31
0.0
  0
LINE
  5
6E17
  8
SL
 10
8203.5611848340195
 20
9553.3862503043183
 30
0.0
 11
8689.5165572627811
 21
9553.3862503043183
 31
0.0
  0
LINE
  5
6E18
  8
SL
 10
8689.5165572627811
 20
9553.3862503043183
 30
0.0
 11
8689.5165572627811
 21
9248.5688917007283
 31
0.0
  0
INSERT
  5
6E51
  8
FUTO
  2
右回転矢印
 10
5796.6401079351617
 20
10009.37021594796
 30
0.0
 41
35.0
 42
35.0
 43
35.0
  0
INSERT
  5
6EE2
  8
FUTO
  2
まっすぐの矢印
 10
5189.2169074932845
 20
10672.45541544455
 30
0.0
 41
-35.0
 42
35.0
 43
35.0
  0
INSERT
  5
6EEC
  8
FUTO
  2
まっすぐの矢印
 10
10364.809178350761
 20
9924.2705920442932
 30
0.0
 41
35.0
 42
35.0
 43
35.0
 50
90.0
  0
DIMENSION
  5
6F64
  8
SP
  2
*D10
 10
10597.53459998148
 20
8596.5688917007283
 30
0.0
 11
10510.03459998148
 21
9396.5688917007283
 31
0.0
 70
     0
 13
10318.341198779601
 23
10196.568891700719
 33
0.0
 14
10318.341198779601
 24
8596.5688917007283
 34
0.0
 50
90.0
1001
ACAD
1000
DSTYLE
1002
{
1070
    40
1040
35.0
1070
     3
1000
φ<>
1070
   147
1040
1.0
1070
    41
1040
2.5
1002
}
  0
DIMENSION
  5
6FB2
  8
SP
  2
*D11
 10
9593.3411987796062
 20
10764.80027337854
 30
0.0
 11
8653.3411987796044
 21
10852.30027337854
 31
0.0
 70
     0
 13
7713.3411987796062
 23
9776.5688917007283
 33
0.0
 14
9593.3411987796062
 24
10764.80027337854
 34
0.0
1001
ACAD
1000
DSTYLE
1002
{
1070
    40
1040
35.0
1070
    41
1040
2.5
1070
   147
1040
1.0
1002
}
  0
LINE
  5
6FD7
  8
CT
 10
5586.134408163879
 20
11528.906029134179
 30
0.0
 11
5586.134408163879
 21
14178.683940951039
 31
0.0
  0
LINE
  5
6FDA
  8
FUTO
 10
5966.1344081638781
 20
11528.906029134179
 30
0.0
 11
4132.634408163879
 21
11528.90602913417
 31
0.0
  0
LINE
  5
6FDB
  8
FUTO
 10
5966.1344081638781
 20
11817.906029134179
 30
0.0
 11
4132.634408163879
 21
11817.906029134179
 31
0.0
  0
LINE
  5
6FDC
  8
SL
 10
5901.134408163879
 20
11745.806029134181
 30
0.0
 11
4468.6344081638781
 21
11745.80602913417
 31
0.0
  0
LINE
  5
6FDD
  8
SL
 10
5901.134408163879
 20
11667.906029134179
 30
0.0
 11
4203.6344081638799
 21
11667.90602913417
 31
0.0
  0
LINE
  5
6FE5
  8
SL
 10
4468.6344081638781
 20
11765.90602913417
 30
0.0
 11
4203.6344081638799
 21
11765.90602913417
 31
0.0
  0
LINE
  5
6FE8
  8
FUTO
 10
5966.1344081638781
 20
11528.906029134179
 30
0.0
 11
5966.1344081638781
 21
11817.906029134179
 31
0.0
  0
LINE
  5
6FE9
  8
SL
 10
5506.134408163879
 20
11745.806029134181
 30
0.0
 11
5506.134408163879
 21
11767.906029134179
 31
0.0
  0
LINE
  5
6FEA
  8
SL
 10
5666.134408163879
 20
11745.806029134181
 30
0.0
 11
5666.134408163879
 21
11767.906029134179
 31
0.0
  0
LINE
  5
6FEB
  8
SL
 10
5901.134408163879
 20
11745.806029134181
 30
0.0
 11
5666.134408163879
 21
11745.806029134181
 31
0.0
  0
LINE
  5
6FEC
  8
SL
 10
5506.134408163879
 20
11745.806029134181
 30
0.0
 11
5271.134408163879
 21
11745.806029134181
 31
0.0
  0
LINE
  5
6FED
  8
SL
 10
5271.134408163879
 20
11667.906029134179
 30
0.0
 11
5271.134408163879
 21
11745.806029134181
 31
0.0
  0
LINE
  5
6FEE
  8
SL
 10
5901.134408163879
 20
11667.906029134179
 30
0.0
 11
5901.134408163879
 21
11745.806029134181
 31
0.0
  0
LINE
  5
6FF1
  8
FUTO
 10
5536.134408163879
 20
11997.906029134179
 30
0.0
 11
5536.134408163879
 21
12521.906029134179
 31
0.0
  0
LINE
  5
6FF2
  8
FUTO
 10
5636.134408163879
 20
11997.906029134179
 30
0.0
 11
5636.134408163879
 21
12521.906029134179
 31
0.0
  0
LINE
  5
6FF5
  8
CT
 10
5746.5013661998428
 20
11927.906029134179
 30
0.0
 11
5414.4553174263447
 21
11927.906029134179
 31
0.0
  0
LINE
  5
6FF6
  8
FUTO
 10
5686.134408163879
 20
11877.906029134179
 30
0.0
 11
5486.1344081638799
 21
11877.906029134179
 31
0.0
  0
ARC
  5
6FF7
  8
FUTO
 10
5497.134408163879
 20
11868.906029134179
 30
0.0
 40
6.0
 50
180.0
 51
270.0
  0
LINE
  5
6FF8
  8
FUTO
 10
5486.1344081638799
 20
11977.906029134179
 30
0.0
 11
5686.134408163879
 21
11977.906029134179
 31
0.0
  0
ARC
  5
6FF9
  8
FUTO
 10
5497.134408163879
 20
11986.906029134179
 30
0.0
 40
6.0
 50
90.0
 51
180.0
  0
LINE
  5
6FFD
  8
FUTO
 10
5491.1344081638799
 20
11868.906029134179
 30
0.0
 11
5491.1344081638799
 21
11877.906029134179
 31
0.0
  0
LINE
  5
7000
  8
FUTO
 10
5491.1344081638799
 20
11986.906029134179
 30
0.0
 11
5491.1344081638799
 21
11977.906029134179
 31
0.0
  0
ARC
  5
7001
  8
FUTO
 10
5675.134408163879
 20
11868.906029134179
 30
0.0
 40
6.0
 50
270.0
 51
0.000000000000007
  0
ARC
  5
7002
  8
FUTO
 10
5675.134408163879
 20
11986.906029134179
 30
0.0
 40
6.0
 50
0.000000000000007
 51
90.0
  0
LINE
  5
7004
  8
FUTO
 10
5543.634408163879
 20
11767.906029134179
 30
0.0
 11
5543.634408163879
 21
11857.906029134179
 31
0.0
  0
LINE
  5
7005
  8
FUTO
 10
5628.634408163879
 20
11767.906029134179
 30
0.0
 11
5628.634408163879
 21
11857.906029134179
 31
0.0
  0
LINE
  5
7006
  8
SL
 10
5666.134408163879
 20
11767.906029134179
 30
0.0
 11
5506.134408163879
 21
11767.906029134179
 31
0.0
  0
LINE
  5
7007
  8
FUTO
 10
5666.134408163879
 20
11857.906029134179
 30
0.0
 11
5506.134408163879
 21
11857.906029134179
 31
0.0
  0
LINE
  5
7008
  8
FUTO
 10
5675.1344081638799
 20
11862.906029134179
 30
0.0
 11
5497.1344081638799
 21
11862.906029134179
 31
0.0
  0
LINE
  5
7009
  8
FUTO
 10
5506.134408163879
 20
11857.906029134179
 30
0.0
 11
5506.134408163879
 21
11862.906029134179
 31
0.0
  0
LINE
  5
700B
  8
FUTO
 10
5666.134408163879
 20
11862.906029134179
 30
0.0
 11
5666.134408163879
 21
11857.906029134179
 31
0.0
  0
LINE
  5
700C
  8
FUTO
 10
5675.1344081638799
 20
11992.906029134179
 30
0.0
 11
5497.1344081638799
 21
11992.906029134179
 31
0.0
  0
LINE
  5
700D
  8
FUTO
 10
5666.134408163879
 20
11997.906029134179
 30
0.0
 11
5506.134408163879
 21
11997.906029134179
 31
0.0
  0
LINE
  5
700F
  8
FUTO
 10
5506.134408163879
 20
11997.906029134179
 30
0.0
 11
5506.134408163879
 21
11992.906029134179
 31
0.0
  0
LINE
  5
7010
  8
FUTO
 10
5666.134408163879
 20
11992.906029134179
 30
0.0
 11
5666.134408163879
 21
11997.906029134179
 31
0.0
  0
LINE
  5
7011
  8
FUTO
 10
5686.134408163879
 20
11977.906029134179
 30
0.0
 11
5686.134408163879
 21
11877.906029134179
 31
0.0
  0
LINE
  5
7012
  8
FUTO
 10
5681.134408163879
 20
11877.906029134179
 30
0.0
 11
5681.1344081638799
 21
11868.906029134179
 31
0.0
  0
LINE
  5
7013
  8
FUTO
 10
5681.134408163879
 20
11977.906029134179
 30
0.0
 11
5681.1344081638799
 21
11986.906029134179
 31
0.0
  0
LINE
  5
7015
  8
FUTO
 10
5706.1344081638799
 20
12529.906029134179
 30
0.0
 11
5466.1344081638781
 21
12529.906029134179
 31
0.0
  0
LINE
  5
7016
  8
FUTO
 10
5706.1344081638799
 20
12685.906029134179
 30
0.0
 11
5466.1344081638781
 21
12685.906029134179
 31
0.0
  0
LINE
  5
7018
  8
FUTO
 10
5506.134408163879
 20
12521.906029134179
 30
0.0
 11
5486.134408163879
 21
12529.906029134179
 31
0.0
  0
LINE
  5
701A
  8
FUTO
 10
5506.134408163879
 20
12693.906029134179
 30
0.0
 11
5486.134408163879
 21
12685.906029134179
 31
0.0
  0
LINE
  5
701D
  8
CT
 10
5746.5013661998428
 20
12607.906029134179
 30
0.0
 11
5414.4553174263447
 21
12607.906029134179
 31
0.0
  0
LINE
  5
7022
  8
FUTO
 10
5466.1344081638781
 20
12529.906029134179
 30
0.0
 11
5466.1344081638781
 21
12537.906029134179
 31
0.0
  0
LINE
  5
7024
  8
FUTO
 10
5466.1344081638781
 20
12685.906029134179
 30
0.0
 11
5466.1344081638781
 21
12677.906029134179
 31
0.0
  0
LINE
  5
7026
  8
FUTO
 10
5719.134408163879
 20
12553.906029134179
 30
0.0
 11
5719.134408163879
 21
12661.906029134179
 31
0.0
  0
LINE
  5
7027
  8
FUTO
 10
5706.1344081638799
 20
12543.906029134179
 30
0.0
 11
5466.1344081638781
 21
12543.906029134179
 31
0.0
  0
LINE
  5
7028
  8
FUTO
 10
5666.134408163879
 20
12521.906029134179
 30
0.0
 11
5686.134408163879
 21
12529.906029134179
 31
0.0
  0
LINE
  5
7029
  8
FUTO
 10
5719.134408163879
 20
12580.406029134179
 30
0.0
 11
5453.134408163879
 21
12580.406029134179
 31
0.0
  0
LINE
  5
702A
  8
FUTO
 10
5666.134408163879
 20
12521.906029134179
 30
0.0
 11
5506.134408163879
 21
12521.906029134179
 31
0.0
  0
LINE
  5
702C
  8
FUTO
 10
5706.1344081638799
 20
12529.906029134179
 30
0.0
 11
5706.1344081638799
 21
12543.906029134179
 31
0.0
  0
LINE
  5
702D
  8
FUTO
 10
5719.134408163879
 20
12553.906029134179
 30
0.0
 11
5706.1344081638799
 21
12553.906029134179
 31
0.0
  0
LINE
  5
702E
  8
FUTO
 10
5706.1344081638799
 20
12543.906029134179
 30
0.0
 11
5706.1344081638799
 21
12580.406029134179
 31
0.0
  0
LINE
  5
702F
  8
FUTO
 10
5706.1344081638799
 20
12671.906029134179
 30
0.0
 11
5506.134408163879
 21
12671.906029134179
 31
0.0
  0
LINE
  5
7030
  8
FUTO
 10
5666.134408163879
 20
12693.906029134179
 30
0.0
 11
5686.134408163879
 21
12685.906029134179
 31
0.0
  0
LINE
  5
7031
  8
FUTO
 10
5706.1344081638799
 20
12671.906029134179
 30
0.0
 11
5466.1344081638781
 21
12671.906029134179
 31
0.0
  0
LINE
  5
7032
  8
FUTO
 10
5719.134408163879
 20
12635.406029134179
 30
0.0
 11
5453.134408163879
 21
12635.406029134179
 31
0.0
  0
LINE
  5
7033
  8
KL
 10
5536.134408163879
 20
12693.906029134179
 30
0.0
 11
5536.1344081638799
 21
12815.70602913418
 31
0.0
  0
LINE
  5
7034
  8
KL
 10
5636.134408163879
 20
12693.906029134179
 30
0.0
 11
5636.134408163879
 21
12815.70602913418
 31
0.0
  0
LINE
  5
7035
  8
FUTO
 10
5666.134408163879
 20
12693.906029134179
 30
0.0
 11
5506.134408163879
 21
12693.906029134179
 31
0.0
  0
LINE
  5
703A
  8
FUTO
 10
5719.134408163879
 20
12661.906029134179
 30
0.0
 11
5706.1344081638799
 21
12661.906029134179
 31
0.0
  0
LINE
  5
703B
  8
FUTO
 10
5706.1344081638799
 20
12685.906029134179
 30
0.0
 11
5706.1344081638799
 21
12671.906029134179
 31
0.0
  0
LINE
  5
703C
  8
FUTO
 10
5706.1344081638799
 20
12635.406029134179
 30
0.0
 11
5706.1344081638799
 21
12671.906029134179
 31
0.0
  0
LINE
  5
703F
  8
KL
 10
5577.134408163879
 20
14008.106029134169
 30
0.0
 11
4721.134408163879
 21
14008.106029134169
 31
0.0
  0
LINE
  5
7040
  8
FUTO
 10
6451.1344081638799
 20
14127.906029134179
 30
0.0
 11
4721.134408163879
 21
14127.906029134179
 31
0.0
  0
LINE
  5
7041
  8
FUTO
 10
6451.1344081638799
 20
14133.906029134179
 30
0.0
 11
4721.134408163879
 21
14133.906029134179
 31
0.0
  0
LINE
  5
7045
  8
KL
 10
4721.134408163879
 20
14002.10602913418
 30
0.0
 11
4721.134408163879
 21
14008.10602913418
 31
0.0
  0
LINE
  5
7046
  8
FUTO
 10
4721.134408163879
 20
14127.906029134179
 30
0.0
 11
4721.134408163879
 21
14133.906029134179
 31
0.0
  0
LINE
  5
7047
  8
FUTO
 10
4780.134408163879
 20
14077.10602913418
 30
0.0
 11
4780.134408163879
 21
14127.906029134179
 31
0.0
  0
LINE
  5
7048
  8
KL
 10
4786.134408163879
 20
14002.10602913418
 30
0.0
 11
4786.134408163879
 21
14133.906029134179
 31
0.0
  0
LINE
  5
7049
  8
CT
 10
4746.134408163879
 20
13978.906029134179
 30
0.0
 11
4746.134408163879
 21
14022.10602913418
 31
0.0
  0
LINE
  5
704A
  8
CT
 10
4746.134408163879
 20
14108.906029134179
 30
0.0
 11
4746.134408163879
 21
14152.10602913418
 31
0.0
  0
LINE
  5
704E
  8
KL
 10
6451.1344081638799
 20
14008.10602913418
 30
0.0
 11
5595.134408163879
 21
14008.106029134169
 31
0.0
  0
INSERT
  5
7052
  8
FUTO
  2
まっすぐの矢印
 10
5842.9956604548488
 20
14180.374008705339
 30
0.0
 41
-35.0
 42
35.0
 43
35.0
 50
180.0
  0
LINE
  5
7053
  8
FUTO
 10
6392.1344081638799
 20
14077.10602913418
 30
0.0
 11
6392.1344081638799
 21
14127.906029134179
 31
0.0
  0
LINE
  5
7054
  8
KL
 10
6386.134408163879
 20
14002.10602913418
 30
0.0
 11
6386.134408163879
 21
14133.906029134179
 31
0.0
  0
LINE
  5
7055
  8
CT
 10
6426.134408163879
 20
13978.906029134179
 30
0.0
 11
6426.134408163879
 21
14022.10602913418
 31
0.0
  0
LINE
  5
7056
  8
CT
 10
6426.134408163879
 20
14108.906029134179
 30
0.0
 11
6426.134408163879
 21
14152.10602913418
 31
0.0
  0
LINE
  5
7057
  8
KL
 10
6451.1344081638799
 20
14002.10602913418
 30
0.0
 11
6451.1344081638799
 21
14008.10602913418
 31
0.0
  0
LINE
  5
7058
  8
FUTO
 10
6451.1344081638799
 20
14127.906029134179
 30
0.0
 11
6451.1344081638799
 21
14133.906029134179
 31
0.0
  0
LINE
  5
7096
  8
FUTO
 10
5486.134408163879
 20
11977.906029134179
 30
0.0
 11
5486.134408163879
 21
11877.906029134179
 31
0.0
  0
LINE
  5
7097
  8
FUTO
 10
5453.134408163879
 20
12553.906029134179
 30
0.0
 11
5453.134408163879
 21
12661.906029134179
 31
0.0
  0
LINE
  5
7098
  8
FUTO
 10
5466.1344081638781
 20
12543.906029134179
 30
0.0
 11
5466.1344081638781
 21
12580.406029134179
 31
0.0
  0
LINE
  5
7099
  8
FUTO
 10
5453.134408163879
 20
12553.906029134179
 30
0.0
 11
5466.1344081638781
 21
12553.906029134179
 31
0.0
  0
LINE
  5
709A
  8
FUTO
 10
5466.1344081638781
 20
12529.906029134179
 30
0.0
 11
5466.1344081638781
 21
12543.906029134179
 31
0.0
  0
LINE
  5
709B
  8
FUTO
 10
5466.1344081638781
 20
12635.406029134179
 30
0.0
 11
5466.1344081638781
 21
12671.906029134179
 31
0.0
  0
LINE
  5
709C
  8
FUTO
 10
5466.1344081638781
 20
12685.906029134179
 30
0.0
 11
5466.1344081638781
 21
12671.906029134179
 31
0.0
  0
LINE
  5
709D
  8
FUTO
 10
5453.134408163879
 20
12661.906029134179
 30
0.0
 11
5466.1344081638781
 21
12661.906029134179
 31
0.0
  0
ARC
  5
7D1A
  8
FUTO
 10
4336.134408163879
 20
11768.90602913417
 30
0.0
 40
9.0
 50
0.000000000000007
 51
180.0
  0
LINE
  5
7D1B
  8
FUTO
 10
4327.134408163879
 20
11667.90602913417
 30
0.0
 11
4327.134408163879
 21
11768.90602913417
 31
0.0
  0
LINE
  5
7D1C
  8
FUTO
 10
4345.1344081638781
 20
11667.90602913417
 30
0.0
 11
4345.134408163879
 21
11768.90602913417
 31
0.0
  0
LINE
  5
7D1D
  8
FUTO
 10
4079.1344691638792
 20
12182.405968134181
 30
0.0
 11
4079.1344691638792
 21
12218.40602913417
 31
0.0
  0
LINE
  5
7D1E
  8
FUTO
 10
4076.1344691638792
 20
12182.405968134181
 30
0.0
 11
4076.1344691638792
 21
12218.40602913417
 31
0.0
  0
LINE
  5
7D1F
  8
FUTO
 10
4084.1344691638792
 20
12182.405968134181
 30
0.0
 11
4084.1344691638792
 21
12229.40602913417
 31
0.0
  0
LINE
  5
7D20
  8
FUTO
 10
4126.134408163879
 20
11843.40602913417
 30
0.0
 11
4126.1344081638799
 21
11890.28102913417
 31
0.0
  0
LINE
  5
7D21
  8
FUTO
 10
4178.4427731683554
 20
11838.40602913417
 30
0.0
 11
4131.134408163879
 21
11838.40602913417
 31
0.0
  0
ARC
  5
7D22
  8
FUTO
 10
4131.1344081638781
 20
11843.40602913417
 30
0.0
 40
5.0
 50
180.0
 51
270.0
  0
LINE
  5
7D23
  8
FUTO
 10
4146.4530629454512
 20
11890.28102913417
 30
0.0
 11
4126.1344081638799
 21
11890.28102913417
 31
0.0
  0
LINE
  5
7D24
  8
FUTO
 10
4126.1344081638799
 20
11888.40602913417
 30
0.0
 11
4079.1344691638792
 21
11888.40602913417
 31
0.0
  0
LINE
  5
7D25
  8
FUTO
 10
4126.1344081638799
 20
11885.40602913417
 30
0.0
 11
4076.1344691638792
 21
11885.40602913417
 31
0.0
  0
LINE
  5
7D26
  8
FUTO
 10
4146.3439345955976
 20
11893.40602913417
 30
0.0
 11
4084.1344691638792
 21
11893.40602913417
 31
0.0
  0
LINE
  5
7D27
  8
FUTO
 10
4084.1344691638792
 20
11893.40602913417
 30
0.0
 11
4079.1344691638792
 21
11888.40602913417
 31
0.0
  0
LINE
  5
7D28
  8
FUTO
 10
4051.1344691638792
 20
11928.40602913417
 30
0.0
 11
4051.1344691638792
 21
11968.40602913417
 31
0.0
  0
LINE
  5
7D29
  8
FUTO
 10
4081.1344691638778
 20
11928.40602913417
 30
0.0
 11
4081.1344691638778
 21
11968.40602913417
 31
0.0
  0
LINE
  5
7D2A
  8
FUTO
 10
4051.1344691638792
 20
11968.40602913417
 30
0.0
 11
4081.1344691638778
 21
11968.40602913417
 31
0.0
  0
LINE
  5
7D2B
  8
FUTO
 10
4081.1344691638778
 20
11928.40602913417
 30
0.0
 11
4051.1344691638792
 21
11928.40602913417
 31
0.0
  0
LINE
  5
7D2C
  8
CT
 10
4132.6344081638781
 20
11948.40602913417
 30
0.0
 11
3965.0800261638778
 21
11948.40602913417
 31
0.0
  0
LINE
  5
7D2D
  8
FUTO
 10
3976.6800011638779
 20
11965.995873134179
 30
0.0
 11
3988.7799771638788
 21
11965.995873134179
 31
0.0
  0
LINE
  5
7D2E
  8
FUTO
 10
3976.6800011638779
 20
11930.81618613418
 30
0.0
 11
3988.7799771638788
 21
11930.81618613418
 31
0.0
  0
LINE
  5
7D2F
  8
FUTO
 10
3976.6800011638779
 20
11958.111107134169
 30
0.0
 11
3988.7799771638788
 21
11958.111107134169
 31
0.0
  0
LINE
  5
7D30
  8
FUTO
 10
3976.6800011638779
 20
11938.700951134169
 30
0.0
 11
3988.7799771638788
 21
11938.700951134169
 31
0.0
  0
LINE
  5
7D31
  8
FUTO
 10
3975.0800261638778
 20
11964.39626413417
 30
0.0
 11
3975.0800261638778
 21
11932.41677113418
 31
0.0
  0
LINE
  5
7D32
  8
FUTO
 10
3976.6800011638779
 20
11930.81618613418
 30
0.0
 11
3975.0800261638778
 21
11932.41677113418
 31
0.0
  0
LINE
  5
7D33
  8
FUTO
 10
3976.6800011638779
 20
11938.700951134169
 30
0.0
 11
3975.0800261638778
 21
11937.10134213417
 31
0.0
  0
LINE
  5
7D34
  8
FUTO
 10
3976.6800011638779
 20
11938.700951134169
 30
0.0
 11
3975.0800261638778
 21
11940.30153713417
 31
0.0
  0
LINE
  5
7D35
  8
FUTO
 10
3975.0800261638778
 20
11964.39626413417
 30
0.0
 11
3976.6800011638779
 21
11965.995873134179
 31
0.0
  0
LINE
  5
7D36
  8
FUTO
 10
3976.6800011638779
 20
11958.111107134169
 30
0.0
 11
3975.0800261638778
 21
11959.71169313417
 31
0.0
  0
LINE
  5
7D37
  8
FUTO
 10
3976.6800011638779
 20
11958.111107134169
 30
0.0
 11
3975.0800261638778
 21
11956.51149813417
 31
0.0
  0
LINE
  5
7D38
  8
FUTO
 10
3988.7799771638788
 20
11965.995873134179
 30
0.0
 11
3988.7799771638788
 21
11930.81618613418
 31
0.0
  0
LINE
  5
7D39
  8
FUTO
 10
3988.7799771638788
 20
11939.40602913417
 30
0.0
 11
4051.1344691638792
 21
11939.40602913417
 31
0.0
  0
LINE
  5
7D3A
  8
HOSO
 10
4051.1344691638792
 20
11941.406029134179
 30
0.0
 11
3988.7799161638791
 21
11941.40602913417
 31
0.0
  0
LINE
  5
7D3B
  8
HOSO
 10
3988.7799771638788
 20
11955.40602913417
 30
0.0
 11
4051.1344691638792
 21
11955.40602913417
 31
0.0
  0
LINE
  5
7D3C
  8
FUTO
 10
4051.1344691638792
 20
11957.40602913417
 30
0.0
 11
3988.7799161638791
 21
11957.40602913417
 31
0.0
  0
LINE
  5
7D3D
  8
FUTO
 10
4081.1344691638778
 20
11939.40602913417
 30
0.0
 11
4132.634408163879
 21
11939.40602913417
 31
0.0
  0
LINE
  5
7D3E
  8
HOSO
 10
4132.634408163879
 20
11941.40602913417
 30
0.0
 11
4081.1344691638778
 21
11941.40602913417
 31
0.0
  0
LINE
  5
7D3F
  8
FUTO
 10
4132.634408163879
 20
11957.40602913417
 30
0.0
 11
4081.1344691638778
 21
11957.40602913417
 31
0.0
  0
LINE
  5
7D40
  8
HOSO
 10
4081.1344691638778
 20
11955.40602913417
 30
0.0
 11
4132.634408163879
 21
11955.40602913417
 31
0.0
  0
LINE
  5
7D41
  8
FUTO
 10
4076.1344691638792
 20
11885.40602913417
 30
0.0
 11
4076.1344691638792
 21
11928.40602913417
 31
0.0
  0
LINE
  5
7D42
  8
FUTO
 10
4079.1344691638792
 20
11888.40602913417
 30
0.0
 11
4079.1344691638792
 21
11928.40602913417
 31
0.0
  0
LINE
  5
7D43
  8
FUTO
 10
4084.1344691638792
 20
11893.40602913417
 30
0.0
 11
4084.1344691638792
 21
11939.40602913417
 31
0.0
  0
LINE
  5
7D44
  8
FUTO
 10
4076.1344691638792
 20
11968.40602913417
 30
0.0
 11
4076.1344691638792
 21
12004.40602913417
 31
0.0
  0
LINE
  5
7D45
  8
FUTO
 10
4079.1344691638792
 20
11968.40602913417
 30
0.0
 11
4079.1344691638792
 21
12004.40602913417
 31
0.0
  0
LINE
  5
7D46
  8
FUTO
 10
4084.1344691638792
 20
11957.40602913417
 30
0.0
 11
4084.1344691638792
 21
12004.40602913417
 31
0.0
  0
LINE
  5
7D47
  8
FUTO
 10
4051.1344691638792
 20
12229.40602913417
 30
0.0
 11
3988.7799161638791
 21
12229.40602913417
 31
0.0
  0
LINE
  5
7D48
  8
HOSO
 10
3988.7799771638788
 20
12231.40602913417
 30
0.0
 11
4051.1344691638792
 21
12231.40602913417
 31
0.0
  0
LINE
  5
7D49
  8
HOSO
 10
4051.1344691638792
 20
12245.40602913417
 30
0.0
 11
3988.7799161638791
 21
12245.40602913417
 31
0.0
  0
LINE
  5
7D4A
  8
FUTO
 10
3988.7799771638788
 20
12247.40602913417
 30
0.0
 11
4051.1344691638792
 21
12247.40602913417
 31
0.0
  0
LINE
  5
7D4B
  8
FUTO
 10
3988.7799771638788
 20
12220.816185134179
 30
0.0
 11
3988.7799771638788
 21
12255.99587213417
 31
0.0
  0
LINE
  5
7D4C
  8
FUTO
 10
3976.6800011638779
 20
12228.700951134169
 30
0.0
 11
3975.0800261638778
 21
12230.30056013417
 31
0.0
  0
LINE
  5
7D4D
  8
FUTO
 10
3976.6800011638779
 20
12228.700951134169
 30
0.0
 11
3975.0800261638778
 21
12227.100365134171
 31
0.0
  0
LINE
  5
7D4E
  8
FUTO
 10
3975.0800261638778
 20
12222.415794134169
 30
0.0
 11
3976.6800011638779
 21
12220.816185134179
 31
0.0
  0
LINE
  5
7D4F
  8
FUTO
 10
3976.6800011638779
 20
12248.111107134169
 30
0.0
 11
3975.0800261638778
 21
12246.510521134171
 31
0.0
  0
LINE
  5
7D50
  8
FUTO
 10
3976.6800011638779
 20
12248.111107134169
 30
0.0
 11
3975.0800261638778
 21
12249.71071613417
 31
0.0
  0
LINE
  5
7D51
  8
FUTO
 10
3976.6800011638779
 20
12255.99587213417
 30
0.0
 11
3975.0800261638778
 21
12254.39528713417
 31
0.0
  0
LINE
  5
7D52
  8
FUTO
 10
3975.0800261638778
 20
12222.415794134169
 30
0.0
 11
3975.0800261638778
 21
12254.39528713417
 31
0.0
  0
LINE
  5
7D53
  8
FUTO
 10
3976.6800011638779
 20
12248.111107134169
 30
0.0
 11
3988.7799771638788
 21
12248.111107134169
 31
0.0
  0
LINE
  5
7D54
  8
FUTO
 10
3976.6800011638779
 20
12228.700951134169
 30
0.0
 11
3988.7799771638788
 21
12228.700951134169
 31
0.0
  0
LINE
  5
7D55
  8
FUTO
 10
3976.6800011638779
 20
12255.99587213417
 30
0.0
 11
3988.7799771638788
 21
12255.99587213417
 31
0.0
  0
LINE
  5
7D56
  8
FUTO
 10
3976.6800011638779
 20
12220.816185134179
 30
0.0
 11
3988.7799771638788
 21
12220.816185134179
 31
0.0
  0
LINE
  5
7D57
  8
FUTO
 10
4081.1344691638778
 20
12258.40602913417
 30
0.0
 11
4051.1344691638792
 21
12258.40602913417
 31
0.0
  0
LINE
  5
7D58
  8
FUTO
 10
4051.1344691638792
 20
12218.40602913417
 30
0.0
 11
4081.1344691638778
 21
12218.40602913417
 31
0.0
  0
LINE
  5
7D59
  8
FUTO
 10
4081.1344691638778
 20
12258.40602913417
 30
0.0
 11
4081.1344691638778
 21
12218.40602913417
 31
0.0
  0
LINE
  5
7D5A
  8
FUTO
 10
4051.1344691638792
 20
12258.40602913417
 30
0.0
 11
4051.1344691638792
 21
12218.40602913417
 31
0.0
  0
LINE
  5
7D5B
  8
HOSO
 10
4081.1344691638778
 20
12231.40602913417
 30
0.0
 11
4132.634408163879
 21
12231.40602913417
 31
0.0
  0
LINE
  5
7D5C
  8
FUTO
 10
4132.634408163879
 20
12229.40602913417
 30
0.0
 11
4081.1344691638778
 21
12229.40602913417
 31
0.0
  0
LINE
  5
7D5D
  8
HOSO
 10
4132.634408163879
 20
12245.40602913417
 30
0.0
 11
4081.1344691638778
 21
12245.40602913417
 31
0.0
  0
LINE
  5
7D5E
  8
FUTO
 10
4081.1344691638778
 20
12247.40602913417
 30
0.0
 11
4132.634408163879
 21
12247.40602913417
 31
0.0
  0
LINE
  5
7D5F
  8
CT
 10
4132.6344081638781
 20
12238.40602913417
 30
0.0
 11
3965.0800261638778
 21
12238.40602913417
 31
0.0
  0
LINE
  5
7D60
  8
FUTO
 10
4084.1344691638792
 20
12293.40602913417
 30
0.0
 11
4079.1344691638792
 21
12298.40602913417
 31
0.0
  0
LINE
  5
7D61
  8
FUTO
 10
4126.1344081638799
 20
12301.40602913417
 30
0.0
 11
4076.1344691638792
 21
12301.40602913417
 31
0.0
  0
LINE
  5
7D62
  8
FUTO
 10
4126.1344081638799
 20
12298.40602913417
 30
0.0
 11
4079.1344691638792
 21
12298.40602913417
 31
0.0
  0
LINE
  5
7D63
  8
FUTO
 10
4132.634408163879
 20
12296.53102913417
 30
0.0
 11
4126.1344081638799
 21
12296.53102913417
 31
0.0
  0
LINE
  5
7D64
  8
FUTO
 10
4132.634408163879
 20
12293.40602913417
 30
0.0
 11
4084.1344691638792
 21
12293.40602913417
 31
0.0
  0
LINE
  5
7D65
  8
FUTO
 10
4084.1344691638792
 20
12293.40602913417
 30
0.0
 11
4084.1344691638792
 21
12247.40602913417
 31
0.0
  0
LINE
  5
7D66
  8
FUTO
 10
4079.1344691638792
 20
12298.40602913417
 30
0.0
 11
4079.1344691638792
 21
12258.40602913417
 31
0.0
  0
LINE
  5
7D67
  8
FUTO
 10
4076.1344691638792
 20
12301.40602913417
 30
0.0
 11
4076.1344691638792
 21
12258.40602913417
 31
0.0
  0
ARC
  5
7D68
  8
FUTO
 10
4131.134408163879
 20
12343.40602913417
 30
0.0
 40
5.0
 50
89.999999999999986
 51
180.0
  0
LINE
  5
7D69
  8
FUTO
 10
4126.134408163879
 20
12343.40602913417
 30
0.0
 11
4126.1344081638799
 21
12296.53102913417
 31
0.0
  0
LINE
  5
7D6A
  8
FUTO
 10
4143.634408163879
 20
12348.40602913417
 30
0.0
 11
4131.134408163879
 21
12348.40602913417
 31
0.0
  0
LINE
  5
7D6B
  8
CT
 10
4539.634408163879
 20
12238.40602913417
 30
0.0
 11
4707.1887901638784
 21
12238.40602913417
 31
0.0
  0
LINE
  5
7D6C
  8
FUTO
 10
4591.1343471638793
 20
12247.40602913417
 30
0.0
 11
4539.6344081638781
 21
12247.40602913417
 31
0.0
  0
LINE
  5
7D6D
  8
HOSO
 10
4539.6344081638781
 20
12245.40602913417
 30
0.0
 11
4591.1343471638793
 21
12245.40602913417
 31
0.0
  0
LINE
  5
7D6E
  8
FUTO
 10
4539.6344081638781
 20
12229.40602913417
 30
0.0
 11
4591.1343471638793
 21
12229.40602913417
 31
0.0
  0
LINE
  5
7D6F
  8
HOSO
 10
4591.1343471638793
 20
12231.40602913417
 30
0.0
 11
4539.6344081638781
 21
12231.40602913417
 31
0.0
  0
LINE
  5
7D70
  8
FUTO
 10
4621.1343471638793
 20
12258.40602913417
 30
0.0
 11
4621.1343471638793
 21
12218.40602913417
 31
0.0
  0
LINE
  5
7D71
  8
FUTO
 10
4591.1343471638793
 20
12258.40602913417
 30
0.0
 11
4591.1343471638793
 21
12218.40602913417
 31
0.0
  0
LINE
  5
7D72
  8
FUTO
 10
4621.1343471638793
 20
12218.40602913417
 30
0.0
 11
4591.1343471638793
 21
12218.40602913417
 31
0.0
  0
LINE
  5
7D73
  8
FUTO
 10
4591.1343471638793
 20
12258.40602913417
 30
0.0
 11
4621.1343471638793
 21
12258.40602913417
 31
0.0
  0
LINE
  5
7D74
  8
FUTO
 10
4695.5888151638792
 20
12220.81618513417
 30
0.0
 11
4683.4888391638769
 21
12220.81618513417
 31
0.0
  0
LINE
  5
7D75
  8
FUTO
 10
4695.5888151638792
 20
12255.99587213417
 30
0.0
 11
4683.4888391638769
 21
12255.99587213417
 31
0.0
  0
LINE
  5
7D76
  8
FUTO
 10
4695.5888151638792
 20
12228.700951134169
 30
0.0
 11
4683.4888391638769
 21
12228.700951134169
 31
0.0
  0
LINE
  5
7D77
  8
FUTO
 10
4695.5888151638792
 20
12248.111107134169
 30
0.0
 11
4683.4888391638769
 21
12248.111107134169
 31
0.0
  0
LINE
  5
7D78
  8
FUTO
 10
4697.1887901638784
 20
12222.415794134169
 30
0.0
 11
4697.1887901638784
 21
12254.39528713417
 31
0.0
  0
LINE
  5
7D79
  8
FUTO
 10
4695.5888151638792
 20
12255.99587213417
 30
0.0
 11
4697.1887901638784
 21
12254.39528713417
 31
0.0
  0
LINE
  5
7D7A
  8
FUTO
 10
4695.5888151638792
 20
12248.111107134169
 30
0.0
 11
4697.1887901638784
 21
12249.71071613417
 31
0.0
  0
LINE
  5
7D7B
  8
FUTO
 10
4695.5888151638792
 20
12248.111107134169
 30
0.0
 11
4697.1887901638784
 21
12246.510521134171
 31
0.0
  0
LINE
  5
7D7C
  8
FUTO
 10
4697.1887901638784
 20
12222.415794134169
 30
0.0
 11
4695.5888151638792
 21
12220.81618513417
 31
0.0
  0
LINE
  5
7D7D
  8
FUTO
 10
4695.5888151638792
 20
12228.700951134169
 30
0.0
 11
4697.1887901638784
 21
12227.100365134171
 31
0.0
  0
LINE
  5
7D7E
  8
FUTO
 10
4695.5888151638792
 20
12228.700951134169
 30
0.0
 11
4697.1887901638784
 21
12230.30056013417
 31
0.0
  0
LINE
  5
7D7F
  8
FUTO
 10
4683.4888391638769
 20
12220.81618513417
 30
0.0
 11
4683.4888391638769
 21
12255.99587213417
 31
0.0
  0
LINE
  5
7D80
  8
FUTO
 10
4683.4888391638769
 20
12247.40602913417
 30
0.0
 11
4621.1343471638793
 21
12247.40602913417
 31
0.0
  0
LINE
  5
7D81
  8
HOSO
 10
4621.1343471638793
 20
12245.40602913417
 30
0.0
 11
4683.4889001638794
 21
12245.40602913417
 31
0.0
  0
LINE
  5
7D82
  8
HOSO
 10
4683.4888391638769
 20
12231.40602913417
 30
0.0
 11
4621.1343471638793
 21
12231.40602913417
 31
0.0
  0
LINE
  5
7D83
  8
FUTO
 10
4621.1343471638793
 20
12229.40602913417
 30
0.0
 11
4683.4889001638794
 21
12229.40602913417
 31
0.0
  0
LINE
  5
7D84
  8
FUTO
 10
4596.1343471638793
 20
12301.40602913417
 30
0.0
 11
4596.1343471638793
 21
12258.40602913417
 31
0.0
  0
LINE
  5
7D85
  8
FUTO
 10
4593.1343471638793
 20
12298.40602913417
 30
0.0
 11
4593.1343471638793
 21
12258.40602913417
 31
0.0
  0
LINE
  5
7D86
  8
FUTO
 10
4588.1343471638793
 20
12293.40602913417
 30
0.0
 11
4588.1343471638793
 21
12247.40602913417
 31
0.0
  0
LINE
  5
7D87
  8
FUTO
 10
4528.6344081638781
 20
12348.40602913417
 30
0.0
 11
4541.1344081638781
 21
12348.40602913417
 31
0.0
  0
LINE
  5
7D88
  8
FUTO
 10
4539.6344081638781
 20
12293.40602913417
 30
0.0
 11
4588.1343471638793
 21
12293.40602913417
 31
0.0
  0
LINE
  5
7D89
  8
FUTO
 10
4539.6344081638781
 20
12296.53102913417
 30
0.0
 11
4546.134408163879
 21
12296.53102913417
 31
0.0
  0
LINE
  5
7D8A
  8
FUTO
 10
4546.134408163879
 20
12343.40602913417
 30
0.0
 11
4546.134408163879
 21
12296.53102913417
 31
0.0
  0
LINE
  5
7D8B
  8
FUTO
 10
4546.134408163879
 20
12298.40602913417
 30
0.0
 11
4593.1343471638793
 21
12298.40602913417
 31
0.0
  0
LINE
  5
7D8C
  8
FUTO
 10
4546.134408163879
 20
12301.40602913417
 30
0.0
 11
4596.1343471638793
 21
12301.40602913417
 31
0.0
  0
ARC
  5
7D8D
  8
FUTO
 10
4541.134408163879
 20
12343.40602913417
 30
0.0
 40
5.0
 50
0.000000000000007
 51
89.999999999999986
  0
LINE
  5
7D8E
  8
FUTO
 10
4588.1343471638793
 20
12293.40602913417
 30
0.0
 11
4593.1343471638793
 21
12298.40602913417
 31
0.0
  0
LINE
  5
7D8F
  8
FUTO
 10
4525.815753382306
 20
11890.28102913417
 30
0.0
 11
4546.134408163879
 21
11890.28102913417
 31
0.0
  0
LINE
  5
7D90
  8
FUTO
 10
4588.1343471638793
 20
11957.40602913417
 30
0.0
 11
4588.1343471638793
 21
12229.40602913417
 31
0.0
  0
LINE
  5
7D91
  8
FUTO
 10
4588.1343471638793
 20
11893.40602913417
 30
0.0
 11
4593.1343471638793
 21
11888.40602913417
 31
0.0
  0
LINE
  5
7D92
  8
FUTO
 10
4588.1343471638793
 20
11893.40602913417
 30
0.0
 11
4588.1343471638793
 21
11939.40602913417
 31
0.0
  0
LINE
  5
7D93
  8
FUTO
 10
4525.9248817321604
 20
11893.40602913417
 30
0.0
 11
4588.1343471638793
 21
11893.40602913417
 31
0.0
  0
ARC
  5
7D94
  8
FUTO
 10
4541.134408163879
 20
11843.40602913417
 30
0.0
 40
5.0
 50
270.0
 51
0.000000000000007
  0
LINE
  5
7D95
  8
FUTO
 10
4546.134408163879
 20
11885.40602913417
 30
0.0
 11
4596.1343471638793
 21
11885.40602913417
 31
0.0
  0
LINE
  5
7D96
  8
FUTO
 10
4546.134408163879
 20
11888.40602913417
 30
0.0
 11
4593.1343471638793
 21
11888.40602913417
 31
0.0
  0
LINE
  5
7D97
  8
FUTO
 10
4493.8260431594017
 20
11838.40602913417
 30
0.0
 11
4541.1344081638781
 21
11838.40602913417
 31
0.0
  0
LINE
  5
7D98
  8
FUTO
 10
4546.134408163879
 20
11843.40602913417
 30
0.0
 11
4546.134408163879
 21
11890.28102913417
 31
0.0
  0
LINE
  5
7D99
  8
FUTO
 10
4593.1343471638793
 20
11968.40602913417
 30
0.0
 11
4593.1343471638793
 21
12218.40602913417
 31
0.0
  0
LINE
  5
7D9A
  8
FUTO
 10
4596.1343471638793
 20
11968.40602913417
 30
0.0
 11
4596.1343471638793
 21
12218.40602913417
 31
0.0
  0
LINE
  5
7D9B
  8
FUTO
 10
4593.1343471638793
 20
11888.40602913417
 30
0.0
 11
4593.1343471638793
 21
11928.40602913417
 31
0.0
  0
LINE
  5
7D9C
  8
FUTO
 10
4596.1343471638793
 20
11885.40602913417
 30
0.0
 11
4596.1343471638793
 21
11928.40602913417
 31
0.0
  0
LINE
  5
7D9D
  8
HOSO
 10
4591.1343471638793
 20
11955.40602913417
 30
0.0
 11
4539.6344081638781
 21
11955.40602913417
 31
0.0
  0
LINE
  5
7D9E
  8
FUTO
 10
4539.6344081638781
 20
11957.40602913417
 30
0.0
 11
4591.1343471638793
 21
11957.40602913417
 31
0.0
  0
LINE
  5
7D9F
  8
HOSO
 10
4539.6344081638781
 20
11941.40602913417
 30
0.0
 11
4591.1343471638793
 21
11941.40602913417
 31
0.0
  0
LINE
  5
7DA0
  8
FUTO
 10
4591.1343471638793
 20
11939.40602913417
 30
0.0
 11
4539.6344081638781
 21
11939.40602913417
 31
0.0
  0
LINE
  5
7DA1
  8
FUTO
 10
4621.1343471638793
 20
11957.40602913417
 30
0.0
 11
4683.4889001638794
 21
11957.40602913417
 31
0.0
  0
LINE
  5
7DA2
  8
HOSO
 10
4683.4888391638769
 20
11955.40602913417
 30
0.0
 11
4621.1343471638793
 21
11955.40602913417
 31
0.0
  0
LINE
  5
7DA3
  8
HOSO
 10
4621.1343471638793
 20
11941.406029134179
 30
0.0
 11
4683.4889001638794
 21
11941.40602913417
 31
0.0
  0
LINE
  5
7DA4
  8
FUTO
 10
4683.4888391638769
 20
11939.40602913417
 30
0.0
 11
4621.1343471638793
 21
11939.40602913417
 31
0.0
  0
LINE
  5
7DA5
  8
FUTO
 10
4683.4888391638769
 20
11965.99587313417
 30
0.0
 11
4683.4888391638769
 21
11930.81618613417
 31
0.0
  0
LINE
  5
7DA6
  8
FUTO
 10
4695.5888151638792
 20
11958.111107134169
 30
0.0
 11
4697.1887901638784
 21
11956.51149813417
 31
0.0
  0
LINE
  5
7DA7
  8
FUTO
 10
4695.5888151638792
 20
11958.111107134169
 30
0.0
 11
4697.1887901638784
 21
11959.71169313417
 31
0.0
  0
LINE
  5
7DA8
  8
FUTO
 10
4697.1887901638784
 20
11964.39626413417
 30
0.0
 11
4695.5888151638792
 21
11965.99587313417
 31
0.0
  0
LINE
  5
7DA9
  8
FUTO
 10
4695.5888151638792
 20
11938.700951134169
 30
0.0
 11
4697.1887901638784
 21
11940.30153713417
 31
0.0
  0
LINE
  5
7DAA
  8
FUTO
 10
4695.5888151638792
 20
11938.700951134169
 30
0.0
 11
4697.1887901638784
 21
11937.10134213417
 31
0.0
  0
LINE
  5
7DAB
  8
FUTO
 10
4695.5888151638792
 20
11930.81618613417
 30
0.0
 11
4697.1887901638784
 21
11932.416771134171
 31
0.0
  0
LINE
  5
7DAC
  8
FUTO
 10
4697.1887901638784
 20
11964.39626413417
 30
0.0
 11
4697.1887901638784
 21
11932.416771134171
 31
0.0
  0
LINE
  5
7DAD
  8
FUTO
 10
4695.5888151638792
 20
11938.700951134169
 30
0.0
 11
4683.4888391638769
 21
11938.700951134169
 31
0.0
  0
LINE
  5
7DAE
  8
FUTO
 10
4695.5888151638792
 20
11958.111107134169
 30
0.0
 11
4683.4888391638769
 21
11958.111107134169
 31
0.0
  0
LINE
  5
7DAF
  8
FUTO
 10
4695.5888151638792
 20
11930.81618613417
 30
0.0
 11
4683.4888391638769
 21
11930.81618613417
 31
0.0
  0
LINE
  5
7DB0
  8
FUTO
 10
4695.5888151638792
 20
11965.99587313417
 30
0.0
 11
4683.4888391638769
 21
11965.99587313417
 31
0.0
  0
LINE
  5
7DB1
  8
CT
 10
4539.634408163879
 20
11948.40602913417
 30
0.0
 11
4707.1887901638784
 21
11948.40602913417
 31
0.0
  0
LINE
  5
7DB2
  8
FUTO
 10
4591.1343471638793
 20
11928.40602913417
 30
0.0
 11
4621.1343471638793
 21
11928.40602913417
 31
0.0
  0
LINE
  5
7DB3
  8
FUTO
 10
4621.1343471638793
 20
11968.40602913417
 30
0.0
 11
4591.1343471638793
 21
11968.40602913417
 31
0.0
  0
LINE
  5
7DB4
  8
FUTO
 10
4591.1343471638793
 20
11928.40602913417
 30
0.0
 11
4591.1343471638793
 21
11968.40602913417
 31
0.0
  0
LINE
  5
7DB5
  8
FUTO
 10
4621.1343471638793
 20
11928.40602913417
 30
0.0
 11
4621.1343471638793
 21
11968.40602913417
 31
0.0
  0
ARC
  5
7DB6
  8
FUTO
 10
4004.5052581638779
 20
12155.40596813417
 30
0.0
 40
20.0
 50
89.999999999999986
 51
180.0
  0
ARC
  5
7DB7
  8
FUTO
 10
4004.5052581638788
 20
12031.40602913417
 30
0.0
 40
20.0
 50
180.0
 51
270.0
  0
ARC
  5
7DB8
  8
FUTO
 10
3994.5052581638788
 20
12014.40602913417
 30
0.0
 40
10.0
 50
180.0
 51
270.0
  0
ARC
  5
7DB9
  8
FUTO
 10
3994.5052581638788
 20
12172.40596813417
 30
0.0
 40
10.0
 50
89.999999999999986
 51
180.0
  0
ARC
  5
7DBA
  8
FUTO
 10
4097.3619830627704
 20
12014.40602913417
 30
0.0
 40
10.0
 50
270.0
 51
0.000000000000007
  0
ARC
  5
7DBB
  8
FUTO
 10
4094.1948675244371
 20
12014.40602913417
 30
0.0
 40
10.0
 50
270.0
 51
0.000000000000007
  0
ARC
  5
7DBC
  8
FUTO
 10
4097.3619830627704
 20
12172.40596813417
 30
0.0
 40
10.0
 50
0.000000000000007
 51
89.999999999999986
  0
ARC
  5
7DBD
  8
FUTO
 10
4094.1948675244371
 20
12172.40596813417
 30
0.0
 40
10.0
 50
0.000000000000007
 51
89.999999999999986
  0
LINE
  5
7DBE
  8
FUTO
 10
4096.9982642449813
 20
12011.40602913417
 30
0.0
 11
4004.5052581638788
 21
12011.40602913417
 31
0.0
  0
LINE
  5
7DBF
  8
FUTO
 10
4096.9982642449813
 20
12175.40596813417
 30
0.0
 11
4004.5052581638788
 21
12175.40596813417
 31
0.0
  0
ARC
  5
7DC0
  8
FUTO
 10
4111.1344081638781
 20
12016.40602913417
 30
0.0
 40
5.0
 50
270.0
 51
0.000000000000007
  0
ARC
  5
7DC1
  8
FUTO
 10
4111.1344081638781
 20
12170.40596813417
 30
0.0
 40
5.0
 50
0.000000000000007
 51
89.999999999999986
  0
ARC
  5
7DC2
  8
FUTO
 10
4096.9982642449813
 20
12016.40602913417
 30
0.0
 40
5.0
 50
270.0
 51
0.000000000000007
  0
ARC
  5
7DC3
  8
FUTO
 10
4096.9982642449813
 20
12170.40596813417
 30
0.0
 40
5.0
 50
0.000000000000007
 51
89.999999999999986
  0
LINE
  5
7DC4
  8
FUTO
 10
4097.3619830627704
 20
12004.40602913417
 30
0.0
 11
3994.5052581638788
 21
12004.40602913417
 31
0.0
  0
LINE
  5
7DC5
  8
FUTO
 10
4111.134408163879
 20
12011.40602913417
 30
0.0
 11
4107.3619830627704
 21
12011.40602913417
 31
0.0
  0
LINE
  5
7DC6
  8
FUTO
 10
4097.3619830627704
 20
12182.405968134181
 30
0.0
 11
3994.5052581638788
 21
12182.405968134181
 31
0.0
  0
LINE
  5
7DC7
  8
FUTO
 10
4111.134408163879
 20
12175.40596813417
 30
0.0
 11
4107.3619830627704
 21
12175.40596813417
 31
0.0
  0
LINE
  5
7DC8
  8
FUTO
 10
4132.6344081638781
 20
12153.40602913417
 30
0.0
 11
4132.6344081638781
 21
12260.21679988321
 31
0.0
  0
LINE
  5
7DC9
  8
FUTO
 10
4116.134408163879
 20
12033.40602913417
 30
0.0
 11
4183.8608057240599
 21
12033.40602913417
 31
0.0
  0
LINE
  5
7DCA
  8
FUTO
 10
4116.134408163879
 20
12153.40602913417
 30
0.0
 11
4183.8608057240599
 21
12153.40602913417
 31
0.0
  0
LINE
  5
7DCB
  8
FUTO
 10
4025.8150721638781
 20
12031.40602913417
 30
0.0
 11
4025.815072163879
 21
12155.40596813417
 31
0.0
  0
LINE
  5
7DCC
  8
FUTO
 10
4101.9982642449813
 20
12016.40602913417
 30
0.0
 11
4101.9982642449813
 21
12170.40596813417
 31
0.0
  0
LINE
  5
7DCD
  8
FUTO
 10
4104.1948675244366
 20
12014.40602913417
 30
0.0
 11
4104.1948675244366
 21
12172.40596813417
 31
0.0
  0
LINE
  5
7DCE
  8
FUTO
 10
4107.3619830627704
 20
12014.40602913417
 30
0.0
 11
4107.3619830627704
 21
12172.40596813417
 31
0.0
  0
LINE
  5
7DCF
  8
FUTO
 10
4116.134408163879
 20
12016.40602913417
 30
0.0
 11
4116.134408163879
 21
12170.40596813417
 31
0.0
  0
LINE
  5
7DD0
  8
FUTO
 10
4126.1344081638781
 20
12033.40602913417
 30
0.0
 11
4126.1344081638781
 21
12153.40602913417
 31
0.0
  0
LINE
  5
7DD1
  8
FUTO
 10
4183.8608057240599
 20
12033.40602913417
 30
0.0
 11
4183.8608057240599
 21
12153.40602913417
 31
0.0
  0
LINE
  5
7DD2
  8
FUTO
 10
3984.5052581638802
 20
12014.40602913417
 30
0.0
 11
3984.5052581638802
 21
12172.40596813417
 31
0.0
  0
LINE
  5
7DD3
  8
FUTO
 10
4329.884408163879
 20
12069.65602913417
 30
0.0
 11
4329.884408163879
 21
12117.15602913417
 31
0.0
  0
ARC
  5
7DD4
  8
FUTO
 10
4336.134408163879
 20
12069.65602913417
 30
0.0
 40
6.25
 50
180.0
 51
0.000000000000007
  0
ARC
  5
7DD5
  8
FUTO
 10
4336.134408163879
 20
12117.15602913417
 30
0.0
 40
6.25
 50
0.000000000000007
 51
180.0
  0
LINE
  5
7DD6
  8
CT
 10
3964.5052581638788
 20
12093.40602913417
 30
0.0
 11
4616.1343471638793
 21
12093.40602913417
 31
0.0
  0
LINE
  5
7DD7
  8
FUTO
 10
4342.384408163879
 20
12069.65602913417
 30
0.0
 11
4342.384408163879
 21
12117.15602913417
 31
0.0
  0
LINE
  5
7DD8
  8
FUTO
 10
4132.634408163879
 20
12260.21679988321
 30
0.0
 11
4134.4561851638791
 21
12262.40596813417
 31
0.0
  0
LINE
  5
7DD9
  8
FUTO
 10
4132.634408163879
 20
11926.595116134171
 30
0.0
 11
4139.134408163879
 21
11918.78420313417
 31
0.0
  0
LINE
  5
7DDA
  8
FUTO
 10
4132.634408163879
 20
11926.595116134171
 30
0.0
 11
4132.6344081638781
 21
12033.40602913417
 31
0.0
  0
LINE
  5
7DDB
  8
FUTO
 10
4539.6344081638781
 20
11926.595116134171
 30
0.0
 11
4539.634408163879
 21
12260.21679988321
 31
0.0
  0
ARC
  5
7DDC
  8
FUTO
 10
4258.1344081638781
 20
11819.90602913417
 30
0.0
 40
2.0
 50
180.0
 51
270.0
  0
ARC
  5
7DDD
  8
FUTO
 10
4253.134408163879
 20
11830.059105134171
 30
0.0
 40
2.9999599999999988
 50
0.000000000000007
 51
87.000442999964605
  0
LINE
  5
7DDE
  8
FUTO
 10
4256.134408163879
 20
11830.059105134171
 30
0.0
 11
4256.134408163879
 21
11819.90602913417
 31
0.0
  0
ARC
  5
7DDF
  8
FUTO
 10
4157.0384601638771
 20
11873.69167413417
 30
0.0
 40
9.9999679999999991
 50
181.99932900002389
 51
225.0
  0
ARC
  5
7DE0
  8
FUTO
 10
4184.0316241638793
 20
11846.69850913417
 30
0.0
 40
10.000024
 50
225.0
 51
267.00096100001281
  0
LINE
  5
7DE1
  8
FUTO
 10
4149.9674151638792
 20
11866.62062913417
 30
0.0
 11
4176.9605801638781
 21
11839.62746513417
 31
0.0
  0
LINE
  5
7DE2
  8
FUTO
 10
4146.134408163879
 20
11899.40602913417
 30
0.0
 11
4147.0445641638789
 21
11873.34279713417
 31
0.0
  0
LINE
  5
7DE3
  8
FUTO
 10
4183.5084311638793
 20
11836.712181134169
 30
0.0
 11
4272.0997401638788
 21
11832.06935913417
 31
0.0
  0
LINE
  5
7DE4
  8
FUTO
 10
4174.134408163879
 20
11909.40602913417
 30
0.0
 11
4498.1344081638781
 21
11909.40602913417
 31
0.0
  0
LINE
  5
7DE5
  8
FUTO
 10
4174.134408163879
 20
11899.40602913417
 30
0.0
 11
4174.134408163879
 21
11904.40602913417
 31
0.0
  0
LINE
  5
7DE6
  8
FUTO
 10
4174.134408163879
 20
11904.40602913417
 30
0.0
 11
4174.134408163879
 21
11909.40602913417
 31
0.0
  0
LINE
  5
7DE7
  8
FUTO
 10
4139.134408163879
 20
11918.78420313417
 30
0.0
 11
4174.134408163879
 21
11909.40602913417
 31
0.0
  0
ARC
  5
7DE8
  8
FUTO
 10
4152.634408163879
 20
12308.87935713417
 30
0.0
 40
20.0
 50
159.99995399998471
 51
180.0
  0
ARC
  5
7DE9
  8
FUTO
 10
4123.634408163879
 20
12346.154747134169
 30
0.0
 40
20.0
 50
340.0002749999901
 51
0.000000000000007
  0
LINE
  5
7DEA
  8
FUTO
 10
4188.4854821638792
 20
12290.90596813417
 30
0.0
 11
4184.7325521638777
 21
12297.40596813417
 31
0.0
  0
LINE
  5
7DEB
  8
FUTO
 10
4184.7325521638777
 20
12297.40596813417
 30
0.0
 11
4188.4854821638792
 21
12303.90596813417
 31
0.0
  0
LINE
  5
7DEC
  8
FUTO
 10
4133.8404621638792
 20
12315.71981113417
 30
0.0
 11
4142.4283531638794
 21
12339.314415134169
 31
0.0
  0
LINE
  5
7DED
  8
FUTO
 10
4132.634408163879
 20
12262.40596813417
 30
0.0
 11
4132.634408163879
 21
12308.87935713417
 31
0.0
  0
LINE
  5
7DEE
  8
FUTO
 10
4199.743783163879
 20
12297.40596813417
 30
0.0
 11
4195.9908531638803
 21
12303.90596813417
 31
0.0
  0
LINE
  5
7DEF
  8
FUTO
 10
4195.9908531638803
 20
12290.90596813417
 30
0.0
 11
4199.743783163879
 21
12297.40596813417
 31
0.0
  0
LINE
  5
7DF0
  8
CT
 10
4192.2381671638777
 20
12289.963829134171
 30
0.0
 11
4192.2381671638777
 21
12304.419884134169
 31
0.0
  0
LINE
  5
7DF1
  8
CT
 10
4200.6287921638777
 20
12297.40596813417
 30
0.0
 11
4183.8072591638793
 21
12297.40596813417
 31
0.0
  0
LINE
  5
7DF2
  8
FUTO
 10
4195.9908531638803
 20
12303.90596813417
 30
0.0
 11
4188.4854821638792
 21
12303.90596813417
 31
0.0
  0
LINE
  5
7DF3
  8
FUTO
 10
4195.9908531638803
 20
12290.90596813417
 30
0.0
 11
4188.4854821638792
 21
12290.90596813417
 31
0.0
  0
CIRCLE
  5
7DF4
  8
FUTO
 10
4192.2381671638777
 20
12297.40596813417
 30
0.0
 40
6.5
  0
ARC
  5
7DF5
  8
FUTO
 10
4158.634408163879
 20
12407.09505513417
 30
0.0
 40
15.0
 50
150.00018299999559
 51
180.0
  0
ARC
  5
7DF6
  8
FUTO
 10
4179.0211261638779
 20
12462.40596813417
 30
0.0
 40
4.9999580000000003
 50
89.999999999999986
 51
149.99971800000111
  0
LINE
  5
7DF7
  8
FUTO
 10
4174.6910481638779
 20
12464.90596813417
 30
0.0
 11
4145.6439291638781
 21
12414.59505513417
 31
0.0
  0
LINE
  5
7DF8
  8
FUTO
 10
4143.634408163879
 20
12346.154747134169
 30
0.0
 11
4143.634408163879
 21
12407.09505513417
 31
0.0
  0
LINE
  5
7DF9
  8
FUTO
 10
4528.6344081638781
 20
12346.154747134169
 30
0.0
 11
4528.6344081638781
 21
12407.09505513417
 31
0.0
  0
LINE
  5
7DFA
  8
CT
 10
4336.134408163879
 20
11484.94008568264
 30
0.0
 11
4336.134408163879
 21
12487.40602913417
 31
0.0
  0
LINE
  5
7DFB
  8
FUTO
 10
4493.7843721638792
 20
12467.40602913417
 30
0.0
 11
4178.9940581638793
 21
12467.40602913417
 31
0.0
  0
LINE
  5
7DFC
  8
FUTO
 10
4143.634408163879
 20
12408.30599213417
 30
0.0
 11
4528.5853361638783
 21
12408.30599213417
 31
0.0
  0
LINE
  5
7DFD
  8
FUTO
 10
4497.5777681638792
 20
12464.90596813417
 30
0.0
 11
4526.6248871638782
 21
12414.59505513417
 31
0.0
  0
ARC
  5
7DFE
  8
FUTO
 10
4493.2476901638793
 20
12462.40596813417
 30
0.0
 40
4.9999580000000003
 50
30.000281999998819
 51
89.999999999999986
  0
ARC
  5
7DFF
  8
FUTO
 10
4513.634408163879
 20
12407.09505513417
 30
0.0
 40
15.0
 50
0.000000000000007
 51
29.999817000004359
  0
LINE
  5
7E00
  8
FUTO
 10
4258.1344081638781
 20
11817.90602913417
 30
0.0
 11
4336.134408163879
 21
11817.90602913417
 31
0.0
  0
LINE
  5
7E01
  8
FUTO
 10
4146.134408163879
 20
11899.40602913417
 30
0.0
 11
4336.134408163879
 21
11899.40602913417
 31
0.0
  0
LINE
  5
7E02
  8
FUTO
 10
4174.134408163879
 20
11904.40602913417
 30
0.0
 11
4336.134408163879
 21
11904.40602913417
 31
0.0
  0
LINE
  5
7E03
  8
FUTO
 10
4528.9517911638768
 20
12342.60591913417
 30
0.0
 11
4143.634408163879
 21
12342.60591913417
 31
0.0
  0
LINE
  5
7E04
  8
FUTO
 10
4539.3209321638778
 20
12312.40596813417
 30
0.0
 11
4132.9477879650049
 21
12312.40596813417
 31
0.0
  0
LINE
  5
7E05
  8
FUTO
 10
4539.6344081638781
 20
12262.40596813417
 30
0.0
 11
4134.4561851638791
 21
12262.40596813417
 31
0.0
  0
LINE
  5
7E06
  8
FUTO
 10
4174.134408163879
 20
11904.40602913417
 30
0.0
 11
4336.134408163879
 21
11904.40602913417
 31
0.0
  0
CIRCLE
  5
7E07
  8
FUTO
 10
4480.0306491638794
 20
12297.40596813417
 30
0.0
 40
6.5
  0
LINE
  5
7E08
  8
FUTO
 10
4476.2779631638778
 20
12290.90596813417
 30
0.0
 11
4483.7833341638789
 21
12290.90596813417
 31
0.0
  0
LINE
  5
7E09
  8
FUTO
 10
4476.2779631638778
 20
12303.90596813417
 30
0.0
 11
4483.7833341638789
 21
12303.90596813417
 31
0.0
  0
LINE
  5
7E0A
  8
CT
 10
4471.6400241638794
 20
12297.40596813417
 30
0.0
 11
4488.4615571638788
 21
12297.40596813417
 31
0.0
  0
LINE
  5
7E0B
  8
CT
 10
4480.0306491638794
 20
12289.963829134171
 30
0.0
 11
4480.0306491638794
 21
12304.419884134169
 31
0.0
  0
LINE
  5
7E0C
  8
FUTO
 10
4476.2779631638778
 20
12290.90596813417
 30
0.0
 11
4472.5250331638781
 21
12297.40596813417
 31
0.0
  0
LINE
  5
7E0D
  8
FUTO
 10
4472.5250331638781
 20
12297.40596813417
 30
0.0
 11
4476.2779631638778
 21
12303.90596813417
 31
0.0
  0
LINE
  5
7E0E
  8
FUTO
 10
4539.6344081638781
 20
12262.40596813417
 30
0.0
 11
4539.6344081638781
 21
12308.87935713417
 31
0.0
  0
LINE
  5
7E0F
  8
FUTO
 10
4538.4283541638779
 20
12315.71981113417
 30
0.0
 11
4529.8404631638778
 21
12339.314415134169
 31
0.0
  0
LINE
  5
7E10
  8
FUTO
 10
4487.5362641638794
 20
12297.40596813417
 30
0.0
 11
4483.7833341638789
 21
12303.90596813417
 31
0.0
  0
LINE
  5
7E11
  8
FUTO
 10
4483.7833341638789
 20
12290.90596813417
 30
0.0
 11
4487.5362641638794
 21
12297.40596813417
 31
0.0
  0
ARC
  5
7E12
  8
FUTO
 10
4548.634408163879
 20
12346.154747134169
 30
0.0
 40
20.0
 50
180.0
 51
199.9997250000097
  0
ARC
  5
7E13
  8
FUTO
 10
4519.634408163879
 20
12308.87935713417
 30
0.0
 40
20.0
 50
0.000000000000007
 51
20.000046000015249
  0
LINE
  5
7E14
  8
FUTO
 10
4539.6344081638781
 20
12260.21679988321
 30
0.0
 11
4537.8126311638789
 21
12262.40596813417
 31
0.0
  0
LINE
  5
7E15
  8
FUTO
 10
4498.1344081638781
 20
11904.40602913417
 30
0.0
 11
4336.134408163879
 21
11904.40602913417
 31
0.0
  0
LINE
  5
7E16
  8
FUTO
 10
4488.7603851638778
 20
11836.712181134169
 30
0.0
 11
4400.1690761638793
 21
11832.06935913417
 31
0.0
  0
LINE
  5
7E17
  8
FUTO
 10
4526.1344081638781
 20
11899.40602913417
 30
0.0
 11
4336.134408163879
 21
11899.40602913417
 31
0.0
  0
LINE
  5
7E18
  8
FUTO
 10
4498.1344081638781
 20
11904.40602913417
 30
0.0
 11
4336.134408163879
 21
11904.40602913417
 31
0.0
  0
LINE
  5
7E19
  8
FUTO
 10
4306.134408163879
 20
11807.90602913417
 30
0.0
 11
4306.134408163879
 21
11667.90602913417
 31
0.0
  0
LINE
  5
7E1A
  8
FUTO
 10
4366.134408163879
 20
11807.90602913417
 30
0.0
 11
4366.134408163879
 21
11667.90602913417
 31
0.0
  0
LINE
  5
7E1B
  8
FUTO
 10
4414.134408163879
 20
11817.90602913417
 30
0.0
 11
4336.134408163879
 21
11817.90602913417
 31
0.0
  0
LINE
  5
7E1C
  8
FUTO
 10
4303.634408163879
 20
11807.90602913417
 30
0.0
 11
4368.634408163879
 21
11807.90602913417
 31
0.0
  0
LINE
  5
7E1D
  8
FUTO
 10
4303.634408163879
 20
11807.90602913417
 30
0.0
 11
4303.634408163879
 21
11817.90602913417
 31
0.0
  0
LINE
  5
7E1E
  8
FUTO
 10
4368.634408163879
 20
11807.90602913417
 30
0.0
 11
4368.634408163879
 21
11817.90602913417
 31
0.0
  0
LINE
  5
7E1F
  8
FUTO
 10
4416.134408163879
 20
11830.059105134171
 30
0.0
 11
4416.134408163879
 21
11819.90602913417
 31
0.0
  0
ARC
  5
7E20
  8
FUTO
 10
4419.134408163879
 20
11830.059105134171
 30
0.0
 40
2.9999599999999988
 50
92.999556999983326
 51
180.0
  0
ARC
  5
7E21
  8
FUTO
 10
4414.134408163879
 20
11819.90602913417
 30
0.0
 40
2.0
 50
270.0
 51
0.000000000000007
  0
LINE
  5
7E22
  8
FUTO
 10
4366.134408163879
 20
11667.90602913417
 30
0.0
 11
4306.134408163879
 21
11667.90602913417
 31
0.0
  0
LINE
  5
7E23
  8
FUTO
 10
4539.6344081638781
 20
11926.595116134171
 30
0.0
 11
4533.1344081638781
 21
11918.78420313417
 31
0.0
  0
LINE
  5
7E24
  8
FUTO
 10
4526.1344081638781
 20
11899.40602913417
 30
0.0
 11
4525.2242521638782
 21
11873.34279713417
 31
0.0
  0
LINE
  5
7E25
  8
FUTO
 10
4533.1344081638781
 20
11918.78420313417
 30
0.0
 11
4498.1344081638781
 21
11909.40602913417
 31
0.0
  0
LINE
  5
7E26
  8
FUTO
 10
4498.1344081638781
 20
11904.40602913417
 30
0.0
 11
4498.1344081638781
 21
11909.40602913417
 31
0.0
  0
LINE
  5
7E27
  8
FUTO
 10
4498.1344081638781
 20
11899.40602913417
 30
0.0
 11
4498.1344081638781
 21
11904.40602913417
 31
0.0
  0
LINE
  5
7E28
  8
FUTO
 10
4522.3014011638779
 20
11866.62062913417
 30
0.0
 11
4495.308236163879
 21
11839.62746513417
 31
0.0
  0
ARC
  5
7E29
  8
FUTO
 10
4488.2371921638778
 20
11846.69850913417
 30
0.0
 40
10.000024
 50
272.99903899998708
 51
314.99999999999989
  0
ARC
  5
7E2A
  8
FUTO
 10
4515.2303561638792
 20
11873.69167413417
 30
0.0
 40
9.9999679999999991
 50
314.99999999999989
 51
358.00067099997602
  0
CIRCLE
  5
7E2B
  8
FUTO
 10
4336.134408163879
 20
8406.5688917007265
 30
0.0
 40
30.0
  0
LINE
  5
7E2C
  8
KL
 10
8440.1617068552896
 20
8226.5688917007265
 30
0.0
 11
8454.8411377796037
 21
8226.5688917007265
 31
0.0
  0
LINE
  5
7E2D
  8
KL
 10
8442.8411987796026
 20
8206.5688917007283
 30
0.0
 11
8477.8411987796044
 21
8206.5688917007283
 31
0.0
  0
LINE
  5
7E2E
  8
KL
 10
8115.5206907039146
 20
8226.5688917007265
 30
0.0
 11
8100.8411987796026
 21
8226.5688917007265
 31
0.0
  0
LINE
  5
7E2F
  8
KL
 10
8112.8411987796026
 20
8206.5688917007283
 30
0.0
 11
8077.8411987796026
 21
8206.5688917007283
 31
0.0
  0
LINE
  5
7E30
  8
CT
 10
4176.1344081638799
 20
8196.5688917007283
 30
0.0
 11
4176.1344081638799
 21
8126.5688917007283
 31
0.0
  0
LINE
  5
7E31
  8
KL
 10
8177.8411987796026
 20
8201.5688917007283
 30
0.0
 11
8177.8411987796026
 21
8206.5688917007283
 31
0.0
  0
LINE
  5
7E32
  8
KL
 10
8377.8411987796044
 20
8206.5688917007283
 30
0.0
 11
8377.8411987796044
 21
8201.5688917007283
 31
0.0
  0
LINE
  5
7E3B
  8
FUTO
 10
4404.134408163879
 20
8206.5688917007283
 30
0.0
 11
4404.134408163879
 21
8201.5688917007283
 31
0.0
  0
LINE
  5
7E3C
  8
FUTO
 10
4268.1342861638796
 20
8201.5688917007283
 30
0.0
 11
4268.1342861638796
 21
8206.5688917007283
 31
0.0
  0
LINE
  5
7E3D
  8
KL
 10
8132.8411987796026
 20
8235.0444777007287
 30
0.0
 11
8116.8411987796026
 21
8225.8071737007285
 31
0.0
  0
LINE
  5
7E3E
  8
KL
 10
8148.8411987796053
 20
8225.8071737007285
 30
0.0
 11
8132.8411987796026
 21
8235.0444777007287
 31
0.0
  0
LINE
  5
7E3F
  8
KL
 10
8132.8411987796026
 20
8198.0942827007275
 30
0.0
 11
8116.8411987796026
 21
8207.3315877007281
 31
0.0
  0
LINE
  5
7E40
  8
KL
 10
8148.8411987796053
 20
8207.3315877007281
 30
0.0
 11
8132.8411987796026
 21
8198.0942827007275
 31
0.0
  0
LINE
  5
7E41
  8
KL
 10
8102.8411987796044
 20
8216.5688917007283
 30
0.0
 11
8162.8411987796044
 21
8216.5688917007283
 31
0.0
  0
CIRCLE
  5
7E42
  8
KL
 10
8132.8411987796026
 20
8216.5688917007283
 30
0.0
 40
16.0
  0
LINE
  5
7E43
  8
KL
 10
8148.8411987796053
 20
8207.3315877007281
 30
0.0
 11
8148.8411987796053
 21
8225.8071737007285
 31
0.0
  0
LINE
  5
7E44
  8
KL
 10
8116.8411987796026
 20
8207.3315877007281
 30
0.0
 11
8116.8411987796026
 21
8225.8071737007285
 31
0.0
  0
ARC
  5
7E45
  8
KL
 10
8132.8411987796026
 20
8216.5688917007283
 30
0.0
 40
20.0
 50
0.000000000000007
 51
180.0
  0
ARC
  5
7E46
  8
KL
 10
8025.8411987796044
 20
8173.5688917007283
 30
0.0
 40
3.0
 50
90.0
 51
180.0
  0
LINE
  5
7E47
  8
KL
 10
8074.7161987796026
 20
8176.5688917007283
 30
0.0
 11
8025.8411987796044
 21
8176.5688917007283
 31
0.0
  0
LINE
  5
7E48
  8
KL
 10
8079.8411987796017
 20
8146.5688917007292
 30
0.0
 11
8079.8411987796017
 21
8151.5688917007283
 31
0.0
  0
LINE
  5
7E49
  8
KL
 10
8069.8411987796044
 20
8158.5688917007292
 30
0.0
 11
8069.8411987796044
 21
8151.5688917007283
 31
0.0
  0
LINE
  5
7E4A
  8
KL
 10
8079.8411987796017
 20
8146.5688917007292
 30
0.0
 11
8022.8411987796026
 21
8146.5688917007292
 31
0.0
  0
LINE
  5
7E4B
  8
KL
 10
8022.8411987796026
 20
8146.5688917007292
 30
0.0
 11
8022.8411987796026
 21
8173.5688917007283
 31
0.0
  0
LINE
  5
7E4C
  8
CT
 10
8047.8411987796044
 20
8196.5688917007283
 30
0.0
 11
8047.8411987796044
 21
8126.5688917007283
 31
0.0
  0
LINE
  5
7E4D
  8
KL
 10
8069.8411987796044
 20
8158.5688917007292
 30
0.0
 11
8112.8411987796026
 21
8158.5688917007292
 31
0.0
  0
LINE
  5
7E4E
  8
KL
 10
8077.8411987796026
 20
8206.5688917007283
 30
0.0
 11
8072.8411987796044
 21
8158.5688917007292
 31
0.0
  0
LINE
  5
7E4F
  8
KL
 10
8152.8411987796026
 20
8216.5688917007283
 30
0.0
 11
8152.8411987796026
 21
8151.5688917007283
 31
0.0
  0
LINE
  5
7E50
  8
KL
 10
8112.8411987796026
 20
8151.5688917007283
 30
0.0
 11
8112.8411987796026
 21
8216.5688917007283
 31
0.0
  0
LINE
  5
7E51
  8
CT
 10
8132.8411987796026
 20
8141.5688917007283
 30
0.0
 11
8132.8411987796026
 21
8246.5688917007283
 31
0.0
  0
LINE
  5
7E52
  8
KL
 10
8406.8411987796026
 20
8225.8071737007285
 30
0.0
 11
8422.8411987796026
 21
8235.0444777007287
 31
0.0
  0
LINE
  5
7E53
  8
KL
 10
8406.8411987796026
 20
8207.3315877007281
 30
0.0
 11
8422.8411987796026
 21
8198.0942827007275
 31
0.0
  0
LINE
  5
7E54
  8
KL
 10
8406.8411987796026
 20
8207.3315877007281
 30
0.0
 11
8406.8411987796026
 21
8225.8071737007285
 31
0.0
  0
LINE
  5
7E55
  8
KL
 10
8438.8411987796044
 20
8207.3315877007281
 30
0.0
 11
8438.8411987796044
 21
8225.8071737007285
 31
0.0
  0
CIRCLE
  5
7E56
  8
KL
 10
8422.8411987796026
 20
8216.5688917007283
 30
0.0
 40
16.0
  0
LINE
  5
7E57
  8
KL
 10
8422.8411987796026
 20
8235.0444777007287
 30
0.0
 11
8438.8411987796044
 21
8225.8071737007285
 31
0.0
  0
LINE
  5
7E58
  8
KL
 10
8422.8411987796026
 20
8198.0942827007275
 30
0.0
 11
8438.8411987796044
 21
8207.3315877007281
 31
0.0
  0
ARC
  5
7E59
  8
KL
 10
8422.8411987796026
 20
8216.5688917007283
 30
0.0
 40
20.0
 50
0.000000000000007
 51
180.0
  0
LINE
  5
7E5A
  8
KL
 10
8452.8411987796026
 20
8216.5688917007283
 30
0.0
 11
8392.8411987796026
 21
8216.5688917007283
 31
0.0
  0
LINE
  5
7E5B
  8
KL
 10
8177.8411987796026
 20
8201.5688917007283
 30
0.0
 11
8377.8411987796044
 21
8201.5688917007283
 31
0.0
  0
LINE
  5
7E5C
  8
KL
 10
8475.8411987796026
 20
8146.5688917007292
 30
0.0
 11
8475.8411987796026
 21
8151.5688917007283
 31
0.0
  0
LINE
  5
7E5D
  8
KL
 10
8485.8411987796026
 20
8158.5688917007292
 30
0.0
 11
8485.8411987796026
 21
8151.5688917007283
 31
0.0
  0
LINE
  5
7E5E
  8
KL
 10
8485.8411987796026
 20
8158.5688917007292
 30
0.0
 11
8442.8411987796026
 21
8158.5688917007292
 31
0.0
  0
LINE
  5
7E5F
  8
CT
 10
8507.8411987796026
 20
8196.5688917007283
 30
0.0
 11
8507.8411987796026
 21
8126.5688917007283
 31
0.0
  0
ARC
  5
7E60
  8
KL
 10
8529.8411987796026
 20
8173.5688917007283
 30
0.0
 40
3.0
 50
0.000000000000007
 51
90.0
  0
LINE
  5
7E61
  8
KL
 10
8532.8411987796026
 20
8146.5688917007292
 30
0.0
 11
8532.8411987796026
 21
8173.5688917007283
 31
0.0
  0
LINE
  5
7E62
  8
KL
 10
8480.9661987796026
 20
8176.5688917007283
 30
0.0
 11
8529.8411987796026
 21
8176.5688917007283
 31
0.0
  0
LINE
  5
7E63
  8
KL
 10
8475.8411987796026
 20
8146.5688917007292
 30
0.0
 11
8532.8411987796026
 21
8146.5688917007292
 31
0.0
  0
LINE
  5
7E64
  8
KL
 10
8477.8411987796044
 20
8206.5688917007283
 30
0.0
 11
8482.8411987796026
 21
8158.5688917007292
 31
0.0
  0
LINE
  5
7E65
  8
KL
 10
8402.8411987796026
 20
8216.5688917007283
 30
0.0
 11
8402.8411987796026
 21
8151.5688917007283
 31
0.0
  0
LINE
  5
7E66
  8
KL
 10
8442.8411987796026
 20
8151.5688917007283
 30
0.0
 11
8442.8411987796026
 21
8216.5688917007283
 31
0.0
  0
LINE
  5
7E67
  8
CT
 10
8422.8411987796026
 20
8141.5688917007283
 30
0.0
 11
8422.8411987796026
 21
8246.5688917007283
 31
0.0
  0
LINE
  5
7E68
  8
FUTO
 10
3976.6798181638801
 20
8226.2739697007291
 30
0.0
 11
3975.0798421638792
 21
8224.6743607007284
 31
0.0
  0
LINE
  5
7E69
  8
FUTO
 10
3976.6798181638801
 20
8226.2739697007291
 30
0.0
 11
3975.0798421638792
 21
8227.8745557007296
 31
0.0
  0
LINE
  5
7E6A
  8
FUTO
 10
3976.6798181638801
 20
8226.2739697007291
 30
0.0
 11
3988.7797931638788
 21
8226.2739697007291
 31
0.0
  0
LINE
  5
7E6B
  8
FUTO
 10
3975.07996416388
 20
8232.5591267007294
 30
0.0
 11
3976.6799401638791
 21
8234.1587357007284
 31
0.0
  0
LINE
  5
7E6C
  8
FUTO
 10
3976.6798181638801
 20
8234.1587357007284
 30
0.0
 11
3988.7797931638788
 21
8234.1587357007284
 31
0.0
  0
LINE
  5
7E6D
  8
FUTO
 10
3976.6798181638801
 20
8206.8638137007292
 30
0.0
 11
3975.0798421638792
 21
8208.4643997007279
 31
0.0
  0
LINE
  5
7E6E
  8
FUTO
 10
3976.6798181638801
 20
8206.8638137007292
 30
0.0
 11
3975.0798421638792
 21
8205.2642047007284
 31
0.0
  0
LINE
  5
7E6F
  8
FUTO
 10
3976.6798181638801
 20
8206.8638137007292
 30
0.0
 11
3988.7797931638788
 21
8206.8638137007292
 31
0.0
  0
LINE
  5
7E70
  8
FUTO
 10
3976.6798181638801
 20
8198.9790487007285
 30
0.0
 11
3988.7797931638788
 21
8198.9790487007285
 31
0.0
  0
LINE
  5
7E71
  8
FUTO
 10
3976.6798181638801
 20
8198.9790487007285
 30
0.0
 11
3975.0798421638792
 21
8200.5796337007287
 31
0.0
  0
LINE
  5
7E72
  8
FUTO
 10
3975.07996416388
 20
8232.5591267007294
 30
0.0
 11
3975.07996416388
 21
8200.5796337007287
 31
0.0
  0
LINE
  5
7E73
  8
FUTO
 10
3988.7799151638792
 20
8234.1587357007284
 30
0.0
 11
3988.7799151638792
 21
8198.9790487007285
 31
0.0
  0
LINE
  5
7E74
  8
HOSO
 10
4051.13428616388
 20
8209.5688917007283
 30
0.0
 11
3988.7801591638799
 21
8209.5688917007283
 31
0.0
  0
LINE
  5
7E75
  8
FUTO
 10
4051.13428616388
 20
8225.5688917007301
 30
0.0
 11
3988.7801591638799
 21
8225.5688917007301
 31
0.0
  0
LINE
  5
7E76
  8
HOSO
 10
3988.7799151638792
 20
8223.5688917007265
 30
0.0
 11
4051.13428616388
 21
8223.5688917007265
 31
0.0
  0
LINE
  5
7E77
  8
FUTO
 10
3988.7799151638792
 20
8207.5688917007283
 30
0.0
 11
4051.13428616388
 21
8207.5688917007283
 31
0.0
  0
LINE
  5
7E78
  8
FUTO
 10
4147.134408163879
 20
8223.5688917007265
 30
0.0
 11
4145.1344081638799
 21
8225.5688917007301
 31
0.0
  0
LINE
  5
7E79
  8
HOSO
 10
4083.3009528305461
 20
8223.5688917007265
 30
0.0
 11
4147.1342851638801
 21
8223.5688917007265
 31
0.0
  0
LINE
  5
7E7A
  8
FUTO
 10
4145.1344081638799
 20
8225.5688917007301
 30
0.0
 11
4082.967619497213
 21
8225.5688917007301
 31
0.0
  0
LINE
  5
7E7B
  8
FUTO
 10
4145.1344081638799
 20
8207.5688917007283
 30
0.0
 11
4147.134408163879
 21
8209.5688917007283
 31
0.0
  0
LINE
  5
7E7C
  8
FUTO
 10
4085.967619497213
 20
8207.5688917007283
 30
0.0
 11
4145.1344081638799
 21
8207.5688917007283
 31
0.0
  0
LINE
  5
7E7D
  8
HOSO
 10
4147.134408163879
 20
8209.5688917007283
 30
0.0
 11
4085.6342861638791
 21
8209.5688917007283
 31
0.0
  0
LINE
  5
7E7E
  8
FUTO
 10
4145.1344081638799
 20
8225.5688917007301
 30
0.0
 11
4145.1344081638799
 21
8207.5688917007283
 31
0.0
  0
LINE
  5
7E7F
  8
FUTO
 10
4081.1342861638791
 20
8236.5688917007283
 30
0.0
 11
4086.13428616388
 21
8206.5688917007283
 31
0.0
  0
LINE
  5
7E80
  8
FUTO
 10
4404.134408163879
 20
8201.5688917007283
 30
0.0
 11
4268.1342861638796
 21
8201.5688917007283
 31
0.0
  0
LINE
  5
7E81
  8
FUTO
 10
4084.1342861638791
 20
8206.5688917007283
 30
0.0
 11
4268.1342861638796
 21
8206.5688917007283
 31
0.0
  0
LINE
  5
7E82
  8
FUTO
 10
4081.1342861638791
 20
8236.5688917007283
 30
0.0
 11
4051.13428616388
 21
8236.5688917007283
 31
0.0
  0
LINE
  5
7E83
  8
CT
 10
4147.134408163879
 20
8216.5688917007283
 30
0.0
 11
3965.07996416388
 21
8216.5688917007283
 31
0.0
  0
LINE
  5
7E84
  8
FUTO
 10
4076.13428616388
 20
8151.5688917007283
 30
0.0
 11
4051.13428616388
 21
8151.5688917007283
 31
0.0
  0
LINE
  5
7E85
  8
FUTO
 10
4079.13428616388
 20
8158.5688917007292
 30
0.0
 11
4076.13428616388
 21
8158.5688917007292
 31
0.0
  0
LINE
  5
7E86
  8
FUTO
 10
4076.13428616388
 20
8158.5688917007292
 30
0.0
 11
4076.13428616388
 21
8151.5688917007283
 31
0.0
  0
ARC
  5
7E87
  8
FUTO
 10
4129.1340421638797
 20
8173.5688917007283
 30
0.0
 40
3.0
 50
89.997664999998861
 51
180.0
  0
LINE
  5
7E88
  8
FUTO
 10
4126.1342861638796
 20
8146.5688917007292
 30
0.0
 11
4126.1342861638796
 21
8173.5688917007283
 31
0.0
  0
ARC
  5
7E89
  8
FUTO
 10
4223.1342861638796
 20
8173.5688917007283
 30
0.0
 40
3.0
 50
0.000000000000007
 51
90.002335000001125
  0
LINE
  5
7E8A
  8
FUTO
 10
4226.1342861638796
 20
8146.5688917007292
 30
0.0
 11
4226.1342861638796
 21
8173.5688917007283
 31
0.0
  0
LINE
  5
7E8B
  8
FUTO
 10
4223.1342861638796
 20
8176.5688917007283
 30
0.0
 11
4129.1342861638796
 21
8176.5688917007283
 31
0.0
  0
LINE
  5
7E8C
  8
FUTO
 10
4226.1342861638796
 20
8146.5688917007292
 30
0.0
 11
4126.1342861638796
 21
8146.5688917007292
 31
0.0
  0
LINE
  5
7E8D
  8
FUTO
 10
4076.13428616388
 20
8151.5688917007283
 30
0.0
 11
4126.1342861638796
 21
8151.5688917007283
 31
0.0
  0
LINE
  5
7E8E
  8
FUTO
 10
4084.1342861638791
 20
8206.5688917007283
 30
0.0
 11
4079.13428616388
 21
8158.5688917007292
 31
0.0
  0
LINE
  5
7E8F
  8
FUTO
 10
4051.13428616388
 20
8236.5688917007283
 30
0.0
 11
4051.13428616388
 21
8151.5688917007283
 31
0.0
  0
LINE
  5
7E90
  8
FUTO
 10
4525.1344081638799
 20
8223.5688917007265
 30
0.0
 11
4527.1344081638799
 21
8225.5688917007301
 31
0.0
  0
LINE
  5
7E91
  8
HOSO
 10
4588.9676804972132
 20
8223.5688917007301
 30
0.0
 11
4525.1344081638799
 21
8223.5688917007265
 31
0.0
  0
LINE
  5
7E92
  8
FUTO
 10
4527.1344081638799
 20
8225.5688917007301
 30
0.0
 11
4589.3010138305472
 21
8225.5688917007301
 31
0.0
  0
LINE
  5
7E93
  8
FUTO
 10
4527.1344081638799
 20
8207.5688917007283
 30
0.0
 11
4525.1344081638799
 21
8209.5688917007283
 31
0.0
  0
LINE
  5
7E94
  8
FUTO
 10
4586.3010138305472
 20
8207.5688917007283
 30
0.0
 11
4527.1344081638799
 21
8207.5688917007283
 31
0.0
  0
LINE
  5
7E95
  8
HOSO
 10
4525.1344081638799
 20
8209.5688917007283
 30
0.0
 11
4586.6343471638793
 21
8209.5688917007283
 31
0.0
  0
LINE
  5
7E96
  8
FUTO
 10
4527.1344081638799
 20
8225.5688917007301
 30
0.0
 11
4527.1344081638799
 21
8207.5688917007283
 31
0.0
  0
LINE
  5
7E97
  8
FUTO
 10
4591.1343471638793
 20
8236.5688917007283
 30
0.0
 11
4586.1343471638802
 21
8206.5688917007283
 31
0.0
  0
LINE
  5
7E98
  8
FUTO
 10
4621.1343471638793
 20
8225.5688917007301
 30
0.0
 11
4683.4889001638803
 21
8225.5688917007301
 31
0.0
  0
LINE
  5
7E99
  8
HOSO
 10
4683.4888391638797
 20
8223.5688917007265
 30
0.0
 11
4621.1343471638793
 21
8223.5688917007265
 31
0.0
  0
LINE
  5
7E9A
  8
HOSO
 10
4621.1343471638793
 20
8209.5688917007301
 30
0.0
 11
4683.4889001638803
 21
8209.5688917007283
 31
0.0
  0
LINE
  5
7E9B
  8
FUTO
 10
4683.4888391638797
 20
8207.5688917007283
 30
0.0
 11
4621.1343471638793
 21
8207.5688917007283
 31
0.0
  0
LINE
  5
7E9C
  8
FUTO
 10
4683.4888391638797
 20
8234.1587357007284
 30
0.0
 11
4683.4888391638797
 21
8198.9790487007285
 31
0.0
  0
LINE
  5
7E9D
  8
FUTO
 10
4695.5888151638792
 20
8226.2739697007291
 30
0.0
 11
4697.1887901638802
 21
8224.6743607007284
 31
0.0
  0
LINE
  5
7E9E
  8
FUTO
 10
4695.5888151638792
 20
8226.2739697007291
 30
0.0
 11
4697.1887901638802
 21
8227.8745557007296
 31
0.0
  0
LINE
  5
7E9F
  8
FUTO
 10
4697.1887901638802
 20
8232.5591267007294
 30
0.0
 11
4695.5888151638792
 21
8234.1587357007284
 31
0.0
  0
LINE
  5
7EA0
  8
FUTO
 10
4695.5888151638792
 20
8206.8638137007292
 30
0.0
 11
4697.1887901638802
 21
8208.4643997007279
 31
0.0
  0
LINE
  5
7EA1
  8
FUTO
 10
4695.5888151638792
 20
8206.8638137007292
 30
0.0
 11
4697.1887901638802
 21
8205.2642047007284
 31
0.0
  0
LINE
  5
7EA2
  8
FUTO
 10
4695.5888151638792
 20
8198.9790487007285
 30
0.0
 11
4697.1887901638802
 21
8200.5796337007287
 31
0.0
  0
LINE
  5
7EA3
  8
FUTO
 10
4697.1887901638802
 20
8232.5591267007294
 30
0.0
 11
4697.1887901638802
 21
8200.5796337007287
 31
0.0
  0
LINE
  5
7EA4
  8
FUTO
 10
4695.5888151638792
 20
8206.8638137007292
 30
0.0
 11
4683.4888391638797
 21
8206.8638137007292
 31
0.0
  0
LINE
  5
7EA5
  8
FUTO
 10
4695.5888151638792
 20
8226.2739697007291
 30
0.0
 11
4683.4888391638797
 21
8226.2739697007291
 31
0.0
  0
LINE
  5
7EA6
  8
FUTO
 10
4695.5888151638792
 20
8198.9790487007285
 30
0.0
 11
4683.4888391638797
 21
8198.9790487007285
 31
0.0
  0
LINE
  5
7EA7
  8
FUTO
 10
4695.5888151638792
 20
8234.1587357007284
 30
0.0
 11
4683.4888391638797
 21
8234.1587357007284
 31
0.0
  0
LINE
  5
7EA8
  8
FUTO
 10
4591.1343471638793
 20
8236.5688917007283
 30
0.0
 11
4621.1343471638793
 21
8236.5688917007283
 31
0.0
  0
LINE
  5
7EA9
  8
CT
 10
4525.1344081638799
 20
8216.5688917007283
 30
0.0
 11
4707.1887901638802
 21
8216.5688917007283
 31
0.0
  0
ARC
  5
7EAA
  8
FUTO
 10
4449.1342861638796
 20
8173.5688917007283
 30
0.0
 40
2.999938999999999
 50
89.998833000023183
 51
180.0
  0
LINE
  5
7EAB
  8
FUTO
 10
4446.1344081638799
 20
8146.5688917007292
 30
0.0
 11
4446.1344081638799
 21
8173.5688917007283
 31
0.0
  0
ARC
  5
7EAC
  8
FUTO
 10
4543.134408163879
 20
8173.5688917007283
 30
0.0
 40
3.0
 50
0.000000000000007
 51
90.001167000028914
  0
LINE
  5
7EAD
  8
FUTO
 10
4593.1343471638793
 20
8158.5688917007292
 30
0.0
 11
4596.1343471638793
 21
8158.5688917007292
 31
0.0
  0
LINE
  5
7EAE
  8
FUTO
 10
4596.1343471638793
 20
8158.5688917007292
 30
0.0
 11
4596.1343471638793
 21
8151.5688917007283
 31
0.0
  0
LINE
  5
7EAF
  8
FUTO
 10
4596.1343471638793
 20
8151.5688917007283
 30
0.0
 11
4546.134408163879
 21
8151.5688917007283
 31
0.0
  0
LINE
  5
7EB0
  8
FUTO
 10
4546.134408163879
 20
8146.5688917007292
 30
0.0
 11
4546.134408163879
 21
8173.5688917007283
 31
0.0
  0
LINE
  5
7EB1
  8
FUTO
 10
4449.1344081638799
 20
8176.5688917007283
 30
0.0
 11
4543.134408163879
 21
8176.5688917007283
 31
0.0
  0
LINE
  5
7EB2
  8
FUTO
 10
4446.1344081638799
 20
8146.5688917007292
 30
0.0
 11
4546.134408163879
 21
8146.5688917007292
 31
0.0
  0
LINE
  5
7EB3
  8
FUTO
 10
4596.1343471638793
 20
8151.5688917007283
 30
0.0
 11
4621.1343471638793
 21
8151.5688917007283
 31
0.0
  0
LINE
  5
7EB4
  8
FUTO
 10
4588.1343471638793
 20
8206.5688917007283
 30
0.0
 11
4593.1343471638793
 21
8158.5688917007292
 31
0.0
  0
LINE
  5
7EB5
  8
FUTO
 10
4621.1343471638793
 20
8236.5688917007283
 30
0.0
 11
4621.1343471638793
 21
8151.5688917007283
 31
0.0
  0
LINE
  5
7EB6
  8
CT
 10
4496.1344081638799
 20
8196.5688917007283
 30
0.0
 11
4496.1344081638799
 21
8126.5688917007283
 31
0.0
  0
LINE
  5
7EB7
  8
FUTO
 10
4588.1343471638793
 20
8206.5688917007283
 30
0.0
 11
4404.134408163879
 21
8206.5688917007283
 31
0.0
  0
LINE
  5
7EB8
  8
FUTO
 10
4446.1344081638799
 20
8151.5688917007283
 30
0.0
 11
4226.1344081638799
 21
8151.5688917007283
 31
0.0
  0
LINE
  5
7EB9
  8
KL
 10
8152.8411987796026
 20
8158.5688917007292
 30
0.0
 11
8402.8411987796026
 21
8158.5688917007292
 31
0.0
  0
LINE
  5
7EBA
  8
KL
 10
8069.8411987796044
 20
8151.5688917007283
 30
0.0
 11
8485.8411987796026
 21
8151.5688917007283
 31
0.0
  0
LINE
  5
7EBB
  8
KL
 10
8093.8411987796026
 20
8568.5688917007283
 30
0.0
 11
8093.8411987796026
 21
8531.5688917007265
 31
0.0
  0
ARC
  5
7EBC
  8
KL
 10
8058.1268437796043
 20
8585.6648397007284
 30
0.0
 40
9.9999679999999991
 50
91.999329000023934
 51
135.0
  0
ARC
  5
7EBD
  8
FUTO
 10
8031.1336787796026
 20
8558.6716757007271
 30
0.0
 40
10.000024
 50
135.0
 51
177.00096100001281
  0
LINE
  5
7EBE
  8
KL
 10
8051.0557987796037
 20
8592.7358847007272
 30
0.0
 11
8024.0626347796033
 21
8565.7427197007273
 31
0.0
  0
LINE
  5
7EBF
  8
KL
 10
8083.8411987796026
 20
8568.5688917007283
 30
0.0
 11
8088.8411987796017
 21
8568.5688917007283
 31
0.0
  0
LINE
  5
7EC0
  8
KL
 10
8088.8411987796017
 20
8568.5688917007283
 30
0.0
 11
8093.8411987796026
 21
8568.5688917007283
 31
0.0
  0
LINE
  5
7EC1
  8
KL
 10
8103.219372779603
 20
8603.5688917007283
 30
0.0
 11
8093.8411987796026
 21
8568.5688917007283
 31
0.0
  0
LINE
  5
7EC2
  8
KL
 10
8083.8411987796026
 20
8596.5688917007283
 30
0.0
 11
8057.777966779603
 21
8595.6587357007284
 31
0.0
  0
LINE
  5
7EC4
  8
KL
 10
8118.8411987796044
 20
8616.5688917007283
 30
0.0
 11
8103.219372779603
 21
8603.5688917007283
 31
0.0
  0
LINE
  5
7EC5
  8
FUTO
 10
7852.3411987796044
 20
8440.5688917007283
 30
0.0
 11
7852.3411987796044
 21
8376.5688917007283
 31
0.0
  0
ARC
  5
7EC6
  8
FUTO
 10
8004.3411987796044
 20
8484.5688917007283
 30
0.0
 40
2.0
 50
90.0
 51
180.0
  0
ARC
  5
7ED5
  8
KL
 10
8103.8411987796026
 20
8531.5688917007265
 30
0.0
 40
10.0
 50
90.0
 51
180.0
  0
ARC
  5
7ED8
  8
FUTO
 10
8014.494274779604
 20
8489.5688917007283
 30
0.0
 40
2.9999599999999988
 50
270.0
 51
357.00044300001662
  0
LINE
  5
7ED9
  8
FUTO
 10
8014.494274779604
 20
8486.5688917007283
 30
0.0
 11
8004.3411987796044
 21
8486.5688917007283
 31
0.0
  0
LINE
  5
7EDA
  8
FUTO
 10
7962.3411987796026
 20
8440.5688917007283
 30
0.0
 11
7962.3411987796026
 21
8436.5688917007283
 31
0.0
  0
LINE
  5
7EDB
  8
FUTO
 10
7992.3411987796026
 20
8439.0688917007283
 30
0.0
 11
8002.3411987796026
 21
8439.0688917007283
 31
0.0
  0
LINE
  5
7EDC
  8
FUTO
 10
7992.3411987796026
 20
8374.0688917007283
 30
0.0
 11
8002.3411987796026
 21
8374.0688917007283
 31
0.0
  0
LINE
  5
7EDD
  8
FUTO
 10
7992.3411987796026
 20
8374.0688917007283
 30
0.0
 11
7992.3411987796026
 21
8439.0688917007283
 31
0.0
  0
ARC
  5
7EDE
  8
KL
 10
8103.8411987796026
 20
8431.5688917007265
 30
0.0
 40
10.0
 50
180.0
 51
270.0
  0
LINE
  5
7EDF
  8
FUTO
 10
8002.3411987796026
 20
8484.5688917007283
 30
0.0
 11
8002.3411987796026
 21
8406.5688917007265
 31
0.0
  0
LINE
  5
7EE0
  8
KL
 10
8093.8411987796026
 20
8431.5688917007265
 30
0.0
 11
8093.8411987796026
 21
8531.5688917007265
 31
0.0
  0
LINE
  5
7EE1
  8
FUTO
 10
7992.3411987796026
 20
8436.5688917007283
 30
0.0
 11
7852.3411987796044
 21
8436.5688917007283
 31
0.0
  0
LINE
  5
7EE2
  8
FUTO
 10
7992.3411987796026
 20
8376.5688917007283
 30
0.0
 11
7852.3411987796044
 21
8376.5688917007283
 31
0.0
  0
LINE
  5
7EE3
  8
FUTO
 10
7962.3411987796026
 20
8440.5688917007283
 30
0.0
 11
7852.3411987796044
 21
8440.5688917007283
 31
0.0
  0
LINE
  5
7EE4
  8
KL
 10
8088.8411987796017
 20
8568.5688917007283
 30
0.0
 11
8088.8411987796017
 21
8406.5688917007265
 31
0.0
  0
LINE
  5
7EE5
  8
KL
 10
8083.8411987796026
 20
8596.5688917007283
 30
0.0
 11
8083.8411987796026
 21
8406.5688917007265
 31
0.0
  0
LINE
  5
7EE6
  8
FUTO
 10
8021.1473507796054
 20
8559.1948687007261
 30
0.0
 11
8016.5045287796038
 21
8470.6035597007285
 31
0.0
  0
LINE
  5
7EE8
  8
KL
 10
8088.8411987796017
 20
8568.5688917007283
 30
0.0
 11
8088.8411987796017
 21
8406.5688917007265
 31
0.0
  0
ARC
  5
7EE9
  8
KL
 10
8266.6062137796034
 20
8624.8480057007291
 30
0.0
 40
2.9999909999999992
 50
96.115172999988943
 51
174.80557099997009
  0
LINE
  5
7EEA
  8
KL
 10
8263.6185427796045
 20
8625.1196127007279
 30
0.0
 11
8262.8411987796026
 21
8616.5688917007283
 31
0.0
  0
ARC
  5
7EEB
  8
KL
 10
8256.8828247796046
 20
8617.2986897007304
 30
0.0
 40
5.9999760000000002
 50
354.80557299999322
 51
54.396263000016731
  0
ARC
  5
7EEC
  8
KL
 10
8289.0761837796035
 20
8624.8480057007291
 30
0.0
 40
2.999981
 50
5.194427000006832
 51
83.884827000011072
  0
ARC
  5
7EED
  8
KL
 10
8277.8411987796026
 20
8646.5688917007283
 30
0.0
 40
30.0
 50
305.19004800002568
 51
305.60386699999998
  0
LINE
  5
7EEE
  8
KL
 10
8277.8411987796026
 20
8629.0688917007283
 30
0.0
 11
8289.3957637796029
 21
8627.8309157007279
 31
0.0
  0
LINE
  5
7EEF
  8
KL
 10
8292.0638547796043
 20
8625.1196127007279
 30
0.0
 11
8292.8411987796026
 21
8616.5688917007283
 31
0.0
  0
ARC
  5
7EF0
  8
KL
 10
8298.7995727796042
 20
8617.2986897007304
 30
0.0
 40
5.9999820000000001
 50
125.6037369999832
 51
185.19442700000681
  0
LINE
  5
7EF1
  8
KL
 10
8277.8411987796026
 20
8629.0688917007283
 30
0.0
 11
8266.2866337796058
 21
8627.8309157007279
 31
0.0
  0
LINE
  5
7EF2
  8
KL
 10
8266.2866337796058
 20
8627.8309157007279
 30
0.0
 11
8289.3957637796029
 21
8627.8309157007279
 31
0.0
  0
LINE
  5
7EF3
  8
KL
 10
8317.8411987796026
 20
8646.5688917007283
 30
0.0
 11
8237.8411987796026
 21
8646.5688917007283
 31
0.0
  0
LINE
  5
7EF4
  8
KL
 10
8218.8411987796026
 20
8555.5688917007283
 30
0.0
 11
8336.8411987796026
 21
8555.5688917007283
 31
0.0
  0
CIRCLE
  5
7EF5
  8
KL
 10
8277.8411987796026
 20
8646.5688917007283
 30
0.0
 40
17.5
  0
ARC
  5
7EF6
  8
KL
 10
8277.8411987796026
 20
8646.5688917007283
 30
0.0
 40
30.0
 50
305.60386699999998
 51
234.39614899998969
  0
LINE
  5
7EF7
  8
KL
 10
8436.8411377796037
 20
8616.5688917007283
 30
0.0
 11
8446.8411377796056
 21
8608.2471147007273
 31
0.0
  0
ARC
  5
7EF8
  8
KL
 10
8493.3145267796026
 20
8590.0688917007283
 30
0.0
 40
20.0
 50
69.99995399998474
 51
90.0
  0
ARC
  5
7EF9
  8
KL
 10
8530.5899167796015
 20
8619.0688917007265
 30
0.0
 40
20.0
 50
250.00027499999021
 51
270.0
  0
LINE
  5
7EFC
  8
KL
 10
8500.1549807796036
 20
8608.8628377007281
 30
0.0
 11
8523.7495847796035
 21
8600.274946700727
 31
0.0
  0
LINE
  5
7EFD
  8
KL
 10
8446.8411377796056
 20
8610.0688917007283
 30
0.0
 11
8493.3145267796026
 21
8610.0688917007283
 31
0.0
  0
LINE
  5
7EFE
  8
KL
 10
8436.8411377796037
 20
8616.5688917007283
 30
0.0
 11
8277.8411987796026
 21
8616.5688917007283
 31
0.0
  0
LINE
  5
7EFF
  8
KL
 10
8339.8411377796037
 20
8548.5688917007283
 30
0.0
 11
8215.8411987796026
 21
8548.5688917007283
 31
0.0
  0
ARC
  5
7F00
  8
KL
 10
8215.8411987796026
 20
8373.8711377007276
 30
0.0
 40
20.0
 50
180.0
 51
270.0
  0
CIRCLE
  5
7F01
  8
KL
 10
8277.8411987796026
 20
8340.8711377007276
 30
0.0
 40
3.5
  0
LINE
  5
7F02
  8
KL
 10
8284.2940797796036
 20
8340.8711377007276
 30
0.0
 11
8269.7049687796025
 21
8340.8711377007276
 31
0.0
  0
LINE
  5
7F03
  8
KL
 10
8215.8411987796026
 20
8353.8711377007276
 30
0.0
 11
8339.8411987796026
 21
8353.8711377007276
 31
0.0
  0
LINE
  5
7F04
  8
KL
 10
8336.8411377796037
 20
8333.8711377007276
 30
0.0
 11
8218.8411987796026
 21
8333.8711377007276
 31
0.0
  0
LINE
  5
7F05
  8
KL
 10
8195.8411987796026
 20
8528.5688917007265
 30
0.0
 11
8195.8411987796026
 21
8373.8711377007276
 31
0.0
  0
LINE
  5
7F06
  8
KL
 10
8188.8411987796044
 20
8525.5688917007283
 30
0.0
 11
8188.8411987796044
 21
8363.8711377007276
 31
0.0
  0
LINE
  5
7F07
  8
KL
 10
8446.8411377796056
 20
8541.5688917007283
 30
0.0
 11
8362.2183347796035
 21
8541.5688917007283
 31
0.0
  0
LINE
  5
7F0B
  8
KL
 10
8446.8411377796056
 20
8421.5688917007283
 30
0.0
 11
8366.8411377796037
 21
8421.5688917007283
 31
0.0
  0
LINE
  5
7F0C
  8
KL
 10
8359.8411377796037
 20
8528.5688917007265
 30
0.0
 11
8359.8411377796037
 21
8373.8711377007276
 31
0.0
  0
LINE
  5
7F0D
  8
KL
 10
8366.8411377796037
 20
8525.5688917007283
 30
0.0
 11
8366.8411377796037
 21
8363.8711377007276
 31
0.0
  0
ARC
  5
7F0E
  8
KL
 10
8339.8411377796037
 20
8373.8711377007276
 30
0.0
 40
20.0
 50
270.0
 51
0.000000000000007
  0
LINE
  5
7F0F
  8
KL
 10
8386.8411377796037
 20
8481.5688917007283
 30
0.0
 11
8168.8411987796026
 21
8481.5688917007283
 31
0.0
  0
ARC
  5
7F10
  8
KL
 10
8339.8411377796037
 20
8528.5688917007265
 30
0.0
 40
20.0
 50
0.000000000000007
 51
90.0
  0
ARC
  5
7F11
  8
KL
 10
8215.8411987796026
 20
8528.5688917007265
 30
0.0
 40
20.0
 50
90.0
 51
180.0
  0
ARC
  5
7F12
  8
KL
 10
8218.8411987796026
 20
8525.5688917007283
 30
0.0
 40
30.0
 50
90.0
 51
180.0
  0
ARC
  5
7F13
  8
KL
 10
8336.8411377796037
 20
8525.5688917007283
 30
0.0
 40
30.0
 50
0.000000000000007
 51
90.0
  0
LINE
  5
7F18
  8
KL
 10
8118.8411987796044
 20
8616.5688917007283
 30
0.0
 11
8277.8411987796026
 21
8616.5688917007283
 31
0.0
  0
LINE
  5
7F19
  8
KL
 10
8103.8411987796026
 20
8541.5688917007283
 30
0.0
 11
8193.4640017796028
 21
8541.5688917007283
 31
0.0
  0
LINE
  5
7F1A
  8
KL
 10
8103.8411987796026
 20
8421.5688917007283
 30
0.0
 11
8188.8411987796044
 21
8421.5688917007283
 31
0.0
  0
ARC
  5
7F1B
  8
FUTO
 10
8004.3411987796044
 20
8328.5688917007283
 30
0.0
 40
2.0
 50
180.0
 51
270.0
  0
ARC
  5
7F1C
  8
FUTO
 10
8014.494274779604
 20
8323.5688917007283
 30
0.0
 40
3.0
 50
2.9995570000354208
 51
90.0
  0
ARC
  5
7F1D
  8
FUTO
 10
8029.1908077796043
 20
8291.5371537007286
 30
0.0
 40
10.000139999999989
 50
183.00042699998181
 51
225.00097699998821
  0
ARC
  5
7F2C
  8
FUTO
 10
8031.1336787796026
 20
8254.4661087007298
 30
0.0
 40
9.9999679999999991
 50
182.9990540000266
 51
225.0
  0
LINE
  5
7F2D
  8
KL
 10
8093.8411987796026
 20
8254.8081497007279
 30
0.0
 11
8112.9298217796031
 21
8254.8081497007279
 31
0.0
  0
LINE
  5
7F2E
  8
KL
 10
8094.8770877796042
 20
8244.5688917007283
 30
0.0
 11
8088.8411987796017
 21
8244.5688917007283
 31
0.0
  0
LINE
  5
7F2F
  8
KL
 10
8083.8411987796026
 20
8244.5688917007283
 30
0.0
 11
8088.8411987796017
 21
8244.5688917007283
 31
0.0
  0
ARC
  5
7F30
  8
KL
 10
8100.8411987796026
 20
8223.5688917007265
 30
0.0
 40
3.0
 50
90.0
 51
180.0
  0
ARC
  5
7F31
  8
KL
 10
8107.929821779604
 20
8231.5688917007283
 30
0.0
 40
5.0
 50
270.0
 51
0.000000000000007
  0
LINE
  5
7F32
  8
KL
 10
8093.8411987796026
 20
8247.6953567007295
 30
0.0
 11
8096.3997927796054
 21
8247.6953567007295
 31
0.0
  0
LINE
  5
7F33
  8
KL
 10
8100.8411987796026
 20
8226.5688917007265
 30
0.0
 11
8093.8411987796026
 21
8247.6953567007295
 31
0.0
  0
LINE
  5
7F34
  8
KL
 10
8112.9298217796031
 20
8231.5688917007283
 30
0.0
 11
8112.9298217796031
 21
8254.8081497007279
 31
0.0
  0
LINE
  5
7F35
  8
KL
 10
8103.9994017796034
 20
8226.5688917007265
 30
0.0
 11
8093.8411987796026
 21
8254.8081497007279
 31
0.0
  0
LINE
  5
7F38
  8
FUTO
 10
8017.4725467796043
 20
8324.0641317007285
 30
0.0
 11
8021.1473507796054
 21
8253.9429157007289
 31
0.0
  0
LINE
  5
7F3A
  8
KL
 10
8050.9122437796041
 20
8255.6736287007279
 30
0.0
 11
8022.1197627796037
 21
8284.4658647007273
 31
0.0
  0
LINE
  5
7F3D
  8
FUTO
 10
8014.494274779604
 20
8326.5688917007283
 30
0.0
 11
8004.3411987796044
 21
8326.5688917007283
 31
0.0
  0
ARC
  5
7F3E
  8
KL
 10
8058.1268437796043
 20
8227.4729447007285
 30
0.0
 40
9.9999839999999995
 50
225.0
 51
268.00067099997602
  0
LINE
  5
7F3F
  8
KL
 10
8083.8411987796026
 20
8216.5688917007283
 30
0.0
 11
8057.777966779603
 21
8217.4790487007285
 31
0.0
  0
LINE
  5
7F40
  8
KL
 10
8097.8411987796026
 20
8206.5688917007283
 30
0.0
 11
8097.8411987796026
 21
8223.5688917007265
 31
0.0
  0
LINE
  5
7F41
  8
KL
 10
8051.0557987796037
 20
8220.4018997007279
 30
0.0
 11
8024.0626347796033
 21
8247.3950637007292
 31
0.0
  0
LINE
  5
7F42
  8
KL
 10
8238.2411007796036
 20
8228.1768027007274
 30
0.0
 11
8157.8411987796026
 21
8226.5688917007265
 31
0.0
  0
ARC
  5
7F43
  8
KL
 10
8252.8411987796044
 20
8289.0649857007284
 30
0.0
 40
5.0
 50
0.000000000000007
 51
90.0
  0
ARC
  5
7F44
  8
KL
 10
8302.8411987796026
 20
8289.0649857007284
 30
0.0
 40
5.0
 50
90.0
 51
180.0
  0
ARC
  5
7F45
  8
KL
 10
8317.8411377796037
 20
8248.172895700729
 30
0.0
 40
20.000091999999999
 50
180.0
 51
268.85427899999053
  0
LINE
  5
7F46
  8
KL
 10
8297.8411987796026
 20
8289.0649857007284
 30
0.0
 11
8297.8411987796026
 21
8248.172895700729
 31
0.0
  0
LINE
  5
7F47
  8
KL
 10
8257.8411987796026
 20
8289.0649857007284
 30
0.0
 11
8257.8411987796026
 21
8248.172895700729
 31
0.0
  0
ARC
  5
7F48
  8
KL
 10
8237.8411987796026
 20
8248.172895700729
 30
0.0
 40
20.0
 50
271.14572100000942
 51
0.000000000000007
  0
LINE
  5
7F49
  8
KL
 10
8177.8411987796026
 20
8206.5688917007283
 30
0.0
 11
8177.8411987796026
 21
8207.5688917007283
 31
0.0
  0
ARC
  5
7F4A
  8
KL
 10
8182.8411987796044
 20
8207.5688917007283
 30
0.0
 40
5.0
 50
90.0
 51
180.0
  0
LINE
  5
7F4B
  8
KL
 10
8182.8411987796044
 20
8212.5688917007283
 30
0.0
 11
8277.8411987796026
 21
8212.5688917007283
 31
0.0
  0
ARC
  5
7F4C
  8
KL
 10
8454.8411377796037
 20
8223.5688917007265
 30
0.0
 40
3.0
 50
0.000000000000007
 51
90.0
  0
LINE
  5
7F4D
  8
KL
 10
8397.8411377796037
 20
8226.5688917007265
 30
0.0
 11
8405.5206907039137
 21
8226.5688917007265
 31
0.0
  0
ARC
  5
7F57
  8
KL
 10
8372.8411377796037
 20
8207.5688917007283
 30
0.0
 40
5.0
 50
0.000000000000007
 51
90.0
  0
LINE
  5
7F58
  8
KL
 10
8377.8411377796019
 20
8206.5688917007283
 30
0.0
 11
8377.8411377796019
 21
8207.5688917007283
 31
0.0
  0
LINE
  5
7F59
  8
KL
 10
8377.8411377796019
 20
8206.5688917007283
 30
0.0
 11
8402.8411987796026
 21
8206.5688917007283
 31
0.0
  0
LINE
  5
7F5A
  8
KL
 10
8517.4472167796011
 20
8210.5688917007283
 30
0.0
 11
8527.0631837796027
 21
8214.0688917007283
 31
0.0
  0
LINE
  5
7F5B
  8
KL
 10
8517.4472167796011
 20
8210.5688917007283
 30
0.0
 11
8457.8411377796037
 21
8210.5688917007283
 31
0.0
  0
LINE
  5
7F5C
  8
KL
 10
8457.8411377796037
 20
8206.5688917007283
 30
0.0
 11
8457.8411377796037
 21
8223.5688917007265
 31
0.0
  0
LINE
  5
7F5D
  8
KL
 10
8317.4412357796027
 20
8228.1768027007274
 30
0.0
 11
8397.8411377796037
 21
8226.5688917007265
 31
0.0
  0
LINE
  5
7F5E
  8
KL
 10
8372.8411377796037
 20
8212.5688917007283
 30
0.0
 11
8277.8411987796026
 21
8212.5688917007283
 31
0.0
  0
LINE
  5
7F5F
  8
KL
 10
8157.8411987796026
 20
8226.5688917007265
 30
0.0
 11
8150.1617068552932
 21
8226.5688917007265
 31
0.0
  0
LINE
  5
7F60
  8
KL
 10
8177.8411987796026
 20
8206.5688917007283
 30
0.0
 11
8152.8411987796026
 21
8206.5688917007283
 31
0.0
  0
ARC
  5
7F61
  8
KL
 10
8336.8411377796037
 20
8363.8711377007276
 30
0.0
 40
30.0
 50
270.0
 51
0.000000000000007
  0
ARC
  5
7F62
  8
KL
 10
8218.8411987796026
 20
8363.8711377007276
 30
0.0
 40
30.0
 50
180.0
 51
270.0
  0
LINE
  5
7F63
  8
CT
 10
8277.8411987796026
 20
8696.5688917007283
 30
0.0
 11
8277.8411987796026
 21
8126.5688917007283
 31
0.0
  0
LINE
  5
7F64
  8
KL
 10
8088.8411987796017
 20
8244.5688917007283
 30
0.0
 11
8088.8411987796017
 21
8406.5688917007265
 31
0.0
  0
LINE
  5
7F65
  8
KL
 10
8446.8411377796056
 20
8610.0688917007283
 30
0.0
 11
8446.8411377796056
 21
8226.5688917007265
 31
0.0
  0
LINE
  5
7F66
  8
KL
 10
8496.8411377796037
 20
8609.7554157007307
 30
0.0
 11
8496.8411377796037
 21
8210.5688917007283
 31
0.0
  0
LINE
  5
7F67
  8
KL
 10
8527.0410887796024
 20
8599.3862747007279
 30
0.0
 11
8527.0410887796024
 21
8214.0688917007283
 31
0.0
  0
LINE
  5
7F68
  8
KL
 10
8088.8411987796017
 20
8244.5688917007283
 30
0.0
 11
8088.8411987796017
 21
8406.5688917007265
 31
0.0
  0
LINE
  5
7F69
  8
KL
 10
8083.8411987796026
 20
8216.5688917007283
 30
0.0
 11
8083.8411987796026
 21
8406.5688917007265
 31
0.0
  0
LINE
  5
7F6A
  8
FUTO
 10
8002.3411987796026
 20
8328.5688917007283
 30
0.0
 11
8002.3411987796026
 21
8406.5688917007265
 31
0.0
  0
ARC
  5
7F6B
  8
KL
 10
8591.5302247796008
 20
8584.0688917007283
 30
0.0
 40
15.0
 50
60.00018299999563
 51
90.0
  0
ARC
  5
7F6C
  8
KL
 10
8646.8411377796037
 20
8563.6821737007285
 30
0.0
 40
4.9999580000000003
 50
0.000000000000007
 51
59.999718000001181
  0
LINE
  5
7F6D
  8
KL
 10
8649.3411377796037
 20
8568.0122517007294
 30
0.0
 11
8599.0302247796008
 21
8597.0593707007283
 31
0.0
  0
LINE
  5
7F6E
  8
FUTO
 10
4105.0745941638788
 20
8552.797895700729
 30
0.0
 11
4106.4821871638787
 21
8552.0371537007286
 31
0.0
  0
ARC
  5
7F6F
  8
FUTO
 10
4104.5991301638787
 20
8551.9180127007294
 30
0.0
 40
1.000079999999999
 50
61.614464000024142
 51
151.6049860000241
  0
ARC
  5
7F70
  8
FUTO
 10
4106.0067231638805
 20
8551.157270700729
 30
0.0
 40
1.0001299999999991
 50
331.6139680000237
 51
61.614464000024142
  0
LINE
  5
7F71
  8
FUTO
 10
4185.9129731638805
 20
8551.3240187007286
 30
0.0
 11
4185.0643401638781
 21
8551.3240187007286
 31
0.0
  0
LINE
  5
7F72
  8
FUTO
 10
4185.9129731638805
 20
8551.3240187007286
 30
0.0
 11
4185.9129731638805
 21
8552.1726517007264
 31
0.0
  0
LINE
  5
7F73
  8
FUTO
 10
4193.6665131638802
 20
8559.0776807007296
 30
0.0
 11
4197.2586761638786
 21
8555.4856397007279
 31
0.0
  0
LINE
  5
7F74
  8
FUTO
 10
4192.81800216388
 20
8559.0776807007296
 30
0.0
 11
4193.6665131638802
 21
8559.0776807007296
 31
0.0
  0
LINE
  5
7F75
  8
FUTO
 10
4191.3791591638801
 20
8556.7903277007299
 30
0.0
 11
4191.3791591638801
 21
8557.6389607007295
 31
0.0
  0
LINE
  5
7F76
  8
FUTO
 10
4191.3791591638801
 20
8556.7903277007299
 30
0.0
 11
4194.9713221638794
 21
8553.1982867007282
 31
0.0
  0
LINE
  5
7F77
  8
FUTO
 10
4191.3791591638801
 20
8556.7903277007299
 30
0.0
 11
4190.5306491638803
 21
8556.7903277007299
 31
0.0
  0
LINE
  5
7F78
  8
FUTO
 10
3990.078744163879
 20
8342.1394487007292
 30
0.0
 11
3987.2804041638792
 21
8343.6518997007297
 31
0.0
  0
ARC
  5
7F79
  8
FUTO
 10
3985.72803616388
 20
8331.9871047007291
 30
0.0
 40
1.0001299999999991
 50
151.61727900002231
 51
241.61447099997949
  0
ARC
  5
7F7A
  8
FUTO
 10
4984.5052581638802
 20
8418.1001417007283
 30
0.0
 40
1000.0
 50
174.84371900001099
 51
184.2695309999898
  0
LINE
  5
7F7B
  8
FUTO
 10
4105.1652921638797
 20
8547.4976027007287
 30
0.0
 11
4113.5117281638804
 21
8542.9863727007287
 31
0.0
  0
ARC
  5
7F7C
  8
FUTO
 10
4111.1344081638799
 20
8538.5876907007296
 30
0.0
 40
5.000062999999999
 50
0.000000000000007
 51
61.609245000013807
  0
LINE
  5
7F7D
  8
CT
 10
4133.5792331638813
 20
8481.5688917007283
 30
0.0
 11
4097.1458831638793
 21
8481.5688917007283
 31
0.0
  0
LINE
  5
7F7E
  8
FUTO
 10
4183.6256191638804
 20
8549.0366657007289
 30
0.0
 11
4187.2176601638803
 21
8545.4446247007309
 31
0.0
  0
LINE
  5
7F7F
  8
FUTO
 10
4183.6256191638804
 20
8549.0366657007289
 30
0.0
 11
4183.6256191638804
 21
8549.8852987007267
 31
0.0
  0
LINE
  5
7F80
  8
FUTO
 10
4115.1485071638799
 20
8541.5688917007283
 30
0.0
 11
4183.8607271638793
 21
8541.5688917007283
 31
0.0
  0
LINE
  5
7F81
  8
FUTO
 10
4116.1344081638799
 20
8421.5688917007283
 30
0.0
 11
4133.1878751638787
 21
8421.5688917007283
 31
0.0
  0
ARC
  5
7F82
  8
FUTO
 10
4097.3065281638792
 20
8351.5688917007265
 30
0.0
 40
10.000057999999999
 50
270.0
 51
352.87567099997028
  0
LINE
  5
7F83
  8
FUTO
 10
4116.1344081638799
 20
8421.5688917007283
 30
0.0
 11
4107.2293791638804
 21
8350.3286577007293
 31
0.0
  0
LINE
  5
7F84
  8
FUTO
 10
4126.1344081638799
 20
8421.5688917007283
 30
0.0
 11
4126.1344081638799
 21
8541.5688917007283
 31
0.0
  0
LINE
  5
7F85
  8
FUTO
 10
4116.1344081638799
 20
8421.5688917007283
 30
0.0
 11
4116.1344081638799
 21
8538.5876907007296
 31
0.0
  0
LINE
  5
7F86
  8
FUTO
 10
3993.8623751638788
 20
8341.5688917007283
 30
0.0
 11
4097.3065281638792
 21
8341.5688917007283
 31
0.0
  0
LINE
  5
7F87
  8
FUTO
 10
4101.9983001638793
 20
8549.2092727007275
 30
0.0
 11
4025.815072163879
 21
8544.2947217007295
 31
0.0
  0
ARC
  5
7F88
  8
FUTO
 10
4028.3900241638789
 20
8504.3777297007291
 30
0.0
 40
40.000011000000001
 50
93.690902999999693
 51
174.8436270000314
  0
LINE
  5
7F89
  8
FUTO
 10
4103.7193691638804
 20
8552.393598700728
 30
0.0
 11
3984.8482761638788
 21
8332.4624467007288
 31
0.0
  0
LINE
  5
7F8A
  8
FUTO
 10
4197.2586761638786
 20
8555.4856397007279
 30
0.0
 11
4187.2176601638803
 21
8545.4446247007309
 31
0.0
  0
LINE
  5
7F8B
  8
CT
 10
4187.6933681638802
 20
8555.0098097007285
 30
0.0
 11
4192.9415371638779
 21
8549.7617627007312
 31
0.0
  0
LINE
  5
7F8C
  8
FUTO
 10
4192.81800216388
 20
8559.0776807007296
 30
0.0
 11
4183.6256191638804
 21
8549.8852987007267
 31
0.0
  0
LINE
  5
7F8D
  8
FUTO
 10
4185.9129731638805
 20
8551.3240187007286
 30
0.0
 11
4189.5050141638803
 21
8547.7319777007287
 31
0.0
  0
ARC
  5
7F8E
  8
FUTO
 10
4336.134408163879
 20
8670.3188917007283
 30
0.0
 40
6.25
 50
0.000000000000007
 51
180.0
  0
LINE
  5
7F8F
  8
FUTO
 10
4319.5376521638791
 20
8612.9877157007286
 30
0.0
 11
4319.6977171638791
 21
8609.4039137007294
 31
0.0
  0
LINE
  5
7F90
  8
FUTO
 10
4329.8844081638799
 20
8628.399275700729
 30
0.0
 11
4324.5798431638786
 21
8627.8309157007279
 31
0.0
  0
ARC
  5
7F91
  8
FUTO
 10
4324.8994381638804
 20
8624.8480057007291
 30
0.0
 40
3.0000059999999991
 50
96.115463000033785
 51
174.8055969999956
  0
LINE
  5
7F92
  8
FUTO
 10
4342.384408163879
 20
8628.399275700729
 30
0.0
 11
4347.6889741638788
 21
8627.8309157007279
 31
0.0
  0
ARC
  5
7F93
  8
FUTO
 10
4323.1344081638799
 20
8613.5688917007283
 30
0.0
 40
3.0
 50
90.0
 51
133.8690379999866
  0
ARC
  5
7F94
  8
FUTO
 10
4336.134408163879
 20
8406.5688917007265
 30
0.0
 40
209.99987799999991
 50
93.733024999983584
 51
93.766990999962644
  0
ARC
  5
7F95
  8
FUTO
 10
4322.6572051638796
 20
8613.1296217007275
 30
0.0
 40
3.0001099999999989
 50
4.9449460000082901
 51
93.734192000008321
  0
ARC
  5
7F96
  8
FUTO
 10
4323.1344081638799
 20
8613.5688917007283
 30
0.0
 40
3.0
 50
90.0
 51
132.5596429999928
  0
LINE
  5
7F97
  8
FUTO
 10
4325.6459751638786
 20
8613.3881667007281
 30
0.0
 11
4325.9550571638792
 21
8609.8140707007278
 31
0.0
  0
LINE
  5
7F98
  8
FUTO
 10
4346.6227201638794
 20
8613.3881667007281
 30
0.0
 11
4346.3136381638797
 21
8609.8140707007278
 31
0.0
  0
ARC
  5
7F99
  8
FUTO
 10
4345.384408163879
 20
8622.0015097007272
 30
0.0
 40
3.0
 50
180.0
 51
270.0
  0
ARC
  5
7F9A
  8
FUTO
 10
4326.8844081638799
 20
8622.2897177007289
 30
0.0
 40
3.0
 50
270.0
 51
0.000000000000007
  0
LINE
  5
7F9B
  8
FUTO
 10
4321.91175216388
 20
8625.1196127007279
 30
0.0
 11
4321.1344081638799
 21
8616.5688917007283
 31
0.0
  0
ARC
  5
7F9C
  8
FUTO
 10
4322.5346311638814
 20
8613.1216267007294
 30
0.0
 40
3.000081999999999
 50
93.765747000020752
 51
182.55828900003789
  0
ARC
  5
7F9D
  8
FUTO
 10
4336.134408163879
 20
8406.5688917007265
 30
0.0
 40
209.99998500000001
 50
86.233009000037313
 51
86.267005999973264
  0
ARC
  5
7F9E
  8
FUTO
 10
4349.7340641638802
 20
8613.1215657007288
 30
0.0
 40
2.9999649999999991
 50
357.44277999999088
 51
86.232139999971935
  0
LINE
  5
7F9F
  8
FUTO
 10
4352.7310421638786
 20
8612.9877157007286
 30
0.0
 11
4352.5709781638789
 21
8609.4039137007294
 31
0.0
  0
LINE
  5
7FA0
  8
FUTO
 10
4350.3570651638802
 20
8625.1196127007279
 30
0.0
 11
4351.1344081638799
 21
8616.5688917007283
 31
0.0
  0
ARC
  5
7FA1
  8
FUTO
 10
4349.134408163879
 20
8613.5688917007283
 30
0.0
 40
3.0
 50
46.112625000024657
 51
90.0
  0
LINE
  5
7FA2
  8
FUTO
 10
4321.1344081638799
 20
8616.5688917007283
 30
0.0
 11
4351.1344081638799
 21
8616.5688917007283
 31
0.0
  0
ARC
  5
7FA3
  8
FUTO
 10
4349.134408163879
 20
8613.5688917007283
 30
0.0
 40
3.0
 50
46.168487999999194
 51
90.0
  0
ARC
  5
7FA4
  8
FUTO
 10
4347.3693781638794
 20
8624.8480057007291
 30
0.0
 40
2.9999820000000001
 50
5.1943969999919046
 51
83.884536999966215
  0
ARC
  5
7FA5
  8
FUTO
 10
4349.6116121638788
 20
8613.1296217007275
 30
0.0
 40
3.0000490000000002
 50
86.268058999992206
 51
175.0561099999934
  0
LINE
  5
7FA6
  8
FUTO
 10
4478.6021821638788
 20
8559.0776807007296
 30
0.0
 11
4475.010141163878
 21
8555.4856397007279
 31
0.0
  0
LINE
  5
7FA7
  8
FUTO
 10
4478.6021821638788
 20
8559.0776807007296
 30
0.0
 11
4479.4508151638802
 21
8559.0776807007296
 31
0.0
  0
LINE
  5
7FA8
  8
FUTO
 10
4486.3558441638797
 20
8551.3242627007294
 30
0.0
 11
4487.2044771638793
 21
8551.3242627007294
 31
0.0
  0
LINE
  5
7FA9
  8
FUTO
 10
4486.3558441638797
 20
8551.3242627007294
 30
0.0
 11
4486.3558441638797
 21
8552.1726517007264
 31
0.0
  0
LINE
  5
7FAA
  8
FUTO
 10
4480.8895351638803
 20
8556.7903277007299
 30
0.0
 11
4480.8895351638803
 21
8557.6389607007295
 31
0.0
  0
LINE
  5
7FAB
  8
FUTO
 10
4480.8895351638803
 20
8556.7903277007299
 30
0.0
 11
4481.7381681638799
 21
8556.7903277007299
 31
0.0
  0
LINE
  5
7FAC
  8
FUTO
 10
4480.8895351638803
 20
8556.7903277007299
 30
0.0
 11
4477.2974941638804
 21
8553.1982867007282
 31
0.0
  0
LINE
  5
7FAD
  8
FUTO
 10
4342.384408163879
 20
8670.3188917007283
 30
0.0
 11
4342.384408163879
 21
8622.0015097007272
 31
0.0
  0
LINE
  5
7FAE
  8
FUTO
 10
4329.8844081638799
 20
8670.3188917007283
 30
0.0
 11
4329.8844081638799
 21
8622.2897177007289
 31
0.0
  0
LINE
  5
7FAF
  8
FUTO
 10
4488.6431971638794
 20
8549.0366657007289
 30
0.0
 11
4485.0511561638787
 21
8545.4446247007309
 31
0.0
  0
LINE
  5
7FB0
  8
FUTO
 10
4488.6431971638794
 20
8549.8852987007267
 30
0.0
 11
4488.6431971638794
 21
8549.0366657007289
 31
0.0
  0
LINE
  5
7FB1
  8
FUTO
 10
4485.0511561638787
 20
8545.4446247007309
 30
0.0
 11
4475.010141163878
 21
8555.4856397007279
 31
0.0
  0
LINE
  5
7FB2
  8
CT
 10
4484.5753261638802
 20
8555.0098097007285
 30
0.0
 11
4479.3272791638792
 21
8549.7617627007312
 31
0.0
  0
LINE
  5
7FB3
  8
FUTO
 10
4488.6431971638794
 20
8549.8852987007267
 30
0.0
 11
4479.4508151638802
 21
8559.0776807007296
 31
0.0
  0
LINE
  5
7FB4
  8
FUTO
 10
4486.3558441638797
 20
8551.3242627007294
 30
0.0
 11
4482.7638031638789
 21
8547.7319777007287
 31
0.0
  0
LINE
  5
7FB5
  8
CT
 10
4559.634408163879
 20
8406.5688917007265
 30
0.0
 11
4112.6344081638799
 21
8406.5688917007265
 31
0.0
  0
ARC
  5
7FB6
  8
KL
 10
8646.8411377796037
 20
8249.4556107007284
 30
0.0
 40
5.0
 50
300.00027499997202
 51
0.000000000000007
  0
ARC
  5
7FB7
  8
FUTO
 10
3987.1356291638799
 20
8331.2263627007287
 30
0.0
 40
1.000079999999999
 50
241.61447099997949
 51
331.60498000002087
  0
ARC
  5
7FB8
  8
KL
 10
8591.5302247796008
 20
8229.0688917007283
 30
0.0
 40
15.000085
 50
270.0
 51
299.99981700000433
  0
LINE
  5
7FB9
  8
KL
 10
8649.3411377796037
 20
8245.1255327007275
 30
0.0
 11
8599.0302247796008
 21
8216.0784137007286
 31
0.0
  0
ARC
  5
7FBA
  8
FUTO
 10
4152.1344081638799
 20
8280.8955527007292
 30
0.0
 40
5.0
 50
124.94366100000759
 51
180.0
  0
LINE
  5
7FBB
  8
FUTO
 10
4149.270517163879
 20
8284.9941847007285
 30
0.0
 11
4165.2083831638793
 21
8296.1306597007278
 31
0.0
  0
ARC
  5
7FBC
  8
FUTO
 10
4150.1344081638799
 20
8223.5688917007265
 30
0.0
 40
3.0
 50
90.0
 51
180.0
  0
LINE
  5
7FBD
  8
FUTO
 10
4183.6256191638804
 20
8264.1011187007261
 30
0.0
 11
4187.2176601638803
 21
8267.6931597007278
 31
0.0
  0
LINE
  5
7FBE
  8
FUTO
 10
4183.6256191638804
 20
8263.2524857007284
 30
0.0
 11
4183.6256191638804
 21
8264.1011187007261
 31
0.0
  0
LINE
  5
7FBF
  8
FUTO
 10
4185.9129731638805
 20
8261.8135207007272
 30
0.0
 11
4185.0643401638781
 21
8261.8135207007272
 31
0.0
  0
LINE
  5
7FC0
  8
FUTO
 10
4185.9129731638805
 20
8261.8135207007272
 30
0.0
 11
4185.9129731638805
 21
8260.9651327007286
 31
0.0
  0
LINE
  5
7FC1
  8
FUTO
 10
4193.6666351638796
 20
8254.0601027007287
 30
0.0
 11
4197.2586761638786
 21
8257.6521437007286
 31
0.0
  0
LINE
  5
7FC2
  8
FUTO
 10
4193.6666351638796
 20
8254.0601027007287
 30
0.0
 11
4192.81800216388
 21
8254.0601027007287
 31
0.0
  0
LINE
  5
7FC3
  8
FUTO
 10
4191.3792811638796
 20
8256.3474567007288
 30
0.0
 11
4191.3792811638796
 21
8255.4988237007292
 31
0.0
  0
LINE
  5
7FC4
  8
FUTO
 10
4191.3792811638796
 20
8256.3474567007288
 30
0.0
 11
4194.9713221638794
 21
8259.9394977007287
 31
0.0
  0
LINE
  5
7FC5
  8
FUTO
 10
4191.3792811638796
 20
8256.3474567007288
 30
0.0
 11
4190.5306491638803
 21
8256.3474567007288
 31
0.0
  0
LINE
  5
7FC6
  8
FUTO
 10
4187.2176601638803
 20
8267.6931597007278
 30
0.0
 11
4197.2586761638786
 21
8257.6521437007286
 31
0.0
  0
LINE
  5
7FC7
  8
CT
 10
4187.6934901638788
 20
8258.127973700728
 30
0.0
 11
4192.9415371638779
 21
8263.376020700729
 31
0.0
  0
LINE
  5
7FC8
  8
FUTO
 10
4183.6256191638804
 20
8263.2524857007284
 30
0.0
 11
4192.81800216388
 21
8254.0601027007287
 31
0.0
  0
LINE
  5
7FC9
  8
FUTO
 10
4185.9129731638805
 20
8261.8135207007272
 30
0.0
 11
4189.5050141638803
 21
8265.4058057007296
 31
0.0
  0
ARC
  5
7FCA
  8
FUTO
 10
4223.6344081638799
 20
8223.5688917007265
 30
0.0
 40
3.0
 50
0.000000000000007
 51
90.0
  0
LINE
  5
7FCB
  8
FUTO
 10
4223.6344081638799
 20
8226.5688917007265
 30
0.0
 11
4150.1344081638799
 21
8226.5688917007265
 31
0.0
  0
LINE
  5
7FCC
  8
FUTO
 10
4147.134408163879
 20
8206.5688917007283
 30
0.0
 11
4226.6344081638799
 21
8206.5688917007283
 31
0.0
  0
LINE
  5
7FCD
  8
FUTO
 10
4226.6344081638799
 20
8223.5688917007265
 30
0.0
 11
4226.6344081638799
 21
8206.5688917007283
 31
0.0
  0
LINE
  5
7FCE
  8
FUTO
 10
4232.0316251638787
 20
8231.7122027007299
 30
0.0
 11
4226.6344081638799
 21
8211.5688917007283
 31
0.0
  0
LINE
  5
7FCF
  8
CT
 10
4177.1344081638799
 20
8236.5688917007283
 30
0.0
 11
4177.1344081638799
 21
8196.5688917007283
 31
0.0
  0
LINE
  5
7FD0
  8
FUTO
 10
4147.134408163879
 20
8280.8955527007292
 30
0.0
 11
4147.134408163879
 21
8206.5688917007283
 31
0.0
  0
LINE
  5
7FD1
  8
FUTO
 10
4522.9981781638799
 20
8284.9941847007285
 30
0.0
 11
4507.0603121638787
 21
8296.1306597007278
 31
0.0
  0
ARC
  5
7FD2
  8
FUTO
 10
4448.634408163879
 20
8223.5688917007265
 30
0.0
 40
3.0
 50
90.0
 51
180.0
  0
LINE
  5
7FD3
  8
FUTO
 10
4488.6431971638794
 20
8264.1011187007261
 30
0.0
 11
4485.0511561638787
 21
8267.6931597007278
 31
0.0
  0
LINE
  5
7FD4
  8
FUTO
 10
4488.6431971638794
 20
8264.1011187007261
 30
0.0
 11
4488.6431971638794
 21
8263.2524857007284
 31
0.0
  0
LINE
  5
7FD5
  8
FUTO
 10
4478.6021821638788
 20
8254.0601027007287
 30
0.0
 11
4475.010141163878
 21
8257.6521437007286
 31
0.0
  0
LINE
  5
7FD6
  8
FUTO
 10
4479.4508151638802
 20
8254.0601027007287
 30
0.0
 11
4478.6021821638788
 21
8254.0601027007287
 31
0.0
  0
LINE
  5
7FD7
  8
FUTO
 10
4480.8897791638792
 20
8256.3474567007288
 30
0.0
 11
4480.8897791638792
 21
8255.4988237007292
 31
0.0
  0
LINE
  5
7FD8
  8
FUTO
 10
4480.8897791638792
 20
8256.3474567007288
 30
0.0
 11
4481.7381681638799
 21
8256.3474567007288
 31
0.0
  0
LINE
  5
7FD9
  8
FUTO
 10
4486.3558441638797
 20
8261.8137647007297
 30
0.0
 11
4487.2044771638793
 21
8261.8137647007297
 31
0.0
  0
LINE
  5
7FDA
  8
FUTO
 10
4486.3558441638797
 20
8261.8137647007297
 30
0.0
 11
4486.3558441638797
 21
8260.9651327007286
 31
0.0
  0
LINE
  5
7FDB
  8
FUTO
 10
4480.8897791638792
 20
8256.3474567007288
 30
0.0
 11
4477.2974941638804
 21
8259.9394977007287
 31
0.0
  0
LINE
  5
7FDC
  8
FUTO
 10
4475.010141163878
 20
8257.6521437007286
 30
0.0
 11
4485.0511561638787
 21
8267.6931597007278
 31
0.0
  0
LINE
  5
7FDD
  8
CT
 10
4484.5753261638802
 20
8258.127973700728
 30
0.0
 11
4479.3272791638792
 21
8263.376020700729
 31
0.0
  0
LINE
  5
7FDE
  8
FUTO
 10
4479.4508151638802
 20
8254.0601027007287
 30
0.0
 11
4488.6431971638794
 21
8263.2524857007284
 31
0.0
  0
LINE
  5
7FDF
  8
FUTO
 10
4486.3558441638797
 20
8261.8137647007297
 30
0.0
 11
4482.7638031638789
 21
8265.4058057007296
 31
0.0
  0
LINE
  5
7FE0
  8
FUTO
 10
4448.634408163879
 20
8226.5688917007265
 30
0.0
 11
4522.134408163879
 21
8226.5688917007265
 31
0.0
  0
LINE
  5
7FE1
  8
FUTO
 10
4445.634408163879
 20
8223.5688917007265
 30
0.0
 11
4445.634408163879
 21
8206.5688917007283
 31
0.0
  0
LINE
  5
7FE2
  8
FUTO
 10
4440.236978163879
 20
8231.7120807007286
 30
0.0
 11
4445.634408163879
 21
8211.5688917007283
 31
0.0
  0
LINE
  5
7FE3
  8
CT
 10
4495.1344081638799
 20
8236.5688917007283
 30
0.0
 11
4495.1344081638799
 21
8196.5688917007283
 31
0.0
  0
LINE
  5
7FE4
  8
FUTO
 10
4525.1344081638799
 20
8280.8955527007292
 30
0.0
 11
4525.1344081638799
 21
8206.5688917007283
 31
0.0
  0
LINE
  5
7FE5
  8
FUTO
 10
4525.1344081638799
 20
8206.5688917007283
 30
0.0
 11
4445.634408163879
 21
8206.5688917007283
 31
0.0
  0
ARC
  5
7FE6
  8
FUTO
 10
4520.1344081638799
 20
8280.8955527007292
 30
0.0
 40
5.0000669999999987
 50
0.000000000000007
 51
55.056335000025037
  0
ARC
  5
7FE7
  8
FUTO
 10
4522.134408163879
 20
8223.5688917007265
 30
0.0
 40
3.0
 50
0.000000000000007
 51
90.0
  0
LINE
  5
7FE8
  8
FUTO
 10
4281.3963711638789
 20
8210.5688917007283
 30
0.0
 11
4390.8724451638782
 21
8210.5688917007283
 31
0.0
  0
LINE
  5
7FE9
  8
CT
 10
4336.134408163879
 20
8696.5688917007283
 30
0.0
 11
4336.134408163879
 21
8126.5688917007283
 31
0.0
  0
ARC
  5
7FEA
  8
FUTO
 10
4336.134408163879
 20
8406.5688917007265
 30
0.0
 40
203.5
 50
285.6036990000095
 51
254.3962400000253
  0
LINE
  5
7FEB
  8
KL
 10
8592.7411617796024
 20
8214.0688917007283
 30
0.0
 11
8592.7411617796024
 21
8599.0198197007285
 31
0.0
  0
LINE
  5
7FEC
  8
CT
 10
4046.134408163879
 20
8358.9631787007293
 30
0.0
 11
4046.134408163879
 21
8319.9692827007293
 31
0.0
  0
LINE
  5
7FED
  8
FUTO
 10
4106.886361163879
 20
8550.6816847007285
 30
0.0
 11
3988.0152681638792
 21
8330.7507767007282
 31
0.0
  0
LINE
  5
7FEE
  8
FUTO
 10
3986.6601651638789
 20
8330.3464797007291
 30
0.0
 11
3985.252572163879
 21
8331.1072217007295
 31
0.0
  0
LINE
  5
7FEF
  8
KL
 10
8651.8411987796026
 20
8564.2188557007285
 30
0.0
 11
8651.8411987796026
 21
8249.4285417007286
 31
0.0
  0
LINE
  5
7FF0
  8
CT
 10
7832.3411987796026
 20
8406.5688917007265
 30
0.0
 11
8671.8411987796026
 21
8406.5688917007265
 31
0.0
  0
LINE
  5
7FF1
  8
KL
 10
8530.5899167796015
 20
8599.0688917007301
 30
0.0
 11
8591.5302247796008
 21
8599.0688917007301
 31
0.0
  0
LINE
  5
7FF2
  8
KL
 10
8527.0410887796024
 20
8214.0688917007283
 30
0.0
 11
8591.5302247796008
 21
8214.0688917007283
 31
0.0
  0
LINE
  5
7FF3
  8
FUTO
 10
4327.1344081638799
 20
8440.5688917007283
 30
0.0
 11
4345.134408163879
 21
8440.5688917007283
 31
0.0
  0
LINE
  5
7FF4
  8
FUTO
 10
4327.1344081638799
 20
8429.5688917007283
 30
0.0
 11
4345.1344081638799
 21
8429.5688917007283
 31
0.0
  0
LINE
  5
7FF5
  8
FUTO
 10
4327.1344081638799
 20
8440.5688917007283
 30
0.0
 11
4327.1344081638799
 21
8429.5688917007283
 31
0.0
  0
LINE
  5
7FF6
  8
FUTO
 10
4345.1344081638799
 20
8440.5688917007283
 30
0.0
 11
4345.134408163879
 21
8429.5688917007283
 31
0.0
  0
LINE
  5
7FF7
  8
CT
 10
4471.1344081638781
 20
11863.40602913417
 30
0.0
 11
4521.1344081638799
 21
11863.40602913417
 31
0.0
  0
LINE
  5
7FF8
  8
CT
 10
4496.134408163879
 20
11838.40602913417
 30
0.0
 11
4496.134408163879
 21
11888.40602913417
 31
0.0
  0
LINE
  5
7FF9
  8
CT
 10
4176.1344081638781
 20
11838.40602913417
 30
0.0
 11
4176.1344081638781
 21
11888.40602913417
 31
0.0
  0
LINE
  5
7FFA
  8
CT
 10
4201.1344081638799
 20
11863.40602913417
 30
0.0
 11
4151.1344081638781
 21
11863.40602913417
 31
0.0
  0
LINE
  5
7FFB
  8
CT
 10
4201.1344081638799
 20
12323.40602913417
 30
0.0
 11
4151.1344081638781
 21
12323.40602913417
 31
0.0
  0
LINE
  5
7FFC
  8
CT
 10
4176.1344081638781
 20
12348.40602913417
 30
0.0
 11
4176.1344081638781
 21
12298.40602913417
 31
0.0
  0
LINE
  5
7FFD
  8
CT
 10
4496.134408163879
 20
12348.40602913417
 30
0.0
 11
4496.134408163879
 21
12298.40602913417
 31
0.0
  0
LINE
  5
7FFE
  8
CT
 10
4471.1344081638781
 20
12323.40602913417
 30
0.0
 11
4521.1344081638799
 21
12323.40602913417
 31
0.0
  0
LINE
  5
8000
  8
SL
 10
4203.6344081638799
 20
11667.90602913417
 30
0.0
 11
4203.6344081638799
 21
11765.90602913417
 31
0.0
  0
LINE
  5
8001
  8
FUTO
 10
4132.634408163879
 20
11528.90602913417
 30
0.0
 11
4132.634408163879
 21
11817.906029134179
 31
0.0
  0
LINE
  5
8002
  8
SL
 10
4468.6344081638781
 20
11667.90602913417
 30
0.0
 11
4468.6344081638781
 21
11765.90602913417
 31
0.0
  0
LINE
  5
8003
  8
SL
 10
4146.134408163879
 20
12415.444586762331
 30
0.0
 11
4146.1344081638799
 21
11852.906029134179
 31
0.0
  0
LINE
  5
8004
  8
SL
 10
4211.134408163879
 20
12467.40602913417
 30
0.0
 11
4211.134408163879
 21
11852.906029134179
 31
0.0
  0
LINE
  5
8005
  8
SL
 10
4461.134408163879
 20
12467.40602913417
 30
0.0
 11
4461.134408163879
 21
11852.906029134179
 31
0.0
  0
LINE
  5
8006
  8
SL
 10
4526.1344081638799
 20
12408.30599213417
 30
0.0
 11
4526.1344081638799
 21
11852.906029134179
 31
0.0
  0
LINE
  5
8007
  8
FUTO
 10
3823.134408163879
 20
12749.90602913417
 30
0.0
 11
3823.1344081638799
 21
14067.906029134179
 31
0.0
  0
LINE
  5
8008
  8
FUTO
 10
3888.1344081638799
 20
12814.906029134179
 30
0.0
 11
3888.1344081638799
 21
14002.906029134179
 31
0.0
  0
LINE
  5
8009
  8
FUTO
 10
5609.134408163879
 20
12749.90602913417
 30
0.0
 11
5609.134408163879
 21
14067.906029134179
 31
0.0
  0
LINE
  5
8017
  8
FUTO
 10
5544.134408163879
 20
12814.906029134179
 30
0.0
 11
5544.134408163879
 21
14002.90602913417
 31
0.0
  0
LINE
  5
8018
  8
FUTO
 10
3823.1344081638799
 20
14067.906029134179
 30
0.0
 11
5609.134408163879
 21
14067.906029134179
 31
0.0
  0
LINE
  5
8019
  8
FUTO
 10
3823.134408163879
 20
12749.90602913417
 30
0.0
 11
5609.134408163879
 21
12749.90602913417
 31
0.0
  0
LINE
  5
801A
  8
FUTO
 10
4636.134408163879
 20
12749.90602913417
 30
0.0
 11
4636.134408163879
 21
12739.906029134179
 31
0.0
  0
LINE
  5
801C
  8
FUTO
 10
5609.134408163879
 20
12814.906029134179
 30
0.0
 11
6725.134408163879
 21
12814.906029134179
 31
0.0
  0
LINE
  5
801D
  8
FUTO
 10
5609.134408163879
 20
14002.906029134179
 30
0.0
 11
6725.134408163879
 21
14002.90602913417
 31
0.0
  0
LINE
  5
801E
  8
FUTO
 10
6725.134408163879
 20
12814.906029134179
 30
0.0
 11
6725.134408163879
 21
14002.906029134179
 31
0.0
  0
LINE
  5
801F
  8
FUTO
 10
6775.134408163879
 20
12764.90602913417
 30
0.0
 11
6775.134408163879
 21
14052.90602913417
 31
0.0
  0
LINE
  5
8020
  8
FUTO
 10
5609.134408163879
 20
12764.90602913417
 30
0.0
 11
6775.134408163879
 21
12764.90602913417
 31
0.0
  0
LINE
  5
8021
  8
FUTO
 10
5609.1344081638799
 20
14052.906029134179
 30
0.0
 11
6775.134408163879
 21
14052.90602913417
 31
0.0
  0
LINE
  5
8022
  8
FUTO
 10
6536.1344081638808
 20
12764.90602913417
 30
0.0
 11
6536.1344081638808
 21
12739.906029134179
 31
0.0
  0
LINE
  5
8023
  8
SL
 10
3888.1344081638799
 20
14002.906029134179
 30
0.0
 11
5544.134408163879
 21
12814.906029134179
 31
0.0
  0
LINE
  5
8024
  8
SL
 10
5544.134408163879
 20
14002.90602913417
 30
0.0
 11
3888.1344081638799
 21
12814.906029134179
 31
0.0
  0
LINE
  5
8025
  8
FUTO
 10
5200.4825352731568
 20
11852.906029134179
 30
0.0
 11
5200.4825352731568
 21
12739.906029134179
 31
0.0
  0
LINE
  5
8027
  8
FUTO
 10
5971.7862810546012
 20
11852.906029134179
 30
0.0
 11
5971.7862810546012
 21
12739.906029134179
 31
0.0
  0
DIMENSION
  5
8028
  8
SP
  2
*D12
 10
3823.134408163879
 20
10791.7352827826
 30
0.0
 11
4704.6344081638799
 21
10879.2352827826
 31
0.0
 70
     0
 13
5586.134408163879
 23
10549.20075221409
 33
0.0
 14
3823.134408163879
 24
10441.568891700719
 34
0.0
 50
180.0
1001
ACAD
1000
DSTYLE
1002
{
1070
    40
1040
35.0
1070
    41
1040
2.5
1070
   147
1040
1.0
1002
}
  0
DIMENSION
  5
8046
  8
SP
  2
*D13
 10
3569.9392419161309
 20
9396.5688917007283
 30
0.0
 11
3482.43924191613
 21
8696.5688917007283
 31
0.0
 70
     0
 13
4036.1344081638799
 23
7996.5688917007292
 33
0.0
 14
3752.7762861940291
 24
9396.5688917007283
 34
0.0
 50
90.0
1001
ACAD
1000
DSTYLE
1002
{
1070
    40
1040
35.0
1070
    41
1040
2.5
1070
   147
1040
1.0
1002
}
  0
DIMENSION
  5
8053
  8
SP
  2
*D14
 10
3569.9392419161309
 20
10441.568891700719
 30
0.0
 11
3482.43924191613
 21
9919.0688917007283
 31
0.0
 70
     0
 13
3752.7762861940291
 23
9396.5688917007283
 33
0.0
 14
3823.134408163879
 24
10441.568891700719
 34
0.0
 50
90.0
1001
ACAD
1000
DSTYLE
1002
{
1070
    40
1040
35.0
1070
    41
1040
2.5
1070
   147
1040
1.0
1002
}
  0
DIMENSION
  5
807B
  8
SP
  2
*D15
 10
3823.1344081638799
 20
14454.056696589891
 30
0.0
 11
4704.6344081638799
 21
14541.556696589891
 31
0.0
 70
     0
 13
5586.134408163879
 23
14178.683940951039
 33
0.0
 14
3823.1344081638799
 24
14067.906029134179
 34
0.0
 50
180.0
1001
ACAD
1000
DSTYLE
1002
{
1070
    40
1040
35.0
1070
    41
1040
2.5
1070
   147
1040
1.0
1002
}
  0
DIMENSION
  5
8088
  8
SP
  2
*D16
 10
6775.134408163879
 20
14454.056696589891
 30
0.0
 11
6180.634408163879
 21
14541.556696589891
 31
0.0
 70
     0
 13
5586.134408163879
 23
14213.683940951039
 33
0.0
 14
6775.134408163879
 24
14052.90602913417
 34
0.0
 50
180.0
1001
ACAD
1000
DSTYLE
1002
{
1070
    40
1040
35.0
1070
    41
1040
2.5
1070
   147
1040
1.0
1002
}
  0
DIMENSION
  5
8095
  8
SP
  2
*D17
 10
3480.5146478502802
 20
14133.906029134179
 30
0.0
 11
3393.014647850277
 21
13771.406029134179
 31
0.0
 70
     0
 13
3823.134408163879
 23
13408.906029134179
 33
0.0
 14
4721.134408163879
 24
14133.906029134179
 34
0.0
 50
90.0
1001
ACAD
1000
DSTYLE
1002
{
1070
    40
1040
35.0
1070
    41
1040
2.5
1070
   147
1040
1.0
1002
}
  0
DIMENSION
  5
80A2
  8
SP
  2
*D18
 10
3480.5146478502802
 20
11528.906029134179
 30
0.0
 11
3393.0146478502788
 21
12468.906029134179
 31
0.0
 70
     0
 13
3823.134408163879
 23
13408.906029134179
 33
0.0
 14
4132.634408163879
 24
11528.90602913417
 34
0.0
 50
90.0
1001
ACAD
1000
DSTYLE
1002
{
1070
    40
1040
35.0
1070
    41
1040
2.5
1070
   147
1040
1.0
1002
}
  0
LINE
  5
80D3
  8
FUTO
 10
5056.5308586800547
 20
8606.4410300022955
 30
0.0
 11
4961.134408163879
 21
8154.3964387596698
 31
0.0
  0
LINE
  5
80D4
  8
FUTO
 10
4646.1344081638799
 20
8343.7757914121303
 30
0.0
 11
4646.1344081638799
 21
8146.5688917007292
 31
0.0
  0
LINE
  5
80D5
  8
FUTO
 10
4655.134408163879
 20
8349.5360438322914
 30
0.0
 11
4655.134408163879
 21
8146.5688917007292
 31
0.0
  0
LINE
  5
80D6
  8
KL
 10
4646.1344081638799
 20
9013.9296281400202
 30
0.0
 11
4646.1344081638799
 21
8343.7757914121303
 31
0.0
  0
LINE
  5
80D7
  8
KL
 10
4655.134408163879
 20
9022.6628365826346
 30
0.0
 11
4655.134408163879
 21
8349.5360438322914
 31
0.0
  0
LINE
  5
80D8
  8
FUTO
 10
5049.7378942374662
 20
9405.5688917007283
 30
0.0
 11
3937.6658587504362
 21
9405.5688917007283
 31
0.0
  0
LINE
  5
80D9
  8
FUTO
 10
5031.1880106449116
 20
9387.5688917007283
 30
0.0
 11
3937.6658587504362
 21
9387.5688917007283
 31
0.0
  0
LINE
  5
80DA
  8
KL
 10
5966.02781426617
 20
9405.5688917007283
 30
0.0
 11
5786.1344081638799
 21
9405.5688917007283
 31
0.0
  0
LINE
  5
80DB
  8
KL
 10
5966.02781426617
 20
9387.5688917007283
 30
0.0
 11
5786.1344081638799
 21
9387.5688917007283
 31
0.0
  0
LINE
  5
81CD
  8
FUTO
 10
4036.1344081638799
 20
7963.572391700729
 30
0.0
 11
6536.1344081638808
 21
7963.572391700729
 31
0.0
  0
LINE
  5
81CE
  8
FUTO
 10
4036.1344081638799
 20
7839.5653917007276
 30
0.0
 11
6536.1344081638808
 21
7839.5653917007276
 31
0.0
  0
LINE
  5
81CF
  8
FUTO
 10
4036.1344081638799
 20
7976.5688917007283
 30
0.0
 11
6536.1344081638808
 21
7976.5688917007283
 31
0.0
  0
LINE
  5
81D0
  8
FUTO
 10
4036.1344081638799
 20
7826.5688917007283
 30
0.0
 11
6536.1344081638808
 21
7826.5688917007283
 31
0.0
  0
LINE
  5
81D3
  8
FUTO
 10
4036.1344081638799
 20
7976.5688917007283
 30
0.0
 11
4036.1344081638799
 21
7826.5688917007301
 31
0.0
  0
LINE
  5
81E8
  8
FUTO
 10
6211.134408163879
 20
7976.5688917007283
 30
0.0
 11
6211.134408163879
 21
7826.5688917007283
 31
0.0
  0
LINE
  5
81EA
  8
FUTO
 10
6536.1344081638808
 20
7976.5688917007283
 30
0.0
 11
6536.1344081638808
 21
7826.5688917007283
 31
0.0
  0
LINE
  5
81EB
  8
CT
 10
6346.1344081638799
 20
8061.5911030090992
 30
0.0
 11
6346.1344081638799
 21
7931.7166005913004
 31
0.0
  0
LINE
  5
81EC
  8
FUTO
 10
6306.134408163879
 20
7996.5688917007292
 30
0.0
 11
6306.1344081638799
 21
7976.5688917007283
 31
0.0
  0
LINE
  5
81ED
  8
FUTO
 10
6386.134408163879
 20
7996.5688917007292
 30
0.0
 11
6386.134408163879
 21
7976.5688917007283
 31
0.0
  0
LINE
  5
8219
  8
SP
 10
4001.134408163879
 20
7976.5688917007283
 30
0.0
 11
3534.9392419161309
 21
7976.5688917007292
 31
0.0
  0
LINE
  5
821A
  8
SP
 10
4001.134408163879
 20
7826.5688917007283
 30
0.0
 11
3534.9392419161309
 21
7826.5688917007301
 31
0.0
  0
LINE
  5
821B
  8
SP
 10
3569.9392419161309
 20
8064.0688917007292
 30
0.0
 11
3569.9392419161309
 21
8151.5688917007301
 31
0.0
  0
LINE
  5
821C
  8
SP
 10
3569.93924191613
 20
7739.0688917007292
 30
0.0
 11
3569.93924191613
 21
7336.5688917007292
 31
0.0
  0
LINE
  5
821D
  8
SP
 10
3569.93924191613
 20
7976.5688917007292
 30
0.0
 11
3569.93924191613
 21
7826.5688917007301
 31
0.0
  0
INSERT
  5
821F
  8
SP
  2
_OPEN
 10
3569.93924191613
 20
7826.5688917007301
 30
0.0
 41
87.5
 42
87.5
 43
87.5
 50
90.0
  0
TEXT
  5
8220
  8
FUTO
 10
3534.9392419161309
 20
7348.7932103440826
 30
0.0
 40
105.0
  1
150
 50
90.0
 51
15.0
  0
LINE
  5
8221
  8
SP
 10
4001.134408163879
 20
7996.5688917007292
 30
0.0
 11
3534.9392419161309
 21
7996.5688917007301
 31
0.0
  0
LINE
  5
8222
  8
SP
 10
4001.134408163879
 20
7976.5688917007283
 30
0.0
 11
3534.9392419161309
 21
7976.5688917007292
 31
0.0
  0
LINE
  5
8223
  8
SP
 10
3569.9392419161309
 20
8084.0688917007292
 30
0.0
 11
3569.9392419161309
 21
8171.5688917007292
 31
0.0
  0
LINE
  5
8224
  8
SP
 10
3569.93924191613
 20
7889.0688917007301
 30
0.0
 11
3569.93924191613
 21
7543.7932103440844
 31
0.0
  0
LINE
  5
8225
  8
SP
 10
3569.93924191613
 20
7996.5688917007301
 30
0.0
 11
3569.93924191613
 21
7976.5688917007292
 31
0.0
  0
INSERT
  5
8226
  8
SP
  2
_OPEN
 10
3569.93924191613
 20
7996.5688917007301
 30
0.0
 41
87.5
 42
87.5
 43
87.5
 50
270.0
  0
TEXT
  5
8228
  8
FUTO
 10
3484.5271726694591
 20
7894.2170164450199
 30
0.0
 40
105.0
  1
20
 50
90.0
 51
15.0
  0
CIRCLE
  5
8229
  8
SP
 10
3569.93924191613
 20
7976.5688917007292
 30
0.0
 40
13.643502505863619
  0
INSERT
  5
823A
  8
SP
  6
CONTINUOUS
  2
*U19
 10
0.0
 20
0.0
 30
0.0
1001
ACAD
1002
{
1000
R14_HATCH_DATA
1000
823A
1011
1.0
1021
0.0
1031
0.0
1021
0.0
1031
0.0
1011
0.0
1021
0.0
1031
0.0
1021
1.0
1031
0.0
1011
0.0
1021
0.0
1031
0.0
1021
0.0
1031
1.0
1040
0.0
1010
0.0
1020
0.0
1030
1.0
1000
SOLID
1070
     1
1070
     0
1071
        4
1071
        7
1070
     1
1070
     1
1071
        3
1040
3556.2957394102668
1040
7976.5688917007292
1040
0.0
1040
3569.9392419161309
1040
7976.5688917007292
1040
0.0
1040
3569.93924191613
1040
7990.2123942065928
1040
0.4142135623730931
1071
        0
1071
        7
1070
     1
1070
     1
1071
        3
1040
3569.9392419161309
1040
7976.5688917007292
1040
0.0
1040
3583.582744421994
1040
7976.5688917007292
1040
0.4142135623730931
1040
3569.93924191613
1040
7990.2123942065928
1040
0.0
1071
        0
1071
        7
1070
     1
1070
     1
1071
        3
1040
3569.9392419161309
1040
7976.5688917007283
1040
0.0
1040
3569.9392419161309
1040
7962.9253891948656
1040
0.4142135623730882
1040
3583.582744421994
1040
7976.5688917007292
1040
0.0
1071
        0
1071
        7
1070
     1
1070
     1
1071
        3
1040
3556.2957394102668
1040
7976.5688917007283
1040
0.4142135623730882
1040
3569.93924191613
1040
7962.9253891948656
1040
0.0
1040
3569.9392419161309
1040
7976.5688917007283
1040
0.0
1071
        0
1070
     0
1070
     1
1040
0.2937377776614256
1071
        4
1040
3563.4015842350891
1040
7983.0505712554768
1040
0.0
1040
3573.6898761740958
1040
7983.3443162039857
1040
0.0
1040
3574.5717368783521
1040
7972.7697499686046
1040
0.0
1040
3562.5197235308301
1040
7971.8885487112047
1040
0.0
1002
}
  0
LINE
  5
8245
  8
FUTO
 10
10187.341198779601
 20
7963.572391700729
 30
0.0
 11
8037.3411987796053
 21
7963.572391700729
 31
0.0
  0
LINE
  5
8246
  8
FUTO
 10
10187.341198779601
 20
7839.5653917007276
 30
0.0
 11
8037.3411987796053
 21
7839.5653917007276
 31
0.0
  0
LINE
  5
8247
  8
FUTO
 10
10187.341198779601
 20
7826.5688917007283
 30
0.0
 11
8037.3411987796053
 21
7826.5688917007283
 31
0.0
  0
LINE
  5
8248
  8
FUTO
 10
10187.341198779601
 20
7976.5688917007283
 30
0.0
 11
8037.3411987796053
 21
7976.5688917007283
 31
0.0
  0
LINE
  5
824A
  8
FUTO
 10
8027.1898217505959
 20
7839.2459243301937
 30
0.0
 11
7965.9925758086156
 21
7833.8918590712619
 31
0.0
  0
LINE
  5
824B
  8
FUTO
 10
8037.3411987796053
 20
7826.5688917007283
 30
0.0
 11
7962.3411987796062
 21
7826.5688917007283
 31
0.0
  0
LINE
  5
824C
  8
FUTO
 10
8027.1898217505959
 20
7963.8918590712619
 30
0.0
 11
7965.9925758086156
 21
7969.2459243301937
 31
0.0
  0
LINE
  5
824D
  8
FUTO
 10
8037.3411987796053
 20
7976.5688917007283
 30
0.0
 11
7962.3411987796044
 21
7976.5688917007283
 31
0.0
  0
ARC
  5
824E
  8
FUTO
 10
7966.3411987796062
 20
7829.9070802788956
 30
0.0
 40
4.0
 50
95.000000000000554
 51
179.9999999999921
  0
LINE
  5
824F
  8
FUTO
 10
7962.3411987796062
 20
7826.5688917007283
 30
0.0
 11
7962.3411987796062
 21
7829.9070802788956
 31
0.0
  0
ARC
  5
8250
  8
FUTO
 10
7966.3411987796062
 20
7973.230703122561
 30
0.0
 40
4.0
 50
180.00000000000779
 51
264.99999999999949
  0
LINE
  5
8251
  8
FUTO
 10
7962.3411987796062
 20
7976.5688917007283
 30
0.0
 11
7962.3411987796062
 21
7973.23070312256
 31
0.0
  0
LINE
  5
8252
  8
FUTO
 10
8037.3411987796053
 20
7826.5688917007283
 30
0.0
 11
8037.3411987796053
 21
7976.5688917007283
 31
0.0
  0
LINE
  5
8253
  8
FUTO
 10
8030.8411987796062
 20
7843.230703122561
 30
0.0
 11
8030.8411987796044
 21
7959.9070802788947
 31
0.0
  0
ARC
  5
8254
  8
FUTO
 10
8026.8411987796053
 20
7843.230703122561
 30
0.0
 40
4.0
 50
275.0
 51
0.0
  0
ARC
  5
8256
  8
FUTO
 10
8026.8411987796053
 20
7959.9070802788947
 30
0.0
 40
4.0
 50
0.0
 51
84.999999999999943
  0
LINE
  5
8264
  8
FUTO
 10
10187.341198779601
 20
7976.5688917007283
 30
0.0
 11
10187.341198779601
 21
7826.5688917007283
 31
0.0
  0
LINE
  5
8265
  8
FUTO
 10
10193.841198779601
 20
7959.9070802788947
 30
0.0
 11
10193.841198779601
 21
7843.230703122561
 31
0.0
  0
LINE
  5
8266
  8
FUTO
 10
10187.341198779601
 20
7826.5688917007283
 30
0.0
 11
10262.341198779601
 21
7826.5688917007283
 31
0.0
  0
ARC
  5
8268
  8
FUTO
 10
10258.341198779601
 20
7829.9070802788956
 30
0.0
 40
4.0
 50
0.0000000000078369
 51
84.999999999999503
  0
LINE
  5
8269
  8
FUTO
 10
10262.341198779601
 20
7826.5688917007283
 30
0.0
 11
10262.341198779601
 21
7829.9070802788956
 31
0.0
  0
ARC
  5
826A
  8
FUTO
 10
10197.841198779601
 20
7843.230703122561
 30
0.0
 40
4.0
 50
180.0
 51
264.99999999999989
  0
LINE
  5
826B
  8
FUTO
 10
10197.49257580861
 20
7839.2459243301937
 30
0.0
 11
10258.68982175059
 21
7833.8918590712619
 31
0.0
  0
LINE
  5
826C
  8
FUTO
 10
10187.341198779601
 20
7976.5688917007283
 30
0.0
 11
10262.341198779601
 21
7976.5688917007283
 31
0.0
  0
ARC
  5
826D
  8
FUTO
 10
10258.341198779601
 20
7973.230703122561
 30
0.0
 40
4.0
 50
275.00000000000051
 51
359.9999999999921
  0
LINE
  5
826E
  8
FUTO
 10
10262.341198779601
 20
7976.5688917007283
 30
0.0
 11
10262.341198779601
 21
7973.230703122561
 31
0.0
  0
ARC
  5
826F
  8
FUTO
 10
10197.841198779601
 20
7959.9070802788947
 30
0.0
 40
4.0
 50
95.000000000000057
 51
180.0
  0
LINE
  5
8270
  8
FUTO
 10
10197.49257580861
 20
7963.8918590712619
 30
0.0
 11
10258.68982175059
 21
7969.2459243301937
 31
0.0
  0
INSERT
  5
82B7
  8
FUTO
  6
CONTINUOUS
  2
*U20
 10
0.0
 20
0.0
 30
0.0
1001
ACAD
1002
{
1000
R14_HATCH_DATA
1000
82B7
1011
1.0
1021
0.0
1031
0.0
1021
0.0
1031
0.0
1011
0.0
1021
0.0
1031
0.0
1021
1.0
1031
0.0
1011
0.0
1021
0.0
1031
0.0
1021
0.0
1031
1.0
1040
0.0
1010
0.0
1020
0.0
1030
1.0
1000
SOLID
1070
     1
1070
     0
1071
        2
1071
        7
1070
     0
1070
     1
1071
        4
1040
6346.134408163879
1040
7976.5688917007283
1040
6346.134408163879
1040
7996.5688917007292
1040
6306.134408163879
1040
7996.5688917007292
1040
6306.1344081638799
1040
7976.5688917007283
1071
        0
1071
        7
1070
     0
1070
     1
1071
        4
1040
6346.134408163879
1040
7996.5688917007301
1040
6346.134408163879
1040
7976.5688917007283
1040
6386.134408163879
1040
7976.5688917007283
1040
6386.134408163879
1040
7996.5688917007292
1071
        0
1070
     0
1070
     1
1040
1.8147263682105821
1071
        2
1040
6327.5935442219206
1040
7937.8971067509137
1040
0.0
1040
6372.9946515404199
1040
7937.8971067509137
1040
0.0
1002
}
  0
TEXT
  5
8DE5
  8
SP
 10
11297.883026457041
 20
9442.2879069394021
 30
0.0
 40
100.0
  1
 
  0
LINE
  5
8DE6
  8
4
 10
10399.133457483869
 20
5841.2346796508627
 30
0.0
 11
10399.133457483869
 21
4841.2346796508627
 31
0.0
  0
LINE
  5
8DE7
  8
4
 10
6899.1334574838766
 20
5841.2346796508627
 30
0.0
 11
6899.1334574838766
 21
4841.2346796508627
 31
0.0
  0
LINE
  5
8DE8
  8
4
 10
4399.1334574838756
 20
5841.2346796508627
 30
0.0
 11
4399.1334574838756
 21
4841.2346796508627
 31
0.0
  0
LINE
  5
8DEB
  8
4
 10
4399.1334574838756
 20
4841.2346796508627
 30
0.0
 11
10399.133457483869
 21
4841.2346796508627
 31
0.0
  0
LINE
  5
8DEC
  8
4
 10
4399.1334574838756
 20
5341.2346796508627
 30
0.0
 11
10399.133457483869
 21
5341.2346796508627
 31
0.0
  0
TEXT
  5
8DED
  8
4
 10
4591.6438617183949
 20
5498.9498089839308
 30
0.0
 40
250.0
  1
機器名称
  0
TEXT
  5
8DEE
  8
4
 10
4580.4239876078709
 20
4949.4604633109184
 30
0.0
 40
250.0
  1
機器型番
  0
TEXT
  5
8DEF
  8
4
 10
6923.098765989088
 20
5452.171191435601
 30
0.0
 40
225.0
  1
ミツヤリミットロードファン
  0
TEXT
  5
8DF0
  8
4
 10
7082.4059354112906
 20
4927.0326010505796
 30
0.0
 40
250.0
  1
LL#10-1
  0
TEXT
  5
8DF2
  8
4
 10
5162.2322490329898
 20
15258.37888631344
 30
0.0
 40
270.0
  1
床置防振ベット
  0
TEXT
  5
8DF3
  8
4
 10
2729.9714241311081
 20
16010.639560647351
 30
0.0
 40
360.0
  1
遠心式片吸込片持リミットロードファン
  0
LINE
  5
8DF4
  8
4
 10
2399.1334574838761
 20
15688.27845097488
 30
0.0
 11
10399.133457483869
 21
15688.27845097488
 31
0.0
  0
LINE
  5
8DF5
  8
4
 10
2399.1334574838761
 20
16688.278450974882
 30
0.0
 11
10399.133457483869
 21
16688.278450974882
 31
0.0
  0
LINE
  5
8DF6
  8
4
 10
4399.1334574838756
 20
5841.2346796508627
 30
0.0
 11
10399.133457483869
 21
5841.2346796508627
 31
0.0
  0
LINE
  5
8DF7
  8
4
 10
2399.1334574838761
 20
16688.278450974882
 30
0.0
 11
2399.1334574838761
 21
15688.27845097488
 31
0.0
  0
TEXT
  5
8DF8
  8
4
 10
2845.0010382392429
 20
15252.83206738258
 30
0.0
 40
270.0
  1
右回転上向
  0
TEXT
  5
8DF9
  8
4
 10
8493.9812537303296
 20
16871.540087127411
 30
0.0
 40
280.0
  1
No.
  0
TEXT
  5
8DFA
  8
4
 10
8560.9126807406483
 20
14762.11404330324
 30
0.0
 40
270.0
  1
縮尺：1/50
  0
LINE
  5
8DFB
  8
4
 10
10399.133457483869
 20
16688.278450974882
 30
0.0
 11
10399.133457483869
 21
15688.27845097488
 31
0.0
  0
LINE
  5
8DFC
  8
4
 10
11649.133457483869
 20
18091.234679650861
 30
0.0
 11
11649.133457483869
 21
18091.234679650861
 31
0.0
  0
LINE
  5
8DFD
  8
4
 10
8352.2205692832013
 20
16747.55259527787
 30
0.0
 11
8352.2205692832013
 21
17274.495987399619
 31
0.0
  0
LINE
  5
8DFE
  8
4
 10
8352.2205692832013
 20
17274.495987399619
 30
0.0
 11
10399.133457483869
 21
17274.495987399619
 31
0.0
  0
LINE
  5
8DFF
  8
4
 10
10399.133457483869
 20
17274.495987399619
 30
0.0
 11
10399.133457483869
 21
16747.55259527787
 31
0.0
  0
LINE
  5
8E00
  8
4
 10
10399.133457483869
 20
16747.55259527787
 30
0.0
 11
8352.2205692832013
 21
16747.55259527787
 31
0.0
  0
LINE
  5
8E01
  8
4
 10
1149.1334574838761
 20
3341.2346796508632
 30
0.0
 11
1149.1334574838761
 21
18091.234679650861
 31
0.0
  0
LINE
  5
8E02
  8
4
 10
1149.1334574838761
 20
18091.234679650861
 30
0.0
 11
11649.133457483869
 21
18091.234679650861
 31
0.0
  0
LINE
  5
8E03
  8
4
 10
11649.133457483869
 20
18091.234679650861
 30
0.0
 11
11649.133457483869
 21
3341.2346796508632
 31
0.0
  0
LINE
  5
8E04
  8
4
 10
11649.133457483869
 20
3341.2346796508632
 30
0.0
 11
1149.1334574838761
 21
3341.2346796508632
 31
0.0
  0
ENDSEC
  0
EOF
