  0
SECTION
  2
HEADER
  9
$ACADVER
  1
AC1009
  9
$INSBASE
 10
0.0
 20
0.0
 30
0.0
  9
$EXTMIN
 10
4576.5707981194428
 20
3583.427026523585
 30
0.0
  9
$EXTMAX
 10
15076.570798119439
 20
18333.427026523579
 30
0.0
  9
$LIMMIN
 10
0.0
 20
0.0
  9
$LIMMAX
 10
297.0
 20
210.0
  9
$ORTHOMODE
 70
     0
  9
$REGENMODE
 70
     1
  9
$FILLMODE
 70
     1
  9
$QTEXTMODE
 70
     0
  9
$MIRRTEXT
 70
     0
  9
$DRAGMODE
 70
     2
  9
$LTSCALE
 40
175.0
  9
$OSMODE
 70
    37
  9
$ATTMODE
 70
     1
  9
$TEXTSIZE
 40
150.0
  9
$TRACEWID
 40
0.05
  9
$TEXTSTYLE
  7
STANDARD
  9
$CLAYER
  8
FUTO
  9
$CELTYPE
  6
BYLAYER
  9
$CECOLOR
 62
   256
  9
$DIMSCALE
 40
35.0
  9
$DIMASZ
 40
2.5
  9
$DIMEXO
 40
1.0
  9
$DIMDLI
 40
10.0
  9
$DIMRND
 40
0.0
  9
$DIMDLE
 40
0.0
  9
$DIMEXE
 40
1.0
  9
$DIMTP
 40
0.0
  9
$DIMTM
 40
0.0
  9
$DIMTXT
 40
3.0
  9
$DIMCEN
 40
0.0
  9
$DIMTSZ
 40
0.0
  9
$DIMTOL
 70
     0
  9
$DIMLIM
 70
     0
  9
$DIMTIH
 70
     0
  9
$DIMTOH
 70
     0
  9
$DIMSE1
 70
     0
  9
$DIMSE2
 70
     0
  9
$DIMTAD
 70
     1
  9
$DIMZIN
 70
     8
  9
$DIMBLK
  1

  9
$DIMASO
 70
     1
  9
$DIMSHO
 70
     1
  9
$DIMPOST
  1

  9
$DIMAPOST
  1

  9
$DIMALT
 70
     0
  9
$DIMALTD
 70
     2
  9
$DIMALTF
 40
0.03937
  9
$DIMLFAC
 40
1.0
  9
$DIMTOFL
 70
     1
  9
$DIMTVP
 40
0.0
  9
$DIMTIX
 70
     0
  9
$DIMSOXD
 70
     0
  9
$DIMSAH
 70
     1
  9
$DIMBLK1
  1
OPEN
  9
$DIMBLK2
  1
OPEN
  9
$DIMSTYLE
  2
MATSU
  9
$DIMCLRD
 70
   256
  9
$DIMCLRE
 70
   256
  9
$DIMCLRT
 70
   256
  9
$DIMTFAC
 40
1.0
  9
$DIMGAP
 40
1.0
  9
$LUNITS
 70
     2
  9
$LUPREC
 70
     4
  9
$SKETCHINC
 40
0.1
  9
$FILLETRAD
 40
30.0
  9
$AUNITS
 70
     0
  9
$AUPREC
 70
     2
  9
$MENU
  1
acad
  9
$ELEVATION
 40
0.0
  9
$PELEVATION
 40
0.0
  9
$THICKNESS
 40
0.0
  9
$LIMCHECK
 70
     0
  9
$BLIPMODE
 70
     0
  9
$CHAMFERA
 40
8.0
  9
$CHAMFERB
 40
8.0
  9
$SKPOLY
 70
     0
  9
$TDCREATE
 40
2453957.375965347
  9
$TDUPDATE
 40
2454953.6497187838
  9
$TDINDWG
 40
0.213765
  9
$TDUSRTIMER
 40
0.213765
  9
$USRTIMER
 70
     1
  9
$ANGBASE
 50
0.0
  9
$ANGDIR
 70
     0
  9
$PDMODE
 70
     0
  9
$PDSIZE
 40
1.0
  9
$PLINEWID
 40
0.0
  9
$COORDS
 70
     1
  9
$SPLFRAME
 70
     0
  9
$SPLINETYPE
 70
     6
  9
$SPLINESEGS
 70
     8
  9
$ATTDIA
 70
     0
  9
$ATTREQ
 70
     1
  9
$HANDLING
 70
 10241
  9
$HANDSEED
  5
8F84
  9
$SURFTAB1
 70
     6
  9
$SURFTAB2
 70
     6
  9
$SURFTYPE
 70
     6
  9
$SURFU
 70
     6
  9
$SURFV
 70
     6
  9
$UCSNAME
  2

  9
$UCSORG
 10
0.0
 20
-0.0000000000000142
 30
0.0
  9
$UCSXDIR
 10
1.0
 20
0.0
 30
0.0
  9
$UCSYDIR
 10
0.0
 20
1.0
 30
0.0
  9
$PUCSNAME
  2

  9
$PUCSORG
 10
0.0
 20
0.0
 30
0.0
  9
$PUCSXDIR
 10
1.0
 20
0.0
 30
0.0
  9
$PUCSYDIR
 10
0.0
 20
1.0
 30
0.0
  9
$USERI1
 70
     0
  9
$USERI2
 70
     0
  9
$USERI3
 70
     0
  9
$USERI4
 70
     0
  9
$USERI5
 70
     0
  9
$USERR1
 40
0.0
  9
$USERR2
 40
0.0
  9
$USERR3
 40
0.0
  9
$USERR4
 40
0.0
  9
$USERR5
 40
0.0
  9
$WORLDVIEW
 70
     1
  9
$SHADEDGE
 70
     3
  9
$SHADEDIF
 70
    70
  9
$TILEMODE
 70
     1
  9
$MAXACTVP
 70
    16
  9
$PLIMCHECK
 70
     0
  9
$PEXTMIN
 10
1.0000000000000000E+020
 20
1.0000000000000000E+020
 30
1.0000000000000000E+020
  9
$PEXTMAX
 10
-1.0000000000000000E+020
 20
-1.0000000000000000E+020
 30
-1.0000000000000000E+020
  9
$PLIMMIN
 10
0.0
 20
0.0
  9
$PLIMMAX
 10
12.0
 20
9.0
  9
$UNITMODE
 70
     0
  9
$VISRETAIN
 70
     0
  9
$PLINEGEN
 70
     0
  9
$PSLTSCALE
 70
     0
  0
ENDSEC
  0
SECTION
  2
TABLES
  0
TABLE
  2
VPORT
 70
     2
  0
VPORT
  2
*ACTIVE
 70
     0
 10
0.0
 20
0.0
 11
1.0
 21
1.0
 12
14374.39945070238
 22
5281.0694469497757
 13
0.0
 23
0.0
 14
5.0
 24
5.0
 15
0.0
 25
0.0
 16
0.0
 26
0.0
 36
1.0
 17
0.0
 27
0.0
 37
0.0
 40
4265.7650759468479
 41
3.1666666666666661
 42
50.0
 43
0.0
 44
0.0
 50
0.0
 51
0.0
 71
     0
 72
   100
 73
     1
 74
     0
 75
     0
 76
     0
 77
     0
 78
     0
  0
ENDTAB
  0
TABLE
  2
LTYPE
 70
     4
  0
LTYPE
  2
CONTINUOUS
 70
     0
  3
Solid line
 72
    65
 73
     0
 40
0.0
  0
LTYPE
  2
CENTER
 70
     0
  3
____ _ ____ _ ____ _ ____ _ ____ _ ____ _ ____ 
 72
    65
 73
     4
 40
2.0
 49
1.25
 49
-0.25
 49
0.25
 49
-0.25
  0
LTYPE
  2
HIDDEN
 70
     0
  3
__ __ __ __ __ __ __ __ __ __ __ __ __ __ __ __
 72
    65
 73
     2
 40
0.375
 49
0.25
 49
-0.125
  0
LTYPE
  2
PHANTOM
 70
     0
  3
______  __  __  ______  __  __  ______  __  __ 
 72
    65
 73
     6
 40
2.5
 49
1.25
 49
-0.25
 49
0.25
 49
-0.25
 49
0.25
 49
-0.25
  0
ENDTAB
  0
TABLE
  2
LAYER
 70
     9
  0
LAYER
  2
0
 70
     0
 62
     7
  6
CONTINUOUS
  0
LAYER
  2
CT
 70
     0
 62
     3
  6
CENTER
  0
LAYER
  2
FUTO
 70
     0
 62
     4
  6
CONTINUOUS
  0
LAYER
  2
HOSO
 70
     0
 62
     7
  6
CONTINUOUS
  0
LAYER
  2
KL
 70
     0
 62
     7
  6
HIDDEN
  0
LAYER
  2
SL
 70
     0
 62
     1
  6
PHANTOM
  0
LAYER
  2
SP
 70
     0
 62
     2
  6
CONTINUOUS
  0
LAYER
  2
DEFPOINTS
 70
     0
 62
     7
  6
CONTINUOUS
  0
LAYER
  2
4
 70
     0
 62
     7
  6
CONTINUOUS
  0
ENDTAB
  0
TABLE
  2
STYLE
 70
     1
  0
STYLE
  2
STANDARD
 70
     0
 40
0.0
 41
1.0
 50
15.0
 71
     0
 42
150.0
  3
C:\Program Files\AutoCAD LT\simplex.shx
  4
extfont.shx
  0
ENDTAB
  0
TABLE
  2
VIEW
 70
     0
  0
ENDTAB
  0
TABLE
  2
UCS
 70
     0
  0
ENDTAB
  0
TABLE
  2
APPID
 70
     1
  0
APPID
  2
ACAD
 70
     0
  0
ENDTAB
  0
TABLE
  2
DIMSTYLE
 70
     2
  0
DIMSTYLE
  2
STANDARD
 70
     0
  3

  4

  5

  6

  7

 40
1.0
 41
0.18
 42
0.0625
 43
0.38
 44
0.18
 45
0.0
 46
0.0
 47
0.0
 48
0.0
140
0.18
141
0.09
142
0.0
143
25.399999999999999
144
1.0
145
0.0
146
1.0
147
0.09
 71
     0
 72
     0
 73
     1
 74
     1
 75
     0
 76
     0
 77
     0
 78
     0
170
     0
171
     2
172
     0
173
     0
174
     0
175
     0
176
     0
177
     0
178
     0
  0
DIMSTYLE
  2
MATSU
 70
     0
  3

  4

  5

  6
OPEN
  7
OPEN
 40
1.0
 41
2.0
 42
1.0
 43
10.0
 44
1.0
 45
0.0
 46
0.0
 47
0.0
 48
0.0
140
3.0
141
0.0
142
0.0
143
0.03937
144
1.0
145
0.0
146
1.0
147
0.5
 71
     0
 72
     0
 73
     0
 74
     0
 75
     0
 76
     0
 77
     1
 78
     8
170
     0
171
     2
172
     1
173
     1
174
     0
175
     0
176
   256
177
   256
178
   256
  0
ENDTAB
  0
ENDSEC
  0
SECTION
  2
BLOCKS
  0
BLOCK
  8
0
  2
$MODEL_SPACE
 70
     0
 10
0.0
 20
0.0
 30
0.0
  3
$MODEL_SPACE
  1

  0
ENDBLK
  5
1B
  8
0
  0
BLOCK
 67
     1
  8
0
  2
$PAPER_SPACE
 70
     0
 10
0.0
 20
0.0
 30
0.0
  3
$PAPER_SPACE
  1

  0
ENDBLK
  5
18
 67
     1
  8
0
  0
BLOCK
  8
0
  2
_OPEN
 70
     0
 10
0.0
 20
0.0
 30
0.0
  3
_OPEN
  1

  0
LINE
  5
28
  8
0
  6
BYBLOCK
 62
     0
 10
-1.0
 20
0.1666666666666666
 30
0.0
 11
0.0
 21
0.0
 31
0.0
  0
LINE
  5
29
  8
0
  6
BYBLOCK
 62
     0
 10
0.0
 20
0.0
 30
0.0
 11
-1.0
 21
-0.1666666666666666
 31
0.0
  0
LINE
  5
2A
  8
0
  6
BYBLOCK
 62
     0
 10
0.0
 20
0.0
 30
0.0
 11
-1.0
 21
0.0
 31
0.0
  0
ENDBLK
  5
2B
  8
0
  0
BLOCK
  8
0
  2
まっすぐの矢印
 70
     0
 10
0.0
 20
0.0
 30
0.0
  3
まっすぐの矢印
  1

  0
LINE
  5
56E2
  8
SP
 10
0.6962157491662495
 20
-2.216890595009601
 30
0.0
 11
0.6962157491662495
 21
-5.0
 31
0.0
  0
LINE
  5
56E3
  8
SP
 10
0.6962157491662495
 20
-5.0
 30
0.0
 11
-0.6962157491662495
 21
-5.0
 31
0.0
  0
LINE
  5
56E4
  8
SP
 10
-0.6962157491662495
 20
-5.0
 30
0.0
 11
-0.6962157491662495
 21
-2.216890595009601
 31
0.0
  0
LINE
  5
56E5
  8
SP
 10
-0.6962157491662495
 20
-2.216890595009601
 30
0.0
 11
-1.7145256852758151
 21
-2.216890595009601
 31
0.0
  0
LINE
  5
56E6
  8
SP
 10
-1.7145256852758151
 20
-2.216890595009601
 30
0.0
 11
0.0
 21
0.0
 31
0.0
  0
LINE
  5
56E7
  8
SP
 10
0.0
 20
0.0
 30
0.0
 11
1.7145256852758151
 21
-2.216890595009601
 31
0.0
  0
LINE
  5
56E8
  8
SP
 10
1.7145256852758151
 20
-2.216890595009601
 30
0.0
 11
0.6962157491662495
 21
-2.216890595009601
 31
0.0
  0
ENDBLK
  5
56EA
  8
0
  0
BLOCK
  8
0
  2
右回転矢印
 70
     0
 10
0.0
 20
0.0
 30
0.0
  3
右回転矢印
  1

  0
LINE
  5
56EC
  8
SP
 10
-2.7705290305565882
 20
1.567794835092901
 30
0.0
 11
-2.4288000558398148
 21
2.8051227455822878
 31
0.0
  0
LINE
  5
56ED
  8
SP
 10
-2.4288000558398148
 20
2.8051227455822878
 30
0.0
 11
0.0
 21
0.0
 31
0.0
  0
LINE
  5
56EE
  8
SP
 10
0.0
 20
0.0
 30
0.0
 11
-3.3160037613098718
 21
-0.4072531086382499
 31
0.0
  0
LINE
  5
56EF
  8
SP
 10
-3.3160037613098718
 20
-0.4072531086382499
 30
0.0
 11
-3.0391574735299112
 21
0.5951483970269315
 31
0.0
  0
ARC
  5
56F0
  8
SP
 10
-5.9215210782018062
 20
-9.8412769578768184
 30
0.0
 40
10.82714154973578
 50
74.560750721316467
 51
112.11861101078711
  0
LINE
  5
56F1
  8
SP
 10
-9.9982127316752951
 20
0.1890560027239694
 30
0.0
 11
-10.37814929817227
 21
1.1238557349100611
 31
0.0
  0
ARC
  5
56F2
  8
SP
 10
-5.9215210782018062
 20
-9.8412769578768291
 30
0.0
 40
11.83620167374065
 50
74.560750721316396
 51
112.11861101078701
  0
ENDBLK
  5
56F4
  8
0
  0
BLOCK
  8
0
  2
*D3
 70
     1
 10
0.0
 20
0.0
 30
0.0
  3
*D3
  1

  0
LINE
  5
8EFC
  8
SP
 10
9665.8012616795859
 20
7870.5128762778913
 30
0.0
 11
9665.8012616795859
 21
7620.0005660947882
 31
0.0
  0
LINE
  5
8EFD
  8
SP
 10
8715.8012616795859
 20
7870.5128762778913
 30
0.0
 11
8715.8012616795859
 21
7620.0005660947882
 31
0.0
  0
LINE
  5
8EFE
  8
SP
 10
9578.3012616795859
 20
7655.0005660947891
 30
0.0
 11
8803.3012616795859
 21
7655.0005660947891
 31
0.0
  0
INSERT
  5
8EFF
  8
SP
  2
_OPEN
 10
9665.8012616795859
 20
7655.0005660947891
 30
0.0
 41
87.5
 42
87.5
 43
87.5
  0
INSERT
  5
8F00
  8
SP
  2
_OPEN
 10
8715.8012616795859
 20
7655.0005660947891
 30
0.0
 41
87.5
 42
87.5
 43
87.5
 50
180.0
  0
TEXT
  5
8F01
  8
FUTO
 10
9042.4038020580301
 20
7690.0005660947882
 30
0.0
 40
105.0
  1
950
 51
15.0
  0
POINT
  5
8F02
  8
DEFPOINTS
 62
     0
 10
9665.8012616795859
 20
7905.5128762778922
 30
0.0
  0
POINT
  5
8F03
  8
DEFPOINTS
 62
     0
 10
8715.8012616795859
 20
7905.5128762778922
 30
0.0
  0
POINT
  5
8F04
  8
DEFPOINTS
 62
     0
 10
8715.8012616795859
 20
7655.0005660947891
 30
0.0
  0
ENDBLK
  5
6A60
  8
0
  0
BLOCK
  8
0
  2
*D4
 70
     1
 10
0.0
 20
0.0
 30
0.0
  3
*D4
  1

  0
LINE
  5
8EF3
  8
SP
 10
8715.8012616795859
 20
7870.5128762778913
 30
0.0
 11
8715.8012616795859
 21
7620.0005660947882
 31
0.0
  0
LINE
  5
8EF4
  8
SP
 10
7165.8012616795859
 20
7870.5128762778913
 30
0.0
 11
7165.8012616795859
 21
7620.0005660947882
 31
0.0
  0
LINE
  5
8EF5
  8
SP
 10
8628.3012616795859
 20
7655.0005660947891
 30
0.0
 11
7253.301261679585
 21
7655.0005660947891
 31
0.0
  0
INSERT
  5
8EF6
  8
SP
  2
_OPEN
 10
8715.8012616795859
 20
7655.0005660947891
 30
0.0
 41
87.5
 42
87.5
 43
87.5
  0
INSERT
  5
8EF7
  8
SP
  2
_OPEN
 10
7165.8012616795859
 20
7655.0005660947891
 30
0.0
 41
87.5
 42
87.5
 43
87.5
 50
180.0
  0
TEXT
  5
8EF8
  8
FUTO
 10
7745.5255803229402
 20
7690.0005660947882
 30
0.0
 40
105.0
  1
1550
 51
15.0
  0
POINT
  5
8EF9
  8
DEFPOINTS
 62
     0
 10
8715.8012616795859
 20
7905.5128762778922
 30
0.0
  0
POINT
  5
8EFA
  8
DEFPOINTS
 62
     0
 10
7165.8012616795859
 20
7905.5128762778922
 30
0.0
  0
POINT
  5
8EFB
  8
DEFPOINTS
 62
     0
 10
7165.8012616795859
 20
7655.0005660947891
 30
0.0
  0
ENDBLK
  5
6A6D
  8
0
  0
BLOCK
  8
0
  2
*D5
 70
     1
 10
0.0
 20
0.0
 30
0.0
  3
*D5
  1

  0
LINE
  5
8EEA
  8
SP
 10
9665.8012616795859
 20
7870.5128762778913
 30
0.0
 11
9665.8012616795859
 21
7369.9128220971306
 31
0.0
  0
LINE
  5
8EEB
  8
SP
 10
7165.8012616795859
 20
7870.5128762778913
 30
0.0
 11
7165.8012616795859
 21
7369.9128220971306
 31
0.0
  0
LINE
  5
8EEC
  8
SP
 10
9578.3012616795859
 20
7404.9128220971306
 30
0.0
 11
7253.301261679585
 21
7404.9128220971306
 31
0.0
  0
INSERT
  5
8EED
  8
SP
  2
_OPEN
 10
9665.8012616795859
 20
7404.9128220971306
 30
0.0
 41
87.5
 42
87.5
 43
87.5
  0
INSERT
  5
8EEE
  8
SP
  2
_OPEN
 10
7165.8012616795859
 20
7404.9128220971306
 30
0.0
 41
87.5
 42
87.5
 43
87.5
 50
180.0
  0
TEXT
  5
8EEF
  8
FUTO
 10
8221.9134210012635
 20
7439.9128220971306
 30
0.0
 40
105.0
  1
2500
 51
15.0
  0
POINT
  5
8EF0
  8
DEFPOINTS
 62
     0
 10
9665.8012616795859
 20
7905.5128762778922
 30
0.0
  0
POINT
  5
8EF1
  8
DEFPOINTS
 62
     0
 10
7165.8012616795859
 20
7905.5128762778922
 30
0.0
  0
POINT
  5
8EF2
  8
DEFPOINTS
 62
     0
 10
7165.8012616795859
 20
7404.9128220971306
 30
0.0
  0
ENDBLK
  5
6A7A
  8
0
  0
BLOCK
  8
0
  2
*D6
 70
     1
 10
0.0
 20
0.0
 30
0.0
  3
*D6
  1

  0
LINE
  5
8F43
  8
SP
 10
11092.00805229531
 20
7870.5128762778913
 30
0.0
 11
11092.00805229531
 21
7620.00054270695
 31
0.0
  0
LINE
  5
8F44
  8
SP
 10
12723.00805229531
 20
7870.5128762778913
 30
0.0
 11
12723.00805229531
 21
7620.00054270695
 31
0.0
  0
LINE
  5
8F45
  8
SP
 10
11179.50805229531
 20
7655.00054270695
 30
0.0
 11
12635.50805229531
 21
7655.00054270695
 31
0.0
  0
INSERT
  5
8F46
  8
SP
  2
_OPEN
 10
11092.00805229531
 20
7655.00054270695
 30
0.0
 41
87.5
 42
87.5
 43
87.5
 50
180.0
  0
INSERT
  5
8F47
  8
SP
  2
_OPEN
 10
12723.00805229531
 20
7655.00054270695
 30
0.0
 41
87.5
 42
87.5
 43
87.5
  0
TEXT
  5
8F48
  8
FUTO
 10
11729.552879014351
 20
7690.00054270695
 30
0.0
 40
105.0
  1
1631
 51
15.0
  0
POINT
  5
8F49
  8
DEFPOINTS
 62
     0
 10
11092.00805229531
 20
7905.5128762778913
 30
0.0
  0
POINT
  5
8F4A
  8
DEFPOINTS
 62
     0
 10
12723.00805229531
 20
7905.5128762778922
 30
0.0
  0
POINT
  5
8F4B
  8
DEFPOINTS
 62
     0
 10
12723.00805229531
 20
7655.00054270695
 30
0.0
  0
ENDBLK
  5
6A87
  8
0
  0
BLOCK
  8
0
  2
*D7
 70
     1
 10
0.0
 20
0.0
 30
0.0
  3
*D7
  1

  0
LINE
  5
8F55
  8
SP
 10
12723.00805229531
 20
7870.5128762778913
 30
0.0
 11
12723.00805229531
 21
7620.00054270695
 31
0.0
  0
LINE
  5
8F56
  8
SP
 10
13392.00805229531
 20
7870.5128762778913
 30
0.0
 11
13392.00805229531
 21
7620.00054270695
 31
0.0
  0
LINE
  5
8F57
  8
SP
 10
12810.50805229531
 20
7655.00054270695
 30
0.0
 11
13304.50805229531
 21
7655.00054270695
 31
0.0
  0
INSERT
  5
8F58
  8
SP
  2
_OPEN
 10
12723.00805229531
 20
7655.00054270695
 30
0.0
 41
87.5
 42
87.5
 43
87.5
 50
180.0
  0
INSERT
  5
8F59
  8
SP
  2
_OPEN
 10
13392.00805229531
 20
7655.00054270695
 30
0.0
 41
87.5
 42
87.5
 43
87.5
  0
TEXT
  5
8F5A
  8
FUTO
 10
12910.94071969267
 20
7690.00054270695
 30
0.0
 40
105.0
  1
669
 51
15.0
  0
POINT
  5
8F5B
  8
DEFPOINTS
 62
     0
 10
12723.00805229531
 20
7905.5128762778922
 30
0.0
  0
POINT
  5
8F5C
  8
DEFPOINTS
 62
     0
 10
13392.00805229531
 20
7905.5128762778913
 30
0.0
  0
POINT
  5
8F5D
  8
DEFPOINTS
 62
     0
 10
13392.00805229531
 20
7655.00054270695
 30
0.0
  0
ENDBLK
  5
6A94
  8
0
  0
BLOCK
  8
0
  2
*D8
 70
     1
 10
0.0
 20
0.0
 30
0.0
  3
*D8
  1

  0
LINE
  5
8F3A
  8
SP
 10
11092.00805229531
 20
7870.5128762778913
 30
0.0
 11
11092.00805229531
 21
7369.9127987092916
 31
0.0
  0
LINE
  5
8F3B
  8
SP
 10
13392.00805229531
 20
7870.5128762778913
 30
0.0
 11
13392.00805229531
 21
7369.9127987092916
 31
0.0
  0
LINE
  5
8F3C
  8
SP
 10
11179.50805229531
 20
7404.9127987092934
 30
0.0
 11
13304.50805229531
 21
7404.9127987092934
 31
0.0
  0
INSERT
  5
8F3D
  8
SP
  2
_OPEN
 10
11092.00805229531
 20
7404.9127987092934
 30
0.0
 41
87.5
 42
87.5
 43
87.5
 50
180.0
  0
INSERT
  5
8F3E
  8
SP
  2
_OPEN
 10
13392.00805229531
 20
7404.9127987092934
 30
0.0
 41
87.5
 42
87.5
 43
87.5
  0
TEXT
  5
8F3F
  8
FUTO
 10
12048.12021161699
 20
7439.9127987092934
 30
0.0
 40
105.0
  1
2300
 51
15.0
  0
POINT
  5
8F40
  8
DEFPOINTS
 62
     0
 10
11092.00805229531
 20
7905.5128762778913
 30
0.0
  0
POINT
  5
8F41
  8
DEFPOINTS
 62
     0
 10
13392.00805229531
 20
7905.5128762778913
 30
0.0
  0
POINT
  5
8F42
  8
DEFPOINTS
 62
     0
 10
13392.00805229531
 20
7404.9127987092934
 30
0.0
  0
ENDBLK
  5
6AA1
  8
0
  0
BLOCK
  8
0
  2
*D9
 70
     1
 10
0.0
 20
0.0
 30
0.0
  3
*D9
  1

  0
LINE
  5
8F31
  8
SP
 10
12723.00805229531
 20
11241.07225466831
 30
0.0
 11
12723.00805229531
 21
11287.04463421728
 31
0.0
  0
LINE
  5
8F32
  8
SP
 10
13448.00805229531
 20
10131.049749885109
 30
0.0
 11
13448.00805229531
 21
11287.04463421728
 31
0.0
  0
LINE
  5
8F33
  8
SP
 10
12810.50805229531
 20
11252.04463421728
 30
0.0
 11
13360.50805229531
 21
11252.04463421728
 31
0.0
  0
INSERT
  5
8F34
  8
SP
  2
_OPEN
 10
12723.00805229531
 20
11252.04463421728
 30
0.0
 41
87.5
 42
87.5
 43
87.5
 50
180.0
  0
INSERT
  5
8F35
  8
SP
  2
_OPEN
 10
13448.00805229531
 20
11252.04463421728
 30
0.0
 41
87.5
 42
87.5
 43
87.5
  0
TEXT
  5
8F36
  8
FUTO
 10
12931.44071969267
 20
11287.04463421728
 30
0.0
 40
105.0
  1
725
 51
15.0
  0
POINT
  5
8F37
  8
DEFPOINTS
 62
     0
 10
12723.00805229531
 20
11206.07225466831
 30
0.0
  0
POINT
  5
8F38
  8
DEFPOINTS
 62
     0
 10
13448.00805229531
 20
10096.049749885109
 30
0.0
  0
POINT
  5
8F39
  8
DEFPOINTS
 62
     0
 10
13448.00805229531
 20
11252.04463421728
 30
0.0
  0
ENDBLK
  5
6AFF
  8
0
  0
BLOCK
  8
0
  2
*D10
 70
     1
 10
0.0
 20
0.0
 30
0.0
  3
*D10
  1

  0
LINE
  5
8F4C
  8
SP
 10
13483.00805229531
 20
10045.51287627789
 30
0.0
 11
13762.20145349718
 21
10045.51287627789
 31
0.0
  0
LINE
  5
8F4D
  8
SP
 10
13483.00805229531
 20
8445.5128762778913
 30
0.0
 11
13762.20145349718
 21
8445.5128762778913
 31
0.0
  0
LINE
  5
8F4E
  8
SP
 10
13727.20145349719
 20
9958.0128762778913
 30
0.0
 11
13727.20145349719
 21
8533.0128762778913
 31
0.0
  0
INSERT
  5
8F4F
  8
SP
  2
_OPEN
 10
13727.20145349719
 20
10045.51287627789
 30
0.0
 41
87.5
 42
87.5
 43
87.5
 50
90.0
  0
INSERT
  5
8F50
  8
SP
  2
_OPEN
 10
13727.20145349719
 20
8445.5128762778913
 30
0.0
 41
87.5
 42
87.5
 43
87.5
 50
270.0
  0
TEXT
  5
8F51
  8
FUTO
 10
13692.20145349718
 20
9013.8141464671171
 30
0.0
 40
105.0
  1
φ1600
 50
90.0
 51
15.0
  0
POINT
  5
8F52
  8
DEFPOINTS
 62
     0
 10
13448.00805229531
 20
10045.51287627789
 30
0.0
  0
POINT
  5
8F53
  8
DEFPOINTS
 62
     0
 10
13448.00805229531
 20
8445.5128762778913
 30
0.0
  0
POINT
  5
8F54
  8
DEFPOINTS
 62
     0
 10
13727.20145349719
 20
8445.5128762778913
 30
0.0
  0
ENDBLK
  5
6F63
  8
0
  0
BLOCK
  8
0
  2
*D11
 70
     1
 10
0.0
 20
0.0
 30
0.0
  3
*D11
  1

  0
LINE
  5
8F29
  8
SP
 10
10843.00805229531
 20
9645.7814675907648
 30
0.0
 11
10843.00805229531
 21
11287.04463421728
 31
0.0
  0
LINE
  5
8F2A
  8
SP
 10
10930.50805229531
 20
11252.04463421728
 30
0.0
 11
12635.50805229531
 21
11252.04463421728
 31
0.0
  0
INSERT
  5
8F2B
  8
SP
  2
_OPEN
 10
10843.00805229531
 20
11252.04463421728
 30
0.0
 41
87.5
 42
87.5
 43
87.5
 50
180.0
  0
INSERT
  5
8F2C
  8
SP
  2
_OPEN
 10
12723.00805229531
 20
11252.04463421728
 30
0.0
 41
87.5
 42
87.5
 43
87.5
  0
TEXT
  5
8F2D
  8
FUTO
 10
11587.732370938669
 20
11287.04463421728
 30
0.0
 40
105.0
  1
1880
 51
15.0
  0
POINT
  5
8F2E
  8
DEFPOINTS
 62
     0
 10
10843.00805229531
 20
9610.7814675907648
 30
0.0
  0
POINT
  5
8F2F
  8
DEFPOINTS
 62
     0
 10
12723.00805229531
 20
11252.04463421728
 30
0.0
  0
POINT
  5
8F30
  8
DEFPOINTS
 62
     0
 10
12723.00805229531
 20
11252.04463421728
 30
0.0
  0
ENDBLK
  5
6FBD
  8
0
  0
BLOCK
  8
0
  2
*D12
 70
     1
 10
0.0
 20
0.0
 30
0.0
  3
*D12
  1

  0
LINE
  5
8ED8
  8
SP
 10
9903.4331221929533
 20
9245.5128762778895
 30
0.0
 11
10145.967652761459
 21
9245.5128762778895
 31
0.0
  0
LINE
  5
8ED9
  8
SP
 10
9795.8012616795859
 20
11008.51287627789
 30
0.0
 11
10145.967652761459
 21
11008.51287627789
 31
0.0
  0
LINE
  5
8EDA
  8
SP
 10
10110.967652761459
 20
9333.0128762778913
 30
0.0
 11
10110.967652761459
 21
10921.01287627789
 31
0.0
  0
INSERT
  5
8EDB
  8
SP
  2
_OPEN
 10
10110.967652761459
 20
9245.5128762778895
 30
0.0
 41
87.5
 42
87.5
 43
87.5
 50
270.0
  0
INSERT
  5
8EDC
  8
SP
  2
_OPEN
 10
10110.967652761459
 20
11008.51287627789
 30
0.0
 41
87.5
 42
87.5
 43
87.5
 50
90.0
  0
TEXT
  5
8EDD
  8
FUTO
 10
10075.967652761459
 20
9929.0577029969372
 30
0.0
 40
105.0
  1
1763
 50
90.0
 51
15.0
  0
POINT
  5
8EDE
  8
DEFPOINTS
 62
     0
 10
9868.4331221929533
 20
9245.5128762778895
 30
0.0
  0
POINT
  5
8EDF
  8
DEFPOINTS
 62
     0
 10
9760.8012616795877
 20
11008.51287627789
 30
0.0
  0
POINT
  5
8EE0
  8
DEFPOINTS
 62
     0
 10
10110.967652761459
 20
11008.51287627789
 30
0.0
  0
ENDBLK
  5
8034
  8
0
  0
BLOCK
  8
0
  2
*D13
 70
     1
 10
0.0
 20
0.0
 30
0.0
  3
*D13
  1

  0
LINE
  5
8EE1
  8
SP
 10
8715.8012616795859
 20
11113.870998247739
 30
0.0
 11
8715.8012616795859
 21
11296.708042525641
 31
0.0
  0
LINE
  5
8EE2
  8
SP
 10
9760.8012616795877
 20
11043.51287627789
 30
0.0
 11
9760.8012616795877
 21
11296.708042525641
 31
0.0
  0
LINE
  5
8EE3
  8
SP
 10
8803.3012616795859
 20
11261.70804252563
 30
0.0
 11
9673.3012616795859
 21
11261.70804252563
 31
0.0
  0
INSERT
  5
8EE4
  8
SP
  2
_OPEN
 10
8715.8012616795859
 20
11261.70804252563
 30
0.0
 41
87.5
 42
87.5
 43
87.5
 50
180.0
  0
INSERT
  5
8EE5
  8
SP
  2
_OPEN
 10
9760.8012616795877
 20
11261.70804252563
 30
0.0
 41
87.5
 42
87.5
 43
87.5
  0
TEXT
  5
8EE6
  8
FUTO
 10
9042.8460883986318
 20
11296.708042525641
 30
0.0
 40
105.0
  1
1045
 51
15.0
  0
POINT
  5
8EE7
  8
DEFPOINTS
 62
     0
 10
8715.8012616795859
 20
11078.870998247739
 30
0.0
  0
POINT
  5
8EE8
  8
DEFPOINTS
 62
     0
 10
9760.8012616795877
 20
11008.51287627789
 30
0.0
  0
POINT
  5
8EE9
  8
DEFPOINTS
 62
     0
 10
9760.8012616795877
 20
11261.70804252563
 30
0.0
  0
ENDBLK
  5
805F
  8
0
  0
BLOCK
  8
0
  2
*D14
 70
     1
 10
0.0
 20
0.0
 30
0.0
  3
*D14
  1

  0
LINE
  5
8F0E
  8
SP
 10
6917.801261679585
 20
13619.87737030937
 30
0.0
 11
6575.1815013659862
 21
13619.87737030937
 31
0.0
  0
LINE
  5
8F0F
  8
SP
 10
7815.801261679585
 20
14344.87737030937
 30
0.0
 11
6575.1815013659862
 21
14344.87737030937
 31
0.0
  0
LINE
  5
8F10
  8
SP
 10
6610.1815013659852
 20
13707.37737030937
 30
0.0
 11
6610.1815013659852
 21
14257.37737030937
 31
0.0
  0
INSERT
  5
8F11
  8
SP
  2
_OPEN
 10
6610.1815013659852
 20
13619.87737030937
 30
0.0
 41
87.5
 42
87.5
 43
87.5
 50
270.0
  0
INSERT
  5
8F12
  8
SP
  2
_OPEN
 10
6610.1815013659871
 20
14344.87737030937
 30
0.0
 41
87.5
 42
87.5
 43
87.5
 50
90.0
  0
TEXT
  5
8F13
  8
FUTO
 10
6575.1815013659852
 20
13828.31003770674
 30
0.0
 40
105.0
  1
725
 50
90.0
 51
15.0
  0
POINT
  5
8F14
  8
DEFPOINTS
 62
     0
 10
6952.8012616795859
 20
13619.87737030937
 30
0.0
  0
POINT
  5
8F15
  8
DEFPOINTS
 62
     0
 10
7850.8012616795868
 20
14344.87737030937
 30
0.0
  0
POINT
  5
8F16
  8
DEFPOINTS
 62
     0
 10
6610.1815013659871
 20
14344.87737030937
 30
0.0
  0
ENDBLK
  5
80A1
  8
0
  0
BLOCK
  8
0
  2
*D15
 70
     1
 10
0.0
 20
0.0
 30
0.0
  3
*D15
  1

  0
LINE
  5
8F17
  8
SP
 10
6917.801261679585
 20
13619.87737030937
 30
0.0
 11
6575.1815013659862
 21
13619.87737030937
 31
0.0
  0
LINE
  5
8F18
  8
SP
 10
7227.3012616795868
 20
11739.877370309359
 30
0.0
 11
6575.1815013659862
 21
11739.877370309359
 31
0.0
  0
LINE
  5
8F19
  8
SP
 10
6610.1815013659871
 20
13532.37737030937
 30
0.0
 11
6610.1815013659871
 21
11827.377370309359
 31
0.0
  0
INSERT
  5
8F1A
  8
SP
  2
_OPEN
 10
6610.1815013659871
 20
13619.87737030937
 30
0.0
 41
87.5
 42
87.5
 43
87.5
 50
90.0
  0
INSERT
  5
8F1B
  8
SP
  2
_OPEN
 10
6610.1815013659871
 20
11739.877370309359
 30
0.0
 41
87.5
 42
87.5
 43
87.5
 50
270.0
  0
TEXT
  5
8F1C
  8
FUTO
 10
6575.1815013659852
 20
12484.60168895272
 30
0.0
 40
105.0
  1
1880
 50
90.0
 51
15.0
  0
POINT
  5
8F1D
  8
DEFPOINTS
 62
     0
 10
6952.8012616795859
 20
13619.87737030937
 30
0.0
  0
POINT
  5
8F1E
  8
DEFPOINTS
 62
     0
 10
7262.3012616795859
 20
11739.877370309359
 30
0.0
  0
POINT
  5
8F1F
  8
DEFPOINTS
 62
     0
 10
6610.1815013659871
 20
11739.877370309359
 30
0.0
  0
ENDBLK
  5
80AE
  8
0
  0
BLOCK
  8
0
  2
*D16
 70
     1
 10
0.0
 20
0.0
 30
0.0
  3
*D16
  1

  0
LINE
  5
8F05
  8
SP
 10
8715.8012616795859
 20
14424.65528212623
 30
0.0
 11
8715.8012616795859
 21
14690.808259287891
 31
0.0
  0
LINE
  5
8F06
  8
SP
 10
7165.8012616795822
 20
13060.87737030937
 30
0.0
 11
7165.8012616795822
 21
14690.808259287891
 31
0.0
  0
LINE
  5
8F07
  8
SP
 10
8628.3012616795859
 20
14655.808259287891
 30
0.0
 11
7253.3012616795831
 21
14655.808259287891
 31
0.0
  0
INSERT
  5
8F08
  8
SP
  2
_OPEN
 10
8715.8012616795859
 20
14655.808259287891
 30
0.0
 41
87.5
 42
87.5
 43
87.5
  0
INSERT
  5
8F09
  8
SP
  2
_OPEN
 10
7165.8012616795822
 20
14655.808259287891
 30
0.0
 41
87.5
 42
87.5
 43
87.5
 50
180.0
  0
TEXT
  5
8F0A
  8
FUTO
 10
7745.5255803229393
 20
14690.808259287891
 30
0.0
 40
105.0
  1
1550
 51
15.0
  0
POINT
  5
8F0B
  8
DEFPOINTS
 62
     0
 10
8715.8012616795859
 20
14389.65528212623
 30
0.0
  0
POINT
  5
8F0C
  8
DEFPOINTS
 62
     0
 10
7165.8012616795822
 20
13025.87737030937
 30
0.0
  0
POINT
  5
8F0D
  8
DEFPOINTS
 62
     0
 10
7165.8012616795822
 20
14655.808259287891
 30
0.0
  0
ENDBLK
  5
8221
  8
0
  0
BLOCK
  8
0
  2
*D17
 70
     1
 10
0.0
 20
0.0
 30
0.0
  3
*D17
  1

  0
LINE
  5
8F20
  8
SP
 10
8715.8012616795859
 20
14424.65528212623
 30
0.0
 11
8715.8012616795859
 21
14690.808259287891
 31
0.0
  0
LINE
  5
8F21
  8
SP
 10
9760.8012616795877
 20
14298.87737030937
 30
0.0
 11
9760.8012616795877
 21
14690.808259287891
 31
0.0
  0
LINE
  5
8F22
  8
SP
 10
8803.3012616795859
 20
14655.808259287891
 30
0.0
 11
9673.3012616795859
 21
14655.808259287891
 31
0.0
  0
INSERT
  5
8F23
  8
SP
  2
_OPEN
 10
8715.8012616795859
 20
14655.808259287891
 30
0.0
 41
87.5
 42
87.5
 43
87.5
 50
180.0
  0
INSERT
  5
8F24
  8
SP
  2
_OPEN
 10
9760.8012616795877
 20
14655.808259287891
 30
0.0
 41
87.5
 42
87.5
 43
87.5
  0
TEXT
  5
8F25
  8
FUTO
 10
9042.8460883986318
 20
14690.808259287891
 30
0.0
 40
105.0
  1
1045
 51
15.0
  0
POINT
  5
8F26
  8
DEFPOINTS
 62
     0
 10
8715.8012616795859
 20
14389.65528212623
 30
0.0
  0
POINT
  5
8F27
  8
DEFPOINTS
 62
     0
 10
9760.8012616795877
 20
14263.877370309359
 30
0.0
  0
POINT
  5
8F28
  8
DEFPOINTS
 62
     0
 10
9760.8012616795877
 20
14655.808259287891
 30
0.0
  0
ENDBLK
  5
822E
  8
0
  0
BLOCK
  8
0
  2
*D18
 70
     1
 10
0.0
 20
0.0
 30
0.0
  3
*D18
  1

  0
LINE
  5
8ECF
  8
SP
 10
10060.46409794695
 20
9245.5128762778895
 30
0.0
 11
10145.967652761459
 21
9245.5128762778895
 31
0.0
  0
LINE
  5
8ED0
  8
SP
 10
9700.8012616795859
 20
8075.5128762778904
 30
0.0
 11
10145.967652761459
 21
8075.5128762778904
 31
0.0
  0
LINE
  5
8ED1
  8
SP
 10
10110.967652761459
 20
9158.0128762778913
 30
0.0
 11
10110.967652761459
 21
8163.0128762778913
 31
0.0
  0
INSERT
  5
8ED2
  8
SP
  2
_OPEN
 10
10110.967652761459
 20
9245.5128762778895
 30
0.0
 41
87.5
 42
87.5
 43
87.5
 50
90.0
  0
INSERT
  5
8ED3
  8
SP
  2
_OPEN
 10
10110.967652761459
 20
8075.5128762778904
 30
0.0
 41
87.5
 42
87.5
 43
87.5
 50
270.0
  0
TEXT
  5
8ED4
  8
FUTO
 10
10075.967652761459
 20
8475.2371949212484
 30
0.0
 40
105.0
  1
1170
 50
90.0
 51
15.0
  0
POINT
  5
8ED5
  8
DEFPOINTS
 62
     0
 10
10025.46409794695
 20
9245.5128762778895
 30
0.0
  0
POINT
  5
8ED6
  8
DEFPOINTS
 62
     0
 10
9665.8012616795859
 20
8075.5128762778904
 30
0.0
  0
POINT
  5
8ED7
  8
DEFPOINTS
 62
     0
 10
10110.967652761459
 20
8075.5128762778904
 30
0.0
  0
ENDBLK
  5
829D
  8
0
  0
BLOCK
  8
0
  2
*U19
 70
     1
 10
0.0
 20
0.0
 30
0.0
  3
*U19
  1

  0
SOLID
  5
8F73
  8
FUTO
  6
CONTINUOUS
 10
9477.3999534195973
 20
8075.5128762778904
 30
0.0
 11
9437.3999534195973
 21
8075.5128762778904
 31
0.0
 12
9477.3999534195973
 22
8055.5128762778932
 32
0.0
 13
9477.3999534195973
 23
8055.5128762778932
 33
0.0
210
0.0
220
0.0
230
1.0
  0
SOLID
  5
8F74
  8
FUTO
  6
CONTINUOUS
 10
9437.3999534195973
 20
8055.5128762778932
 30
0.0
 11
9477.3999534195973
 21
8055.5128762778932
 31
0.0
 12
9437.3999534195973
 22
8075.5128762778904
 32
0.0
 13
9437.3999534195973
 23
8075.5128762778904
 33
0.0
210
0.0
220
0.0
230
1.0
  0
SOLID
  5
8F75
  8
FUTO
  6
CONTINUOUS
 10
9517.3999534195955
 20
8075.5128762778904
 30
0.0
 11
9477.3999534195973
 21
8075.5128762778922
 31
0.0
 12
9517.3999534195955
 22
8055.5128762778932
 32
0.0
 13
9517.3999534195955
 23
8055.5128762778932
 33
0.0
210
0.0
220
0.0
230
1.0
  0
SOLID
  5
8F76
  8
FUTO
  6
CONTINUOUS
 10
9477.3999534195973
 20
8055.5128762778932
 30
0.0
 11
9517.3999534195955
 21
8055.5128762778932
 31
0.0
 12
9477.3999534195973
 22
8075.5128762778922
 32
0.0
 13
9477.3999534195973
 23
8075.5128762778922
 33
0.0
210
0.0
220
0.0
230
1.0
  0
ENDBLK
  5
8F78
  8
0
  0
BLOCK
  8
0
  2
*U20
 70
     1
 10
0.0
 20
0.0
 30
0.0
  3
*U20
  1

  0
SOLID
  5
8F7A
  8
SP
  6
CONTINUOUS
 10
10110.967652761459
 20
8068.4187122356452
 30
0.0
 11
10101.841848638849
 21
8064.6386804004987
 31
0.0
 12
10110.967652761459
 22
8055.5128762778932
 32
0.0
 13
10110.967652761459
 23
8055.5128762778932
 33
0.0
  0
SOLID
  5
8F7B
  8
SP
  6
CONTINUOUS
 10
10098.061816803711
 20
8055.5128762778932
 30
0.0
 11
10110.967652761459
 21
8055.5128762778932
 31
0.0
 12
10101.841848638849
 22
8064.6386804004987
 32
0.0
 13
10101.841848638849
 23
8064.6386804004987
 33
0.0
210
0.0
220
0.0
230
1.0
  0
SOLID
  5
8F7C
  8
SP
  6
CONTINUOUS
 10
10110.967652761459
 20
8068.4187122356452
 30
0.0
 11
10110.967652761459
 21
8055.5128762778932
 31
0.0
 12
10120.093456884069
 22
8064.6386804004997
 32
0.0
 13
10120.093456884069
 23
8064.6386804004997
 33
0.0
210
0.0
220
0.0
230
1.0
  0
SOLID
  5
8F7D
  8
SP
  6
CONTINUOUS
 10
10123.873488719209
 20
8055.5128762778932
 30
0.0
 11
10120.093456884069
 21
8064.6386804004997
 31
0.0
 12
10110.967652761459
 22
8055.5128762778932
 32
0.0
 13
10110.967652761459
 23
8055.5128762778932
 33
0.0
210
0.0
220
0.0
230
1.0
  0
SOLID
  5
8F7E
  8
SP
  6
CONTINUOUS
 10
10123.873488719209
 20
8055.5128762778932
 30
0.0
 11
10110.967652761459
 21
8055.5128762778932
 31
0.0
 12
10120.093456884069
 22
8046.387072155283
 32
0.0
 13
10120.093456884069
 23
8046.387072155283
 33
0.0
210
0.0
220
0.0
230
1.0
  0
SOLID
  5
8F7F
  8
SP
  6
CONTINUOUS
 10
10110.967652761459
 20
8042.6070403201402
 30
0.0
 11
10120.093456884069
 21
8046.387072155283
 31
0.0
 12
10110.967652761459
 22
8055.5128762778932
 32
0.0
 13
10110.967652761459
 23
8055.5128762778932
 33
0.0
210
0.0
220
0.0
230
1.0
  0
SOLID
  5
8F80
  8
SP
  6
CONTINUOUS
 10
10110.967652761459
 20
8055.5128762778932
 30
0.0
 11
10098.061816803711
 21
8055.5128762778932
 31
0.0
 12
10110.967652761459
 22
8042.6070403201402
 32
0.0
 13
10110.967652761459
 23
8042.6070403201402
 33
0.0
210
0.0
220
0.0
230
1.0
  0
SOLID
  5
8F81
  8
SP
  6
CONTINUOUS
 10
10101.841848638849
 20
8046.387072155283
 30
0.0
 11
10110.967652761459
 21
8042.6070403201402
 31
0.0
 12
10098.061816803711
 22
8055.5128762778932
 32
0.0
 13
10098.061816803711
 23
8055.5128762778932
 33
0.0
210
0.0
220
0.0
230
1.0
  0
ENDBLK
  5
8F83
  8
0
  0
ENDSEC
  0
SECTION
  2
ENTITIES
  0
LINE
  5
522D
  8
CT
 10
10025.46409794695
 20
9245.5128762778895
 30
0.0
 11
7222.8817715388759
 21
9245.5128762778895
 31
0.0
  0
LINE
  5
522E
  8
CT
 10
8715.8012616795859
 20
11085.205765511029
 30
0.0
 11
8715.8012616795859
 21
7845.5128762778913
 31
0.0
  0
ARC
  5
5232
  8
KL
 10
8831.8012616795859
 20
9361.5128762778895
 30
0.0
 40
1487.0
 50
94.474155976056096
 51
180.0
  0
ARC
  5
5234
  8
KL
 10
8599.8012616795859
 20
9361.5128762778895
 30
0.0
 40
1255.0
 50
180.0
 51
270.0
  0
ARC
  5
5238
  8
KL
 10
8618.8012616795859
 20
9148.5128762778913
 30
0.0
 40
1042.0
 50
270.0
 51
0.0
  0
ARC
  5
5239
  8
KL
 10
8812.8012616795859
 20
9148.5128762778913
 30
0.0
 40
848.0
 50
0.0
 51
33.704742950728878
  0
LINE
  5
523A
  8
FUTO
 10
9760.8012616795877
 20
9287.5128762778913
 30
0.0
 11
9760.8012616795877
 21
10943.51287627789
 31
0.0
  0
LINE
  5
523C
  8
KL
 10
9760.8012616795877
 20
9290.5128762778913
 30
0.0
 11
9648.827577054888
 21
9290.5128762778913
 31
0.0
  0
LINE
  5
523D
  8
KL
 10
8715.8012616795877
 20
10843.981425691331
 30
0.0
 11
9760.8012616795877
 21
10940.51287627789
 31
0.0
  0
LINE
  5
523F
  8
FUTO
 10
9695.8012616795859
 20
9272.5128762778913
 30
0.0
 11
9695.8012616795859
 21
10952.585162132689
 31
0.0
  0
LINE
  5
5251
  8
FUTO
 10
9760.8012616795877
 20
9287.5128762778913
 30
0.0
 11
9760.8012616795877
 21
9222.5128762778913
 31
0.0
  0
LINE
  5
5252
  8
FUTO
 10
9760.8012616795877
 20
9287.5128762778913
 30
0.0
 11
9695.8012616795859
 21
9287.5128762778913
 31
0.0
  0
LINE
  5
5253
  8
FUTO
 10
9760.8012616795877
 20
9222.5128762778913
 30
0.0
 11
9758.8012616795859
 21
9222.5128762778913
 31
0.0
  0
LINE
  5
5254
  8
FUTO
 10
9695.8012616795859
 20
9287.5128762778913
 30
0.0
 11
9695.8012616795859
 21
9285.5128762778913
 31
0.0
  0
LINE
  5
5255
  8
FUTO
 10
9746.3012616795877
 20
9281.5128762778913
 30
0.0
 11
9699.8012616795877
 21
9281.5128762778913
 31
0.0
  0
LINE
  5
5256
  8
FUTO
 10
9754.8012616795859
 20
9273.0128762778913
 30
0.0
 11
9754.8012616795859
 21
9226.5128762778913
 31
0.0
  0
ARC
  5
5257
  8
FUTO
 10
9758.8012616795859
 20
9226.5128762778913
 30
0.0
 40
4.0
 50
180.0
 51
270.0
  0
ARC
  5
5258
  8
FUTO
 10
9699.8012616795877
 20
9285.5128762778913
 30
0.0
 40
4.0
 50
180.00000000000071
 51
270.0
  0
ARC
  5
5259
  8
FUTO
 10
9746.3012616795877
 20
9273.0128762778913
 30
0.0
 40
8.5
 50
0.0
 51
89.999999999999986
  0
LINE
  5
525A
  8
FUTO
 10
9760.8012616795877
 20
10943.51287627789
 30
0.0
 11
9695.8012616795859
 21
10943.51287627789
 31
0.0
  0
LINE
  5
525B
  8
FUTO
 10
9760.8012616795877
 20
10943.51287627789
 30
0.0
 11
9760.8012616795877
 21
11008.51287627789
 31
0.0
  0
LINE
  5
525C
  8
FUTO
 10
9695.8012616795859
 20
10943.51287627789
 30
0.0
 11
9695.8012616795859
 21
10945.51287627789
 31
0.0
  0
LINE
  5
525D
  8
FUTO
 10
9760.8012616795877
 20
11008.51287627789
 30
0.0
 11
9758.8012616795859
 21
11008.51287627789
 31
0.0
  0
LINE
  5
525E
  8
FUTO
 10
9754.8012616795859
 20
10958.01287627789
 30
0.0
 11
9754.8012616795859
 21
11004.51287627789
 31
0.0
  0
LINE
  5
525F
  8
FUTO
 10
9746.3012616795877
 20
10949.51287627789
 30
0.0
 11
9699.8012616795877
 21
10949.51287627789
 31
0.0
  0
ARC
  5
5260
  8
FUTO
 10
9699.8012616795877
 20
10945.51287627789
 30
0.0
 40
4.0
 50
89.999999999999986
 51
180.0
  0
ARC
  5
5261
  8
FUTO
 10
9758.8012616795859
 20
11004.51287627789
 30
0.0
 40
4.0
 50
90.00000000000081
 51
180.0
  0
ARC
  5
5262
  8
FUTO
 10
9746.3012616795877
 20
10958.01287627789
 30
0.0
 40
8.5
 50
270.0
 51
0.0
  0
LINE
  5
5263
  8
FUTO
 10
9754.8012616795859
 20
9287.5128762778913
 30
0.0
 11
9754.8012616795859
 21
10943.51287627789
 31
0.0
  0
ARC
  5
5264
  8
FUTO
 10
8812.8012616795859
 20
9148.5128762778913
 30
0.0
 40
866.0
 50
0.0
 51
8.2323103150028185
  0
LINE
  5
5265
  8
FUTO
 10
9695.8012616795859
 20
9272.5128762778913
 30
0.0
 11
9669.8776876767097
 21
9272.5128762778913
 31
0.0
  0
ARC
  5
5266
  8
FUTO
 10
8618.8012616795859
 20
9148.5128762778913
 30
0.0
 40
1060.0
 50
310.66777205427832
 51
0.0
  0
LINE
  5
5267
  8
KL
 10
8599.8012616795859
 20
8106.5128762778913
 30
0.0
 11
8618.8012616795859
 21
8106.5128762778913
 31
0.0
  0
LINE
  5
5268
  8
FUTO
 10
8599.8012616795859
 20
8088.5128762778922
 30
0.0
 11
8618.8012616795859
 21
8088.5128762778922
 31
0.0
  0
ARC
  5
5269
  8
FUTO
 10
8599.8012616795859
 20
9361.5128762778895
 30
0.0
 40
1273.0
 50
185.22823476813249
 51
207.74903739821491
  0
LINE
  5
526B
  8
FUTO
 10
8724.8012616795859
 20
10862.88943149198
 30
0.0
 11
9695.8012616795859
 21
10952.585162132689
 31
0.0
  0
CIRCLE
  5
526C
  8
KL
 10
9532.4018453369372
 20
9628.5128762778913
 30
0.0
 40
17.0
  0
LINE
  5
526D
  8
FUTO
 10
7165.8012616795859
 20
8075.5128762778904
 30
0.0
 11
9665.8012616795859
 21
8075.5128762778904
 31
0.0
  0
LINE
  5
526E
  8
FUTO
 10
7165.8012616795859
 20
8225.5128762778913
 30
0.0
 11
9665.8012616795859
 21
8225.5128762778913
 31
0.0
  0
LINE
  5
526F
  8
FUTO
 10
9665.8012616795859
 20
8225.5128762778913
 30
0.0
 11
9665.8012616795859
 21
8075.5128762778904
 31
0.0
  0
LINE
  5
5270
  8
FUTO
 10
7165.8012616795859
 20
8225.5128762778913
 30
0.0
 11
7165.8012616795859
 21
8075.5128762778922
 31
0.0
  0
LINE
  5
5273
  8
FUTO
 10
9655.8012616795859
 20
10948.89017837818
 30
0.0
 11
9655.8012616795859
 21
9254.5128762778913
 31
0.0
  0
LINE
  5
5274
  8
FUTO
 10
7775.8012616795859
 20
10433.841650488481
 30
0.0
 11
7775.8012616795859
 21
9254.5128762778913
 31
0.0
  0
LINE
  5
5275
  8
FUTO
 10
7784.8012616795859
 20
10442.630816190091
 30
0.0
 11
7784.8012616795859
 21
9254.5128762778913
 31
0.0
  0
LINE
  5
5276
  8
FUTO
 10
9646.8012616795859
 20
10948.05880703342
 30
0.0
 11
9646.8012616795859
 21
9254.5128762778913
 31
0.0
  0
LINE
  5
52EB
  8
CT
 10
7702.2576189647334
 20
8255.5128762778913
 30
0.0
 11
7073.4645412188893
 21
8255.5128762778913
 31
0.0
  0
LINE
  5
52F4
  8
CT
 10
7465.8012616795868
 20
7845.5128762778913
 30
0.0
 11
7465.8012616795859
 21
8485.6108904744924
 31
0.0
  0
LINE
  5
5391
  8
CT
 10
8860.8012616795859
 20
9125.5128762778913
 30
0.0
 11
8860.8012616795859
 21
9199.5128762778913
 31
0.0
  0
LINE
  5
5393
  8
CT
 10
8570.8012616795859
 20
9125.5128762778913
 30
0.0
 11
8570.8012616795859
 21
9199.5128762778913
 31
0.0
  0
ARC
  5
53C8
  8
FUTO
 10
8538.8012616795859
 20
9176.5128762778913
 30
0.0
 40
3.0
 50
90.0
 51
180.0
  0
LINE
  5
53C9
  8
FUTO
 10
8535.8012616795859
 20
9176.5128762778913
 30
0.0
 11
8535.8012616795859
 21
9145.5128762778913
 31
0.0
  0
ARC
  5
53CA
  8
FUTO
 10
8668.3012616795859
 20
9327.7852896374134
 30
0.0
 40
15.00000000000038
 50
25.471936986187181
 51
214.5280630138071
  0
LINE
  5
53CB
  8
FUTO
 10
8700.1195989817843
 20
9339.2096502620188
 30
0.0
 11
8700.1195989817843
 21
9345.5128762778913
 31
0.0
  0
LINE
  5
53CC
  8
FUTO
 10
8731.4829243773893
 20
9339.2096502620188
 30
0.0
 11
8731.4829243773893
 21
9345.5128762778913
 31
0.0
  0
LINE
  5
53CD
  8
FUTO
 10
8731.4829243773893
 20
9345.5128762778913
 30
0.0
 11
8700.1195989817843
 21
9345.5128762778913
 31
0.0
  0
ARC
  5
53CE
  8
FUTO
 10
8715.8012616795877
 20
9245.5128762778895
 30
0.0
 40
95.000000000000057
 50
129.05612602761761
 51
170.94387397238259
  0
LINE
  5
53CF
  8
FUTO
 10
8620.8012616795859
 20
9230.5128762778913
 30
0.0
 11
8620.8012616795859
 21
9195.5128762778913
 31
0.0
  0
LINE
  5
53D0
  8
FUTO
 10
8625.8012616795877
 20
9145.5128762778913
 30
0.0
 11
8625.8012616795877
 21
9148.5128762778913
 31
0.0
  0
ARC
  5
53D1
  8
FUTO
 10
8604.8012616795859
 20
9195.5128762778913
 30
0.0
 40
16.0
 50
270.0
 51
0.000000000000007
  0
ARC
  5
53D2
  8
FUTO
 10
8668.3012616795859
 20
9163.2404629183693
 30
0.0
 40
14.999999999999909
 50
145.47193698619051
 51
334.5280630138152
  0
ARC
  5
53D3
  8
FUTO
 10
8715.8012616795877
 20
9245.5128762778913
 30
0.0
 40
95.000000000000966
 50
189.05612602761769
 51
230.9438739723827
  0
ARC
  5
53D4
  8
FUTO
 10
8620.8012616795859
 20
9245.5128762778895
 30
0.0
 40
15.00000000000011
 50
85.471936986191736
 51
274.52806301380838
  0
LINE
  5
53D5
  8
FUTO
 10
8604.8012616795859
 20
9179.5128762778913
 30
0.0
 11
8538.8012616795859
 21
9179.5128762778913
 31
0.0
  0
ARC
  5
53D7
  8
FUTO
 10
8763.3012616795859
 20
9327.7852896374134
 30
0.0
 40
15.00000000000006
 50
325.47193698619043
 51
154.52806301381389
  0
ARC
  5
53D8
  8
FUTO
 10
8715.8012616795859
 20
9245.5128762778895
 30
0.0
 40
94.999999999999375
 50
9.0561260276173208
 51
50.943873972383258
  0
LINE
  5
53D9
  8
FUTO
 10
8810.8012616795859
 20
9230.5128762778913
 30
0.0
 11
8810.8012616795859
 21
9195.5128762778913
 31
0.0
  0
ARC
  5
53DA
  8
FUTO
 10
8763.3012616795859
 20
9163.2404629183693
 30
0.0
 40
14.99999999999978
 50
205.47193698618639
 51
34.528063013808868
  0
LINE
  5
53DB
  8
FUTO
 10
8805.8012616795877
 20
9145.5128762778913
 30
0.0
 11
8805.8012616795877
 21
9148.5128762778913
 31
0.0
  0
ARC
  5
53DC
  8
FUTO
 10
8715.8012616795859
 20
9245.5128762778895
 30
0.0
 40
95.000000000000057
 50
309.05612602761761
 51
350.94387397238319
  0
ARC
  5
53DD
  8
FUTO
 10
8892.8012616795859
 20
9176.5128762778913
 30
0.0
 40
3.0
 50
0.000000000000007
 51
90.0
  0
LINE
  5
53DE
  8
FUTO
 10
8895.8012616795859
 20
9176.5128762778913
 30
0.0
 11
8895.8012616795859
 21
9145.5128762778913
 31
0.0
  0
LINE
  5
53DF
  8
FUTO
 10
8826.8012616795859
 20
9179.5128762778913
 30
0.0
 11
8892.8012616795859
 21
9179.5128762778913
 31
0.0
  0
ARC
  5
53E0
  8
FUTO
 10
8826.8012616795859
 20
9195.5128762778913
 30
0.0
 40
16.0
 50
180.0
 51
270.0
  0
LINE
  5
53E1
  8
FUTO
 10
8910.8012616795859
 20
9145.5128762778913
 30
0.0
 11
8520.8012616795859
 21
9145.5128762778913
 31
0.0
  0
ARC
  5
53E2
  8
FUTO
 10
8810.8012616795859
 20
9245.5128762778895
 30
0.0
 40
14.999999999999879
 50
265.47193698619083
 51
94.528063013808975
  0
CIRCLE
  5
53E3
  8
FUTO
 10
8715.8012616795859
 20
9245.5128762778895
 30
0.0
 40
36.5
  0
LINE
  5
53E4
  8
FUTO
 10
8805.8012616795877
 20
9148.5128762778913
 30
0.0
 11
8625.8012616795877
 21
9148.5128762778913
 31
0.0
  0
ARC
  5
53E5
  8
FUTO
 10
8715.8012616795859
 20
9245.5128762778895
 30
0.0
 40
94.999999999998266
 50
249.0561260276169
 51
290.9438739723837
  0
ARC
  5
53E6
  8
FUTO
 10
8715.8012616795877
 20
9245.5128762778913
 30
0.0
 40
94.999999999998053
 50
69.056126027617694
 51
110.9438739723836
  0
LINE
  5
53E7
  8
FUTO
 10
11307.00805229531
 20
9325.5128762778895
 30
0.0
 11
11312.00805229531
 21
9325.5128762778895
 31
0.0
  0
ARC
  5
53E8
  8
FUTO
 10
11301.00805229531
 20
9334.5128762778913
 30
0.0
 40
6.0
 50
0.0
 51
90.0
  0
LINE
  5
53E9
  8
FUTO
 10
11292.00805229531
 20
9340.5128762778913
 30
0.0
 11
11301.00805229531
 21
9340.5128762778913
 31
0.0
  0
LINE
  5
53EA
  8
FUTO
 10
11312.00805229531
 20
9165.5128762778913
 30
0.0
 11
11307.00805229531
 21
9165.5128762778913
 31
0.0
  0
ARC
  5
53EB
  8
FUTO
 10
11301.00805229531
 20
9156.5128762778913
 30
0.0
 40
6.0
 50
270.0
 51
0.0
  0
ARC
  5
53EC
  8
FUTO
 10
11286.00805229531
 20
9173.5128762778913
 30
0.0
 40
6.0
 50
0.0
 51
90.0
  0
LINE
  5
53ED
  8
FUTO
 10
11301.00805229531
 20
9150.5128762778913
 30
0.0
 11
11292.00805229531
 21
9150.5128762778913
 31
0.0
  0
LINE
  5
53EE
  8
FUTO
 10
11312.00805229531
 20
9325.5128762778895
 30
0.0
 11
11312.00805229531
 21
9165.5128762778913
 31
0.0
  0
LINE
  5
53EF
  8
FUTO
 10
11307.00805229531
 20
9334.5128762778913
 30
0.0
 11
11307.00805229531
 21
9156.5128762778913
 31
0.0
  0
LINE
  5
53F0
  8
FUTO
 10
11292.00805229531
 20
9145.5128762778913
 30
0.0
 11
11292.00805229531
 21
9345.5128762778913
 31
0.0
  0
LINE
  5
53F1
  8
FUTO
 10
11192.00805229531
 20
9340.5128762778913
 30
0.0
 11
11183.00805229531
 21
9340.5128762778913
 31
0.0
  0
ARC
  5
53F2
  8
FUTO
 10
11183.00805229531
 20
9334.5128762778913
 30
0.0
 40
6.0
 50
90.0
 51
180.0
  0
LINE
  5
53F3
  8
FUTO
 10
11177.00805229531
 20
9325.5128762778895
 30
0.0
 11
11172.00805229531
 21
9325.5128762778895
 31
0.0
  0
ARC
  5
53F4
  8
FUTO
 10
11198.00805229531
 20
9173.5128762778913
 30
0.0
 40
6.0
 50
90.0
 51
180.0
  0
ARC
  5
53F5
  8
FUTO
 10
11183.00805229531
 20
9156.5128762778913
 30
0.0
 40
6.0
 50
180.0
 51
270.0
  0
LINE
  5
53F6
  8
FUTO
 10
11183.00805229531
 20
9150.5128762778913
 30
0.0
 11
11192.00805229531
 21
9150.5128762778913
 31
0.0
  0
LINE
  5
53F7
  8
FUTO
 10
11172.00805229531
 20
9165.5128762778913
 30
0.0
 11
11177.00805229531
 21
9165.5128762778913
 31
0.0
  0
LINE
  5
53F8
  8
FUTO
 10
11177.00805229531
 20
9334.5128762778913
 30
0.0
 11
11177.00805229531
 21
9156.5128762778913
 31
0.0
  0
LINE
  5
53F9
  8
FUTO
 10
11172.00805229531
 20
9325.5128762778895
 30
0.0
 11
11172.00805229531
 21
9165.5128762778913
 31
0.0
  0
LINE
  5
53FA
  8
FUTO
 10
11192.00805229531
 20
9345.5128762778913
 30
0.0
 11
11192.00805229531
 21
9145.5128762778913
 31
0.0
  0
LINE
  5
53FB
  8
FUTO
 10
11292.00805229531
 20
9345.5128762778913
 30
0.0
 11
11192.00805229531
 21
9345.5128762778913
 31
0.0
  0
LINE
  5
53FC
  8
FUTO
 10
11187.00805229531
 20
9145.5128762778913
 30
0.0
 11
11297.00805229531
 21
9145.5128762778913
 31
0.0
  0
LINE
  5
53FD
  8
FUTO
 10
11286.00805229531
 20
9179.5128762778913
 30
0.0
 11
11198.00805229531
 21
9179.5128762778913
 31
0.0
  0
LINE
  5
53FE
  8
KL
 10
8330.1493887888664
 20
9137.5128762778932
 30
0.0
 11
9101.453134570309
 21
9137.5128762778913
 31
0.0
  0
LINE
  5
53FF
  8
FUTO
 10
8910.8012616795859
 20
9145.5128762778913
 30
0.0
 11
8910.8012616795859
 21
9137.5128762778913
 31
0.0
  0
LINE
  5
5400
  8
FUTO
 10
8520.8012616795859
 20
9145.5128762778913
 30
0.0
 11
8520.8012616795859
 21
9137.5128762778913
 31
0.0
  0
LINE
  5
5405
  8
FUTO
 10
9340.8012616795859
 20
8233.3404233368328
 30
0.0
 11
9340.8012616795859
 21
8225.5128762778913
 31
0.0
  0
LINE
  5
540E
  8
FUTO
 10
8090.801261679585
 20
8233.3404233368328
 30
0.0
 11
8090.801261679585
 21
8225.5128762778913
 31
0.0
  0
LINE
  5
5411
  8
FUTO
 10
9340.8012616795859
 20
8225.5128762778913
 30
0.0
 11
9340.8012616795859
 21
8075.5128762778904
 31
0.0
  0
LINE
  5
5412
  8
KL
 10
8915.4556100185855
 20
9230.7094581141864
 30
0.0
 11
8913.3190288499445
 21
9212.8367129162652
 31
0.0
  0
LINE
  5
5413
  8
KL
 10
8515.8012616795859
 20
9254.5128762778913
 30
0.0
 11
8515.8012616795859
 21
9236.5128762778895
 31
0.0
  0
LINE
  5
5414
  8
FUTO
 10
9719.2109359179576
 20
9134.8998085004205
 30
0.0
 11
9094.0772216881651
 21
9209.3562990119299
 31
0.0
  0
LINE
  5
5415
  8
FUTO
 10
9717.0743547493184
 20
9117.0270633024993
 30
0.0
 11
9091.9406405195241
 21
9191.4835538140069
 31
0.0
  0
LINE
  5
5416
  8
KL
 10
8515.8012616795859
 20
9236.5128762778895
 30
0.0
 11
8081.0016529355071
 21
9236.5128762778895
 31
0.0
  0
LINE
  5
5417
  8
KL
 10
8515.8012616795859
 20
9254.5128762778913
 30
0.0
 11
8104.3931379258229
 21
9254.5128762778913
 31
0.0
  0
LINE
  5
541F
  8
FUTO
 10
9655.8012616795859
 20
9236.5128762778895
 30
0.0
 11
9655.8012616795859
 21
8225.5128762778913
 31
0.0
  0
LINE
  5
5420
  8
FUTO
 10
9646.8012616795859
 20
9236.5128762778895
 30
0.0
 11
9646.8012616795859
 21
8225.5128762778913
 31
0.0
  0
LINE
  5
5425
  8
FUTO
 10
7775.8012616795859
 20
9236.5128762778895
 30
0.0
 11
7775.8012616795859
 21
9001.6578833229323
 31
0.0
  0
LINE
  5
5426
  8
FUTO
 10
7784.8012616795859
 20
9236.5128762778895
 30
0.0
 11
7784.8012616795859
 21
9008.5834803967009
 31
0.0
  0
ARC
  5
543E
  8
FUTO
 10
8831.8012616795859
 20
9361.5128762778895
 30
0.0
 40
1505.0
 50
94.764274045909744
 51
184.42053739693571
  0
CIRCLE
  5
544F
  8
SL
 10
8715.8012616795859
 20
9245.5128762778895
 30
0.0
 40
315.0
  0
ARC
  5
5451
  8
FUTO
 10
8715.8012616795859
 20
9245.5128762778895
 30
0.0
 40
380.0
 50
295.0205324563529
 51
127.5786702129041
  0
CIRCLE
  5
5453
  8
SL
 10
7465.8012616795859
 20
8485.5128762778913
 30
0.0
 40
132.49999999999989
  0
ARC
  5
5454
  8
FUTO
 10
7465.8012616795859
 20
8485.5128762778913
 30
0.0
 40
220.0
 50
127.5786702129041
 51
295.0205324563529
  0
LINE
  5
5459
  8
CT
 10
10806.642691190409
 20
9245.5128762778895
 30
0.0
 11
13492.78596411217
 21
9245.5128762778895
 31
0.0
  0
LINE
  5
545A
  8
CT
 10
12723.00805229531
 20
11252.04463421728
 30
0.0
 11
12723.00805229531
 21
7845.5128762778913
 31
0.0
  0
LINE
  5
545B
  8
FUTO
 10
13317.00805229531
 20
8225.5128762778913
 30
0.0
 11
11167.00805229531
 21
8225.5128762778913
 31
0.0
  0
LINE
  5
545C
  8
FUTO
 10
13317.00805229531
 20
8075.5128762778904
 30
0.0
 11
11167.00805229531
 21
8075.5128762778904
 31
0.0
  0
LINE
  5
5505
  8
FUTO
 10
13317.00805229531
 20
8075.5128762778904
 30
0.0
 11
13392.00805229531
 21
8075.5128762778904
 31
0.0
  0
LINE
  5
5506
  8
FUTO
 10
13327.15942932432
 20
8088.1899089073577
 30
0.0
 11
13388.356675266299
 21
8082.835843648425
 31
0.0
  0
LINE
  5
5507
  8
FUTO
 10
13317.00805229531
 20
8225.5128762778913
 30
0.0
 11
13392.00805229531
 21
8225.5128762778913
 31
0.0
  0
LINE
  5
5508
  8
FUTO
 10
13327.15942932432
 20
8212.835843648425
 30
0.0
 11
13388.356675266299
 21
8218.1899089073559
 31
0.0
  0
LINE
  5
5509
  8
FUTO
 10
13323.50805229531
 20
8208.8510648560587
 30
0.0
 11
13323.50805229531
 21
8092.174687699724
 31
0.0
  0
ARC
  5
550A
  8
FUTO
 10
13327.50805229531
 20
8092.174687699724
 30
0.0
 40
4.0
 50
180.0
 51
264.99999999999989
  0
LINE
  5
550B
  8
FUTO
 10
13317.00805229531
 20
8225.5128762778913
 30
0.0
 11
13317.00805229531
 21
8075.5128762778904
 31
0.0
  0
ARC
  5
550C
  8
FUTO
 10
13327.50805229531
 20
8208.8510648560587
 30
0.0
 40
4.0
 50
95.000000000000057
 51
180.0
  0
LINE
  5
550D
  8
FUTO
 10
13392.00805229531
 20
8075.5128762778904
 30
0.0
 11
13392.00805229531
 21
8078.8510648560577
 31
0.0
  0
LINE
  5
550E
  8
FUTO
 10
13392.00805229531
 20
8225.5128762778913
 30
0.0
 11
13392.00805229531
 21
8222.1746876997258
 31
0.0
  0
ARC
  5
550F
  8
FUTO
 10
13388.00805229531
 20
8222.1746876997258
 30
0.0
 40
4.0
 50
275.00000000000051
 51
359.9999999999921
  0
ARC
  5
5510
  8
FUTO
 10
13388.00805229531
 20
8078.8510648560577
 30
0.0
 40
4.0
 50
0.0000000000078369
 51
84.999999999999503
  0
LINE
  5
5511
  8
FUTO
 10
11167.00805229531
 20
8225.5128762778913
 30
0.0
 11
11092.00805229531
 21
8225.5128762778913
 31
0.0
  0
LINE
  5
5512
  8
FUTO
 10
11156.856675266299
 20
8212.835843648425
 30
0.0
 11
11095.65942932432
 21
8218.1899089073559
 31
0.0
  0
LINE
  5
5513
  8
FUTO
 10
11167.00805229531
 20
8075.5128762778904
 30
0.0
 11
11092.00805229531
 21
8075.5128762778904
 31
0.0
  0
LINE
  5
5514
  8
FUTO
 10
11156.856675266299
 20
8088.1899089073577
 30
0.0
 11
11095.65942932432
 21
8082.835843648425
 31
0.0
  0
LINE
  5
5515
  8
FUTO
 10
11160.50805229531
 20
8092.174687699724
 30
0.0
 11
11160.50805229531
 21
8208.8510648560587
 31
0.0
  0
ARC
  5
5516
  8
FUTO
 10
11156.50805229531
 20
8208.8510648560587
 30
0.0
 40
4.0
 50
0.0
 51
84.999999999999943
  0
LINE
  5
5517
  8
FUTO
 10
11167.00805229531
 20
8075.5128762778904
 30
0.0
 11
11167.00805229531
 21
8225.5128762778913
 31
0.0
  0
ARC
  5
5518
  8
FUTO
 10
11156.50805229531
 20
8092.174687699724
 30
0.0
 40
4.0
 50
275.0
 51
0.0
  0
LINE
  5
5519
  8
FUTO
 10
11092.00805229531
 20
8225.5128762778913
 30
0.0
 11
11092.00805229531
 21
8222.1746876997258
 31
0.0
  0
LINE
  5
551A
  8
FUTO
 10
11092.00805229531
 20
8075.5128762778904
 30
0.0
 11
11092.00805229531
 21
8078.8510648560577
 31
0.0
  0
ARC
  5
551B
  8
FUTO
 10
11096.00805229531
 20
8078.8510648560577
 30
0.0
 40
4.0
 50
95.000000000000554
 51
179.9999999999921
  0
ARC
  5
551C
  8
FUTO
 10
11096.00805229531
 20
8222.1746876997258
 30
0.0
 40
4.0
 50
180.00000000000779
 51
264.99999999999949
  0
LINE
  5
551D
  8
FUTO
 10
13317.00805229531
 20
8088.5093762778924
 30
0.0
 11
11167.00805229531
 21
8088.5093762778924
 31
0.0
  0
LINE
  5
551E
  8
FUTO
 10
13317.00805229531
 20
8212.5163762778939
 30
0.0
 11
11167.00805229531
 21
8212.5163762778939
 31
0.0
  0
LINE
  5
551F
  8
FUTO
 10
7165.8012616795859
 20
8088.5093762778924
 30
0.0
 11
9665.8012616795859
 21
8088.5093762778924
 31
0.0
  0
LINE
  5
5520
  8
FUTO
 10
7165.8012616795859
 20
8212.5163762778939
 30
0.0
 11
9665.8012616795859
 21
8212.5163762778939
 31
0.0
  0
LINE
  5
5522
  8
FUTO
 10
12133.00805229531
 20
10943.51287627789
 30
0.0
 11
12133.00805229531
 21
9287.5128762778913
 31
0.0
  0
LINE
  5
5523
  8
FUTO
 10
13313.00805229531
 20
10943.51287627789
 30
0.0
 11
13313.00805229531
 21
9287.5128762778913
 31
0.0
  0
LINE
  5
5524
  8
FUTO
 10
13316.208052295309
 20
10943.51287627789
 30
0.0
 11
13316.208052295309
 21
9287.5128762778913
 31
0.0
  0
LINE
  5
5525
  8
FUTO
 10
12129.80805229531
 20
10943.51287627789
 30
0.0
 11
12129.80805229531
 21
9287.5128762778913
 31
0.0
  0
LINE
  5
5528
  8
FUTO
 10
12064.008052295319
 20
11008.51287627789
 30
0.0
 11
12064.00805229529
 21
9222.5128762778913
 31
0.0
  0
LINE
  5
5529
  8
FUTO
 10
13382.00805229531
 20
11008.51287627789
 30
0.0
 11
13382.00805229531
 21
9222.5128762778913
 31
0.0
  0
LINE
  5
552A
  8
FUTO
 10
13391.208052295309
 20
10943.51287627789
 30
0.0
 11
13391.208052295309
 21
9245.5128762778895
 31
0.0
  0
LINE
  5
552B
  8
FUTO
 10
12054.80805229531
 20
10943.51287627789
 30
0.0
 11
12054.80805229531
 21
9245.5128762778895
 31
0.0
  0
LINE
  5
552C
  8
KL
 10
12133.00805229531
 20
8104.5128762778922
 30
0.0
 11
13313.00805229531
 21
8104.5128762778922
 31
0.0
  0
LINE
  5
552D
  8
KL
 10
12129.80805229531
 20
8086.5128762778913
 30
0.0
 11
12133.00805229531
 21
8086.5128762778913
 31
0.0
  0
LINE
  5
552E
  8
KL
 10
13313.00805229531
 20
8086.5128762778913
 30
0.0
 11
13316.208052295309
 21
8086.5128762778913
 31
0.0
  0
LINE
  5
552F
  8
KL
 10
12133.00805229531
 20
8225.5128762778913
 30
0.0
 11
12133.00805229531
 21
8086.5128762778913
 31
0.0
  0
LINE
  5
5530
  8
KL
 10
12129.80805229531
 20
8225.5128762778913
 30
0.0
 11
12129.80805229531
 21
8086.5128762778913
 31
0.0
  0
LINE
  5
5531
  8
KL
 10
13313.00805229531
 20
8225.5128762778913
 30
0.0
 11
13313.00805229531
 21
8086.5128762778913
 31
0.0
  0
LINE
  5
5532
  8
KL
 10
13316.208052295309
 20
8225.5128762778913
 30
0.0
 11
13316.208052295309
 21
8086.5128762778913
 31
0.0
  0
LINE
  5
5533
  8
CT
 10
11922.00805229531
 20
9405.8798343138551
 30
0.0
 11
11922.00805229531
 21
9073.8337855403588
 31
0.0
  0
LINE
  5
5534
  8
CT
 10
11242.00805229531
 20
9405.8798343138551
 30
0.0
 11
11242.00805229531
 21
9073.8337855403588
 31
0.0
  0
LINE
  5
5537
  8
CT
 10
11877.00805229531
 20
9177.4557330571606
 30
0.0
 11
11877.00805229531
 21
9087.4557330571606
 31
0.0
  0
LINE
  5
5538
  8
CT
 10
11967.00805229531
 20
9177.4557330571606
 30
0.0
 11
11967.00805229531
 21
9087.4557330571606
 31
0.0
  0
LINE
  5
5548
  8
FUTO
 10
11949.50805229531
 20
9365.5128762778913
 30
0.0
 11
11986.00805229531
 21
9365.5128762778913
 31
0.0
  0
LINE
  5
5549
  8
FUTO
 10
11949.50805229531
 20
9378.5128762778913
 30
0.0
 11
11949.50805229531
 21
9165.5128762778913
 31
0.0
  0
LINE
  5
554A
  8
FUTO
 10
11894.50805229531
 20
9378.5128762778913
 30
0.0
 11
11894.50805229531
 21
9165.5128762778913
 31
0.0
  0
ARC
  5
554B
  8
FUTO
 10
11989.00805229531
 20
9162.5128762778913
 30
0.0
 40
3.0
 50
0.0
 51
90.0
  0
ARC
  5
554C
  8
FUTO
 10
11855.00805229531
 20
9162.5128762778913
 30
0.0
 40
3.0
 50
90.000000000000028
 51
180.0
  0
LINE
  5
554D
  8
FUTO
 10
12000.00805229531
 20
9365.5128762778913
 30
0.0
 11
11986.00805229531
 21
9365.5128762778913
 31
0.0
  0
LINE
  5
554E
  8
FUTO
 10
11976.00805229531
 20
9378.5128762778913
 30
0.0
 11
11976.00805229531
 21
9365.5128762778913
 31
0.0
  0
LINE
  5
554F
  8
FUTO
 10
11858.00805229531
 20
9365.5128762778913
 30
0.0
 11
11894.50805229531
 21
9365.5128762778913
 31
0.0
  0
LINE
  5
5550
  8
FUTO
 10
11868.00805229531
 20
9378.5128762778913
 30
0.0
 11
11868.00805229531
 21
9365.5128762778913
 31
0.0
  0
LINE
  5
5551
  8
FUTO
 10
11844.00805229531
 20
9365.5128762778913
 30
0.0
 11
11858.00805229531
 21
9365.5128762778913
 31
0.0
  0
LINE
  5
5552
  8
FUTO
 10
11868.00805229531
 20
9378.5128762778913
 30
0.0
 11
11976.00805229531
 21
9378.5128762778913
 31
0.0
  0
LINE
  5
5553
  8
FUTO
 10
12000.00805229531
 20
9125.5128762778913
 30
0.0
 11
11992.00805229531
 21
9125.5128762778913
 31
0.0
  0
LINE
  5
5554
  8
FUTO
 10
12008.00805229531
 20
9165.5128762778913
 30
0.0
 11
12000.00805229531
 21
9145.5128762778913
 31
0.0
  0
LINE
  5
5555
  8
FUTO
 10
11992.00805229531
 20
9162.5128762778913
 30
0.0
 11
11992.00805229531
 21
9115.5128762778913
 31
0.0
  0
LINE
  5
5556
  8
FUTO
 10
12008.00805229531
 20
9325.5128762778895
 30
0.0
 11
12008.00805229531
 21
9165.5128762778913
 31
0.0
  0
LINE
  5
5557
  8
FUTO
 10
11844.00805229531
 20
9125.5128762778913
 30
0.0
 11
11852.00805229531
 21
9125.5128762778913
 31
0.0
  0
LINE
  5
5558
  8
FUTO
 10
11836.00805229531
 20
9165.5128762778913
 30
0.0
 11
11844.00805229531
 21
9145.5128762778913
 31
0.0
  0
LINE
  5
5559
  8
FUTO
 10
11852.00805229531
 20
9162.5128762778913
 30
0.0
 11
11852.00805229531
 21
9115.5128762778913
 31
0.0
  0
LINE
  5
555A
  8
FUTO
 10
11836.00805229531
 20
9325.5128762778895
 30
0.0
 11
11836.00805229531
 21
9165.5128762778913
 31
0.0
  0
LINE
  5
555B
  8
FUTO
 10
11855.00805229531
 20
9165.5128762778913
 30
0.0
 11
11989.00805229531
 21
9165.5128762778913
 31
0.0
  0
LINE
  5
555C
  8
FUTO
 10
11842.00805229531
 20
9115.5128762778913
 30
0.0
 11
12002.00805229531
 21
9115.5128762778913
 31
0.0
  0
LINE
  5
555D
  8
FUTO
 10
11986.00805229531
 20
9365.5128762778913
 30
0.0
 11
11986.00805229531
 21
9165.5128762778913
 31
0.0
  0
LINE
  5
555E
  8
FUTO
 10
12000.00805229531
 20
9365.5128762778913
 30
0.0
 11
12000.00805229531
 21
9125.5128762778913
 31
0.0
  0
LINE
  5
555F
  8
FUTO
 10
12008.00805229531
 20
9325.5128762778895
 30
0.0
 11
12000.00805229531
 21
9345.5128762778913
 31
0.0
  0
LINE
  5
5560
  8
FUTO
 10
11836.00805229531
 20
9325.5128762778895
 30
0.0
 11
11844.00805229531
 21
9345.5128762778913
 31
0.0
  0
LINE
  5
5561
  8
FUTO
 10
11844.00805229531
 20
9365.5128762778913
 30
0.0
 11
11844.00805229531
 21
9125.5128762778913
 31
0.0
  0
LINE
  5
5562
  8
FUTO
 10
11986.00805229531
 20
9365.5128762778913
 30
0.0
 11
11986.00805229531
 21
9165.5128762778913
 31
0.0
  0
LINE
  5
5563
  8
FUTO
 10
11858.00805229531
 20
9365.5128762778913
 30
0.0
 11
11858.00805229531
 21
9165.5128762778913
 31
0.0
  0
LINE
  5
55BF
  8
FUTO
 10
11317.00805229531
 20
9137.5128762778913
 30
0.0
 11
11167.00805229531
 21
9137.5128762778913
 31
0.0
  0
LINE
  5
55C1
  8
FUTO
 10
11317.00805229531
 20
9137.5128762778913
 30
0.0
 11
11317.00805229531
 21
9097.5128762778913
 31
0.0
  0
LINE
  5
55C6
  8
FUTO
 10
11167.00805229531
 20
9137.5128762778913
 30
0.0
 11
11167.00805229531
 21
8225.5128762778913
 31
0.0
  0
LINE
  5
55CC
  8
FUTO
 10
11187.00805229531
 20
9145.5128762778913
 30
0.0
 11
11187.00805229531
 21
9137.5128762778913
 31
0.0
  0
LINE
  5
55CD
  8
FUTO
 10
11297.00805229531
 20
9145.5128762778913
 30
0.0
 11
11297.00805229531
 21
9137.5128762778913
 31
0.0
  0
LINE
  5
55DF
  8
FUTO
 10
11832.00805229531
 20
9107.5128762778913
 30
0.0
 11
12012.00805229531
 21
9107.5128762778913
 31
0.0
  0
LINE
  5
55E0
  8
FUTO
 10
12012.00805229531
 20
9107.5128762778913
 30
0.0
 11
12012.00805229531
 21
8225.5128762778913
 31
0.0
  0
LINE
  5
55E6
  8
FUTO
 10
11832.00805229531
 20
9107.5128762778913
 30
0.0
 11
11832.00805229531
 21
9097.5128762778913
 31
0.0
  0
LINE
  5
55ED
  8
FUTO
 10
11842.00805229531
 20
9115.5128762778913
 30
0.0
 11
11842.00805229531
 21
9107.5128762778913
 31
0.0
  0
LINE
  5
55EE
  8
FUTO
 10
12002.00805229531
 20
9115.5128762778913
 30
0.0
 11
12002.00805229531
 21
9107.5128762778913
 31
0.0
  0
LINE
  5
55F3
  8
FUTO
 10
11832.00805229531
 20
9097.5128762778913
 30
0.0
 11
11317.00805229531
 21
9097.5128762778913
 31
0.0
  0
LINE
  5
5600
  8
FUTO
 10
12064.80805229531
 20
9134.9634359014599
 30
0.0
 11
13381.208052295309
 21
9134.9634359014599
 31
0.0
  0
LINE
  5
5601
  8
FUTO
 10
12064.80805229531
 20
9116.9634359014599
 30
0.0
 11
13381.208052295309
 21
9116.9634359014599
 31
0.0
  0
LINE
  5
5602
  8
FUTO
 10
12064.80805229531
 20
9134.9634359014599
 30
0.0
 11
12064.80805229531
 21
9116.9634359014599
 31
0.0
  0
LINE
  5
5603
  8
FUTO
 10
12133.00805229531
 20
9222.5128762778913
 30
0.0
 11
12133.00805229531
 21
8225.5128762778913
 31
0.0
  0
LINE
  5
5604
  8
FUTO
 10
12129.80805229531
 20
9222.5128762778913
 30
0.0
 11
12129.80805229531
 21
8225.5128762778913
 31
0.0
  0
LINE
  5
5605
  8
FUTO
 10
13316.208052295309
 20
9222.5128762778913
 30
0.0
 11
13316.208052295309
 21
8225.5128762778913
 31
0.0
  0
LINE
  5
5606
  8
FUTO
 10
13313.00805229531
 20
9222.5128762778913
 30
0.0
 11
13313.00805229531
 21
8225.5128762778913
 31
0.0
  0
LINE
  5
5608
  8
FUTO
 10
13381.208052295309
 20
9134.9634359014599
 30
0.0
 11
13391.208052295309
 21
9144.9634359014635
 31
0.0
  0
LINE
  5
5609
  8
FUTO
 10
13381.208052295309
 20
9116.9634359014599
 30
0.0
 11
13391.208052295309
 21
9106.9634359014599
 31
0.0
  0
LINE
  5
560A
  8
FUTO
 10
13391.208052295309
 20
9245.5128762778895
 30
0.0
 11
13391.208052295309
 21
9144.9634359014635
 31
0.0
  0
LINE
  5
560B
  8
FUTO
 10
12064.80805229531
 20
9134.9634359014599
 30
0.0
 11
12054.80805229531
 21
9144.9634359014563
 31
0.0
  0
LINE
  5
560C
  8
FUTO
 10
12064.80805229531
 20
9116.9634359014599
 30
0.0
 11
12054.80805229531
 21
9106.9634359014617
 31
0.0
  0
LINE
  5
560D
  8
FUTO
 10
12054.80805229531
 20
9245.5128762778895
 30
0.0
 11
12054.80805229531
 21
9144.9634359014599
 31
0.0
  0
LINE
  5
560E
  8
SL
 10
10982.00805229531
 20
9560.5128762778913
 30
0.0
 11
10982.00805229531
 21
8353.0128762778913
 31
0.0
  0
LINE
  5
560F
  8
SL
 10
10982.00805229531
 20
9560.5128762778913
 30
0.0
 11
11059.90805229531
 21
9560.5128762778913
 31
0.0
  0
LINE
  5
5610
  8
SL
 10
10982.00805229531
 20
8930.5128762778932
 30
0.0
 11
11059.90805229531
 21
8930.5128762778932
 31
0.0
  0
LINE
  5
5611
  8
SL
 10
11059.90805229531
 20
9560.5128762778913
 30
0.0
 11
11059.90805229531
 21
9325.5128762778895
 31
0.0
  0
LINE
  5
5613
  8
SL
 10
11082.00805229531
 20
9325.5128762778895
 30
0.0
 11
11082.00805229531
 21
9165.5128762778913
 31
0.0
  0
LINE
  5
5614
  8
SL
 10
11059.90805229531
 20
9325.5128762778895
 30
0.0
 11
11082.00805229531
 21
9325.5128762778895
 31
0.0
  0
LINE
  5
5615
  8
SL
 10
11059.90805229531
 20
9165.5128762778913
 30
0.0
 11
11082.00805229531
 21
9165.5128762778913
 31
0.0
  0
LINE
  5
5616
  8
SL
 10
11059.90805229531
 20
9165.5128762778913
 30
0.0
 11
11059.90805229531
 21
8930.5128762778932
 31
0.0
  0
LINE
  5
5617
  8
CT
 10
10820.42380832161
 20
8485.5128762778913
 30
0.0
 11
11159.00805229531
 21
8485.5128762778913
 31
0.0
  0
LINE
  5
5618
  8
SL
 10
10982.00805229531
 20
8618.0128762778932
 30
0.0
 11
11059.90805229531
 21
8618.0128762778932
 31
0.0
  0
LINE
  5
5619
  8
SL
 10
10982.00805229531
 20
8353.0128762778913
 30
0.0
 11
11059.90805229531
 21
8353.0128762778913
 31
0.0
  0
LINE
  5
561A
  8
SL
 10
11059.90805229531
 20
9560.5128762778913
 30
0.0
 11
11059.90805229531
 21
8353.0128762778913
 31
0.0
  0
LINE
  5
561B
  8
SL
 10
11080.00805229531
 20
8555.5128762778932
 30
0.0
 11
11080.00805229531
 21
8415.5128762778913
 31
0.0
  0
LINE
  5
561C
  8
SL
 10
11059.90805229531
 20
8555.5128762778932
 30
0.0
 11
11080.00805229531
 21
8555.5128762778932
 31
0.0
  0
LINE
  5
561D
  8
SL
 10
11059.90805229531
 20
8415.5128762778913
 30
0.0
 11
11080.00805229531
 21
8415.5128762778913
 31
0.0
  0
LINE
  5
561E
  8
SL
 10
11059.90805229531
 20
8415.5128762778913
 30
0.0
 11
11059.90805229531
 21
8353.0128762778913
 31
0.0
  0
LINE
  5
561F
  8
FUTO
 10
10843.00805229531
 20
9625.5128762778913
 30
0.0
 11
11132.00805229531
 21
9625.5128762778913
 31
0.0
  0
LINE
  5
5620
  8
FUTO
 10
10843.008052295299
 20
8265.5128762778913
 30
0.0
 11
11132.00805229531
 21
8265.5128762778913
 31
0.0
  0
LINE
  5
5621
  8
FUTO
 10
10843.00805229531
 20
9625.5128762778913
 30
0.0
 11
10843.00805229531
 21
8265.5128762778913
 31
0.0
  0
LINE
  5
5622
  8
FUTO
 10
11132.00805229531
 20
9625.5128762778913
 30
0.0
 11
11132.00805229531
 21
8265.5128762778913
 31
0.0
  0
LINE
  5
5623
  8
FUTO
 10
11312.00805229531
 20
9295.5128762778913
 30
0.0
 11
11836.00805229531
 21
9295.5128762778913
 31
0.0
  0
LINE
  5
5624
  8
FUTO
 10
11312.00805229531
 20
9195.5128762778913
 30
0.0
 11
11836.00805229531
 21
9195.5128762778913
 31
0.0
  0
LINE
  5
5625
  8
KL
 10
12008.00805229531
 20
9295.5128762778913
 30
0.0
 11
12129.80805229531
 21
9295.5128762778913
 31
0.0
  0
LINE
  5
5626
  8
KL
 10
12008.00805229531
 20
9195.5128762778913
 30
0.0
 11
12129.80805229531
 21
9195.5128762778913
 31
0.0
  0
LINE
  5
5627
  8
FUTO
 10
11082.00805229531
 20
9288.0128762778913
 30
0.0
 11
11172.00805229531
 21
9288.0128762778913
 31
0.0
  0
LINE
  5
5628
  8
FUTO
 10
11082.00805229531
 20
9203.0128762778913
 30
0.0
 11
11172.00805229531
 21
9203.0128762778913
 31
0.0
  0
LINE
  5
5694
  8
FUTO
 10
7165.8012616795859
 20
11988.87737030937
 30
0.0
 11
9340.8012616795859
 21
11988.87737030937
 31
0.0
  0
LINE
  5
5695
  8
FUTO
 10
7765.8012616795859
 20
14288.87737030937
 30
0.0
 11
9665.8012616795859
 21
14288.87737030937
 31
0.0
  0
LINE
  5
5696
  8
FUTO
 10
9665.8012616795859
 20
14288.87737030937
 30
0.0
 11
9665.8012616795859
 21
14263.877370309359
 31
0.0
  0
LINE
  5
5699
  8
FUTO
 10
7344.8012616795859
 20
13025.87737030937
 30
0.0
 11
8715.8012616795859
 21
13025.877370309359
 31
0.0
  0
LINE
  5
569A
  8
FUTO
 10
7165.8012616795859
 20
12950.87737030937
 30
0.0
 11
9665.8012616795859
 21
12950.87737030937
 31
0.0
  0
LINE
  5
569B
  8
FUTO
 10
7165.8012616795859
 20
12063.87737030937
 30
0.0
 11
9340.8012616795859
 21
12063.87737030937
 31
0.0
  0
LINE
  5
569C
  8
FUTO
 10
7344.8012616795859
 20
14213.87737030937
 30
0.0
 11
8715.8012616795859
 21
14213.87737030937
 31
0.0
  0
LINE
  5
56A0
  8
FUTO
 10
9340.8012616795859
 20
12950.87737030937
 30
0.0
 11
9340.8012616795859
 21
11988.87737030937
 31
0.0
  0
LINE
  5
56A2
  8
FUTO
 10
9265.8012616795859
 20
12950.87737030937
 30
0.0
 11
9265.8012616795859
 21
12063.87737030937
 31
0.0
  0
LINE
  5
56A4
  8
FUTO
 10
8090.801261679585
 20
12950.87737030937
 30
0.0
 11
8090.801261679585
 21
12063.87737030937
 31
0.0
  0
LINE
  5
56A6
  8
FUTO
 10
7765.8012616795859
 20
14288.87737030937
 30
0.0
 11
7765.8012616795859
 21
14263.87737030937
 31
0.0
  0
LINE
  5
56A7
  8
FUTO
 10
8165.8012616795859
 20
12950.87737030937
 30
0.0
 11
8165.8012616795859
 21
12063.87737030937
 31
0.0
  0
LINE
  5
56A8
  8
FUTO
 10
7165.8012616795822
 20
13025.87737030937
 30
0.0
 11
7165.8012616795859
 21
12950.87737030937
 31
0.0
  0
LINE
  5
56A9
  8
FUTO
 10
7165.8012616795868
 20
12063.87737030937
 30
0.0
 11
7165.8012616795859
 21
11988.87737030937
 31
0.0
  0
LINE
  5
56AC
  8
FUTO
 10
7275.8012616795859
 20
12950.87737030937
 30
0.0
 11
7275.8012616795859
 21
12626.41592793752
 31
0.0
  0
LINE
  5
56AD
  8
FUTO
 10
7340.8012616795859
 20
12950.87737030937
 30
0.0
 11
7340.8012616795859
 21
12678.377370309359
 31
0.0
  0
LINE
  5
56AE
  8
FUTO
 10
7590.8012616795868
 20
12950.87737030937
 30
0.0
 11
7590.8012616795868
 21
12678.377370309359
 31
0.0
  0
LINE
  5
56AF
  8
FUTO
 10
7655.8012616795859
 20
12950.87737030937
 30
0.0
 11
7655.8012616795859
 21
12619.277333309359
 31
0.0
  0
LINE
  5
56B0
  8
CT
 10
6941.2148014001659
 20
13619.87737030937
 30
0.0
 11
10066.317263609641
 21
13619.87737030937
 31
0.0
  0
LINE
  5
69CC
  8
CT
 10
13293.00805229531
 20
10085.51287627789
 30
0.0
 11
13336.208052295309
 21
10085.51287627789
 31
0.0
  0
DIMENSION
  5
6A61
  8
SP
  2
*D3
 10
8715.8012616795859
 20
7655.0005660947891
 30
0.0
 11
9190.8012616795859
 21
7742.5005660947891
 31
0.0
 70
     0
 13
9665.8012616795859
 23
7905.5128762778922
 33
0.0
 14
8715.8012616795859
 24
7905.5128762778922
 34
0.0
 50
180.0
1001
ACAD
1000
DSTYLE
1002
{
1070
    40
1040
35.0
1070
   147
1040
1.0
1070
    41
1040
2.5
1002
}
  0
DIMENSION
  5
6A6E
  8
SP
  2
*D4
 10
7165.8012616795859
 20
7655.0005660947891
 30
0.0
 11
7940.801261679585
 21
7742.5005660947891
 31
0.0
 70
     0
 13
8715.8012616795859
 23
7905.5128762778922
 33
0.0
 14
7165.8012616795859
 24
7905.5128762778922
 34
0.0
 50
180.0
1001
ACAD
1000
DSTYLE
1002
{
1070
    40
1040
35.0
1070
   147
1040
1.0
1070
    41
1040
2.5
1002
}
  0
DIMENSION
  5
6A7B
  8
SP
  2
*D5
 10
7165.8012616795859
 20
7404.9128220971306
 30
0.0
 11
8415.8012616795859
 21
7492.4128220971306
 31
0.0
 70
     0
 13
9665.8012616795859
 23
7905.5128762778922
 33
0.0
 14
7165.8012616795859
 24
7905.5128762778922
 34
0.0
 50
180.0
1001
ACAD
1000
DSTYLE
1002
{
1070
    40
1040
35.0
1070
   147
1040
1.0
1070
    41
1040
2.5
1002
}
  0
DIMENSION
  5
6A88
  8
SP
  2
*D6
 10
12723.00805229531
 20
7655.00054270695
 30
0.0
 11
11907.50805229531
 21
7742.5005427069509
 31
0.0
 70
     0
 13
11092.00805229531
 23
7905.5128762778913
 33
0.0
 14
12723.00805229531
 24
7905.5128762778922
 34
0.0
1001
ACAD
1000
DSTYLE
1002
{
1070
    40
1040
35.0
1070
   147
1040
1.0
1070
    41
1040
2.5
1002
}
  0
DIMENSION
  5
6A95
  8
SP
  2
*D7
 10
13392.00805229531
 20
7655.00054270695
 30
0.0
 11
13057.50805229531
 21
7742.5005427069509
 31
0.0
 70
     0
 13
12723.00805229531
 23
7905.5128762778922
 33
0.0
 14
13392.00805229531
 24
7905.5128762778913
 34
0.0
1001
ACAD
1000
DSTYLE
1002
{
1070
    40
1040
35.0
1070
   147
1040
1.0
1070
    41
1040
2.5
1002
}
  0
DIMENSION
  5
6AA2
  8
SP
  2
*D8
 10
13392.00805229531
 20
7404.9127987092934
 30
0.0
 11
12242.00805229531
 21
7492.4127987092934
 31
0.0
 70
     0
 13
11092.00805229531
 23
7905.5128762778913
 33
0.0
 14
13392.00805229531
 24
7905.5128762778913
 34
0.0
1001
ACAD
1000
DSTYLE
1002
{
1070
    40
1040
35.0
1070
   147
1040
1.0
1070
    41
1040
2.5
1002
}
  0
LINE
  5
6ADF
  8
FUTO
 10
13448.00805229531
 20
10110.51287627789
 30
0.0
 11
13448.00805229531
 21
8380.5128762778913
 31
0.0
  0
LINE
  5
6AE1
  8
KL
 10
13316.208052295309
 20
10045.51287627789
 30
0.0
 11
13448.00805229531
 21
10045.51287627789
 31
0.0
  0
LINE
  5
6AE5
  8
KL
 10
13316.208052295309
 20
10110.51287627789
 30
0.0
 11
13322.208052295309
 21
10110.51287627789
 31
0.0
  0
LINE
  5
6AE7
  8
FUTO
 10
13442.00805229531
 20
10110.51287627789
 30
0.0
 11
13442.00805229531
 21
8380.5128762778913
 31
0.0
  0
LINE
  5
6AE8
  8
FUTO
 10
13391.208052295309
 20
10051.51287627789
 30
0.0
 11
13442.00805229531
 21
10051.51287627789
 31
0.0
  0
LINE
  5
6AEA
  8
KL
 10
13322.208052295309
 20
10110.51287627789
 30
0.0
 11
13322.208052295309
 21
9254.5128762778913
 31
0.0
  0
LINE
  5
6AEB
  8
FUTO
 10
13442.00805229531
 20
10110.51287627789
 30
0.0
 11
13448.00805229531
 21
10110.51287627789
 31
0.0
  0
LINE
  5
6AEC
  8
CT
 10
13423.00805229531
 20
10085.51287627789
 30
0.0
 11
13466.208052295309
 21
10085.51287627789
 31
0.0
  0
LINE
  5
6AED
  8
KL
 10
13316.208052295309
 20
8445.5128762778913
 30
0.0
 11
13448.00805229531
 21
8445.5128762778913
 31
0.0
  0
LINE
  5
6AEE
  8
CT
 10
13293.00805229531
 20
8405.5128762778913
 30
0.0
 11
13336.208052295309
 21
8405.5128762778913
 31
0.0
  0
LINE
  5
6AEF
  8
KL
 10
13316.208052295309
 20
8380.5128762778913
 30
0.0
 11
13322.208052295309
 21
8380.5128762778913
 31
0.0
  0
LINE
  5
6AF0
  8
CT
 10
13423.00805229531
 20
8405.5128762778913
 30
0.0
 11
13466.208052295309
 21
8405.5128762778913
 31
0.0
  0
LINE
  5
6AF1
  8
FUTO
 10
13391.208052295309
 20
8439.5128762778913
 30
0.0
 11
13442.00805229531
 21
8439.5128762778913
 31
0.0
  0
LINE
  5
6AF2
  8
FUTO
 10
13442.00805229531
 20
8380.5128762778913
 30
0.0
 11
13448.00805229531
 21
8380.5128762778913
 31
0.0
  0
LINE
  5
6AF3
  8
KL
 10
13322.208052295309
 20
9236.5128762778895
 30
0.0
 11
13322.208052295309
 21
8380.5128762778913
 31
0.0
  0
DIMENSION
  5
6B00
  8
SP
  2
*D9
 10
13448.00805229531
 20
11252.04463421728
 30
0.0
 11
13085.50805229531
 21
11339.54463421728
 31
0.0
 70
     0
 13
12723.00805229531
 23
11206.07225466831
 33
0.0
 14
13448.00805229531
 24
10096.049749885109
 34
0.0
1001
ACAD
1000
DSTYLE
1002
{
1070
    40
1040
35.0
1070
   147
1040
1.0
1070
    41
1040
2.5
1002
}
  0
LINE
  5
6E16
  8
SL
 10
11333.22803834972
 20
9097.5128762778913
 30
0.0
 11
11333.22803834972
 21
9402.3302348814796
 31
0.0
  0
LINE
  5
6E17
  8
SL
 10
11333.22803834972
 20
9402.3302348814796
 30
0.0
 11
11819.18341077848
 21
9402.3302348814796
 31
0.0
  0
LINE
  5
6E18
  8
SL
 10
11819.18341077848
 20
9402.3302348814796
 30
0.0
 11
11819.18341077848
 21
9097.5128762778913
 31
0.0
  0
INSERT
  5
6E51
  8
FUTO
  2
右回転矢印
 10
8926.3069614508677
 20
9858.3142005251302
 30
0.0
 41
35.0
 42
35.0
 43
35.0
  0
INSERT
  5
6EE2
  8
FUTO
  2
まっすぐの矢印
 10
9991.6877854234172
 20
9642.4303769484868
 30
0.0
 41
-35.0
 42
35.0
 43
35.0
 50
270.0
  0
INSERT
  5
6EEC
  8
FUTO
  2
まっすぐの矢印
 10
13494.47603186647
 20
9773.2145766214544
 30
0.0
 41
35.0
 42
35.0
 43
35.0
 50
90.0
  0
DIMENSION
  5
6F64
  8
SP
  2
*D10
 10
13727.20145349719
 20
8445.5128762778913
 30
0.0
 11
13639.70145349718
 21
9245.5128762778968
 31
0.0
 70
     0
 13
13448.00805229531
 23
10045.51287627789
 33
0.0
 14
13448.00805229531
 24
8445.5128762778913
 34
0.0
 50
90.0
1001
ACAD
1000
DSTYLE
1002
{
1070
    40
1040
35.0
1070
     3
1000
φ<>
1070
   147
1040
1.0
1070
    41
1040
2.5
1002
}
  0
DIMENSION
  5
6FB2
  8
SP
  2
*D11
 10
12723.00805229531
 20
11252.04463421728
 30
0.0
 11
11783.00805229531
 21
11339.54463421728
 31
0.0
 70
     0
 13
10843.00805229531
 23
9610.7814675907648
 33
0.0
 14
12723.00805229531
 24
11252.04463421728
 34
0.0
1001
ACAD
1000
DSTYLE
1002
{
1070
    40
1040
35.0
1070
    41
1040
2.5
1070
   147
1040
1.0
1002
}
  0
LINE
  5
6FD7
  8
CT
 10
8715.8012616795859
 20
11626.014173523659
 30
0.0
 11
8715.8012616795859
 21
14389.65528212623
 31
0.0
  0
LINE
  5
6FDA
  8
FUTO
 10
9095.8012616795859
 20
11739.87737030937
 30
0.0
 11
7262.3012616795859
 21
11739.877370309359
 31
0.0
  0
LINE
  5
6FDB
  8
FUTO
 10
9095.8012616795859
 20
12028.87737030937
 30
0.0
 11
7262.3012616795859
 21
12028.87737030937
 31
0.0
  0
LINE
  5
6FDC
  8
SL
 10
9030.8012616795859
 20
11956.77737030937
 30
0.0
 11
7598.3012616795841
 21
11956.777370309361
 31
0.0
  0
LINE
  5
6FDD
  8
SL
 10
9030.8012616795859
 20
11878.87737030937
 30
0.0
 11
7333.3012616795859
 21
11878.877370309359
 31
0.0
  0
LINE
  5
6FE5
  8
SL
 10
7598.3012616795841
 20
11976.877370309359
 30
0.0
 11
7333.3012616795859
 21
11976.877370309359
 31
0.0
  0
LINE
  5
6FE8
  8
FUTO
 10
9095.8012616795859
 20
11739.87737030937
 30
0.0
 11
9095.8012616795859
 21
12028.87737030937
 31
0.0
  0
LINE
  5
6FE9
  8
SL
 10
8635.8012616795877
 20
11956.77737030937
 30
0.0
 11
8635.8012616795877
 21
11978.87737030937
 31
0.0
  0
LINE
  5
6FEA
  8
SL
 10
8795.8012616795859
 20
11956.77737030937
 30
0.0
 11
8795.8012616795859
 21
11978.87737030937
 31
0.0
  0
LINE
  5
6FEB
  8
SL
 10
9030.8012616795859
 20
11956.77737030937
 30
0.0
 11
8795.8012616795859
 21
11956.77737030937
 31
0.0
  0
LINE
  5
6FEC
  8
SL
 10
8635.8012616795877
 20
11956.77737030937
 30
0.0
 11
8400.8012616795877
 21
11956.77737030937
 31
0.0
  0
LINE
  5
6FED
  8
SL
 10
8400.8012616795877
 20
11878.87737030937
 30
0.0
 11
8400.8012616795877
 21
11956.77737030937
 31
0.0
  0
LINE
  5
6FEE
  8
SL
 10
9030.8012616795859
 20
11878.87737030937
 30
0.0
 11
9030.8012616795859
 21
11956.77737030937
 31
0.0
  0
LINE
  5
6FF1
  8
FUTO
 10
8665.8012616795859
 20
12208.87737030937
 30
0.0
 11
8665.8012616795859
 21
12732.87737030937
 31
0.0
  0
LINE
  5
6FF2
  8
FUTO
 10
8765.8012616795859
 20
12208.87737030937
 30
0.0
 11
8765.8012616795859
 21
12732.87737030937
 31
0.0
  0
LINE
  5
6FF5
  8
CT
 10
8876.1682197155496
 20
12138.87737030937
 30
0.0
 11
8544.1221709420533
 21
12138.87737030937
 31
0.0
  0
LINE
  5
6FF6
  8
FUTO
 10
8815.8012616795859
 20
12088.87737030937
 30
0.0
 11
8615.8012616795859
 21
12088.87737030937
 31
0.0
  0
ARC
  5
6FF7
  8
FUTO
 10
8626.8012616795859
 20
12079.87737030937
 30
0.0
 40
6.0
 50
180.0
 51
270.0
  0
LINE
  5
6FF8
  8
FUTO
 10
8615.8012616795859
 20
12188.87737030937
 30
0.0
 11
8815.8012616795859
 21
12188.87737030937
 31
0.0
  0
ARC
  5
6FF9
  8
FUTO
 10
8626.8012616795859
 20
12197.87737030937
 30
0.0
 40
6.0
 50
90.0
 51
180.0
  0
LINE
  5
6FFD
  8
FUTO
 10
8620.8012616795859
 20
12079.87737030937
 30
0.0
 11
8620.8012616795859
 21
12088.87737030937
 31
0.0
  0
LINE
  5
7000
  8
FUTO
 10
8620.8012616795859
 20
12197.87737030937
 30
0.0
 11
8620.8012616795859
 21
12188.87737030937
 31
0.0
  0
ARC
  5
7001
  8
FUTO
 10
8804.8012616795859
 20
12079.87737030937
 30
0.0
 40
6.0
 50
270.0
 51
0.000000000000007
  0
ARC
  5
7002
  8
FUTO
 10
8804.8012616795859
 20
12197.87737030937
 30
0.0
 40
6.0
 50
0.000000000000007
 51
90.0
  0
LINE
  5
7004
  8
FUTO
 10
8673.3012616795859
 20
11978.87737030937
 30
0.0
 11
8673.3012616795859
 21
12068.87737030937
 31
0.0
  0
LINE
  5
7005
  8
FUTO
 10
8758.3012616795859
 20
11978.87737030937
 30
0.0
 11
8758.3012616795859
 21
12068.87737030937
 31
0.0
  0
LINE
  5
7006
  8
SL
 10
8795.8012616795859
 20
11978.87737030937
 30
0.0
 11
8635.8012616795877
 21
11978.87737030937
 31
0.0
  0
LINE
  5
7007
  8
FUTO
 10
8795.8012616795859
 20
12068.87737030937
 30
0.0
 11
8635.8012616795877
 21
12068.87737030937
 31
0.0
  0
LINE
  5
7008
  8
FUTO
 10
8804.8012616795859
 20
12073.87737030937
 30
0.0
 11
8626.8012616795859
 21
12073.87737030937
 31
0.0
  0
LINE
  5
7009
  8
FUTO
 10
8635.8012616795877
 20
12068.87737030937
 30
0.0
 11
8635.8012616795877
 21
12073.87737030937
 31
0.0
  0
LINE
  5
700B
  8
FUTO
 10
8795.8012616795859
 20
12073.87737030937
 30
0.0
 11
8795.8012616795859
 21
12068.87737030937
 31
0.0
  0
LINE
  5
700C
  8
FUTO
 10
8804.8012616795859
 20
12203.87737030937
 30
0.0
 11
8626.8012616795859
 21
12203.87737030937
 31
0.0
  0
LINE
  5
700D
  8
FUTO
 10
8795.8012616795859
 20
12208.87737030937
 30
0.0
 11
8635.8012616795877
 21
12208.87737030937
 31
0.0
  0
LINE
  5
700F
  8
FUTO
 10
8635.8012616795877
 20
12208.87737030937
 30
0.0
 11
8635.8012616795877
 21
12203.87737030937
 31
0.0
  0
LINE
  5
7010
  8
FUTO
 10
8795.8012616795859
 20
12203.87737030937
 30
0.0
 11
8795.8012616795859
 21
12208.87737030937
 31
0.0
  0
LINE
  5
7011
  8
FUTO
 10
8815.8012616795859
 20
12188.87737030937
 30
0.0
 11
8815.8012616795859
 21
12088.87737030937
 31
0.0
  0
LINE
  5
7012
  8
FUTO
 10
8810.8012616795859
 20
12088.87737030937
 30
0.0
 11
8810.8012616795859
 21
12079.87737030937
 31
0.0
  0
LINE
  5
7013
  8
FUTO
 10
8810.8012616795859
 20
12188.87737030937
 30
0.0
 11
8810.8012616795859
 21
12197.87737030937
 31
0.0
  0
LINE
  5
7015
  8
FUTO
 10
8835.8012616795859
 20
12740.87737030937
 30
0.0
 11
8595.8012616795859
 21
12740.87737030937
 31
0.0
  0
LINE
  5
7016
  8
FUTO
 10
8835.8012616795859
 20
12896.87737030937
 30
0.0
 11
8595.8012616795859
 21
12896.87737030937
 31
0.0
  0
LINE
  5
7018
  8
FUTO
 10
8635.8012616795877
 20
12732.87737030937
 30
0.0
 11
8615.8012616795859
 21
12740.87737030937
 31
0.0
  0
LINE
  5
701A
  8
FUTO
 10
8635.8012616795877
 20
12904.87737030937
 30
0.0
 11
8615.8012616795859
 21
12896.87737030937
 31
0.0
  0
LINE
  5
701D
  8
CT
 10
8876.1682197155496
 20
12818.87737030937
 30
0.0
 11
8544.1221709420533
 21
12818.87737030937
 31
0.0
  0
LINE
  5
7022
  8
FUTO
 10
8595.8012616795859
 20
12740.87737030937
 30
0.0
 11
8595.8012616795859
 21
12748.87737030937
 31
0.0
  0
LINE
  5
7024
  8
FUTO
 10
8595.8012616795859
 20
12896.87737030937
 30
0.0
 11
8595.8012616795859
 21
12888.87737030937
 31
0.0
  0
LINE
  5
7026
  8
FUTO
 10
8848.8012616795859
 20
12764.87737030937
 30
0.0
 11
8848.8012616795859
 21
12872.87737030937
 31
0.0
  0
LINE
  5
7027
  8
FUTO
 10
8835.8012616795859
 20
12754.87737030937
 30
0.0
 11
8595.8012616795859
 21
12754.87737030937
 31
0.0
  0
LINE
  5
7028
  8
FUTO
 10
8795.8012616795859
 20
12732.87737030937
 30
0.0
 11
8815.8012616795859
 21
12740.87737030937
 31
0.0
  0
LINE
  5
7029
  8
FUTO
 10
8848.8012616795859
 20
12791.37737030937
 30
0.0
 11
8582.8012616795859
 21
12791.37737030937
 31
0.0
  0
LINE
  5
702A
  8
FUTO
 10
8795.8012616795859
 20
12732.87737030937
 30
0.0
 11
8635.8012616795877
 21
12732.87737030937
 31
0.0
  0
LINE
  5
702C
  8
FUTO
 10
8835.8012616795859
 20
12740.87737030937
 30
0.0
 11
8835.8012616795859
 21
12754.87737030937
 31
0.0
  0
LINE
  5
702D
  8
FUTO
 10
8848.8012616795859
 20
12764.87737030937
 30
0.0
 11
8835.8012616795859
 21
12764.87737030937
 31
0.0
  0
LINE
  5
702E
  8
FUTO
 10
8835.8012616795859
 20
12754.87737030937
 30
0.0
 11
8835.8012616795859
 21
12791.37737030937
 31
0.0
  0
LINE
  5
702F
  8
FUTO
 10
8835.8012616795859
 20
12882.87737030937
 30
0.0
 11
8635.8012616795877
 21
12882.87737030937
 31
0.0
  0
LINE
  5
7030
  8
FUTO
 10
8795.8012616795859
 20
12904.87737030937
 30
0.0
 11
8815.8012616795859
 21
12896.87737030937
 31
0.0
  0
LINE
  5
7031
  8
FUTO
 10
8835.8012616795859
 20
12882.87737030937
 30
0.0
 11
8595.8012616795859
 21
12882.87737030937
 31
0.0
  0
LINE
  5
7032
  8
FUTO
 10
8848.8012616795859
 20
12846.37737030937
 30
0.0
 11
8582.8012616795859
 21
12846.37737030937
 31
0.0
  0
LINE
  5
7033
  8
KL
 10
8665.8012616795859
 20
12904.87737030937
 30
0.0
 11
8665.8012616795859
 21
13026.67737030937
 31
0.0
  0
LINE
  5
7034
  8
KL
 10
8765.8012616795859
 20
12904.87737030937
 30
0.0
 11
8765.8012616795859
 21
13026.67737030937
 31
0.0
  0
LINE
  5
7035
  8
FUTO
 10
8795.8012616795859
 20
12904.87737030937
 30
0.0
 11
8635.8012616795877
 21
12904.87737030937
 31
0.0
  0
LINE
  5
703A
  8
FUTO
 10
8848.8012616795859
 20
12872.87737030937
 30
0.0
 11
8835.8012616795859
 21
12872.87737030937
 31
0.0
  0
LINE
  5
703B
  8
FUTO
 10
8835.8012616795859
 20
12896.87737030937
 30
0.0
 11
8835.8012616795859
 21
12882.87737030937
 31
0.0
  0
LINE
  5
703C
  8
FUTO
 10
8835.8012616795859
 20
12846.37737030937
 30
0.0
 11
8835.8012616795859
 21
12882.87737030937
 31
0.0
  0
LINE
  5
703F
  8
KL
 10
8706.8012616795859
 20
14219.077370309369
 30
0.0
 11
7850.8012616795868
 21
14219.077370309369
 31
0.0
  0
LINE
  5
7040
  8
FUTO
 10
9580.8012616795877
 20
14338.87737030937
 30
0.0
 11
7850.8012616795868
 21
14338.87737030937
 31
0.0
  0
LINE
  5
7041
  8
FUTO
 10
9580.8012616795877
 20
14344.87737030937
 30
0.0
 11
7850.8012616795868
 21
14344.87737030937
 31
0.0
  0
LINE
  5
7045
  8
KL
 10
7850.8012616795868
 20
14213.077370309369
 30
0.0
 11
7850.8012616795868
 21
14219.077370309369
 31
0.0
  0
LINE
  5
7046
  8
FUTO
 10
7850.8012616795868
 20
14338.87737030937
 30
0.0
 11
7850.8012616795868
 21
14344.87737030937
 31
0.0
  0
LINE
  5
7047
  8
FUTO
 10
7909.8012616795859
 20
14288.077370309369
 30
0.0
 11
7909.8012616795859
 21
14338.87737030937
 31
0.0
  0
LINE
  5
7048
  8
KL
 10
7915.8012616795859
 20
14213.077370309369
 30
0.0
 11
7915.8012616795859
 21
14344.87737030937
 31
0.0
  0
LINE
  5
7049
  8
CT
 10
7875.8012616795868
 20
14189.87737030937
 30
0.0
 11
7875.8012616795868
 21
14233.077370309369
 31
0.0
  0
LINE
  5
704A
  8
CT
 10
7875.8012616795868
 20
14319.87737030937
 30
0.0
 11
7875.8012616795868
 21
14363.077370309369
 31
0.0
  0
LINE
  5
704E
  8
KL
 10
9580.8012616795877
 20
14219.077370309369
 30
0.0
 11
8724.8012616795859
 21
14219.077370309369
 31
0.0
  0
INSERT
  5
7052
  8
FUTO
  2
まっすぐの矢印
 10
8972.6625139705557
 20
14391.34534988053
 30
0.0
 41
-35.0
 42
35.0
 43
35.0
 50
180.0
  0
LINE
  5
7053
  8
FUTO
 10
9521.8012616795859
 20
14288.077370309369
 30
0.0
 11
9521.8012616795859
 21
14338.87737030937
 31
0.0
  0
LINE
  5
7054
  8
KL
 10
9515.8012616795859
 20
14213.077370309369
 30
0.0
 11
9515.8012616795859
 21
14344.87737030937
 31
0.0
  0
LINE
  5
7055
  8
CT
 10
9555.8012616795877
 20
14189.87737030937
 30
0.0
 11
9555.8012616795877
 21
14233.077370309369
 31
0.0
  0
LINE
  5
7056
  8
CT
 10
9555.8012616795877
 20
14319.87737030937
 30
0.0
 11
9555.8012616795877
 21
14363.077370309369
 31
0.0
  0
LINE
  5
7057
  8
KL
 10
9580.8012616795877
 20
14213.077370309369
 30
0.0
 11
9580.8012616795877
 21
14219.077370309369
 31
0.0
  0
LINE
  5
7058
  8
FUTO
 10
9580.8012616795877
 20
14338.87737030937
 30
0.0
 11
9580.8012616795877
 21
14344.87737030937
 31
0.0
  0
LINE
  5
7096
  8
FUTO
 10
8615.8012616795859
 20
12188.87737030937
 30
0.0
 11
8615.8012616795859
 21
12088.87737030937
 31
0.0
  0
LINE
  5
7097
  8
FUTO
 10
8582.8012616795859
 20
12764.87737030937
 30
0.0
 11
8582.8012616795859
 21
12872.87737030937
 31
0.0
  0
LINE
  5
7098
  8
FUTO
 10
8595.8012616795859
 20
12754.87737030937
 30
0.0
 11
8595.8012616795859
 21
12791.37737030937
 31
0.0
  0
LINE
  5
7099
  8
FUTO
 10
8582.8012616795859
 20
12764.87737030937
 30
0.0
 11
8595.8012616795859
 21
12764.87737030937
 31
0.0
  0
LINE
  5
709A
  8
FUTO
 10
8595.8012616795859
 20
12740.87737030937
 30
0.0
 11
8595.8012616795859
 21
12754.87737030937
 31
0.0
  0
LINE
  5
709B
  8
FUTO
 10
8595.8012616795859
 20
12846.37737030937
 30
0.0
 11
8595.8012616795859
 21
12882.87737030937
 31
0.0
  0
LINE
  5
709C
  8
FUTO
 10
8595.8012616795859
 20
12896.87737030937
 30
0.0
 11
8595.8012616795859
 21
12882.87737030937
 31
0.0
  0
LINE
  5
709D
  8
FUTO
 10
8582.8012616795859
 20
12872.87737030937
 30
0.0
 11
8595.8012616795859
 21
12872.87737030937
 31
0.0
  0
ARC
  5
7D1A
  8
FUTO
 10
7465.8012616795859
 20
11979.877370309359
 30
0.0
 40
9.0
 50
0.000000000000007
 51
180.0
  0
LINE
  5
7D1B
  8
FUTO
 10
7456.8012616795859
 20
11878.877370309359
 30
0.0
 11
7456.8012616795859
 21
11979.877370309359
 31
0.0
  0
LINE
  5
7D1C
  8
FUTO
 10
7474.8012616795841
 20
11878.877370309359
 30
0.0
 11
7474.8012616795859
 21
11979.877370309359
 31
0.0
  0
LINE
  5
7D1D
  8
FUTO
 10
7208.8013226795847
 20
12393.37730930937
 30
0.0
 11
7208.8013226795847
 21
12429.377370309359
 31
0.0
  0
LINE
  5
7D1E
  8
FUTO
 10
7205.8013226795874
 20
12393.37730930937
 30
0.0
 11
7205.8013226795874
 21
12429.377370309359
 31
0.0
  0
LINE
  5
7D1F
  8
FUTO
 10
7213.8013226795856
 20
12393.37730930937
 30
0.0
 11
7213.8013226795856
 21
12440.37737030937
 31
0.0
  0
LINE
  5
7D20
  8
FUTO
 10
7255.8012616795859
 20
12054.377370309359
 30
0.0
 11
7255.8012616795859
 21
12101.252370309359
 31
0.0
  0
LINE
  5
7D21
  8
FUTO
 10
7308.1096266840614
 20
12049.377370309359
 30
0.0
 11
7260.8012616795859
 21
12049.377370309359
 31
0.0
  0
ARC
  5
7D22
  8
FUTO
 10
7260.801261679585
 20
12054.377370309359
 30
0.0
 40
5.0
 50
180.0
 51
270.0
  0
LINE
  5
7D23
  8
FUTO
 10
7276.119916461158
 20
12101.252370309359
 30
0.0
 11
7255.8012616795859
 21
12101.252370309359
 31
0.0
  0
LINE
  5
7D24
  8
FUTO
 10
7255.8012616795859
 20
12099.377370309359
 30
0.0
 11
7208.8013226795847
 21
12099.377370309359
 31
0.0
  0
LINE
  5
7D25
  8
FUTO
 10
7255.8012616795859
 20
12096.377370309359
 30
0.0
 11
7205.8013226795874
 21
12096.377370309359
 31
0.0
  0
LINE
  5
7D26
  8
FUTO
 10
7276.0107881113036
 20
12104.377370309359
 30
0.0
 11
7213.8013226795856
 21
12104.377370309359
 31
0.0
  0
LINE
  5
7D27
  8
FUTO
 10
7213.8013226795856
 20
12104.377370309359
 30
0.0
 11
7208.8013226795847
 21
12099.377370309359
 31
0.0
  0
LINE
  5
7D28
  8
FUTO
 10
7180.8013226795856
 20
12139.377370309359
 30
0.0
 11
7180.8013226795856
 21
12179.377370309359
 31
0.0
  0
LINE
  5
7D29
  8
FUTO
 10
7210.8013226795856
 20
12139.377370309359
 30
0.0
 11
7210.8013226795856
 21
12179.377370309359
 31
0.0
  0
LINE
  5
7D2A
  8
FUTO
 10
7180.8013226795856
 20
12179.377370309359
 30
0.0
 11
7210.8013226795856
 21
12179.377370309359
 31
0.0
  0
LINE
  5
7D2B
  8
FUTO
 10
7210.8013226795856
 20
12139.377370309359
 30
0.0
 11
7180.8013226795856
 21
12139.377370309359
 31
0.0
  0
LINE
  5
7D2C
  8
CT
 10
7262.301261679585
 20
12159.377370309359
 30
0.0
 11
7094.7468796795856
 21
12159.377370309359
 31
0.0
  0
LINE
  5
7D2D
  8
FUTO
 10
7106.3468546795857
 20
12176.96721430937
 30
0.0
 11
7118.4468306795861
 21
12176.96721430937
 31
0.0
  0
LINE
  5
7D2E
  8
FUTO
 10
7106.3468546795857
 20
12141.78752730937
 30
0.0
 11
7118.4468306795861
 21
12141.78752730937
 31
0.0
  0
LINE
  5
7D2F
  8
FUTO
 10
7106.3468546795857
 20
12169.08244830936
 30
0.0
 11
7118.4468306795861
 21
12169.08244830936
 31
0.0
  0
LINE
  5
7D30
  8
FUTO
 10
7106.3468546795857
 20
12149.672292309369
 30
0.0
 11
7118.4468306795861
 21
12149.672292309369
 31
0.0
  0
LINE
  5
7D31
  8
FUTO
 10
7104.7468796795847
 20
12175.36760530937
 30
0.0
 11
7104.7468796795847
 21
12143.388112309371
 31
0.0
  0
LINE
  5
7D32
  8
FUTO
 10
7106.3468546795857
 20
12141.78752730937
 30
0.0
 11
7104.7468796795847
 21
12143.388112309371
 31
0.0
  0
LINE
  5
7D33
  8
FUTO
 10
7106.3468546795857
 20
12149.672292309369
 30
0.0
 11
7104.7468796795847
 21
12148.072683309359
 31
0.0
  0
LINE
  5
7D34
  8
FUTO
 10
7106.3468546795857
 20
12149.672292309369
 30
0.0
 11
7104.7468796795847
 21
12151.27287830937
 31
0.0
  0
LINE
  5
7D35
  8
FUTO
 10
7104.7468796795847
 20
12175.36760530937
 30
0.0
 11
7106.3468546795857
 21
12176.96721430937
 31
0.0
  0
LINE
  5
7D36
  8
FUTO
 10
7106.3468546795857
 20
12169.08244830936
 30
0.0
 11
7104.7468796795847
 21
12170.68303430937
 31
0.0
  0
LINE
  5
7D37
  8
FUTO
 10
7106.3468546795857
 20
12169.08244830936
 30
0.0
 11
7104.7468796795847
 21
12167.48283930937
 31
0.0
  0
LINE
  5
7D38
  8
FUTO
 10
7118.4468306795861
 20
12176.96721430937
 30
0.0
 11
7118.4468306795861
 21
12141.78752730937
 31
0.0
  0
LINE
  5
7D39
  8
FUTO
 10
7118.4468306795861
 20
12150.377370309359
 30
0.0
 11
7180.8013226795856
 21
12150.377370309359
 31
0.0
  0
LINE
  5
7D3A
  8
HOSO
 10
7180.8013226795856
 20
12152.37737030937
 30
0.0
 11
7118.4467696795864
 21
12152.377370309359
 31
0.0
  0
LINE
  5
7D3B
  8
HOSO
 10
7118.4468306795861
 20
12166.377370309359
 30
0.0
 11
7180.8013226795856
 21
12166.377370309359
 31
0.0
  0
LINE
  5
7D3C
  8
FUTO
 10
7180.8013226795856
 20
12168.377370309359
 30
0.0
 11
7118.4467696795864
 21
12168.377370309359
 31
0.0
  0
LINE
  5
7D3D
  8
FUTO
 10
7210.8013226795856
 20
12150.377370309359
 30
0.0
 11
7262.3012616795859
 21
12150.377370309359
 31
0.0
  0
LINE
  5
7D3E
  8
HOSO
 10
7262.3012616795859
 20
12152.377370309359
 30
0.0
 11
7210.8013226795856
 21
12152.377370309359
 31
0.0
  0
LINE
  5
7D3F
  8
FUTO
 10
7262.3012616795859
 20
12168.377370309359
 30
0.0
 11
7210.8013226795856
 21
12168.377370309359
 31
0.0
  0
LINE
  5
7D40
  8
HOSO
 10
7210.8013226795856
 20
12166.37737030937
 30
0.0
 11
7262.3012616795859
 21
12166.377370309359
 31
0.0
  0
LINE
  5
7D41
  8
FUTO
 10
7205.8013226795874
 20
12096.377370309359
 30
0.0
 11
7205.8013226795874
 21
12139.377370309359
 31
0.0
  0
LINE
  5
7D42
  8
FUTO
 10
7208.8013226795847
 20
12099.377370309359
 30
0.0
 11
7208.8013226795847
 21
12139.377370309359
 31
0.0
  0
LINE
  5
7D43
  8
FUTO
 10
7213.8013226795856
 20
12104.377370309359
 30
0.0
 11
7213.8013226795856
 21
12150.377370309359
 31
0.0
  0
LINE
  5
7D44
  8
FUTO
 10
7205.8013226795874
 20
12179.377370309359
 30
0.0
 11
7205.8013226795874
 21
12215.377370309359
 31
0.0
  0
LINE
  5
7D45
  8
FUTO
 10
7208.8013226795847
 20
12179.377370309359
 30
0.0
 11
7208.8013226795847
 21
12215.377370309359
 31
0.0
  0
LINE
  5
7D46
  8
FUTO
 10
7213.8013226795856
 20
12168.377370309359
 30
0.0
 11
7213.8013226795856
 21
12215.377370309359
 31
0.0
  0
LINE
  5
7D47
  8
FUTO
 10
7180.8013226795856
 20
12440.37737030937
 30
0.0
 11
7118.4467696795864
 21
12440.37737030937
 31
0.0
  0
LINE
  5
7D48
  8
HOSO
 10
7118.4468306795861
 20
12442.377370309359
 30
0.0
 11
7180.8013226795856
 21
12442.377370309359
 31
0.0
  0
LINE
  5
7D49
  8
HOSO
 10
7180.8013226795856
 20
12456.377370309359
 30
0.0
 11
7118.4467696795864
 21
12456.377370309359
 31
0.0
  0
LINE
  5
7D4A
  8
FUTO
 10
7118.4468306795861
 20
12458.377370309359
 30
0.0
 11
7180.8013226795856
 21
12458.377370309359
 31
0.0
  0
LINE
  5
7D4B
  8
FUTO
 10
7118.4468306795861
 20
12431.78752630937
 30
0.0
 11
7118.4468306795861
 21
12466.96721330937
 31
0.0
  0
LINE
  5
7D4C
  8
FUTO
 10
7106.3468546795857
 20
12439.67229230936
 30
0.0
 11
7104.7468796795847
 21
12441.271901309359
 31
0.0
  0
LINE
  5
7D4D
  8
FUTO
 10
7106.3468546795857
 20
12439.67229230936
 30
0.0
 11
7104.7468796795847
 21
12438.071706309371
 31
0.0
  0
LINE
  5
7D4E
  8
FUTO
 10
7104.7468796795847
 20
12433.387135309369
 30
0.0
 11
7106.3468546795857
 21
12431.78752630937
 31
0.0
  0
LINE
  5
7D4F
  8
FUTO
 10
7106.3468546795857
 20
12459.082448309369
 30
0.0
 11
7104.7468796795847
 21
12457.481862309371
 31
0.0
  0
LINE
  5
7D50
  8
FUTO
 10
7106.3468546795857
 20
12459.082448309369
 30
0.0
 11
7104.7468796795847
 21
12460.682057309359
 31
0.0
  0
LINE
  5
7D51
  8
FUTO
 10
7106.3468546795857
 20
12466.96721330937
 30
0.0
 11
7104.7468796795847
 21
12465.36662830937
 31
0.0
  0
LINE
  5
7D52
  8
FUTO
 10
7104.7468796795847
 20
12433.387135309369
 30
0.0
 11
7104.7468796795847
 21
12465.36662830937
 31
0.0
  0
LINE
  5
7D53
  8
FUTO
 10
7106.3468546795857
 20
12459.082448309369
 30
0.0
 11
7118.4468306795861
 21
12459.082448309369
 31
0.0
  0
LINE
  5
7D54
  8
FUTO
 10
7106.3468546795857
 20
12439.67229230936
 30
0.0
 11
7118.4468306795861
 21
12439.67229230936
 31
0.0
  0
LINE
  5
7D55
  8
FUTO
 10
7106.3468546795857
 20
12466.96721330937
 30
0.0
 11
7118.4468306795861
 21
12466.96721330937
 31
0.0
  0
LINE
  5
7D56
  8
FUTO
 10
7106.3468546795857
 20
12431.78752630937
 30
0.0
 11
7118.4468306795861
 21
12431.78752630937
 31
0.0
  0
LINE
  5
7D57
  8
FUTO
 10
7210.8013226795856
 20
12469.377370309359
 30
0.0
 11
7180.8013226795856
 21
12469.377370309359
 31
0.0
  0
LINE
  5
7D58
  8
FUTO
 10
7180.8013226795856
 20
12429.377370309359
 30
0.0
 11
7210.8013226795856
 21
12429.377370309359
 31
0.0
  0
LINE
  5
7D59
  8
FUTO
 10
7210.8013226795856
 20
12469.377370309359
 30
0.0
 11
7210.8013226795856
 21
12429.377370309359
 31
0.0
  0
LINE
  5
7D5A
  8
FUTO
 10
7180.8013226795856
 20
12469.37737030937
 30
0.0
 11
7180.8013226795856
 21
12429.377370309359
 31
0.0
  0
LINE
  5
7D5B
  8
HOSO
 10
7210.8013226795856
 20
12442.377370309359
 30
0.0
 11
7262.3012616795859
 21
12442.377370309359
 31
0.0
  0
LINE
  5
7D5C
  8
FUTO
 10
7262.3012616795859
 20
12440.37737030937
 30
0.0
 11
7210.8013226795856
 21
12440.37737030937
 31
0.0
  0
LINE
  5
7D5D
  8
HOSO
 10
7262.3012616795859
 20
12456.377370309359
 30
0.0
 11
7210.8013226795856
 21
12456.377370309359
 31
0.0
  0
LINE
  5
7D5E
  8
FUTO
 10
7210.8013226795856
 20
12458.377370309359
 30
0.0
 11
7262.3012616795859
 21
12458.377370309359
 31
0.0
  0
LINE
  5
7D5F
  8
CT
 10
7262.301261679585
 20
12449.377370309359
 30
0.0
 11
7094.7468796795856
 21
12449.377370309359
 31
0.0
  0
LINE
  5
7D60
  8
FUTO
 10
7213.8013226795856
 20
12504.377370309359
 30
0.0
 11
7208.8013226795847
 21
12509.377370309359
 31
0.0
  0
LINE
  5
7D61
  8
FUTO
 10
7255.8012616795859
 20
12512.377370309359
 30
0.0
 11
7205.8013226795874
 21
12512.377370309359
 31
0.0
  0
LINE
  5
7D62
  8
FUTO
 10
7255.8012616795859
 20
12509.377370309359
 30
0.0
 11
7208.8013226795847
 21
12509.377370309359
 31
0.0
  0
LINE
  5
7D63
  8
FUTO
 10
7262.3012616795877
 20
12507.502370309359
 30
0.0
 11
7255.8012616795859
 21
12507.502370309359
 31
0.0
  0
LINE
  5
7D64
  8
FUTO
 10
7262.3012616795859
 20
12504.377370309359
 30
0.0
 11
7213.8013226795856
 21
12504.377370309359
 31
0.0
  0
LINE
  5
7D65
  8
FUTO
 10
7213.8013226795856
 20
12504.377370309359
 30
0.0
 11
7213.8013226795856
 21
12458.377370309359
 31
0.0
  0
LINE
  5
7D66
  8
FUTO
 10
7208.8013226795847
 20
12509.377370309359
 30
0.0
 11
7208.8013226795847
 21
12469.377370309359
 31
0.0
  0
LINE
  5
7D67
  8
FUTO
 10
7205.8013226795874
 20
12512.377370309359
 30
0.0
 11
7205.8013226795874
 21
12469.377370309359
 31
0.0
  0
ARC
  5
7D68
  8
FUTO
 10
7260.8012616795859
 20
12554.377370309359
 30
0.0
 40
5.0
 50
89.999999999999986
 51
180.0
  0
LINE
  5
7D69
  8
FUTO
 10
7255.8012616795859
 20
12554.377370309359
 30
0.0
 11
7255.8012616795859
 21
12507.502370309359
 31
0.0
  0
LINE
  5
7D6A
  8
FUTO
 10
7273.3012616795859
 20
12559.377370309359
 30
0.0
 11
7260.8012616795859
 21
12559.377370309359
 31
0.0
  0
LINE
  5
7D6B
  8
CT
 10
7669.3012616795868
 20
12449.377370309359
 30
0.0
 11
7836.8556436795852
 21
12449.377370309359
 31
0.0
  0
LINE
  5
7D6C
  8
FUTO
 10
7720.8012006795871
 20
12458.377370309359
 30
0.0
 11
7669.301261679585
 21
12458.377370309359
 31
0.0
  0
LINE
  5
7D6D
  8
HOSO
 10
7669.301261679585
 20
12456.377370309359
 30
0.0
 11
7720.8012006795871
 21
12456.377370309359
 31
0.0
  0
LINE
  5
7D6E
  8
FUTO
 10
7669.301261679585
 20
12440.37737030937
 30
0.0
 11
7720.8012006795871
 21
12440.37737030937
 31
0.0
  0
LINE
  5
7D6F
  8
HOSO
 10
7720.8012006795871
 20
12442.377370309359
 30
0.0
 11
7669.301261679585
 21
12442.377370309359
 31
0.0
  0
LINE
  5
7D70
  8
FUTO
 10
7750.8012006795861
 20
12469.37737030937
 30
0.0
 11
7750.8012006795861
 21
12429.377370309359
 31
0.0
  0
LINE
  5
7D71
  8
FUTO
 10
7720.8012006795871
 20
12469.377370309359
 30
0.0
 11
7720.8012006795871
 21
12429.377370309359
 31
0.0
  0
LINE
  5
7D72
  8
FUTO
 10
7750.8012006795861
 20
12429.377370309359
 30
0.0
 11
7720.8012006795871
 21
12429.377370309359
 31
0.0
  0
LINE
  5
7D73
  8
FUTO
 10
7720.8012006795871
 20
12469.377370309359
 30
0.0
 11
7750.8012006795861
 21
12469.377370309359
 31
0.0
  0
LINE
  5
7D74
  8
FUTO
 10
7825.2556686795851
 20
12431.787526309359
 30
0.0
 11
7813.1556926795847
 21
12431.787526309359
 31
0.0
  0
LINE
  5
7D75
  8
FUTO
 10
7825.2556686795851
 20
12466.967213309361
 30
0.0
 11
7813.1556926795847
 21
12466.967213309361
 31
0.0
  0
LINE
  5
7D76
  8
FUTO
 10
7825.2556686795851
 20
12439.67229230936
 30
0.0
 11
7813.1556926795847
 21
12439.67229230936
 31
0.0
  0
LINE
  5
7D77
  8
FUTO
 10
7825.2556686795851
 20
12459.082448309369
 30
0.0
 11
7813.1556926795847
 21
12459.082448309369
 31
0.0
  0
LINE
  5
7D78
  8
FUTO
 10
7826.8556436795852
 20
12433.387135309369
 30
0.0
 11
7826.8556436795852
 21
12465.366628309361
 31
0.0
  0
LINE
  5
7D79
  8
FUTO
 10
7825.2556686795851
 20
12466.967213309361
 30
0.0
 11
7826.8556436795852
 21
12465.366628309361
 31
0.0
  0
LINE
  5
7D7A
  8
FUTO
 10
7825.2556686795851
 20
12459.082448309369
 30
0.0
 11
7826.8556436795852
 21
12460.682057309359
 31
0.0
  0
LINE
  5
7D7B
  8
FUTO
 10
7825.2556686795851
 20
12459.082448309369
 30
0.0
 11
7826.8556436795852
 21
12457.48186230936
 31
0.0
  0
LINE
  5
7D7C
  8
FUTO
 10
7826.8556436795852
 20
12433.387135309369
 30
0.0
 11
7825.2556686795851
 21
12431.787526309359
 31
0.0
  0
LINE
  5
7D7D
  8
FUTO
 10
7825.2556686795851
 20
12439.67229230936
 30
0.0
 11
7826.8556436795852
 21
12438.071706309371
 31
0.0
  0
LINE
  5
7D7E
  8
FUTO
 10
7825.2556686795851
 20
12439.67229230936
 30
0.0
 11
7826.8556436795852
 21
12441.271901309359
 31
0.0
  0
LINE
  5
7D7F
  8
FUTO
 10
7813.1556926795847
 20
12431.787526309359
 30
0.0
 11
7813.1556926795847
 21
12466.967213309361
 31
0.0
  0
LINE
  5
7D80
  8
FUTO
 10
7813.1556926795847
 20
12458.377370309359
 30
0.0
 11
7750.8012006795861
 21
12458.377370309359
 31
0.0
  0
LINE
  5
7D81
  8
HOSO
 10
7750.8012006795861
 20
12456.377370309359
 30
0.0
 11
7813.1557536795854
 21
12456.377370309359
 31
0.0
  0
LINE
  5
7D82
  8
HOSO
 10
7813.1556926795847
 20
12442.377370309359
 30
0.0
 11
7750.8012006795861
 21
12442.377370309359
 31
0.0
  0
LINE
  5
7D83
  8
FUTO
 10
7750.8012006795861
 20
12440.37737030937
 30
0.0
 11
7813.1557536795854
 21
12440.37737030937
 31
0.0
  0
LINE
  5
7D84
  8
FUTO
 10
7725.8012006795871
 20
12512.377370309359
 30
0.0
 11
7725.8012006795871
 21
12469.377370309359
 31
0.0
  0
LINE
  5
7D85
  8
FUTO
 10
7722.8012006795871
 20
12509.377370309359
 30
0.0
 11
7722.8012006795871
 21
12469.377370309359
 31
0.0
  0
LINE
  5
7D86
  8
FUTO
 10
7717.8012006795871
 20
12504.377370309359
 30
0.0
 11
7717.8012006795871
 21
12458.377370309359
 31
0.0
  0
LINE
  5
7D87
  8
FUTO
 10
7658.3012616795859
 20
12559.377370309359
 30
0.0
 11
7670.801261679585
 21
12559.377370309359
 31
0.0
  0
LINE
  5
7D88
  8
FUTO
 10
7669.301261679585
 20
12504.377370309359
 30
0.0
 11
7717.8012006795871
 21
12504.377370309359
 31
0.0
  0
LINE
  5
7D89
  8
FUTO
 10
7669.301261679585
 20
12507.502370309359
 30
0.0
 11
7675.801261679585
 21
12507.502370309359
 31
0.0
  0
LINE
  5
7D8A
  8
FUTO
 10
7675.801261679585
 20
12554.377370309359
 30
0.0
 11
7675.801261679585
 21
12507.502370309359
 31
0.0
  0
LINE
  5
7D8B
  8
FUTO
 10
7675.801261679585
 20
12509.377370309359
 30
0.0
 11
7722.8012006795871
 21
12509.377370309359
 31
0.0
  0
LINE
  5
7D8C
  8
FUTO
 10
7675.801261679585
 20
12512.377370309359
 30
0.0
 11
7725.8012006795871
 21
12512.377370309359
 31
0.0
  0
ARC
  5
7D8D
  8
FUTO
 10
7670.801261679585
 20
12554.377370309359
 30
0.0
 40
5.0
 50
0.000000000000007
 51
89.999999999999986
  0
LINE
  5
7D8E
  8
FUTO
 10
7717.8012006795871
 20
12504.377370309359
 30
0.0
 11
7722.8012006795871
 21
12509.377370309359
 31
0.0
  0
LINE
  5
7D8F
  8
FUTO
 10
7655.4826068980128
 20
12101.252370309359
 30
0.0
 11
7675.801261679585
 21
12101.252370309359
 31
0.0
  0
LINE
  5
7D90
  8
FUTO
 10
7717.8012006795871
 20
12168.377370309359
 30
0.0
 11
7717.8012006795871
 21
12440.37737030937
 31
0.0
  0
LINE
  5
7D91
  8
FUTO
 10
7717.8012006795871
 20
12104.377370309359
 30
0.0
 11
7722.8012006795871
 21
12099.377370309359
 31
0.0
  0
LINE
  5
7D92
  8
FUTO
 10
7717.8012006795871
 20
12104.377370309359
 30
0.0
 11
7717.8012006795871
 21
12150.377370309359
 31
0.0
  0
LINE
  5
7D93
  8
FUTO
 10
7655.5917352478673
 20
12104.377370309359
 30
0.0
 11
7717.8012006795871
 21
12104.377370309359
 31
0.0
  0
ARC
  5
7D94
  8
FUTO
 10
7670.801261679585
 20
12054.377370309359
 30
0.0
 40
5.0
 50
270.0
 51
0.000000000000007
  0
LINE
  5
7D95
  8
FUTO
 10
7675.801261679585
 20
12096.377370309359
 30
0.0
 11
7725.8012006795871
 21
12096.377370309359
 31
0.0
  0
LINE
  5
7D96
  8
FUTO
 10
7675.801261679585
 20
12099.377370309359
 30
0.0
 11
7722.8012006795871
 21
12099.377370309359
 31
0.0
  0
LINE
  5
7D97
  8
FUTO
 10
7623.4928966751086
 20
12049.377370309359
 30
0.0
 11
7670.801261679585
 21
12049.377370309359
 31
0.0
  0
LINE
  5
7D98
  8
FUTO
 10
7675.801261679585
 20
12054.377370309359
 30
0.0
 11
7675.801261679585
 21
12101.252370309359
 31
0.0
  0
LINE
  5
7D99
  8
FUTO
 10
7722.8012006795871
 20
12179.377370309359
 30
0.0
 11
7722.8012006795871
 21
12429.377370309359
 31
0.0
  0
LINE
  5
7D9A
  8
FUTO
 10
7725.8012006795871
 20
12179.377370309359
 30
0.0
 11
7725.8012006795871
 21
12429.377370309359
 31
0.0
  0
LINE
  5
7D9B
  8
FUTO
 10
7722.8012006795871
 20
12099.377370309359
 30
0.0
 11
7722.8012006795871
 21
12139.377370309359
 31
0.0
  0
LINE
  5
7D9C
  8
FUTO
 10
7725.8012006795871
 20
12096.377370309359
 30
0.0
 11
7725.8012006795871
 21
12139.377370309359
 31
0.0
  0
LINE
  5
7D9D
  8
HOSO
 10
7720.8012006795871
 20
12166.377370309359
 30
0.0
 11
7669.301261679585
 21
12166.377370309359
 31
0.0
  0
LINE
  5
7D9E
  8
FUTO
 10
7669.301261679585
 20
12168.377370309359
 30
0.0
 11
7720.8012006795871
 21
12168.377370309359
 31
0.0
  0
LINE
  5
7D9F
  8
HOSO
 10
7669.301261679585
 20
12152.377370309359
 30
0.0
 11
7720.8012006795871
 21
12152.377370309359
 31
0.0
  0
LINE
  5
7DA0
  8
FUTO
 10
7720.8012006795871
 20
12150.377370309359
 30
0.0
 11
7669.301261679585
 21
12150.377370309359
 31
0.0
  0
LINE
  5
7DA1
  8
FUTO
 10
7750.8012006795861
 20
12168.377370309359
 30
0.0
 11
7813.1557536795854
 21
12168.377370309359
 31
0.0
  0
LINE
  5
7DA2
  8
HOSO
 10
7813.1556926795847
 20
12166.377370309359
 30
0.0
 11
7750.8012006795861
 21
12166.377370309359
 31
0.0
  0
LINE
  5
7DA3
  8
HOSO
 10
7750.8012006795861
 20
12152.37737030937
 30
0.0
 11
7813.1557536795854
 21
12152.377370309359
 31
0.0
  0
LINE
  5
7DA4
  8
FUTO
 10
7813.1556926795847
 20
12150.377370309359
 30
0.0
 11
7750.8012006795861
 21
12150.377370309359
 31
0.0
  0
LINE
  5
7DA5
  8
FUTO
 10
7813.1556926795847
 20
12176.967214309359
 30
0.0
 11
7813.1556926795847
 21
12141.78752730936
 31
0.0
  0
LINE
  5
7DA6
  8
FUTO
 10
7825.2556686795851
 20
12169.08244830936
 30
0.0
 11
7826.8556436795852
 21
12167.482839309359
 31
0.0
  0
LINE
  5
7DA7
  8
FUTO
 10
7825.2556686795851
 20
12169.08244830936
 30
0.0
 11
7826.8556436795852
 21
12170.68303430937
 31
0.0
  0
LINE
  5
7DA8
  8
FUTO
 10
7826.8556436795852
 20
12175.36760530937
 30
0.0
 11
7825.2556686795851
 21
12176.967214309359
 31
0.0
  0
LINE
  5
7DA9
  8
FUTO
 10
7825.2556686795851
 20
12149.672292309369
 30
0.0
 11
7826.8556436795852
 21
12151.272878309361
 31
0.0
  0
LINE
  5
7DAA
  8
FUTO
 10
7825.2556686795851
 20
12149.672292309369
 30
0.0
 11
7826.8556436795852
 21
12148.072683309359
 31
0.0
  0
LINE
  5
7DAB
  8
FUTO
 10
7825.2556686795851
 20
12141.78752730936
 30
0.0
 11
7826.8556436795852
 21
12143.388112309371
 31
0.0
  0
LINE
  5
7DAC
  8
FUTO
 10
7826.8556436795852
 20
12175.36760530937
 30
0.0
 11
7826.8556436795852
 21
12143.388112309371
 31
0.0
  0
LINE
  5
7DAD
  8
FUTO
 10
7825.2556686795851
 20
12149.672292309369
 30
0.0
 11
7813.1556926795847
 21
12149.672292309369
 31
0.0
  0
LINE
  5
7DAE
  8
FUTO
 10
7825.2556686795851
 20
12169.08244830936
 30
0.0
 11
7813.1556926795847
 21
12169.08244830936
 31
0.0
  0
LINE
  5
7DAF
  8
FUTO
 10
7825.2556686795851
 20
12141.78752730936
 30
0.0
 11
7813.1556926795847
 21
12141.78752730936
 31
0.0
  0
LINE
  5
7DB0
  8
FUTO
 10
7825.2556686795851
 20
12176.967214309359
 30
0.0
 11
7813.1556926795847
 21
12176.967214309359
 31
0.0
  0
LINE
  5
7DB1
  8
CT
 10
7669.3012616795868
 20
12159.377370309359
 30
0.0
 11
7836.8556436795852
 21
12159.377370309359
 31
0.0
  0
LINE
  5
7DB2
  8
FUTO
 10
7720.8012006795871
 20
12139.377370309359
 30
0.0
 11
7750.8012006795861
 21
12139.377370309359
 31
0.0
  0
LINE
  5
7DB3
  8
FUTO
 10
7750.8012006795861
 20
12179.377370309359
 30
0.0
 11
7720.8012006795871
 21
12179.377370309359
 31
0.0
  0
LINE
  5
7DB4
  8
FUTO
 10
7720.8012006795871
 20
12139.377370309359
 30
0.0
 11
7720.8012006795871
 21
12179.377370309359
 31
0.0
  0
LINE
  5
7DB5
  8
FUTO
 10
7750.8012006795861
 20
12139.377370309359
 30
0.0
 11
7750.8012006795861
 21
12179.377370309359
 31
0.0
  0
ARC
  5
7DB6
  8
FUTO
 10
7134.1721116795852
 20
12366.37730930936
 30
0.0
 40
20.0
 50
89.999999999999986
 51
180.0
  0
ARC
  5
7DB7
  8
FUTO
 10
7134.1721116795861
 20
12242.377370309359
 30
0.0
 40
20.0
 50
180.0
 51
270.0
  0
ARC
  5
7DB8
  8
FUTO
 10
7124.1721116795861
 20
12225.377370309359
 30
0.0
 40
10.0
 50
180.0
 51
270.0
  0
ARC
  5
7DB9
  8
FUTO
 10
7124.1721116795861
 20
12383.37730930936
 30
0.0
 40
10.0
 50
89.999999999999986
 51
180.0
  0
ARC
  5
7DBA
  8
FUTO
 10
7227.0288365784781
 20
12225.377370309359
 30
0.0
 40
10.0
 50
270.0
 51
0.000000000000007
  0
ARC
  5
7DBB
  8
FUTO
 10
7223.8617210401444
 20
12225.377370309359
 30
0.0
 40
10.0
 50
270.0
 51
0.000000000000007
  0
ARC
  5
7DBC
  8
FUTO
 10
7227.0288365784781
 20
12383.37730930936
 30
0.0
 40
10.0
 50
0.000000000000007
 51
89.999999999999986
  0
ARC
  5
7DBD
  8
FUTO
 10
7223.8617210401444
 20
12383.37730930936
 30
0.0
 40
10.0
 50
0.000000000000007
 51
89.999999999999986
  0
LINE
  5
7DBE
  8
FUTO
 10
7226.6651177606882
 20
12222.377370309359
 30
0.0
 11
7134.1721116795861
 21
12222.377370309359
 31
0.0
  0
LINE
  5
7DBF
  8
FUTO
 10
7226.6651177606882
 20
12386.37730930937
 30
0.0
 11
7134.1721116795861
 21
12386.37730930937
 31
0.0
  0
ARC
  5
7DC0
  8
FUTO
 10
7240.801261679585
 20
12227.377370309359
 30
0.0
 40
5.0
 50
270.0
 51
0.000000000000007
  0
ARC
  5
7DC1
  8
FUTO
 10
7240.801261679585
 20
12381.37730930936
 30
0.0
 40
5.0
 50
0.000000000000007
 51
89.999999999999986
  0
ARC
  5
7DC2
  8
FUTO
 10
7226.6651177606882
 20
12227.377370309359
 30
0.0
 40
5.0
 50
270.0
 51
0.000000000000007
  0
ARC
  5
7DC3
  8
FUTO
 10
7226.6651177606882
 20
12381.37730930936
 30
0.0
 40
5.0
 50
0.000000000000007
 51
89.999999999999986
  0
LINE
  5
7DC4
  8
FUTO
 10
7227.0288365784781
 20
12215.377370309359
 30
0.0
 11
7124.1721116795861
 21
12215.377370309359
 31
0.0
  0
LINE
  5
7DC5
  8
FUTO
 10
7240.801261679585
 20
12222.377370309359
 30
0.0
 11
7237.0288365784781
 21
12222.377370309359
 31
0.0
  0
LINE
  5
7DC6
  8
FUTO
 10
7227.0288365784781
 20
12393.37730930937
 30
0.0
 11
7124.1721116795861
 21
12393.37730930937
 31
0.0
  0
LINE
  5
7DC7
  8
FUTO
 10
7240.801261679585
 20
12386.37730930937
 30
0.0
 11
7237.0288365784781
 21
12386.37730930937
 31
0.0
  0
LINE
  5
7DC8
  8
FUTO
 10
7262.301261679585
 20
12364.37737030937
 30
0.0
 11
7262.301261679585
 21
12471.188141058399
 31
0.0
  0
LINE
  5
7DC9
  8
FUTO
 10
7245.801261679585
 20
12244.37737030937
 30
0.0
 11
7313.5276592397668
 21
12244.377370309359
 31
0.0
  0
LINE
  5
7DCA
  8
FUTO
 10
7245.801261679585
 20
12364.377370309359
 30
0.0
 11
7313.5276592397668
 21
12364.377370309359
 31
0.0
  0
LINE
  5
7DCB
  8
FUTO
 10
7155.4819256795854
 20
12242.377370309359
 30
0.0
 11
7155.4819256795872
 21
12366.37730930937
 31
0.0
  0
LINE
  5
7DCC
  8
FUTO
 10
7231.6651177606882
 20
12227.377370309359
 30
0.0
 11
7231.6651177606882
 21
12381.37730930936
 31
0.0
  0
LINE
  5
7DCD
  8
FUTO
 10
7233.8617210401453
 20
12225.377370309359
 30
0.0
 11
7233.8617210401453
 21
12383.37730930936
 31
0.0
  0
LINE
  5
7DCE
  8
FUTO
 10
7237.0288365784781
 20
12225.377370309359
 30
0.0
 11
7237.0288365784781
 21
12383.37730930936
 31
0.0
  0
LINE
  5
7DCF
  8
FUTO
 10
7245.801261679585
 20
12227.377370309359
 30
0.0
 11
7245.801261679585
 21
12381.37730930936
 31
0.0
  0
LINE
  5
7DD0
  8
FUTO
 10
7255.801261679585
 20
12244.377370309359
 30
0.0
 11
7255.801261679585
 21
12364.377370309359
 31
0.0
  0
LINE
  5
7DD1
  8
FUTO
 10
7313.5276592397668
 20
12244.377370309359
 30
0.0
 11
7313.5276592397668
 21
12364.37737030937
 31
0.0
  0
LINE
  5
7DD2
  8
FUTO
 10
7114.1721116795861
 20
12225.377370309359
 30
0.0
 11
7114.1721116795861
 21
12383.37730930936
 31
0.0
  0
LINE
  5
7DD3
  8
FUTO
 10
7459.551261679585
 20
12280.627370309359
 30
0.0
 11
7459.551261679585
 21
12328.127370309359
 31
0.0
  0
ARC
  5
7DD4
  8
FUTO
 10
7465.8012616795859
 20
12280.627370309359
 30
0.0
 40
6.25
 50
180.0
 51
0.000000000000007
  0
ARC
  5
7DD5
  8
FUTO
 10
7465.8012616795859
 20
12328.127370309359
 30
0.0
 40
6.25
 50
0.000000000000007
 51
180.0
  0
LINE
  5
7DD6
  8
CT
 10
7094.1721116795861
 20
12304.377370309359
 30
0.0
 11
7745.8012006795861
 21
12304.377370309359
 31
0.0
  0
LINE
  5
7DD7
  8
FUTO
 10
7472.0512616795868
 20
12280.627370309359
 30
0.0
 11
7472.051261679585
 21
12328.127370309359
 31
0.0
  0
LINE
  5
7DD8
  8
FUTO
 10
7262.3012616795877
 20
12471.188141058399
 30
0.0
 11
7264.1230386795869
 21
12473.37730930936
 31
0.0
  0
LINE
  5
7DD9
  8
FUTO
 10
7262.3012616795859
 20
12137.566457309371
 30
0.0
 11
7268.8012616795859
 21
12129.755544309361
 31
0.0
  0
LINE
  5
7DDA
  8
FUTO
 10
7262.3012616795859
 20
12137.566457309371
 30
0.0
 11
7262.301261679585
 21
12244.37737030937
 31
0.0
  0
LINE
  5
7DDB
  8
FUTO
 10
7669.301261679585
 20
12137.566457309371
 30
0.0
 11
7669.3012616795868
 21
12471.188141058399
 31
0.0
  0
ARC
  5
7DDC
  8
FUTO
 10
7387.8012616795859
 20
12030.877370309359
 30
0.0
 40
2.0
 50
180.0
 51
270.0
  0
ARC
  5
7DDD
  8
FUTO
 10
7382.8012616795859
 20
12041.03044630936
 30
0.0
 40
2.9999599999999988
 50
0.000000000000007
 51
87.000442999964605
  0
LINE
  5
7DDE
  8
FUTO
 10
7385.8012616795859
 20
12041.03044630936
 30
0.0
 11
7385.8012616795859
 21
12030.877370309359
 31
0.0
  0
ARC
  5
7DDF
  8
FUTO
 10
7286.7053136795839
 20
12084.663015309359
 30
0.0
 40
9.9999679999999991
 50
181.99932900002389
 51
225.0
  0
ARC
  5
7DE0
  8
FUTO
 10
7313.6984776795871
 20
12057.669850309359
 30
0.0
 40
10.000024
 50
225.0
 51
267.00096100001281
  0
LINE
  5
7DE1
  8
FUTO
 10
7279.6342686795861
 20
12077.59197030936
 30
0.0
 11
7306.6274336795859
 21
12050.598806309359
 31
0.0
  0
LINE
  5
7DE2
  8
FUTO
 10
7275.8012616795859
 20
12110.377370309359
 30
0.0
 11
7276.7114176795849
 21
12084.314138309361
 31
0.0
  0
LINE
  5
7DE3
  8
FUTO
 10
7313.1752846795862
 20
12047.68352230936
 30
0.0
 11
7401.7665936795856
 21
12043.040700309361
 31
0.0
  0
LINE
  5
7DE4
  8
FUTO
 10
7303.801261679585
 20
12120.377370309359
 30
0.0
 11
7627.8012616795859
 21
12120.377370309359
 31
0.0
  0
LINE
  5
7DE5
  8
FUTO
 10
7303.801261679585
 20
12110.377370309359
 30
0.0
 11
7303.801261679585
 21
12115.377370309359
 31
0.0
  0
LINE
  5
7DE6
  8
FUTO
 10
7303.801261679585
 20
12115.377370309359
 30
0.0
 11
7303.801261679585
 21
12120.377370309359
 31
0.0
  0
LINE
  5
7DE7
  8
FUTO
 10
7268.8012616795859
 20
12129.755544309361
 30
0.0
 11
7303.801261679585
 21
12120.377370309359
 31
0.0
  0
ARC
  5
7DE8
  8
FUTO
 10
7282.3012616795859
 20
12519.850698309359
 30
0.0
 40
20.0
 50
159.99995399998471
 51
180.0
  0
ARC
  5
7DE9
  8
FUTO
 10
7253.301261679585
 20
12557.12608830936
 30
0.0
 40
20.0
 50
340.0002749999901
 51
0.000000000000007
  0
LINE
  5
7DEA
  8
FUTO
 10
7318.152335679586
 20
12501.87730930936
 30
0.0
 11
7314.3994056795864
 21
12508.37730930936
 31
0.0
  0
LINE
  5
7DEB
  8
FUTO
 10
7314.3994056795864
 20
12508.37730930936
 30
0.0
 11
7318.152335679586
 21
12514.87730930936
 31
0.0
  0
LINE
  5
7DEC
  8
FUTO
 10
7263.507315679587
 20
12526.691152309369
 30
0.0
 11
7272.0952066795862
 21
12550.28575630936
 31
0.0
  0
LINE
  5
7DED
  8
FUTO
 10
7262.3012616795859
 20
12473.37730930936
 30
0.0
 11
7262.3012616795859
 21
12519.850698309359
 31
0.0
  0
LINE
  5
7DEE
  8
FUTO
 10
7329.4106366795859
 20
12508.37730930936
 30
0.0
 11
7325.6577066795871
 21
12514.87730930936
 31
0.0
  0
LINE
  5
7DEF
  8
FUTO
 10
7325.6577066795871
 20
12501.87730930936
 30
0.0
 11
7329.4106366795859
 21
12508.37730930936
 31
0.0
  0
LINE
  5
7DF0
  8
CT
 10
7321.9050206795864
 20
12500.93517030936
 30
0.0
 11
7321.9050206795864
 21
12515.39122530936
 31
0.0
  0
LINE
  5
7DF1
  8
CT
 10
7330.2956456795846
 20
12508.37730930936
 30
0.0
 11
7313.4741126795852
 21
12508.37730930936
 31
0.0
  0
LINE
  5
7DF2
  8
FUTO
 10
7325.6577066795871
 20
12514.87730930936
 30
0.0
 11
7318.152335679586
 21
12514.87730930936
 31
0.0
  0
LINE
  5
7DF3
  8
FUTO
 10
7325.6577066795871
 20
12501.87730930936
 30
0.0
 11
7318.152335679586
 21
12501.87730930936
 31
0.0
  0
CIRCLE
  5
7DF4
  8
FUTO
 10
7321.9050206795864
 20
12508.37730930936
 30
0.0
 40
6.5
  0
ARC
  5
7DF5
  8
FUTO
 10
7288.3012616795868
 20
12618.066396309359
 30
0.0
 40
15.0
 50
150.00018299999559
 51
180.0
  0
ARC
  5
7DF6
  8
FUTO
 10
7308.6879796795856
 20
12673.37730930936
 30
0.0
 40
4.9999580000000003
 50
89.999999999999986
 51
149.99971800000111
  0
LINE
  5
7DF7
  8
FUTO
 10
7304.3579016795857
 20
12675.87730930936
 30
0.0
 11
7275.3107826795858
 21
12625.566396309359
 31
0.0
  0
LINE
  5
7DF8
  8
FUTO
 10
7273.3012616795859
 20
12557.12608830936
 30
0.0
 11
7273.3012616795859
 21
12618.066396309359
 31
0.0
  0
LINE
  5
7DF9
  8
FUTO
 10
7658.3012616795859
 20
12557.12608830936
 30
0.0
 11
7658.3012616795859
 21
12618.066396309359
 31
0.0
  0
LINE
  5
7DFA
  8
CT
 10
7465.8012616795859
 20
11696.58827934341
 30
0.0
 11
7465.8012616795859
 21
12698.377370309359
 31
0.0
  0
LINE
  5
7DFB
  8
FUTO
 10
7623.451225679587
 20
12678.377370309359
 30
0.0
 11
7308.6609116795871
 21
12678.377370309359
 31
0.0
  0
LINE
  5
7DFC
  8
FUTO
 10
7273.3012616795859
 20
12619.277333309359
 30
0.0
 11
7658.2521896795852
 21
12619.277333309359
 31
0.0
  0
LINE
  5
7DFD
  8
FUTO
 10
7627.2446216795861
 20
12675.87730930936
 30
0.0
 11
7656.2917406795841
 21
12625.566396309359
 31
0.0
  0
ARC
  5
7DFE
  8
FUTO
 10
7622.9145436795861
 20
12673.37730930936
 30
0.0
 40
4.9999580000000003
 50
30.000281999998819
 51
89.999999999999986
  0
ARC
  5
7DFF
  8
FUTO
 10
7643.3012616795859
 20
12618.066396309359
 30
0.0
 40
15.0
 50
0.000000000000007
 51
29.999817000004359
  0
LINE
  5
7E00
  8
FUTO
 10
7387.8012616795859
 20
12028.877370309359
 30
0.0
 11
7465.8012616795859
 21
12028.877370309359
 31
0.0
  0
LINE
  5
7E01
  8
FUTO
 10
7275.8012616795859
 20
12110.377370309359
 30
0.0
 11
7465.8012616795859
 21
12110.377370309359
 31
0.0
  0
LINE
  5
7E02
  8
FUTO
 10
7303.801261679585
 20
12115.377370309359
 30
0.0
 11
7465.8012616795859
 21
12115.377370309359
 31
0.0
  0
LINE
  5
7E03
  8
FUTO
 10
7658.6186446795837
 20
12553.577260309359
 30
0.0
 11
7273.3012616795859
 21
12553.577260309359
 31
0.0
  0
LINE
  5
7E04
  8
FUTO
 10
7668.9877856795856
 20
12523.37730930936
 30
0.0
 11
7262.6146414807126
 21
12523.37730930936
 31
0.0
  0
LINE
  5
7E05
  8
FUTO
 10
7669.301261679585
 20
12473.37730930936
 30
0.0
 11
7264.1230386795869
 21
12473.37730930936
 31
0.0
  0
LINE
  5
7E06
  8
FUTO
 10
7303.801261679585
 20
12115.377370309359
 30
0.0
 11
7465.8012616795859
 21
12115.377370309359
 31
0.0
  0
CIRCLE
  5
7E07
  8
FUTO
 10
7609.6975026795863
 20
12508.37730930936
 30
0.0
 40
6.5
  0
LINE
  5
7E08
  8
FUTO
 10
7605.9448166795864
 20
12501.87730930936
 30
0.0
 11
7613.4501876795848
 21
12501.87730930936
 31
0.0
  0
LINE
  5
7E09
  8
FUTO
 10
7605.9448166795864
 20
12514.87730930936
 30
0.0
 11
7613.4501876795848
 21
12514.87730930936
 31
0.0
  0
LINE
  5
7E0A
  8
CT
 10
7601.3068776795863
 20
12508.37730930936
 30
0.0
 11
7618.1284106795847
 21
12508.37730930936
 31
0.0
  0
LINE
  5
7E0B
  8
CT
 10
7609.6975026795863
 20
12500.93517030936
 30
0.0
 11
7609.6975026795863
 21
12515.39122530936
 31
0.0
  0
LINE
  5
7E0C
  8
FUTO
 10
7605.9448166795864
 20
12501.87730930936
 30
0.0
 11
7602.1918866795859
 21
12508.37730930936
 31
0.0
  0
LINE
  5
7E0D
  8
FUTO
 10
7602.1918866795859
 20
12508.37730930936
 30
0.0
 11
7605.9448166795864
 21
12514.87730930936
 31
0.0
  0
LINE
  5
7E0E
  8
FUTO
 10
7669.301261679585
 20
12473.37730930936
 30
0.0
 11
7669.301261679585
 21
12519.850698309359
 31
0.0
  0
LINE
  5
7E0F
  8
FUTO
 10
7668.0952076795838
 20
12526.691152309369
 30
0.0
 11
7659.5073166795864
 21
12550.28575630936
 31
0.0
  0
LINE
  5
7E10
  8
FUTO
 10
7617.2031176795863
 20
12508.37730930936
 30
0.0
 11
7613.4501876795848
 21
12514.87730930936
 31
0.0
  0
LINE
  5
7E11
  8
FUTO
 10
7613.4501876795848
 20
12501.87730930936
 30
0.0
 11
7617.2031176795863
 21
12508.37730930936
 31
0.0
  0
ARC
  5
7E12
  8
FUTO
 10
7678.301261679585
 20
12557.12608830936
 30
0.0
 40
20.0
 50
180.0
 51
199.9997250000097
  0
ARC
  5
7E13
  8
FUTO
 10
7649.3012616795859
 20
12519.850698309359
 30
0.0
 40
20.0
 50
0.000000000000007
 51
20.000046000015249
  0
LINE
  5
7E14
  8
FUTO
 10
7669.301261679585
 20
12471.188141058399
 30
0.0
 11
7667.4794846795858
 21
12473.37730930936
 31
0.0
  0
LINE
  5
7E15
  8
FUTO
 10
7627.8012616795859
 20
12115.377370309359
 30
0.0
 11
7465.8012616795859
 21
12115.377370309359
 31
0.0
  0
LINE
  5
7E16
  8
FUTO
 10
7618.4272386795847
 20
12047.68352230936
 30
0.0
 11
7529.8359296795861
 21
12043.040700309361
 31
0.0
  0
LINE
  5
7E17
  8
FUTO
 10
7655.8012616795841
 20
12110.377370309359
 30
0.0
 11
7465.8012616795859
 21
12110.377370309359
 31
0.0
  0
LINE
  5
7E18
  8
FUTO
 10
7627.8012616795859
 20
12115.377370309359
 30
0.0
 11
7465.8012616795859
 21
12115.377370309359
 31
0.0
  0
LINE
  5
7E19
  8
FUTO
 10
7435.8012616795859
 20
12018.877370309359
 30
0.0
 11
7435.8012616795859
 21
11878.877370309359
 31
0.0
  0
LINE
  5
7E1A
  8
FUTO
 10
7495.801261679585
 20
12018.877370309359
 30
0.0
 11
7495.801261679585
 21
11878.877370309359
 31
0.0
  0
LINE
  5
7E1B
  8
FUTO
 10
7543.8012616795859
 20
12028.877370309359
 30
0.0
 11
7465.8012616795859
 21
12028.877370309359
 31
0.0
  0
LINE
  5
7E1C
  8
FUTO
 10
7433.301261679585
 20
12018.877370309359
 30
0.0
 11
7498.3012616795859
 21
12018.877370309359
 31
0.0
  0
LINE
  5
7E1D
  8
FUTO
 10
7433.301261679585
 20
12018.877370309359
 30
0.0
 11
7433.301261679585
 21
12028.877370309359
 31
0.0
  0
LINE
  5
7E1E
  8
FUTO
 10
7498.3012616795859
 20
12018.877370309359
 30
0.0
 11
7498.3012616795859
 21
12028.877370309359
 31
0.0
  0
LINE
  5
7E1F
  8
FUTO
 10
7545.801261679585
 20
12041.03044630936
 30
0.0
 11
7545.801261679585
 21
12030.877370309359
 31
0.0
  0
ARC
  5
7E20
  8
FUTO
 10
7548.801261679585
 20
12041.03044630936
 30
0.0
 40
2.9999599999999988
 50
92.999556999983326
 51
180.0
  0
ARC
  5
7E21
  8
FUTO
 10
7543.8012616795859
 20
12030.877370309359
 30
0.0
 40
2.0
 50
270.0
 51
0.000000000000007
  0
LINE
  5
7E22
  8
FUTO
 10
7495.801261679585
 20
11878.877370309359
 30
0.0
 11
7435.8012616795859
 21
11878.877370309359
 31
0.0
  0
LINE
  5
7E23
  8
FUTO
 10
7669.301261679585
 20
12137.566457309371
 30
0.0
 11
7662.8012616795859
 21
12129.755544309361
 31
0.0
  0
LINE
  5
7E24
  8
FUTO
 10
7655.8012616795841
 20
12110.377370309359
 30
0.0
 11
7654.891105679586
 21
12084.314138309361
 31
0.0
  0
LINE
  5
7E25
  8
FUTO
 10
7662.8012616795859
 20
12129.755544309361
 30
0.0
 11
7627.8012616795859
 21
12120.377370309359
 31
0.0
  0
LINE
  5
7E26
  8
FUTO
 10
7627.8012616795859
 20
12115.377370309359
 30
0.0
 11
7627.8012616795859
 21
12120.377370309359
 31
0.0
  0
LINE
  5
7E27
  8
FUTO
 10
7627.8012616795859
 20
12110.377370309359
 30
0.0
 11
7627.8012616795859
 21
12115.377370309359
 31
0.0
  0
LINE
  5
7E28
  8
FUTO
 10
7651.9682546795857
 20
12077.59197030936
 30
0.0
 11
7624.9750896795858
 21
12050.598806309359
 31
0.0
  0
ARC
  5
7E29
  8
FUTO
 10
7617.9040456795856
 20
12057.669850309359
 30
0.0
 40
10.000024
 50
272.99903899998708
 51
314.99999999999989
  0
ARC
  5
7E2A
  8
FUTO
 10
7644.8972096795851
 20
12084.663015309359
 30
0.0
 40
9.9999679999999991
 50
314.99999999999989
 51
358.00067099997602
  0
CIRCLE
  5
7E2B
  8
FUTO
 10
7465.8012616795859
 20
8485.5128762778913
 30
0.0
 40
30.0
  0
LINE
  5
7E2C
  8
KL
 10
11569.828560370999
 20
8305.5128762778932
 30
0.0
 11
11584.507991295301
 21
8305.5128762778932
 31
0.0
  0
LINE
  5
7E2D
  8
KL
 10
11572.50805229531
 20
8285.5128762778913
 30
0.0
 11
11607.50805229531
 21
8285.5128762778913
 31
0.0
  0
LINE
  5
7E2E
  8
KL
 10
11245.18754421962
 20
8305.5128762778932
 30
0.0
 11
11230.50805229531
 21
8305.5128762778932
 31
0.0
  0
LINE
  5
7E2F
  8
KL
 10
11242.50805229531
 20
8285.5128762778913
 30
0.0
 11
11207.50805229531
 21
8285.5128762778913
 31
0.0
  0
LINE
  5
7E30
  8
CT
 10
7305.8012616795868
 20
8275.5128762778913
 30
0.0
 11
7305.8012616795868
 21
8205.5128762778913
 31
0.0
  0
LINE
  5
7E31
  8
KL
 10
11307.50805229531
 20
8280.5128762778913
 30
0.0
 11
11307.50805229531
 21
8285.5128762778913
 31
0.0
  0
LINE
  5
7E32
  8
KL
 10
11507.508052295299
 20
8285.5128762778913
 30
0.0
 11
11507.508052295299
 21
8280.5128762778913
 31
0.0
  0
LINE
  5
7E3B
  8
FUTO
 10
7533.8012616795859
 20
8285.5128762778913
 30
0.0
 11
7533.8012616795859
 21
8280.5128762778913
 31
0.0
  0
LINE
  5
7E3C
  8
FUTO
 10
7397.8011396795864
 20
8280.5128762778913
 30
0.0
 11
7397.8011396795864
 21
8285.5128762778913
 31
0.0
  0
LINE
  5
7E3D
  8
KL
 10
11262.50805229531
 20
8313.9884622778918
 30
0.0
 11
11246.508052295299
 21
8304.7511582778934
 31
0.0
  0
LINE
  5
7E3E
  8
KL
 10
11278.50805229531
 20
8304.7511582778934
 30
0.0
 11
11262.50805229531
 21
8313.9884622778918
 31
0.0
  0
LINE
  5
7E3F
  8
KL
 10
11262.50805229531
 20
8277.0382672778906
 30
0.0
 11
11246.508052295299
 21
8286.2755722778911
 31
0.0
  0
LINE
  5
7E40
  8
KL
 10
11278.50805229531
 20
8286.2755722778911
 30
0.0
 11
11262.50805229531
 21
8277.0382672778906
 31
0.0
  0
LINE
  5
7E41
  8
KL
 10
11232.50805229531
 20
8295.5128762778913
 30
0.0
 11
11292.50805229531
 21
8295.5128762778913
 31
0.0
  0
CIRCLE
  5
7E42
  8
KL
 10
11262.50805229531
 20
8295.5128762778913
 30
0.0
 40
16.0
  0
LINE
  5
7E43
  8
KL
 10
11278.50805229531
 20
8286.2755722778911
 30
0.0
 11
11278.50805229531
 21
8304.7511582778934
 31
0.0
  0
LINE
  5
7E44
  8
KL
 10
11246.508052295299
 20
8286.2755722778911
 30
0.0
 11
11246.508052295299
 21
8304.7511582778934
 31
0.0
  0
ARC
  5
7E45
  8
KL
 10
11262.50805229531
 20
8295.5128762778913
 30
0.0
 40
20.0
 50
0.000000000000007
 51
180.0
  0
ARC
  5
7E46
  8
KL
 10
11155.50805229531
 20
8252.5128762778913
 30
0.0
 40
3.0
 50
90.0
 51
180.0
  0
LINE
  5
7E47
  8
KL
 10
11204.38305229531
 20
8255.5128762778913
 30
0.0
 11
11155.50805229531
 21
8255.5128762778913
 31
0.0
  0
LINE
  5
7E48
  8
KL
 10
11209.50805229531
 20
8225.5128762778913
 30
0.0
 11
11209.50805229531
 21
8230.5128762778913
 31
0.0
  0
LINE
  5
7E49
  8
KL
 10
11199.50805229531
 20
8237.5128762778913
 30
0.0
 11
11199.50805229531
 21
8230.5128762778913
 31
0.0
  0
LINE
  5
7E4A
  8
KL
 10
11209.50805229531
 20
8225.5128762778913
 30
0.0
 11
11152.50805229531
 21
8225.5128762778913
 31
0.0
  0
LINE
  5
7E4B
  8
KL
 10
11152.50805229531
 20
8225.5128762778913
 30
0.0
 11
11152.50805229531
 21
8252.5128762778913
 31
0.0
  0
LINE
  5
7E4C
  8
CT
 10
11177.50805229531
 20
8275.5128762778913
 30
0.0
 11
11177.50805229531
 21
8205.5128762778913
 31
0.0
  0
LINE
  5
7E4D
  8
KL
 10
11199.50805229531
 20
8237.5128762778913
 30
0.0
 11
11242.50805229531
 21
8237.5128762778913
 31
0.0
  0
LINE
  5
7E4E
  8
KL
 10
11207.50805229531
 20
8285.5128762778913
 30
0.0
 11
11202.50805229531
 21
8237.5128762778913
 31
0.0
  0
LINE
  5
7E4F
  8
KL
 10
11282.50805229531
 20
8295.5128762778913
 30
0.0
 11
11282.50805229531
 21
8230.5128762778913
 31
0.0
  0
LINE
  5
7E50
  8
KL
 10
11242.50805229531
 20
8230.5128762778913
 30
0.0
 11
11242.50805229531
 21
8295.5128762778913
 31
0.0
  0
LINE
  5
7E51
  8
CT
 10
11262.50805229531
 20
8220.5128762778913
 30
0.0
 11
11262.50805229531
 21
8325.5128762778895
 31
0.0
  0
LINE
  5
7E52
  8
KL
 10
11536.50805229531
 20
8304.7511582778934
 30
0.0
 11
11552.50805229531
 21
8313.9884622778918
 31
0.0
  0
LINE
  5
7E53
  8
KL
 10
11536.50805229531
 20
8286.2755722778911
 30
0.0
 11
11552.50805229531
 21
8277.0382672778906
 31
0.0
  0
LINE
  5
7E54
  8
KL
 10
11536.50805229531
 20
8286.2755722778911
 30
0.0
 11
11536.50805229531
 21
8304.7511582778934
 31
0.0
  0
LINE
  5
7E55
  8
KL
 10
11568.508052295299
 20
8286.2755722778911
 30
0.0
 11
11568.508052295299
 21
8304.7511582778934
 31
0.0
  0
CIRCLE
  5
7E56
  8
KL
 10
11552.50805229531
 20
8295.5128762778913
 30
0.0
 40
16.0
  0
LINE
  5
7E57
  8
KL
 10
11552.50805229531
 20
8313.9884622778918
 30
0.0
 11
11568.508052295299
 21
8304.7511582778934
 31
0.0
  0
LINE
  5
7E58
  8
KL
 10
11552.50805229531
 20
8277.0382672778906
 30
0.0
 11
11568.508052295299
 21
8286.2755722778911
 31
0.0
  0
ARC
  5
7E59
  8
KL
 10
11552.50805229531
 20
8295.5128762778913
 30
0.0
 40
20.0
 50
0.000000000000007
 51
180.0
  0
LINE
  5
7E5A
  8
KL
 10
11582.50805229531
 20
8295.5128762778913
 30
0.0
 11
11522.50805229531
 21
8295.5128762778913
 31
0.0
  0
LINE
  5
7E5B
  8
KL
 10
11307.50805229531
 20
8280.5128762778913
 30
0.0
 11
11507.508052295299
 21
8280.5128762778913
 31
0.0
  0
LINE
  5
7E5C
  8
KL
 10
11605.50805229531
 20
8225.5128762778913
 30
0.0
 11
11605.50805229531
 21
8230.5128762778913
 31
0.0
  0
LINE
  5
7E5D
  8
KL
 10
11615.50805229531
 20
8237.5128762778913
 30
0.0
 11
11615.50805229531
 21
8230.5128762778913
 31
0.0
  0
LINE
  5
7E5E
  8
KL
 10
11615.50805229531
 20
8237.5128762778913
 30
0.0
 11
11572.50805229531
 21
8237.5128762778913
 31
0.0
  0
LINE
  5
7E5F
  8
CT
 10
11637.50805229531
 20
8275.5128762778913
 30
0.0
 11
11637.50805229531
 21
8205.5128762778913
 31
0.0
  0
ARC
  5
7E60
  8
KL
 10
11659.50805229531
 20
8252.5128762778913
 30
0.0
 40
3.0
 50
0.000000000000007
 51
90.0
  0
LINE
  5
7E61
  8
KL
 10
11662.50805229531
 20
8225.5128762778913
 30
0.0
 11
11662.50805229531
 21
8252.5128762778913
 31
0.0
  0
LINE
  5
7E62
  8
KL
 10
11610.63305229531
 20
8255.5128762778913
 30
0.0
 11
11659.50805229531
 21
8255.5128762778913
 31
0.0
  0
LINE
  5
7E63
  8
KL
 10
11605.50805229531
 20
8225.5128762778913
 30
0.0
 11
11662.50805229531
 21
8225.5128762778913
 31
0.0
  0
LINE
  5
7E64
  8
KL
 10
11607.50805229531
 20
8285.5128762778913
 30
0.0
 11
11612.50805229531
 21
8237.5128762778913
 31
0.0
  0
LINE
  5
7E65
  8
KL
 10
11532.50805229531
 20
8295.5128762778913
 30
0.0
 11
11532.50805229531
 21
8230.5128762778913
 31
0.0
  0
LINE
  5
7E66
  8
KL
 10
11572.50805229531
 20
8230.5128762778913
 30
0.0
 11
11572.50805229531
 21
8295.5128762778913
 31
0.0
  0
LINE
  5
7E67
  8
CT
 10
11552.50805229531
 20
8220.5128762778913
 30
0.0
 11
11552.50805229531
 21
8325.5128762778895
 31
0.0
  0
LINE
  5
7E68
  8
FUTO
 10
7106.3466716795874
 20
8305.2179542778922
 30
0.0
 11
7104.746695679587
 21
8303.6183452778914
 31
0.0
  0
LINE
  5
7E69
  8
FUTO
 10
7106.3466716795874
 20
8305.2179542778922
 30
0.0
 11
7104.746695679587
 21
8306.8185402778927
 31
0.0
  0
LINE
  5
7E6A
  8
FUTO
 10
7106.3466716795874
 20
8305.2179542778922
 30
0.0
 11
7118.4466466795848
 21
8305.2179542778922
 31
0.0
  0
LINE
  5
7E6B
  8
FUTO
 10
7104.7468176795855
 20
8311.5031112778906
 30
0.0
 11
7106.346793679586
 21
8313.1027202778914
 31
0.0
  0
LINE
  5
7E6C
  8
FUTO
 10
7106.3466716795874
 20
8313.1027202778914
 30
0.0
 11
7118.4466466795848
 21
8313.1027202778914
 31
0.0
  0
LINE
  5
7E6D
  8
FUTO
 10
7106.3466716795874
 20
8285.8077982778905
 30
0.0
 11
7104.746695679587
 21
8287.4083842778928
 31
0.0
  0
LINE
  5
7E6E
  8
FUTO
 10
7106.3466716795874
 20
8285.8077982778905
 30
0.0
 11
7104.746695679587
 21
8284.2081892778915
 31
0.0
  0
LINE
  5
7E6F
  8
FUTO
 10
7106.3466716795874
 20
8285.8077982778905
 30
0.0
 11
7118.4466466795848
 21
8285.8077982778905
 31
0.0
  0
LINE
  5
7E70
  8
FUTO
 10
7106.3466716795874
 20
8277.9230332778916
 30
0.0
 11
7118.4466466795848
 21
8277.9230332778916
 31
0.0
  0
LINE
  5
7E71
  8
FUTO
 10
7106.3466716795874
 20
8277.9230332778916
 30
0.0
 11
7104.746695679587
 21
8279.5236182778917
 31
0.0
  0
LINE
  5
7E72
  8
FUTO
 10
7104.7468176795855
 20
8311.5031112778906
 30
0.0
 11
7104.7468176795855
 21
8279.5236182778917
 31
0.0
  0
LINE
  5
7E73
  8
FUTO
 10
7118.446768679587
 20
8313.1027202778914
 30
0.0
 11
7118.446768679587
 21
8277.9230332778916
 31
0.0
  0
LINE
  5
7E74
  8
HOSO
 10
7180.8011396795864
 20
8288.5128762778913
 30
0.0
 11
7118.4470126795859
 21
8288.5128762778913
 31
0.0
  0
LINE
  5
7E75
  8
FUTO
 10
7180.8011396795864
 20
8304.5128762778913
 30
0.0
 11
7118.4470126795859
 21
8304.5128762778913
 31
0.0
  0
LINE
  5
7E76
  8
HOSO
 10
7118.446768679587
 20
8302.5128762778932
 30
0.0
 11
7180.8011396795864
 21
8302.5128762778932
 31
0.0
  0
LINE
  5
7E77
  8
FUTO
 10
7118.446768679587
 20
8286.5128762778913
 30
0.0
 11
7180.8011396795864
 21
8286.5128762778913
 31
0.0
  0
LINE
  5
7E78
  8
FUTO
 10
7276.8012616795859
 20
8302.5128762778932
 30
0.0
 11
7274.8012616795859
 21
8304.5128762778913
 31
0.0
  0
LINE
  5
7E79
  8
HOSO
 10
7212.9678063462516
 20
8302.5128762778932
 30
0.0
 11
7276.8011386795861
 21
8302.5128762778932
 31
0.0
  0
LINE
  5
7E7A
  8
FUTO
 10
7274.8012616795859
 20
8304.5128762778913
 30
0.0
 11
7212.6344730129204
 21
8304.5128762778913
 31
0.0
  0
LINE
  5
7E7B
  8
FUTO
 10
7274.8012616795859
 20
8286.5128762778913
 30
0.0
 11
7276.8012616795859
 21
8288.5128762778913
 31
0.0
  0
LINE
  5
7E7C
  8
FUTO
 10
7215.6344730129204
 20
8286.5128762778913
 30
0.0
 11
7274.8012616795859
 21
8286.5128762778913
 31
0.0
  0
LINE
  5
7E7D
  8
HOSO
 10
7276.8012616795859
 20
8288.5128762778913
 30
0.0
 11
7215.3011396795864
 21
8288.5128762778913
 31
0.0
  0
LINE
  5
7E7E
  8
FUTO
 10
7274.8012616795859
 20
8304.5128762778913
 30
0.0
 11
7274.8012616795859
 21
8286.5128762778913
 31
0.0
  0
LINE
  5
7E7F
  8
FUTO
 10
7210.8011396795864
 20
8315.5128762778913
 30
0.0
 11
7215.8011396795873
 21
8285.5128762778913
 31
0.0
  0
LINE
  5
7E80
  8
FUTO
 10
7533.8012616795859
 20
8280.5128762778913
 30
0.0
 11
7397.8011396795864
 21
8280.5128762778913
 31
0.0
  0
LINE
  5
7E81
  8
FUTO
 10
7213.8011396795864
 20
8285.5128762778913
 30
0.0
 11
7397.8011396795864
 21
8285.5128762778913
 31
0.0
  0
LINE
  5
7E82
  8
FUTO
 10
7210.8011396795864
 20
8315.5128762778913
 30
0.0
 11
7180.8011396795864
 21
8315.5128762778913
 31
0.0
  0
LINE
  5
7E83
  8
CT
 10
7276.8012616795859
 20
8295.5128762778913
 30
0.0
 11
7094.7468176795855
 21
8295.5128762778913
 31
0.0
  0
LINE
  5
7E84
  8
FUTO
 10
7205.8011396795864
 20
8230.5128762778913
 30
0.0
 11
7180.8011396795864
 21
8230.5128762778913
 31
0.0
  0
LINE
  5
7E85
  8
FUTO
 10
7208.8011396795864
 20
8237.5128762778913
 30
0.0
 11
7205.8011396795864
 21
8237.5128762778913
 31
0.0
  0
LINE
  5
7E86
  8
FUTO
 10
7205.8011396795864
 20
8237.5128762778913
 30
0.0
 11
7205.8011396795864
 21
8230.5128762778913
 31
0.0
  0
ARC
  5
7E87
  8
FUTO
 10
7258.8008956795857
 20
8252.5128762778913
 30
0.0
 40
3.0
 50
89.997664999998861
 51
180.0
  0
LINE
  5
7E88
  8
FUTO
 10
7255.8011396795864
 20
8225.5128762778913
 30
0.0
 11
7255.8011396795864
 21
8252.5128762778913
 31
0.0
  0
ARC
  5
7E89
  8
FUTO
 10
7352.8011396795864
 20
8252.5128762778913
 30
0.0
 40
3.0
 50
0.000000000000007
 51
90.002335000001125
  0
LINE
  5
7E8A
  8
FUTO
 10
7355.8011396795864
 20
8225.5128762778913
 30
0.0
 11
7355.8011396795864
 21
8252.5128762778913
 31
0.0
  0
LINE
  5
7E8B
  8
FUTO
 10
7352.8011396795864
 20
8255.5128762778913
 30
0.0
 11
7258.8011396795873
 21
8255.5128762778913
 31
0.0
  0
LINE
  5
7E8C
  8
FUTO
 10
7355.8011396795864
 20
8225.5128762778913
 30
0.0
 11
7255.8011396795864
 21
8225.5128762778913
 31
0.0
  0
LINE
  5
7E8D
  8
FUTO
 10
7205.8011396795864
 20
8230.5128762778913
 30
0.0
 11
7255.8011396795864
 21
8230.5128762778913
 31
0.0
  0
LINE
  5
7E8E
  8
FUTO
 10
7213.8011396795864
 20
8285.5128762778913
 30
0.0
 11
7208.8011396795864
 21
8237.5128762778913
 31
0.0
  0
LINE
  5
7E8F
  8
FUTO
 10
7180.8011396795864
 20
8315.5128762778913
 30
0.0
 11
7180.8011396795864
 21
8230.5128762778913
 31
0.0
  0
LINE
  5
7E90
  8
FUTO
 10
7654.8012616795859
 20
8302.5128762778932
 30
0.0
 11
7656.8012616795859
 21
8304.5128762778913
 31
0.0
  0
LINE
  5
7E91
  8
HOSO
 10
7718.6345340129192
 20
8302.5128762778932
 30
0.0
 11
7654.8012616795859
 21
8302.5128762778932
 31
0.0
  0
LINE
  5
7E92
  8
FUTO
 10
7656.8012616795859
 20
8304.5128762778913
 30
0.0
 11
7718.967867346254
 21
8304.5128762778913
 31
0.0
  0
LINE
  5
7E93
  8
FUTO
 10
7656.8012616795859
 20
8286.5128762778913
 30
0.0
 11
7654.8012616795859
 21
8288.5128762778913
 31
0.0
  0
LINE
  5
7E94
  8
FUTO
 10
7715.967867346254
 20
8286.5128762778913
 30
0.0
 11
7656.8012616795859
 21
8286.5128762778913
 31
0.0
  0
LINE
  5
7E95
  8
HOSO
 10
7654.8012616795859
 20
8288.5128762778913
 30
0.0
 11
7716.3012006795871
 21
8288.5128762778913
 31
0.0
  0
LINE
  5
7E96
  8
FUTO
 10
7656.8012616795859
 20
8304.5128762778913
 30
0.0
 11
7656.8012616795859
 21
8286.5128762778913
 31
0.0
  0
LINE
  5
7E97
  8
FUTO
 10
7720.8012006795871
 20
8315.5128762778913
 30
0.0
 11
7715.8012006795871
 21
8285.5128762778913
 31
0.0
  0
LINE
  5
7E98
  8
FUTO
 10
7750.8012006795861
 20
8304.5128762778913
 30
0.0
 11
7813.1557536795872
 21
8304.5128762778913
 31
0.0
  0
LINE
  5
7E99
  8
HOSO
 10
7813.1556926795847
 20
8302.5128762778932
 30
0.0
 11
7750.8012006795861
 21
8302.5128762778932
 31
0.0
  0
LINE
  5
7E9A
  8
HOSO
 10
7750.8012006795861
 20
8288.5128762778932
 30
0.0
 11
7813.1557536795872
 21
8288.5128762778913
 31
0.0
  0
LINE
  5
7E9B
  8
FUTO
 10
7813.1556926795847
 20
8286.5128762778913
 30
0.0
 11
7750.8012006795861
 21
8286.5128762778913
 31
0.0
  0
LINE
  5
7E9C
  8
FUTO
 10
7813.1556926795847
 20
8313.1027202778914
 30
0.0
 11
7813.1556926795847
 21
8277.9230332778916
 31
0.0
  0
LINE
  5
7E9D
  8
FUTO
 10
7825.255668679587
 20
8305.2179542778922
 30
0.0
 11
7826.8556436795861
 21
8303.6183452778914
 31
0.0
  0
LINE
  5
7E9E
  8
FUTO
 10
7825.255668679587
 20
8305.2179542778922
 30
0.0
 11
7826.8556436795861
 21
8306.8185402778927
 31
0.0
  0
LINE
  5
7E9F
  8
FUTO
 10
7826.8556436795861
 20
8311.5031112778906
 30
0.0
 11
7825.255668679587
 21
8313.1027202778914
 31
0.0
  0
LINE
  5
7EA0
  8
FUTO
 10
7825.255668679587
 20
8285.8077982778905
 30
0.0
 11
7826.8556436795861
 21
8287.4083842778928
 31
0.0
  0
LINE
  5
7EA1
  8
FUTO
 10
7825.255668679587
 20
8285.8077982778905
 30
0.0
 11
7826.8556436795861
 21
8284.2081892778915
 31
0.0
  0
LINE
  5
7EA2
  8
FUTO
 10
7825.255668679587
 20
8277.9230332778916
 30
0.0
 11
7826.8556436795861
 21
8279.5236182778917
 31
0.0
  0
LINE
  5
7EA3
  8
FUTO
 10
7826.8556436795861
 20
8311.5031112778906
 30
0.0
 11
7826.8556436795861
 21
8279.5236182778917
 31
0.0
  0
LINE
  5
7EA4
  8
FUTO
 10
7825.255668679587
 20
8285.8077982778905
 30
0.0
 11
7813.1556926795847
 21
8285.8077982778905
 31
0.0
  0
LINE
  5
7EA5
  8
FUTO
 10
7825.255668679587
 20
8305.2179542778922
 30
0.0
 11
7813.1556926795847
 21
8305.2179542778922
 31
0.0
  0
LINE
  5
7EA6
  8
FUTO
 10
7825.255668679587
 20
8277.9230332778916
 30
0.0
 11
7813.1556926795847
 21
8277.9230332778916
 31
0.0
  0
LINE
  5
7EA7
  8
FUTO
 10
7825.255668679587
 20
8313.1027202778914
 30
0.0
 11
7813.1556926795847
 21
8313.1027202778914
 31
0.0
  0
LINE
  5
7EA8
  8
FUTO
 10
7720.8012006795871
 20
8315.5128762778913
 30
0.0
 11
7750.8012006795861
 21
8315.5128762778913
 31
0.0
  0
LINE
  5
7EA9
  8
CT
 10
7654.8012616795859
 20
8295.5128762778913
 30
0.0
 11
7836.8556436795852
 21
8295.5128762778913
 31
0.0
  0
ARC
  5
7EAA
  8
FUTO
 10
7578.8011396795873
 20
8252.5128762778913
 30
0.0
 40
2.999938999999999
 50
89.998833000023183
 51
180.0
  0
LINE
  5
7EAB
  8
FUTO
 10
7575.8012616795859
 20
8225.5128762778913
 30
0.0
 11
7575.8012616795859
 21
8252.5128762778913
 31
0.0
  0
ARC
  5
7EAC
  8
FUTO
 10
7672.8012616795868
 20
8252.5128762778913
 30
0.0
 40
3.0
 50
0.000000000000007
 51
90.001167000028914
  0
LINE
  5
7EAD
  8
FUTO
 10
7722.801200679588
 20
8237.5128762778913
 30
0.0
 11
7725.8012006795871
 21
8237.5128762778913
 31
0.0
  0
LINE
  5
7EAE
  8
FUTO
 10
7725.8012006795871
 20
8237.5128762778913
 30
0.0
 11
7725.8012006795871
 21
8230.5128762778913
 31
0.0
  0
LINE
  5
7EAF
  8
FUTO
 10
7725.8012006795871
 20
8230.5128762778913
 30
0.0
 11
7675.8012616795868
 21
8230.5128762778913
 31
0.0
  0
LINE
  5
7EB0
  8
FUTO
 10
7675.8012616795868
 20
8225.5128762778913
 30
0.0
 11
7675.8012616795868
 21
8252.5128762778913
 31
0.0
  0
LINE
  5
7EB1
  8
FUTO
 10
7578.801261679585
 20
8255.5128762778913
 30
0.0
 11
7672.8012616795868
 21
8255.5128762778913
 31
0.0
  0
LINE
  5
7EB2
  8
FUTO
 10
7575.8012616795859
 20
8225.5128762778913
 30
0.0
 11
7675.8012616795868
 21
8225.5128762778913
 31
0.0
  0
LINE
  5
7EB3
  8
FUTO
 10
7725.8012006795871
 20
8230.5128762778913
 30
0.0
 11
7750.8012006795861
 21
8230.5128762778913
 31
0.0
  0
LINE
  5
7EB4
  8
FUTO
 10
7717.8012006795871
 20
8285.5128762778913
 30
0.0
 11
7722.801200679588
 21
8237.5128762778913
 31
0.0
  0
LINE
  5
7EB5
  8
FUTO
 10
7750.8012006795861
 20
8315.5128762778913
 30
0.0
 11
7750.8012006795861
 21
8230.5128762778913
 31
0.0
  0
LINE
  5
7EB6
  8
CT
 10
7625.8012616795868
 20
8275.5128762778913
 30
0.0
 11
7625.8012616795868
 21
8205.5128762778913
 31
0.0
  0
LINE
  5
7EB7
  8
FUTO
 10
7717.8012006795871
 20
8285.5128762778913
 30
0.0
 11
7533.8012616795859
 21
8285.5128762778913
 31
0.0
  0
LINE
  5
7EB8
  8
FUTO
 10
7575.8012616795859
 20
8230.5128762778913
 30
0.0
 11
7355.8012616795859
 21
8230.5128762778913
 31
0.0
  0
LINE
  5
7EB9
  8
KL
 10
11282.50805229531
 20
8237.5128762778913
 30
0.0
 11
11532.50805229531
 21
8237.5128762778913
 31
0.0
  0
LINE
  5
7EBA
  8
KL
 10
11199.50805229531
 20
8230.5128762778913
 30
0.0
 11
11615.50805229531
 21
8230.5128762778913
 31
0.0
  0
LINE
  5
7EBB
  8
KL
 10
11223.50805229531
 20
8647.5128762778913
 30
0.0
 11
11223.50805229531
 21
8610.5128762778913
 31
0.0
  0
ARC
  5
7EBC
  8
KL
 10
11187.79369729531
 20
8664.6088242778915
 30
0.0
 40
9.9999679999999991
 50
91.999329000023934
 51
135.0
  0
ARC
  5
7EBD
  8
FUTO
 10
11160.80053229531
 20
8637.6156602778901
 30
0.0
 40
10.000024
 50
135.0
 51
177.00096100001281
  0
LINE
  5
7EBE
  8
KL
 10
11180.722652295301
 20
8671.6798692778902
 30
0.0
 11
11153.729488295299
 21
8644.6867042778904
 31
0.0
  0
LINE
  5
7EBF
  8
KL
 10
11213.50805229531
 20
8647.5128762778913
 30
0.0
 11
11218.50805229531
 21
8647.5128762778913
 31
0.0
  0
LINE
  5
7EC0
  8
KL
 10
11218.50805229531
 20
8647.5128762778913
 30
0.0
 11
11223.50805229531
 21
8647.5128762778913
 31
0.0
  0
LINE
  5
7EC1
  8
KL
 10
11232.88622629531
 20
8682.5128762778913
 30
0.0
 11
11223.50805229531
 21
8647.5128762778913
 31
0.0
  0
LINE
  5
7EC2
  8
KL
 10
11213.50805229531
 20
8675.5128762778895
 30
0.0
 11
11187.44482029531
 21
8674.6027202778914
 31
0.0
  0
LINE
  5
7EC4
  8
KL
 10
11248.50805229531
 20
8695.5128762778913
 30
0.0
 11
11232.88622629531
 21
8682.5128762778913
 31
0.0
  0
LINE
  5
7EC5
  8
FUTO
 10
10982.00805229531
 20
8519.5128762778913
 30
0.0
 11
10982.00805229531
 21
8455.5128762778913
 31
0.0
  0
ARC
  5
7EC6
  8
FUTO
 10
11134.008052295299
 20
8563.5128762778913
 30
0.0
 40
2.0
 50
90.0
 51
180.0
  0
ARC
  5
7ED5
  8
KL
 10
11233.50805229531
 20
8610.5128762778913
 30
0.0
 40
10.0
 50
90.0
 51
180.0
  0
ARC
  5
7ED8
  8
FUTO
 10
11144.1611282953
 20
8568.5128762778913
 30
0.0
 40
2.9999599999999988
 50
270.0
 51
357.00044300001662
  0
LINE
  5
7ED9
  8
FUTO
 10
11144.1611282953
 20
8565.5128762778913
 30
0.0
 11
11134.008052295299
 21
8565.5128762778913
 31
0.0
  0
LINE
  5
7EDA
  8
FUTO
 10
11092.00805229531
 20
8519.5128762778913
 30
0.0
 11
11092.00805229531
 21
8515.5128762778913
 31
0.0
  0
LINE
  5
7EDB
  8
FUTO
 10
11122.00805229531
 20
8518.0128762778913
 30
0.0
 11
11132.00805229531
 21
8518.0128762778913
 31
0.0
  0
LINE
  5
7EDC
  8
FUTO
 10
11122.00805229531
 20
8453.0128762778913
 30
0.0
 11
11132.00805229531
 21
8453.0128762778913
 31
0.0
  0
LINE
  5
7EDD
  8
FUTO
 10
11122.00805229531
 20
8453.0128762778913
 30
0.0
 11
11122.00805229531
 21
8518.0128762778913
 31
0.0
  0
ARC
  5
7EDE
  8
KL
 10
11233.50805229531
 20
8510.5128762778913
 30
0.0
 40
10.0
 50
180.0
 51
270.0
  0
LINE
  5
7EDF
  8
FUTO
 10
11132.00805229531
 20
8563.5128762778913
 30
0.0
 11
11132.00805229531
 21
8485.5128762778913
 31
0.0
  0
LINE
  5
7EE0
  8
KL
 10
11223.50805229531
 20
8510.5128762778913
 30
0.0
 11
11223.50805229531
 21
8610.5128762778913
 31
0.0
  0
LINE
  5
7EE1
  8
FUTO
 10
11122.00805229531
 20
8515.5128762778913
 30
0.0
 11
10982.00805229531
 21
8515.5128762778913
 31
0.0
  0
LINE
  5
7EE2
  8
FUTO
 10
11122.00805229531
 20
8455.5128762778913
 30
0.0
 11
10982.00805229531
 21
8455.5128762778913
 31
0.0
  0
LINE
  5
7EE3
  8
FUTO
 10
11092.00805229531
 20
8519.5128762778913
 30
0.0
 11
10982.00805229531
 21
8519.5128762778913
 31
0.0
  0
LINE
  5
7EE4
  8
KL
 10
11218.50805229531
 20
8647.5128762778913
 30
0.0
 11
11218.50805229531
 21
8485.5128762778913
 31
0.0
  0
LINE
  5
7EE5
  8
KL
 10
11213.50805229531
 20
8675.5128762778895
 30
0.0
 11
11213.50805229531
 21
8485.5128762778913
 31
0.0
  0
LINE
  5
7EE6
  8
FUTO
 10
11150.81420429531
 20
8638.1388532778928
 30
0.0
 11
11146.17138229531
 21
8549.5475442778898
 31
0.0
  0
LINE
  5
7EE8
  8
KL
 10
11218.50805229531
 20
8647.5128762778913
 30
0.0
 11
11218.50805229531
 21
8485.5128762778913
 31
0.0
  0
ARC
  5
7EE9
  8
KL
 10
11396.273067295309
 20
8703.7919902778922
 30
0.0
 40
2.9999909999999992
 50
96.115172999988943
 51
174.80557099997009
  0
LINE
  5
7EEA
  8
KL
 10
11393.28539629531
 20
8704.0635972778928
 30
0.0
 11
11392.50805229531
 21
8695.5128762778913
 31
0.0
  0
ARC
  5
7EEB
  8
KL
 10
11386.549678295311
 20
8696.2426742778916
 30
0.0
 40
5.9999760000000002
 50
354.80557299999322
 51
54.396263000016731
  0
ARC
  5
7EEC
  8
KL
 10
11418.7430372953
 20
8703.7919902778922
 30
0.0
 40
2.999981
 50
5.194427000006832
 51
83.884827000011072
  0
ARC
  5
7EED
  8
KL
 10
11407.508052295299
 20
8725.5128762778913
 30
0.0
 40
30.0
 50
305.19004800002568
 51
305.60386699999998
  0
LINE
  5
7EEE
  8
KL
 10
11407.508052295299
 20
8708.0128762778913
 30
0.0
 11
11419.062617295311
 21
8706.7749002778892
 31
0.0
  0
LINE
  5
7EEF
  8
KL
 10
11421.73070829531
 20
8704.0635972778928
 30
0.0
 11
11422.50805229531
 21
8695.5128762778913
 31
0.0
  0
ARC
  5
7EF0
  8
KL
 10
11428.46642629531
 20
8696.2426742778916
 30
0.0
 40
5.9999820000000001
 50
125.6037369999832
 51
185.19442700000681
  0
LINE
  5
7EF1
  8
KL
 10
11407.508052295299
 20
8708.0128762778913
 30
0.0
 11
11395.953487295301
 21
8706.7749002778892
 31
0.0
  0
LINE
  5
7EF2
  8
KL
 10
11395.953487295301
 20
8706.7749002778892
 30
0.0
 11
11419.062617295311
 21
8706.7749002778892
 31
0.0
  0
LINE
  5
7EF3
  8
KL
 10
11447.508052295299
 20
8725.5128762778913
 30
0.0
 11
11367.508052295299
 21
8725.5128762778913
 31
0.0
  0
LINE
  5
7EF4
  8
KL
 10
11348.50805229531
 20
8634.5128762778913
 30
0.0
 11
11466.50805229531
 21
8634.5128762778913
 31
0.0
  0
CIRCLE
  5
7EF5
  8
KL
 10
11407.508052295299
 20
8725.5128762778913
 30
0.0
 40
17.5
  0
ARC
  5
7EF6
  8
KL
 10
11407.508052295299
 20
8725.5128762778913
 30
0.0
 40
30.0
 50
305.60386699999998
 51
234.39614899998969
  0
LINE
  5
7EF7
  8
KL
 10
11566.507991295301
 20
8695.5128762778913
 30
0.0
 11
11576.50799129531
 21
8687.1910992778903
 31
0.0
  0
ARC
  5
7EF8
  8
KL
 10
11622.98138029531
 20
8669.0128762778913
 30
0.0
 40
20.0
 50
69.99995399998474
 51
90.0
  0
ARC
  5
7EF9
  8
KL
 10
11660.2567702953
 20
8698.0128762778913
 30
0.0
 40
20.0
 50
250.00027499999021
 51
270.0
  0
LINE
  5
7EFC
  8
KL
 10
11629.82183429531
 20
8687.8068222778893
 30
0.0
 11
11653.4164382953
 21
8679.2189312778901
 31
0.0
  0
LINE
  5
7EFD
  8
KL
 10
11576.50799129531
 20
8689.0128762778913
 30
0.0
 11
11622.98138029531
 21
8689.0128762778913
 31
0.0
  0
LINE
  5
7EFE
  8
KL
 10
11566.507991295301
 20
8695.5128762778913
 30
0.0
 11
11407.508052295299
 21
8695.5128762778913
 31
0.0
  0
LINE
  5
7EFF
  8
KL
 10
11469.50799129531
 20
8627.5128762778913
 30
0.0
 11
11345.50805229531
 21
8627.5128762778913
 31
0.0
  0
ARC
  5
7F00
  8
KL
 10
11345.50805229531
 20
8452.8151222778906
 30
0.0
 40
20.0
 50
180.0
 51
270.0
  0
CIRCLE
  5
7F01
  8
KL
 10
11407.508052295299
 20
8419.8151222778906
 30
0.0
 40
3.5
  0
LINE
  5
7F02
  8
KL
 10
11413.96093329531
 20
8419.8151222778906
 30
0.0
 11
11399.371822295299
 21
8419.8151222778906
 31
0.0
  0
LINE
  5
7F03
  8
KL
 10
11345.50805229531
 20
8432.8151222778924
 30
0.0
 11
11469.50805229531
 21
8432.8151222778924
 31
0.0
  0
LINE
  5
7F04
  8
KL
 10
11466.507991295301
 20
8412.8151222778906
 30
0.0
 11
11348.50805229531
 21
8412.8151222778906
 31
0.0
  0
LINE
  5
7F05
  8
KL
 10
11325.508052295299
 20
8607.5128762778913
 30
0.0
 11
11325.508052295299
 21
8452.8151222778906
 31
0.0
  0
LINE
  5
7F06
  8
KL
 10
11318.50805229531
 20
8604.5128762778913
 30
0.0
 11
11318.50805229531
 21
8442.8151222778906
 31
0.0
  0
LINE
  5
7F07
  8
KL
 10
11576.50799129531
 20
8620.5128762778895
 30
0.0
 11
11491.8851882953
 21
8620.5128762778895
 31
0.0
  0
LINE
  5
7F0B
  8
KL
 10
11576.50799129531
 20
8500.5128762778913
 30
0.0
 11
11496.50799129531
 21
8500.5128762778913
 31
0.0
  0
LINE
  5
7F0C
  8
KL
 10
11489.50799129531
 20
8607.5128762778913
 30
0.0
 11
11489.50799129531
 21
8452.8151222778906
 31
0.0
  0
LINE
  5
7F0D
  8
KL
 10
11496.50799129531
 20
8604.5128762778913
 30
0.0
 11
11496.50799129531
 21
8442.8151222778906
 31
0.0
  0
ARC
  5
7F0E
  8
KL
 10
11469.50799129531
 20
8452.8151222778906
 30
0.0
 40
20.0
 50
270.0
 51
0.000000000000007
  0
LINE
  5
7F0F
  8
KL
 10
11516.50799129531
 20
8560.5128762778913
 30
0.0
 11
11298.50805229531
 21
8560.5128762778913
 31
0.0
  0
ARC
  5
7F10
  8
KL
 10
11469.50799129531
 20
8607.5128762778913
 30
0.0
 40
20.0
 50
0.000000000000007
 51
90.0
  0
ARC
  5
7F11
  8
KL
 10
11345.50805229531
 20
8607.5128762778913
 30
0.0
 40
20.0
 50
90.0
 51
180.0
  0
ARC
  5
7F12
  8
KL
 10
11348.50805229531
 20
8604.5128762778913
 30
0.0
 40
30.0
 50
90.0
 51
180.0
  0
ARC
  5
7F13
  8
KL
 10
11466.507991295301
 20
8604.5128762778913
 30
0.0
 40
30.0
 50
0.000000000000007
 51
90.0
  0
LINE
  5
7F18
  8
KL
 10
11248.50805229531
 20
8695.5128762778913
 30
0.0
 11
11407.508052295299
 21
8695.5128762778913
 31
0.0
  0
LINE
  5
7F19
  8
KL
 10
11233.50805229531
 20
8620.5128762778895
 30
0.0
 11
11323.1308552953
 21
8620.5128762778895
 31
0.0
  0
LINE
  5
7F1A
  8
KL
 10
11233.50805229531
 20
8500.5128762778913
 30
0.0
 11
11318.50805229531
 21
8500.5128762778913
 31
0.0
  0
ARC
  5
7F1B
  8
FUTO
 10
11134.008052295299
 20
8407.5128762778913
 30
0.0
 40
2.0
 50
180.0
 51
270.0
  0
ARC
  5
7F1C
  8
FUTO
 10
11144.1611282953
 20
8402.5128762778913
 30
0.0
 40
3.0
 50
2.9995570000354208
 51
90.0
  0
ARC
  5
7F1D
  8
FUTO
 10
11158.857661295309
 20
8370.4811382778917
 30
0.0
 40
10.000139999999989
 50
183.00042699998181
 51
225.00097699998821
  0
ARC
  5
7F2C
  8
FUTO
 10
11160.80053229531
 20
8333.4100932778892
 30
0.0
 40
9.9999679999999991
 50
182.9990540000266
 51
225.0
  0
LINE
  5
7F2D
  8
KL
 10
11223.50805229531
 20
8333.7521342778928
 30
0.0
 11
11242.59667529531
 21
8333.7521342778928
 31
0.0
  0
LINE
  5
7F2E
  8
KL
 10
11224.543941295309
 20
8323.5128762778913
 30
0.0
 11
11218.50805229531
 21
8323.5128762778913
 31
0.0
  0
LINE
  5
7F2F
  8
KL
 10
11213.50805229531
 20
8323.5128762778913
 30
0.0
 11
11218.50805229531
 21
8323.5128762778913
 31
0.0
  0
ARC
  5
7F30
  8
KL
 10
11230.50805229531
 20
8302.5128762778932
 30
0.0
 40
3.0
 50
90.0
 51
180.0
  0
ARC
  5
7F31
  8
KL
 10
11237.59667529531
 20
8310.5128762778913
 30
0.0
 40
5.0
 50
270.0
 51
0.000000000000007
  0
LINE
  5
7F32
  8
KL
 10
11223.50805229531
 20
8326.6393412778925
 30
0.0
 11
11226.06664629531
 21
8326.6393412778925
 31
0.0
  0
LINE
  5
7F33
  8
KL
 10
11230.50805229531
 20
8305.5128762778932
 30
0.0
 11
11223.50805229531
 21
8326.6393412778925
 31
0.0
  0
LINE
  5
7F34
  8
KL
 10
11242.59667529531
 20
8310.5128762778913
 30
0.0
 11
11242.59667529531
 21
8333.7521342778928
 31
0.0
  0
LINE
  5
7F35
  8
KL
 10
11233.6662552953
 20
8305.5128762778932
 30
0.0
 11
11223.50805229531
 21
8333.7521342778928
 31
0.0
  0
LINE
  5
7F38
  8
FUTO
 10
11147.1394002953
 20
8403.0081162778915
 30
0.0
 11
11150.81420429531
 21
8332.8869002778902
 31
0.0
  0
LINE
  5
7F3A
  8
KL
 10
11180.579097295309
 20
8334.6176132778892
 30
0.0
 11
11151.786616295311
 21
8363.4098492778903
 31
0.0
  0
LINE
  5
7F3D
  8
FUTO
 10
11144.1611282953
 20
8405.5128762778913
 30
0.0
 11
11134.008052295299
 21
8405.5128762778913
 31
0.0
  0
ARC
  5
7F3E
  8
KL
 10
11187.79369729531
 20
8306.4169292778915
 30
0.0
 40
9.9999839999999995
 50
225.0
 51
268.00067099997602
  0
LINE
  5
7F3F
  8
KL
 10
11213.50805229531
 20
8295.5128762778913
 30
0.0
 11
11187.44482029531
 21
8296.4230332778916
 31
0.0
  0
LINE
  5
7F40
  8
KL
 10
11227.50805229531
 20
8285.5128762778913
 30
0.0
 11
11227.50805229531
 21
8302.5128762778932
 31
0.0
  0
LINE
  5
7F41
  8
KL
 10
11180.722652295301
 20
8299.3458842778891
 30
0.0
 11
11153.729488295299
 21
8326.3390482778923
 31
0.0
  0
LINE
  5
7F42
  8
KL
 10
11367.90795429531
 20
8307.1207872778923
 30
0.0
 11
11287.50805229531
 21
8305.5128762778932
 31
0.0
  0
ARC
  5
7F43
  8
KL
 10
11382.50805229531
 20
8368.0089702778914
 30
0.0
 40
5.0
 50
0.000000000000007
 51
90.0
  0
ARC
  5
7F44
  8
KL
 10
11432.50805229531
 20
8368.0089702778914
 30
0.0
 40
5.0
 50
90.0
 51
180.0
  0
ARC
  5
7F45
  8
KL
 10
11447.507991295301
 20
8327.1168802778902
 30
0.0
 40
20.000091999999999
 50
180.0
 51
268.85427899999053
  0
LINE
  5
7F46
  8
KL
 10
11427.508052295299
 20
8368.0089702778914
 30
0.0
 11
11427.508052295299
 21
8327.1168802778902
 31
0.0
  0
LINE
  5
7F47
  8
KL
 10
11387.508052295299
 20
8368.0089702778914
 30
0.0
 11
11387.508052295299
 21
8327.1168802778902
 31
0.0
  0
ARC
  5
7F48
  8
KL
 10
11367.508052295299
 20
8327.1168802778902
 30
0.0
 40
20.0
 50
271.14572100000942
 51
0.000000000000007
  0
LINE
  5
7F49
  8
KL
 10
11307.50805229531
 20
8285.5128762778913
 30
0.0
 11
11307.50805229531
 21
8286.5128762778913
 31
0.0
  0
ARC
  5
7F4A
  8
KL
 10
11312.50805229531
 20
8286.5128762778913
 30
0.0
 40
5.0
 50
90.0
 51
180.0
  0
LINE
  5
7F4B
  8
KL
 10
11312.50805229531
 20
8291.5128762778913
 30
0.0
 11
11407.508052295299
 21
8291.5128762778913
 31
0.0
  0
ARC
  5
7F4C
  8
KL
 10
11584.507991295301
 20
8302.5128762778932
 30
0.0
 40
3.0
 50
0.000000000000007
 51
90.0
  0
LINE
  5
7F4D
  8
KL
 10
11527.507991295301
 20
8305.5128762778932
 30
0.0
 11
11535.18754421962
 21
8305.5128762778932
 31
0.0
  0
ARC
  5
7F57
  8
KL
 10
11502.507991295301
 20
8286.5128762778913
 30
0.0
 40
5.0
 50
0.000000000000007
 51
90.0
  0
LINE
  5
7F58
  8
KL
 10
11507.507991295301
 20
8285.5128762778913
 30
0.0
 11
11507.507991295301
 21
8286.5128762778913
 31
0.0
  0
LINE
  5
7F59
  8
KL
 10
11507.507991295301
 20
8285.5128762778913
 30
0.0
 11
11532.50805229531
 21
8285.5128762778913
 31
0.0
  0
LINE
  5
7F5A
  8
KL
 10
11647.114070295311
 20
8289.5128762778913
 30
0.0
 11
11656.73003729531
 21
8293.0128762778913
 31
0.0
  0
LINE
  5
7F5B
  8
KL
 10
11647.114070295311
 20
8289.5128762778913
 30
0.0
 11
11587.507991295301
 21
8289.5128762778913
 31
0.0
  0
LINE
  5
7F5C
  8
KL
 10
11587.507991295301
 20
8285.5128762778913
 30
0.0
 11
11587.507991295301
 21
8302.5128762778932
 31
0.0
  0
LINE
  5
7F5D
  8
KL
 10
11447.10808929531
 20
8307.1207872778923
 30
0.0
 11
11527.507991295301
 21
8305.5128762778932
 31
0.0
  0
LINE
  5
7F5E
  8
KL
 10
11502.507991295301
 20
8291.5128762778913
 30
0.0
 11
11407.508052295299
 21
8291.5128762778913
 31
0.0
  0
LINE
  5
7F5F
  8
KL
 10
11287.50805229531
 20
8305.5128762778932
 30
0.0
 11
11279.82856037099
 21
8305.5128762778932
 31
0.0
  0
LINE
  5
7F60
  8
KL
 10
11307.50805229531
 20
8285.5128762778913
 30
0.0
 11
11282.50805229531
 21
8285.5128762778913
 31
0.0
  0
ARC
  5
7F61
  8
KL
 10
11466.507991295301
 20
8442.8151222778906
 30
0.0
 40
30.0
 50
270.0
 51
0.000000000000007
  0
ARC
  5
7F62
  8
KL
 10
11348.50805229531
 20
8442.8151222778906
 30
0.0
 40
30.0
 50
180.0
 51
270.0
  0
LINE
  5
7F63
  8
CT
 10
11407.508052295299
 20
8775.5128762778913
 30
0.0
 11
11407.508052295299
 21
8205.5128762778913
 31
0.0
  0
LINE
  5
7F64
  8
KL
 10
11218.50805229531
 20
8323.5128762778913
 30
0.0
 11
11218.50805229531
 21
8485.5128762778913
 31
0.0
  0
LINE
  5
7F65
  8
KL
 10
11576.50799129531
 20
8689.0128762778913
 30
0.0
 11
11576.50799129531
 21
8305.5128762778932
 31
0.0
  0
LINE
  5
7F66
  8
KL
 10
11626.507991295301
 20
8688.699400277892
 30
0.0
 11
11626.507991295301
 21
8289.5128762778913
 31
0.0
  0
LINE
  5
7F67
  8
KL
 10
11656.70794229531
 20
8678.3302592778891
 30
0.0
 11
11656.70794229531
 21
8293.0128762778913
 31
0.0
  0
LINE
  5
7F68
  8
KL
 10
11218.50805229531
 20
8323.5128762778913
 30
0.0
 11
11218.50805229531
 21
8485.5128762778913
 31
0.0
  0
LINE
  5
7F69
  8
KL
 10
11213.50805229531
 20
8295.5128762778913
 30
0.0
 11
11213.50805229531
 21
8485.5128762778913
 31
0.0
  0
LINE
  5
7F6A
  8
FUTO
 10
11132.00805229531
 20
8407.5128762778913
 30
0.0
 11
11132.00805229531
 21
8485.5128762778913
 31
0.0
  0
ARC
  5
7F6B
  8
KL
 10
11721.19707829531
 20
8663.0128762778913
 30
0.0
 40
15.0
 50
60.00018299999563
 51
90.0
  0
ARC
  5
7F6C
  8
KL
 10
11776.50799129531
 20
8642.6261582778916
 30
0.0
 40
4.9999580000000003
 50
0.000000000000007
 51
59.999718000001181
  0
LINE
  5
7F6D
  8
KL
 10
11779.007991295301
 20
8646.9562362778925
 30
0.0
 11
11728.69707829531
 21
8676.0033552778914
 31
0.0
  0
LINE
  5
7F6E
  8
FUTO
 10
7234.7414476795857
 20
8631.7418802778902
 30
0.0
 11
7236.1490406795847
 21
8630.9811382778917
 31
0.0
  0
ARC
  5
7F6F
  8
FUTO
 10
7234.2659836795856
 20
8630.8619972778924
 30
0.0
 40
1.000079999999999
 50
61.614464000024142
 51
151.6049860000241
  0
ARC
  5
7F70
  8
FUTO
 10
7235.6735766795864
 20
8630.1012552778921
 30
0.0
 40
1.0001299999999991
 50
331.6139680000237
 51
61.614464000024142
  0
LINE
  5
7F71
  8
FUTO
 10
7315.5798266795873
 20
8630.2680032778917
 30
0.0
 11
7314.7311936795877
 21
8630.2680032778917
 31
0.0
  0
LINE
  5
7F72
  8
FUTO
 10
7315.5798266795873
 20
8630.2680032778917
 30
0.0
 11
7315.5798266795873
 21
8631.1166362778931
 31
0.0
  0
LINE
  5
7F73
  8
FUTO
 10
7323.3333666795861
 20
8638.0216652778927
 30
0.0
 11
7326.9255296795864
 21
8634.4296242778892
 31
0.0
  0
LINE
  5
7F74
  8
FUTO
 10
7322.484855679586
 20
8638.0216652778927
 30
0.0
 11
7323.3333666795861
 21
8638.0216652778927
 31
0.0
  0
LINE
  5
7F75
  8
FUTO
 10
7321.046012679587
 20
8635.7343122778911
 30
0.0
 11
7321.046012679587
 21
8636.5829452778926
 31
0.0
  0
LINE
  5
7F76
  8
FUTO
 10
7321.046012679587
 20
8635.7343122778911
 30
0.0
 11
7324.6381756795854
 21
8632.1422712778894
 31
0.0
  0
LINE
  5
7F77
  8
FUTO
 10
7321.046012679587
 20
8635.7343122778911
 30
0.0
 11
7320.1975026795872
 21
8635.7343122778911
 31
0.0
  0
LINE
  5
7F78
  8
FUTO
 10
7119.7455976795864
 20
8421.0834332778923
 30
0.0
 11
7116.947257679587
 21
8422.5958842778909
 31
0.0
  0
ARC
  5
7F79
  8
FUTO
 10
7115.3948896795873
 20
8410.9310892778922
 30
0.0
 40
1.0001299999999991
 50
151.61727900002231
 51
241.61447099997949
  0
ARC
  5
7F7A
  8
FUTO
 10
8114.1721116795879
 20
8497.0441262778913
 30
0.0
 40
1000.0
 50
174.84371900001099
 51
184.2695309999898
  0
LINE
  5
7F7B
  8
FUTO
 10
7234.8321456795857
 20
8626.4415872778936
 30
0.0
 11
7243.1785816795846
 21
8621.9303572778917
 31
0.0
  0
ARC
  5
7F7C
  8
FUTO
 10
7240.801261679585
 20
8617.5316752778926
 30
0.0
 40
5.000062999999999
 50
0.000000000000007
 51
61.609245000013807
  0
LINE
  5
7F7D
  8
CT
 10
7263.2460866795864
 20
8560.5128762778913
 30
0.0
 11
7226.812736679587
 21
8560.5128762778913
 31
0.0
  0
LINE
  5
7F7E
  8
FUTO
 10
7313.2924726795864
 20
8627.980650277892
 30
0.0
 11
7316.8845136795862
 21
8624.3886092778903
 31
0.0
  0
LINE
  5
7F7F
  8
FUTO
 10
7313.2924726795864
 20
8627.980650277892
 30
0.0
 11
7313.2924726795864
 21
8628.8292832778934
 31
0.0
  0
LINE
  5
7F80
  8
FUTO
 10
7244.815360679585
 20
8620.5128762778895
 30
0.0
 11
7313.5275806795862
 21
8620.5128762778895
 31
0.0
  0
LINE
  5
7F81
  8
FUTO
 10
7245.801261679585
 20
8500.5128762778913
 30
0.0
 11
7262.8547286795856
 21
8500.5128762778913
 31
0.0
  0
ARC
  5
7F82
  8
FUTO
 10
7226.9733816795879
 20
8430.5128762778932
 30
0.0
 40
10.000057999999999
 50
270.0
 51
352.87567099997028
  0
LINE
  5
7F83
  8
FUTO
 10
7245.801261679585
 20
8500.5128762778913
 30
0.0
 11
7236.8962326795872
 21
8429.2726422778924
 31
0.0
  0
LINE
  5
7F84
  8
FUTO
 10
7255.8012616795859
 20
8500.5128762778913
 30
0.0
 11
7255.8012616795859
 21
8620.5128762778895
 31
0.0
  0
LINE
  5
7F85
  8
FUTO
 10
7245.801261679585
 20
8500.5128762778913
 30
0.0
 11
7245.801261679585
 21
8617.5316752778926
 31
0.0
  0
LINE
  5
7F86
  8
FUTO
 10
7123.5292286795857
 20
8420.5128762778913
 30
0.0
 11
7226.9733816795879
 21
8420.5128762778913
 31
0.0
  0
LINE
  5
7F87
  8
FUTO
 10
7231.6651536795853
 20
8628.1532572778924
 30
0.0
 11
7155.4819256795854
 21
8623.2387062778926
 31
0.0
  0
ARC
  5
7F88
  8
FUTO
 10
7158.0568776795863
 20
8583.3217142778904
 30
0.0
 40
40.000011000000001
 50
93.690902999999693
 51
174.8436270000314
  0
LINE
  5
7F89
  8
FUTO
 10
7233.3862226795864
 20
8631.3375832778911
 30
0.0
 11
7114.5151296795866
 21
8411.4064312778919
 31
0.0
  0
LINE
  5
7F8A
  8
FUTO
 10
7326.9255296795864
 20
8634.4296242778892
 30
0.0
 11
7316.8845136795862
 21
8624.3886092778903
 31
0.0
  0
LINE
  5
7F8B
  8
CT
 10
7317.3602216795853
 20
8633.9537942778916
 30
0.0
 11
7322.6083906795866
 21
8628.7057472778924
 31
0.0
  0
LINE
  5
7F8C
  8
FUTO
 10
7322.484855679586
 20
8638.0216652778927
 30
0.0
 11
7313.2924726795864
 21
8628.8292832778934
 31
0.0
  0
LINE
  5
7F8D
  8
FUTO
 10
7315.5798266795873
 20
8630.2680032778917
 30
0.0
 11
7319.1718676795854
 21
8626.6759622778918
 31
0.0
  0
ARC
  5
7F8E
  8
FUTO
 10
7465.8012616795859
 20
8749.2628762778913
 30
0.0
 40
6.25
 50
0.000000000000007
 51
180.0
  0
LINE
  5
7F8F
  8
FUTO
 10
7449.2045056795869
 20
8691.9317002778917
 30
0.0
 11
7449.3645706795878
 21
8688.3478982778925
 31
0.0
  0
LINE
  5
7F90
  8
FUTO
 10
7459.551261679585
 20
8707.3432602778921
 30
0.0
 11
7454.2466966795864
 21
8706.7749002778892
 31
0.0
  0
ARC
  5
7F91
  8
FUTO
 10
7454.5662916795864
 20
8703.7919902778922
 30
0.0
 40
3.0000059999999991
 50
96.115463000033785
 51
174.8055969999956
  0
LINE
  5
7F92
  8
FUTO
 10
7472.051261679585
 20
8707.3432602778921
 30
0.0
 11
7477.3558276795866
 21
8706.7749002778892
 31
0.0
  0
ARC
  5
7F93
  8
FUTO
 10
7452.8012616795859
 20
8692.5128762778913
 30
0.0
 40
3.0
 50
90.0
 51
133.8690379999866
  0
ARC
  5
7F94
  8
FUTO
 10
7465.8012616795859
 20
8485.5128762778913
 30
0.0
 40
209.99987799999991
 50
93.733024999983584
 51
93.766990999962644
  0
ARC
  5
7F95
  8
FUTO
 10
7452.3240586795846
 20
8692.0736062778924
 30
0.0
 40
3.0001099999999989
 50
4.9449460000082901
 51
93.734192000008321
  0
ARC
  5
7F96
  8
FUTO
 10
7452.8012616795859
 20
8692.5128762778913
 30
0.0
 40
3.0
 50
90.0
 51
132.5596429999928
  0
LINE
  5
7F97
  8
FUTO
 10
7455.3128286795854
 20
8692.3321512778912
 30
0.0
 11
7455.6219106795861
 21
8688.7580552778927
 31
0.0
  0
LINE
  5
7F98
  8
FUTO
 10
7476.2895736795863
 20
8692.3321512778912
 30
0.0
 11
7475.9804916795847
 21
8688.7580552778927
 31
0.0
  0
ARC
  5
7F99
  8
FUTO
 10
7475.0512616795859
 20
8700.9454942778921
 30
0.0
 40
3.0
 50
180.0
 51
270.0
  0
ARC
  5
7F9A
  8
FUTO
 10
7456.551261679585
 20
8701.233702277892
 30
0.0
 40
3.0
 50
270.0
 51
0.000000000000007
  0
LINE
  5
7F9B
  8
FUTO
 10
7451.578605679586
 20
8704.0635972778928
 30
0.0
 11
7450.8012616795859
 21
8695.5128762778913
 31
0.0
  0
ARC
  5
7F9C
  8
FUTO
 10
7452.2014846795873
 20
8692.0656112778925
 30
0.0
 40
3.000081999999999
 50
93.765747000020752
 51
182.55828900003789
  0
ARC
  5
7F9D
  8
FUTO
 10
7465.8012616795859
 20
8485.5128762778913
 30
0.0
 40
209.99998500000001
 50
86.233009000037313
 51
86.267005999973264
  0
ARC
  5
7F9E
  8
FUTO
 10
7479.4009176795871
 20
8692.0655502778918
 30
0.0
 40
2.9999649999999991
 50
357.44277999999088
 51
86.232139999971935
  0
LINE
  5
7F9F
  8
FUTO
 10
7482.3978956795863
 20
8691.9317002778917
 30
0.0
 11
7482.2378316795866
 21
8688.3478982778925
 31
0.0
  0
LINE
  5
7FA0
  8
FUTO
 10
7480.0239186795861
 20
8704.0635972778928
 30
0.0
 11
7480.8012616795859
 21
8695.5128762778913
 31
0.0
  0
ARC
  5
7FA1
  8
FUTO
 10
7478.801261679585
 20
8692.5128762778913
 30
0.0
 40
3.0
 50
46.112625000024657
 51
90.0
  0
LINE
  5
7FA2
  8
FUTO
 10
7450.8012616795859
 20
8695.5128762778913
 30
0.0
 11
7480.8012616795859
 21
8695.5128762778913
 31
0.0
  0
ARC
  5
7FA3
  8
FUTO
 10
7478.801261679585
 20
8692.5128762778913
 30
0.0
 40
3.0
 50
46.168487999999194
 51
90.0
  0
ARC
  5
7FA4
  8
FUTO
 10
7477.0362316795854
 20
8703.7919902778922
 30
0.0
 40
2.9999820000000001
 50
5.1943969999919046
 51
83.884536999966215
  0
ARC
  5
7FA5
  8
FUTO
 10
7479.2784656795884
 20
8692.0736062778924
 30
0.0
 40
3.0000490000000002
 50
86.268058999992206
 51
175.0561099999934
  0
LINE
  5
7FA6
  8
FUTO
 10
7608.2690356795874
 20
8638.0216652778927
 30
0.0
 11
7604.6769946795857
 21
8634.4296242778892
 31
0.0
  0
LINE
  5
7FA7
  8
FUTO
 10
7608.2690356795874
 20
8638.0216652778927
 30
0.0
 11
7609.1176686795861
 21
8638.0216652778927
 31
0.0
  0
LINE
  5
7FA8
  8
FUTO
 10
7616.0226976795857
 20
8630.2682472778924
 30
0.0
 11
7616.8713306795853
 21
8630.2682472778924
 31
0.0
  0
LINE
  5
7FA9
  8
FUTO
 10
7616.0226976795857
 20
8630.2682472778924
 30
0.0
 11
7616.0226976795857
 21
8631.1166362778931
 31
0.0
  0
LINE
  5
7FAA
  8
FUTO
 10
7610.5563886795871
 20
8635.7343122778911
 30
0.0
 11
7610.5563886795871
 21
8636.5829452778926
 31
0.0
  0
LINE
  5
7FAB
  8
FUTO
 10
7610.5563886795871
 20
8635.7343122778911
 30
0.0
 11
7611.4050216795858
 21
8635.7343122778911
 31
0.0
  0
LINE
  5
7FAC
  8
FUTO
 10
7610.5563886795871
 20
8635.7343122778911
 30
0.0
 11
7606.9643476795864
 21
8632.1422712778894
 31
0.0
  0
LINE
  5
7FAD
  8
FUTO
 10
7472.051261679585
 20
8749.2628762778913
 30
0.0
 11
7472.051261679585
 21
8700.9454942778921
 31
0.0
  0
LINE
  5
7FAE
  8
FUTO
 10
7459.551261679585
 20
8749.2628762778913
 30
0.0
 11
7459.551261679585
 21
8701.233702277892
 31
0.0
  0
LINE
  5
7FAF
  8
FUTO
 10
7618.3100506795854
 20
8627.980650277892
 30
0.0
 11
7614.7180096795846
 21
8624.3886092778903
 31
0.0
  0
LINE
  5
7FB0
  8
FUTO
 10
7618.3100506795854
 20
8628.8292832778934
 30
0.0
 11
7618.3100506795854
 21
8627.980650277892
 31
0.0
  0
LINE
  5
7FB1
  8
FUTO
 10
7614.7180096795846
 20
8624.3886092778903
 30
0.0
 11
7604.6769946795857
 21
8634.4296242778892
 31
0.0
  0
LINE
  5
7FB2
  8
CT
 10
7614.2421796795852
 20
8633.9537942778916
 30
0.0
 11
7608.994132679587
 21
8628.7057472778924
 31
0.0
  0
LINE
  5
7FB3
  8
FUTO
 10
7618.3100506795854
 20
8628.8292832778934
 30
0.0
 11
7609.1176686795861
 21
8638.0216652778927
 31
0.0
  0
LINE
  5
7FB4
  8
FUTO
 10
7616.0226976795857
 20
8630.2682472778924
 30
0.0
 11
7612.4306566795858
 21
8626.6759622778918
 31
0.0
  0
LINE
  5
7FB5
  8
CT
 10
7689.301261679585
 20
8255.5128762778913
 30
0.0
 11
7242.301261679585
 21
8255.5128762778913
 31
0.0
  0
ARC
  5
7FB6
  8
KL
 10
11776.50799129531
 20
8328.3995952778914
 30
0.0
 40
5.0
 50
300.00027499997202
 51
0.000000000000007
  0
ARC
  5
7FB7
  8
FUTO
 10
7116.8024826795872
 20
8410.1703472778918
 30
0.0
 40
1.000079999999999
 50
241.61447099997949
 51
331.60498000002087
  0
ARC
  5
7FB8
  8
KL
 10
11721.19707829531
 20
8308.0128762778895
 30
0.0
 40
15.000085
 50
270.0
 51
299.99981700000433
  0
LINE
  5
7FB9
  8
KL
 10
11779.007991295301
 20
8324.0695172778906
 30
0.0
 11
11728.69707829531
 21
8295.0223982778916
 31
0.0
  0
ARC
  5
7FBA
  8
FUTO
 10
7281.8012616795859
 20
8359.8395372778923
 30
0.0
 40
5.0
 50
124.94366100000759
 51
180.0
  0
LINE
  5
7FBB
  8
FUTO
 10
7278.9373706795868
 20
8363.9381692778916
 30
0.0
 11
7294.875236679587
 21
8375.0746442778909
 31
0.0
  0
ARC
  5
7FBC
  8
FUTO
 10
7279.8012616795859
 20
8302.5128762778932
 30
0.0
 40
3.0
 50
90.0
 51
180.0
  0
LINE
  5
7FBD
  8
FUTO
 10
7313.2924726795864
 20
8343.0451032778928
 30
0.0
 11
7316.8845136795862
 21
8346.6371442778891
 31
0.0
  0
LINE
  5
7FBE
  8
FUTO
 10
7313.2924726795864
 20
8342.1964702778914
 30
0.0
 11
7313.2924726795864
 21
8343.0451032778928
 31
0.0
  0
LINE
  5
7FBF
  8
FUTO
 10
7315.5798266795873
 20
8340.7575052778921
 30
0.0
 11
7314.7311936795877
 21
8340.7575052778921
 31
0.0
  0
LINE
  5
7FC0
  8
FUTO
 10
7315.5798266795873
 20
8340.7575052778921
 30
0.0
 11
7315.5798266795873
 21
8339.9091172778917
 31
0.0
  0
LINE
  5
7FC1
  8
FUTO
 10
7323.3334886795856
 20
8333.0040872778918
 30
0.0
 11
7326.9255296795864
 21
8336.5961282778917
 31
0.0
  0
LINE
  5
7FC2
  8
FUTO
 10
7323.3334886795856
 20
8333.0040872778918
 30
0.0
 11
7322.484855679586
 21
8333.0040872778918
 31
0.0
  0
LINE
  5
7FC3
  8
FUTO
 10
7321.0461346795846
 20
8335.2914412778919
 30
0.0
 11
7321.0461346795846
 21
8334.4428082778904
 31
0.0
  0
LINE
  5
7FC4
  8
FUTO
 10
7321.0461346795846
 20
8335.2914412778919
 30
0.0
 11
7324.6381756795854
 21
8338.8834822778917
 31
0.0
  0
LINE
  5
7FC5
  8
FUTO
 10
7321.0461346795846
 20
8335.2914412778919
 30
0.0
 11
7320.1975026795872
 21
8335.2914412778919
 31
0.0
  0
LINE
  5
7FC6
  8
FUTO
 10
7316.8845136795862
 20
8346.6371442778891
 30
0.0
 11
7326.9255296795864
 21
8336.5961282778917
 31
0.0
  0
LINE
  5
7FC7
  8
CT
 10
7317.3603436795847
 20
8337.0719582778911
 30
0.0
 11
7322.6083906795866
 21
8342.3200052778921
 31
0.0
  0
LINE
  5
7FC8
  8
FUTO
 10
7313.2924726795864
 20
8342.1964702778914
 30
0.0
 11
7322.484855679586
 21
8333.0040872778918
 31
0.0
  0
LINE
  5
7FC9
  8
FUTO
 10
7315.5798266795873
 20
8340.7575052778921
 30
0.0
 11
7319.1718676795854
 21
8344.3497902778945
 31
0.0
  0
ARC
  5
7FCA
  8
FUTO
 10
7353.3012616795859
 20
8302.5128762778932
 30
0.0
 40
3.0
 50
0.000000000000007
 51
90.0
  0
LINE
  5
7FCB
  8
FUTO
 10
7353.3012616795859
 20
8305.5128762778932
 30
0.0
 11
7279.8012616795859
 21
8305.5128762778932
 31
0.0
  0
LINE
  5
7FCC
  8
FUTO
 10
7276.8012616795859
 20
8285.5128762778913
 30
0.0
 11
7356.3012616795859
 21
8285.5128762778913
 31
0.0
  0
LINE
  5
7FCD
  8
FUTO
 10
7356.3012616795859
 20
8302.5128762778932
 30
0.0
 11
7356.3012616795859
 21
8285.5128762778913
 31
0.0
  0
LINE
  5
7FCE
  8
FUTO
 10
7361.6984786795847
 20
8310.6561872778893
 30
0.0
 11
7356.3012616795859
 21
8290.5128762778913
 31
0.0
  0
LINE
  5
7FCF
  8
CT
 10
7306.801261679585
 20
8315.5128762778913
 30
0.0
 11
7306.801261679585
 21
8275.5128762778913
 31
0.0
  0
LINE
  5
7FD0
  8
FUTO
 10
7276.8012616795859
 20
8359.8395372778923
 30
0.0
 11
7276.8012616795859
 21
8285.5128762778913
 31
0.0
  0
LINE
  5
7FD1
  8
FUTO
 10
7652.6650316795858
 20
8363.9381692778916
 30
0.0
 11
7636.7271656795856
 21
8375.0746442778909
 31
0.0
  0
ARC
  5
7FD2
  8
FUTO
 10
7578.3012616795859
 20
8302.5128762778932
 30
0.0
 40
3.0
 50
90.0
 51
180.0
  0
LINE
  5
7FD3
  8
FUTO
 10
7618.3100506795854
 20
8343.0451032778928
 30
0.0
 11
7614.7180096795846
 21
8346.6371442778891
 31
0.0
  0
LINE
  5
7FD4
  8
FUTO
 10
7618.3100506795854
 20
8343.0451032778928
 30
0.0
 11
7618.3100506795854
 21
8342.1964702778914
 31
0.0
  0
LINE
  5
7FD5
  8
FUTO
 10
7608.2690356795874
 20
8333.0040872778918
 30
0.0
 11
7604.6769946795857
 21
8336.5961282778917
 31
0.0
  0
LINE
  5
7FD6
  8
FUTO
 10
7609.1176686795861
 20
8333.0040872778918
 30
0.0
 11
7608.2690356795874
 21
8333.0040872778918
 31
0.0
  0
LINE
  5
7FD7
  8
FUTO
 10
7610.5566326795861
 20
8335.2914412778919
 30
0.0
 11
7610.5566326795861
 21
8334.4428082778904
 31
0.0
  0
LINE
  5
7FD8
  8
FUTO
 10
7610.5566326795861
 20
8335.2914412778919
 30
0.0
 11
7611.4050216795858
 21
8335.2914412778919
 31
0.0
  0
LINE
  5
7FD9
  8
FUTO
 10
7616.0226976795857
 20
8340.757749277891
 30
0.0
 11
7616.8713306795853
 21
8340.757749277891
 31
0.0
  0
LINE
  5
7FDA
  8
FUTO
 10
7616.0226976795857
 20
8340.757749277891
 30
0.0
 11
7616.0226976795857
 21
8339.9091172778917
 31
0.0
  0
LINE
  5
7FDB
  8
FUTO
 10
7610.5566326795861
 20
8335.2914412778919
 30
0.0
 11
7606.9643476795864
 21
8338.8834822778917
 31
0.0
  0
LINE
  5
7FDC
  8
FUTO
 10
7604.6769946795857
 20
8336.5961282778917
 30
0.0
 11
7614.7180096795846
 21
8346.6371442778891
 31
0.0
  0
LINE
  5
7FDD
  8
CT
 10
7614.2421796795852
 20
8337.0719582778911
 30
0.0
 11
7608.994132679587
 21
8342.3200052778921
 31
0.0
  0
LINE
  5
7FDE
  8
FUTO
 10
7609.1176686795861
 20
8333.0040872778918
 30
0.0
 11
7618.3100506795854
 21
8342.1964702778914
 31
0.0
  0
LINE
  5
7FDF
  8
FUTO
 10
7616.0226976795857
 20
8340.757749277891
 30
0.0
 11
7612.4306566795858
 21
8344.3497902778945
 31
0.0
  0
LINE
  5
7FE0
  8
FUTO
 10
7578.3012616795859
 20
8305.5128762778932
 30
0.0
 11
7651.8012616795859
 21
8305.5128762778932
 31
0.0
  0
LINE
  5
7FE1
  8
FUTO
 10
7575.3012616795859
 20
8302.5128762778932
 30
0.0
 11
7575.3012616795859
 21
8285.5128762778913
 31
0.0
  0
LINE
  5
7FE2
  8
FUTO
 10
7569.9038316795859
 20
8310.6560652778935
 30
0.0
 11
7575.3012616795859
 21
8290.5128762778913
 31
0.0
  0
LINE
  5
7FE3
  8
CT
 10
7624.8012616795859
 20
8315.5128762778913
 30
0.0
 11
7624.8012616795859
 21
8275.5128762778913
 31
0.0
  0
LINE
  5
7FE4
  8
FUTO
 10
7654.8012616795859
 20
8359.8395372778923
 30
0.0
 11
7654.8012616795859
 21
8285.5128762778913
 31
0.0
  0
LINE
  5
7FE5
  8
FUTO
 10
7654.8012616795859
 20
8285.5128762778913
 30
0.0
 11
7575.3012616795859
 21
8285.5128762778913
 31
0.0
  0
ARC
  5
7FE6
  8
FUTO
 10
7649.8012616795859
 20
8359.8395372778923
 30
0.0
 40
5.0000669999999987
 50
0.000000000000007
 51
55.056335000025037
  0
ARC
  5
7FE7
  8
FUTO
 10
7651.8012616795859
 20
8302.5128762778932
 30
0.0
 40
3.0
 50
0.000000000000007
 51
90.0
  0
LINE
  5
7FE8
  8
FUTO
 10
7411.0632246795867
 20
8289.5128762778913
 30
0.0
 11
7520.5392986795869
 21
8289.5128762778913
 31
0.0
  0
LINE
  5
7FE9
  8
CT
 10
7465.8012616795859
 20
8775.5128762778913
 30
0.0
 11
7465.8012616795859
 21
8205.5128762778913
 31
0.0
  0
ARC
  5
7FEA
  8
FUTO
 10
7465.8012616795859
 20
8485.5128762778913
 30
0.0
 40
203.5
 50
285.6036990000095
 51
254.3962400000253
  0
LINE
  5
7FEB
  8
KL
 10
11722.40801529531
 20
8293.0128762778913
 30
0.0
 11
11722.40801529531
 21
8677.9638042778915
 31
0.0
  0
LINE
  5
7FEC
  8
CT
 10
7175.8012616795868
 20
8437.9071632778923
 30
0.0
 11
7175.8012616795868
 21
8398.9132672778924
 31
0.0
  0
LINE
  5
7FED
  8
FUTO
 10
7236.5532146795867
 20
8629.6256692778898
 30
0.0
 11
7117.682121679587
 21
8409.6947612778913
 31
0.0
  0
LINE
  5
7FEE
  8
FUTO
 10
7116.3270186795853
 20
8409.2904642778922
 30
0.0
 11
7114.9194256795854
 21
8410.0512062778926
 31
0.0
  0
LINE
  5
7FEF
  8
KL
 10
11781.50805229531
 20
8643.1628402778915
 30
0.0
 11
11781.50805229531
 21
8328.3725262778917
 31
0.0
  0
LINE
  5
7FF0
  8
CT
 10
10962.00805229531
 20
8485.5128762778913
 30
0.0
 11
11801.50805229531
 21
8485.5128762778913
 31
0.0
  0
LINE
  5
7FF1
  8
KL
 10
11660.2567702953
 20
8678.0128762778913
 30
0.0
 11
11721.19707829531
 21
8678.0128762778913
 31
0.0
  0
LINE
  5
7FF2
  8
KL
 10
11656.70794229531
 20
8293.0128762778913
 30
0.0
 11
11721.19707829531
 21
8293.0128762778913
 31
0.0
  0
LINE
  5
7FF3
  8
FUTO
 10
7456.8012616795859
 20
8519.5128762778913
 30
0.0
 11
7474.8012616795859
 21
8519.5128762778913
 31
0.0
  0
LINE
  5
7FF4
  8
FUTO
 10
7456.8012616795859
 20
8508.5128762778913
 30
0.0
 11
7474.8012616795859
 21
8508.5128762778913
 31
0.0
  0
LINE
  5
7FF5
  8
FUTO
 10
7456.8012616795859
 20
8519.5128762778913
 30
0.0
 11
7456.8012616795859
 21
8508.5128762778913
 31
0.0
  0
LINE
  5
7FF6
  8
FUTO
 10
7474.8012616795868
 20
8519.5128762778913
 30
0.0
 11
7474.8012616795859
 21
8508.5128762778913
 31
0.0
  0
LINE
  5
7FF7
  8
CT
 10
7600.801261679585
 20
12074.377370309359
 30
0.0
 11
7650.8012616795859
 21
12074.377370309359
 31
0.0
  0
LINE
  5
7FF8
  8
CT
 10
7625.8012616795868
 20
12049.377370309359
 30
0.0
 11
7625.8012616795868
 21
12099.377370309359
 31
0.0
  0
LINE
  5
7FF9
  8
CT
 10
7305.8012616795868
 20
12049.377370309359
 30
0.0
 11
7305.8012616795868
 21
12099.377370309359
 31
0.0
  0
LINE
  5
7FFA
  8
CT
 10
7330.8012616795859
 20
12074.377370309359
 30
0.0
 11
7280.8012616795841
 21
12074.377370309359
 31
0.0
  0
LINE
  5
7FFB
  8
CT
 10
7330.8012616795859
 20
12534.377370309359
 30
0.0
 11
7280.8012616795841
 21
12534.377370309359
 31
0.0
  0
LINE
  5
7FFC
  8
CT
 10
7305.8012616795868
 20
12559.377370309359
 30
0.0
 11
7305.8012616795868
 21
12509.377370309359
 31
0.0
  0
LINE
  5
7FFD
  8
CT
 10
7625.8012616795868
 20
12559.377370309359
 30
0.0
 11
7625.8012616795868
 21
12509.377370309359
 31
0.0
  0
LINE
  5
7FFE
  8
CT
 10
7600.801261679585
 20
12534.377370309359
 30
0.0
 11
7650.8012616795859
 21
12534.377370309359
 31
0.0
  0
LINE
  5
8000
  8
SL
 10
7333.3012616795859
 20
11878.877370309359
 30
0.0
 11
7333.3012616795859
 21
11976.877370309359
 31
0.0
  0
LINE
  5
8001
  8
FUTO
 10
7262.3012616795859
 20
11739.877370309359
 30
0.0
 11
7262.3012616795859
 21
12028.87737030937
 31
0.0
  0
LINE
  5
8002
  8
SL
 10
7598.3012616795841
 20
11878.877370309359
 30
0.0
 11
7598.3012616795841
 21
11976.877370309359
 31
0.0
  0
LINE
  5
8003
  8
SL
 10
7275.8012616795859
 20
12626.41592793752
 30
0.0
 11
7275.8012616795859
 21
12063.87737030937
 31
0.0
  0
LINE
  5
8004
  8
SL
 10
7340.8012616795859
 20
12678.377370309359
 30
0.0
 11
7340.8012616795859
 21
12063.87737030937
 31
0.0
  0
LINE
  5
8005
  8
SL
 10
7590.8012616795868
 20
12678.377370309359
 30
0.0
 11
7590.8012616795859
 21
12063.87737030937
 31
0.0
  0
LINE
  5
8006
  8
SL
 10
7655.8012616795859
 20
12619.277333309359
 30
0.0
 11
7655.8012616795859
 21
12063.87737030937
 31
0.0
  0
LINE
  5
8007
  8
FUTO
 10
7294.8012616795859
 20
12975.877370309359
 30
0.0
 11
7294.8012616795859
 21
14263.87737030937
 31
0.0
  0
LINE
  5
8008
  8
FUTO
 10
7344.8012616795859
 20
13025.87737030937
 30
0.0
 11
7344.8012616795859
 21
14213.87737030937
 31
0.0
  0
LINE
  5
8018
  8
FUTO
 10
7294.8012616795859
 20
14263.87737030937
 30
0.0
 11
9695.8012616795895
 21
14263.877370309359
 31
0.0
  0
LINE
  5
8019
  8
FUTO
 10
7294.8012616795859
 20
12975.877370309359
 30
0.0
 11
9695.8012616795859
 21
12975.877370309359
 31
0.0
  0
LINE
  5
801A
  8
FUTO
 10
7765.8012616795859
 20
12975.877370309359
 30
0.0
 11
7765.8012616795859
 21
12950.87737030937
 31
0.0
  0
LINE
  5
801C
  8
FUTO
 10
8715.8012616795859
 20
13025.87737030937
 30
0.0
 11
9760.8012616795877
 21
13025.87737030937
 31
0.0
  0
LINE
  5
801D
  8
FUTO
 10
8715.8012616795859
 20
14213.87737030937
 30
0.0
 11
9760.8012616795877
 21
14213.87737030937
 31
0.0
  0
LINE
  5
8021
  8
FUTO
 10
9695.8012616795895
 20
14278.87737030937
 30
0.0
 11
9760.8012616795877
 21
14278.87737030937
 31
0.0
  0
LINE
  5
8022
  8
FUTO
 10
9665.8012616795859
 20
12975.877370309359
 30
0.0
 11
9665.8012616795859
 21
12950.87737030937
 31
0.0
  0
LINE
  5
8025
  8
FUTO
 10
8330.1493887888664
 20
12063.87737030937
 30
0.0
 11
8330.1493887888664
 21
12950.87737030937
 31
0.0
  0
LINE
  5
8027
  8
FUTO
 10
9101.4531345703072
 20
12063.87737030937
 30
0.0
 11
9101.4531345703072
 21
12950.87737030937
 31
0.0
  0
DIMENSION
  5
8028
  8
SP
  2
*D12
 10
10110.967652761459
 20
11008.51287627789
 30
0.0
 11
10023.467652761459
 21
10127.01287627789
 31
0.0
 70
     0
 13
9868.4331221929533
 23
9245.5128762778895
 33
0.0
 14
9760.8012616795877
 24
11008.51287627789
 34
0.0
 50
90.0
1001
ACAD
1000
DSTYLE
1002
{
1070
    40
1040
35.0
1070
    41
1040
2.5
1070
   147
1040
1.0
1002
}
  0
DIMENSION
  5
8053
  8
SP
  2
*D13
 10
9760.8012616795877
 20
11261.70804252563
 30
0.0
 11
9238.3012616795859
 21
11349.208042525641
 31
0.0
 70
     0
 13
8715.8012616795859
 23
11078.870998247739
 33
0.0
 14
9760.8012616795877
 24
11008.51287627789
 34
0.0
1001
ACAD
1000
DSTYLE
1002
{
1070
    40
1040
35.0
1070
    41
1040
2.5
1070
   147
1040
1.0
1002
}
  0
DIMENSION
  5
8095
  8
SP
  2
*D14
 10
6610.1815013659871
 20
14344.87737030937
 30
0.0
 11
6522.6815013659843
 21
13982.37737030937
 31
0.0
 70
     0
 13
6952.8012616795859
 23
13619.87737030937
 33
0.0
 14
7850.8012616795868
 24
14344.87737030937
 34
0.0
 50
90.0
1001
ACAD
1000
DSTYLE
1002
{
1070
    40
1040
35.0
1070
    41
1040
2.5
1070
   147
1040
1.0
1002
}
  0
DIMENSION
  5
80A2
  8
SP
  2
*D15
 10
6610.1815013659871
 20
11739.877370309359
 30
0.0
 11
6522.6815013659862
 21
12679.87737030937
 31
0.0
 70
     0
 13
6952.8012616795859
 23
13619.87737030937
 33
0.0
 14
7262.3012616795859
 24
11739.877370309359
 34
0.0
 50
90.0
1001
ACAD
1000
DSTYLE
1002
{
1070
    40
1040
35.0
1070
    41
1040
2.5
1070
   147
1040
1.0
1002
}
  0
LINE
  5
80D6
  8
KL
 10
7775.8012616795859
 20
9001.6578833229323
 30
0.0
 11
7775.8012616795859
 21
8225.5128762778913
 31
0.0
  0
LINE
  5
80D7
  8
KL
 10
7784.8012616795859
 20
9008.5834803967009
 30
0.0
 11
7784.8012616795859
 21
8225.5128762778913
 31
0.0
  0
LINE
  5
80D8
  8
FUTO
 10
8104.3931379258229
 20
9254.5128762778913
 30
0.0
 11
7300.1737171688228
 21
9254.5128762778913
 31
0.0
  0
LINE
  5
80D9
  8
FUTO
 10
8081.0016529355071
 20
9236.5128762778895
 30
0.0
 11
7300.1737171688228
 21
9236.5128762778895
 31
0.0
  0
LINE
  5
80DA
  8
KL
 10
9094.0772216881651
 20
9209.3562990119299
 30
0.0
 11
8915.4556100185855
 21
9230.7094581141864
 31
0.0
  0
LINE
  5
80DB
  8
KL
 10
9091.9406405195241
 20
9191.4835538140069
 30
0.0
 11
8913.3190288499445
 21
9212.8367129162652
 31
0.0
  0
LINE
  5
81A6
  8
FUTO
 10
9719.2109359179576
 20
9134.8998085004205
 30
0.0
 11
9717.0743547493184
 21
9117.0270633024993
 31
0.0
  0
LINE
  5
81A7
  8
CT
 10
9718.1426453336371
 20
9125.9634359014599
 30
0.0
 11
8914.387319434265
 21
9221.7730855152258
 31
0.0
  0
LINE
  5
81A9
  8
FUTO
 10
7300.1737171688228
 20
9236.5128762778895
 30
0.0
 11
7300.1737171688228
 21
9254.5128762778913
 31
0.0
  0
LINE
  5
81E0
  8
FUTO
 10
12064.80805229531
 20
9125.9634359014599
 30
0.0
 11
13391.208052295309
 21
9125.9634359014599
 31
0.0
  0
LINE
  5
81E1
  8
FUTO
 10
13391.208052295309
 20
9106.9634359014599
 30
0.0
 11
13391.208052295309
 21
8225.5128762778913
 31
0.0
  0
LINE
  5
81E2
  8
FUTO
 10
13381.208052295309
 20
9134.9634359014599
 30
0.0
 11
13381.208052295309
 21
9116.9634359014599
 31
0.0
  0
LINE
  5
81E3
  8
FUTO
 10
12054.80805229531
 20
9106.9634359014617
 30
0.0
 11
12054.80805229531
 21
8225.5128762778913
 31
0.0
  0
LINE
  5
81E4
  8
FUTO
 10
12064.008052295319
 20
11008.51287627789
 30
0.0
 11
13382.00805229531
 21
11008.51287627789
 31
0.0
  0
LINE
  5
81F6
  8
FUTO
 10
12054.80805229531
 20
10943.51287627789
 30
0.0
 11
12064.008052295319
 21
10943.51287627789
 31
0.0
  0
LINE
  5
81F8
  8
FUTO
 10
12129.80805229531
 20
9287.5128762778913
 30
0.0
 11
13316.208052295309
 21
9287.5128762778913
 31
0.0
  0
LINE
  5
81F9
  8
FUTO
 10
12064.00805229529
 20
9222.5128762778913
 30
0.0
 11
13382.00805229531
 21
9222.5128762778913
 31
0.0
  0
LINE
  5
81FA
  8
FUTO
 10
13382.00805229531
 20
10943.51287627789
 30
0.0
 11
13391.208052295309
 21
10943.51287627789
 31
0.0
  0
LINE
  5
81FB
  8
FUTO
 10
12129.80805229531
 20
10943.51287627789
 30
0.0
 11
13316.208052295309
 21
10943.51287627789
 31
0.0
  0
LINE
  5
8200
  8
FUTO
 10
9760.8012616795877
 20
12960.87737030937
 30
0.0
 11
9760.8012616795877
 21
14278.877370309359
 31
0.0
  0
LINE
  5
8201
  8
FUTO
 10
9754.8012616795859
 20
12960.87737030937
 30
0.0
 11
9754.8012616795859
 21
14278.87737030937
 31
0.0
  0
LINE
  5
8202
  8
FUTO
 10
9695.8012616795859
 20
12960.87737030937
 30
0.0
 11
9695.8012616795895
 21
14278.87737030937
 31
0.0
  0
LINE
  5
8213
  8
FUTO
 10
7165.8012616795859
 20
13025.87737030937
 30
0.0
 11
7294.8012616795859
 21
13025.87737030937
 31
0.0
  0
DIMENSION
  5
8215
  8
SP
  2
*D16
 10
7165.8012616795822
 20
14655.808259287891
 30
0.0
 11
7940.801261679585
 21
14743.308259287891
 31
0.0
 70
     0
 13
8715.8012616795859
 23
14389.65528212623
 33
0.0
 14
7165.8012616795822
 24
13025.87737030937
 34
0.0
1001
ACAD
1000
DSTYLE
1002
{
1070
    40
1040
35.0
1070
    41
1040
2.5
1070
   147
1040
1.0
1002
}
  0
DIMENSION
  5
8222
  8
SP
  2
*D17
 10
9760.8012616795877
 20
14655.808259287891
 30
0.0
 11
9238.3012616795859
 21
14743.308259287891
 31
0.0
 70
     0
 13
8715.8012616795859
 23
14389.65528212623
 33
0.0
 14
9760.8012616795877
 24
14263.877370309359
 34
0.0
1001
ACAD
1000
DSTYLE
1002
{
1070
    40
1040
35.0
1070
    41
1040
2.5
1070
   147
1040
1.0
1002
}
  0
LINE
  5
8288
  8
FUTO
 10
9101.453134570309
 20
9137.5128762778913
 30
0.0
 11
9340.8012616795859
 21
8225.5128762778913
 31
0.0
  0
LINE
  5
8289
  8
KL
 10
8330.1493887888664
 20
9137.5128762778913
 30
0.0
 11
8183.1959198297009
 21
8577.5688094101097
 31
0.0
  0
LINE
  5
828A
  8
SL
 10
7383.3796069797691
 20
8589.2573741394353
 30
0.0
 11
8519.8554410724701
 21
9492.1507391185423
 31
0.0
  0
LINE
  5
828B
  8
SL
 10
7519.9751125384619
 20
8364.5937136810553
 30
0.0
 11
8844.5919259855946
 21
8958.0446784061678
 31
0.0
  0
LINE
  5
828C
  8
FUTO
 10
7331.6342238416237
 20
8659.8665569324367
 30
0.0
 11
8484.0581963231052
 21
9546.6692337721033
 31
0.0
  0
LINE
  5
828D
  8
FUTO
 10
7558.84872566586
 20
8286.1584947215215
 30
0.0
 11
8876.5196085649677
 21
8901.1734899532512
 31
0.0
  0
LINE
  5
828E
  8
FUTO
 10
8183.1959198297009
 20
8577.5688094101097
 30
0.0
 11
8090.801261679585
 21
8225.5128762778913
 31
0.0
  0
ARC
  5
828F
  8
FUTO
 10
8599.8012616795859
 20
9361.5128762778895
 30
0.0
 40
1273.0
 50
229.83109452099561
 51
243.17388312170061
  0
DIMENSION
  5
8291
  8
SP
  2
*D18
 10
10110.967652761459
 20
8075.5128762778904
 30
0.0
 11
10023.467652761459
 21
8660.5128762778932
 31
0.0
 70
     0
 13
10025.46409794695
 23
9245.5128762778895
 33
0.0
 14
9665.8012616795859
 24
8075.5128762778904
 34
0.0
 50
90.0
1001
ACAD
1000
DSTYLE
1002
{
1070
    40
1040
35.0
1070
    41
1040
2.5
1070
   147
1040
1.0
1002
}
  0
LINE
  5
82B5
  8
FUTO
 10
9695.8012616795859
 20
12960.87737030937
 30
0.0
 11
9760.8012616795877
 21
12960.87737030937
 31
0.0
  0
LINE
  5
82F2
  8
FUTO
 10
7165.8012616795859
 20
8042.516376277893
 30
0.0
 11
9665.8012616795859
 21
8042.516376277893
 31
0.0
  0
LINE
  5
82F3
  8
FUTO
 10
7165.8012616795859
 20
7918.5093762778924
 30
0.0
 11
9665.8012616795859
 21
7918.5093762778924
 31
0.0
  0
LINE
  5
82F4
  8
FUTO
 10
7165.8012616795859
 20
8055.5128762778932
 30
0.0
 11
9665.8012616795859
 21
8055.5128762778932
 31
0.0
  0
LINE
  5
82F5
  8
FUTO
 10
7165.8012616795859
 20
7905.5128762778922
 30
0.0
 11
9665.8012616795859
 21
7905.5128762778922
 31
0.0
  0
LINE
  5
82F7
  8
FUTO
 10
7165.8012616795859
 20
8055.5128762778932
 30
0.0
 11
7165.8012616795859
 21
7905.5128762778922
 31
0.0
  0
LINE
  5
8306
  8
FUTO
 10
9340.8012616795859
 20
8055.5128762778932
 30
0.0
 11
9340.8012616795859
 21
7905.5128762778922
 31
0.0
  0
LINE
  5
8307
  8
FUTO
 10
9340.8012616795859
 20
8063.3404233368319
 30
0.0
 11
9340.8012616795859
 21
8055.5128762778932
 31
0.0
  0
LINE
  5
8308
  8
FUTO
 10
9665.8012616795859
 20
8055.5128762778932
 30
0.0
 11
9665.8012616795859
 21
7905.5128762778922
 31
0.0
  0
LINE
  5
8309
  8
CT
 10
9477.3999534195973
 20
8116.6335829300333
 30
0.0
 11
9477.3999534195973
 21
8007.7581057124353
 31
0.0
  0
LINE
  5
830A
  8
FUTO
 10
9437.3999534195973
 20
8075.5128762778904
 30
0.0
 11
9437.3999534195973
 21
8055.5128762778932
 31
0.0
  0
LINE
  5
830B
  8
FUTO
 10
9517.3999534195955
 20
8075.5128762778922
 30
0.0
 11
9517.3999534195955
 21
8055.5128762778932
 31
0.0
  0
INSERT
  5
8319
  8
FUTO
  6
CONTINUOUS
  2
*U19
 10
0.0
 20
0.0
 30
0.0
1001
ACAD
1002
{
1000
R14_HATCH_DATA
1000
8319
1011
1.0
1021
0.0
1031
0.0
1021
0.0
1031
0.0
1011
0.0
1021
0.0
1031
0.0
1021
1.0
1031
0.0
1011
0.0
1021
0.0
1031
0.0
1021
0.0
1031
1.0
1040
0.0
1010
0.0
1020
0.0
1030
1.0
1000
SOLID
1070
     1
1070
     0
1071
        2
1071
        7
1070
     0
1070
     1
1071
        4
1040
9477.3999534195973
1040
8075.5128762778904
1040
9437.3999534195973
1040
8075.5128762778904
1040
9437.3999534195973
1040
8055.5128762778932
1040
9477.3999534195973
1040
8055.5128762778932
1071
        0
1071
        7
1070
     0
1070
     1
1071
        4
1040
9517.3999534195955
1040
8075.5128762778904
1040
9477.3999534195973
1040
8075.5128762778922
1040
9477.3999534195973
1040
8055.5128762778932
1040
9517.3999534195955
1040
8055.5128762778932
1071
        0
1070
     0
1070
     1
1040
0.8676015142138597
1071
        2
1040
9452.9552385644492
1040
8064.0784873650027
1040
0.0
1040
9501.5762224150385
1040
8064.0784873650027
1040
0.0
1002
}
  0
LINE
  5
8338
  8
SP
 10
9700.8012616795859
 20
8055.5128762778932
 30
0.0
 11
10145.967652761459
 21
8055.5128762778932
 31
0.0
  0
LINE
  5
8339
  8
SP
 10
9700.8012616795859
 20
7905.5128762778922
 30
0.0
 11
10145.967652761459
 21
7905.5128762778922
 31
0.0
  0
LINE
  5
833A
  8
SP
 10
10110.967652761459
 20
8143.0128762778913
 30
0.0
 11
10110.967652761459
 21
8230.5128762778913
 31
0.0
  0
LINE
  5
833B
  8
SP
 10
10110.967652761459
 20
7818.0128762778922
 30
0.0
 11
10110.967652761459
 21
7415.5128762778913
 31
0.0
  0
LINE
  5
833C
  8
SP
 10
10110.967652761459
 20
8055.5128762778932
 30
0.0
 11
10110.967652761459
 21
7905.5128762778922
 31
0.0
  0
INSERT
  5
833E
  8
SP
  2
_OPEN
 10
10110.967652761459
 20
7905.5128762778922
 30
0.0
 41
87.5
 42
87.5
 43
87.5
 50
90.0
  0
TEXT
  5
833F
  8
FUTO
 10
10075.967652761459
 20
7427.7371949212456
 30
0.0
 40
105.0
  1
150
 50
90.0
 51
15.0
  0
LINE
  5
8340
  8
SP
 10
9700.8012616795859
 20
8075.5128762778904
 30
0.0
 11
10145.967652761459
 21
8075.5128762778904
 31
0.0
  0
LINE
  5
8341
  8
SP
 10
9700.8012616795859
 20
8055.5128762778932
 30
0.0
 11
10145.967652761459
 21
8055.5128762778932
 31
0.0
  0
LINE
  5
8342
  8
SP
 10
10110.967652761459
 20
8163.0128762778913
 30
0.0
 11
10110.967652761459
 21
8250.5128762778913
 31
0.0
  0
LINE
  5
8343
  8
SP
 10
10110.967652761459
 20
7968.0128762778922
 30
0.0
 11
10110.967652761459
 21
7622.7371949212466
 31
0.0
  0
LINE
  5
8344
  8
SP
 10
10110.967652761459
 20
8075.5128762778904
 30
0.0
 11
10110.967652761459
 21
8055.5128762778932
 31
0.0
  0
INSERT
  5
8345
  8
SP
  2
_OPEN
 10
10110.967652761459
 20
8075.5128762778904
 30
0.0
 41
87.5
 42
87.5
 43
87.5
 50
270.0
  0
TEXT
  5
8347
  8
FUTO
 10
10309.287008959451
 20
7959.7725316916658
 30
0.0
 40
105.0
  1
20
 50
90.0
 51
15.0
  0
CIRCLE
  5
8353
  8
SP
 10
10110.967652761459
 20
8055.5128762778932
 30
0.0
 40
12.90583595775251
  0
INSERT
  5
8364
  8
SP
  6
CONTINUOUS
  2
*U20
 10
0.0
 20
0.0
 30
0.0
1001
ACAD
1002
{
1000
R14_HATCH_DATA
1000
8364
1011
1.0
1021
0.0
1031
0.0
1021
0.0
1031
0.0
1011
0.0
1021
0.0
1031
0.0
1021
1.0
1031
0.0
1011
0.0
1021
0.0
1031
0.0
1021
0.0
1031
1.0
1040
0.0
1010
0.0
1020
0.0
1030
1.0
1000
SOLID
1070
     1
1070
     0
1071
        4
1071
        7
1070
     1
1070
     1
1071
        3
1040
10110.967652761459
1040
8068.4187122356452
1040
0.4142135623730951
1040
10098.061816803711
1040
8055.5128762778932
1040
0.0
1040
10110.967652761459
1040
8055.5128762778932
1040
0.0
1071
        0
1071
        7
1070
     1
1070
     1
1071
        3
1040
10110.967652761459
1040
8068.4187122356452
1040
0.0
1040
10110.967652761459
1040
8055.5128762778932
1040
0.0
1040
10123.873488719209
1040
8055.5128762778932
1040
0.4142135623731002
1071
        0
1071
        7
1070
     1
1070
     1
1071
        3
1040
10123.873488719209
1040
8055.5128762778932
1040
0.0
1040
10110.967652761459
1040
8055.5128762778932
1040
0.0
1040
10110.967652761459
1040
8042.6070403201402
1040
0.4142135623730951
1071
        0
1071
        7
1070
     1
1070
     1
1071
        3
1040
10110.967652761459
1040
8055.5128762778932
1040
0.0
1040
10098.061816803711
1040
8055.5128762778932
1040
0.4142135623730848
1040
10110.967652761459
1040
8042.6070403201402
1040
0.0
1071
        0
1070
     0
1070
     1
1040
0.4926913586508424
1071
        4
1040
10105.630671867961
1040
8061.7332588630979
1040
0.0
1040
10120.915184974259
1040
8060.2551923333403
1040
0.0
1040
10120.915184974259
1040
8051.3867419101316
1040
0.0
1040
10108.095924988749
1040
8050.8940416791784
1040
0.0
1002
}
  0
LINE
  5
8366
  8
FUTO
 10
13317.00805229531
 20
8042.516376277893
 30
0.0
 11
11167.00805229531
 21
8042.516376277893
 31
0.0
  0
LINE
  5
8367
  8
FUTO
 10
13317.00805229531
 20
7918.5093762778924
 30
0.0
 11
11167.00805229531
 21
7918.5093762778924
 31
0.0
  0
LINE
  5
8368
  8
FUTO
 10
13317.00805229531
 20
7905.5128762778922
 30
0.0
 11
11167.00805229531
 21
7905.5128762778922
 31
0.0
  0
LINE
  5
8369
  8
FUTO
 10
13317.00805229531
 20
8055.5128762778932
 30
0.0
 11
11167.00805229531
 21
8055.5128762778932
 31
0.0
  0
LINE
  5
836B
  8
FUTO
 10
11156.856675266299
 20
7918.1899089073568
 30
0.0
 11
11095.65942932432
 21
7912.835843648425
 31
0.0
  0
LINE
  5
836C
  8
FUTO
 10
11167.00805229531
 20
7905.5128762778922
 30
0.0
 11
11092.00805229531
 21
7905.5128762778913
 31
0.0
  0
LINE
  5
836D
  8
FUTO
 10
11156.856675266299
 20
8042.8358436484241
 30
0.0
 11
11095.65942932432
 21
8048.1899089073568
 31
0.0
  0
LINE
  5
836E
  8
FUTO
 10
11167.00805229531
 20
8055.5128762778932
 30
0.0
 11
11092.00805229531
 21
8055.5128762778932
 31
0.0
  0
ARC
  5
836F
  8
FUTO
 10
11096.00805229531
 20
7908.8510648560577
 30
0.0
 40
4.0
 50
95.000000000000554
 51
179.9999999999921
  0
LINE
  5
8370
  8
FUTO
 10
11092.00805229531
 20
7905.5128762778913
 30
0.0
 11
11092.00805229531
 21
7908.8510648560577
 31
0.0
  0
ARC
  5
8371
  8
FUTO
 10
11096.00805229531
 20
8052.1746876997231
 30
0.0
 40
4.0
 50
180.00000000000779
 51
264.99999999999949
  0
LINE
  5
8372
  8
FUTO
 10
11092.00805229531
 20
8055.5128762778932
 30
0.0
 11
11092.00805229531
 21
8052.1746876997231
 31
0.0
  0
LINE
  5
8373
  8
FUTO
 10
11167.00805229531
 20
7905.5128762778922
 30
0.0
 11
11167.00805229531
 21
8055.5128762778932
 31
0.0
  0
LINE
  5
8374
  8
FUTO
 10
11160.50805229531
 20
7922.174687699724
 30
0.0
 11
11160.50805229531
 21
8038.8510648560587
 31
0.0
  0
ARC
  5
8375
  8
FUTO
 10
11156.50805229531
 20
7922.174687699724
 30
0.0
 40
4.0
 50
275.0
 51
0.0
  0
ARC
  5
8378
  8
FUTO
 10
11156.50805229531
 20
8038.8510648560587
 30
0.0
 40
4.0
 50
0.0
 51
84.999999999999943
  0
LINE
  5
8387
  8
FUTO
 10
13317.00805229531
 20
8055.5128762778932
 30
0.0
 11
13317.00805229531
 21
7905.5128762778922
 31
0.0
  0
LINE
  5
8388
  8
FUTO
 10
13323.50805229531
 20
8038.8510648560587
 30
0.0
 11
13323.50805229531
 21
7922.174687699724
 31
0.0
  0
LINE
  5
8389
  8
FUTO
 10
13317.00805229531
 20
7905.5128762778922
 30
0.0
 11
13392.00805229531
 21
7905.5128762778922
 31
0.0
  0
ARC
  5
838B
  8
FUTO
 10
13388.00805229531
 20
7908.8510648560577
 30
0.0
 40
4.0
 50
0.0000000000078369
 51
84.999999999999503
  0
LINE
  5
838C
  8
FUTO
 10
13392.00805229531
 20
7905.5128762778913
 30
0.0
 11
13392.00805229531
 21
7908.8510648560577
 31
0.0
  0
ARC
  5
838D
  8
FUTO
 10
13327.50805229531
 20
7922.174687699724
 30
0.0
 40
4.0
 50
180.0
 51
264.99999999999989
  0
LINE
  5
838E
  8
FUTO
 10
13327.15942932432
 20
7918.1899089073568
 30
0.0
 11
13388.356675266299
 21
7912.835843648425
 31
0.0
  0
LINE
  5
838F
  8
FUTO
 10
13317.00805229531
 20
8055.5128762778932
 30
0.0
 11
13392.00805229531
 21
8055.5128762778932
 31
0.0
  0
ARC
  5
8390
  8
FUTO
 10
13388.00805229531
 20
8052.1746876997231
 30
0.0
 40
4.0
 50
275.00000000000051
 51
359.9999999999921
  0
LINE
  5
8391
  8
FUTO
 10
13392.00805229531
 20
8055.5128762778932
 30
0.0
 11
13392.00805229531
 21
8052.1746876997231
 31
0.0
  0
ARC
  5
8392
  8
FUTO
 10
13327.50805229531
 20
8038.8510648560587
 30
0.0
 40
4.0
 50
95.000000000000057
 51
180.0
  0
LINE
  5
8393
  8
FUTO
 10
13327.15942932432
 20
8042.8358436484241
 30
0.0
 11
13388.356675266299
 21
8048.1899089073568
 31
0.0
  0
TEXT
  5
8D61
  8
SP
 10
14725.3203670926
 20
9684.4802538121257
 30
0.0
 40
100.0
  1
 
  0
LINE
  5
8D62
  8
4
 10
13826.570798119439
 20
6083.4270265235864
 30
0.0
 11
13826.570798119439
 21
5083.4270265235864
 31
0.0
  0
LINE
  5
8D63
  8
4
 10
10326.570798119439
 20
6083.4270265235864
 30
0.0
 11
10326.570798119439
 21
5083.4270265235864
 31
0.0
  0
LINE
  5
8D64
  8
4
 10
7826.5707981194419
 20
6083.4270265235864
 30
0.0
 11
7826.5707981194419
 21
5083.4270265235864
 31
0.0
  0
LINE
  5
8D67
  8
4
 10
7826.5707981194419
 20
5083.4270265235864
 30
0.0
 11
13826.570798119439
 21
5083.4270265235864
 31
0.0
  0
LINE
  5
8D68
  8
4
 10
7826.5707981194419
 20
5583.4270265235864
 30
0.0
 11
13826.570798119439
 21
5583.4270265235864
 31
0.0
  0
TEXT
  5
8D69
  8
4
 10
8019.081202353962
 20
5741.1421558566526
 30
0.0
 40
250.0
  1
機器名称
  0
TEXT
  5
8D6A
  8
4
 10
8007.8613282434371
 20
5191.6528101836402
 30
0.0
 40
250.0
  1
機器型番
  0
TEXT
  5
8D6B
  8
4
 10
10350.53610662465
 20
5694.3635383083229
 30
0.0
 40
225.0
  1
ミツヤリミットロードファン
  0
TEXT
  5
8D6C
  8
4
 10
10509.843276046849
 20
5169.2249479233033
 30
0.0
 40
250.0
  1
LL#10-1
  0
TEXT
  5
8D6E
  8
4
 10
8589.669589668556
 20
15500.57123318616
 30
0.0
 40
270.0
  1
床置防振ベット
  0
TEXT
  5
8D6F
  8
4
 10
6157.4087647666747
 20
16252.831907520071
 30
0.0
 40
360.0
  1
遠心式片吸込片持リミットロードファン
  0
LINE
  5
8D70
  8
4
 10
5826.5707981194428
 20
15930.4707978476
 30
0.0
 11
13826.570798119439
 21
15930.4707978476
 31
0.0
  0
LINE
  5
8D71
  8
4
 10
5826.5707981194428
 20
16930.470797847611
 30
0.0
 11
13826.570798119439
 21
16930.470797847611
 31
0.0
  0
LINE
  5
8D72
  8
4
 10
7826.5707981194419
 20
6083.4270265235864
 30
0.0
 11
13826.570798119439
 21
6083.4270265235864
 31
0.0
  0
LINE
  5
8D73
  8
4
 10
5826.5707981194428
 20
16930.470797847611
 30
0.0
 11
5826.5707981194428
 21
15930.4707978476
 31
0.0
  0
TEXT
  5
8D74
  8
4
 10
6272.4383788748091
 20
15495.0244142553
 30
0.0
 40
270.0
  1
右回転右横向
  0
TEXT
  5
8D75
  8
4
 10
11921.41859436589
 20
17113.732434000129
 30
0.0
 40
280.0
  1
No.
  0
TEXT
  5
8D76
  8
4
 10
11988.350021376211
 20
15004.30639017596
 30
0.0
 40
270.0
  1
縮尺：1/50
  0
LINE
  5
8D77
  8
4
 10
13826.570798119439
 20
16930.470797847611
 30
0.0
 11
13826.570798119439
 21
15930.4707978476
 31
0.0
  0
LINE
  5
8D78
  8
4
 10
15076.570798119439
 20
18333.427026523579
 30
0.0
 11
15076.570798119439
 21
18333.427026523579
 31
0.0
  0
LINE
  5
8D79
  8
4
 10
11779.65790991876
 20
16989.744942150592
 30
0.0
 11
11779.65790991876
 21
17516.688334272349
 31
0.0
  0
LINE
  5
8D7A
  8
4
 10
11779.65790991876
 20
17516.688334272349
 30
0.0
 11
13826.570798119439
 21
17516.688334272349
 31
0.0
  0
LINE
  5
8D7B
  8
4
 10
13826.570798119439
 20
17516.688334272349
 30
0.0
 11
13826.570798119439
 21
16989.744942150592
 31
0.0
  0
LINE
  5
8D7C
  8
4
 10
13826.570798119439
 20
16989.744942150592
 30
0.0
 11
11779.65790991876
 21
16989.744942150592
 31
0.0
  0
LINE
  5
8D7D
  8
4
 10
4576.5707981194428
 20
3583.427026523585
 30
0.0
 11
4576.5707981194428
 21
18333.427026523579
 31
0.0
  0
LINE
  5
8D7E
  8
4
 10
4576.5707981194428
 20
18333.427026523579
 30
0.0
 11
15076.570798119439
 21
18333.427026523579
 31
0.0
  0
LINE
  5
8D7F
  8
4
 10
15076.570798119439
 20
18333.427026523579
 30
0.0
 11
15076.570798119439
 21
3583.427026523585
 31
0.0
  0
LINE
  5
8D80
  8
4
 10
15076.570798119439
 20
3583.427026523585
 30
0.0
 11
4576.5707981194428
 21
3583.427026523585
 31
0.0
  0
ENDSEC
  0
EOF
