  0
SECTION
  2
HEADER
  9
$ACADVER
  1
AC1009
  9
$INSBASE
 10
0.0
 20
0.0
 30
0.0
  9
$EXTMIN
 10
1824.8023622541109
 20
2126.097537429469
 30
0.0
  9
$EXTMAX
 10
12324.80236225411
 20
16876.097537429469
 30
0.0
  9
$LIMMIN
 10
0.0
 20
0.0
  9
$LIMMAX
 10
297.0
 20
210.0
  9
$ORTHOMODE
 70
     0
  9
$REGENMODE
 70
     1
  9
$FILLMODE
 70
     1
  9
$QTEXTMODE
 70
     0
  9
$MIRRTEXT
 70
     0
  9
$DRAGMODE
 70
     2
  9
$LTSCALE
 40
175.0
  9
$OSMODE
 70
    37
  9
$ATTMODE
 70
     1
  9
$TEXTSIZE
 40
150.0
  9
$TRACEWID
 40
0.05
  9
$TEXTSTYLE
  7
STANDARD
  9
$CLAYER
  8
FUTO
  9
$CELTYPE
  6
BYLAYER
  9
$CECOLOR
 62
   256
  9
$DIMSCALE
 40
35.0
  9
$DIMASZ
 40
2.5
  9
$DIMEXO
 40
1.0
  9
$DIMDLI
 40
10.0
  9
$DIMRND
 40
0.0
  9
$DIMDLE
 40
0.0
  9
$DIMEXE
 40
1.0
  9
$DIMTP
 40
0.0
  9
$DIMTM
 40
0.0
  9
$DIMTXT
 40
3.0
  9
$DIMCEN
 40
0.0
  9
$DIMTSZ
 40
0.0
  9
$DIMTOL
 70
     0
  9
$DIMLIM
 70
     0
  9
$DIMTIH
 70
     0
  9
$DIMTOH
 70
     0
  9
$DIMSE1
 70
     0
  9
$DIMSE2
 70
     0
  9
$DIMTAD
 70
     1
  9
$DIMZIN
 70
     8
  9
$DIMBLK
  1

  9
$DIMASO
 70
     1
  9
$DIMSHO
 70
     1
  9
$DIMPOST
  1

  9
$DIMAPOST
  1

  9
$DIMALT
 70
     0
  9
$DIMALTD
 70
     2
  9
$DIMALTF
 40
0.03937
  9
$DIMLFAC
 40
1.0
  9
$DIMTOFL
 70
     1
  9
$DIMTVP
 40
0.0
  9
$DIMTIX
 70
     0
  9
$DIMSOXD
 70
     0
  9
$DIMSAH
 70
     1
  9
$DIMBLK1
  1
OPEN
  9
$DIMBLK2
  1
OPEN
  9
$DIMSTYLE
  2
MATSU
  9
$DIMCLRD
 70
   256
  9
$DIMCLRE
 70
   256
  9
$DIMCLRT
 70
   256
  9
$DIMTFAC
 40
1.0
  9
$DIMGAP
 40
1.0
  9
$LUNITS
 70
     2
  9
$LUPREC
 70
     4
  9
$SKETCHINC
 40
0.1
  9
$FILLETRAD
 40
30.0
  9
$AUNITS
 70
     0
  9
$AUPREC
 70
     2
  9
$MENU
  1
acad
  9
$ELEVATION
 40
0.0
  9
$PELEVATION
 40
0.0
  9
$THICKNESS
 40
0.0
  9
$LIMCHECK
 70
     0
  9
$BLIPMODE
 70
     0
  9
$CHAMFERA
 40
8.0
  9
$CHAMFERB
 40
8.0
  9
$SKPOLY
 70
     0
  9
$TDCREATE
 40
2453957.375965347
  9
$TDUPDATE
 40
2454953.6496634372
  9
$TDINDWG
 40
0.208121169
  9
$TDUSRTIMER
 40
0.208121169
  9
$USRTIMER
 70
     1
  9
$ANGBASE
 50
0.0
  9
$ANGDIR
 70
     0
  9
$PDMODE
 70
     0
  9
$PDSIZE
 40
1.0
  9
$PLINEWID
 40
0.0
  9
$COORDS
 70
     1
  9
$SPLFRAME
 70
     0
  9
$SPLINETYPE
 70
     6
  9
$SPLINESEGS
 70
     8
  9
$ATTDIA
 70
     0
  9
$ATTREQ
 70
     1
  9
$HANDLING
 70
 10241
  9
$HANDSEED
  5
9296
  9
$SURFTAB1
 70
     6
  9
$SURFTAB2
 70
     6
  9
$SURFTYPE
 70
     6
  9
$SURFU
 70
     6
  9
$SURFV
 70
     6
  9
$UCSNAME
  2

  9
$UCSORG
 10
0.0
 20
-0.0000000000000142
 30
0.0
  9
$UCSXDIR
 10
1.0
 20
0.0
 30
0.0
  9
$UCSYDIR
 10
0.0
 20
1.0
 30
0.0
  9
$PUCSNAME
  2

  9
$PUCSORG
 10
0.0
 20
0.0
 30
0.0
  9
$PUCSXDIR
 10
1.0
 20
0.0
 30
0.0
  9
$PUCSYDIR
 10
0.0
 20
1.0
 30
0.0
  9
$USERI1
 70
     0
  9
$USERI2
 70
     0
  9
$USERI3
 70
     0
  9
$USERI4
 70
     0
  9
$USERI5
 70
     0
  9
$USERR1
 40
0.0
  9
$USERR2
 40
0.0
  9
$USERR3
 40
0.0
  9
$USERR4
 40
0.0
  9
$USERR5
 40
0.0
  9
$WORLDVIEW
 70
     1
  9
$SHADEDGE
 70
     3
  9
$SHADEDIF
 70
    70
  9
$TILEMODE
 70
     1
  9
$MAXACTVP
 70
    16
  9
$PLIMCHECK
 70
     0
  9
$PEXTMIN
 10
1.0000000000000000E+020
 20
1.0000000000000000E+020
 30
1.0000000000000000E+020
  9
$PEXTMAX
 10
-1.0000000000000000E+020
 20
-1.0000000000000000E+020
 30
-1.0000000000000000E+020
  9
$PLIMMIN
 10
0.0
 20
0.0
  9
$PLIMMAX
 10
12.0
 20
9.0
  9
$UNITMODE
 70
     0
  9
$VISRETAIN
 70
     0
  9
$PLINEGEN
 70
     0
  9
$PSLTSCALE
 70
     0
  0
ENDSEC
  0
SECTION
  2
TABLES
  0
TABLE
  2
VPORT
 70
     2
  0
VPORT
  2
*ACTIVE
 70
     0
 10
0.0
 20
0.0
 11
1.0
 21
1.0
 12
11536.29592905828
 22
3734.3981568435811
 13
0.0
 23
0.0
 14
5.0
 24
5.0
 15
0.0
 25
0.0
 16
0.0
 26
0.0
 36
1.0
 17
0.0
 27
0.0
 37
0.0
 40
4309.4066241226628
 41
3.1666666666666661
 42
50.0
 43
0.0
 44
0.0
 50
0.0
 51
0.0
 71
     0
 72
   100
 73
     1
 74
     0
 75
     0
 76
     0
 77
     0
 78
     0
  0
ENDTAB
  0
TABLE
  2
LTYPE
 70
     4
  0
LTYPE
  2
CONTINUOUS
 70
     0
  3
Solid line
 72
    65
 73
     0
 40
0.0
  0
LTYPE
  2
CENTER
 70
     0
  3
____ _ ____ _ ____ _ ____ _ ____ _ ____ _ ____ 
 72
    65
 73
     4
 40
2.0
 49
1.25
 49
-0.25
 49
0.25
 49
-0.25
  0
LTYPE
  2
HIDDEN
 70
     0
  3
__ __ __ __ __ __ __ __ __ __ __ __ __ __ __ __
 72
    65
 73
     2
 40
0.375
 49
0.25
 49
-0.125
  0
LTYPE
  2
PHANTOM
 70
     0
  3
______  __  __  ______  __  __  ______  __  __ 
 72
    65
 73
     6
 40
2.5
 49
1.25
 49
-0.25
 49
0.25
 49
-0.25
 49
0.25
 49
-0.25
  0
ENDTAB
  0
TABLE
  2
LAYER
 70
     9
  0
LAYER
  2
0
 70
     0
 62
     7
  6
CONTINUOUS
  0
LAYER
  2
CT
 70
     0
 62
     3
  6
CENTER
  0
LAYER
  2
FUTO
 70
     0
 62
     4
  6
CONTINUOUS
  0
LAYER
  2
HOSO
 70
     0
 62
     7
  6
CONTINUOUS
  0
LAYER
  2
KL
 70
     0
 62
     7
  6
HIDDEN
  0
LAYER
  2
SL
 70
     0
 62
     1
  6
PHANTOM
  0
LAYER
  2
SP
 70
     0
 62
     2
  6
CONTINUOUS
  0
LAYER
  2
DEFPOINTS
 70
     0
 62
     7
  6
CONTINUOUS
  0
LAYER
  2
4
 70
     0
 62
     7
  6
CONTINUOUS
  0
ENDTAB
  0
TABLE
  2
STYLE
 70
     1
  0
STYLE
  2
STANDARD
 70
     0
 40
0.0
 41
1.0
 50
15.0
 71
     0
 42
150.0
  3
C:\Program Files\AutoCAD LT\simplex.shx
  4
extfont.shx
  0
ENDTAB
  0
TABLE
  2
VIEW
 70
     0
  0
ENDTAB
  0
TABLE
  2
UCS
 70
     0
  0
ENDTAB
  0
TABLE
  2
APPID
 70
     1
  0
APPID
  2
ACAD
 70
     0
  0
ENDTAB
  0
TABLE
  2
DIMSTYLE
 70
     2
  0
DIMSTYLE
  2
STANDARD
 70
     0
  3

  4

  5

  6

  7

 40
1.0
 41
0.18
 42
0.0625
 43
0.38
 44
0.18
 45
0.0
 46
0.0
 47
0.0
 48
0.0
140
0.18
141
0.09
142
0.0
143
25.399999999999999
144
1.0
145
0.0
146
1.0
147
0.09
 71
     0
 72
     0
 73
     1
 74
     1
 75
     0
 76
     0
 77
     0
 78
     0
170
     0
171
     2
172
     0
173
     0
174
     0
175
     0
176
     0
177
     0
178
     0
  0
DIMSTYLE
  2
MATSU
 70
     0
  3

  4

  5

  6
OPEN
  7
OPEN
 40
1.0
 41
2.0
 42
1.0
 43
10.0
 44
1.0
 45
0.0
 46
0.0
 47
0.0
 48
0.0
140
3.0
141
0.0
142
0.0
143
0.03937
144
1.0
145
0.0
146
1.0
147
0.5
 71
     0
 72
     0
 73
     0
 74
     0
 75
     0
 76
     0
 77
     1
 78
     8
170
     0
171
     2
172
     1
173
     1
174
     0
175
     0
176
   256
177
   256
178
   256
  0
ENDTAB
  0
ENDSEC
  0
SECTION
  2
BLOCKS
  0
BLOCK
  8
0
  2
$MODEL_SPACE
 70
     0
 10
0.0
 20
0.0
 30
0.0
  3
$MODEL_SPACE
  1

  0
ENDBLK
  5
1B
  8
0
  0
BLOCK
 67
     1
  8
0
  2
$PAPER_SPACE
 70
     0
 10
0.0
 20
0.0
 30
0.0
  3
$PAPER_SPACE
  1

  0
ENDBLK
  5
18
 67
     1
  8
0
  0
BLOCK
  8
0
  2
_OPEN
 70
     0
 10
0.0
 20
0.0
 30
0.0
  3
_OPEN
  1

  0
LINE
  5
28
  8
0
  6
BYBLOCK
 62
     0
 10
-1.0
 20
0.1666666666666666
 30
0.0
 11
0.0
 21
0.0
 31
0.0
  0
LINE
  5
29
  8
0
  6
BYBLOCK
 62
     0
 10
0.0
 20
0.0
 30
0.0
 11
-1.0
 21
-0.1666666666666666
 31
0.0
  0
LINE
  5
2A
  8
0
  6
BYBLOCK
 62
     0
 10
0.0
 20
0.0
 30
0.0
 11
-1.0
 21
0.0
 31
0.0
  0
ENDBLK
  5
2B
  8
0
  0
BLOCK
  8
0
  2
まっすぐの矢印
 70
     0
 10
0.0
 20
0.0
 30
0.0
  3
まっすぐの矢印
  1

  0
LINE
  5
56E2
  8
SP
 10
0.6962157491662495
 20
-2.216890595009601
 30
0.0
 11
0.6962157491662495
 21
-5.0
 31
0.0
  0
LINE
  5
56E3
  8
SP
 10
0.6962157491662495
 20
-5.0
 30
0.0
 11
-0.6962157491662495
 21
-5.0
 31
0.0
  0
LINE
  5
56E4
  8
SP
 10
-0.6962157491662495
 20
-5.0
 30
0.0
 11
-0.6962157491662495
 21
-2.216890595009601
 31
0.0
  0
LINE
  5
56E5
  8
SP
 10
-0.6962157491662495
 20
-2.216890595009601
 30
0.0
 11
-1.7145256852758151
 21
-2.216890595009601
 31
0.0
  0
LINE
  5
56E6
  8
SP
 10
-1.7145256852758151
 20
-2.216890595009601
 30
0.0
 11
0.0
 21
0.0
 31
0.0
  0
LINE
  5
56E7
  8
SP
 10
0.0
 20
0.0
 30
0.0
 11
1.7145256852758151
 21
-2.216890595009601
 31
0.0
  0
LINE
  5
56E8
  8
SP
 10
1.7145256852758151
 20
-2.216890595009601
 30
0.0
 11
0.6962157491662495
 21
-2.216890595009601
 31
0.0
  0
ENDBLK
  5
56EA
  8
0
  0
BLOCK
  8
0
  2
右回転矢印
 70
     0
 10
0.0
 20
0.0
 30
0.0
  3
右回転矢印
  1

  0
LINE
  5
56EC
  8
SP
 10
-2.7705290305565882
 20
1.567794835092901
 30
0.0
 11
-2.4288000558398148
 21
2.8051227455822878
 31
0.0
  0
LINE
  5
56ED
  8
SP
 10
-2.4288000558398148
 20
2.8051227455822878
 30
0.0
 11
0.0
 21
0.0
 31
0.0
  0
LINE
  5
56EE
  8
SP
 10
0.0
 20
0.0
 30
0.0
 11
-3.3160037613098718
 21
-0.4072531086382499
 31
0.0
  0
LINE
  5
56EF
  8
SP
 10
-3.3160037613098718
 20
-0.4072531086382499
 30
0.0
 11
-3.0391574735299112
 21
0.5951483970269315
 31
0.0
  0
ARC
  5
56F0
  8
SP
 10
-5.9215210782018062
 20
-9.8412769578768184
 30
0.0
 40
10.82714154973578
 50
74.560750721316467
 51
112.11861101078711
  0
LINE
  5
56F1
  8
SP
 10
-9.9982127316752951
 20
0.1890560027239694
 30
0.0
 11
-10.37814929817227
 21
1.1238557349100611
 31
0.0
  0
ARC
  5
56F2
  8
SP
 10
-5.9215210782018062
 20
-9.8412769578768291
 30
0.0
 40
11.83620167374065
 50
74.560750721316396
 51
112.11861101078701
  0
ENDBLK
  5
56F4
  8
0
  0
BLOCK
  8
0
  2
*D3
 70
     1
 10
0.0
 20
0.0
 30
0.0
  3
*D3
  1

  0
LINE
  5
9204
  8
SP
 10
6718.991138061785
 20
6318.0759801362528
 30
0.0
 11
6718.991138061785
 21
6067.5636699531487
 31
0.0
  0
LINE
  5
9205
  8
SP
 10
5768.991138061785
 20
6318.0759801362528
 30
0.0
 11
5768.991138061785
 21
6067.5636699531487
 31
0.0
  0
LINE
  5
9206
  8
SP
 10
6631.4911380617859
 20
6102.5636699531487
 30
0.0
 11
5856.491138061785
 21
6102.5636699531487
 31
0.0
  0
INSERT
  5
9207
  8
SP
  2
_OPEN
 10
6718.991138061785
 20
6102.5636699531487
 30
0.0
 41
87.5
 42
87.5
 43
87.5
  0
INSERT
  5
9208
  8
SP
  2
_OPEN
 10
5768.991138061785
 20
6102.5636699531487
 30
0.0
 41
87.5
 42
87.5
 43
87.5
 50
180.0
  0
TEXT
  5
9209
  8
FUTO
 10
6095.5936784402302
 20
6137.5636699531487
 30
0.0
 40
105.0
  1
950
 51
15.0
  0
POINT
  5
920A
  8
DEFPOINTS
 62
     0
 10
6718.991138061785
 20
6353.0759801362528
 30
0.0
  0
POINT
  5
920B
  8
DEFPOINTS
 62
     0
 10
5768.991138061785
 20
6353.0759801362528
 30
0.0
  0
POINT
  5
920C
  8
DEFPOINTS
 62
     0
 10
5768.991138061785
 20
6102.5636699531487
 30
0.0
  0
ENDBLK
  5
6A60
  8
0
  0
BLOCK
  8
0
  2
*D4
 70
     1
 10
0.0
 20
0.0
 30
0.0
  3
*D4
  1

  0
LINE
  5
91F2
  8
SP
 10
5768.991138061785
 20
6318.0759801362528
 30
0.0
 11
5768.991138061785
 21
6067.5636699531487
 31
0.0
  0
LINE
  5
91F3
  8
SP
 10
4218.991138061785
 20
6318.0759801362528
 30
0.0
 11
4218.991138061785
 21
6067.5636699531487
 31
0.0
  0
LINE
  5
91F4
  8
SP
 10
5681.491138061785
 20
6102.5636699531487
 30
0.0
 11
4306.491138061785
 21
6102.5636699531487
 31
0.0
  0
INSERT
  5
91F5
  8
SP
  2
_OPEN
 10
5768.991138061785
 20
6102.5636699531487
 30
0.0
 41
87.5
 42
87.5
 43
87.5
  0
INSERT
  5
91F6
  8
SP
  2
_OPEN
 10
4218.991138061785
 20
6102.5636699531487
 30
0.0
 41
87.5
 42
87.5
 43
87.5
 50
180.0
  0
TEXT
  5
91F7
  8
FUTO
 10
4798.7154567051393
 20
6137.5636699531487
 30
0.0
 40
105.0
  1
1550
 51
15.0
  0
POINT
  5
91F8
  8
DEFPOINTS
 62
     0
 10
5768.991138061785
 20
6353.0759801362528
 30
0.0
  0
POINT
  5
91F9
  8
DEFPOINTS
 62
     0
 10
4218.991138061785
 20
6353.0759801362528
 30
0.0
  0
POINT
  5
91FA
  8
DEFPOINTS
 62
     0
 10
4218.991138061785
 20
6102.5636699531487
 30
0.0
  0
ENDBLK
  5
6A6D
  8
0
  0
BLOCK
  8
0
  2
*D5
 70
     1
 10
0.0
 20
0.0
 30
0.0
  3
*D5
  1

  0
LINE
  5
91E9
  8
SP
 10
6718.991138061785
 20
6318.0759801362528
 30
0.0
 11
6718.991138061785
 21
5817.4759259554921
 31
0.0
  0
LINE
  5
91EA
  8
SP
 10
4218.991138061785
 20
6318.0759801362528
 30
0.0
 11
4218.991138061785
 21
5817.4759259554921
 31
0.0
  0
LINE
  5
91EB
  8
SP
 10
6631.4911380617859
 20
5852.4759259554912
 30
0.0
 11
4306.491138061785
 21
5852.4759259554912
 31
0.0
  0
INSERT
  5
91EC
  8
SP
  2
_OPEN
 10
6718.991138061785
 20
5852.4759259554912
 30
0.0
 41
87.5
 42
87.5
 43
87.5
  0
INSERT
  5
91ED
  8
SP
  2
_OPEN
 10
4218.991138061785
 20
5852.4759259554912
 30
0.0
 41
87.5
 42
87.5
 43
87.5
 50
180.0
  0
TEXT
  5
91EE
  8
FUTO
 10
5275.1032973834626
 20
5887.4759259554921
 30
0.0
 40
105.0
  1
2500
 51
15.0
  0
POINT
  5
91EF
  8
DEFPOINTS
 62
     0
 10
6718.991138061785
 20
6353.0759801362528
 30
0.0
  0
POINT
  5
91F0
  8
DEFPOINTS
 62
     0
 10
4218.991138061785
 20
6353.0759801362528
 30
0.0
  0
POINT
  5
91F1
  8
DEFPOINTS
 62
     0
 10
4218.991138061785
 20
5852.4759259554912
 30
0.0
  0
ENDBLK
  5
6A7A
  8
0
  0
BLOCK
  8
0
  2
*D6
 70
     1
 10
0.0
 20
0.0
 30
0.0
  3
*D6
  1

  0
LINE
  5
9254
  8
SP
 10
8294.1486544056152
 20
6318.0759801362519
 30
0.0
 11
8294.1486544056152
 21
6067.5636465653106
 31
0.0
  0
LINE
  5
9255
  8
SP
 10
9925.1486544056152
 20
6318.0759801362528
 30
0.0
 11
9925.1486544056152
 21
6067.5636465653106
 31
0.0
  0
LINE
  5
9256
  8
SP
 10
8381.6486544056133
 20
6102.5636465653106
 30
0.0
 11
9837.6486544056152
 21
6102.5636465653106
 31
0.0
  0
INSERT
  5
9257
  8
SP
  2
_OPEN
 10
8294.1486544056152
 20
6102.5636465653106
 30
0.0
 41
87.5
 42
87.5
 43
87.5
 50
180.0
  0
INSERT
  5
9258
  8
SP
  2
_OPEN
 10
9925.1486544056152
 20
6102.5636465653106
 30
0.0
 41
87.5
 42
87.5
 43
87.5
  0
TEXT
  5
9259
  8
FUTO
 10
8931.6934811246592
 20
6137.5636465653106
 30
0.0
 40
105.0
  1
1631
 51
15.0
  0
POINT
  5
925A
  8
DEFPOINTS
 62
     0
 10
8294.1486544056152
 20
6353.0759801362519
 30
0.0
  0
POINT
  5
925B
  8
DEFPOINTS
 62
     0
 10
9925.1486544056152
 20
6353.0759801362528
 30
0.0
  0
POINT
  5
925C
  8
DEFPOINTS
 62
     0
 10
9925.1486544056152
 20
6102.5636465653106
 30
0.0
  0
ENDBLK
  5
6A87
  8
0
  0
BLOCK
  8
0
  2
*D7
 70
     1
 10
0.0
 20
0.0
 30
0.0
  3
*D7
  1

  0
LINE
  5
925D
  8
SP
 10
9925.1486544056152
 20
6318.0759801362528
 30
0.0
 11
9925.1486544056152
 21
6067.5636465653106
 31
0.0
  0
LINE
  5
925E
  8
SP
 10
10594.14865440561
 20
6318.0759801362519
 30
0.0
 11
10594.14865440561
 21
6067.5636465653106
 31
0.0
  0
LINE
  5
925F
  8
SP
 10
10012.64865440561
 20
6102.5636465653106
 30
0.0
 11
10506.64865440561
 21
6102.5636465653106
 31
0.0
  0
INSERT
  5
9260
  8
SP
  2
_OPEN
 10
9925.1486544056152
 20
6102.5636465653106
 30
0.0
 41
87.5
 42
87.5
 43
87.5
 50
180.0
  0
INSERT
  5
9261
  8
SP
  2
_OPEN
 10
10594.14865440561
 20
6102.5636465653106
 30
0.0
 41
87.5
 42
87.5
 43
87.5
  0
TEXT
  5
9262
  8
FUTO
 10
10113.08132180298
 20
6137.5636465653106
 30
0.0
 40
105.0
  1
669
 51
15.0
  0
POINT
  5
9263
  8
DEFPOINTS
 62
     0
 10
9925.1486544056152
 20
6353.0759801362528
 30
0.0
  0
POINT
  5
9264
  8
DEFPOINTS
 62
     0
 10
10594.14865440561
 20
6353.0759801362519
 30
0.0
  0
POINT
  5
9265
  8
DEFPOINTS
 62
     0
 10
10594.14865440561
 20
6102.5636465653106
 30
0.0
  0
ENDBLK
  5
6A94
  8
0
  0
BLOCK
  8
0
  2
*D8
 70
     1
 10
0.0
 20
0.0
 30
0.0
  3
*D8
  1

  0
LINE
  5
924B
  8
SP
 10
8294.1486544056152
 20
6318.0759801362519
 30
0.0
 11
8294.1486544056152
 21
5817.475902567654
 31
0.0
  0
LINE
  5
924C
  8
SP
 10
10594.14865440561
 20
6318.0759801362519
 30
0.0
 11
10594.14865440561
 21
5817.475902567654
 31
0.0
  0
LINE
  5
924D
  8
SP
 10
8381.6486544056133
 20
5852.475902567654
 30
0.0
 11
10506.64865440561
 21
5852.475902567654
 31
0.0
  0
INSERT
  5
924E
  8
SP
  2
_OPEN
 10
8294.1486544056152
 20
5852.475902567654
 30
0.0
 41
87.5
 42
87.5
 43
87.5
 50
180.0
  0
INSERT
  5
924F
  8
SP
  2
_OPEN
 10
10594.14865440561
 20
5852.475902567654
 30
0.0
 41
87.5
 42
87.5
 43
87.5
  0
TEXT
  5
9250
  8
FUTO
 10
9250.2608137272928
 20
5887.475902567654
 30
0.0
 40
105.0
  1
2300
 51
15.0
  0
POINT
  5
9251
  8
DEFPOINTS
 62
     0
 10
8294.1486544056152
 20
6353.0759801362519
 30
0.0
  0
POINT
  5
9252
  8
DEFPOINTS
 62
     0
 10
10594.14865440561
 20
6353.0759801362519
 30
0.0
  0
POINT
  5
9253
  8
DEFPOINTS
 62
     0
 10
10594.14865440561
 20
5852.475902567654
 30
0.0
  0
ENDBLK
  5
6AA1
  8
0
  0
BLOCK
  8
0
  2
*D9
 70
     1
 10
0.0
 20
0.0
 30
0.0
  3
*D9
  1

  0
LINE
  5
9242
  8
SP
 10
9925.1486544056152
 20
9871.677622204259
 30
0.0
 11
9925.1486544056152
 21
9917.6500017532271
 31
0.0
  0
LINE
  5
9243
  8
SP
 10
10650.14865440561
 20
9308.6128537434761
 30
0.0
 11
10650.14865440561
 21
9917.6500017532271
 31
0.0
  0
LINE
  5
9244
  8
SP
 10
10012.64865440561
 20
9882.6500017532253
 30
0.0
 11
10562.64865440561
 21
9882.6500017532253
 31
0.0
  0
INSERT
  5
9245
  8
SP
  2
_OPEN
 10
9925.1486544056152
 20
9882.6500017532253
 30
0.0
 41
87.5
 42
87.5
 43
87.5
 50
180.0
  0
INSERT
  5
9246
  8
SP
  2
_OPEN
 10
10650.14865440561
 20
9882.6500017532253
 30
0.0
 41
87.5
 42
87.5
 43
87.5
  0
TEXT
  5
9247
  8
FUTO
 10
10133.58132180298
 20
9917.6500017532271
 30
0.0
 40
105.0
  1
725
 51
15.0
  0
POINT
  5
9248
  8
DEFPOINTS
 62
     0
 10
9925.1486544056152
 20
9836.677622204259
 30
0.0
  0
POINT
  5
9249
  8
DEFPOINTS
 62
     0
 10
10650.14865440561
 20
9273.6128537434779
 30
0.0
  0
POINT
  5
924A
  8
DEFPOINTS
 62
     0
 10
10650.14865440561
 20
9882.6500017532253
 30
0.0
  0
ENDBLK
  5
6AFF
  8
0
  0
BLOCK
  8
0
  2
*D10
 70
     1
 10
0.0
 20
0.0
 30
0.0
  3
*D10
  1

  0
LINE
  5
9266
  8
SP
 10
10685.14865440561
 20
9223.0759801362528
 30
0.0
 11
10964.342055607491
 21
9223.0759801362528
 31
0.0
  0
LINE
  5
9267
  8
SP
 10
10685.14865440561
 20
7623.0759801362528
 30
0.0
 11
10964.342055607491
 21
7623.0759801362528
 31
0.0
  0
LINE
  5
9268
  8
SP
 10
10929.342055607491
 20
9135.5759801362528
 30
0.0
 11
10929.342055607491
 21
7710.5759801362519
 31
0.0
  0
INSERT
  5
9269
  8
SP
  2
_OPEN
 10
10929.342055607491
 20
9223.0759801362528
 30
0.0
 41
87.5
 42
87.5
 43
87.5
 50
90.0
  0
INSERT
  5
926A
  8
SP
  2
_OPEN
 10
10929.342055607491
 20
7623.0759801362528
 30
0.0
 41
87.5
 42
87.5
 43
87.5
 50
270.0
  0
TEXT
  5
926B
  8
FUTO
 10
10894.342055607491
 20
8191.3772503254777
 30
0.0
 40
105.0
  1
φ1600
 50
90.0
 51
15.0
  0
POINT
  5
926C
  8
DEFPOINTS
 62
     0
 10
10650.14865440561
 20
9223.0759801362528
 30
0.0
  0
POINT
  5
926D
  8
DEFPOINTS
 62
     0
 10
10650.14865440561
 20
7623.0759801362528
 30
0.0
  0
POINT
  5
926E
  8
DEFPOINTS
 62
     0
 10
10929.342055607491
 20
7623.0759801362528
 30
0.0
  0
ENDBLK
  5
6F63
  8
0
  0
BLOCK
  8
0
  2
*D11
 70
     1
 10
0.0
 20
0.0
 30
0.0
  3
*D11
  1

  0
LINE
  5
923A
  8
SP
 10
8045.1486544056161
 20
8823.3445714491263
 30
0.0
 11
8045.1486544056161
 21
9917.6500017532271
 31
0.0
  0
LINE
  5
923B
  8
SP
 10
8132.648654405617
 20
9882.6500017532253
 30
0.0
 11
9837.6486544056152
 21
9882.6500017532253
 31
0.0
  0
INSERT
  5
923C
  8
SP
  2
_OPEN
 10
8045.1486544056161
 20
9882.6500017532253
 30
0.0
 41
87.5
 42
87.5
 43
87.5
 50
180.0
  0
INSERT
  5
923D
  8
SP
  2
_OPEN
 10
9925.1486544056152
 20
9882.6500017532253
 30
0.0
 41
87.5
 42
87.5
 43
87.5
  0
TEXT
  5
923E
  8
FUTO
 10
8789.8729730489704
 20
9917.6500017532271
 30
0.0
 40
105.0
  1
1880
 51
15.0
  0
POINT
  5
923F
  8
DEFPOINTS
 62
     0
 10
8045.1486544056161
 20
8788.3445714491263
 30
0.0
  0
POINT
  5
9240
  8
DEFPOINTS
 62
     0
 10
9925.1486544056152
 20
9882.6500017532253
 30
0.0
  0
POINT
  5
9241
  8
DEFPOINTS
 62
     0
 10
9925.1486544056152
 20
9882.6500017532253
 30
0.0
  0
ENDBLK
  5
6FBD
  8
0
  0
BLOCK
  8
0
  2
*D12
 70
     1
 10
0.0
 20
0.0
 30
0.0
  3
*D12
  1

  0
LINE
  5
9228
  8
SP
 10
3970.991138061785
 20
12248.31452044385
 30
0.0
 11
3628.3713777481862
 21
12248.31452044385
 31
0.0
  0
LINE
  5
9229
  8
SP
 10
4868.991138061785
 20
12973.31452044385
 30
0.0
 11
3628.3713777481862
 21
12973.31452044385
 31
0.0
  0
LINE
  5
922A
  8
SP
 10
3663.3713777481862
 20
12335.81452044385
 30
0.0
 11
3663.3713777481862
 21
12885.81452044385
 31
0.0
  0
INSERT
  5
922B
  8
SP
  2
_OPEN
 10
3663.3713777481862
 20
12248.31452044385
 30
0.0
 41
87.5
 42
87.5
 43
87.5
 50
270.0
  0
INSERT
  5
922C
  8
SP
  2
_OPEN
 10
3663.3713777481862
 20
12973.31452044385
 30
0.0
 41
87.5
 42
87.5
 43
87.5
 50
90.0
  0
TEXT
  5
922D
  8
FUTO
 10
3628.3713777481839
 20
12456.74718784122
 30
0.0
 40
105.0
  1
725
 50
90.0
 51
15.0
  0
POINT
  5
922E
  8
DEFPOINTS
 62
     0
 10
4005.991138061785
 20
12248.31452044385
 30
0.0
  0
POINT
  5
922F
  8
DEFPOINTS
 62
     0
 10
4903.991138061785
 20
12973.31452044385
 30
0.0
  0
POINT
  5
9230
  8
DEFPOINTS
 62
     0
 10
3663.3713777481862
 20
12973.31452044385
 30
0.0
  0
ENDBLK
  5
80A1
  8
0
  0
BLOCK
  8
0
  2
*D13
 70
     1
 10
0.0
 20
0.0
 30
0.0
  3
*D13
  1

  0
LINE
  5
921F
  8
SP
 10
3970.991138061785
 20
12248.31452044385
 30
0.0
 11
3628.3713777481871
 21
12248.31452044385
 31
0.0
  0
LINE
  5
9220
  8
SP
 10
4280.491138061785
 20
10368.31452044385
 30
0.0
 11
3628.3713777481862
 21
10368.31452044385
 31
0.0
  0
LINE
  5
9221
  8
SP
 10
3663.3713777481871
 20
12160.81452044385
 30
0.0
 11
3663.3713777481862
 21
10455.81452044385
 31
0.0
  0
INSERT
  5
9222
  8
SP
  2
_OPEN
 10
3663.3713777481871
 20
12248.31452044385
 30
0.0
 41
87.5
 42
87.5
 43
87.5
 50
90.0
  0
INSERT
  5
9223
  8
SP
  2
_OPEN
 10
3663.3713777481862
 20
10368.31452044385
 30
0.0
 41
87.5
 42
87.5
 43
87.5
 50
270.0
  0
TEXT
  5
9224
  8
FUTO
 10
3628.3713777481862
 20
11113.03883908721
 30
0.0
 40
105.0
  1
1880
 50
90.0
 51
15.0
  0
POINT
  5
9225
  8
DEFPOINTS
 62
     0
 10
4005.991138061785
 20
12248.31452044385
 30
0.0
  0
POINT
  5
9226
  8
DEFPOINTS
 62
     0
 10
4315.491138061785
 20
10368.31452044385
 30
0.0
  0
POINT
  5
9227
  8
DEFPOINTS
 62
     0
 10
3663.3713777481862
 20
10368.31452044385
 30
0.0
  0
ENDBLK
  5
80AE
  8
0
  0
BLOCK
  8
0
  2
*D14
 70
     1
 10
0.0
 20
0.0
 30
0.0
  3
*D14
  1

  0
LINE
  5
9216
  8
SP
 10
5768.991138061785
 20
13053.092432260721
 30
0.0
 11
5768.991138061785
 21
13319.24540942237
 31
0.0
  0
LINE
  5
9217
  8
SP
 10
4218.9911380617823
 20
11689.31452044385
 30
0.0
 11
4218.9911380617823
 21
13319.24540942237
 31
0.0
  0
LINE
  5
9218
  8
SP
 10
5681.491138061785
 20
13284.24540942237
 30
0.0
 11
4306.4911380617823
 21
13284.24540942237
 31
0.0
  0
INSERT
  5
9219
  8
SP
  2
_OPEN
 10
5768.991138061785
 20
13284.24540942237
 30
0.0
 41
87.5
 42
87.5
 43
87.5
  0
INSERT
  5
921A
  8
SP
  2
_OPEN
 10
4218.9911380617823
 20
13284.24540942237
 30
0.0
 41
87.5
 42
87.5
 43
87.5
 50
180.0
  0
TEXT
  5
921B
  8
FUTO
 10
4798.7154567051384
 20
13319.24540942237
 30
0.0
 40
105.0
  1
1550
 51
15.0
  0
POINT
  5
921C
  8
DEFPOINTS
 62
     0
 10
5768.991138061785
 20
13018.092432260721
 30
0.0
  0
POINT
  5
921D
  8
DEFPOINTS
 62
     0
 10
4218.9911380617823
 20
11654.31452044385
 30
0.0
  0
POINT
  5
921E
  8
DEFPOINTS
 62
     0
 10
4218.9911380617823
 20
13284.24540942237
 30
0.0
  0
ENDBLK
  5
8221
  8
0
  0
BLOCK
  8
0
  2
*D15
 70
     1
 10
0.0
 20
0.0
 30
0.0
  3
*D15
  1

  0
LINE
  5
9231
  8
SP
 10
5768.991138061785
 20
13053.092432260721
 30
0.0
 11
5768.991138061785
 21
13319.24540942237
 31
0.0
  0
LINE
  5
9232
  8
SP
 10
6813.9911380617859
 20
12927.31452044385
 30
0.0
 11
6813.9911380617859
 21
13319.24540942237
 31
0.0
  0
LINE
  5
9233
  8
SP
 10
5856.491138061785
 20
13284.24540942237
 30
0.0
 11
6726.4911380617859
 21
13284.24540942237
 31
0.0
  0
INSERT
  5
9234
  8
SP
  2
_OPEN
 10
5768.991138061785
 20
13284.24540942237
 30
0.0
 41
87.5
 42
87.5
 43
87.5
 50
180.0
  0
INSERT
  5
9235
  8
SP
  2
_OPEN
 10
6813.9911380617859
 20
13284.24540942237
 30
0.0
 41
87.5
 42
87.5
 43
87.5
  0
TEXT
  5
9236
  8
FUTO
 10
6096.0359647808282
 20
13319.24540942237
 30
0.0
 40
105.0
  1
1045
 51
15.0
  0
POINT
  5
9237
  8
DEFPOINTS
 62
     0
 10
5768.991138061785
 20
13018.092432260721
 30
0.0
  0
POINT
  5
9238
  8
DEFPOINTS
 62
     0
 10
6813.9911380617859
 20
12892.31452044385
 30
0.0
  0
POINT
  5
9239
  8
DEFPOINTS
 62
     0
 10
6813.9911380617859
 20
13284.24540942237
 30
0.0
  0
ENDBLK
  5
822E
  8
0
  0
BLOCK
  8
0
  2
*D16
 70
     1
 10
0.0
 20
0.0
 30
0.0
  3
*D16
  1

  0
LINE
  5
920D
  8
SP
 10
5901.5059189911508
 20
9562.0759801362528
 30
0.0
 11
7211.610189797062
 21
9562.0759801362528
 31
0.0
  0
LINE
  5
920E
  8
SP
 10
7113.6539743291578
 20
8423.0759801362528
 30
0.0
 11
7211.610189797062
 21
8423.0759801362528
 31
0.0
  0
LINE
  5
920F
  8
SP
 10
7176.610189797063
 20
9474.5759801362528
 30
0.0
 11
7176.610189797063
 21
8510.5759801362528
 31
0.0
  0
INSERT
  5
9210
  8
SP
  2
_OPEN
 10
7176.610189797063
 20
9562.0759801362528
 30
0.0
 41
87.5
 42
87.5
 43
87.5
 50
90.0
  0
INSERT
  5
9211
  8
SP
  2
_OPEN
 10
7176.610189797063
 20
8423.0759801362528
 30
0.0
 41
87.5
 42
87.5
 43
87.5
 50
270.0
  0
TEXT
  5
9212
  8
FUTO
 10
7141.610189797062
 20
8809.1304257985339
 30
0.0
 40
105.0
  1
1139
 50
90.0
 51
15.0
  0
POINT
  5
9213
  8
DEFPOINTS
 62
     0
 10
5866.5059189911508
 20
9562.0759801362528
 30
0.0
  0
POINT
  5
9214
  8
DEFPOINTS
 62
     0
 10
7078.6539743291578
 20
8423.0759801362528
 30
0.0
  0
POINT
  5
9215
  8
DEFPOINTS
 62
     0
 10
7176.610189797063
 20
8423.0759801362528
 30
0.0
  0
ENDBLK
  5
83E3
  8
0
  0
BLOCK
  8
0
  2
*D17
 70
     1
 10
0.0
 20
0.0
 30
0.0
  3
*D17
  1

  0
LINE
  5
91FB
  8
SP
 10
7113.6539743291578
 20
8423.0759801362528
 30
0.0
 11
7211.610189797062
 21
8423.0759801362528
 31
0.0
  0
LINE
  5
91FC
  8
SP
 10
6753.991138061785
 20
6523.0759801362519
 30
0.0
 11
7211.610189797062
 21
6523.0759801362519
 31
0.0
  0
LINE
  5
91FD
  8
SP
 10
7176.610189797063
 20
8335.5759801362528
 30
0.0
 11
7176.610189797063
 21
6610.5759801362519
 31
0.0
  0
INSERT
  5
91FE
  8
SP
  2
_OPEN
 10
7176.610189797063
 20
8423.0759801362528
 30
0.0
 41
87.5
 42
87.5
 43
87.5
 50
90.0
  0
INSERT
  5
91FF
  8
SP
  2
_OPEN
 10
7176.610189797063
 20
6523.0759801362519
 30
0.0
 41
87.5
 42
87.5
 43
87.5
 50
270.0
  0
TEXT
  5
9200
  8
FUTO
 10
7141.610189797062
 20
7277.800298779609
 30
0.0
 40
105.0
  1
1900
 50
90.0
 51
15.0
  0
POINT
  5
9201
  8
DEFPOINTS
 62
     0
 10
7078.6539743291578
 20
8423.0759801362528
 30
0.0
  0
POINT
  5
9202
  8
DEFPOINTS
 62
     0
 10
6718.991138061785
 20
6523.0759801362519
 30
0.0
  0
POINT
  5
9203
  8
DEFPOINTS
 62
     0
 10
7176.610189797063
 20
6523.0759801362519
 30
0.0
  0
ENDBLK
  5
83F1
  8
0
  0
BLOCK
  8
0
  2
*D18
 70
     1
 10
0.0
 20
0.0
 30
0.0
  3
*D18
  1

  0
LINE
  5
91E0
  8
SP
 10
5768.991138061785
 20
9853.7882032075031
 30
0.0
 11
5768.991138061785
 21
9917.6500017532271
 31
0.0
  0
LINE
  5
91E1
  8
SP
 10
6813.9911380617841
 20
8481.0759801362528
 30
0.0
 11
6813.9911380617841
 21
9917.6500017532271
 31
0.0
  0
LINE
  5
91E2
  8
SP
 10
5856.491138061785
 20
9882.6500017532253
 30
0.0
 11
6726.491138061785
 21
9882.6500017532253
 31
0.0
  0
INSERT
  5
91E3
  8
SP
  2
_OPEN
 10
5768.991138061785
 20
9882.6500017532253
 30
0.0
 41
87.5
 42
87.5
 43
87.5
 50
180.0
  0
INSERT
  5
91E4
  8
SP
  2
_OPEN
 10
6813.9911380617841
 20
9882.6500017532253
 30
0.0
 41
87.5
 42
87.5
 43
87.5
  0
TEXT
  5
91E5
  8
FUTO
 10
6096.0359647808282
 20
9917.6500017532271
 30
0.0
 40
105.0
  1
1045
 51
15.0
  0
POINT
  5
91E6
  8
DEFPOINTS
 62
     0
 10
5768.991138061785
 20
9818.7882032075031
 30
0.0
  0
POINT
  5
91E7
  8
DEFPOINTS
 62
     0
 10
6813.9911380617841
 20
8446.0759801362528
 30
0.0
  0
POINT
  5
91E8
  8
DEFPOINTS
 62
     0
 10
6813.9911380617841
 20
9882.6500017532253
 30
0.0
  0
ENDBLK
  5
83FE
  8
0
  0
BLOCK
  8
0
  2
*U19
 70
     1
 10
0.0
 20
0.0
 30
0.0
  3
*U19
  1

  0
SOLID
  5
9285
  8
SP
  6
CONTINUOUS
 10
7176.610189797063
 20
6520.0351638479387
 30
0.0
 11
7164.6182359911409
 21
6515.067933942174
 31
0.0
 12
7176.610189797063
 22
6503.0759801362528
 32
0.0
 13
7176.610189797063
 23
6503.0759801362528
 33
0.0
210
0.0
220
0.0
230
1.0
  0
SOLID
  5
9286
  8
SP
  6
CONTINUOUS
 10
7159.651006085377
 20
6503.0759801362528
 30
0.0
 11
7176.610189797063
 21
6503.0759801362528
 31
0.0
 12
7164.6182359911409
 22
6515.067933942174
 32
0.0
 13
7164.6182359911409
 23
6515.067933942174
 33
0.0
210
0.0
220
0.0
230
1.0
  0
SOLID
  5
9287
  8
SP
  6
CONTINUOUS
 10
7176.610189797063
 20
6520.0351638479387
 30
0.0
 11
7176.610189797063
 21
6503.0759801362528
 31
0.0
 12
7188.6021436029841
 22
6515.067933942174
 32
0.0
 13
7188.6021436029841
 23
6515.067933942174
 33
0.0
210
0.0
220
0.0
230
1.0
  0
SOLID
  5
9288
  8
SP
  6
CONTINUOUS
 10
7193.569373508748
 20
6503.0759801362528
 30
0.0
 11
7188.6021436029841
 21
6515.067933942174
 31
0.0
 12
7176.610189797063
 22
6503.0759801362528
 32
0.0
 13
7176.610189797063
 23
6503.0759801362528
 33
0.0
210
0.0
220
0.0
230
1.0
  0
SOLID
  5
9289
  8
SP
  6
CONTINUOUS
 10
7193.569373508748
 20
6503.0759801362528
 30
0.0
 11
7176.610189797063
 21
6503.0759801362528
 31
0.0
 12
7188.6021436029841
 22
6491.0840263303307
 32
0.0
 13
7188.6021436029841
 23
6491.0840263303307
 33
0.0
210
0.0
220
0.0
230
1.0
  0
SOLID
  5
928A
  8
SP
  6
CONTINUOUS
 10
7176.610189797063
 20
6486.1167964245678
 30
0.0
 11
7188.6021436029841
 21
6491.0840263303307
 31
0.0
 12
7176.610189797063
 22
6503.0759801362528
 32
0.0
 13
7176.610189797063
 23
6503.0759801362528
 33
0.0
  0
SOLID
  5
928B
  8
SP
  6
CONTINUOUS
 10
7176.610189797063
 20
6503.0759801362528
 30
0.0
 11
7159.651006085377
 21
6503.0759801362528
 31
0.0
 12
7176.610189797063
 22
6486.1167964245678
 32
0.0
 13
7176.610189797063
 23
6486.1167964245678
 33
0.0
210
0.0
220
0.0
230
1.0
  0
SOLID
  5
928C
  8
SP
  6
CONTINUOUS
 10
7164.6182359911409
 20
6491.0840263303307
 30
0.0
 11
7176.610189797063
 21
6486.1167964245678
 31
0.0
 12
7159.651006085377
 22
6503.0759801362528
 32
0.0
 13
7159.651006085377
 23
6503.0759801362528
 33
0.0
210
0.0
220
0.0
230
1.0
  0
ENDBLK
  5
928E
  8
0
  0
BLOCK
  8
0
  2
*U20
 70
     1
 10
0.0
 20
0.0
 30
0.0
  3
*U20
  1

  0
SOLID
  5
9290
  8
FUTO
  6
CONTINUOUS
 10
6528.991138061785
 20
6523.0759801362519
 30
0.0
 11
6488.9911380617841
 21
6523.0759801362519
 31
0.0
 12
6528.991138061785
 22
6503.0759801362528
 32
0.0
 13
6528.991138061785
 23
6503.0759801362528
 33
0.0
210
0.0
220
0.0
230
1.0
  0
SOLID
  5
9291
  8
FUTO
  6
CONTINUOUS
 10
6488.9911380617841
 20
6503.0759801362528
 30
0.0
 11
6528.991138061785
 21
6503.0759801362528
 31
0.0
 12
6488.9911380617841
 22
6523.0759801362519
 32
0.0
 13
6488.9911380617841
 23
6523.0759801362519
 33
0.0
210
0.0
220
0.0
230
1.0
  0
SOLID
  5
9292
  8
FUTO
  6
CONTINUOUS
 10
6568.9911380617859
 20
6523.0759801362519
 30
0.0
 11
6528.991138061785
 21
6523.0759801362519
 31
0.0
 12
6568.9911380617859
 22
6503.0759801362528
 32
0.0
 13
6568.9911380617859
 23
6503.0759801362528
 33
0.0
210
0.0
220
0.0
230
1.0
  0
SOLID
  5
9293
  8
FUTO
  6
CONTINUOUS
 10
6528.991138061785
 20
6503.0759801362528
 30
0.0
 11
6568.9911380617859
 21
6503.0759801362528
 31
0.0
 12
6528.991138061785
 22
6523.0759801362519
 32
0.0
 13
6528.991138061785
 23
6523.0759801362519
 33
0.0
210
0.0
220
0.0
230
1.0
  0
ENDBLK
  5
9295
  8
0
  0
ENDSEC
  0
SECTION
  2
ENTITIES
  0
LINE
  5
522D
  8
CT
 10
7078.6539743291578
 20
8423.0759801362528
 30
0.0
 11
4276.0716479210741
 21
8423.0759801362528
 31
0.0
  0
LINE
  5
522E
  8
CT
 10
5768.991138061785
 20
9818.7882032075031
 30
0.0
 11
5768.991138061785
 21
6306.7807285351118
 31
0.0
  0
ARC
  5
5232
  8
KL
 10
5884.991138061785
 20
8307.0759801362528
 30
0.0
 40
1487.0
 50
180.0
 51
265.52584402394388
  0
ARC
  5
5234
  8
KL
 10
5652.9911380617859
 20
8307.0759801362528
 30
0.0
 40
1255.0
 50
89.999999999999986
 51
180.0
  0
ARC
  5
5238
  8
KL
 10
5671.991138061785
 20
8520.0759801362528
 30
0.0
 40
1042.0
 50
0.0
 51
89.999999999999986
  0
ARC
  5
5239
  8
KL
 10
5865.991138061785
 20
8520.0759801362528
 30
0.0
 40
848.0
 50
326.29525704927107
 51
0.0
  0
LINE
  5
523A
  8
FUTO
 10
6813.9911380617859
 20
8381.0759801362528
 30
0.0
 11
6813.9911380617841
 21
6725.0759801362528
 31
0.0
  0
LINE
  5
523C
  8
KL
 10
6813.9911380617859
 20
8378.0759801362528
 30
0.0
 11
6702.0174534370854
 21
8378.0759801362528
 31
0.0
  0
LINE
  5
523D
  8
KL
 10
5768.991138061785
 20
6824.60743072281
 30
0.0
 11
6813.9911380617841
 21
6728.0759801362528
 31
0.0
  0
LINE
  5
523F
  8
FUTO
 10
6748.9911380617859
 20
8396.0759801362528
 30
0.0
 11
6748.9911380617859
 21
6716.0036942814477
 31
0.0
  0
LINE
  5
5251
  8
FUTO
 10
6813.9911380617841
 20
8381.0759801362528
 30
0.0
 11
6813.9911380617841
 21
8446.0759801362528
 31
0.0
  0
LINE
  5
5252
  8
FUTO
 10
6813.9911380617841
 20
8381.0759801362528
 30
0.0
 11
6748.9911380617859
 21
8381.0759801362528
 31
0.0
  0
LINE
  5
5253
  8
FUTO
 10
6813.9911380617841
 20
8446.0759801362528
 30
0.0
 11
6811.991138061785
 21
8446.0759801362528
 31
0.0
  0
LINE
  5
5254
  8
FUTO
 10
6748.9911380617859
 20
8381.0759801362528
 30
0.0
 11
6748.9911380617859
 21
8383.0759801362528
 31
0.0
  0
LINE
  5
5255
  8
FUTO
 10
6799.491138061785
 20
8387.0759801362528
 30
0.0
 11
6752.9911380617841
 21
8387.0759801362528
 31
0.0
  0
LINE
  5
5256
  8
FUTO
 10
6807.9911380617859
 20
8395.5759801362528
 30
0.0
 11
6807.9911380617859
 21
8442.0759801362528
 31
0.0
  0
ARC
  5
5257
  8
FUTO
 10
6811.991138061785
 20
8442.0759801362528
 30
0.0
 40
4.0
 50
89.999999999999986
 51
180.0
  0
ARC
  5
5258
  8
FUTO
 10
6752.9911380617841
 20
8383.0759801362528
 30
0.0
 40
4.0
 50
89.999999999999986
 51
179.9999999999992
  0
ARC
  5
5259
  8
FUTO
 10
6799.491138061785
 20
8395.5759801362528
 30
0.0
 40
8.5
 50
270.0
 51
0.0
  0
LINE
  5
525A
  8
FUTO
 10
6813.9911380617841
 20
6725.0759801362528
 30
0.0
 11
6748.9911380617859
 21
6725.0759801362528
 31
0.0
  0
LINE
  5
525B
  8
FUTO
 10
6813.9911380617841
 20
6725.0759801362528
 30
0.0
 11
6813.9911380617841
 21
6660.0759801362528
 31
0.0
  0
LINE
  5
525C
  8
FUTO
 10
6748.9911380617859
 20
6725.0759801362528
 30
0.0
 11
6748.9911380617859
 21
6723.0759801362519
 31
0.0
  0
LINE
  5
525D
  8
FUTO
 10
6813.9911380617841
 20
6660.0759801362528
 30
0.0
 11
6811.991138061785
 21
6660.0759801362528
 31
0.0
  0
LINE
  5
525E
  8
FUTO
 10
6807.9911380617859
 20
6710.5759801362519
 30
0.0
 11
6807.9911380617859
 21
6664.0759801362528
 31
0.0
  0
LINE
  5
525F
  8
FUTO
 10
6799.491138061785
 20
6719.0759801362528
 30
0.0
 11
6752.9911380617841
 21
6719.0759801362528
 31
0.0
  0
ARC
  5
5260
  8
FUTO
 10
6752.9911380617841
 20
6723.0759801362519
 30
0.0
 40
4.0
 50
180.0
 51
270.0
  0
ARC
  5
5261
  8
FUTO
 10
6811.991138061785
 20
6664.0759801362528
 30
0.0
 40
4.0
 50
180.0
 51
269.9999999999992
  0
ARC
  5
5262
  8
FUTO
 10
6799.491138061785
 20
6710.5759801362519
 30
0.0
 40
8.5
 50
0.0
 51
89.999999999999986
  0
LINE
  5
5263
  8
FUTO
 10
6807.9911380617859
 20
8381.0759801362528
 30
0.0
 11
6807.9911380617859
 21
6725.0759801362528
 31
0.0
  0
ARC
  5
5264
  8
FUTO
 10
5865.991138061785
 20
8520.0759801362528
 30
0.0
 40
866.0
 50
351.76768968499709
 51
0.0
  0
LINE
  5
5265
  8
FUTO
 10
6748.9911380617859
 20
8396.0759801362528
 30
0.0
 11
6723.067564058907
 21
8396.0759801362528
 31
0.0
  0
ARC
  5
5266
  8
FUTO
 10
5671.991138061785
 20
8520.0759801362528
 30
0.0
 40
1060.0
 50
0.0
 51
84.749550329799078
  0
ARC
  5
5269
  8
FUTO
 10
5652.9911380617859
 20
8307.0759801362528
 30
0.0
 40
1273.0
 50
84.771765231867477
 51
174.77176523186739
  0
LINE
  5
526B
  8
FUTO
 10
6382.8029691052971
 20
6749.8301776661419
 30
0.0
 11
6748.9911380617859
 21
6716.0036942814477
 31
0.0
  0
CIRCLE
  5
526C
  8
KL
 10
6585.5917217191363
 20
8040.0759801362519
 30
0.0
 40
17.0
  0
LINE
  5
526D
  8
FUTO
 10
4218.991138061785
 20
6523.0759801362519
 30
0.0
 11
6718.991138061785
 21
6523.0759801362519
 31
0.0
  0
LINE
  5
526E
  8
FUTO
 10
4218.991138061785
 20
6673.0759801362519
 30
0.0
 11
6718.991138061785
 21
6673.0759801362519
 31
0.0
  0
LINE
  5
526F
  8
FUTO
 10
6718.991138061785
 20
6673.0759801362519
 30
0.0
 11
6718.991138061785
 21
6523.0759801362519
 31
0.0
  0
LINE
  5
5270
  8
FUTO
 10
4218.991138061785
 20
6673.0759801362519
 30
0.0
 11
4218.991138061785
 21
6523.0759801362537
 31
0.0
  0
LINE
  5
5273
  8
FUTO
 10
6708.991138061785
 20
6673.0759801362519
 30
0.0
 11
6708.991138061785
 21
8739.6915533545452
 31
0.0
  0
LINE
  5
5274
  8
FUTO
 10
4828.991138061785
 20
9277.4125196935347
 30
0.0
 11
4828.991138061785
 21
8432.0759801362528
 31
0.0
  0
LINE
  5
5275
  8
FUTO
 10
4837.9911380617841
 20
9284.9839512664585
 30
0.0
 11
4837.9911380617841
 21
8432.0759801362528
 31
0.0
  0
LINE
  5
5276
  8
FUTO
 10
6699.9911380617841
 20
6673.0759801362519
 30
0.0
 11
6699.9911380617841
 21
8778.5638908787096
 31
0.0
  0
LINE
  5
52EB
  8
CT
 10
4755.4474953469298
 20
6703.0759801362537
 30
0.0
 11
4126.6544176010884
 21
6703.0759801362537
 31
0.0
  0
LINE
  5
52F4
  8
CT
 10
4518.991138061785
 20
6556.0905469841837
 30
0.0
 11
4518.9911380617841
 21
7196.1885611807838
 31
0.0
  0
LINE
  5
5391
  8
CT
 10
5913.991138061785
 20
8303.0759801362547
 30
0.0
 11
5913.991138061785
 21
8377.0759801362528
 31
0.0
  0
LINE
  5
5393
  8
CT
 10
5623.9911380617859
 20
8303.0759801362547
 30
0.0
 11
5623.9911380617859
 21
8377.0759801362528
 31
0.0
  0
ARC
  5
53C8
  8
FUTO
 10
5591.9911380617859
 20
8354.0759801362528
 30
0.0
 40
3.0
 50
90.0
 51
180.0
  0
LINE
  5
53C9
  8
FUTO
 10
5588.9911380617859
 20
8354.0759801362528
 30
0.0
 11
5588.9911380617859
 21
8323.0759801362547
 31
0.0
  0
ARC
  5
53CA
  8
FUTO
 10
5721.4911380617859
 20
8505.3483934957712
 30
0.0
 40
15.00000000000038
 50
25.471936986187181
 51
214.5280630138071
  0
LINE
  5
53CB
  8
FUTO
 10
5753.3094753639843
 20
8516.7727541203785
 30
0.0
 11
5753.3094753639843
 21
8523.0759801362528
 31
0.0
  0
LINE
  5
53CC
  8
FUTO
 10
5784.6728007595884
 20
8516.7727541203785
 30
0.0
 11
5784.6728007595884
 21
8523.0759801362528
 31
0.0
  0
LINE
  5
53CD
  8
FUTO
 10
5784.6728007595884
 20
8523.0759801362547
 30
0.0
 11
5753.3094753639843
 21
8523.0759801362528
 31
0.0
  0
ARC
  5
53CE
  8
FUTO
 10
5768.9911380617868
 20
8423.0759801362528
 30
0.0
 40
95.000000000000057
 50
129.05612602761761
 51
170.94387397238259
  0
LINE
  5
53CF
  8
FUTO
 10
5673.9911380617859
 20
8408.0759801362528
 30
0.0
 11
5673.9911380617859
 21
8373.0759801362528
 31
0.0
  0
LINE
  5
53D0
  8
FUTO
 10
5678.991138061785
 20
8323.0759801362547
 30
0.0
 11
5678.991138061785
 21
8326.0759801362565
 31
0.0
  0
ARC
  5
53D1
  8
FUTO
 10
5657.991138061785
 20
8373.0759801362528
 30
0.0
 40
16.0
 50
270.0
 51
0.000000000000007
  0
ARC
  5
53D2
  8
FUTO
 10
5721.491138061785
 20
8340.8035667767326
 30
0.0
 40
14.999999999999909
 50
145.47193698619051
 51
334.5280630138152
  0
ARC
  5
53D3
  8
FUTO
 10
5768.9911380617868
 20
8423.0759801362547
 30
0.0
 40
95.000000000000966
 50
189.05612602761769
 51
230.9438739723827
  0
ARC
  5
53D4
  8
FUTO
 10
5673.9911380617859
 20
8423.0759801362528
 30
0.0
 40
15.00000000000011
 50
85.471936986191778
 51
274.52806301380838
  0
LINE
  5
53D5
  8
FUTO
 10
5657.991138061785
 20
8357.0759801362528
 30
0.0
 11
5591.9911380617859
 21
8357.0759801362528
 31
0.0
  0
ARC
  5
53D7
  8
FUTO
 10
5816.491138061785
 20
8505.3483934957767
 30
0.0
 40
15.00000000000006
 50
325.47193698619043
 51
154.52806301381389
  0
ARC
  5
53D8
  8
FUTO
 10
5768.991138061785
 20
8423.0759801362528
 30
0.0
 40
94.999999999999375
 50
9.0561260276173208
 51
50.943873972383258
  0
LINE
  5
53D9
  8
FUTO
 10
5863.991138061785
 20
8408.0759801362528
 30
0.0
 11
5863.991138061785
 21
8373.0759801362528
 31
0.0
  0
ARC
  5
53DA
  8
FUTO
 10
5816.491138061785
 20
8340.8035667767326
 30
0.0
 40
14.99999999999978
 50
205.47193698618639
 51
34.528063013808868
  0
LINE
  5
53DB
  8
FUTO
 10
5858.991138061785
 20
8323.0759801362547
 30
0.0
 11
5858.991138061785
 21
8326.0759801362565
 31
0.0
  0
ARC
  5
53DC
  8
FUTO
 10
5768.991138061785
 20
8423.0759801362528
 30
0.0
 40
95.000000000000057
 50
309.05612602761761
 51
350.94387397238319
  0
ARC
  5
53DD
  8
FUTO
 10
5945.9911380617859
 20
8354.0759801362528
 30
0.0
 40
3.0
 50
0.000000000000007
 51
90.0
  0
LINE
  5
53DE
  8
FUTO
 10
5948.9911380617859
 20
8354.0759801362528
 30
0.0
 11
5948.991138061785
 21
8323.0759801362547
 31
0.0
  0
LINE
  5
53DF
  8
FUTO
 10
5879.991138061785
 20
8357.0759801362528
 30
0.0
 11
5945.9911380617859
 21
8357.0759801362528
 31
0.0
  0
ARC
  5
53E0
  8
FUTO
 10
5879.991138061785
 20
8373.0759801362528
 30
0.0
 40
16.0
 50
180.0
 51
270.0
  0
LINE
  5
53E1
  8
FUTO
 10
5963.9911380617859
 20
8323.0759801362547
 30
0.0
 11
5573.991138061785
 21
8323.0759801362547
 31
0.0
  0
ARC
  5
53E2
  8
FUTO
 10
5863.991138061785
 20
8423.0759801362528
 30
0.0
 40
14.999999999999879
 50
265.47193698619083
 51
94.528063013808961
  0
CIRCLE
  5
53E3
  8
FUTO
 10
5768.991138061785
 20
8423.0759801362528
 30
0.0
 40
36.5
  0
LINE
  5
53E4
  8
FUTO
 10
5858.991138061785
 20
8326.0759801362565
 30
0.0
 11
5678.991138061785
 21
8326.0759801362565
 31
0.0
  0
ARC
  5
53E5
  8
FUTO
 10
5768.991138061785
 20
8423.0759801362528
 30
0.0
 40
94.999999999998266
 50
249.0561260276169
 51
290.94387397238359
  0
ARC
  5
53E6
  8
FUTO
 10
5768.9911380617868
 20
8423.0759801362547
 30
0.0
 40
94.999999999998053
 50
69.056126027617694
 51
110.9438739723836
  0
LINE
  5
53E7
  8
FUTO
 10
8509.1486544056152
 20
8503.0759801362528
 30
0.0
 11
8514.1486544056133
 21
8503.0759801362528
 31
0.0
  0
ARC
  5
53E8
  8
FUTO
 10
8503.1486544056152
 20
8512.0759801362547
 30
0.0
 40
6.0
 50
0.0
 51
90.0
  0
LINE
  5
53E9
  8
FUTO
 10
8494.1486544056152
 20
8518.0759801362528
 30
0.0
 11
8503.1486544056152
 21
8518.0759801362565
 31
0.0
  0
LINE
  5
53EA
  8
FUTO
 10
8514.1486544056133
 20
8343.0759801362528
 30
0.0
 11
8509.1486544056152
 21
8343.0759801362528
 31
0.0
  0
ARC
  5
53EB
  8
FUTO
 10
8503.1486544056152
 20
8334.0759801362547
 30
0.0
 40
6.0
 50
270.0
 51
0.0
  0
ARC
  5
53EC
  8
FUTO
 10
8488.1486544056152
 20
8351.0759801362528
 30
0.0
 40
6.0
 50
0.0
 51
90.0
  0
LINE
  5
53ED
  8
FUTO
 10
8503.1486544056152
 20
8328.0759801362547
 30
0.0
 11
8494.1486544056152
 21
8328.0759801362547
 31
0.0
  0
LINE
  5
53EE
  8
FUTO
 10
8514.1486544056133
 20
8503.0759801362528
 30
0.0
 11
8514.1486544056133
 21
8343.0759801362528
 31
0.0
  0
LINE
  5
53EF
  8
FUTO
 10
8509.1486544056152
 20
8512.0759801362547
 30
0.0
 11
8509.1486544056152
 21
8334.0759801362547
 31
0.0
  0
LINE
  5
53F0
  8
FUTO
 10
8494.1486544056152
 20
8323.0759801362547
 30
0.0
 11
8494.1486544056152
 21
8523.0759801362528
 31
0.0
  0
LINE
  5
53F1
  8
FUTO
 10
8394.1486544056152
 20
8518.0759801362528
 30
0.0
 11
8385.1486544056152
 21
8518.0759801362565
 31
0.0
  0
ARC
  5
53F2
  8
FUTO
 10
8385.1486544056152
 20
8512.0759801362547
 30
0.0
 40
6.0
 50
90.0
 51
180.0
  0
LINE
  5
53F3
  8
FUTO
 10
8379.1486544056152
 20
8503.0759801362528
 30
0.0
 11
8374.1486544056152
 21
8503.0759801362528
 31
0.0
  0
ARC
  5
53F4
  8
FUTO
 10
8400.1486544056152
 20
8351.0759801362528
 30
0.0
 40
6.0
 50
90.0
 51
180.0
  0
ARC
  5
53F5
  8
FUTO
 10
8385.1486544056152
 20
8334.0759801362547
 30
0.0
 40
6.0
 50
180.0
 51
270.0
  0
LINE
  5
53F6
  8
FUTO
 10
8385.1486544056152
 20
8328.0759801362547
 30
0.0
 11
8394.1486544056152
 21
8328.0759801362547
 31
0.0
  0
LINE
  5
53F7
  8
FUTO
 10
8374.1486544056152
 20
8343.0759801362528
 30
0.0
 11
8379.1486544056152
 21
8343.0759801362528
 31
0.0
  0
LINE
  5
53F8
  8
FUTO
 10
8379.1486544056152
 20
8512.0759801362547
 30
0.0
 11
8379.1486544056152
 21
8334.0759801362547
 31
0.0
  0
LINE
  5
53F9
  8
FUTO
 10
8374.1486544056152
 20
8503.0759801362528
 30
0.0
 11
8374.1486544056152
 21
8343.0759801362528
 31
0.0
  0
LINE
  5
53FA
  8
FUTO
 10
8394.1486544056152
 20
8523.0759801362528
 30
0.0
 11
8394.1486544056152
 21
8323.0759801362547
 31
0.0
  0
LINE
  5
53FB
  8
FUTO
 10
8494.1486544056152
 20
8523.0759801362528
 30
0.0
 11
8394.1486544056152
 21
8523.0759801362528
 31
0.0
  0
LINE
  5
53FC
  8
FUTO
 10
8389.1486544056133
 20
8323.0759801362547
 30
0.0
 11
8499.1486544056152
 21
8323.0759801362547
 31
0.0
  0
LINE
  5
53FD
  8
FUTO
 10
8488.1486544056152
 20
8357.0759801362528
 30
0.0
 11
8400.1486544056152
 21
8357.0759801362528
 31
0.0
  0
LINE
  5
53FE
  8
KL
 10
5383.3392651710628
 20
8315.0759801362547
 30
0.0
 11
6154.6430109525081
 21
8315.0759801362528
 31
0.0
  0
LINE
  5
53FF
  8
FUTO
 10
5963.9911380617859
 20
8323.0759801362547
 30
0.0
 11
5963.9911380617859
 21
8315.0759801362547
 31
0.0
  0
LINE
  5
5400
  8
FUTO
 10
5573.991138061785
 20
8323.0759801362547
 30
0.0
 11
5573.991138061785
 21
8315.0759801362547
 31
0.0
  0
LINE
  5
5405
  8
FUTO
 10
6393.991138061785
 20
6680.9035271951943
 30
0.0
 11
6393.991138061785
 21
6673.0759801362519
 31
0.0
  0
LINE
  5
540E
  8
FUTO
 10
5143.991138061785
 20
6680.9035271951943
 30
0.0
 11
5143.991138061785
 21
6673.0759801362519
 31
0.0
  0
LINE
  5
5411
  8
FUTO
 10
6393.991138061785
 20
6673.0759801362519
 30
0.0
 11
6393.991138061785
 21
6523.0759801362519
 31
0.0
  0
LINE
  5
5412
  8
KL
 10
5968.6454864007837
 20
8408.2725619725479
 30
0.0
 11
5966.5089052321446
 21
8390.3998167746267
 31
0.0
  0
LINE
  5
5413
  8
KL
 10
5568.991138061785
 20
8432.0759801362528
 30
0.0
 11
5568.991138061785
 21
8414.0759801362528
 31
0.0
  0
LINE
  5
5414
  8
FUTO
 10
6772.4008123001568
 20
8533.6890479137255
 30
0.0
 11
6147.2670980703624
 21
8459.2325574022161
 31
0.0
  0
LINE
  5
5415
  8
FUTO
 10
6770.2642311315167
 20
8551.5617931116449
 30
0.0
 11
6145.1305169017232
 21
8477.1053026001355
 31
0.0
  0
LINE
  5
5416
  8
KL
 10
5568.991138061785
 20
8414.0759801362528
 30
0.0
 11
5134.1915293177071
 21
8414.0759801362528
 31
0.0
  0
LINE
  5
5417
  8
KL
 10
5568.991138061785
 20
8432.0759801362528
 30
0.0
 11
5157.5830143080211
 21
8432.0759801362528
 31
0.0
  0
LINE
  5
541F
  8
FUTO
 10
6708.991138061785
 20
8414.0759801362528
 30
0.0
 11
6708.991138061785
 21
7403.0759801362537
 31
0.0
  0
LINE
  5
5420
  8
FUTO
 10
6699.9911380617841
 20
8414.0759801362528
 30
0.0
 11
6699.9911380617841
 21
7403.0759801362537
 31
0.0
  0
LINE
  5
5425
  8
FUTO
 10
4828.991138061785
 20
8414.0759801362528
 30
0.0
 11
4828.991138061785
 21
7752.2539377640796
 31
0.0
  0
LINE
  5
5426
  8
FUTO
 10
4837.9911380617841
 20
8414.0759801362528
 30
0.0
 11
4837.9911380617841
 21
7764.9767235280478
 31
0.0
  0
ARC
  5
543E
  8
FUTO
 10
5884.991138061785
 20
8307.0759801362528
 30
0.0
 40
1505.0
 50
175.5794626030642
 51
213.628938787978
  0
CIRCLE
  5
544F
  8
SL
 10
5768.991138061785
 20
8423.0759801362528
 30
0.0
 40
315.0
  0
ARC
  5
5451
  8
FUTO
 10
5768.991138061785
 20
8423.0759801362528
 30
0.0
 40
380.0
 50
315.28695728321139
 51
144.7247078226907
  0
CIRCLE
  5
5453
  8
SL
 10
4518.9911380617841
 20
6933.0759801362528
 30
0.0
 40
132.49999999999989
  0
ARC
  5
5454
  8
FUTO
 10
4518.9911380617841
 20
6933.0759801362528
 30
0.0
 40
220.0
 50
144.7247078226907
 51
315.28695728321139
  0
LINE
  5
5459
  8
CT
 10
8008.7832933007157
 20
8423.0759801362528
 30
0.0
 11
10694.926566222481
 21
8423.0759801362528
 31
0.0
  0
LINE
  5
545A
  8
CT
 10
9925.1486544056152
 20
9882.6500017532253
 30
0.0
 11
9925.1486544056152
 21
6340.241420691289
 31
0.0
  0
LINE
  5
545B
  8
FUTO
 10
10519.14865440561
 20
6673.0759801362519
 30
0.0
 11
8369.1486544056188
 21
6673.0759801362519
 31
0.0
  0
LINE
  5
545C
  8
FUTO
 10
10519.14865440561
 20
6523.0759801362519
 30
0.0
 11
8369.1486544056188
 21
6523.0759801362519
 31
0.0
  0
LINE
  5
5505
  8
FUTO
 10
10519.14865440561
 20
6523.0759801362519
 30
0.0
 11
10594.14865440561
 21
6523.0759801362519
 31
0.0
  0
LINE
  5
5506
  8
FUTO
 10
10529.300031434621
 20
6535.7530127657183
 30
0.0
 11
10590.4972773766
 21
6530.3989475067856
 31
0.0
  0
LINE
  5
5507
  8
FUTO
 10
10519.14865440561
 20
6673.0759801362519
 30
0.0
 11
10594.14865440561
 21
6673.0759801362519
 31
0.0
  0
LINE
  5
5508
  8
FUTO
 10
10529.300031434621
 20
6660.3989475067856
 30
0.0
 11
10590.4972773766
 21
6665.7530127657183
 31
0.0
  0
LINE
  5
5509
  8
FUTO
 10
10525.64865440561
 20
6656.4141687144202
 30
0.0
 11
10525.64865440561
 21
6539.7377915580864
 31
0.0
  0
ARC
  5
550A
  8
FUTO
 10
10529.64865440561
 20
6539.7377915580864
 30
0.0
 40
4.0
 50
180.0
 51
264.99999999999989
  0
LINE
  5
550B
  8
FUTO
 10
10519.14865440561
 20
6673.0759801362519
 30
0.0
 11
10519.14865440561
 21
6523.0759801362519
 31
0.0
  0
ARC
  5
550C
  8
FUTO
 10
10529.64865440561
 20
6656.4141687144202
 30
0.0
 40
4.0
 50
95.000000000000057
 51
180.0
  0
LINE
  5
550D
  8
FUTO
 10
10594.14865440561
 20
6523.0759801362519
 30
0.0
 11
10594.14865440561
 21
6526.4141687144211
 31
0.0
  0
LINE
  5
550E
  8
FUTO
 10
10594.14865440561
 20
6673.0759801362519
 30
0.0
 11
10594.14865440561
 21
6669.7377915580864
 31
0.0
  0
ARC
  5
550F
  8
FUTO
 10
10590.14865440561
 20
6669.7377915580864
 30
0.0
 40
4.0
 50
275.00000000000051
 51
359.9999999999921
  0
ARC
  5
5510
  8
FUTO
 10
10590.14865440561
 20
6526.4141687144211
 30
0.0
 40
4.0
 50
0.0000000000078369
 51
84.999999999999503
  0
LINE
  5
5511
  8
FUTO
 10
8369.1486544056152
 20
6673.0759801362519
 30
0.0
 11
8294.1486544056152
 21
6673.0759801362519
 31
0.0
  0
LINE
  5
5512
  8
FUTO
 10
8358.9972773766076
 20
6660.3989475067856
 30
0.0
 11
8297.8000314346245
 21
6665.7530127657183
 31
0.0
  0
LINE
  5
5513
  8
FUTO
 10
8369.1486544056152
 20
6523.0759801362519
 30
0.0
 11
8294.1486544056152
 21
6523.0759801362519
 31
0.0
  0
LINE
  5
5514
  8
FUTO
 10
8358.9972773766076
 20
6535.7530127657183
 30
0.0
 11
8297.8000314346245
 21
6530.3989475067856
 31
0.0
  0
LINE
  5
5515
  8
FUTO
 10
8362.6486544056152
 20
6539.7377915580864
 30
0.0
 11
8362.6486544056152
 21
6656.4141687144202
 31
0.0
  0
ARC
  5
5516
  8
FUTO
 10
8358.6486544056152
 20
6656.4141687144202
 30
0.0
 40
4.0
 50
0.0
 51
84.999999999999943
  0
LINE
  5
5517
  8
FUTO
 10
8369.1486544056152
 20
6523.0759801362519
 30
0.0
 11
8369.1486544056152
 21
6673.0759801362519
 31
0.0
  0
ARC
  5
5518
  8
FUTO
 10
8358.6486544056152
 20
6539.7377915580864
 30
0.0
 40
4.0
 50
275.0
 51
0.0
  0
LINE
  5
5519
  8
FUTO
 10
8294.1486544056152
 20
6673.0759801362519
 30
0.0
 11
8294.1486544056152
 21
6669.7377915580837
 31
0.0
  0
LINE
  5
551A
  8
FUTO
 10
8294.1486544056152
 20
6523.0759801362519
 30
0.0
 11
8294.1486544056152
 21
6526.4141687144211
 31
0.0
  0
ARC
  5
551B
  8
FUTO
 10
8298.1486544056152
 20
6526.4141687144211
 30
0.0
 40
4.0
 50
95.000000000000554
 51
179.9999999999921
  0
ARC
  5
551C
  8
FUTO
 10
8298.1486544056152
 20
6669.7377915580864
 30
0.0
 40
4.0
 50
180.00000000000779
 51
264.99999999999949
  0
LINE
  5
551D
  8
FUTO
 10
10519.14865440561
 20
6536.0724801362539
 30
0.0
 11
8369.1486544056188
 21
6536.0724801362539
 31
0.0
  0
LINE
  5
551E
  8
FUTO
 10
10519.14865440561
 20
6660.0794801362526
 30
0.0
 11
8369.1486544056188
 21
6660.0794801362526
 31
0.0
  0
LINE
  5
551F
  8
FUTO
 10
4218.991138061785
 20
6536.0724801362539
 30
0.0
 11
6718.991138061785
 21
6536.0724801362539
 31
0.0
  0
LINE
  5
5520
  8
FUTO
 10
4218.991138061785
 20
6660.0794801362526
 30
0.0
 11
6718.991138061785
 21
6660.0794801362526
 31
0.0
  0
LINE
  5
5522
  8
FUTO
 10
9335.1486544056152
 20
9562.0759801362528
 30
0.0
 11
9335.1486544056115
 21
8423.0759801362528
 31
0.0
  0
LINE
  5
5523
  8
FUTO
 10
10515.14865440561
 20
9562.0759801362528
 30
0.0
 11
10515.14865440561
 21
8446.0759801362528
 31
0.0
  0
LINE
  5
5524
  8
FUTO
 10
10518.34865440561
 20
9562.0759801362528
 30
0.0
 11
10518.34865440561
 21
8446.0759801362528
 31
0.0
  0
LINE
  5
5525
  8
FUTO
 10
9331.9486544056163
 20
9562.0759801362528
 30
0.0
 11
9331.9486544056163
 21
8423.0759801362528
 31
0.0
  0
LINE
  5
552A
  8
FUTO
 10
10593.34865440561
 20
9562.0759801362528
 30
0.0
 11
10593.34865440561
 21
8561.6254205126879
 31
0.0
  0
LINE
  5
552B
  8
FUTO
 10
9256.9486544056163
 20
9562.0759801362528
 30
0.0
 11
9256.9486544056163
 21
8561.6254205126843
 31
0.0
  0
LINE
  5
5533
  8
CT
 10
9124.1486544056152
 20
8583.4429381722166
 30
0.0
 11
9124.1486544056152
 21
8251.3968893987167
 31
0.0
  0
LINE
  5
5534
  8
CT
 10
8444.1486544056133
 20
8583.4429381722166
 30
0.0
 11
8444.1486544056133
 21
8251.3968893987167
 31
0.0
  0
LINE
  5
5537
  8
CT
 10
9079.1486544056152
 20
8355.0188369155221
 30
0.0
 11
9079.1486544056152
 21
8265.0188369155203
 31
0.0
  0
LINE
  5
5538
  8
CT
 10
9169.1486544056152
 20
8355.0188369155221
 30
0.0
 11
9169.1486544056152
 21
8265.0188369155203
 31
0.0
  0
LINE
  5
5548
  8
FUTO
 10
9151.6486544056152
 20
8543.0759801362528
 30
0.0
 11
9188.1486544056152
 21
8543.0759801362528
 31
0.0
  0
LINE
  5
5549
  8
FUTO
 10
9151.6486544056152
 20
8556.0759801362547
 30
0.0
 11
9151.6486544056152
 21
8343.0759801362528
 31
0.0
  0
LINE
  5
554A
  8
FUTO
 10
9096.6486544056152
 20
8556.0759801362547
 30
0.0
 11
9096.6486544056152
 21
8343.0759801362528
 31
0.0
  0
ARC
  5
554B
  8
FUTO
 10
9191.1486544056152
 20
8340.0759801362528
 30
0.0
 40
3.0
 50
0.0
 51
90.0
  0
ARC
  5
554C
  8
FUTO
 10
9057.1486544056152
 20
8340.0759801362528
 30
0.0
 40
3.0
 50
90.000000000000028
 51
180.0
  0
LINE
  5
554D
  8
FUTO
 10
9202.148654405617
 20
8543.0759801362528
 30
0.0
 11
9188.1486544056152
 21
8543.0759801362528
 31
0.0
  0
LINE
  5
554E
  8
FUTO
 10
9178.1486544056152
 20
8556.0759801362547
 30
0.0
 11
9178.1486544056152
 21
8543.0759801362528
 31
0.0
  0
LINE
  5
554F
  8
FUTO
 10
9060.1486544056152
 20
8543.0759801362528
 30
0.0
 11
9096.6486544056152
 21
8543.0759801362528
 31
0.0
  0
LINE
  5
5550
  8
FUTO
 10
9070.1486544056152
 20
8556.0759801362547
 30
0.0
 11
9070.1486544056152
 21
8543.0759801362528
 31
0.0
  0
LINE
  5
5551
  8
FUTO
 10
9046.1486544056152
 20
8543.0759801362528
 30
0.0
 11
9060.1486544056152
 21
8543.0759801362528
 31
0.0
  0
LINE
  5
5552
  8
FUTO
 10
9070.1486544056152
 20
8556.0759801362547
 30
0.0
 11
9178.1486544056152
 21
8556.0759801362547
 31
0.0
  0
LINE
  5
5553
  8
FUTO
 10
9202.148654405617
 20
8303.0759801362547
 30
0.0
 11
9194.1486544056133
 21
8303.0759801362547
 31
0.0
  0
LINE
  5
5554
  8
FUTO
 10
9210.1486544056152
 20
8343.0759801362528
 30
0.0
 11
9202.148654405617
 21
8323.0759801362528
 31
0.0
  0
LINE
  5
5555
  8
FUTO
 10
9194.1486544056133
 20
8340.0759801362528
 30
0.0
 11
9194.1486544056133
 21
8293.0759801362528
 31
0.0
  0
LINE
  5
5556
  8
FUTO
 10
9210.1486544056152
 20
8503.0759801362528
 30
0.0
 11
9210.1486544056152
 21
8343.0759801362528
 31
0.0
  0
LINE
  5
5557
  8
FUTO
 10
9046.1486544056152
 20
8303.0759801362547
 30
0.0
 11
9054.1486544056152
 21
8303.0759801362547
 31
0.0
  0
LINE
  5
5558
  8
FUTO
 10
9038.1486544056152
 20
8343.0759801362528
 30
0.0
 11
9046.1486544056152
 21
8323.0759801362528
 31
0.0
  0
LINE
  5
5559
  8
FUTO
 10
9054.1486544056152
 20
8340.0759801362528
 30
0.0
 11
9054.1486544056152
 21
8293.0759801362528
 31
0.0
  0
LINE
  5
555A
  8
FUTO
 10
9038.1486544056152
 20
8503.0759801362528
 30
0.0
 11
9038.1486544056152
 21
8343.0759801362528
 31
0.0
  0
LINE
  5
555B
  8
FUTO
 10
9057.1486544056152
 20
8343.0759801362528
 30
0.0
 11
9191.1486544056152
 21
8343.0759801362528
 31
0.0
  0
LINE
  5
555C
  8
FUTO
 10
9044.1486544056152
 20
8293.0759801362528
 30
0.0
 11
9204.1486544056152
 21
8293.0759801362528
 31
0.0
  0
LINE
  5
555D
  8
FUTO
 10
9188.1486544056152
 20
8543.0759801362528
 30
0.0
 11
9188.1486544056152
 21
8343.0759801362528
 31
0.0
  0
LINE
  5
555E
  8
FUTO
 10
9202.148654405617
 20
8543.0759801362528
 30
0.0
 11
9202.148654405617
 21
8303.0759801362547
 31
0.0
  0
LINE
  5
555F
  8
FUTO
 10
9210.1486544056152
 20
8503.0759801362528
 30
0.0
 11
9202.148654405617
 21
8523.0759801362528
 31
0.0
  0
LINE
  5
5560
  8
FUTO
 10
9038.1486544056152
 20
8503.0759801362528
 30
0.0
 11
9046.1486544056152
 21
8523.0759801362528
 31
0.0
  0
LINE
  5
5561
  8
FUTO
 10
9046.1486544056152
 20
8543.0759801362528
 30
0.0
 11
9046.1486544056152
 21
8303.0759801362547
 31
0.0
  0
LINE
  5
5562
  8
FUTO
 10
9188.1486544056152
 20
8543.0759801362528
 30
0.0
 11
9188.1486544056152
 21
8343.0759801362528
 31
0.0
  0
LINE
  5
5563
  8
FUTO
 10
9060.1486544056152
 20
8543.0759801362528
 30
0.0
 11
9060.1486544056152
 21
8343.0759801362528
 31
0.0
  0
LINE
  5
55BF
  8
FUTO
 10
8519.1486544056152
 20
8315.0759801362528
 30
0.0
 11
8369.1486544056152
 21
8315.0759801362547
 31
0.0
  0
LINE
  5
55C1
  8
FUTO
 10
8519.1486544056152
 20
8315.0759801362528
 30
0.0
 11
8519.1486544056152
 21
8275.0759801362547
 31
0.0
  0
LINE
  5
55C6
  8
FUTO
 10
8369.1486544056152
 20
8315.0759801362547
 30
0.0
 11
8369.1486544056188
 21
6673.0759801362528
 31
0.0
  0
LINE
  5
55CC
  8
FUTO
 10
8389.1486544056133
 20
8323.0759801362547
 30
0.0
 11
8389.1486544056133
 21
8315.0759801362547
 31
0.0
  0
LINE
  5
55CD
  8
FUTO
 10
8499.1486544056152
 20
8323.0759801362547
 30
0.0
 11
8499.1486544056152
 21
8315.0759801362528
 31
0.0
  0
LINE
  5
55DF
  8
FUTO
 10
9034.1486544056152
 20
8285.0759801362528
 30
0.0
 11
9214.1486544056152
 21
8285.0759801362528
 31
0.0
  0
LINE
  5
55E0
  8
FUTO
 10
9214.1486544056152
 20
8285.0759801362528
 30
0.0
 11
9214.1486544056152
 21
6673.0759801362528
 31
0.0
  0
LINE
  5
55E6
  8
FUTO
 10
9034.1486544056152
 20
8285.0759801362528
 30
0.0
 11
9034.1486544056152
 21
8275.0759801362547
 31
0.0
  0
LINE
  5
55ED
  8
FUTO
 10
9044.1486544056152
 20
8293.0759801362528
 30
0.0
 11
9044.1486544056152
 21
8285.0759801362528
 31
0.0
  0
LINE
  5
55EE
  8
FUTO
 10
9204.1486544056152
 20
8293.0759801362528
 30
0.0
 11
9204.1486544056152
 21
8285.0759801362528
 31
0.0
  0
LINE
  5
55F3
  8
FUTO
 10
9034.1486544056152
 20
8275.0759801362547
 30
0.0
 11
8519.1486544056152
 21
8275.0759801362547
 31
0.0
  0
LINE
  5
5600
  8
FUTO
 10
9266.9486544056163
 20
8551.6254205126825
 30
0.0
 11
10583.34865440561
 21
8551.6254205126825
 31
0.0
  0
LINE
  5
5601
  8
FUTO
 10
9266.9486544056163
 20
8533.6254205126843
 30
0.0
 11
10583.34865440561
 21
8533.6254205126843
 31
0.0
  0
LINE
  5
5602
  8
FUTO
 10
9266.9486544056163
 20
8551.6254205126825
 30
0.0
 11
9266.9486544056181
 21
8533.6254205126843
 31
0.0
  0
LINE
  5
5603
  8
FUTO
 10
9335.1486544056115
 20
8423.0759801362528
 30
0.0
 11
9335.1486544056152
 21
6725.0759801362528
 31
0.0
  0
LINE
  5
5604
  8
FUTO
 10
9331.9486544056163
 20
8423.0759801362528
 30
0.0
 11
9331.9486544056181
 21
6725.0759801362528
 31
0.0
  0
LINE
  5
5605
  8
FUTO
 10
10518.34865440561
 20
8381.0759801362528
 30
0.0
 11
10518.34865440561
 21
6725.0759801362528
 31
0.0
  0
LINE
  5
5606
  8
FUTO
 10
10515.14865440561
 20
8381.0759801362528
 30
0.0
 11
10515.14865440561
 21
6725.0759801362528
 31
0.0
  0
LINE
  5
5608
  8
FUTO
 10
10583.34865440561
 20
8551.6254205126825
 30
0.0
 11
10593.34865440561
 21
8561.6254205126861
 31
0.0
  0
LINE
  5
5609
  8
FUTO
 10
10583.34865440561
 20
8533.6254205126843
 30
0.0
 11
10593.34865440561
 21
8523.6254205126825
 31
0.0
  0
LINE
  5
560A
  8
FUTO
 10
10593.34865440561
 20
8423.0759801362528
 30
0.0
 11
10593.34865440561
 21
8322.5265397598232
 31
0.0
  0
LINE
  5
560B
  8
FUTO
 10
9266.9486544056163
 20
8551.6254205126825
 30
0.0
 11
9256.9486544056163
 21
8561.6254205126843
 31
0.0
  0
LINE
  5
560C
  8
FUTO
 10
9266.9486544056163
 20
8533.6254205126843
 30
0.0
 11
9256.9486544056163
 21
8523.6254205126861
 31
0.0
  0
LINE
  5
560D
  8
FUTO
 10
9256.9486544056163
 20
8423.0759801362528
 30
0.0
 11
9256.9486544056144
 21
8322.5265397598214
 31
0.0
  0
LINE
  5
560E
  8
SL
 10
8184.1486544056161
 20
8738.0759801362528
 30
0.0
 11
8184.1486544056106
 21
6800.5759801362547
 31
0.0
  0
LINE
  5
560F
  8
SL
 10
8184.1486544056161
 20
8738.0759801362528
 30
0.0
 11
8262.0486544056148
 21
8738.0759801362528
 31
0.0
  0
LINE
  5
5610
  8
SL
 10
8184.1486544056161
 20
8108.0759801362537
 30
0.0
 11
8262.0486544056148
 21
8108.0759801362537
 31
0.0
  0
LINE
  5
5611
  8
SL
 10
8262.0486544056148
 20
8738.0759801362528
 30
0.0
 11
8262.0486544056148
 21
8503.0759801362528
 31
0.0
  0
LINE
  5
5613
  8
SL
 10
8284.148654405617
 20
8503.0759801362528
 30
0.0
 11
8284.148654405617
 21
8343.0759801362528
 31
0.0
  0
LINE
  5
5614
  8
SL
 10
8262.0486544056148
 20
8503.0759801362528
 30
0.0
 11
8284.1486544056152
 21
8503.0759801362528
 31
0.0
  0
LINE
  5
5615
  8
SL
 10
8262.0486544056148
 20
8343.0759801362528
 30
0.0
 11
8284.1486544056152
 21
8343.0759801362528
 31
0.0
  0
LINE
  5
5616
  8
SL
 10
8262.0486544056148
 20
8343.0759801362528
 30
0.0
 11
8262.0486544056148
 21
8108.0759801362537
 31
0.0
  0
LINE
  5
5617
  8
CT
 10
8022.5644104319181
 20
6933.0759801362528
 30
0.0
 11
8361.1486544056152
 21
6933.0759801362528
 31
0.0
  0
LINE
  5
5618
  8
SL
 10
8184.1486544056143
 20
7065.5759801362528
 30
0.0
 11
8262.0486544056148
 21
7065.5759801362528
 31
0.0
  0
LINE
  5
5619
  8
SL
 10
8184.1486544056143
 20
6800.5759801362528
 30
0.0
 11
8262.0486544056148
 21
6800.5759801362528
 31
0.0
  0
LINE
  5
561A
  8
SL
 10
8262.0486544056148
 20
8738.0759801362528
 30
0.0
 11
8262.0486544056093
 21
6800.5759801362528
 31
0.0
  0
LINE
  5
561B
  8
SL
 10
8282.1486544056133
 20
7003.0759801362528
 30
0.0
 11
8282.1486544056133
 21
6863.0759801362528
 31
0.0
  0
LINE
  5
561C
  8
SL
 10
8262.0486544056148
 20
7003.0759801362528
 30
0.0
 11
8282.1486544056133
 21
7003.0759801362528
 31
0.0
  0
LINE
  5
561D
  8
SL
 10
8262.0486544056148
 20
6863.0759801362528
 30
0.0
 11
8282.1486544056133
 21
6863.0759801362528
 31
0.0
  0
LINE
  5
561E
  8
SL
 10
8262.0486544056148
 20
6863.0759801362528
 30
0.0
 11
8262.0486544056148
 21
6800.5759801362528
 31
0.0
  0
LINE
  5
561F
  8
FUTO
 10
8045.1486544056161
 20
8803.0759801362547
 30
0.0
 11
8334.1486544056152
 21
8803.0759801362547
 31
0.0
  0
LINE
  5
5620
  8
FUTO
 10
8045.1486544056133
 20
6713.0759801362537
 30
0.0
 11
8334.1486544056152
 21
6713.0759801362519
 31
0.0
  0
LINE
  5
5621
  8
FUTO
 10
8045.1486544056161
 20
8803.0759801362547
 30
0.0
 11
8045.1486544056133
 21
6713.0759801362537
 31
0.0
  0
LINE
  5
5622
  8
FUTO
 10
8334.1486544056133
 20
8803.0759801362547
 30
0.0
 11
8334.1486544056133
 21
6713.0759801362537
 31
0.0
  0
LINE
  5
5623
  8
FUTO
 10
8514.1486544056133
 20
8473.0759801362528
 30
0.0
 11
9038.1486544056133
 21
8473.0759801362528
 31
0.0
  0
LINE
  5
5624
  8
FUTO
 10
8514.1486544056133
 20
8373.0759801362528
 30
0.0
 11
9038.1486544056133
 21
8373.0759801362528
 31
0.0
  0
LINE
  5
5625
  8
KL
 10
9210.1486544056152
 20
8473.0759801362528
 30
0.0
 11
9331.9486544056144
 21
8473.0759801362528
 31
0.0
  0
LINE
  5
5626
  8
KL
 10
9210.1486544056152
 20
8373.0759801362528
 30
0.0
 11
9331.9486544056163
 21
8373.0759801362528
 31
0.0
  0
LINE
  5
5627
  8
FUTO
 10
8284.1486544056152
 20
8465.5759801362547
 30
0.0
 11
8374.1486544056152
 21
8465.5759801362547
 31
0.0
  0
LINE
  5
5628
  8
FUTO
 10
8284.1486544056152
 20
8380.5759801362528
 30
0.0
 11
8374.1486544056152
 21
8380.5759801362528
 31
0.0
  0
LINE
  5
5694
  8
FUTO
 10
4218.991138061785
 20
10617.31452044385
 30
0.0
 11
6393.991138061785
 21
10617.31452044385
 31
0.0
  0
LINE
  5
5695
  8
FUTO
 10
4818.991138061785
 20
12917.31452044385
 30
0.0
 11
6718.991138061785
 21
12917.31452044385
 31
0.0
  0
LINE
  5
5696
  8
FUTO
 10
6718.991138061785
 20
12917.31452044385
 30
0.0
 11
6718.991138061785
 21
12892.31452044385
 31
0.0
  0
LINE
  5
5699
  8
FUTO
 10
4397.991138061785
 20
11654.31452044385
 30
0.0
 11
5768.991138061785
 21
11654.31452044385
 31
0.0
  0
LINE
  5
569A
  8
FUTO
 10
4218.991138061785
 20
11579.31452044385
 30
0.0
 11
6718.991138061785
 21
11579.31452044385
 31
0.0
  0
LINE
  5
569B
  8
FUTO
 10
4218.991138061785
 20
10692.31452044385
 30
0.0
 11
6393.991138061785
 21
10692.31452044385
 31
0.0
  0
LINE
  5
569C
  8
FUTO
 10
4397.991138061785
 20
12842.314520443861
 30
0.0
 11
5768.991138061785
 21
12842.31452044385
 31
0.0
  0
LINE
  5
56A0
  8
FUTO
 10
6393.991138061785
 20
11579.31452044385
 30
0.0
 11
6393.991138061785
 21
10617.31452044385
 31
0.0
  0
LINE
  5
56A2
  8
FUTO
 10
6318.991138061785
 20
11579.31452044385
 30
0.0
 11
6318.991138061785
 21
10692.31452044385
 31
0.0
  0
LINE
  5
56A4
  8
FUTO
 10
5143.991138061785
 20
11579.31452044385
 30
0.0
 11
5143.991138061785
 21
10692.31452044385
 31
0.0
  0
LINE
  5
56A6
  8
FUTO
 10
4818.991138061785
 20
12917.31452044385
 30
0.0
 11
4818.991138061785
 21
12892.31452044385
 31
0.0
  0
LINE
  5
56A7
  8
FUTO
 10
5218.991138061785
 20
11579.31452044385
 30
0.0
 11
5218.991138061785
 21
10692.31452044385
 31
0.0
  0
LINE
  5
56A8
  8
FUTO
 10
4218.9911380617823
 20
11654.31452044385
 30
0.0
 11
4218.991138061785
 21
11579.31452044385
 31
0.0
  0
LINE
  5
56A9
  8
FUTO
 10
4218.991138061785
 20
10692.31452044385
 30
0.0
 11
4218.991138061785
 21
10617.31452044385
 31
0.0
  0
LINE
  5
56AC
  8
FUTO
 10
4328.991138061785
 20
11579.31452044385
 30
0.0
 11
4328.991138061785
 21
11254.85307807201
 31
0.0
  0
LINE
  5
56AD
  8
FUTO
 10
4393.9911380617841
 20
11579.31452044385
 30
0.0
 11
4393.9911380617841
 21
11306.81452044385
 31
0.0
  0
LINE
  5
56AE
  8
FUTO
 10
4643.991138061785
 20
11579.31452044385
 30
0.0
 11
4643.991138061785
 21
11306.81452044385
 31
0.0
  0
LINE
  5
56AF
  8
FUTO
 10
4708.9911380617859
 20
11579.31452044385
 30
0.0
 11
4708.9911380617859
 21
11247.71448344385
 31
0.0
  0
LINE
  5
56B0
  8
CT
 10
3994.4046777823642
 20
12248.31452044385
 30
0.0
 11
6969.0314626569198
 21
12248.31452044385
 31
0.0
  0
LINE
  5
69CC
  8
CT
 10
10495.14865440561
 20
9263.0759801362547
 30
0.0
 11
10538.34865440561
 21
9263.0759801362547
 31
0.0
  0
DIMENSION
  5
6A61
  8
SP
  2
*D3
 10
5768.991138061785
 20
6102.5636699531487
 30
0.0
 11
6243.991138061785
 21
6190.0636699531497
 31
0.0
 70
     0
 13
6718.991138061785
 23
6353.0759801362528
 33
0.0
 14
5768.991138061785
 24
6353.0759801362528
 34
0.0
 50
180.0
1001
ACAD
1000
DSTYLE
1002
{
1070
    40
1040
35.0
1070
   147
1040
1.0
1070
    41
1040
2.5
1002
}
  0
DIMENSION
  5
6A6E
  8
SP
  2
*D4
 10
4218.991138061785
 20
6102.5636699531487
 30
0.0
 11
4993.991138061785
 21
6190.0636699531497
 31
0.0
 70
     0
 13
5768.991138061785
 23
6353.0759801362528
 33
0.0
 14
4218.991138061785
 24
6353.0759801362528
 34
0.0
 50
180.0
1001
ACAD
1000
DSTYLE
1002
{
1070
    40
1040
35.0
1070
   147
1040
1.0
1070
    41
1040
2.5
1002
}
  0
DIMENSION
  5
6A7B
  8
SP
  2
*D5
 10
4218.991138061785
 20
5852.4759259554912
 30
0.0
 11
5468.991138061785
 21
5939.9759259554921
 31
0.0
 70
     0
 13
6718.991138061785
 23
6353.0759801362528
 33
0.0
 14
4218.991138061785
 24
6353.0759801362528
 34
0.0
 50
180.0
1001
ACAD
1000
DSTYLE
1002
{
1070
    40
1040
35.0
1070
   147
1040
1.0
1070
    41
1040
2.5
1002
}
  0
DIMENSION
  5
6A88
  8
SP
  2
*D6
 10
9925.1486544056152
 20
6102.5636465653106
 30
0.0
 11
9109.6486544056152
 21
6190.0636465653106
 31
0.0
 70
     0
 13
8294.1486544056152
 23
6353.0759801362519
 33
0.0
 14
9925.1486544056152
 24
6353.0759801362528
 34
0.0
1001
ACAD
1000
DSTYLE
1002
{
1070
    40
1040
35.0
1070
   147
1040
1.0
1070
    41
1040
2.5
1002
}
  0
DIMENSION
  5
6A95
  8
SP
  2
*D7
 10
10594.14865440561
 20
6102.5636465653106
 30
0.0
 11
10259.64865440561
 21
6190.0636465653106
 31
0.0
 70
     0
 13
9925.1486544056152
 23
6353.0759801362528
 33
0.0
 14
10594.14865440561
 24
6353.0759801362519
 34
0.0
1001
ACAD
1000
DSTYLE
1002
{
1070
    40
1040
35.0
1070
   147
1040
1.0
1070
    41
1040
2.5
1002
}
  0
DIMENSION
  5
6AA2
  8
SP
  2
*D8
 10
10594.14865440561
 20
5852.475902567654
 30
0.0
 11
9444.1486544056133
 21
5939.9759025676531
 31
0.0
 70
     0
 13
8294.1486544056152
 23
6353.0759801362519
 33
0.0
 14
10594.14865440561
 24
6353.0759801362519
 34
0.0
1001
ACAD
1000
DSTYLE
1002
{
1070
    40
1040
35.0
1070
   147
1040
1.0
1070
    41
1040
2.5
1002
}
  0
LINE
  5
6ADF
  8
FUTO
 10
10650.14865440561
 20
9288.0759801362547
 30
0.0
 11
10650.14865440561
 21
7558.0759801362528
 31
0.0
  0
LINE
  5
6AE1
  8
KL
 10
10518.34865440561
 20
9223.0759801362528
 30
0.0
 11
10650.14865440561
 21
9223.0759801362528
 31
0.0
  0
LINE
  5
6AE5
  8
KL
 10
10518.34865440561
 20
9288.0759801362547
 30
0.0
 11
10524.34865440561
 21
9288.0759801362547
 31
0.0
  0
LINE
  5
6AE7
  8
FUTO
 10
10644.14865440561
 20
9288.0759801362547
 30
0.0
 11
10644.14865440561
 21
7558.0759801362528
 31
0.0
  0
LINE
  5
6AE8
  8
FUTO
 10
10593.34865440561
 20
9229.0759801362528
 30
0.0
 11
10644.14865440561
 21
9229.0759801362528
 31
0.0
  0
LINE
  5
6AEA
  8
KL
 10
10524.34865440561
 20
9288.0759801362547
 30
0.0
 11
10524.34865440561
 21
8432.0759801362528
 31
0.0
  0
LINE
  5
6AEB
  8
FUTO
 10
10644.14865440561
 20
9288.0759801362547
 30
0.0
 11
10650.14865440561
 21
9288.0759801362547
 31
0.0
  0
LINE
  5
6AEC
  8
CT
 10
10625.14865440561
 20
9263.0759801362547
 30
0.0
 11
10668.34865440561
 21
9263.0759801362547
 31
0.0
  0
LINE
  5
6AED
  8
KL
 10
10518.34865440561
 20
7623.0759801362528
 30
0.0
 11
10650.14865440561
 21
7623.0759801362528
 31
0.0
  0
LINE
  5
6AEE
  8
CT
 10
10495.14865440561
 20
7583.0759801362528
 30
0.0
 11
10538.34865440561
 21
7583.0759801362528
 31
0.0
  0
LINE
  5
6AEF
  8
KL
 10
10518.34865440561
 20
7558.0759801362528
 30
0.0
 11
10524.34865440561
 21
7558.0759801362528
 31
0.0
  0
LINE
  5
6AF0
  8
CT
 10
10625.14865440561
 20
7583.0759801362528
 30
0.0
 11
10668.34865440561
 21
7583.0759801362528
 31
0.0
  0
LINE
  5
6AF1
  8
FUTO
 10
10593.34865440561
 20
7617.0759801362528
 30
0.0
 11
10644.14865440561
 21
7617.0759801362528
 31
0.0
  0
LINE
  5
6AF2
  8
FUTO
 10
10644.14865440561
 20
7558.0759801362528
 30
0.0
 11
10650.14865440561
 21
7558.0759801362528
 31
0.0
  0
LINE
  5
6AF3
  8
KL
 10
10524.34865440561
 20
8414.0759801362528
 30
0.0
 11
10524.34865440561
 21
7558.0759801362528
 31
0.0
  0
DIMENSION
  5
6B00
  8
SP
  2
*D9
 10
10650.14865440561
 20
9882.6500017532253
 30
0.0
 11
10287.64865440561
 21
9970.1500017532271
 31
0.0
 70
     0
 13
9925.1486544056152
 23
9836.677622204259
 33
0.0
 14
10650.14865440561
 24
9273.6128537434779
 34
0.0
1001
ACAD
1000
DSTYLE
1002
{
1070
    40
1040
35.0
1070
   147
1040
1.0
1070
    41
1040
2.5
1002
}
  0
LINE
  5
6E16
  8
SL
 10
8535.3686404600303
 20
8275.0759801362547
 30
0.0
 11
8535.3686404600303
 21
8579.8933387398429
 31
0.0
  0
LINE
  5
6E17
  8
SL
 10
8535.3686404600303
 20
8579.8933387398429
 30
0.0
 11
9021.3240128887919
 21
8579.8933387398429
 31
0.0
  0
LINE
  5
6E18
  8
SL
 10
9021.3240128887919
 20
8579.8933387398429
 30
0.0
 11
9021.3240128887919
 21
8275.0759801362547
 31
0.0
  0
INSERT
  5
6E51
  8
FUTO
  2
右回転矢印
 10
5558.4854382905032
 20
9035.8773043834917
 30
0.0
 41
-35.0
 42
35.0
 43
35.0
  0
INSERT
  5
6EE2
  8
FUTO
  2
まっすぐの矢印
 10
7044.8776618056163
 20
8026.1584794656574
 30
0.0
 41
35.0
 42
35.0
 43
35.0
 50
270.0
  0
INSERT
  5
6EEC
  8
FUTO
  2
まっすぐの矢印
 10
10696.61663397677
 20
8950.7776804798159
 30
0.0
 41
35.0
 42
35.0
 43
35.0
 50
90.0
  0
DIMENSION
  5
6F64
  8
SP
  2
*D10
 10
10929.342055607491
 20
7623.0759801362528
 30
0.0
 11
10841.842055607491
 21
8423.0759801362547
 31
0.0
 70
     0
 13
10650.14865440561
 23
9223.0759801362528
 33
0.0
 14
10650.14865440561
 24
7623.0759801362528
 34
0.0
 50
90.0
1001
ACAD
1000
DSTYLE
1002
{
1070
    40
1040
35.0
1070
     3
1000
φ<>
1070
   147
1040
1.0
1070
    41
1040
2.5
1002
}
  0
DIMENSION
  5
6FB2
  8
SP
  2
*D11
 10
9925.1486544056152
 20
9882.6500017532253
 30
0.0
 11
8985.1486544056188
 21
9970.1500017532271
 31
0.0
 70
     0
 13
8045.1486544056161
 23
8788.3445714491263
 33
0.0
 14
9925.1486544056152
 24
9882.6500017532253
 34
0.0
1001
ACAD
1000
DSTYLE
1002
{
1070
    40
1040
35.0
1070
    41
1040
2.5
1070
   147
1040
1.0
1002
}
  0
LINE
  5
6FD7
  8
CT
 10
5768.991138061785
 20
10254.451323658141
 30
0.0
 11
5768.991138061785
 21
13018.092432260721
 31
0.0
  0
LINE
  5
6FDA
  8
FUTO
 10
6148.991138061785
 20
10368.31452044385
 30
0.0
 11
4315.491138061785
 21
10368.31452044385
 31
0.0
  0
LINE
  5
6FDB
  8
FUTO
 10
6148.991138061785
 20
10657.31452044385
 30
0.0
 11
4315.491138061785
 21
10657.31452044385
 31
0.0
  0
LINE
  5
6FDC
  8
SL
 10
6083.991138061785
 20
10585.214520443849
 30
0.0
 11
4651.4911380617841
 21
10585.214520443849
 31
0.0
  0
LINE
  5
6FDD
  8
SL
 10
6083.991138061785
 20
10507.314520443861
 30
0.0
 11
4386.4911380617859
 21
10507.31452044385
 31
0.0
  0
LINE
  5
6FE5
  8
SL
 10
4651.4911380617832
 20
10605.31452044385
 30
0.0
 11
4386.4911380617841
 21
10605.31452044385
 31
0.0
  0
LINE
  5
6FE8
  8
FUTO
 10
6148.991138061785
 20
10368.31452044385
 30
0.0
 11
6148.991138061785
 21
10657.31452044385
 31
0.0
  0
LINE
  5
6FE9
  8
SL
 10
5688.991138061785
 20
10585.214520443849
 30
0.0
 11
5688.991138061785
 21
10607.31452044385
 31
0.0
  0
LINE
  5
6FEA
  8
SL
 10
5848.991138061785
 20
10585.214520443849
 30
0.0
 11
5848.991138061785
 21
10607.31452044385
 31
0.0
  0
LINE
  5
6FEB
  8
SL
 10
6083.991138061785
 20
10585.214520443849
 30
0.0
 11
5848.991138061785
 21
10585.214520443849
 31
0.0
  0
LINE
  5
6FEC
  8
SL
 10
5688.991138061785
 20
10585.214520443849
 30
0.0
 11
5453.991138061785
 21
10585.214520443849
 31
0.0
  0
LINE
  5
6FED
  8
SL
 10
5453.991138061785
 20
10507.31452044385
 30
0.0
 11
5453.991138061785
 21
10585.214520443849
 31
0.0
  0
LINE
  5
6FEE
  8
SL
 10
6083.991138061785
 20
10507.314520443861
 30
0.0
 11
6083.991138061785
 21
10585.214520443849
 31
0.0
  0
LINE
  5
6FF1
  8
FUTO
 10
5718.991138061785
 20
10837.31452044385
 30
0.0
 11
5718.991138061785
 21
11361.31452044385
 31
0.0
  0
LINE
  5
6FF2
  8
FUTO
 10
5818.991138061785
 20
10837.31452044385
 30
0.0
 11
5818.991138061785
 21
11361.31452044385
 31
0.0
  0
LINE
  5
6FF5
  8
CT
 10
5929.3580960977479
 20
10767.31452044385
 30
0.0
 11
5597.3120473242507
 21
10767.31452044385
 31
0.0
  0
LINE
  5
6FF6
  8
FUTO
 10
5868.991138061785
 20
10717.31452044385
 30
0.0
 11
5668.9911380617859
 21
10717.31452044385
 31
0.0
  0
ARC
  5
6FF7
  8
FUTO
 10
5679.991138061785
 20
10708.31452044385
 30
0.0
 40
6.0
 50
180.0
 51
270.0
  0
LINE
  5
6FF8
  8
FUTO
 10
5668.9911380617859
 20
10817.31452044385
 30
0.0
 11
5868.991138061785
 21
10817.31452044385
 31
0.0
  0
ARC
  5
6FF9
  8
FUTO
 10
5679.991138061785
 20
10826.31452044385
 30
0.0
 40
6.0
 50
90.0
 51
180.0
  0
LINE
  5
6FFD
  8
FUTO
 10
5673.9911380617859
 20
10708.31452044385
 30
0.0
 11
5673.9911380617859
 21
10717.31452044385
 31
0.0
  0
LINE
  5
7000
  8
FUTO
 10
5673.9911380617859
 20
10826.31452044385
 30
0.0
 11
5673.9911380617859
 21
10817.31452044385
 31
0.0
  0
ARC
  5
7001
  8
FUTO
 10
5857.991138061785
 20
10708.31452044385
 30
0.0
 40
6.0
 50
270.0
 51
0.000000000000007
  0
ARC
  5
7002
  8
FUTO
 10
5857.991138061785
 20
10826.31452044385
 30
0.0
 40
6.0
 50
0.000000000000007
 51
90.0
  0
LINE
  5
7004
  8
FUTO
 10
5726.491138061785
 20
10607.31452044385
 30
0.0
 11
5726.491138061785
 21
10697.31452044385
 31
0.0
  0
LINE
  5
7005
  8
FUTO
 10
5811.4911380617859
 20
10607.31452044385
 30
0.0
 11
5811.4911380617859
 21
10697.31452044385
 31
0.0
  0
LINE
  5
7006
  8
SL
 10
5848.991138061785
 20
10607.31452044385
 30
0.0
 11
5688.991138061785
 21
10607.31452044385
 31
0.0
  0
LINE
  5
7007
  8
FUTO
 10
5848.991138061785
 20
10697.31452044385
 30
0.0
 11
5688.991138061785
 21
10697.31452044385
 31
0.0
  0
LINE
  5
7008
  8
FUTO
 10
5857.9911380617859
 20
10702.31452044385
 30
0.0
 11
5679.9911380617859
 21
10702.31452044385
 31
0.0
  0
LINE
  5
7009
  8
FUTO
 10
5688.991138061785
 20
10697.31452044385
 30
0.0
 11
5688.991138061785
 21
10702.31452044385
 31
0.0
  0
LINE
  5
700B
  8
FUTO
 10
5848.991138061785
 20
10702.31452044385
 30
0.0
 11
5848.991138061785
 21
10697.31452044385
 31
0.0
  0
LINE
  5
700C
  8
FUTO
 10
5857.9911380617859
 20
10832.31452044385
 30
0.0
 11
5679.9911380617859
 21
10832.31452044385
 31
0.0
  0
LINE
  5
700D
  8
FUTO
 10
5848.991138061785
 20
10837.31452044385
 30
0.0
 11
5688.991138061785
 21
10837.31452044385
 31
0.0
  0
LINE
  5
700F
  8
FUTO
 10
5688.991138061785
 20
10837.31452044385
 30
0.0
 11
5688.991138061785
 21
10832.31452044385
 31
0.0
  0
LINE
  5
7010
  8
FUTO
 10
5848.991138061785
 20
10832.31452044385
 30
0.0
 11
5848.991138061785
 21
10837.31452044385
 31
0.0
  0
LINE
  5
7011
  8
FUTO
 10
5868.991138061785
 20
10817.31452044385
 30
0.0
 11
5868.991138061785
 21
10717.31452044385
 31
0.0
  0
LINE
  5
7012
  8
FUTO
 10
5863.991138061785
 20
10717.31452044385
 30
0.0
 11
5863.9911380617859
 21
10708.31452044385
 31
0.0
  0
LINE
  5
7013
  8
FUTO
 10
5863.991138061785
 20
10817.31452044385
 30
0.0
 11
5863.9911380617859
 21
10826.31452044385
 31
0.0
  0
LINE
  5
7015
  8
FUTO
 10
5888.991138061785
 20
11369.31452044385
 30
0.0
 11
5648.991138061785
 21
11369.31452044385
 31
0.0
  0
LINE
  5
7016
  8
FUTO
 10
5888.991138061785
 20
11525.31452044385
 30
0.0
 11
5648.991138061785
 21
11525.31452044385
 31
0.0
  0
LINE
  5
7018
  8
FUTO
 10
5688.991138061785
 20
11361.31452044385
 30
0.0
 11
5668.991138061785
 21
11369.31452044385
 31
0.0
  0
LINE
  5
701A
  8
FUTO
 10
5688.991138061785
 20
11533.31452044385
 30
0.0
 11
5668.991138061785
 21
11525.31452044385
 31
0.0
  0
LINE
  5
701D
  8
CT
 10
5929.3580960977479
 20
11447.31452044385
 30
0.0
 11
5597.3120473242507
 21
11447.31452044385
 31
0.0
  0
LINE
  5
7022
  8
FUTO
 10
5648.991138061785
 20
11369.31452044385
 30
0.0
 11
5648.991138061785
 21
11377.31452044385
 31
0.0
  0
LINE
  5
7024
  8
FUTO
 10
5648.991138061785
 20
11525.31452044385
 30
0.0
 11
5648.991138061785
 21
11517.31452044385
 31
0.0
  0
LINE
  5
7026
  8
FUTO
 10
5901.9911380617841
 20
11393.31452044385
 30
0.0
 11
5901.9911380617841
 21
11501.31452044385
 31
0.0
  0
LINE
  5
7027
  8
FUTO
 10
5888.991138061785
 20
11383.31452044385
 30
0.0
 11
5648.991138061785
 21
11383.31452044385
 31
0.0
  0
LINE
  5
7028
  8
FUTO
 10
5848.991138061785
 20
11361.31452044385
 30
0.0
 11
5868.991138061785
 21
11369.31452044385
 31
0.0
  0
LINE
  5
7029
  8
FUTO
 10
5901.9911380617841
 20
11419.81452044385
 30
0.0
 11
5635.991138061785
 21
11419.81452044385
 31
0.0
  0
LINE
  5
702A
  8
FUTO
 10
5848.991138061785
 20
11361.31452044385
 30
0.0
 11
5688.991138061785
 21
11361.31452044385
 31
0.0
  0
LINE
  5
702C
  8
FUTO
 10
5888.991138061785
 20
11369.31452044385
 30
0.0
 11
5888.991138061785
 21
11383.31452044385
 31
0.0
  0
LINE
  5
702D
  8
FUTO
 10
5901.9911380617841
 20
11393.31452044385
 30
0.0
 11
5888.991138061785
 21
11393.31452044385
 31
0.0
  0
LINE
  5
702E
  8
FUTO
 10
5888.991138061785
 20
11383.31452044385
 30
0.0
 11
5888.991138061785
 21
11419.81452044385
 31
0.0
  0
LINE
  5
702F
  8
FUTO
 10
5888.991138061785
 20
11511.31452044385
 30
0.0
 11
5688.991138061785
 21
11511.31452044385
 31
0.0
  0
LINE
  5
7030
  8
FUTO
 10
5848.991138061785
 20
11533.31452044385
 30
0.0
 11
5868.991138061785
 21
11525.31452044385
 31
0.0
  0
LINE
  5
7031
  8
FUTO
 10
5888.991138061785
 20
11511.31452044385
 30
0.0
 11
5648.991138061785
 21
11511.31452044385
 31
0.0
  0
LINE
  5
7032
  8
FUTO
 10
5901.9911380617841
 20
11474.81452044385
 30
0.0
 11
5635.991138061785
 21
11474.81452044385
 31
0.0
  0
LINE
  5
7033
  8
KL
 10
5718.991138061785
 20
11533.31452044385
 30
0.0
 11
5718.991138061785
 21
11655.114520443851
 31
0.0
  0
LINE
  5
7034
  8
KL
 10
5818.991138061785
 20
11533.31452044385
 30
0.0
 11
5818.991138061785
 21
11655.114520443851
 31
0.0
  0
LINE
  5
7035
  8
FUTO
 10
5848.991138061785
 20
11533.31452044385
 30
0.0
 11
5688.991138061785
 21
11533.31452044385
 31
0.0
  0
LINE
  5
703A
  8
FUTO
 10
5901.9911380617841
 20
11501.31452044385
 30
0.0
 11
5888.991138061785
 21
11501.31452044385
 31
0.0
  0
LINE
  5
703B
  8
FUTO
 10
5888.991138061785
 20
11525.31452044385
 30
0.0
 11
5888.991138061785
 21
11511.31452044385
 31
0.0
  0
LINE
  5
703C
  8
FUTO
 10
5888.991138061785
 20
11474.81452044385
 30
0.0
 11
5888.991138061785
 21
11511.31452044385
 31
0.0
  0
LINE
  5
703F
  8
KL
 10
5759.991138061785
 20
12847.51452044385
 30
0.0
 11
4903.991138061785
 21
12847.51452044385
 31
0.0
  0
LINE
  5
7040
  8
FUTO
 10
6633.991138061785
 20
12967.31452044385
 30
0.0
 11
4903.991138061785
 21
12967.31452044385
 31
0.0
  0
LINE
  5
7041
  8
FUTO
 10
6633.991138061785
 20
12973.31452044385
 30
0.0
 11
4903.991138061785
 21
12973.31452044385
 31
0.0
  0
LINE
  5
7045
  8
KL
 10
4903.991138061785
 20
12841.51452044385
 30
0.0
 11
4903.991138061785
 21
12847.51452044385
 31
0.0
  0
LINE
  5
7046
  8
FUTO
 10
4903.991138061785
 20
12967.31452044385
 30
0.0
 11
4903.991138061785
 21
12973.31452044385
 31
0.0
  0
LINE
  5
7047
  8
FUTO
 10
4962.9911380617841
 20
12916.51452044385
 30
0.0
 11
4962.9911380617841
 21
12967.31452044385
 31
0.0
  0
LINE
  5
7048
  8
KL
 10
4968.991138061785
 20
12841.51452044385
 30
0.0
 11
4968.991138061785
 21
12973.31452044385
 31
0.0
  0
LINE
  5
7049
  8
CT
 10
4928.991138061785
 20
12818.31452044385
 30
0.0
 11
4928.991138061785
 21
12861.51452044385
 31
0.0
  0
LINE
  5
704A
  8
CT
 10
4928.991138061785
 20
12948.31452044385
 30
0.0
 11
4928.991138061785
 21
12991.51452044385
 31
0.0
  0
LINE
  5
704E
  8
KL
 10
6633.991138061785
 20
12847.51452044385
 30
0.0
 11
5777.9911380617859
 21
12847.51452044385
 31
0.0
  0
INSERT
  5
7052
  8
FUTO
  2
まっすぐの矢印
 10
6025.8523903527539
 20
13019.78250001501
 30
0.0
 41
-35.0
 42
35.0
 43
35.0
 50
180.0
  0
LINE
  5
7053
  8
FUTO
 10
6574.9911380617841
 20
12916.51452044385
 30
0.0
 11
6574.9911380617841
 21
12967.31452044385
 31
0.0
  0
LINE
  5
7054
  8
KL
 10
6568.9911380617859
 20
12841.51452044385
 30
0.0
 11
6568.9911380617859
 21
12973.31452044385
 31
0.0
  0
LINE
  5
7055
  8
CT
 10
6608.9911380617859
 20
12818.31452044385
 30
0.0
 11
6608.9911380617859
 21
12861.51452044385
 31
0.0
  0
LINE
  5
7056
  8
CT
 10
6608.9911380617859
 20
12948.31452044385
 30
0.0
 11
6608.9911380617859
 21
12991.51452044385
 31
0.0
  0
LINE
  5
7057
  8
KL
 10
6633.991138061785
 20
12841.51452044385
 30
0.0
 11
6633.991138061785
 21
12847.51452044385
 31
0.0
  0
LINE
  5
7058
  8
FUTO
 10
6633.991138061785
 20
12967.31452044385
 30
0.0
 11
6633.991138061785
 21
12973.31452044385
 31
0.0
  0
LINE
  5
7096
  8
FUTO
 10
5668.991138061785
 20
10817.31452044385
 30
0.0
 11
5668.991138061785
 21
10717.31452044385
 31
0.0
  0
LINE
  5
7097
  8
FUTO
 10
5635.991138061785
 20
11393.31452044385
 30
0.0
 11
5635.991138061785
 21
11501.31452044385
 31
0.0
  0
LINE
  5
7098
  8
FUTO
 10
5648.991138061785
 20
11383.31452044385
 30
0.0
 11
5648.991138061785
 21
11419.81452044385
 31
0.0
  0
LINE
  5
7099
  8
FUTO
 10
5635.991138061785
 20
11393.31452044385
 30
0.0
 11
5648.991138061785
 21
11393.31452044385
 31
0.0
  0
LINE
  5
709A
  8
FUTO
 10
5648.991138061785
 20
11369.31452044385
 30
0.0
 11
5648.991138061785
 21
11383.31452044385
 31
0.0
  0
LINE
  5
709B
  8
FUTO
 10
5648.991138061785
 20
11474.81452044385
 30
0.0
 11
5648.991138061785
 21
11511.31452044385
 31
0.0
  0
LINE
  5
709C
  8
FUTO
 10
5648.991138061785
 20
11525.31452044385
 30
0.0
 11
5648.991138061785
 21
11511.31452044385
 31
0.0
  0
LINE
  5
709D
  8
FUTO
 10
5635.991138061785
 20
11501.31452044385
 30
0.0
 11
5648.991138061785
 21
11501.31452044385
 31
0.0
  0
ARC
  5
7D1A
  8
FUTO
 10
4518.9911380617841
 20
10608.31452044385
 30
0.0
 40
9.0
 50
0.000000000000007
 51
180.0
  0
LINE
  5
7D1B
  8
FUTO
 10
4509.991138061785
 20
10507.31452044385
 30
0.0
 11
4509.991138061785
 21
10608.31452044385
 31
0.0
  0
LINE
  5
7D1C
  8
FUTO
 10
4527.9911380617841
 20
10507.31452044385
 30
0.0
 11
4527.991138061785
 21
10608.31452044385
 31
0.0
  0
LINE
  5
7D1D
  8
FUTO
 10
4261.9911990617838
 20
11021.814459443851
 30
0.0
 11
4261.9911990617838
 21
11057.81452044385
 31
0.0
  0
LINE
  5
7D1E
  8
FUTO
 10
4258.9911990617838
 20
11021.814459443851
 30
0.0
 11
4258.9911990617838
 21
11057.81452044385
 31
0.0
  0
LINE
  5
7D1F
  8
FUTO
 10
4266.9911990617838
 20
11021.814459443851
 30
0.0
 11
4266.9911990617838
 21
11068.81452044385
 31
0.0
  0
LINE
  5
7D20
  8
FUTO
 10
4308.9911380617841
 20
10682.81452044385
 30
0.0
 11
4308.9911380617859
 21
10729.68952044385
 31
0.0
  0
LINE
  5
7D21
  8
FUTO
 10
4361.2995030662623
 20
10677.81452044385
 30
0.0
 11
4313.991138061785
 21
10677.81452044385
 31
0.0
  0
ARC
  5
7D22
  8
FUTO
 10
4313.9911380617832
 20
10682.81452044385
 30
0.0
 40
5.0
 50
180.0
 51
270.0
  0
LINE
  5
7D23
  8
FUTO
 10
4329.3097928433572
 20
10729.68952044385
 30
0.0
 11
4308.9911380617859
 21
10729.68952044385
 31
0.0
  0
LINE
  5
7D24
  8
FUTO
 10
4308.9911380617859
 20
10727.81452044385
 30
0.0
 11
4261.9911990617838
 21
10727.81452044385
 31
0.0
  0
LINE
  5
7D25
  8
FUTO
 10
4308.9911380617859
 20
10724.81452044385
 30
0.0
 11
4258.9911990617838
 21
10724.81452044385
 31
0.0
  0
LINE
  5
7D26
  8
FUTO
 10
4329.2006644935027
 20
10732.81452044385
 30
0.0
 11
4266.9911990617838
 21
10732.81452044385
 31
0.0
  0
LINE
  5
7D27
  8
FUTO
 10
4266.9911990617838
 20
10732.81452044385
 30
0.0
 11
4261.9911990617838
 21
10727.81452044385
 31
0.0
  0
LINE
  5
7D28
  8
FUTO
 10
4233.9911990617848
 20
10767.81452044385
 30
0.0
 11
4233.9911990617848
 21
10807.81452044385
 31
0.0
  0
LINE
  5
7D29
  8
FUTO
 10
4263.9911990617838
 20
10767.81452044385
 30
0.0
 11
4263.9911990617838
 21
10807.81452044385
 31
0.0
  0
LINE
  5
7D2A
  8
FUTO
 10
4233.9911990617848
 20
10807.81452044385
 30
0.0
 11
4263.9911990617838
 21
10807.81452044385
 31
0.0
  0
LINE
  5
7D2B
  8
FUTO
 10
4263.9911990617838
 20
10767.81452044385
 30
0.0
 11
4233.9911990617848
 21
10767.81452044385
 31
0.0
  0
LINE
  5
7D2C
  8
CT
 10
4315.4911380617832
 20
10787.81452044385
 30
0.0
 11
4147.9367560617839
 21
10787.81452044385
 31
0.0
  0
LINE
  5
7D2D
  8
FUTO
 10
4159.5367310617848
 20
10805.40436444385
 30
0.0
 11
4171.6367070617853
 21
10805.40436444385
 31
0.0
  0
LINE
  5
7D2E
  8
FUTO
 10
4159.5367310617848
 20
10770.22467744385
 30
0.0
 11
4171.6367070617853
 21
10770.22467744385
 31
0.0
  0
LINE
  5
7D2F
  8
FUTO
 10
4159.5367310617848
 20
10797.519598443851
 30
0.0
 11
4171.6367070617853
 21
10797.519598443851
 31
0.0
  0
LINE
  5
7D30
  8
FUTO
 10
4159.5367310617848
 20
10778.109442443851
 30
0.0
 11
4171.6367070617853
 21
10778.109442443851
 31
0.0
  0
LINE
  5
7D31
  8
FUTO
 10
4157.9367560617848
 20
10803.804755443851
 30
0.0
 11
4157.9367560617848
 21
10771.82526244385
 31
0.0
  0
LINE
  5
7D32
  8
FUTO
 10
4159.5367310617848
 20
10770.22467744385
 30
0.0
 11
4157.9367560617848
 21
10771.82526244385
 31
0.0
  0
LINE
  5
7D33
  8
FUTO
 10
4159.5367310617848
 20
10778.109442443851
 30
0.0
 11
4157.9367560617848
 21
10776.50983344385
 31
0.0
  0
LINE
  5
7D34
  8
FUTO
 10
4159.5367310617848
 20
10778.109442443851
 30
0.0
 11
4157.9367560617848
 21
10779.710028443849
 31
0.0
  0
LINE
  5
7D35
  8
FUTO
 10
4157.9367560617848
 20
10803.804755443851
 30
0.0
 11
4159.5367310617848
 21
10805.40436444385
 31
0.0
  0
LINE
  5
7D36
  8
FUTO
 10
4159.5367310617848
 20
10797.519598443851
 30
0.0
 11
4157.9367560617848
 21
10799.120184443849
 31
0.0
  0
LINE
  5
7D37
  8
FUTO
 10
4159.5367310617848
 20
10797.519598443851
 30
0.0
 11
4157.9367560617848
 21
10795.91998944385
 31
0.0
  0
LINE
  5
7D38
  8
FUTO
 10
4171.6367070617853
 20
10805.40436444385
 30
0.0
 11
4171.6367070617853
 21
10770.22467744385
 31
0.0
  0
LINE
  5
7D39
  8
FUTO
 10
4171.6367070617853
 20
10778.81452044385
 30
0.0
 11
4233.9911990617848
 21
10778.81452044385
 31
0.0
  0
LINE
  5
7D3A
  8
HOSO
 10
4233.9911990617848
 20
10780.81452044385
 30
0.0
 11
4171.6366460617837
 21
10780.81452044385
 31
0.0
  0
LINE
  5
7D3B
  8
HOSO
 10
4171.6367070617853
 20
10794.81452044385
 30
0.0
 11
4233.9911990617848
 21
10794.81452044385
 31
0.0
  0
LINE
  5
7D3C
  8
FUTO
 10
4233.9911990617848
 20
10796.81452044385
 30
0.0
 11
4171.6366460617837
 21
10796.81452044385
 31
0.0
  0
LINE
  5
7D3D
  8
FUTO
 10
4263.9911990617838
 20
10778.81452044385
 30
0.0
 11
4315.491138061785
 21
10778.81452044385
 31
0.0
  0
LINE
  5
7D3E
  8
HOSO
 10
4315.491138061785
 20
10780.81452044385
 30
0.0
 11
4263.9911990617838
 21
10780.81452044385
 31
0.0
  0
LINE
  5
7D3F
  8
FUTO
 10
4315.491138061785
 20
10796.81452044385
 30
0.0
 11
4263.9911990617838
 21
10796.81452044385
 31
0.0
  0
LINE
  5
7D40
  8
HOSO
 10
4263.9911990617838
 20
10794.81452044385
 30
0.0
 11
4315.491138061785
 21
10794.81452044385
 31
0.0
  0
LINE
  5
7D41
  8
FUTO
 10
4258.9911990617838
 20
10724.81452044385
 30
0.0
 11
4258.9911990617838
 21
10767.81452044385
 31
0.0
  0
LINE
  5
7D42
  8
FUTO
 10
4261.9911990617838
 20
10727.81452044385
 30
0.0
 11
4261.9911990617838
 21
10767.81452044385
 31
0.0
  0
LINE
  5
7D43
  8
FUTO
 10
4266.9911990617838
 20
10732.81452044385
 30
0.0
 11
4266.9911990617838
 21
10778.81452044385
 31
0.0
  0
LINE
  5
7D44
  8
FUTO
 10
4258.9911990617838
 20
10807.81452044385
 30
0.0
 11
4258.9911990617838
 21
10843.81452044385
 31
0.0
  0
LINE
  5
7D45
  8
FUTO
 10
4261.9911990617838
 20
10807.81452044385
 30
0.0
 11
4261.9911990617838
 21
10843.81452044385
 31
0.0
  0
LINE
  5
7D46
  8
FUTO
 10
4266.9911990617838
 20
10796.81452044385
 30
0.0
 11
4266.9911990617838
 21
10843.81452044385
 31
0.0
  0
LINE
  5
7D47
  8
FUTO
 10
4233.9911990617848
 20
11068.81452044385
 30
0.0
 11
4171.6366460617837
 21
11068.81452044385
 31
0.0
  0
LINE
  5
7D48
  8
HOSO
 10
4171.6367070617853
 20
11070.81452044385
 30
0.0
 11
4233.9911990617848
 21
11070.81452044385
 31
0.0
  0
LINE
  5
7D49
  8
HOSO
 10
4233.9911990617848
 20
11084.81452044385
 30
0.0
 11
4171.6366460617837
 21
11084.81452044385
 31
0.0
  0
LINE
  5
7D4A
  8
FUTO
 10
4171.6367070617853
 20
11086.81452044385
 30
0.0
 11
4233.9911990617848
 21
11086.81452044385
 31
0.0
  0
LINE
  5
7D4B
  8
FUTO
 10
4171.6367070617853
 20
11060.22467644385
 30
0.0
 11
4171.6367070617853
 21
11095.404363443849
 31
0.0
  0
LINE
  5
7D4C
  8
FUTO
 10
4159.5367310617848
 20
11068.109442443851
 30
0.0
 11
4157.9367560617848
 21
11069.70905144385
 31
0.0
  0
LINE
  5
7D4D
  8
FUTO
 10
4159.5367310617848
 20
11068.109442443851
 30
0.0
 11
4157.9367560617848
 21
11066.50885644385
 31
0.0
  0
LINE
  5
7D4E
  8
FUTO
 10
4157.9367560617848
 20
11061.82428544385
 30
0.0
 11
4159.5367310617848
 21
11060.22467644385
 31
0.0
  0
LINE
  5
7D4F
  8
FUTO
 10
4159.5367310617848
 20
11087.519598443851
 30
0.0
 11
4157.9367560617848
 21
11085.91901244385
 31
0.0
  0
LINE
  5
7D50
  8
FUTO
 10
4159.5367310617848
 20
11087.519598443851
 30
0.0
 11
4157.9367560617848
 21
11089.11920744385
 31
0.0
  0
LINE
  5
7D51
  8
FUTO
 10
4159.5367310617848
 20
11095.404363443849
 30
0.0
 11
4157.9367560617848
 21
11093.803778443849
 31
0.0
  0
LINE
  5
7D52
  8
FUTO
 10
4157.9367560617848
 20
11061.82428544385
 30
0.0
 11
4157.9367560617848
 21
11093.803778443849
 31
0.0
  0
LINE
  5
7D53
  8
FUTO
 10
4159.5367310617848
 20
11087.519598443851
 30
0.0
 11
4171.6367070617853
 21
11087.519598443851
 31
0.0
  0
LINE
  5
7D54
  8
FUTO
 10
4159.5367310617848
 20
11068.109442443851
 30
0.0
 11
4171.6367070617853
 21
11068.109442443851
 31
0.0
  0
LINE
  5
7D55
  8
FUTO
 10
4159.5367310617848
 20
11095.404363443849
 30
0.0
 11
4171.6367070617853
 21
11095.404363443849
 31
0.0
  0
LINE
  5
7D56
  8
FUTO
 10
4159.5367310617848
 20
11060.22467644385
 30
0.0
 11
4171.6367070617853
 21
11060.22467644385
 31
0.0
  0
LINE
  5
7D57
  8
FUTO
 10
4263.9911990617838
 20
11097.81452044385
 30
0.0
 11
4233.9911990617848
 21
11097.81452044385
 31
0.0
  0
LINE
  5
7D58
  8
FUTO
 10
4233.9911990617848
 20
11057.81452044385
 30
0.0
 11
4263.9911990617838
 21
11057.81452044385
 31
0.0
  0
LINE
  5
7D59
  8
FUTO
 10
4263.9911990617838
 20
11097.81452044385
 30
0.0
 11
4263.9911990617838
 21
11057.81452044385
 31
0.0
  0
LINE
  5
7D5A
  8
FUTO
 10
4233.9911990617848
 20
11097.81452044385
 30
0.0
 11
4233.9911990617848
 21
11057.81452044385
 31
0.0
  0
LINE
  5
7D5B
  8
HOSO
 10
4263.9911990617838
 20
11070.81452044385
 30
0.0
 11
4315.491138061785
 21
11070.81452044385
 31
0.0
  0
LINE
  5
7D5C
  8
FUTO
 10
4315.491138061785
 20
11068.81452044385
 30
0.0
 11
4263.9911990617838
 21
11068.81452044385
 31
0.0
  0
LINE
  5
7D5D
  8
HOSO
 10
4315.491138061785
 20
11084.81452044385
 30
0.0
 11
4263.9911990617838
 21
11084.81452044385
 31
0.0
  0
LINE
  5
7D5E
  8
FUTO
 10
4263.9911990617838
 20
11086.81452044385
 30
0.0
 11
4315.491138061785
 21
11086.81452044385
 31
0.0
  0
LINE
  5
7D5F
  8
CT
 10
4315.4911380617832
 20
11077.81452044385
 30
0.0
 11
4147.9367560617839
 21
11077.81452044385
 31
0.0
  0
LINE
  5
7D60
  8
FUTO
 10
4266.9911990617838
 20
11132.81452044385
 30
0.0
 11
4261.9911990617838
 21
11137.81452044385
 31
0.0
  0
LINE
  5
7D61
  8
FUTO
 10
4308.9911380617859
 20
11140.81452044385
 30
0.0
 11
4258.9911990617838
 21
11140.81452044385
 31
0.0
  0
LINE
  5
7D62
  8
FUTO
 10
4308.9911380617859
 20
11137.81452044385
 30
0.0
 11
4261.9911990617838
 21
11137.81452044385
 31
0.0
  0
LINE
  5
7D63
  8
FUTO
 10
4315.4911380617859
 20
11135.93952044385
 30
0.0
 11
4308.9911380617859
 21
11135.93952044385
 31
0.0
  0
LINE
  5
7D64
  8
FUTO
 10
4315.491138061785
 20
11132.81452044385
 30
0.0
 11
4266.9911990617838
 21
11132.81452044385
 31
0.0
  0
LINE
  5
7D65
  8
FUTO
 10
4266.9911990617838
 20
11132.81452044385
 30
0.0
 11
4266.9911990617838
 21
11086.81452044385
 31
0.0
  0
LINE
  5
7D66
  8
FUTO
 10
4261.9911990617838
 20
11137.81452044385
 30
0.0
 11
4261.9911990617838
 21
11097.81452044385
 31
0.0
  0
LINE
  5
7D67
  8
FUTO
 10
4258.9911990617838
 20
11140.81452044385
 30
0.0
 11
4258.9911990617838
 21
11097.81452044385
 31
0.0
  0
ARC
  5
7D68
  8
FUTO
 10
4313.991138061785
 20
11182.81452044385
 30
0.0
 40
5.0
 50
89.999999999999986
 51
180.0
  0
LINE
  5
7D69
  8
FUTO
 10
4308.9911380617841
 20
11182.81452044385
 30
0.0
 11
4308.9911380617859
 21
11135.93952044385
 31
0.0
  0
LINE
  5
7D6A
  8
FUTO
 10
4326.491138061785
 20
11187.81452044385
 30
0.0
 11
4313.991138061785
 21
11187.81452044385
 31
0.0
  0
LINE
  5
7D6B
  8
CT
 10
4722.4911380617859
 20
11077.81452044385
 30
0.0
 11
4890.0455200617844
 21
11077.81452044385
 31
0.0
  0
LINE
  5
7D6C
  8
FUTO
 10
4773.9910770617853
 20
11086.81452044385
 30
0.0
 11
4722.4911380617832
 21
11086.81452044385
 31
0.0
  0
LINE
  5
7D6D
  8
HOSO
 10
4722.4911380617832
 20
11084.81452044385
 30
0.0
 11
4773.9910770617853
 21
11084.81452044385
 31
0.0
  0
LINE
  5
7D6E
  8
FUTO
 10
4722.4911380617832
 20
11068.81452044385
 30
0.0
 11
4773.9910770617853
 21
11068.81452044385
 31
0.0
  0
LINE
  5
7D6F
  8
HOSO
 10
4773.9910770617853
 20
11070.81452044385
 30
0.0
 11
4722.4911380617832
 21
11070.81452044385
 31
0.0
  0
LINE
  5
7D70
  8
FUTO
 10
4803.9910770617853
 20
11097.81452044385
 30
0.0
 11
4803.9910770617853
 21
11057.81452044385
 31
0.0
  0
LINE
  5
7D71
  8
FUTO
 10
4773.9910770617853
 20
11097.81452044385
 30
0.0
 11
4773.9910770617853
 21
11057.81452044385
 31
0.0
  0
LINE
  5
7D72
  8
FUTO
 10
4803.9910770617853
 20
11057.81452044385
 30
0.0
 11
4773.9910770617853
 21
11057.81452044385
 31
0.0
  0
LINE
  5
7D73
  8
FUTO
 10
4773.9910770617853
 20
11097.81452044385
 30
0.0
 11
4803.9910770617853
 21
11097.81452044385
 31
0.0
  0
LINE
  5
7D74
  8
FUTO
 10
4878.4455450617861
 20
11060.22467644385
 30
0.0
 11
4866.3455690617839
 21
11060.22467644385
 31
0.0
  0
LINE
  5
7D75
  8
FUTO
 10
4878.4455450617861
 20
11095.404363443849
 30
0.0
 11
4866.3455690617839
 21
11095.404363443849
 31
0.0
  0
LINE
  5
7D76
  8
FUTO
 10
4878.4455450617861
 20
11068.109442443851
 30
0.0
 11
4866.3455690617839
 21
11068.109442443851
 31
0.0
  0
LINE
  5
7D77
  8
FUTO
 10
4878.4455450617861
 20
11087.519598443851
 30
0.0
 11
4866.3455690617839
 21
11087.519598443851
 31
0.0
  0
LINE
  5
7D78
  8
FUTO
 10
4880.0455200617844
 20
11061.82428544385
 30
0.0
 11
4880.0455200617844
 21
11093.803778443849
 31
0.0
  0
LINE
  5
7D79
  8
FUTO
 10
4878.4455450617861
 20
11095.404363443849
 30
0.0
 11
4880.0455200617844
 21
11093.803778443849
 31
0.0
  0
LINE
  5
7D7A
  8
FUTO
 10
4878.4455450617861
 20
11087.519598443851
 30
0.0
 11
4880.0455200617844
 21
11089.11920744385
 31
0.0
  0
LINE
  5
7D7B
  8
FUTO
 10
4878.4455450617861
 20
11087.519598443851
 30
0.0
 11
4880.0455200617844
 21
11085.91901244385
 31
0.0
  0
LINE
  5
7D7C
  8
FUTO
 10
4880.0455200617844
 20
11061.82428544385
 30
0.0
 11
4878.4455450617861
 21
11060.22467644385
 31
0.0
  0
LINE
  5
7D7D
  8
FUTO
 10
4878.4455450617861
 20
11068.109442443851
 30
0.0
 11
4880.0455200617844
 21
11066.50885644385
 31
0.0
  0
LINE
  5
7D7E
  8
FUTO
 10
4878.4455450617861
 20
11068.109442443851
 30
0.0
 11
4880.0455200617844
 21
11069.70905144385
 31
0.0
  0
LINE
  5
7D7F
  8
FUTO
 10
4866.3455690617839
 20
11060.22467644385
 30
0.0
 11
4866.3455690617839
 21
11095.404363443849
 31
0.0
  0
LINE
  5
7D80
  8
FUTO
 10
4866.3455690617839
 20
11086.81452044385
 30
0.0
 11
4803.9910770617853
 21
11086.81452044385
 31
0.0
  0
LINE
  5
7D81
  8
HOSO
 10
4803.9910770617853
 20
11084.81452044385
 30
0.0
 11
4866.3456300617836
 21
11084.81452044385
 31
0.0
  0
LINE
  5
7D82
  8
HOSO
 10
4866.3455690617839
 20
11070.81452044385
 30
0.0
 11
4803.9910770617853
 21
11070.81452044385
 31
0.0
  0
LINE
  5
7D83
  8
FUTO
 10
4803.9910770617853
 20
11068.81452044385
 30
0.0
 11
4866.3456300617836
 21
11068.81452044385
 31
0.0
  0
LINE
  5
7D84
  8
FUTO
 10
4778.9910770617844
 20
11140.81452044385
 30
0.0
 11
4778.9910770617844
 21
11097.81452044385
 31
0.0
  0
LINE
  5
7D85
  8
FUTO
 10
4775.9910770617853
 20
11137.81452044385
 30
0.0
 11
4775.9910770617853
 21
11097.81452044385
 31
0.0
  0
LINE
  5
7D86
  8
FUTO
 10
4770.9910770617853
 20
11132.81452044385
 30
0.0
 11
4770.9910770617853
 21
11086.81452044385
 31
0.0
  0
LINE
  5
7D87
  8
FUTO
 10
4711.4911380617832
 20
11187.81452044385
 30
0.0
 11
4723.9911380617841
 21
11187.81452044385
 31
0.0
  0
LINE
  5
7D88
  8
FUTO
 10
4722.4911380617832
 20
11132.81452044385
 30
0.0
 11
4770.9910770617853
 21
11132.81452044385
 31
0.0
  0
LINE
  5
7D89
  8
FUTO
 10
4722.4911380617832
 20
11135.93952044385
 30
0.0
 11
4728.9911380617841
 21
11135.93952044385
 31
0.0
  0
LINE
  5
7D8A
  8
FUTO
 10
4728.9911380617841
 20
11182.81452044385
 30
0.0
 11
4728.9911380617841
 21
11135.93952044385
 31
0.0
  0
LINE
  5
7D8B
  8
FUTO
 10
4728.9911380617841
 20
11137.81452044385
 30
0.0
 11
4775.9910770617853
 21
11137.81452044385
 31
0.0
  0
LINE
  5
7D8C
  8
FUTO
 10
4728.9911380617841
 20
11140.81452044385
 30
0.0
 11
4778.9910770617844
 21
11140.81452044385
 31
0.0
  0
ARC
  5
7D8D
  8
FUTO
 10
4723.9911380617841
 20
11182.81452044385
 30
0.0
 40
5.0
 50
0.000000000000007
 51
89.999999999999986
  0
LINE
  5
7D8E
  8
FUTO
 10
4770.9910770617853
 20
11132.81452044385
 30
0.0
 11
4775.9910770617853
 21
11137.81452044385
 31
0.0
  0
LINE
  5
7D8F
  8
FUTO
 10
4708.6724832802129
 20
10729.68952044385
 30
0.0
 11
4728.9911380617841
 21
10729.68952044385
 31
0.0
  0
LINE
  5
7D90
  8
FUTO
 10
4770.9910770617853
 20
10796.81452044385
 30
0.0
 11
4770.9910770617853
 21
11068.81452044385
 31
0.0
  0
LINE
  5
7D91
  8
FUTO
 10
4770.9910770617853
 20
10732.81452044385
 30
0.0
 11
4775.9910770617853
 21
10727.81452044385
 31
0.0
  0
LINE
  5
7D92
  8
FUTO
 10
4770.9910770617853
 20
10732.81452044385
 30
0.0
 11
4770.9910770617853
 21
10778.81452044385
 31
0.0
  0
LINE
  5
7D93
  8
FUTO
 10
4708.7816116300664
 20
10732.81452044385
 30
0.0
 11
4770.9910770617853
 21
10732.81452044385
 31
0.0
  0
ARC
  5
7D94
  8
FUTO
 10
4723.9911380617841
 20
10682.81452044385
 30
0.0
 40
5.0
 50
270.0
 51
0.000000000000007
  0
LINE
  5
7D95
  8
FUTO
 10
4728.9911380617841
 20
10724.81452044385
 30
0.0
 11
4778.9910770617844
 21
10724.81452044385
 31
0.0
  0
LINE
  5
7D96
  8
FUTO
 10
4728.9911380617841
 20
10727.81452044385
 30
0.0
 11
4775.9910770617853
 21
10727.81452044385
 31
0.0
  0
LINE
  5
7D97
  8
FUTO
 10
4676.6827730573077
 20
10677.81452044385
 30
0.0
 11
4723.9911380617841
 21
10677.81452044385
 31
0.0
  0
LINE
  5
7D98
  8
FUTO
 10
4728.9911380617841
 20
10682.81452044385
 30
0.0
 11
4728.9911380617841
 21
10729.68952044385
 31
0.0
  0
LINE
  5
7D99
  8
FUTO
 10
4775.9910770617853
 20
10807.81452044385
 30
0.0
 11
4775.9910770617853
 21
11057.81452044385
 31
0.0
  0
LINE
  5
7D9A
  8
FUTO
 10
4778.9910770617844
 20
10807.81452044385
 30
0.0
 11
4778.9910770617844
 21
11057.81452044385
 31
0.0
  0
LINE
  5
7D9B
  8
FUTO
 10
4775.9910770617853
 20
10727.81452044385
 30
0.0
 11
4775.9910770617853
 21
10767.81452044385
 31
0.0
  0
LINE
  5
7D9C
  8
FUTO
 10
4778.9910770617844
 20
10724.81452044385
 30
0.0
 11
4778.9910770617844
 21
10767.81452044385
 31
0.0
  0
LINE
  5
7D9D
  8
HOSO
 10
4773.9910770617853
 20
10794.81452044385
 30
0.0
 11
4722.4911380617832
 21
10794.81452044385
 31
0.0
  0
LINE
  5
7D9E
  8
FUTO
 10
4722.4911380617832
 20
10796.81452044385
 30
0.0
 11
4773.9910770617853
 21
10796.81452044385
 31
0.0
  0
LINE
  5
7D9F
  8
HOSO
 10
4722.4911380617832
 20
10780.81452044385
 30
0.0
 11
4773.9910770617853
 21
10780.81452044385
 31
0.0
  0
LINE
  5
7DA0
  8
FUTO
 10
4773.9910770617853
 20
10778.81452044385
 30
0.0
 11
4722.4911380617832
 21
10778.81452044385
 31
0.0
  0
LINE
  5
7DA1
  8
FUTO
 10
4803.9910770617853
 20
10796.81452044385
 30
0.0
 11
4866.3456300617836
 21
10796.81452044385
 31
0.0
  0
LINE
  5
7DA2
  8
HOSO
 10
4866.3455690617839
 20
10794.81452044385
 30
0.0
 11
4803.9910770617853
 21
10794.81452044385
 31
0.0
  0
LINE
  5
7DA3
  8
HOSO
 10
4803.9910770617853
 20
10780.81452044385
 30
0.0
 11
4866.3456300617836
 21
10780.81452044385
 31
0.0
  0
LINE
  5
7DA4
  8
FUTO
 10
4866.3455690617839
 20
10778.81452044385
 30
0.0
 11
4803.9910770617853
 21
10778.81452044385
 31
0.0
  0
LINE
  5
7DA5
  8
FUTO
 10
4866.3455690617839
 20
10805.40436444385
 30
0.0
 11
4866.3455690617839
 21
10770.22467744385
 31
0.0
  0
LINE
  5
7DA6
  8
FUTO
 10
4878.4455450617861
 20
10797.519598443851
 30
0.0
 11
4880.0455200617844
 21
10795.91998944385
 31
0.0
  0
LINE
  5
7DA7
  8
FUTO
 10
4878.4455450617861
 20
10797.519598443851
 30
0.0
 11
4880.0455200617844
 21
10799.120184443849
 31
0.0
  0
LINE
  5
7DA8
  8
FUTO
 10
4880.0455200617844
 20
10803.804755443851
 30
0.0
 11
4878.4455450617861
 21
10805.40436444385
 31
0.0
  0
LINE
  5
7DA9
  8
FUTO
 10
4878.4455450617861
 20
10778.109442443851
 30
0.0
 11
4880.0455200617844
 21
10779.710028443849
 31
0.0
  0
LINE
  5
7DAA
  8
FUTO
 10
4878.4455450617861
 20
10778.109442443851
 30
0.0
 11
4880.0455200617844
 21
10776.50983344385
 31
0.0
  0
LINE
  5
7DAB
  8
FUTO
 10
4878.4455450617861
 20
10770.22467744385
 30
0.0
 11
4880.0455200617844
 21
10771.82526244385
 31
0.0
  0
LINE
  5
7DAC
  8
FUTO
 10
4880.0455200617844
 20
10803.804755443851
 30
0.0
 11
4880.0455200617844
 21
10771.82526244385
 31
0.0
  0
LINE
  5
7DAD
  8
FUTO
 10
4878.4455450617861
 20
10778.109442443851
 30
0.0
 11
4866.3455690617839
 21
10778.109442443851
 31
0.0
  0
LINE
  5
7DAE
  8
FUTO
 10
4878.4455450617861
 20
10797.519598443851
 30
0.0
 11
4866.3455690617839
 21
10797.519598443851
 31
0.0
  0
LINE
  5
7DAF
  8
FUTO
 10
4878.4455450617861
 20
10770.22467744385
 30
0.0
 11
4866.3455690617839
 21
10770.22467744385
 31
0.0
  0
LINE
  5
7DB0
  8
FUTO
 10
4878.4455450617861
 20
10805.40436444385
 30
0.0
 11
4866.3455690617839
 21
10805.40436444385
 31
0.0
  0
LINE
  5
7DB1
  8
CT
 10
4722.4911380617859
 20
10787.81452044385
 30
0.0
 11
4890.0455200617844
 21
10787.81452044385
 31
0.0
  0
LINE
  5
7DB2
  8
FUTO
 10
4773.9910770617853
 20
10767.81452044385
 30
0.0
 11
4803.9910770617853
 21
10767.81452044385
 31
0.0
  0
LINE
  5
7DB3
  8
FUTO
 10
4803.9910770617853
 20
10807.81452044385
 30
0.0
 11
4773.9910770617853
 21
10807.81452044385
 31
0.0
  0
LINE
  5
7DB4
  8
FUTO
 10
4773.9910770617853
 20
10767.81452044385
 30
0.0
 11
4773.9910770617853
 21
10807.81452044385
 31
0.0
  0
LINE
  5
7DB5
  8
FUTO
 10
4803.9910770617853
 20
10767.81452044385
 30
0.0
 11
4803.9910770617853
 21
10807.81452044385
 31
0.0
  0
ARC
  5
7DB6
  8
FUTO
 10
4187.3619880617844
 20
10994.814459443851
 30
0.0
 40
20.0
 50
89.999999999999986
 51
180.0
  0
ARC
  5
7DB7
  8
FUTO
 10
4187.3619880617853
 20
10870.81452044385
 30
0.0
 40
20.0
 50
180.0
 51
270.0
  0
ARC
  5
7DB8
  8
FUTO
 10
4177.3619880617853
 20
10853.81452044385
 30
0.0
 40
10.0
 50
180.0
 51
270.0
  0
ARC
  5
7DB9
  8
FUTO
 10
4177.3619880617853
 20
11011.814459443851
 30
0.0
 40
10.0
 50
89.999999999999986
 51
180.0
  0
ARC
  5
7DBA
  8
FUTO
 10
4280.2187129606764
 20
10853.81452044385
 30
0.0
 40
10.0
 50
270.0
 51
0.000000000000007
  0
ARC
  5
7DBB
  8
FUTO
 10
4277.0515974223417
 20
10853.81452044385
 30
0.0
 40
10.0
 50
270.0
 51
0.000000000000007
  0
ARC
  5
7DBC
  8
FUTO
 10
4280.2187129606764
 20
11011.814459443851
 30
0.0
 40
10.0
 50
0.000000000000007
 51
89.999999999999986
  0
ARC
  5
7DBD
  8
FUTO
 10
4277.0515974223417
 20
11011.814459443851
 30
0.0
 40
10.0
 50
0.000000000000007
 51
89.999999999999986
  0
LINE
  5
7DBE
  8
FUTO
 10
4279.8549941428873
 20
10850.81452044385
 30
0.0
 11
4187.3619880617853
 21
10850.81452044385
 31
0.0
  0
LINE
  5
7DBF
  8
FUTO
 10
4279.8549941428873
 20
11014.814459443851
 30
0.0
 11
4187.3619880617853
 21
11014.814459443851
 31
0.0
  0
ARC
  5
7DC0
  8
FUTO
 10
4293.9911380617841
 20
10855.81452044385
 30
0.0
 40
5.0
 50
270.0
 51
0.000000000000007
  0
ARC
  5
7DC1
  8
FUTO
 10
4293.9911380617841
 20
11009.814459443851
 30
0.0
 40
5.0
 50
0.000000000000007
 51
89.999999999999986
  0
ARC
  5
7DC2
  8
FUTO
 10
4279.8549941428873
 20
10855.81452044385
 30
0.0
 40
5.0
 50
270.0
 51
0.000000000000007
  0
ARC
  5
7DC3
  8
FUTO
 10
4279.8549941428873
 20
11009.814459443851
 30
0.0
 40
5.0
 50
0.000000000000007
 51
89.999999999999986
  0
LINE
  5
7DC4
  8
FUTO
 10
4280.2187129606764
 20
10843.81452044385
 30
0.0
 11
4177.3619880617853
 21
10843.81452044385
 31
0.0
  0
LINE
  5
7DC5
  8
FUTO
 10
4293.991138061785
 20
10850.81452044385
 30
0.0
 11
4290.2187129606764
 21
10850.81452044385
 31
0.0
  0
LINE
  5
7DC6
  8
FUTO
 10
4280.2187129606764
 20
11021.814459443851
 30
0.0
 11
4177.3619880617853
 21
11021.814459443851
 31
0.0
  0
LINE
  5
7DC7
  8
FUTO
 10
4293.991138061785
 20
11014.814459443851
 30
0.0
 11
4290.2187129606764
 21
11014.814459443851
 31
0.0
  0
LINE
  5
7DC8
  8
FUTO
 10
4315.4911380617832
 20
10992.81452044385
 30
0.0
 11
4315.4911380617832
 21
11099.62529119288
 31
0.0
  0
LINE
  5
7DC9
  8
FUTO
 10
4298.991138061785
 20
10872.81452044385
 30
0.0
 11
4366.7175356219659
 21
10872.81452044385
 31
0.0
  0
LINE
  5
7DCA
  8
FUTO
 10
4298.991138061785
 20
10992.81452044385
 30
0.0
 11
4366.717535621965
 21
10992.81452044385
 31
0.0
  0
LINE
  5
7DCB
  8
FUTO
 10
4208.6718020617827
 20
10870.81452044385
 30
0.0
 11
4208.6718020617845
 21
10994.814459443851
 31
0.0
  0
LINE
  5
7DCC
  8
FUTO
 10
4284.8549941428873
 20
10855.81452044385
 30
0.0
 11
4284.8549941428873
 21
11009.814459443851
 31
0.0
  0
LINE
  5
7DCD
  8
FUTO
 10
4287.0515974223426
 20
10853.81452044385
 30
0.0
 11
4287.0515974223426
 21
11011.814459443851
 31
0.0
  0
LINE
  5
7DCE
  8
FUTO
 10
4290.2187129606764
 20
10853.81452044385
 30
0.0
 11
4290.2187129606764
 21
11011.814459443851
 31
0.0
  0
LINE
  5
7DCF
  8
FUTO
 10
4298.991138061785
 20
10855.81452044385
 30
0.0
 11
4298.991138061785
 21
11009.814459443851
 31
0.0
  0
LINE
  5
7DD0
  8
FUTO
 10
4308.9911380617841
 20
10872.81452044385
 30
0.0
 11
4308.9911380617841
 21
10992.81452044385
 31
0.0
  0
LINE
  5
7DD1
  8
FUTO
 10
4366.717535621965
 20
10872.81452044385
 30
0.0
 11
4366.7175356219659
 21
10992.81452044385
 31
0.0
  0
LINE
  5
7DD2
  8
FUTO
 10
4167.3619880617853
 20
10853.81452044385
 30
0.0
 11
4167.3619880617853
 21
11011.814459443851
 31
0.0
  0
LINE
  5
7DD3
  8
FUTO
 10
4512.741138061785
 20
10909.06452044385
 30
0.0
 11
4512.741138061785
 21
10956.56452044385
 31
0.0
  0
ARC
  5
7DD4
  8
FUTO
 10
4518.9911380617841
 20
10909.06452044385
 30
0.0
 40
6.25
 50
180.0
 51
0.000000000000007
  0
ARC
  5
7DD5
  8
FUTO
 10
4518.9911380617841
 20
10956.56452044385
 30
0.0
 40
6.25
 50
0.000000000000007
 51
180.0
  0
LINE
  5
7DD6
  8
CT
 10
4147.3619880617853
 20
10932.81452044385
 30
0.0
 11
4798.9910770617853
 21
10932.81452044385
 31
0.0
  0
LINE
  5
7DD7
  8
FUTO
 10
4525.2411380617859
 20
10909.06452044385
 30
0.0
 11
4525.241138061785
 21
10956.56452044385
 31
0.0
  0
LINE
  5
7DD8
  8
FUTO
 10
4315.4911380617859
 20
11099.62529119288
 30
0.0
 11
4317.3129150617851
 21
11101.814459443851
 31
0.0
  0
LINE
  5
7DD9
  8
FUTO
 10
4315.491138061785
 20
10766.00360744385
 30
0.0
 11
4321.991138061785
 21
10758.192694443849
 31
0.0
  0
LINE
  5
7DDA
  8
FUTO
 10
4315.491138061785
 20
10766.00360744385
 30
0.0
 11
4315.4911380617832
 21
10872.81452044385
 31
0.0
  0
LINE
  5
7DDB
  8
FUTO
 10
4722.4911380617832
 20
10766.00360744385
 30
0.0
 11
4722.4911380617859
 21
11099.62529119288
 31
0.0
  0
ARC
  5
7DDC
  8
FUTO
 10
4440.991138061785
 20
10659.31452044385
 30
0.0
 40
2.0
 50
180.0
 51
270.0
  0
ARC
  5
7DDD
  8
FUTO
 10
4435.991138061785
 20
10669.46759644385
 30
0.0
 40
2.9999599999999988
 50
0.000000000000007
 51
87.000442999964605
  0
LINE
  5
7DDE
  8
FUTO
 10
4438.991138061785
 20
10669.46759644385
 30
0.0
 11
4438.991138061785
 21
10659.31452044385
 31
0.0
  0
ARC
  5
7DDF
  8
FUTO
 10
4339.895190061784
 20
10713.10016544385
 30
0.0
 40
9.9999679999999991
 50
181.99932900002389
 51
225.0
  0
ARC
  5
7DE0
  8
FUTO
 10
4366.8883540617853
 20
10686.10700044385
 30
0.0
 40
10.000024
 50
225.0
 51
267.00096100001281
  0
LINE
  5
7DE1
  8
FUTO
 10
4332.8241450617852
 20
10706.029120443851
 30
0.0
 11
4359.8173100617842
 21
10679.035956443849
 31
0.0
  0
LINE
  5
7DE2
  8
FUTO
 10
4328.991138061785
 20
10738.81452044385
 30
0.0
 11
4329.9012940617849
 21
10712.751288443849
 31
0.0
  0
LINE
  5
7DE3
  8
FUTO
 10
4366.3651610617853
 20
10676.120672443851
 30
0.0
 11
4454.9564700617848
 21
10671.477850443849
 31
0.0
  0
LINE
  5
7DE4
  8
FUTO
 10
4356.991138061785
 20
10748.81452044385
 30
0.0
 11
4680.9911380617841
 21
10748.81452044385
 31
0.0
  0
LINE
  5
7DE5
  8
FUTO
 10
4356.991138061785
 20
10738.81452044385
 30
0.0
 11
4356.991138061785
 21
10743.81452044385
 31
0.0
  0
LINE
  5
7DE6
  8
FUTO
 10
4356.991138061785
 20
10743.81452044385
 30
0.0
 11
4356.991138061785
 21
10748.81452044385
 31
0.0
  0
LINE
  5
7DE7
  8
FUTO
 10
4321.991138061785
 20
10758.192694443849
 30
0.0
 11
4356.991138061785
 21
10748.81452044385
 31
0.0
  0
ARC
  5
7DE8
  8
FUTO
 10
4335.491138061785
 20
11148.28784844385
 30
0.0
 40
20.0
 50
159.99995399998471
 51
180.0
  0
ARC
  5
7DE9
  8
FUTO
 10
4306.491138061785
 20
11185.56323844385
 30
0.0
 40
20.0
 50
340.0002749999901
 51
0.000000000000007
  0
LINE
  5
7DEA
  8
FUTO
 10
4371.3422120617852
 20
11130.314459443851
 30
0.0
 11
4367.5892820617846
 21
11136.814459443851
 31
0.0
  0
LINE
  5
7DEB
  8
FUTO
 10
4367.5892820617846
 20
11136.814459443851
 30
0.0
 11
4371.3422120617852
 21
11143.314459443851
 31
0.0
  0
LINE
  5
7DEC
  8
FUTO
 10
4316.6971920617852
 20
11155.128302443851
 30
0.0
 11
4325.2850830617854
 21
11178.722906443851
 31
0.0
  0
LINE
  5
7DED
  8
FUTO
 10
4315.491138061785
 20
11101.814459443851
 30
0.0
 11
4315.491138061785
 21
11148.28784844385
 31
0.0
  0
LINE
  5
7DEE
  8
FUTO
 10
4382.600513061785
 20
11136.814459443851
 30
0.0
 11
4378.8475830617854
 21
11143.314459443851
 31
0.0
  0
LINE
  5
7DEF
  8
FUTO
 10
4378.8475830617854
 20
11130.314459443851
 30
0.0
 11
4382.600513061785
 21
11136.814459443851
 31
0.0
  0
LINE
  5
7DF0
  8
CT
 10
4375.0948970617837
 20
11129.37232044385
 30
0.0
 11
4375.0948970617837
 21
11143.828375443851
 31
0.0
  0
LINE
  5
7DF1
  8
CT
 10
4383.4855220617846
 20
11136.814459443851
 30
0.0
 11
4366.6639890617853
 21
11136.814459443851
 31
0.0
  0
LINE
  5
7DF2
  8
FUTO
 10
4378.8475830617854
 20
11143.314459443851
 30
0.0
 11
4371.3422120617852
 21
11143.314459443851
 31
0.0
  0
LINE
  5
7DF3
  8
FUTO
 10
4378.8475830617854
 20
11130.314459443851
 30
0.0
 11
4371.3422120617852
 21
11130.314459443851
 31
0.0
  0
CIRCLE
  5
7DF4
  8
FUTO
 10
4375.0948970617837
 20
11136.814459443851
 30
0.0
 40
6.5
  0
ARC
  5
7DF5
  8
FUTO
 10
4341.491138061785
 20
11246.50354644385
 30
0.0
 40
15.0
 50
150.00018299999559
 51
180.0
  0
ARC
  5
7DF6
  8
FUTO
 10
4361.8778560617839
 20
11301.814459443851
 30
0.0
 40
4.9999580000000003
 50
89.999999999999986
 51
149.99971800000111
  0
LINE
  5
7DF7
  8
FUTO
 10
4357.5477780617848
 20
11304.314459443851
 30
0.0
 11
4328.5006590617841
 21
11254.00354644385
 31
0.0
  0
LINE
  5
7DF8
  8
FUTO
 10
4326.491138061785
 20
11185.56323844385
 30
0.0
 11
4326.491138061785
 21
11246.50354644385
 31
0.0
  0
LINE
  5
7DF9
  8
FUTO
 10
4711.4911380617832
 20
11185.56323844385
 30
0.0
 11
4711.4911380617832
 21
11246.50354644385
 31
0.0
  0
LINE
  5
7DFA
  8
CT
 10
4518.9911380617841
 20
10325.025429477901
 30
0.0
 11
4518.9911380617841
 21
11326.81452044385
 31
0.0
  0
LINE
  5
7DFB
  8
FUTO
 10
4676.6411020617852
 20
11306.81452044385
 30
0.0
 11
4361.8507880617863
 21
11306.81452044385
 31
0.0
  0
LINE
  5
7DFC
  8
FUTO
 10
4326.491138061785
 20
11247.71448344385
 30
0.0
 11
4711.4420660617843
 21
11247.71448344385
 31
0.0
  0
LINE
  5
7DFD
  8
FUTO
 10
4680.4344980617852
 20
11304.314459443851
 30
0.0
 11
4709.4816170617842
 21
11254.00354644385
 31
0.0
  0
ARC
  5
7DFE
  8
FUTO
 10
4676.1044200617853
 20
11301.814459443851
 30
0.0
 40
4.9999580000000003
 50
30.000281999998819
 51
89.999999999999986
  0
ARC
  5
7DFF
  8
FUTO
 10
4696.491138061785
 20
11246.50354644385
 30
0.0
 40
15.0
 50
0.000000000000007
 51
29.999817000004359
  0
LINE
  5
7E00
  8
FUTO
 10
4440.991138061785
 20
10657.31452044385
 30
0.0
 11
4518.9911380617841
 21
10657.31452044385
 31
0.0
  0
LINE
  5
7E01
  8
FUTO
 10
4328.991138061785
 20
10738.81452044385
 30
0.0
 11
4518.9911380617841
 21
10738.81452044385
 31
0.0
  0
LINE
  5
7E02
  8
FUTO
 10
4356.991138061785
 20
10743.81452044385
 30
0.0
 11
4518.9911380617841
 21
10743.81452044385
 31
0.0
  0
LINE
  5
7E03
  8
FUTO
 10
4711.8085210617828
 20
11182.01441044385
 30
0.0
 11
4326.491138061785
 21
11182.01441044385
 31
0.0
  0
LINE
  5
7E04
  8
FUTO
 10
4722.1776620617838
 20
11151.814459443851
 30
0.0
 11
4315.8045178629109
 21
11151.814459443851
 31
0.0
  0
LINE
  5
7E05
  8
FUTO
 10
4722.4911380617832
 20
11101.814459443851
 30
0.0
 11
4317.3129150617851
 21
11101.814459443851
 31
0.0
  0
LINE
  5
7E06
  8
FUTO
 10
4356.991138061785
 20
10743.81452044385
 30
0.0
 11
4518.9911380617841
 21
10743.81452044385
 31
0.0
  0
CIRCLE
  5
7E07
  8
FUTO
 10
4662.8873790617854
 20
11136.814459443851
 30
0.0
 40
6.5
  0
LINE
  5
7E08
  8
FUTO
 10
4659.1346930617838
 20
11130.314459443851
 30
0.0
 11
4666.6400640617849
 21
11130.314459443851
 31
0.0
  0
LINE
  5
7E09
  8
FUTO
 10
4659.1346930617838
 20
11143.314459443851
 30
0.0
 11
4666.6400640617849
 21
11143.314459443851
 31
0.0
  0
LINE
  5
7E0A
  8
CT
 10
4654.4967540617854
 20
11136.814459443851
 30
0.0
 11
4671.3182870617848
 21
11136.814459443851
 31
0.0
  0
LINE
  5
7E0B
  8
CT
 10
4662.8873790617854
 20
11129.37232044385
 30
0.0
 11
4662.8873790617854
 21
11143.828375443851
 31
0.0
  0
LINE
  5
7E0C
  8
FUTO
 10
4659.1346930617838
 20
11130.314459443851
 30
0.0
 11
4655.381763061785
 21
11136.814459443851
 31
0.0
  0
LINE
  5
7E0D
  8
FUTO
 10
4655.381763061785
 20
11136.814459443851
 30
0.0
 11
4659.1346930617838
 21
11143.314459443851
 31
0.0
  0
LINE
  5
7E0E
  8
FUTO
 10
4722.4911380617832
 20
11101.814459443851
 30
0.0
 11
4722.4911380617832
 21
11148.28784844385
 31
0.0
  0
LINE
  5
7E0F
  8
FUTO
 10
4721.2850840617839
 20
11155.128302443851
 30
0.0
 11
4712.6971930617838
 21
11178.722906443851
 31
0.0
  0
LINE
  5
7E10
  8
FUTO
 10
4670.3929940617854
 20
11136.814459443851
 30
0.0
 11
4666.6400640617849
 21
11143.314459443851
 31
0.0
  0
LINE
  5
7E11
  8
FUTO
 10
4666.6400640617849
 20
11130.314459443851
 30
0.0
 11
4670.3929940617854
 21
11136.814459443851
 31
0.0
  0
ARC
  5
7E12
  8
FUTO
 10
4731.491138061785
 20
11185.56323844385
 30
0.0
 40
20.0
 50
180.0
 51
199.9997250000097
  0
ARC
  5
7E13
  8
FUTO
 10
4702.491138061785
 20
11148.28784844385
 30
0.0
 40
20.0
 50
0.000000000000007
 51
20.000046000015249
  0
LINE
  5
7E14
  8
FUTO
 10
4722.4911380617832
 20
11099.62529119288
 30
0.0
 11
4720.669361061784
 21
11101.814459443851
 31
0.0
  0
LINE
  5
7E15
  8
FUTO
 10
4680.9911380617841
 20
10743.81452044385
 30
0.0
 11
4518.9911380617841
 21
10743.81452044385
 31
0.0
  0
LINE
  5
7E16
  8
FUTO
 10
4671.6171150617838
 20
10676.120672443851
 30
0.0
 11
4583.0258060617853
 21
10671.477850443849
 31
0.0
  0
LINE
  5
7E17
  8
FUTO
 10
4708.9911380617841
 20
10738.81452044385
 30
0.0
 11
4518.9911380617841
 21
10738.81452044385
 31
0.0
  0
LINE
  5
7E18
  8
FUTO
 10
4680.9911380617841
 20
10743.81452044385
 30
0.0
 11
4518.9911380617841
 21
10743.81452044385
 31
0.0
  0
LINE
  5
7E19
  8
FUTO
 10
4488.991138061785
 20
10647.31452044385
 30
0.0
 11
4488.991138061785
 21
10507.31452044385
 31
0.0
  0
LINE
  5
7E1A
  8
FUTO
 10
4548.991138061785
 20
10647.31452044385
 30
0.0
 11
4548.991138061785
 21
10507.31452044385
 31
0.0
  0
LINE
  5
7E1B
  8
FUTO
 10
4596.991138061785
 20
10657.31452044385
 30
0.0
 11
4518.9911380617841
 21
10657.31452044385
 31
0.0
  0
LINE
  5
7E1C
  8
FUTO
 10
4486.491138061785
 20
10647.31452044385
 30
0.0
 11
4551.491138061785
 21
10647.31452044385
 31
0.0
  0
LINE
  5
7E1D
  8
FUTO
 10
4486.491138061785
 20
10647.31452044385
 30
0.0
 11
4486.491138061785
 21
10657.31452044385
 31
0.0
  0
LINE
  5
7E1E
  8
FUTO
 10
4551.491138061785
 20
10647.31452044385
 30
0.0
 11
4551.491138061785
 21
10657.31452044385
 31
0.0
  0
LINE
  5
7E1F
  8
FUTO
 10
4598.9911380617841
 20
10669.46759644385
 30
0.0
 11
4598.9911380617841
 21
10659.31452044385
 31
0.0
  0
ARC
  5
7E20
  8
FUTO
 10
4601.991138061785
 20
10669.46759644385
 30
0.0
 40
2.9999599999999988
 50
92.999556999983326
 51
180.0
  0
ARC
  5
7E21
  8
FUTO
 10
4596.991138061785
 20
10659.31452044385
 30
0.0
 40
2.0
 50
270.0
 51
0.000000000000007
  0
LINE
  5
7E22
  8
FUTO
 10
4548.991138061785
 20
10507.31452044385
 30
0.0
 11
4488.991138061785
 21
10507.31452044385
 31
0.0
  0
LINE
  5
7E23
  8
FUTO
 10
4722.4911380617832
 20
10766.00360744385
 30
0.0
 11
4715.9911380617841
 21
10758.192694443849
 31
0.0
  0
LINE
  5
7E24
  8
FUTO
 10
4708.9911380617841
 20
10738.81452044385
 30
0.0
 11
4708.0809820617842
 21
10712.751288443849
 31
0.0
  0
LINE
  5
7E25
  8
FUTO
 10
4715.9911380617841
 20
10758.192694443849
 30
0.0
 11
4680.9911380617841
 21
10748.81452044385
 31
0.0
  0
LINE
  5
7E26
  8
FUTO
 10
4680.9911380617841
 20
10743.81452044385
 30
0.0
 11
4680.9911380617841
 21
10748.81452044385
 31
0.0
  0
LINE
  5
7E27
  8
FUTO
 10
4680.9911380617841
 20
10738.81452044385
 30
0.0
 11
4680.9911380617841
 21
10743.81452044385
 31
0.0
  0
LINE
  5
7E28
  8
FUTO
 10
4705.1581310617848
 20
10706.029120443851
 30
0.0
 11
4678.164966061785
 21
10679.035956443849
 31
0.0
  0
ARC
  5
7E29
  8
FUTO
 10
4671.0939220617847
 20
10686.10700044385
 30
0.0
 40
10.000024
 50
272.99903899998708
 51
314.99999999999989
  0
ARC
  5
7E2A
  8
FUTO
 10
4698.0870860617852
 20
10713.10016544385
 30
0.0
 40
9.9999679999999991
 50
314.99999999999989
 51
358.00067099997602
  0
CIRCLE
  5
7E2B
  8
FUTO
 10
4518.9911380617841
 20
6933.0759801362528
 30
0.0
 40
30.0
  0
LINE
  5
7E2C
  8
KL
 10
8771.9691624813022
 20
6753.0759801362528
 30
0.0
 11
8786.6485934056127
 21
6753.0759801362528
 31
0.0
  0
LINE
  5
7E2D
  8
KL
 10
8774.6486544056152
 20
6733.0759801362528
 30
0.0
 11
8809.6486544056133
 21
6733.0759801362528
 31
0.0
  0
LINE
  5
7E2E
  8
KL
 10
8447.3281463299245
 20
6753.0759801362528
 30
0.0
 11
8432.6486544056133
 21
6753.0759801362528
 31
0.0
  0
LINE
  5
7E2F
  8
KL
 10
8444.6486544056133
 20
6733.0759801362528
 30
0.0
 11
8409.6486544056133
 21
6733.0759801362528
 31
0.0
  0
LINE
  5
7E30
  8
CT
 10
4358.9911380617841
 20
6723.0759801362519
 30
0.0
 11
4358.9911380617841
 21
6653.0759801362537
 31
0.0
  0
LINE
  5
7E31
  8
KL
 10
8509.6486544056133
 20
6728.0759801362528
 30
0.0
 11
8509.6486544056133
 21
6733.0759801362528
 31
0.0
  0
LINE
  5
7E32
  8
KL
 10
8709.6486544056133
 20
6733.0759801362528
 30
0.0
 11
8709.6486544056133
 21
6728.0759801362528
 31
0.0
  0
LINE
  5
7E3B
  8
FUTO
 10
4586.991138061785
 20
6733.0759801362528
 30
0.0
 11
4586.991138061785
 21
6728.0759801362528
 31
0.0
  0
LINE
  5
7E3C
  8
FUTO
 10
4450.9910160617846
 20
6728.0759801362528
 30
0.0
 11
4450.9910160617846
 21
6733.0759801362528
 31
0.0
  0
LINE
  5
7E3D
  8
KL
 10
8464.6486544056115
 20
6761.5515661362542
 30
0.0
 11
8448.6486544056133
 21
6752.314262136254
 31
0.0
  0
LINE
  5
7E3E
  8
KL
 10
8480.6486544056133
 20
6752.314262136254
 30
0.0
 11
8464.6486544056115
 21
6761.5515661362542
 31
0.0
  0
LINE
  5
7E3F
  8
KL
 10
8464.6486544056115
 20
6724.6013711362539
 30
0.0
 11
8448.6486544056133
 21
6733.8386761362526
 31
0.0
  0
LINE
  5
7E40
  8
KL
 10
8480.6486544056133
 20
6733.8386761362526
 30
0.0
 11
8464.6486544056115
 21
6724.6013711362539
 31
0.0
  0
LINE
  5
7E41
  8
KL
 10
8434.6486544056133
 20
6743.0759801362528
 30
0.0
 11
8494.6486544056133
 21
6743.0759801362528
 31
0.0
  0
CIRCLE
  5
7E42
  8
CT
 10
8464.6486544056115
 20
6743.0759801362528
 30
0.0
 40
16.0
  0
LINE
  5
7E43
  8
KL
 10
8480.6486544056133
 20
6733.8386761362526
 30
0.0
 11
8480.6486544056133
 21
6752.314262136254
 31
0.0
  0
LINE
  5
7E44
  8
KL
 10
8448.6486544056133
 20
6733.8386761362526
 30
0.0
 11
8448.6486544056133
 21
6752.314262136254
 31
0.0
  0
ARC
  5
7E45
  8
KL
 10
8464.6486544056115
 20
6743.0759801362528
 30
0.0
 40
20.0
 50
0.000000000000007
 51
180.0
  0
ARC
  5
7E46
  8
FUTO
 10
8357.6486544056133
 20
6700.0759801362528
 30
0.0
 40
3.0
 50
90.0
 51
180.0
  0
LINE
  5
7E47
  8
KL
 10
8406.5236544056133
 20
6703.0759801362537
 30
0.0
 11
8357.6486544056133
 21
6703.0759801362537
 31
0.0
  0
LINE
  5
7E48
  8
KL
 10
8411.6486544056133
 20
6673.0759801362519
 30
0.0
 11
8411.6486544056133
 21
6678.0759801362528
 31
0.0
  0
LINE
  5
7E49
  8
KL
 10
8401.6486544056133
 20
6685.0759801362528
 30
0.0
 11
8401.6486544056133
 21
6678.0759801362528
 31
0.0
  0
LINE
  5
7E4A
  8
FUTO
 10
8411.6486544056133
 20
6673.0759801362519
 30
0.0
 11
8354.6486544056133
 21
6673.0759801362519
 31
0.0
  0
LINE
  5
7E4B
  8
FUTO
 10
8354.6486544056133
 20
6673.0759801362519
 30
0.0
 11
8354.6486544056133
 21
6700.0759801362528
 31
0.0
  0
LINE
  5
7E4C
  8
CT
 10
8379.6486544056133
 20
6723.0759801362519
 30
0.0
 11
8379.6486544056133
 21
6653.0759801362537
 31
0.0
  0
LINE
  5
7E4D
  8
KL
 10
8401.6486544056133
 20
6685.0759801362528
 30
0.0
 11
8444.6486544056133
 21
6685.0759801362528
 31
0.0
  0
LINE
  5
7E4E
  8
KL
 10
8409.6486544056133
 20
6733.0759801362528
 30
0.0
 11
8404.6486544056133
 21
6685.0759801362528
 31
0.0
  0
LINE
  5
7E4F
  8
KL
 10
8484.6486544056133
 20
6743.0759801362528
 30
0.0
 11
8484.6486544056133
 21
6678.0759801362528
 31
0.0
  0
LINE
  5
7E50
  8
KL
 10
8444.6486544056133
 20
6678.0759801362528
 30
0.0
 11
8444.6486544056133
 21
6743.0759801362528
 31
0.0
  0
LINE
  5
7E51
  8
CT
 10
8464.6486544056115
 20
6668.0759801362528
 30
0.0
 11
8464.6486544056115
 21
6773.0759801362519
 31
0.0
  0
LINE
  5
7E52
  8
KL
 10
8738.6486544056133
 20
6752.314262136254
 30
0.0
 11
8754.6486544056133
 21
6761.5515661362542
 31
0.0
  0
LINE
  5
7E53
  8
KL
 10
8738.6486544056133
 20
6733.8386761362526
 30
0.0
 11
8754.6486544056133
 21
6724.6013711362539
 31
0.0
  0
LINE
  5
7E54
  8
KL
 10
8738.6486544056133
 20
6733.8386761362526
 30
0.0
 11
8738.6486544056133
 21
6752.314262136254
 31
0.0
  0
LINE
  5
7E55
  8
KL
 10
8770.6486544056133
 20
6733.8386761362526
 30
0.0
 11
8770.6486544056133
 21
6752.314262136254
 31
0.0
  0
CIRCLE
  5
7E56
  8
KL
 10
8754.6486544056133
 20
6743.0759801362528
 30
0.0
 40
16.0
  0
LINE
  5
7E57
  8
KL
 10
8754.6486544056133
 20
6761.5515661362542
 30
0.0
 11
8770.6486544056133
 21
6752.314262136254
 31
0.0
  0
LINE
  5
7E58
  8
KL
 10
8754.6486544056133
 20
6724.6013711362539
 30
0.0
 11
8770.6486544056133
 21
6733.8386761362526
 31
0.0
  0
ARC
  5
7E59
  8
KL
 10
8754.6486544056133
 20
6743.0759801362528
 30
0.0
 40
20.0
 50
0.000000000000007
 51
180.0
  0
LINE
  5
7E5A
  8
CT
 10
8784.6486544056133
 20
6743.0759801362528
 30
0.0
 11
8724.6486544056133
 21
6743.0759801362528
 31
0.0
  0
LINE
  5
7E5B
  8
KL
 10
8509.6486544056133
 20
6728.0759801362528
 30
0.0
 11
8709.6486544056133
 21
6728.0759801362528
 31
0.0
  0
LINE
  5
7E5C
  8
KL
 10
8807.6486544056133
 20
6673.0759801362519
 30
0.0
 11
8807.6486544056133
 21
6678.0759801362528
 31
0.0
  0
LINE
  5
7E5D
  8
KL
 10
8817.6486544056133
 20
6685.0759801362528
 30
0.0
 11
8817.6486544056133
 21
6678.0759801362528
 31
0.0
  0
LINE
  5
7E5E
  8
KL
 10
8817.6486544056133
 20
6685.0759801362528
 30
0.0
 11
8774.6486544056152
 21
6685.0759801362528
 31
0.0
  0
LINE
  5
7E5F
  8
CT
 10
8839.6486544056115
 20
6723.0759801362519
 30
0.0
 11
8839.6486544056115
 21
6653.0759801362537
 31
0.0
  0
ARC
  5
7E60
  8
KL
 10
8861.6486544056133
 20
6700.0759801362528
 30
0.0
 40
3.0
 50
0.000000000000007
 51
90.0
  0
LINE
  5
7E61
  8
KL
 10
8864.6486544056133
 20
6673.0759801362519
 30
0.0
 11
8864.6486544056133
 21
6700.0759801362528
 31
0.0
  0
LINE
  5
7E62
  8
KL
 10
8812.7736544056133
 20
6703.0759801362537
 30
0.0
 11
8861.6486544056133
 21
6703.0759801362537
 31
0.0
  0
LINE
  5
7E63
  8
KL
 10
8807.6486544056133
 20
6673.0759801362519
 30
0.0
 11
8864.6486544056133
 21
6673.0759801362519
 31
0.0
  0
LINE
  5
7E64
  8
KL
 10
8809.6486544056133
 20
6733.0759801362528
 30
0.0
 11
8814.6486544056133
 21
6685.0759801362528
 31
0.0
  0
LINE
  5
7E65
  8
KL
 10
8734.6486544056133
 20
6743.0759801362528
 30
0.0
 11
8734.6486544056133
 21
6678.0759801362528
 31
0.0
  0
LINE
  5
7E66
  8
KL
 10
8774.6486544056152
 20
6678.0759801362528
 30
0.0
 11
8774.6486544056152
 21
6743.0759801362528
 31
0.0
  0
LINE
  5
7E67
  8
CT
 10
8754.6486544056133
 20
6668.0759801362528
 30
0.0
 11
8754.6486544056133
 21
6773.0759801362519
 31
0.0
  0
LINE
  5
7E68
  8
FUTO
 10
4159.5365480617857
 20
6752.7810581362537
 30
0.0
 11
4157.9365720617861
 21
6751.1814491362529
 31
0.0
  0
LINE
  5
7E69
  8
FUTO
 10
4159.5365480617857
 20
6752.7810581362537
 30
0.0
 11
4157.9365720617861
 21
6754.3816441362542
 31
0.0
  0
LINE
  5
7E6A
  8
FUTO
 10
4159.5365480617857
 20
6752.7810581362537
 30
0.0
 11
4171.6365230617839
 21
6752.7810581362537
 31
0.0
  0
LINE
  5
7E6B
  8
FUTO
 10
4157.9366940617856
 20
6759.066215136254
 30
0.0
 11
4159.5366700617851
 21
6760.665824136252
 31
0.0
  0
LINE
  5
7E6C
  8
FUTO
 10
4159.5365480617857
 20
6760.665824136252
 30
0.0
 11
4171.6365230617839
 21
6760.665824136252
 31
0.0
  0
LINE
  5
7E6D
  8
FUTO
 10
4159.5365480617857
 20
6733.3709021362538
 30
0.0
 11
4157.9365720617861
 21
6734.9714881362534
 31
0.0
  0
LINE
  5
7E6E
  8
FUTO
 10
4159.5365480617857
 20
6733.3709021362538
 30
0.0
 11
4157.9365720617861
 21
6731.7712931362539
 31
0.0
  0
LINE
  5
7E6F
  8
FUTO
 10
4159.5365480617857
 20
6733.3709021362538
 30
0.0
 11
4171.6365230617839
 21
6733.3709021362538
 31
0.0
  0
LINE
  5
7E70
  8
FUTO
 10
4159.5365480617857
 20
6725.486137136254
 30
0.0
 11
4171.6365230617839
 21
6725.486137136254
 31
0.0
  0
LINE
  5
7E71
  8
FUTO
 10
4159.5365480617857
 20
6725.486137136254
 30
0.0
 11
4157.9365720617861
 21
6727.0867221362532
 31
0.0
  0
LINE
  5
7E72
  8
FUTO
 10
4157.9366940617856
 20
6759.066215136254
 30
0.0
 11
4157.9366940617856
 21
6727.0867221362532
 31
0.0
  0
LINE
  5
7E73
  8
FUTO
 10
4171.6366450617861
 20
6760.665824136252
 30
0.0
 11
4171.6366450617861
 21
6725.486137136254
 31
0.0
  0
LINE
  5
7E74
  8
HOSO
 10
4233.9910160617846
 20
6736.0759801362528
 30
0.0
 11
4171.636889061785
 21
6736.0759801362528
 31
0.0
  0
LINE
  5
7E75
  8
FUTO
 10
4233.9910160617846
 20
6752.0759801362528
 30
0.0
 11
4171.636889061785
 21
6752.0759801362528
 31
0.0
  0
LINE
  5
7E76
  8
HOSO
 10
4171.6366450617861
 20
6750.0759801362528
 30
0.0
 11
4233.9910160617846
 21
6750.0759801362528
 31
0.0
  0
LINE
  5
7E77
  8
FUTO
 10
4171.6366450617861
 20
6734.0759801362519
 30
0.0
 11
4233.9910160617846
 21
6734.0759801362519
 31
0.0
  0
LINE
  5
7E78
  8
FUTO
 10
4329.9911380617841
 20
6750.0759801362528
 30
0.0
 11
4327.991138061785
 21
6752.0759801362528
 31
0.0
  0
LINE
  5
7E79
  8
HOSO
 10
4266.1576827284516
 20
6750.0759801362528
 30
0.0
 11
4329.9910150617852
 21
6750.0759801362528
 31
0.0
  0
LINE
  5
7E7A
  8
FUTO
 10
4327.991138061785
 20
6752.0759801362528
 30
0.0
 11
4265.8243493951204
 21
6752.0759801362528
 31
0.0
  0
LINE
  5
7E7B
  8
FUTO
 10
4327.991138061785
 20
6734.0759801362519
 30
0.0
 11
4329.9911380617841
 21
6736.0759801362528
 31
0.0
  0
LINE
  5
7E7C
  8
FUTO
 10
4268.8243493951204
 20
6734.0759801362519
 30
0.0
 11
4327.991138061785
 21
6734.0759801362519
 31
0.0
  0
LINE
  5
7E7D
  8
HOSO
 10
4329.9911380617841
 20
6736.0759801362528
 30
0.0
 11
4268.4910160617846
 21
6736.0759801362528
 31
0.0
  0
LINE
  5
7E7E
  8
FUTO
 10
4327.991138061785
 20
6752.0759801362528
 30
0.0
 11
4327.991138061785
 21
6734.0759801362519
 31
0.0
  0
LINE
  5
7E7F
  8
FUTO
 10
4263.9910160617856
 20
6763.0759801362528
 30
0.0
 11
4268.9910160617846
 21
6733.0759801362528
 31
0.0
  0
LINE
  5
7E80
  8
FUTO
 10
4586.991138061785
 20
6728.0759801362528
 30
0.0
 11
4450.9910160617846
 21
6728.0759801362528
 31
0.0
  0
LINE
  5
7E81
  8
FUTO
 10
4266.9910160617846
 20
6733.0759801362528
 30
0.0
 11
4450.9910160617846
 21
6733.0759801362528
 31
0.0
  0
LINE
  5
7E82
  8
FUTO
 10
4263.9910160617856
 20
6763.0759801362528
 30
0.0
 11
4233.9910160617846
 21
6763.0759801362528
 31
0.0
  0
LINE
  5
7E83
  8
CT
 10
4329.9911380617841
 20
6743.0759801362528
 30
0.0
 11
4147.9366940617856
 21
6743.0759801362528
 31
0.0
  0
LINE
  5
7E84
  8
FUTO
 10
4258.9910160617846
 20
6678.0759801362528
 30
0.0
 11
4233.9910160617846
 21
6678.0759801362528
 31
0.0
  0
LINE
  5
7E85
  8
FUTO
 10
4261.9910160617846
 20
6685.0759801362528
 30
0.0
 11
4258.9910160617846
 21
6685.0759801362528
 31
0.0
  0
LINE
  5
7E86
  8
FUTO
 10
4258.9910160617846
 20
6685.0759801362528
 30
0.0
 11
4258.9910160617846
 21
6678.0759801362528
 31
0.0
  0
ARC
  5
7E87
  8
FUTO
 10
4311.9907720617839
 20
6700.0759801362528
 30
0.0
 40
3.0
 50
89.997664999998889
 51
180.0
  0
LINE
  5
7E88
  8
FUTO
 10
4308.9910160617846
 20
6673.0759801362519
 30
0.0
 11
4308.9910160617846
 21
6700.0759801362528
 31
0.0
  0
ARC
  5
7E89
  8
FUTO
 10
4405.9910160617846
 20
6700.0759801362528
 30
0.0
 40
3.0
 50
0.000000000000007
 51
90.002335000001125
  0
LINE
  5
7E8A
  8
FUTO
 10
4408.9910160617856
 20
6673.0759801362519
 30
0.0
 11
4408.9910160617856
 21
6700.0759801362528
 31
0.0
  0
LINE
  5
7E8B
  8
FUTO
 10
4405.9910160617846
 20
6703.0759801362537
 30
0.0
 11
4311.9910160617846
 21
6703.0759801362537
 31
0.0
  0
LINE
  5
7E8C
  8
FUTO
 10
4408.9910160617856
 20
6673.0759801362519
 30
0.0
 11
4308.9910160617846
 21
6673.0759801362519
 31
0.0
  0
LINE
  5
7E8D
  8
FUTO
 10
4258.9910160617846
 20
6678.0759801362528
 30
0.0
 11
4308.9910160617846
 21
6678.0759801362528
 31
0.0
  0
LINE
  5
7E8E
  8
FUTO
 10
4266.9910160617846
 20
6733.0759801362528
 30
0.0
 11
4261.9910160617846
 21
6685.0759801362528
 31
0.0
  0
LINE
  5
7E8F
  8
FUTO
 10
4233.9910160617846
 20
6763.0759801362528
 30
0.0
 11
4233.9910160617846
 21
6678.0759801362528
 31
0.0
  0
LINE
  5
7E90
  8
FUTO
 10
4707.9911380617841
 20
6750.0759801362528
 30
0.0
 11
4709.991138061785
 21
6752.0759801362528
 31
0.0
  0
LINE
  5
7E91
  8
HOSO
 10
4771.8244103951183
 20
6750.0759801362547
 30
0.0
 11
4707.9911380617841
 21
6750.0759801362528
 31
0.0
  0
LINE
  5
7E92
  8
FUTO
 10
4709.991138061785
 20
6752.0759801362528
 30
0.0
 11
4772.1577437284523
 21
6752.0759801362528
 31
0.0
  0
LINE
  5
7E93
  8
FUTO
 10
4709.991138061785
 20
6734.0759801362519
 30
0.0
 11
4707.9911380617841
 21
6736.0759801362528
 31
0.0
  0
LINE
  5
7E94
  8
FUTO
 10
4769.1577437284523
 20
6734.0759801362519
 30
0.0
 11
4709.991138061785
 21
6734.0759801362519
 31
0.0
  0
LINE
  5
7E95
  8
HOSO
 10
4707.9911380617841
 20
6736.0759801362528
 30
0.0
 11
4769.4910770617853
 21
6736.0759801362528
 31
0.0
  0
LINE
  5
7E96
  8
FUTO
 10
4709.991138061785
 20
6752.0759801362528
 30
0.0
 11
4709.991138061785
 21
6734.0759801362519
 31
0.0
  0
LINE
  5
7E97
  8
FUTO
 10
4773.9910770617853
 20
6763.0759801362528
 30
0.0
 11
4768.9910770617862
 21
6733.0759801362528
 31
0.0
  0
LINE
  5
7E98
  8
FUTO
 10
4803.9910770617871
 20
6752.0759801362528
 30
0.0
 11
4866.3456300617854
 21
6752.0759801362528
 31
0.0
  0
LINE
  5
7E99
  8
HOSO
 10
4866.3455690617848
 20
6750.0759801362528
 30
0.0
 11
4803.9910770617871
 21
6750.0759801362528
 31
0.0
  0
LINE
  5
7E9A
  8
HOSO
 10
4803.9910770617871
 20
6736.0759801362547
 30
0.0
 11
4866.3456300617854
 21
6736.0759801362528
 31
0.0
  0
LINE
  5
7E9B
  8
FUTO
 10
4866.3455690617848
 20
6734.0759801362519
 30
0.0
 11
4803.9910770617871
 21
6734.0759801362519
 31
0.0
  0
LINE
  5
7E9C
  8
FUTO
 10
4866.3455690617848
 20
6760.665824136252
 30
0.0
 11
4866.3455690617848
 21
6725.486137136254
 31
0.0
  0
LINE
  5
7E9D
  8
FUTO
 10
4878.4455450617861
 20
6752.7810581362537
 30
0.0
 11
4880.0455200617853
 21
6751.1814491362529
 31
0.0
  0
LINE
  5
7E9E
  8
FUTO
 10
4878.4455450617861
 20
6752.7810581362537
 30
0.0
 11
4880.0455200617853
 21
6754.3816441362542
 31
0.0
  0
LINE
  5
7E9F
  8
FUTO
 10
4880.0455200617853
 20
6759.066215136254
 30
0.0
 11
4878.4455450617861
 21
6760.665824136252
 31
0.0
  0
LINE
  5
7EA0
  8
FUTO
 10
4878.4455450617861
 20
6733.3709021362538
 30
0.0
 11
4880.0455200617853
 21
6734.9714881362534
 31
0.0
  0
LINE
  5
7EA1
  8
FUTO
 10
4878.4455450617861
 20
6733.3709021362538
 30
0.0
 11
4880.0455200617853
 21
6731.7712931362539
 31
0.0
  0
LINE
  5
7EA2
  8
FUTO
 10
4878.4455450617861
 20
6725.486137136254
 30
0.0
 11
4880.0455200617853
 21
6727.0867221362532
 31
0.0
  0
LINE
  5
7EA3
  8
FUTO
 10
4880.0455200617853
 20
6759.066215136254
 30
0.0
 11
4880.0455200617853
 21
6727.0867221362532
 31
0.0
  0
LINE
  5
7EA4
  8
FUTO
 10
4878.4455450617861
 20
6733.3709021362538
 30
0.0
 11
4866.3455690617848
 21
6733.3709021362538
 31
0.0
  0
LINE
  5
7EA5
  8
FUTO
 10
4878.4455450617861
 20
6752.7810581362537
 30
0.0
 11
4866.3455690617848
 21
6752.7810581362537
 31
0.0
  0
LINE
  5
7EA6
  8
FUTO
 10
4878.4455450617861
 20
6725.486137136254
 30
0.0
 11
4866.3455690617848
 21
6725.486137136254
 31
0.0
  0
LINE
  5
7EA7
  8
FUTO
 10
4878.4455450617861
 20
6760.665824136252
 30
0.0
 11
4866.3455690617848
 21
6760.665824136252
 31
0.0
  0
LINE
  5
7EA8
  8
FUTO
 10
4773.9910770617853
 20
6763.0759801362528
 30
0.0
 11
4803.9910770617871
 21
6763.0759801362528
 31
0.0
  0
LINE
  5
7EA9
  8
CT
 10
4707.9911380617841
 20
6743.0759801362528
 30
0.0
 11
4890.0455200617862
 21
6743.0759801362528
 31
0.0
  0
ARC
  5
7EAA
  8
FUTO
 10
4631.9910160617846
 20
6700.0759801362528
 30
0.0
 40
2.999938999999999
 50
89.998833000023197
 51
180.0
  0
LINE
  5
7EAB
  8
FUTO
 10
4628.991138061785
 20
6673.0759801362519
 30
0.0
 11
4628.991138061785
 21
6700.0759801362528
 31
0.0
  0
ARC
  5
7EAC
  8
FUTO
 10
4725.991138061785
 20
6700.0759801362528
 30
0.0
 40
3.0
 50
0.000000000000007
 51
90.001167000028886
  0
LINE
  5
7EAD
  8
FUTO
 10
4775.9910770617862
 20
6685.0759801362528
 30
0.0
 11
4778.9910770617862
 21
6685.0759801362528
 31
0.0
  0
LINE
  5
7EAE
  8
FUTO
 10
4778.9910770617862
 20
6685.0759801362528
 30
0.0
 11
4778.9910770617862
 21
6678.0759801362528
 31
0.0
  0
LINE
  5
7EAF
  8
FUTO
 10
4778.9910770617862
 20
6678.0759801362528
 30
0.0
 11
4728.991138061785
 21
6678.0759801362528
 31
0.0
  0
LINE
  5
7EB0
  8
FUTO
 10
4728.991138061785
 20
6673.0759801362519
 30
0.0
 11
4728.991138061785
 21
6700.0759801362528
 31
0.0
  0
LINE
  5
7EB1
  8
FUTO
 10
4631.991138061785
 20
6703.0759801362537
 30
0.0
 11
4725.991138061785
 21
6703.0759801362537
 31
0.0
  0
LINE
  5
7EB2
  8
FUTO
 10
4628.991138061785
 20
6673.0759801362519
 30
0.0
 11
4728.991138061785
 21
6673.0759801362519
 31
0.0
  0
LINE
  5
7EB3
  8
FUTO
 10
4778.9910770617862
 20
6678.0759801362528
 30
0.0
 11
4803.9910770617871
 21
6678.0759801362528
 31
0.0
  0
LINE
  5
7EB4
  8
FUTO
 10
4770.9910770617853
 20
6733.0759801362528
 30
0.0
 11
4775.9910770617862
 21
6685.0759801362528
 31
0.0
  0
LINE
  5
7EB5
  8
FUTO
 10
4803.9910770617871
 20
6763.0759801362528
 30
0.0
 11
4803.9910770617871
 21
6678.0759801362528
 31
0.0
  0
LINE
  5
7EB6
  8
CT
 10
4678.991138061785
 20
6723.0759801362519
 30
0.0
 11
4678.991138061785
 21
6653.0759801362537
 31
0.0
  0
LINE
  5
7EB7
  8
FUTO
 10
4770.9910770617853
 20
6733.0759801362528
 30
0.0
 11
4586.991138061785
 21
6733.0759801362528
 31
0.0
  0
LINE
  5
7EB8
  8
FUTO
 10
4628.991138061785
 20
6678.0759801362528
 30
0.0
 11
4408.991138061785
 21
6678.0759801362528
 31
0.0
  0
LINE
  5
7EB9
  8
KL
 10
8484.6486544056133
 20
6685.0759801362528
 30
0.0
 11
8734.6486544056133
 21
6685.0759801362528
 31
0.0
  0
LINE
  5
7EBA
  8
KL
 10
8401.6486544056133
 20
6678.0759801362528
 30
0.0
 11
8817.6486544056133
 21
6678.0759801362528
 31
0.0
  0
LINE
  5
7EBB
  8
KL
 10
8425.6486544056133
 20
7095.0759801362537
 30
0.0
 11
8425.6486544056133
 21
7058.0759801362528
 31
0.0
  0
ARC
  5
7EBC
  8
KL
 10
8389.9342994056151
 20
7112.171928136253
 30
0.0
 40
9.9999679999999991
 50
91.999329000023934
 51
135.0
  0
ARC
  5
7EBD
  8
FUTO
 10
8362.9411344056134
 20
7085.1787641362516
 30
0.0
 40
10.000024
 50
135.0
 51
177.00096100001281
  0
LINE
  5
7EBE
  8
KL
 10
8382.8632544056127
 20
7119.2429731362517
 30
0.0
 11
8355.8700904056132
 21
7092.2498081362528
 31
0.0
  0
LINE
  5
7EBF
  8
KL
 10
8415.6486544056133
 20
7095.0759801362537
 30
0.0
 11
8420.6486544056133
 21
7095.0759801362537
 31
0.0
  0
LINE
  5
7EC0
  8
KL
 10
8420.6486544056133
 20
7095.0759801362537
 30
0.0
 11
8425.6486544056133
 21
7095.0759801362537
 31
0.0
  0
LINE
  5
7EC1
  8
KL
 10
8435.0268284056128
 20
7130.0759801362528
 30
0.0
 11
8425.6486544056133
 21
7095.0759801362537
 31
0.0
  0
LINE
  5
7EC2
  8
KL
 10
8415.6486544056133
 20
7123.0759801362528
 30
0.0
 11
8389.5854224056147
 21
7122.1658241362529
 31
0.0
  0
LINE
  5
7EC4
  8
KL
 10
8450.6486544056133
 20
7143.0759801362519
 30
0.0
 11
8435.0268284056128
 21
7130.0759801362528
 31
0.0
  0
LINE
  5
7EC5
  8
FUTO
 10
8184.1486544056143
 20
6967.0759801362537
 30
0.0
 11
8184.1486544056143
 21
6903.0759801362537
 31
0.0
  0
ARC
  5
7EC6
  8
FUTO
 10
8336.1486544056133
 20
7011.0759801362528
 30
0.0
 40
2.0
 50
90.0
 51
180.0
  0
ARC
  5
7ED5
  8
KL
 10
8435.6486544056133
 20
7058.0759801362528
 30
0.0
 40
10.0
 50
90.0
 51
180.0
  0
ARC
  5
7ED8
  8
FUTO
 10
8346.3017304056102
 20
7016.0759801362528
 30
0.0
 40
2.9999599999999988
 50
270.0
 51
357.00044300001662
  0
LINE
  5
7ED9
  8
FUTO
 10
8346.3017304056102
 20
7013.0759801362528
 30
0.0
 11
8336.1486544056133
 21
7013.0759801362528
 31
0.0
  0
LINE
  5
7EDA
  8
FUTO
 10
8294.1486544056133
 20
6967.0759801362537
 30
0.0
 11
8294.1486544056133
 21
6963.0759801362519
 31
0.0
  0
LINE
  5
7EDB
  8
FUTO
 10
8324.1486544056133
 20
6965.5759801362537
 30
0.0
 11
8334.1486544056133
 21
6965.5759801362537
 31
0.0
  0
LINE
  5
7EDC
  8
FUTO
 10
8324.1486544056133
 20
6900.5759801362519
 30
0.0
 11
8334.1486544056133
 21
6900.5759801362519
 31
0.0
  0
LINE
  5
7EDD
  8
FUTO
 10
8324.1486544056133
 20
6900.5759801362519
 30
0.0
 11
8324.1486544056133
 21
6965.5759801362537
 31
0.0
  0
ARC
  5
7EDE
  8
KL
 10
8435.6486544056133
 20
6958.0759801362528
 30
0.0
 40
10.0
 50
180.0
 51
270.0
  0
LINE
  5
7EDF
  8
FUTO
 10
8334.1486544056133
 20
7011.0759801362528
 30
0.0
 11
8334.1486544056133
 21
6933.0759801362528
 31
0.0
  0
LINE
  5
7EE0
  8
KL
 10
8425.6486544056133
 20
6958.0759801362528
 30
0.0
 11
8425.6486544056133
 21
7058.0759801362528
 31
0.0
  0
LINE
  5
7EE1
  8
FUTO
 10
8324.1486544056133
 20
6963.0759801362519
 30
0.0
 11
8184.1486544056143
 21
6963.0759801362519
 31
0.0
  0
LINE
  5
7EE2
  8
FUTO
 10
8324.1486544056133
 20
6903.0759801362537
 30
0.0
 11
8184.1486544056143
 21
6903.0759801362537
 31
0.0
  0
LINE
  5
7EE3
  8
FUTO
 10
8294.1486544056133
 20
6967.0759801362537
 30
0.0
 11
8184.1486544056143
 21
6967.0759801362537
 31
0.0
  0
LINE
  5
7EE4
  8
KL
 10
8420.6486544056133
 20
7095.0759801362537
 30
0.0
 11
8420.6486544056133
 21
6933.0759801362528
 31
0.0
  0
LINE
  5
7EE5
  8
KL
 10
8415.6486544056133
 20
7123.0759801362528
 30
0.0
 11
8415.6486544056133
 21
6933.0759801362528
 31
0.0
  0
LINE
  5
7EE6
  8
FUTO
 10
8352.9548064056144
 20
7085.7019571362534
 30
0.0
 11
8348.3119844056127
 21
6997.1106481362531
 31
0.0
  0
LINE
  5
7EE8
  8
KL
 10
8420.6486544056133
 20
7095.0759801362537
 30
0.0
 11
8420.6486544056133
 21
6933.0759801362528
 31
0.0
  0
ARC
  5
7EE9
  8
KL
 10
8598.4136694056142
 20
7151.3550941362528
 30
0.0
 40
2.9999909999999992
 50
96.115172999988943
 51
174.80557099997009
  0
LINE
  5
7EEA
  8
KL
 10
8595.4259984056134
 20
7151.6267011362534
 30
0.0
 11
8594.6486544056133
 21
7143.0759801362519
 31
0.0
  0
ARC
  5
7EEB
  8
KL
 10
8588.6902804056135
 20
7143.8057781362531
 30
0.0
 40
5.9999760000000002
 50
354.80557299999322
 51
54.396263000016731
  0
ARC
  5
7EEC
  8
KL
 10
8620.8836394056125
 20
7151.3550941362528
 30
0.0
 40
2.999981
 50
5.194427000006832
 51
83.884827000011072
  0
ARC
  5
7EED
  8
KL
 10
8609.6486544056133
 20
7173.0759801362519
 30
0.0
 40
30.0
 50
305.19004800002568
 51
305.60386699999998
  0
LINE
  5
7EEE
  8
KL
 10
8609.6486544056133
 20
7155.5759801362519
 30
0.0
 11
8621.2032194056137
 21
7154.3380041362534
 31
0.0
  0
LINE
  5
7EEF
  8
KL
 10
8623.8713104056133
 20
7151.6267011362534
 30
0.0
 11
8624.6486544056133
 21
7143.0759801362519
 31
0.0
  0
ARC
  5
7EF0
  8
KL
 10
8630.6070284056132
 20
7143.8057781362531
 30
0.0
 40
5.9999820000000001
 50
125.6037369999832
 51
185.19442700000681
  0
LINE
  5
7EF1
  8
KL
 10
8609.6486544056133
 20
7155.5759801362519
 30
0.0
 11
8598.094089405613
 21
7154.3380041362534
 31
0.0
  0
LINE
  5
7EF2
  8
KL
 10
8598.094089405613
 20
7154.3380041362534
 30
0.0
 11
8621.2032194056137
 21
7154.3380041362534
 31
0.0
  0
LINE
  5
7EF3
  8
CT
 10
8649.6486544056152
 20
7173.0759801362519
 30
0.0
 11
8569.6486544056133
 21
7173.0759801362519
 31
0.0
  0
LINE
  5
7EF4
  8
KL
 10
8550.6486544056133
 20
7082.0759801362519
 30
0.0
 11
8668.6486544056133
 21
7082.0759801362519
 31
0.0
  0
CIRCLE
  5
7EF5
  8
KL
 10
8609.6486544056133
 20
7173.0759801362519
 30
0.0
 40
17.5
  0
ARC
  5
7EF6
  8
KL
 10
8609.6486544056133
 20
7173.0759801362519
 30
0.0
 40
30.0
 50
305.60386699999998
 51
234.39614899998969
  0
LINE
  5
7EF7
  8
KL
 10
8768.6485934056127
 20
7143.0759801362519
 30
0.0
 11
8778.6485934056127
 21
7134.7542031362518
 31
0.0
  0
ARC
  5
7EF8
  8
KL
 10
8825.1219824056134
 20
7116.5759801362528
 30
0.0
 40
20.0
 50
69.99995399998474
 51
90.0
  0
ARC
  5
7EF9
  8
KL
 10
8862.3973724056123
 20
7145.5759801362528
 30
0.0
 40
20.0
 50
250.00027499999021
 51
270.0
  0
LINE
  5
7EFC
  8
KL
 10
8831.9624364056144
 20
7135.3699261362517
 30
0.0
 11
8855.5570404056125
 21
7126.7820351362534
 31
0.0
  0
LINE
  5
7EFD
  8
KL
 10
8778.6485934056127
 20
7136.5759801362528
 30
0.0
 11
8825.1219824056134
 21
7136.5759801362528
 31
0.0
  0
LINE
  5
7EFE
  8
KL
 10
8768.6485934056127
 20
7143.0759801362519
 30
0.0
 11
8609.6486544056133
 21
7143.0759801362519
 31
0.0
  0
LINE
  5
7EFF
  8
KL
 10
8671.6485934056127
 20
7075.0759801362528
 30
0.0
 11
8547.6486544056115
 21
7075.0759801362528
 31
0.0
  0
ARC
  5
7F00
  8
KL
 10
8547.6486544056115
 20
6900.378226136253
 30
0.0
 40
20.0
 50
180.0
 51
270.0
  0
CIRCLE
  5
7F01
  8
KL
 10
8609.6486544056133
 20
6867.378226136253
 30
0.0
 40
3.5
  0
LINE
  5
7F02
  8
KL
 10
8616.1015354056144
 20
6867.378226136253
 30
0.0
 11
8601.5124244056133
 21
6867.378226136253
 31
0.0
  0
LINE
  5
7F03
  8
KL
 10
8547.6486544056115
 20
6880.378226136253
 30
0.0
 11
8671.6486544056133
 21
6880.378226136253
 31
0.0
  0
LINE
  5
7F04
  8
KL
 10
8668.6485934056109
 20
6860.3782261362521
 30
0.0
 11
8550.6486544056133
 21
6860.3782261362521
 31
0.0
  0
LINE
  5
7F05
  8
KL
 10
8527.6486544056152
 20
7055.0759801362528
 30
0.0
 11
8527.6486544056152
 21
6900.378226136253
 31
0.0
  0
LINE
  5
7F06
  8
KL
 10
8520.6486544056133
 20
7052.0759801362528
 30
0.0
 11
8520.6486544056133
 21
6890.378226136253
 31
0.0
  0
LINE
  5
7F07
  8
KL
 10
8778.6485934056127
 20
7068.0759801362528
 30
0.0
 11
8694.0257904056125
 21
7068.0759801362528
 31
0.0
  0
LINE
  5
7F0B
  8
KL
 10
8778.6485934056127
 20
6948.0759801362519
 30
0.0
 11
8698.6485934056127
 21
6948.0759801362519
 31
0.0
  0
LINE
  5
7F0C
  8
KL
 10
8691.6485934056127
 20
7055.0759801362528
 30
0.0
 11
8691.6485934056127
 21
6900.378226136253
 31
0.0
  0
LINE
  5
7F0D
  8
KL
 10
8698.6485934056127
 20
7052.0759801362528
 30
0.0
 11
8698.6485934056127
 21
6890.378226136253
 31
0.0
  0
ARC
  5
7F0E
  8
KL
 10
8671.6485934056127
 20
6900.378226136253
 30
0.0
 40
20.0
 50
270.0
 51
0.000000000000007
  0
LINE
  5
7F0F
  8
CT
 10
8718.6485934056127
 20
7008.0759801362528
 30
0.0
 11
8500.6486544056133
 21
7008.0759801362528
 31
0.0
  0
ARC
  5
7F10
  8
KL
 10
8671.6485934056127
 20
7055.0759801362528
 30
0.0
 40
20.0
 50
0.000000000000007
 51
90.0
  0
ARC
  5
7F11
  8
KL
 10
8547.6486544056115
 20
7055.0759801362528
 30
0.0
 40
20.0
 50
90.0
 51
180.0
  0
ARC
  5
7F12
  8
KL
 10
8550.6486544056133
 20
7052.0759801362528
 30
0.0
 40
30.0
 50
90.0
 51
180.0
  0
ARC
  5
7F13
  8
KL
 10
8668.6485934056109
 20
7052.0759801362528
 30
0.0
 40
30.0
 50
0.000000000000007
 51
90.0
  0
LINE
  5
7F18
  8
KL
 10
8450.6486544056133
 20
7143.0759801362519
 30
0.0
 11
8609.6486544056133
 21
7143.0759801362519
 31
0.0
  0
LINE
  5
7F19
  8
KL
 10
8435.6486544056133
 20
7068.0759801362528
 30
0.0
 11
8525.2714574056117
 21
7068.0759801362528
 31
0.0
  0
LINE
  5
7F1A
  8
KL
 10
8435.6486544056133
 20
6948.0759801362519
 30
0.0
 11
8520.6486544056133
 21
6948.0759801362519
 31
0.0
  0
ARC
  5
7F1B
  8
FUTO
 10
8336.1486544056133
 20
6855.0759801362528
 30
0.0
 40
2.0
 50
180.0
 51
270.0
  0
ARC
  5
7F1C
  8
FUTO
 10
8346.3017304056102
 20
6850.0759801362528
 30
0.0
 40
3.0
 50
2.9995570000354208
 51
90.0
  0
ARC
  5
7F1D
  8
FUTO
 10
8360.9982634056141
 20
6818.0442421362523
 30
0.0
 40
10.000139999999989
 50
183.00042699998181
 51
225.00097699998821
  0
ARC
  5
7F2C
  8
FUTO
 10
8362.9411344056134
 20
6780.9731971362517
 30
0.0
 40
9.9999679999999991
 50
182.9990540000266
 51
225.0
  0
LINE
  5
7F2D
  8
KL
 10
8425.6486544056133
 20
6781.3152381362534
 30
0.0
 11
8444.737277405613
 21
6781.3152381362534
 31
0.0
  0
LINE
  5
7F2E
  8
KL
 10
8426.6845434056104
 20
6771.0759801362519
 30
0.0
 11
8420.6486544056133
 21
6771.0759801362519
 31
0.0
  0
LINE
  5
7F2F
  8
KL
 10
8415.6486544056133
 20
6771.0759801362519
 30
0.0
 11
8420.6486544056133
 21
6771.0759801362519
 31
0.0
  0
ARC
  5
7F30
  8
KL
 10
8432.6486544056133
 20
6750.0759801362528
 30
0.0
 40
3.0
 50
90.0
 51
180.0
  0
ARC
  5
7F31
  8
KL
 10
8439.7372774056148
 20
6758.0759801362528
 30
0.0
 40
5.0
 50
270.0
 51
0.000000000000007
  0
LINE
  5
7F32
  8
KL
 10
8425.6486544056133
 20
6774.2024451362531
 30
0.0
 11
8428.2072484056116
 21
6774.2024451362531
 31
0.0
  0
LINE
  5
7F33
  8
KL
 10
8432.6486544056133
 20
6753.0759801362528
 30
0.0
 11
8425.6486544056133
 21
6774.2024451362531
 31
0.0
  0
LINE
  5
7F34
  8
KL
 10
8444.737277405613
 20
6758.0759801362528
 30
0.0
 11
8444.737277405613
 21
6781.3152381362534
 31
0.0
  0
LINE
  5
7F35
  8
KL
 10
8435.8068574056124
 20
6753.0759801362528
 30
0.0
 11
8425.6486544056133
 21
6781.3152381362534
 31
0.0
  0
LINE
  5
7F38
  8
FUTO
 10
8349.2800024056105
 20
6850.5712201362521
 30
0.0
 11
8352.9548064056144
 21
6780.4500041362526
 31
0.0
  0
LINE
  5
7F3A
  8
KL
 10
8382.7196994056139
 20
6782.1807171362516
 30
0.0
 11
8353.9272184056135
 21
6810.9729531362527
 31
0.0
  0
LINE
  5
7F3D
  8
FUTO
 10
8346.3017304056102
 20
6853.0759801362528
 30
0.0
 11
8336.1486544056133
 21
6853.0759801362528
 31
0.0
  0
ARC
  5
7F3E
  8
KL
 10
8389.9342994056151
 20
6753.980033136253
 30
0.0
 40
9.9999839999999995
 50
225.0
 51
268.00067099997602
  0
LINE
  5
7F3F
  8
KL
 10
8415.6486544056133
 20
6743.0759801362528
 30
0.0
 11
8389.5854224056147
 21
6743.9861371362531
 31
0.0
  0
LINE
  5
7F40
  8
KL
 10
8429.6486544056133
 20
6733.0759801362528
 30
0.0
 11
8429.6486544056133
 21
6750.0759801362528
 31
0.0
  0
LINE
  5
7F41
  8
KL
 10
8382.8632544056127
 20
6746.9089881362524
 30
0.0
 11
8355.8700904056132
 21
6773.9021521362529
 31
0.0
  0
LINE
  5
7F42
  8
KL
 10
8570.0485564056144
 20
6754.683891136252
 30
0.0
 11
8489.6486544056133
 21
6753.0759801362528
 31
0.0
  0
ARC
  5
7F43
  8
KL
 10
8584.6486544056133
 20
6815.5720741362529
 30
0.0
 40
5.0
 50
0.000000000000007
 51
90.0
  0
ARC
  5
7F44
  8
KL
 10
8634.6486544056133
 20
6815.5720741362529
 30
0.0
 40
5.0
 50
90.0
 51
180.0
  0
ARC
  5
7F45
  8
KL
 10
8649.6485934056127
 20
6774.6799841362526
 30
0.0
 40
20.000091999999999
 50
180.0
 51
268.85427899999053
  0
LINE
  5
7F46
  8
KL
 10
8629.6486544056133
 20
6815.5720741362529
 30
0.0
 11
8629.6486544056133
 21
6774.6799841362526
 31
0.0
  0
LINE
  5
7F47
  8
KL
 10
8589.6486544056115
 20
6815.5720741362529
 30
0.0
 11
8589.6486544056115
 21
6774.6799841362526
 31
0.0
  0
ARC
  5
7F48
  8
KL
 10
8569.6486544056133
 20
6774.6799841362526
 30
0.0
 40
20.0
 50
271.14572100000942
 51
0.000000000000007
  0
LINE
  5
7F49
  8
KL
 10
8509.6486544056133
 20
6733.0759801362528
 30
0.0
 11
8509.6486544056133
 21
6734.0759801362519
 31
0.0
  0
ARC
  5
7F4A
  8
KL
 10
8514.6486544056133
 20
6734.0759801362519
 30
0.0
 40
5.0
 50
90.0
 51
180.0
  0
LINE
  5
7F4B
  8
KL
 10
8514.6486544056133
 20
6739.0759801362528
 30
0.0
 11
8609.6486544056133
 21
6739.0759801362528
 31
0.0
  0
ARC
  5
7F4C
  8
KL
 10
8786.6485934056127
 20
6750.0759801362528
 30
0.0
 40
3.0
 50
0.000000000000007
 51
90.0
  0
LINE
  5
7F4D
  8
KL
 10
8729.6485934056109
 20
6753.0759801362528
 30
0.0
 11
8737.3281463299245
 21
6753.0759801362528
 31
0.0
  0
ARC
  5
7F57
  8
KL
 10
8704.6485934056127
 20
6734.0759801362519
 30
0.0
 40
5.0
 50
0.000000000000007
 51
90.0
  0
LINE
  5
7F58
  8
KL
 10
8709.6485934056145
 20
6733.0759801362528
 30
0.0
 11
8709.6485934056145
 21
6734.0759801362519
 31
0.0
  0
LINE
  5
7F59
  8
KL
 10
8709.6485934056145
 20
6733.0759801362528
 30
0.0
 11
8734.6486544056133
 21
6733.0759801362528
 31
0.0
  0
LINE
  5
7F5A
  8
KL
 10
8849.2546724056119
 20
6737.0759801362519
 30
0.0
 11
8858.8706394056135
 21
6740.5759801362528
 31
0.0
  0
LINE
  5
7F5B
  8
KL
 10
8849.2546724056119
 20
6737.0759801362519
 30
0.0
 11
8789.6485934056145
 21
6737.0759801362519
 31
0.0
  0
LINE
  5
7F5C
  8
KL
 10
8789.6485934056145
 20
6733.0759801362528
 30
0.0
 11
8789.6485934056145
 21
6750.0759801362528
 31
0.0
  0
LINE
  5
7F5D
  8
KL
 10
8649.2486914056135
 20
6754.683891136252
 30
0.0
 11
8729.6485934056109
 21
6753.0759801362528
 31
0.0
  0
LINE
  5
7F5E
  8
KL
 10
8704.6485934056127
 20
6739.0759801362528
 30
0.0
 11
8609.6486544056133
 21
6739.0759801362528
 31
0.0
  0
LINE
  5
7F5F
  8
KL
 10
8489.6486544056133
 20
6753.0759801362528
 30
0.0
 11
8481.9691624813022
 21
6753.0759801362528
 31
0.0
  0
LINE
  5
7F60
  8
KL
 10
8509.6486544056133
 20
6733.0759801362528
 30
0.0
 11
8484.6486544056133
 21
6733.0759801362528
 31
0.0
  0
ARC
  5
7F61
  8
KL
 10
8668.6485934056109
 20
6890.378226136253
 30
0.0
 40
30.0
 50
270.0
 51
0.000000000000007
  0
ARC
  5
7F62
  8
KL
 10
8550.6486544056133
 20
6890.378226136253
 30
0.0
 40
30.0
 50
180.0
 51
270.0
  0
LINE
  5
7F63
  8
CT
 10
8609.6486544056133
 20
7219.5201744423739
 30
0.0
 11
8609.6486544056133
 21
6649.5201744423739
 31
0.0
  0
LINE
  5
7F64
  8
KL
 10
8420.6486544056133
 20
6771.0759801362519
 30
0.0
 11
8420.6486544056133
 21
6933.0759801362528
 31
0.0
  0
LINE
  5
7F65
  8
KL
 10
8778.6485934056127
 20
7136.5759801362528
 30
0.0
 11
8778.6485934056127
 21
6753.0759801362528
 31
0.0
  0
LINE
  5
7F66
  8
KL
 10
8828.6485934056127
 20
7136.2625041362526
 30
0.0
 11
8828.6485934056127
 21
6737.0759801362519
 31
0.0
  0
LINE
  5
7F67
  8
KL
 10
8858.8485444056132
 20
7125.8933631362534
 30
0.0
 11
8858.8485444056132
 21
6740.5759801362528
 31
0.0
  0
LINE
  5
7F68
  8
KL
 10
8420.6486544056133
 20
6771.0759801362519
 30
0.0
 11
8420.6486544056133
 21
6933.0759801362528
 31
0.0
  0
LINE
  5
7F69
  8
KL
 10
8415.6486544056133
 20
6743.0759801362528
 30
0.0
 11
8415.6486544056133
 21
6933.0759801362528
 31
0.0
  0
LINE
  5
7F6A
  8
FUTO
 10
8334.1486544056133
 20
6855.0759801362528
 30
0.0
 11
8334.1486544056133
 21
6933.0759801362528
 31
0.0
  0
ARC
  5
7F6B
  8
KL
 10
8923.3376804056134
 20
7110.5759801362519
 30
0.0
 40
15.0
 50
60.00018299999563
 51
90.0
  0
ARC
  5
7F6C
  8
KL
 10
8978.6485934056145
 20
7090.1892621362531
 30
0.0
 40
4.9999580000000003
 50
0.000000000000007
 51
59.999718000001181
  0
LINE
  5
7F6D
  8
KL
 10
8981.1485934056109
 20
7094.519340136253
 30
0.0
 11
8930.8376804056134
 21
7123.5664591362529
 31
0.0
  0
LINE
  5
7F6E
  8
FUTO
 10
4287.9313240617839
 20
7079.3049841362526
 30
0.0
 11
4289.3389170617847
 21
7078.5442421362532
 31
0.0
  0
ARC
  5
7F6F
  8
FUTO
 10
4287.4558600617847
 20
7078.4251011362539
 30
0.0
 40
1.000079999999999
 50
61.614464000024142
 51
151.6049860000241
  0
ARC
  5
7F70
  8
FUTO
 10
4288.8634530617846
 20
7077.6643591362536
 30
0.0
 40
1.0001299999999991
 50
331.6139680000237
 51
61.614464000024142
  0
LINE
  5
7F71
  8
FUTO
 10
4368.7697030617855
 20
7077.8311071362541
 30
0.0
 11
4367.921070061785
 21
7077.8311071362541
 31
0.0
  0
LINE
  5
7F72
  8
FUTO
 10
4368.7697030617855
 20
7077.8311071362541
 30
0.0
 11
4368.7697030617855
 21
7078.6797401362528
 31
0.0
  0
LINE
  5
7F73
  8
FUTO
 10
4376.5232430617853
 20
7085.5847691362542
 30
0.0
 11
4380.1154060617846
 21
7081.9927281362534
 31
0.0
  0
LINE
  5
7F74
  8
FUTO
 10
4375.6747320617851
 20
7085.5847691362542
 30
0.0
 11
4376.5232430617853
 21
7085.5847691362542
 31
0.0
  0
LINE
  5
7F75
  8
FUTO
 10
4374.2358890617852
 20
7083.2974161362527
 30
0.0
 11
4374.2358890617852
 21
7084.1460491362541
 31
0.0
  0
LINE
  5
7F76
  8
FUTO
 10
4374.2358890617852
 20
7083.2974161362527
 30
0.0
 11
4377.8280520617845
 21
7079.7053751362528
 31
0.0
  0
LINE
  5
7F77
  8
FUTO
 10
4374.2358890617852
 20
7083.2974161362527
 30
0.0
 11
4373.3873790617854
 21
7083.2974161362527
 31
0.0
  0
LINE
  5
7F78
  8
FUTO
 10
4172.9354740617864
 20
6868.6465371362538
 30
0.0
 11
4170.1371340617861
 21
6870.1589881362524
 31
0.0
  0
ARC
  5
7F79
  8
FUTO
 10
4168.5847660617856
 20
6858.4941931362528
 30
0.0
 40
1.0001299999999991
 50
151.61727900002231
 51
241.61447099997949
  0
ARC
  5
7F7A
  8
FUTO
 10
5167.3619880617862
 20
6944.6072301362528
 30
0.0
 40
1000.0
 50
174.84371900001099
 51
184.2695309999898
  0
LINE
  5
7F7B
  8
FUTO
 10
4288.0220220617848
 20
7074.0046911362542
 30
0.0
 11
4296.3684580617837
 21
7069.4934611362542
 31
0.0
  0
ARC
  5
7F7C
  8
FUTO
 10
4293.991138061785
 20
7065.0947791362541
 30
0.0
 40
5.000062999999999
 50
0.000000000000007
 51
61.609245000013807
  0
LINE
  5
7F7D
  8
CT
 10
4316.4359630617864
 20
7008.0759801362528
 30
0.0
 11
4280.0026130617862
 21
7008.0759801362528
 31
0.0
  0
LINE
  5
7F7E
  8
FUTO
 10
4366.4823490617864
 20
7075.5437541362544
 30
0.0
 11
4370.0743900617854
 21
7071.9517131362536
 31
0.0
  0
LINE
  5
7F7F
  8
FUTO
 10
4366.4823490617864
 20
7075.5437541362544
 30
0.0
 11
4366.4823490617864
 21
7076.3923871362531
 31
0.0
  0
LINE
  5
7F80
  8
FUTO
 10
4298.005237061785
 20
7068.0759801362528
 30
0.0
 11
4366.7174570617844
 21
7068.0759801362528
 31
0.0
  0
LINE
  5
7F81
  8
FUTO
 10
4298.991138061785
 20
6948.0759801362519
 30
0.0
 11
4316.0446050617848
 21
6948.0759801362519
 31
0.0
  0
ARC
  5
7F82
  8
FUTO
 10
4280.1632580617861
 20
6878.0759801362528
 30
0.0
 40
10.000057999999999
 50
270.0
 51
352.87567099997028
  0
LINE
  5
7F83
  8
FUTO
 10
4298.991138061785
 20
6948.0759801362519
 30
0.0
 11
4290.0861090617846
 21
6876.8357461362539
 31
0.0
  0
LINE
  5
7F84
  8
FUTO
 10
4308.9911380617841
 20
6948.0759801362519
 30
0.0
 11
4308.9911380617841
 21
7068.0759801362528
 31
0.0
  0
LINE
  5
7F85
  8
FUTO
 10
4298.991138061785
 20
6948.0759801362519
 30
0.0
 11
4298.991138061785
 21
7065.0947791362541
 31
0.0
  0
LINE
  5
7F86
  8
FUTO
 10
4176.7191050617857
 20
6868.0759801362528
 30
0.0
 11
4280.1632580617861
 21
6868.0759801362528
 31
0.0
  0
LINE
  5
7F87
  8
FUTO
 10
4284.8550300617844
 20
7075.7163611362548
 30
0.0
 11
4208.6718020617836
 21
7070.8018101362541
 31
0.0
  0
ARC
  5
7F88
  8
FUTO
 10
4211.2467540617854
 20
7030.8848181362537
 30
0.0
 40
40.000011000000001
 50
93.690902999999665
 51
174.8436270000314
  0
LINE
  5
7F89
  8
FUTO
 10
4286.5760990617846
 20
7078.9006871362526
 30
0.0
 11
4167.7050060617858
 21
6858.9695351362534
 31
0.0
  0
LINE
  5
7F8A
  8
FUTO
 10
4380.1154060617846
 20
7081.9927281362534
 30
0.0
 11
4370.0743900617854
 21
7071.9517131362536
 31
0.0
  0
LINE
  5
7F8B
  8
CT
 10
4370.5500980617853
 20
7081.5168981362531
 30
0.0
 11
4375.7982670617848
 21
7076.2688511362539
 31
0.0
  0
LINE
  5
7F8C
  8
FUTO
 10
4375.6747320617851
 20
7085.5847691362542
 30
0.0
 11
4366.4823490617864
 21
7076.3923871362531
 31
0.0
  0
LINE
  5
7F8D
  8
FUTO
 10
4368.7697030617855
 20
7077.8311071362541
 30
0.0
 11
4372.3617440617863
 21
7074.2390661362542
 31
0.0
  0
ARC
  5
7F8E
  8
FUTO
 10
4518.9911380617841
 20
7196.8259801362528
 30
0.0
 40
6.25
 50
0.000000000000007
 51
180.0
  0
LINE
  5
7F8F
  8
FUTO
 10
4502.394382061786
 20
7139.4948041362541
 30
0.0
 11
4502.5544470617851
 21
7135.911002136253
 31
0.0
  0
LINE
  5
7F90
  8
FUTO
 10
4512.741138061785
 20
7154.9063641362536
 30
0.0
 11
4507.4365730617837
 21
7154.3380041362534
 31
0.0
  0
ARC
  5
7F91
  8
FUTO
 10
4507.7561680617846
 20
7151.3550941362537
 30
0.0
 40
3.0000059999999991
 50
96.115463000033785
 51
174.8055969999956
  0
LINE
  5
7F92
  8
FUTO
 10
4525.241138061785
 20
7154.9063641362536
 30
0.0
 11
4530.5457040617848
 21
7154.3380041362534
 31
0.0
  0
ARC
  5
7F93
  8
FUTO
 10
4505.9911380617841
 20
7140.0759801362519
 30
0.0
 40
3.0
 50
90.0
 51
133.8690379999866
  0
ARC
  5
7F94
  8
FUTO
 10
4518.9911380617841
 20
6933.0759801362528
 30
0.0
 40
209.99987799999991
 50
93.733024999983584
 51
93.766990999962644
  0
ARC
  5
7F95
  8
FUTO
 10
4505.5139350617837
 20
7139.6367101362548
 30
0.0
 40
3.0001099999999989
 50
4.9449460000082901
 51
93.734192000008306
  0
ARC
  5
7F96
  8
FUTO
 10
4505.9911380617841
 20
7140.0759801362519
 30
0.0
 40
3.0
 50
90.0
 51
132.5596429999928
  0
LINE
  5
7F97
  8
FUTO
 10
4508.5027050617837
 20
7139.8952551362518
 30
0.0
 11
4508.8117870617862
 21
7136.3211591362533
 31
0.0
  0
LINE
  5
7F98
  8
FUTO
 10
4529.4794500617836
 20
7139.8952551362518
 30
0.0
 11
4529.1703680617848
 21
7136.3211591362533
 31
0.0
  0
ARC
  5
7F99
  8
FUTO
 10
4528.241138061785
 20
7148.5085981362527
 30
0.0
 40
3.0
 50
180.0
 51
270.0
  0
ARC
  5
7F9A
  8
FUTO
 10
4509.741138061785
 20
7148.7968061362526
 30
0.0
 40
3.0
 50
270.0
 51
0.000000000000007
  0
LINE
  5
7F9B
  8
FUTO
 10
4504.7684820617851
 20
7151.6267011362534
 30
0.0
 11
4503.991138061785
 21
7143.0759801362519
 31
0.0
  0
ARC
  5
7F9C
  8
FUTO
 10
4505.3913610617847
 20
7139.628715136254
 30
0.0
 40
3.000081999999999
 50
93.765747000020724
 51
182.55828900003789
  0
ARC
  5
7F9D
  8
FUTO
 10
4518.9911380617841
 20
6933.0759801362528
 30
0.0
 40
209.99998500000001
 50
86.233009000037342
 51
86.267005999973293
  0
ARC
  5
7F9E
  8
FUTO
 10
4532.5907940617853
 20
7139.6286541362524
 30
0.0
 40
2.9999649999999991
 50
357.44277999999088
 51
86.232139999971935
  0
LINE
  5
7F9F
  8
FUTO
 10
4535.5877720617837
 20
7139.4948041362541
 30
0.0
 11
4535.427708061784
 21
7135.911002136253
 31
0.0
  0
LINE
  5
7FA0
  8
FUTO
 10
4533.2137950617862
 20
7151.6267011362534
 30
0.0
 11
4533.991138061785
 21
7143.0759801362519
 31
0.0
  0
ARC
  5
7FA1
  8
FUTO
 10
4531.991138061785
 20
7140.0759801362519
 30
0.0
 40
3.0
 50
46.112625000024657
 51
90.0
  0
LINE
  5
7FA2
  8
FUTO
 10
4503.991138061785
 20
7143.0759801362519
 30
0.0
 11
4533.991138061785
 21
7143.0759801362519
 31
0.0
  0
ARC
  5
7FA3
  8
FUTO
 10
4531.991138061785
 20
7140.0759801362519
 30
0.0
 40
3.0
 50
46.168487999999194
 51
90.0
  0
ARC
  5
7FA4
  8
FUTO
 10
4530.2261080617855
 20
7151.3550941362537
 30
0.0
 40
2.9999820000000001
 50
5.1943969999919046
 51
83.884536999966215
  0
ARC
  5
7FA5
  8
FUTO
 10
4532.4683420617848
 20
7139.6367101362548
 30
0.0
 40
3.0000490000000002
 50
86.26805899999222
 51
175.0561099999934
  0
LINE
  5
7FA6
  8
FUTO
 10
4661.4589120617848
 20
7085.5847691362542
 30
0.0
 11
4657.8668710617858
 21
7081.9927281362534
 31
0.0
  0
LINE
  5
7FA7
  8
FUTO
 10
4661.4589120617848
 20
7085.5847691362542
 30
0.0
 11
4662.3075450617853
 21
7085.5847691362542
 31
0.0
  0
LINE
  5
7FA8
  8
FUTO
 10
4669.2125740617839
 20
7077.8313511362539
 30
0.0
 11
4670.0612070617844
 21
7077.8313511362539
 31
0.0
  0
LINE
  5
7FA9
  8
FUTO
 10
4669.2125740617839
 20
7077.8313511362539
 30
0.0
 11
4669.2125740617839
 21
7078.6797401362528
 31
0.0
  0
LINE
  5
7FAA
  8
FUTO
 10
4663.7462650617854
 20
7083.2974161362527
 30
0.0
 11
4663.7462650617854
 21
7084.1460491362541
 31
0.0
  0
LINE
  5
7FAB
  8
FUTO
 10
4663.7462650617854
 20
7083.2974161362527
 30
0.0
 11
4664.594898061785
 21
7083.2974161362527
 31
0.0
  0
LINE
  5
7FAC
  8
FUTO
 10
4663.7462650617854
 20
7083.2974161362527
 30
0.0
 11
4660.1542240617846
 21
7079.7053751362528
 31
0.0
  0
LINE
  5
7FAD
  8
FUTO
 10
4525.241138061785
 20
7196.8259801362528
 30
0.0
 11
4525.241138061785
 21
7148.5085981362527
 31
0.0
  0
LINE
  5
7FAE
  8
FUTO
 10
4512.741138061785
 20
7196.8259801362528
 30
0.0
 11
4512.741138061785
 21
7148.7968061362526
 31
0.0
  0
LINE
  5
7FAF
  8
FUTO
 10
4671.4999270617836
 20
7075.5437541362544
 30
0.0
 11
4667.9078860617847
 21
7071.9517131362536
 31
0.0
  0
LINE
  5
7FB0
  8
FUTO
 10
4671.4999270617836
 20
7076.3923871362531
 30
0.0
 11
4671.4999270617836
 21
7075.5437541362544
 31
0.0
  0
LINE
  5
7FB1
  8
FUTO
 10
4667.9078860617847
 20
7071.9517131362536
 30
0.0
 11
4657.8668710617858
 21
7081.9927281362534
 31
0.0
  0
LINE
  5
7FB2
  8
CT
 10
4667.4320560617853
 20
7081.5168981362531
 30
0.0
 11
4662.1840090617852
 21
7076.2688511362539
 31
0.0
  0
LINE
  5
7FB3
  8
FUTO
 10
4671.4999270617836
 20
7076.3923871362531
 30
0.0
 11
4662.3075450617853
 21
7085.5847691362542
 31
0.0
  0
LINE
  5
7FB4
  8
FUTO
 10
4669.2125740617839
 20
7077.8313511362539
 30
0.0
 11
4665.620533061785
 21
7074.2390661362542
 31
0.0
  0
LINE
  5
7FB5
  8
CT
 10
4742.491138061785
 20
6703.0759801362537
 30
0.0
 11
4295.491138061785
 21
6703.0759801362537
 31
0.0
  0
ARC
  5
7FB6
  8
KL
 10
8978.6485934056145
 20
6775.962699136252
 30
0.0
 40
5.0
 50
300.00027499997202
 51
0.000000000000007
  0
ARC
  5
7FB7
  8
FUTO
 10
4169.9923590617864
 20
6857.7334511362542
 30
0.0
 40
1.000079999999999
 50
241.61447099997949
 51
331.60498000002087
  0
ARC
  5
7FB8
  8
KL
 10
8923.3376804056134
 20
6755.5759801362528
 30
0.0
 40
15.000085
 50
270.0
 51
299.99981700000433
  0
LINE
  5
7FB9
  8
KL
 10
8981.1485934056109
 20
6771.6326211362521
 30
0.0
 11
8930.8376804056134
 21
6742.585502136254
 31
0.0
  0
ARC
  5
7FBA
  8
FUTO
 10
4334.991138061785
 20
6807.4026411362538
 30
0.0
 40
5.0
 50
124.94366100000759
 51
180.0
  0
LINE
  5
7FBB
  8
FUTO
 10
4332.127247061786
 20
6811.5012731362522
 30
0.0
 11
4348.0651130617862
 21
6822.6377481362506
 31
0.0
  0
ARC
  5
7FBC
  8
FUTO
 10
4332.9911380617841
 20
6750.0759801362528
 30
0.0
 40
3.0
 50
90.0
 51
180.0
  0
LINE
  5
7FBD
  8
FUTO
 10
4366.4823490617864
 20
6790.6082071362534
 30
0.0
 11
4370.0743900617854
 21
6794.2002481362524
 31
0.0
  0
LINE
  5
7FBE
  8
FUTO
 10
4366.4823490617864
 20
6789.7595741362538
 30
0.0
 11
4366.4823490617864
 21
6790.6082071362534
 31
0.0
  0
LINE
  5
7FBF
  8
FUTO
 10
4368.7697030617855
 20
6788.3206091362536
 30
0.0
 11
4367.921070061785
 21
6788.3206091362536
 31
0.0
  0
LINE
  5
7FC0
  8
FUTO
 10
4368.7697030617855
 20
6788.3206091362536
 30
0.0
 11
4368.7697030617855
 21
6787.4722211362541
 31
0.0
  0
LINE
  5
7FC1
  8
FUTO
 10
4376.5233650617838
 20
6780.5671911362533
 30
0.0
 11
4380.1154060617846
 21
6784.1592321362532
 31
0.0
  0
LINE
  5
7FC2
  8
FUTO
 10
4376.5233650617838
 20
6780.5671911362533
 30
0.0
 11
4375.6747320617851
 21
6780.5671911362533
 31
0.0
  0
LINE
  5
7FC3
  8
FUTO
 10
4374.2360110617847
 20
6782.8545451362525
 30
0.0
 11
4374.2360110617847
 21
6782.0059121362528
 31
0.0
  0
LINE
  5
7FC4
  8
FUTO
 10
4374.2360110617847
 20
6782.8545451362525
 30
0.0
 11
4377.8280520617845
 21
6786.4465861362532
 31
0.0
  0
LINE
  5
7FC5
  8
FUTO
 10
4374.2360110617847
 20
6782.8545451362525
 30
0.0
 11
4373.3873790617854
 21
6782.8545451362525
 31
0.0
  0
LINE
  5
7FC6
  8
FUTO
 10
4370.0743900617854
 20
6794.2002481362524
 30
0.0
 11
4380.1154060617846
 21
6784.1592321362532
 31
0.0
  0
LINE
  5
7FC7
  8
CT
 10
4370.5502200617848
 20
6784.6350621362526
 30
0.0
 11
4375.7982670617848
 21
6789.8831091362536
 31
0.0
  0
LINE
  5
7FC8
  8
FUTO
 10
4366.4823490617864
 20
6789.7595741362538
 30
0.0
 11
4375.6747320617851
 21
6780.5671911362533
 31
0.0
  0
LINE
  5
7FC9
  8
FUTO
 10
4368.7697030617855
 20
6788.3206091362536
 30
0.0
 11
4372.3617440617863
 21
6791.9128941362542
 31
0.0
  0
ARC
  5
7FCA
  8
FUTO
 10
4406.491138061785
 20
6750.0759801362528
 30
0.0
 40
3.0
 50
0.000000000000007
 51
90.0
  0
LINE
  5
7FCB
  8
FUTO
 10
4406.491138061785
 20
6753.0759801362528
 30
0.0
 11
4332.9911380617841
 21
6753.0759801362528
 31
0.0
  0
LINE
  5
7FCC
  8
FUTO
 10
4329.9911380617841
 20
6733.0759801362528
 30
0.0
 11
4409.491138061785
 21
6733.0759801362528
 31
0.0
  0
LINE
  5
7FCD
  8
FUTO
 10
4409.491138061785
 20
6750.0759801362528
 30
0.0
 11
4409.491138061785
 21
6733.0759801362528
 31
0.0
  0
LINE
  5
7FCE
  8
FUTO
 10
4414.8883550617838
 20
6758.2192911362527
 30
0.0
 11
4409.491138061785
 21
6738.0759801362528
 31
0.0
  0
LINE
  5
7FCF
  8
CT
 10
4359.991138061785
 20
6763.0759801362528
 30
0.0
 11
4359.991138061785
 21
6723.0759801362519
 31
0.0
  0
LINE
  5
7FD0
  8
FUTO
 10
4329.9911380617841
 20
6807.4026411362538
 30
0.0
 11
4329.9911380617841
 21
6733.0759801362528
 31
0.0
  0
LINE
  5
7FD1
  8
FUTO
 10
4705.854908061785
 20
6811.5012731362522
 30
0.0
 11
4689.9170420617847
 21
6822.6377481362506
 31
0.0
  0
ARC
  5
7FD2
  8
FUTO
 10
4631.491138061785
 20
6750.0759801362528
 30
0.0
 40
3.0
 50
90.0
 51
180.0
  0
LINE
  5
7FD3
  8
FUTO
 10
4671.4999270617836
 20
6790.6082071362534
 30
0.0
 11
4667.9078860617847
 21
6794.2002481362524
 31
0.0
  0
LINE
  5
7FD4
  8
FUTO
 10
4671.4999270617836
 20
6790.6082071362534
 30
0.0
 11
4671.4999270617836
 21
6789.7595741362538
 31
0.0
  0
LINE
  5
7FD5
  8
FUTO
 10
4661.4589120617848
 20
6780.5671911362533
 30
0.0
 11
4657.8668710617858
 21
6784.1592321362532
 31
0.0
  0
LINE
  5
7FD6
  8
FUTO
 10
4662.3075450617853
 20
6780.5671911362533
 30
0.0
 11
4661.4589120617848
 21
6780.5671911362533
 31
0.0
  0
LINE
  5
7FD7
  8
FUTO
 10
4663.7465090617861
 20
6782.8545451362525
 30
0.0
 11
4663.7465090617861
 21
6782.0059121362528
 31
0.0
  0
LINE
  5
7FD8
  8
FUTO
 10
4663.7465090617861
 20
6782.8545451362525
 30
0.0
 11
4664.594898061785
 21
6782.8545451362525
 31
0.0
  0
LINE
  5
7FD9
  8
FUTO
 10
4669.2125740617839
 20
6788.3208531362516
 30
0.0
 11
4670.0612070617844
 21
6788.3208531362516
 31
0.0
  0
LINE
  5
7FDA
  8
FUTO
 10
4669.2125740617839
 20
6788.3208531362516
 30
0.0
 11
4669.2125740617839
 21
6787.4722211362541
 31
0.0
  0
LINE
  5
7FDB
  8
FUTO
 10
4663.7465090617861
 20
6782.8545451362525
 30
0.0
 11
4660.1542240617846
 21
6786.4465861362532
 31
0.0
  0
LINE
  5
7FDC
  8
FUTO
 10
4657.8668710617858
 20
6784.1592321362532
 30
0.0
 11
4667.9078860617847
 21
6794.2002481362524
 31
0.0
  0
LINE
  5
7FDD
  8
CT
 10
4667.4320560617853
 20
6784.6350621362526
 30
0.0
 11
4662.1840090617852
 21
6789.8831091362536
 31
0.0
  0
LINE
  5
7FDE
  8
FUTO
 10
4662.3075450617853
 20
6780.5671911362533
 30
0.0
 11
4671.4999270617836
 21
6789.7595741362538
 31
0.0
  0
LINE
  5
7FDF
  8
FUTO
 10
4669.2125740617839
 20
6788.3208531362516
 30
0.0
 11
4665.620533061785
 21
6791.9128941362542
 31
0.0
  0
LINE
  5
7FE0
  8
FUTO
 10
4631.491138061785
 20
6753.0759801362528
 30
0.0
 11
4704.9911380617841
 21
6753.0759801362528
 31
0.0
  0
LINE
  5
7FE1
  8
FUTO
 10
4628.491138061785
 20
6750.0759801362528
 30
0.0
 11
4628.491138061785
 21
6733.0759801362528
 31
0.0
  0
LINE
  5
7FE2
  8
FUTO
 10
4623.0937080617859
 20
6758.2191691362532
 30
0.0
 11
4628.491138061785
 21
6738.0759801362528
 31
0.0
  0
LINE
  5
7FE3
  8
CT
 10
4677.991138061785
 20
6763.0759801362528
 30
0.0
 11
4677.991138061785
 21
6723.0759801362519
 31
0.0
  0
LINE
  5
7FE4
  8
FUTO
 10
4707.9911380617841
 20
6807.4026411362538
 30
0.0
 11
4707.9911380617841
 21
6733.0759801362528
 31
0.0
  0
LINE
  5
7FE5
  8
FUTO
 10
4707.9911380617841
 20
6733.0759801362528
 30
0.0
 11
4628.491138061785
 21
6733.0759801362528
 31
0.0
  0
ARC
  5
7FE6
  8
FUTO
 10
4702.991138061785
 20
6807.4026411362538
 30
0.0
 40
5.0000669999999987
 50
0.000000000000007
 51
55.056335000025037
  0
ARC
  5
7FE7
  8
FUTO
 10
4704.9911380617841
 20
6750.0759801362528
 30
0.0
 40
3.0
 50
0.000000000000007
 51
90.0
  0
LINE
  5
7FE8
  8
FUTO
 10
4464.2531010617849
 20
6737.0759801362519
 30
0.0
 11
4573.729175061786
 21
6737.0759801362519
 31
0.0
  0
ARC
  5
7FEA
  8
FUTO
 10
4518.9911380617841
 20
6933.0759801362528
 30
0.0
 40
203.5
 50
285.6036990000095
 51
254.3962400000253
  0
LINE
  5
7FEB
  8
KL
 10
8924.5486174056132
 20
6740.5759801362528
 30
0.0
 11
8924.5486174056132
 21
7125.526908136253
 31
0.0
  0
LINE
  5
7FEC
  8
CT
 10
4228.991138061785
 20
6885.4702671362547
 30
0.0
 11
4228.991138061785
 21
6846.4763711362539
 31
0.0
  0
LINE
  5
7FED
  8
FUTO
 10
4289.7430910617859
 20
7077.1887731362531
 30
0.0
 11
4170.8719980617861
 21
6857.2578651362528
 31
0.0
  0
LINE
  5
7FEE
  8
FUTO
 10
4169.5168950617854
 20
6856.8535681362528
 30
0.0
 11
4168.1093020617836
 21
6857.614310136255
 31
0.0
  0
LINE
  5
7FEF
  8
KL
 10
8983.6486544056115
 20
7090.7259441362521
 30
0.0
 11
8983.6486544056115
 21
6775.9356301362523
 31
0.0
  0
LINE
  5
7FF0
  8
CT
 10
8164.1486544056133
 20
6933.0759801362528
 30
0.0
 11
9003.6486544056133
 21
6933.0759801362528
 31
0.0
  0
LINE
  5
7FF1
  8
KL
 10
8862.3973724056123
 20
7125.5759801362528
 30
0.0
 11
8923.3376804056134
 21
7125.5759801362528
 31
0.0
  0
LINE
  5
7FF2
  8
KL
 10
8858.8485444056132
 20
6740.5759801362528
 30
0.0
 11
8923.3376804056134
 21
6740.5759801362528
 31
0.0
  0
LINE
  5
7FF3
  8
FUTO
 10
4509.9911380617859
 20
6967.0759801362537
 30
0.0
 11
4527.991138061785
 21
6967.0759801362537
 31
0.0
  0
LINE
  5
7FF4
  8
FUTO
 10
4509.991138061785
 20
6956.0759801362537
 30
0.0
 11
4527.991138061785
 21
6956.0759801362537
 31
0.0
  0
LINE
  5
7FF5
  8
FUTO
 10
4509.9911380617859
 20
6967.0759801362537
 30
0.0
 11
4509.991138061785
 21
6956.0759801362537
 31
0.0
  0
LINE
  5
7FF6
  8
FUTO
 10
4527.9911380617859
 20
6967.0759801362537
 30
0.0
 11
4527.991138061785
 21
6956.0759801362537
 31
0.0
  0
LINE
  5
7FF7
  8
CT
 10
4653.9911380617841
 20
10702.81452044385
 30
0.0
 11
4703.9911380617859
 21
10702.81452044385
 31
0.0
  0
LINE
  5
7FF8
  8
CT
 10
4678.991138061785
 20
10677.81452044385
 30
0.0
 11
4678.991138061785
 21
10727.81452044385
 31
0.0
  0
LINE
  5
7FF9
  8
CT
 10
4358.9911380617841
 20
10677.81452044385
 30
0.0
 11
4358.9911380617841
 21
10727.81452044385
 31
0.0
  0
LINE
  5
7FFA
  8
CT
 10
4383.9911380617859
 20
10702.81452044385
 30
0.0
 11
4333.9911380617841
 21
10702.81452044385
 31
0.0
  0
LINE
  5
7FFB
  8
CT
 10
4383.9911380617859
 20
11162.81452044385
 30
0.0
 11
4333.9911380617841
 21
11162.81452044385
 31
0.0
  0
LINE
  5
7FFC
  8
CT
 10
4358.9911380617841
 20
11187.81452044385
 30
0.0
 11
4358.9911380617841
 21
11137.81452044385
 31
0.0
  0
LINE
  5
7FFD
  8
CT
 10
4678.991138061785
 20
11187.81452044385
 30
0.0
 11
4678.991138061785
 21
11137.81452044385
 31
0.0
  0
LINE
  5
7FFE
  8
CT
 10
4653.9911380617841
 20
11162.81452044385
 30
0.0
 11
4703.9911380617859
 21
11162.81452044385
 31
0.0
  0
LINE
  5
8000
  8
SL
 10
4386.4911380617859
 20
10507.31452044385
 30
0.0
 11
4386.4911380617859
 21
10605.31452044385
 31
0.0
  0
LINE
  5
8001
  8
FUTO
 10
4315.491138061785
 20
10368.31452044385
 30
0.0
 11
4315.491138061785
 21
10657.31452044385
 31
0.0
  0
LINE
  5
8002
  8
SL
 10
4651.4911380617841
 20
10507.31452044385
 30
0.0
 11
4651.4911380617841
 21
10605.31452044385
 31
0.0
  0
LINE
  5
8003
  8
SL
 10
4328.991138061785
 20
11254.85307807201
 30
0.0
 11
4328.991138061785
 21
10692.31452044385
 31
0.0
  0
LINE
  5
8004
  8
SL
 10
4393.9911380617841
 20
11306.81452044385
 30
0.0
 11
4393.9911380617841
 21
10692.31452044385
 31
0.0
  0
LINE
  5
8005
  8
SL
 10
4643.991138061785
 20
11306.81452044385
 30
0.0
 11
4643.9911380617841
 21
10692.31452044385
 31
0.0
  0
LINE
  5
8006
  8
SL
 10
4708.9911380617859
 20
11247.71448344385
 30
0.0
 11
4708.991138061785
 21
10692.31452044385
 31
0.0
  0
LINE
  5
8007
  8
FUTO
 10
4347.991138061785
 20
11604.31452044385
 30
0.0
 11
4347.991138061785
 21
12892.31452044385
 31
0.0
  0
LINE
  5
8008
  8
FUTO
 10
4397.991138061785
 20
11654.31452044385
 30
0.0
 11
4397.991138061785
 21
12842.31452044385
 31
0.0
  0
LINE
  5
8018
  8
FUTO
 10
4347.991138061785
 20
12892.31452044385
 30
0.0
 11
6748.9911380617859
 21
12892.31452044385
 31
0.0
  0
LINE
  5
8019
  8
FUTO
 10
4347.991138061785
 20
11604.31452044385
 30
0.0
 11
6748.9911380617859
 21
11604.31452044385
 31
0.0
  0
LINE
  5
801A
  8
FUTO
 10
4818.991138061785
 20
11604.31452044385
 30
0.0
 11
4818.991138061785
 21
11579.31452044385
 31
0.0
  0
LINE
  5
801C
  8
FUTO
 10
5768.991138061785
 20
11654.31452044385
 30
0.0
 11
6813.9911380617859
 21
11654.31452044385
 31
0.0
  0
LINE
  5
801D
  8
FUTO
 10
5768.991138061785
 20
12842.31452044385
 30
0.0
 11
6813.9911380617841
 21
12842.31452044385
 31
0.0
  0
LINE
  5
8021
  8
FUTO
 10
6748.9911380617859
 20
12907.31452044385
 30
0.0
 11
6813.9911380617859
 21
12907.31452044385
 31
0.0
  0
LINE
  5
8022
  8
FUTO
 10
6718.991138061785
 20
11604.31452044385
 30
0.0
 11
6718.991138061785
 21
11579.31452044385
 31
0.0
  0
LINE
  5
8025
  8
FUTO
 10
5383.3392651710628
 20
10692.31452044385
 30
0.0
 11
5383.3392651710628
 21
11579.31452044385
 31
0.0
  0
LINE
  5
8027
  8
FUTO
 10
6154.6430109525081
 20
10692.31452044385
 30
0.0
 11
6154.6430109525081
 21
11579.31452044385
 31
0.0
  0
DIMENSION
  5
8095
  8
SP
  2
*D12
 10
3663.3713777481862
 20
12973.31452044385
 30
0.0
 11
3575.8713777481839
 21
12610.814520443861
 31
0.0
 70
     0
 13
4005.991138061785
 23
12248.31452044385
 33
0.0
 14
4903.991138061785
 24
12973.31452044385
 34
0.0
 50
90.0
1001
ACAD
1000
DSTYLE
1002
{
1070
    40
1040
35.0
1070
    41
1040
2.5
1070
   147
1040
1.0
1002
}
  0
DIMENSION
  5
80A2
  8
SP
  2
*D13
 10
3663.3713777481862
 20
10368.31452044385
 30
0.0
 11
3575.8713777481848
 21
11308.31452044385
 31
0.0
 70
     0
 13
4005.991138061785
 23
12248.31452044385
 33
0.0
 14
4315.491138061785
 24
10368.31452044385
 34
0.0
 50
90.0
1001
ACAD
1000
DSTYLE
1002
{
1070
    40
1040
35.0
1070
    41
1040
2.5
1070
   147
1040
1.0
1002
}
  0
LINE
  5
80D6
  8
KL
 10
4828.9911380617859
 20
7752.2539377640796
 30
0.0
 11
4828.991138061785
 21
6933.4998183311855
 31
0.0
  0
LINE
  5
80D7
  8
KL
 10
4837.9911380617841
 20
7764.9767235280478
 30
0.0
 11
4837.9911380617841
 21
6942.5904231586692
 31
0.0
  0
LINE
  5
80D8
  8
FUTO
 10
5157.5830143080211
 20
8432.0759801362528
 30
0.0
 11
4353.3635935510219
 21
8432.0759801362528
 31
0.0
  0
LINE
  5
80D9
  8
FUTO
 10
5134.1915293177053
 20
8414.0759801362528
 30
0.0
 11
4353.3635935510219
 21
8414.0759801362528
 31
0.0
  0
LINE
  5
80DA
  8
KL
 10
6147.2670980703624
 20
8386.9194028702914
 30
0.0
 11
5968.6454864007837
 21
8408.2725619725479
 31
0.0
  0
LINE
  5
80DB
  8
KL
 10
6145.1305169017232
 20
8369.0466576723702
 30
0.0
 11
5966.5089052321446
 21
8390.3998167746267
 31
0.0
  0
LINE
  5
81A6
  8
FUTO
 10
6772.4008123001568
 20
8533.6890479137255
 30
0.0
 11
6770.2642311315167
 21
8551.5617931116449
 31
0.0
  0
LINE
  5
81A7
  8
CT
 10
6771.3325217158372
 20
8542.6254205126825
 30
0.0
 11
5967.5771958164651
 21
8446.8157708989183
 31
0.0
  0
LINE
  5
81A9
  8
FUTO
 10
4353.3635935510219
 20
8414.0759801362528
 30
0.0
 11
4353.3635935510219
 21
8432.0759801362528
 31
0.0
  0
LINE
  5
81E1
  8
FUTO
 10
10593.34865440561
 20
8324.9962463474021
 30
0.0
 11
10593.34865440561
 21
6673.0759801362519
 31
0.0
  0
LINE
  5
81E2
  8
FUTO
 10
10583.34865440561
 20
8551.6254205126825
 30
0.0
 11
10583.34865440561
 21
8533.6254205126843
 31
0.0
  0
LINE
  5
81E3
  8
FUTO
 10
9256.9486544056163
 20
8373.0759801362528
 30
0.0
 11
9256.9486544056144
 21
6673.0759801362528
 31
0.0
  0
LINE
  5
81E4
  8
FUTO
 10
9266.1486544056243
 20
6660.0759801362528
 30
0.0
 11
10584.14865440561
 21
6660.0759801362528
 31
0.0
  0
LINE
  5
81FB
  8
FUTO
 10
9331.9486544056163
 20
6725.0759801362528
 30
0.0
 11
10518.34865440561
 21
6725.0759801362528
 31
0.0
  0
LINE
  5
8200
  8
FUTO
 10
6813.9911380617859
 20
11589.31452044385
 30
0.0
 11
6813.9911380617859
 21
12907.31452044385
 31
0.0
  0
LINE
  5
8201
  8
FUTO
 10
6807.9911380617859
 20
11589.31452044385
 30
0.0
 11
6807.9911380617859
 21
12907.31452044385
 31
0.0
  0
LINE
  5
8202
  8
FUTO
 10
6748.9911380617859
 20
11589.31452044385
 30
0.0
 11
6748.9911380617859
 21
12907.31452044385
 31
0.0
  0
LINE
  5
8213
  8
FUTO
 10
4218.991138061785
 20
11654.31452044385
 30
0.0
 11
4347.991138061785
 21
11654.31452044385
 31
0.0
  0
DIMENSION
  5
8215
  8
SP
  2
*D14
 10
4218.9911380617823
 20
13284.24540942237
 30
0.0
 11
4993.9911380617832
 21
13371.74540942237
 31
0.0
 70
     0
 13
5768.991138061785
 23
13018.092432260721
 33
0.0
 14
4218.9911380617823
 24
11654.31452044385
 34
0.0
1001
ACAD
1000
DSTYLE
1002
{
1070
    40
1040
35.0
1070
    41
1040
2.5
1070
   147
1040
1.0
1002
}
  0
DIMENSION
  5
8222
  8
SP
  2
*D15
 10
6813.9911380617859
 20
13284.24540942237
 30
0.0
 11
6291.491138061785
 21
13371.74540942237
 31
0.0
 70
     0
 13
5768.991138061785
 23
13018.092432260721
 33
0.0
 14
6813.9911380617859
 24
12892.31452044385
 34
0.0
1001
ACAD
1000
DSTYLE
1002
{
1070
    40
1040
35.0
1070
    41
1040
2.5
1070
   147
1040
1.0
1002
}
  0
LINE
  5
82B5
  8
FUTO
 10
6748.9911380617859
 20
11589.31452044385
 30
0.0
 11
6813.9911380617859
 21
11589.31452044385
 31
0.0
  0
LINE
  5
83BA
  8
FUTO
 10
6393.991138061785
 20
6673.0759801362519
 30
0.0
 11
6154.6430109525081
 21
8315.0759801362547
 31
0.0
  0
LINE
  5
83BB
  8
FUTO
 10
5143.991138061785
 20
6673.0759801362519
 30
0.0
 11
5242.8923287026164
 21
7351.5678363023144
 31
0.0
  0
LINE
  5
83BC
  8
FUTO
 10
4837.9911380617841
 20
6942.5904231586692
 30
0.0
 11
4837.9911380617841
 21
6673.0759801362519
 31
0.0
  0
LINE
  5
83BD
  8
FUTO
 10
4828.991138061785
 20
6933.4998183311873
 30
0.0
 11
4828.991138061785
 21
6673.0759801362519
 31
0.0
  0
LINE
  5
83BE
  8
SL
 10
5509.733973577946
 20
8601.9913865824274
 30
0.0
 11
4409.9385212550906
 21
7008.3340479271037
 31
0.0
  0
LINE
  5
83BF
  8
SL
 10
5990.2536031325217
 20
8198.8708919896617
 30
0.0
 11
4612.0618574963019
 21
6838.7674906777656
 31
0.0
  0
LINE
  5
83C0
  8
FUTO
 10
5458.7641900168101
 20
8642.5281177578763
 30
0.0
 11
4339.3860628778521
 21
7060.1272177066676
 31
0.0
  0
LINE
  5
83C1
  8
FUTO
 10
4675.3317919481979
 20
6778.2935523791948
 30
0.0
 11
6039.0340856837711
 21
8155.724514010426
 31
0.0
  0
LINE
  5
83C2
  8
FUTO
 10
9256.9486544056163
 20
9562.0759801362528
 30
0.0
 11
10593.34865440561
 21
9562.0759801362528
 31
0.0
  0
LINE
  5
83C3
  8
KL
 10
5242.8923287026164
 20
7351.5678363023144
 30
0.0
 11
5383.3392651710628
 21
8315.0759801362547
 31
0.0
  0
LINE
  5
83D6
  8
CT
 10
5866.5059189911508
 20
9562.0759801362528
 30
0.0
 11
5768.991138061785
 21
9562.0759801362528
 31
0.0
  0
DIMENSION
  5
83D7
  8
SP
  2
*D16
 10
7176.610189797063
 20
8423.0759801362528
 30
0.0
 11
7089.1101897970611
 21
8992.5759801362547
 31
0.0
 70
     0
 13
5866.5059189911508
 23
9562.0759801362528
 33
0.0
 14
7078.6539743291578
 24
8423.0759801362528
 34
0.0
 50
90.0
1001
ACAD
1000
DSTYLE
1002
{
1070
    40
1040
35.0
1070
    41
1040
2.5
1070
   147
1040
1.0
1002
}
  0
DIMENSION
  5
83E5
  8
SP
  2
*D17
 10
7176.610189797063
 20
6523.0759801362519
 30
0.0
 11
7089.1101897970611
 21
7473.0759801362547
 31
0.0
 70
     0
 13
7078.6539743291578
 23
8423.0759801362528
 33
0.0
 14
6718.991138061785
 24
6523.0759801362519
 34
0.0
 50
90.0
1001
ACAD
1000
DSTYLE
1002
{
1070
    40
1040
35.0
1070
    41
1040
2.5
1070
   147
1040
1.0
1002
}
  0
DIMENSION
  5
83F2
  8
SP
  2
*D18
 10
6813.9911380617841
 20
9882.6500017532253
 30
0.0
 11
6291.491138061785
 21
9970.1500017532271
 31
0.0
 70
     0
 13
5768.991138061785
 23
9818.7882032075031
 33
0.0
 14
6813.9911380617841
 24
8446.0759801362528
 34
0.0
 50
180.0
1001
ACAD
1000
DSTYLE
1002
{
1070
    40
1040
35.0
1070
    41
1040
2.5
1070
   147
1040
1.0
1002
}
  0
LINE
  5
849A
  8
FUTO
 10
9266.9486544056181
 20
8542.6254205126825
 30
0.0
 11
10583.34865440561
 21
8542.6254205126825
 31
0.0
  0
LINE
  5
849B
  8
FUTO
 10
10593.34865440561
 20
8523.6254205126825
 30
0.0
 11
10593.34865440561
 21
8423.0759801362528
 31
0.0
  0
LINE
  5
849C
  8
FUTO
 10
9256.9486544056163
 20
8523.6254205126861
 30
0.0
 11
9256.9486544056163
 21
8423.0759801362528
 31
0.0
  0
LINE
  5
849D
  8
FUTO
 10
9331.9486544056163
 20
6660.0759801362537
 30
0.0
 11
10518.34865440561
 21
6660.0759801362537
 31
0.0
  0
LINE
  5
84AD
  8
FUTO
 10
9266.9486544056144
 20
8446.0759801362528
 30
0.0
 11
9266.9486544056181
 21
6673.0759801362519
 31
0.0
  0
LINE
  5
84AE
  8
FUTO
 10
10583.34865440561
 20
8446.0759801362528
 30
0.0
 11
10583.34865440561
 21
6673.0759801362519
 31
0.0
  0
LINE
  5
84AF
  8
FUTO
 10
9331.9486544056163
 20
8381.0759801362528
 30
0.0
 11
10518.34865440561
 21
8381.0759801362528
 31
0.0
  0
LINE
  5
84B0
  8
FUTO
 10
9266.9486544056144
 20
8446.0759801362528
 30
0.0
 11
10583.34865440561
 21
8446.0759801362528
 31
0.0
  0
ARC
  5
84B2
  8
FUTO
 10
5884.991138061785
 20
8307.0759801362528
 30
0.0
 40
1505.0
 50
233.53683757454129
 51
242.40115054885879
  0
LINE
  5
84FF
  8
FUTO
 10
4218.991138061785
 20
6490.0794801362536
 30
0.0
 11
6718.991138061785
 21
6490.0794801362536
 31
0.0
  0
LINE
  5
8500
  8
FUTO
 10
4218.991138061785
 20
6366.072480136253
 30
0.0
 11
6718.991138061785
 21
6366.072480136253
 31
0.0
  0
LINE
  5
8501
  8
FUTO
 10
4218.991138061785
 20
6503.0759801362528
 30
0.0
 11
6718.991138061785
 21
6503.0759801362528
 31
0.0
  0
LINE
  5
8502
  8
FUTO
 10
4218.991138061785
 20
6353.0759801362528
 30
0.0
 11
6718.991138061785
 21
6353.0759801362528
 31
0.0
  0
LINE
  5
8507
  8
FUTO
 10
4218.991138061785
 20
6503.0759801362528
 30
0.0
 11
4218.991138061785
 21
6353.0759801362537
 31
0.0
  0
LINE
  5
851C
  8
FUTO
 10
6393.991138061785
 20
6503.0759801362528
 30
0.0
 11
6393.991138061785
 21
6353.0759801362528
 31
0.0
  0
LINE
  5
851E
  8
FUTO
 10
6718.991138061785
 20
6503.0759801362528
 30
0.0
 11
6718.991138061785
 21
6353.0759801362528
 31
0.0
  0
LINE
  5
853D
  8
SP
 10
6753.991138061785
 20
6503.0759801362528
 30
0.0
 11
7211.610189797062
 21
6503.0759801362528
 31
0.0
  0
LINE
  5
853E
  8
SP
 10
6753.991138061785
 20
6353.0759801362528
 30
0.0
 11
7211.610189797062
 21
6353.0759801362528
 31
0.0
  0
LINE
  5
853F
  8
SP
 10
7176.610189797063
 20
6590.5759801362537
 30
0.0
 11
7176.610189797063
 21
6678.0759801362528
 31
0.0
  0
LINE
  5
8540
  8
SP
 10
7176.610189797063
 20
6265.5759801362528
 30
0.0
 11
7176.610189797063
 21
5863.0759801362528
 31
0.0
  0
LINE
  5
8541
  8
SP
 10
7176.610189797063
 20
6503.0759801362528
 30
0.0
 11
7176.610189797063
 21
6353.0759801362528
 31
0.0
  0
INSERT
  5
8543
  8
SP
  2
_OPEN
 10
7176.610189797063
 20
6353.0759801362528
 30
0.0
 41
87.5
 42
87.5
 43
87.5
 50
90.0
  0
TEXT
  5
8544
  8
FUTO
 10
7141.610189797063
 20
5875.3002987796081
 30
0.0
 40
105.0
  1
150
 50
90.0
 51
15.0
  0
LINE
  5
8545
  8
SP
 10
6753.991138061785
 20
6523.0759801362519
 30
0.0
 11
7211.610189797062
 21
6523.0759801362519
 31
0.0
  0
LINE
  5
8546
  8
SP
 10
6753.991138061785
 20
6503.0759801362528
 30
0.0
 11
7211.610189797062
 21
6503.0759801362528
 31
0.0
  0
LINE
  5
8547
  8
SP
 10
7176.610189797063
 20
6610.5759801362519
 30
0.0
 11
7176.610189797063
 21
6698.0759801362519
 31
0.0
  0
LINE
  5
8548
  8
SP
 10
7176.610189797063
 20
6415.5759801362528
 30
0.0
 11
7176.610189797063
 21
6070.3002987796081
 31
0.0
  0
LINE
  5
8549
  8
SP
 10
7176.610189797063
 20
6523.0759801362519
 30
0.0
 11
7176.610189797063
 21
6503.0759801362528
 31
0.0
  0
INSERT
  5
854A
  8
SP
  2
_OPEN
 10
7176.610189797063
 20
6523.0759801362519
 30
0.0
 41
87.5
 42
87.5
 43
87.5
 50
270.0
  0
TEXT
  5
854C
  8
FUTO
 10
7376.4353936127927
 20
6429.0833665492682
 30
0.0
 40
105.0
  1
20
 50
90.0
 51
15.0
  0
CIRCLE
  5
854D
  8
SP
 10
7176.610189797063
 20
6503.0759801362528
 30
0.0
 40
16.959183711685512
  0
INSERT
  5
8563
  8
SP
  6
CONTINUOUS
  2
*U19
 10
0.0
 20
0.0
 30
0.0
1001
ACAD
1002
{
1000
R14_HATCH_DATA
1000
8563
1011
1.0
1021
0.0
1031
0.0
1021
0.0
1031
0.0
1011
0.0
1021
0.0
1031
0.0
1021
1.0
1031
0.0
1011
0.0
1021
0.0
1031
0.0
1021
0.0
1031
1.0
1040
0.0
1010
0.0
1020
0.0
1030
1.0
1000
SOLID
1070
     1
1070
     0
1071
        4
1071
        7
1070
     1
1070
     1
1071
        3
1040
7176.610189797063
1040
6520.0351638479387
1040
0.4142135623730928
1040
7159.651006085377
1040
6503.0759801362528
1040
0.0
1040
7176.610189797063
1040
6503.0759801362528
1040
0.0
1071
        0
1071
        7
1070
     1
1070
     1
1071
        3
1040
7176.610189797063
1040
6520.0351638479387
1040
0.0
1040
7176.610189797063
1040
6503.0759801362528
1040
0.0
1040
7193.569373508748
1040
6503.0759801362528
1040
0.4142135623730928
1071
        0
1071
        7
1070
     1
1070
     1
1071
        3
1040
7193.569373508748
1040
6503.0759801362528
1040
0.0
1040
7176.610189797063
1040
6503.0759801362528
1040
0.0
1040
7176.610189797063
1040
6486.1167964245678
1040
0.4142135623730928
1071
        0
1071
        7
1070
     1
1070
     1
1071
        3
1040
7176.610189797063
1040
6503.0759801362528
1040
0.0
1040
7159.651006085377
1040
6503.0759801362528
1040
0.4142135623730928
1040
7176.610189797063
1040
6486.1167964245678
1040
0.0
1071
        0
1070
     0
1070
     1
1040
0.476174295525675
1071
        4
1040
7168.2316539142921
1040
6507.1278487947438
1040
0.0
1040
7179.6681417041109
1040
6508.5563695454512
1040
0.0
1040
7182.0507505326932
1040
6500.4614011171143
1040
0.0
1040
7173.9498978092006
1040
6500.4614011171143
1040
0.0
1002
}
  0
LINE
  5
8588
  8
FUTO
 10
9331.9486544056163
 20
6490.0759801362528
 30
0.0
 11
10518.34865440561
 21
6490.0759801362528
 31
0.0
  0
LINE
  5
8589
  8
FUTO
 10
9266.1486544056243
 20
6490.0759801362528
 30
0.0
 11
10584.14865440561
 21
6490.0759801362528
 31
0.0
  0
LINE
  5
858A
  8
FUTO
 10
10519.14865440561
 20
6490.0794801362536
 30
0.0
 11
8369.1486544056188
 21
6490.0794801362536
 31
0.0
  0
LINE
  5
858B
  8
FUTO
 10
10519.14865440561
 20
6366.072480136253
 30
0.0
 11
8369.1486544056188
 21
6366.072480136253
 31
0.0
  0
LINE
  5
858C
  8
FUTO
 10
10519.14865440561
 20
6353.0759801362528
 30
0.0
 11
8369.1486544056188
 21
6353.0759801362528
 31
0.0
  0
LINE
  5
858D
  8
FUTO
 10
10519.14865440561
 20
6503.0759801362528
 30
0.0
 11
8369.1486544056188
 21
6503.0759801362528
 31
0.0
  0
LINE
  5
8591
  8
FUTO
 10
8369.1486544056152
 20
6353.0759801362528
 30
0.0
 11
8369.1486544056152
 21
6503.0759801362528
 31
0.0
  0
LINE
  5
8592
  8
FUTO
 10
8362.6486544056152
 20
6369.7377915580864
 30
0.0
 11
8362.6486544056152
 21
6486.4141687144202
 31
0.0
  0
LINE
  5
8593
  8
FUTO
 10
8358.9972773766076
 20
6365.7530127657183
 30
0.0
 11
8297.8000314346245
 21
6360.3989475067874
 31
0.0
  0
LINE
  5
8594
  8
FUTO
 10
8369.1486544056152
 20
6353.0759801362528
 30
0.0
 11
8294.1486544056152
 21
6353.0759801362519
 31
0.0
  0
ARC
  5
8595
  8
FUTO
 10
8298.1486544056152
 20
6356.4141687144202
 30
0.0
 40
4.0
 50
95.000000000000554
 51
179.9999999999921
  0
LINE
  5
8596
  8
FUTO
 10
8294.1486544056152
 20
6353.0759801362519
 30
0.0
 11
8294.1486544056152
 21
6356.4141687144202
 31
0.0
  0
ARC
  5
8597
  8
FUTO
 10
8358.6486544056152
 20
6369.7377915580864
 30
0.0
 40
4.0
 50
275.0
 51
0.0
  0
LINE
  5
8598
  8
FUTO
 10
8358.9972773766076
 20
6490.3989475067856
 30
0.0
 11
8297.8000314346245
 21
6495.7530127657174
 31
0.0
  0
LINE
  5
8599
  8
FUTO
 10
8369.1486544056152
 20
6503.0759801362528
 30
0.0
 11
8294.1486544056152
 21
6503.0759801362528
 31
0.0
  0
ARC
  5
859A
  8
FUTO
 10
8298.1486544056152
 20
6499.7377915580864
 30
0.0
 40
4.0
 50
180.00000000000779
 51
264.99999999999949
  0
LINE
  5
859B
  8
FUTO
 10
8294.1486544056152
 20
6503.0759801362528
 30
0.0
 11
8294.1486544056152
 21
6499.7377915580837
 31
0.0
  0
ARC
  5
859D
  8
FUTO
 10
8358.6486544056152
 20
6486.4141687144202
 30
0.0
 40
4.0
 50
0.0
 51
84.999999999999943
  0
LINE
  5
85A4
  8
FUTO
 10
10529.300031434621
 20
6490.3989475067856
 30
0.0
 11
10590.4972773766
 21
6495.7530127657174
 31
0.0
  0
LINE
  5
85A5
  8
FUTO
 10
10519.14865440561
 20
6503.0759801362528
 30
0.0
 11
10594.14865440561
 21
6503.0759801362528
 31
0.0
  0
LINE
  5
85A6
  8
FUTO
 10
10529.300031434621
 20
6365.7530127657183
 30
0.0
 11
10590.4972773766
 21
6360.3989475067874
 31
0.0
  0
LINE
  5
85A7
  8
FUTO
 10
10519.14865440561
 20
6353.0759801362528
 30
0.0
 11
10594.14865440561
 21
6353.0759801362528
 31
0.0
  0
LINE
  5
85A8
  8
FUTO
 10
10519.14865440561
 20
6503.0759801362528
 30
0.0
 11
10519.14865440561
 21
6353.0759801362528
 31
0.0
  0
LINE
  5
85A9
  8
FUTO
 10
10525.64865440561
 20
6486.4141687144202
 30
0.0
 11
10525.64865440561
 21
6369.7377915580864
 31
0.0
  0
ARC
  5
85AA
  8
FUTO
 10
10529.64865440561
 20
6369.7377915580864
 30
0.0
 40
4.0
 50
180.0
 51
264.99999999999989
  0
ARC
  5
85AB
  8
FUTO
 10
10529.64865440561
 20
6486.4141687144202
 30
0.0
 40
4.0
 50
95.000000000000057
 51
180.0
  0
ARC
  5
85AC
  8
FUTO
 10
10590.14865440561
 20
6356.4141687144202
 30
0.0
 40
4.0
 50
0.0000000000078369
 51
84.999999999999503
  0
LINE
  5
85AD
  8
FUTO
 10
10594.14865440561
 20
6353.0759801362519
 30
0.0
 11
10594.14865440561
 21
6356.4141687144202
 31
0.0
  0
ARC
  5
85AE
  8
FUTO
 10
10590.14865440561
 20
6499.7377915580864
 30
0.0
 40
4.0
 50
275.00000000000051
 51
359.9999999999921
  0
LINE
  5
85AF
  8
FUTO
 10
10594.14865440561
 20
6503.0759801362528
 30
0.0
 11
10594.14865440561
 21
6499.7377915580864
 31
0.0
  0
LINE
  5
85C6
  8
CT
 10
6528.991138061785
 20
6587.0427483695312
 30
0.0
 11
6528.991138061785
 21
6437.0427483695312
 31
0.0
  0
LINE
  5
85C7
  8
FUTO
 10
6488.9911380617841
 20
6523.0759801362519
 30
0.0
 11
6488.9911380617841
 21
6503.0759801362528
 31
0.0
  0
LINE
  5
85C8
  8
FUTO
 10
6568.9911380617859
 20
6523.0759801362519
 30
0.0
 11
6568.9911380617859
 21
6503.0759801362528
 31
0.0
  0
INSERT
  5
85D4
  8
FUTO
  6
CONTINUOUS
  2
*U20
 10
0.0
 20
0.0
 30
0.0
1001
ACAD
1002
{
1000
R14_HATCH_DATA
1000
85D4
1011
1.0
1021
0.0
1031
0.0
1021
0.0
1031
0.0
1011
0.0
1021
0.0
1031
0.0
1021
1.0
1031
0.0
1011
0.0
1021
0.0
1031
0.0
1021
0.0
1031
1.0
1040
0.0
1010
0.0
1020
0.0
1030
1.0
1000
SOLID
1070
     1
1070
     0
1071
        2
1071
        7
1070
     0
1070
     1
1071
        4
1040
6528.991138061785
1040
6523.0759801362519
1040
6488.9911380617841
1040
6523.0759801362519
1040
6488.9911380617841
1040
6503.0759801362528
1040
6528.991138061785
1040
6503.0759801362528
1071
        0
1071
        7
1070
     0
1070
     1
1071
        4
1040
6568.9911380617859
1040
6523.0759801362519
1040
6528.991138061785
1040
6523.0759801362519
1040
6528.991138061785
1040
6503.0759801362528
1040
6568.9911380617859
1040
6503.0759801362528
1071
        0
1070
     0
1070
     1
1040
0.9765981555933894
1071
        2
1040
6511.8167141098384
1040
6515.4210968353173
1040
0.0
1040
6556.7728574589273
1040
6511.5147041136288
1040
0.0
1002
}
  0
TEXT
  5
9072
  8
SP
 10
11973.55193122727
 20
8227.1507647180097
 30
0.0
 40
100.0
  1
 
  0
LINE
  5
9073
  8
4
 10
11074.80236225411
 20
4626.0975374294703
 30
0.0
 11
11074.80236225411
 21
3626.097537429469
 31
0.0
  0
LINE
  5
9074
  8
4
 10
7574.8023622541114
 20
4626.0975374294703
 30
0.0
 11
7574.8023622541114
 21
3626.097537429469
 31
0.0
  0
LINE
  5
9075
  8
4
 10
5074.8023622541114
 20
4626.0975374294703
 30
0.0
 11
5074.8023622541114
 21
3626.097537429469
 31
0.0
  0
LINE
  5
9078
  8
4
 10
5074.8023622541114
 20
3626.097537429469
 30
0.0
 11
11074.80236225411
 21
3626.097537429469
 31
0.0
  0
LINE
  5
9079
  8
4
 10
5074.8023622541114
 20
4126.0975374294703
 30
0.0
 11
11074.80236225411
 21
4126.0975374294703
 31
0.0
  0
TEXT
  5
907A
  8
4
 10
5267.3127664886306
 20
4283.8126667625384
 30
0.0
 40
250.0
  1
機器名称
  0
TEXT
  5
907B
  8
4
 10
5256.0928923781066
 20
3734.3233210895241
 30
0.0
 40
250.0
  1
機器型番
  0
TEXT
  5
907C
  8
4
 10
7598.7676707593237
 20
4237.0340492142077
 30
0.0
 40
225.0
  1
ミツヤリミットロードファン
  0
TEXT
  5
907D
  8
4
 10
7758.0748401815254
 20
3711.8954588291858
 30
0.0
 40
250.0
  1
LL#10-1
  0
TEXT
  5
907F
  8
4
 10
5837.9011538032237
 20
14043.241744092051
 30
0.0
 40
270.0
  1
床置防振ベット
  0
TEXT
  5
9080
  8
4
 10
3405.6403289013429
 20
14795.50241842596
 30
0.0
 40
360.0
  1
遠心式片吸込片持リミットロードファン
  0
LINE
  5
9081
  8
4
 10
3074.8023622541109
 20
14473.141308753489
 30
0.0
 11
11074.80236225411
 21
14473.141308753489
 31
0.0
  0
LINE
  5
9082
  8
4
 10
3074.8023622541109
 20
15473.141308753489
 30
0.0
 11
11074.80236225411
 21
15473.141308753489
 31
0.0
  0
LINE
  5
9083
  8
4
 10
5074.8023622541114
 20
4626.0975374294703
 30
0.0
 11
11074.80236225411
 21
4626.0975374294703
 31
0.0
  0
LINE
  5
9084
  8
4
 10
3074.8023622541109
 20
15473.141308753489
 30
0.0
 11
3074.8023622541109
 21
14473.141308753489
 31
0.0
  0
TEXT
  5
9085
  8
4
 10
3520.6699430094782
 20
14037.69492516119
 30
0.0
 40
270.0
  1
左回転右横向
  0
TEXT
  5
9086
  8
4
 10
9169.6501585005644
 20
15656.402944906011
 30
0.0
 40
280.0
  1
No.
  0
TEXT
  5
9087
  8
4
 10
9236.5815855108849
 20
13546.976901081851
 30
0.0
 40
270.0
  1
縮尺：1/50
  0
LINE
  5
9088
  8
4
 10
11074.80236225411
 20
15473.141308753489
 30
0.0
 11
11074.80236225411
 21
14473.141308753489
 31
0.0
  0
LINE
  5
9089
  8
4
 10
12324.80236225411
 20
16876.097537429469
 30
0.0
 11
12324.80236225411
 21
16876.097537429469
 31
0.0
  0
LINE
  5
908A
  8
4
 10
9027.8894740534342
 20
15532.41545305647
 30
0.0
 11
9027.8894740534342
 21
16059.358845178231
 31
0.0
  0
LINE
  5
908B
  8
4
 10
9027.8894740534342
 20
16059.358845178231
 30
0.0
 11
11074.80236225411
 21
16059.358845178231
 31
0.0
  0
LINE
  5
908C
  8
4
 10
11074.80236225411
 20
16059.358845178231
 30
0.0
 11
11074.80236225411
 21
15532.41545305647
 31
0.0
  0
LINE
  5
908D
  8
4
 10
11074.80236225411
 20
15532.41545305647
 30
0.0
 11
9027.8894740534342
 21
15532.41545305647
 31
0.0
  0
LINE
  5
908E
  8
4
 10
1824.8023622541109
 20
2126.097537429469
 30
0.0
 11
1824.8023622541109
 21
16876.097537429469
 31
0.0
  0
LINE
  5
908F
  8
4
 10
1824.8023622541109
 20
16876.097537429469
 30
0.0
 11
12324.80236225411
 21
16876.097537429469
 31
0.0
  0
LINE
  5
9090
  8
4
 10
12324.80236225411
 20
16876.097537429469
 30
0.0
 11
12324.80236225411
 21
2126.097537429469
 31
0.0
  0
LINE
  5
9091
  8
4
 10
12324.80236225411
 20
2126.097537429469
 30
0.0
 11
1824.8023622541109
 21
2126.097537429469
 31
0.0
  0
ENDSEC
  0
EOF
