  0
SECTION
  2
HEADER
  9
$ACADVER
  1
AC1009
  9
$INSBASE
 10
0.0
 20
0.0
 30
0.0
  9
$EXTMIN
 10
3095.5864406071778
 20
1433.5400618645219
 30
0.0
  9
$EXTMAX
 10
13595.586440607171
 20
16183.54006186452
 30
0.0
  9
$LIMMIN
 10
0.0
 20
0.0
  9
$LIMMAX
 10
297.0
 20
210.0
  9
$ORTHOMODE
 70
     0
  9
$REGENMODE
 70
     1
  9
$FILLMODE
 70
     1
  9
$QTEXTMODE
 70
     0
  9
$MIRRTEXT
 70
     0
  9
$DRAGMODE
 70
     2
  9
$LTSCALE
 40
175.0
  9
$OSMODE
 70
    37
  9
$ATTMODE
 70
     1
  9
$TEXTSIZE
 40
150.0
  9
$TRACEWID
 40
0.05
  9
$TEXTSTYLE
  7
STANDARD
  9
$CLAYER
  8
FUTO
  9
$CELTYPE
  6
BYLAYER
  9
$CECOLOR
 62
   256
  9
$DIMSCALE
 40
35.0
  9
$DIMASZ
 40
2.5
  9
$DIMEXO
 40
1.0
  9
$DIMDLI
 40
10.0
  9
$DIMRND
 40
0.0
  9
$DIMDLE
 40
0.0
  9
$DIMEXE
 40
1.0
  9
$DIMTP
 40
0.0
  9
$DIMTM
 40
0.0
  9
$DIMTXT
 40
3.0
  9
$DIMCEN
 40
0.0
  9
$DIMTSZ
 40
0.0
  9
$DIMTOL
 70
     0
  9
$DIMLIM
 70
     0
  9
$DIMTIH
 70
     0
  9
$DIMTOH
 70
     0
  9
$DIMSE1
 70
     0
  9
$DIMSE2
 70
     0
  9
$DIMTAD
 70
     1
  9
$DIMZIN
 70
     8
  9
$DIMBLK
  1

  9
$DIMASO
 70
     1
  9
$DIMSHO
 70
     1
  9
$DIMPOST
  1

  9
$DIMAPOST
  1

  9
$DIMALT
 70
     0
  9
$DIMALTD
 70
     2
  9
$DIMALTF
 40
0.03937
  9
$DIMLFAC
 40
1.0
  9
$DIMTOFL
 70
     1
  9
$DIMTVP
 40
0.0
  9
$DIMTIX
 70
     0
  9
$DIMSOXD
 70
     0
  9
$DIMSAH
 70
     1
  9
$DIMBLK1
  1
OPEN
  9
$DIMBLK2
  1
OPEN
  9
$DIMSTYLE
  2
MATSU
  9
$DIMCLRD
 70
   256
  9
$DIMCLRE
 70
   256
  9
$DIMCLRT
 70
   256
  9
$DIMTFAC
 40
1.0
  9
$DIMGAP
 40
1.0
  9
$LUNITS
 70
     2
  9
$LUPREC
 70
     4
  9
$SKETCHINC
 40
0.1
  9
$FILLETRAD
 40
30.0
  9
$AUNITS
 70
     0
  9
$AUPREC
 70
     2
  9
$MENU
  1
acad
  9
$ELEVATION
 40
0.0
  9
$PELEVATION
 40
0.0
  9
$THICKNESS
 40
0.0
  9
$LIMCHECK
 70
     0
  9
$BLIPMODE
 70
     0
  9
$CHAMFERA
 40
8.0
  9
$CHAMFERB
 40
8.0
  9
$SKPOLY
 70
     0
  9
$TDCREATE
 40
2453957.375965347
  9
$TDUPDATE
 40
2454953.6496128011
  9
$TDINDWG
 40
0.136633206
  9
$TDUSRTIMER
 40
0.136633206
  9
$USRTIMER
 70
     1
  9
$ANGBASE
 50
0.0
  9
$ANGDIR
 70
     0
  9
$PDMODE
 70
     0
  9
$PDSIZE
 40
1.0
  9
$PLINEWID
 40
0.0
  9
$COORDS
 70
     1
  9
$SPLFRAME
 70
     0
  9
$SPLINETYPE
 70
     6
  9
$SPLINESEGS
 70
     8
  9
$ATTDIA
 70
     0
  9
$ATTREQ
 70
     1
  9
$HANDLING
 70
 10241
  9
$HANDSEED
  5
8E20
  9
$SURFTAB1
 70
     6
  9
$SURFTAB2
 70
     6
  9
$SURFTYPE
 70
     6
  9
$SURFU
 70
     6
  9
$SURFV
 70
     6
  9
$UCSNAME
  2

  9
$UCSORG
 10
0.0
 20
-0.0000000000000142
 30
0.0
  9
$UCSXDIR
 10
1.0
 20
0.0
 30
0.0
  9
$UCSYDIR
 10
0.0
 20
1.0
 30
0.0
  9
$PUCSNAME
  2

  9
$PUCSORG
 10
0.0
 20
0.0
 30
0.0
  9
$PUCSXDIR
 10
1.0
 20
0.0
 30
0.0
  9
$PUCSYDIR
 10
0.0
 20
1.0
 30
0.0
  9
$USERI1
 70
     0
  9
$USERI2
 70
     0
  9
$USERI3
 70
     0
  9
$USERI4
 70
     0
  9
$USERI5
 70
     0
  9
$USERR1
 40
0.0
  9
$USERR2
 40
0.0
  9
$USERR3
 40
0.0
  9
$USERR4
 40
0.0
  9
$USERR5
 40
0.0
  9
$WORLDVIEW
 70
     1
  9
$SHADEDGE
 70
     3
  9
$SHADEDIF
 70
    70
  9
$TILEMODE
 70
     1
  9
$MAXACTVP
 70
    16
  9
$PLIMCHECK
 70
     0
  9
$PEXTMIN
 10
1.0000000000000000E+020
 20
1.0000000000000000E+020
 30
1.0000000000000000E+020
  9
$PEXTMAX
 10
-1.0000000000000000E+020
 20
-1.0000000000000000E+020
 30
-1.0000000000000000E+020
  9
$PLIMMIN
 10
0.0
 20
0.0
  9
$PLIMMAX
 10
12.0
 20
9.0
  9
$UNITMODE
 70
     0
  9
$VISRETAIN
 70
     0
  9
$PLINEGEN
 70
     0
  9
$PSLTSCALE
 70
     0
  0
ENDSEC
  0
SECTION
  2
TABLES
  0
TABLE
  2
VPORT
 70
     2
  0
VPORT
  2
*ACTIVE
 70
     0
 10
0.0
 20
0.0
 11
1.0
 21
1.0
 12
13137.655668700199
 22
3119.7721405031698
 13
0.0
 23
0.0
 14
5.0
 24
5.0
 15
0.0
 25
0.0
 16
0.0
 26
0.0
 36
1.0
 17
0.0
 27
0.0
 37
0.0
 40
4658.8983034251014
 41
3.1666666666666661
 42
50.0
 43
0.0
 44
0.0
 50
0.0
 51
0.0
 71
     0
 72
   100
 73
     1
 74
     0
 75
     0
 76
     0
 77
     0
 78
     0
  0
ENDTAB
  0
TABLE
  2
LTYPE
 70
     4
  0
LTYPE
  2
CONTINUOUS
 70
     0
  3
Solid line
 72
    65
 73
     0
 40
0.0
  0
LTYPE
  2
CENTER
 70
     0
  3
____ _ ____ _ ____ _ ____ _ ____ _ ____ _ ____ 
 72
    65
 73
     4
 40
2.0
 49
1.25
 49
-0.25
 49
0.25
 49
-0.25
  0
LTYPE
  2
HIDDEN
 70
     0
  3
__ __ __ __ __ __ __ __ __ __ __ __ __ __ __ __
 72
    65
 73
     2
 40
0.375
 49
0.25
 49
-0.125
  0
LTYPE
  2
PHANTOM
 70
     0
  3
______  __  __  ______  __  __  ______  __  __ 
 72
    65
 73
     6
 40
2.5
 49
1.25
 49
-0.25
 49
0.25
 49
-0.25
 49
0.25
 49
-0.25
  0
ENDTAB
  0
TABLE
  2
LAYER
 70
     9
  0
LAYER
  2
0
 70
     0
 62
     7
  6
CONTINUOUS
  0
LAYER
  2
CT
 70
     0
 62
     3
  6
CENTER
  0
LAYER
  2
FUTO
 70
     0
 62
     4
  6
CONTINUOUS
  0
LAYER
  2
HOSO
 70
     0
 62
     7
  6
CONTINUOUS
  0
LAYER
  2
KL
 70
     0
 62
     7
  6
HIDDEN
  0
LAYER
  2
SL
 70
     0
 62
     1
  6
PHANTOM
  0
LAYER
  2
SP
 70
     0
 62
     2
  6
CONTINUOUS
  0
LAYER
  2
DEFPOINTS
 70
     0
 62
     7
  6
CONTINUOUS
  0
LAYER
  2
4
 70
     0
 62
     7
  6
CONTINUOUS
  0
ENDTAB
  0
TABLE
  2
STYLE
 70
     1
  0
STYLE
  2
STANDARD
 70
     0
 40
0.0
 41
1.0
 50
15.0
 71
     0
 42
150.0
  3
C:\Program Files\AutoCAD LT\simplex.shx
  4
extfont.shx
  0
ENDTAB
  0
TABLE
  2
VIEW
 70
     0
  0
ENDTAB
  0
TABLE
  2
UCS
 70
     0
  0
ENDTAB
  0
TABLE
  2
APPID
 70
     1
  0
APPID
  2
ACAD
 70
     0
  0
ENDTAB
  0
TABLE
  2
DIMSTYLE
 70
     2
  0
DIMSTYLE
  2
STANDARD
 70
     0
  3

  4

  5

  6

  7

 40
1.0
 41
0.18
 42
0.0625
 43
0.38
 44
0.18
 45
0.0
 46
0.0
 47
0.0
 48
0.0
140
0.18
141
0.09
142
0.0
143
25.399999999999999
144
1.0
145
0.0
146
1.0
147
0.09
 71
     0
 72
     0
 73
     1
 74
     1
 75
     0
 76
     0
 77
     0
 78
     0
170
     0
171
     2
172
     0
173
     0
174
     0
175
     0
176
     0
177
     0
178
     0
  0
DIMSTYLE
  2
MATSU
 70
     0
  3

  4

  5

  6
OPEN
  7
OPEN
 40
1.0
 41
2.0
 42
1.0
 43
10.0
 44
1.0
 45
0.0
 46
0.0
 47
0.0
 48
0.0
140
3.0
141
0.0
142
0.0
143
0.03937
144
1.0
145
0.0
146
1.0
147
0.5
 71
     0
 72
     0
 73
     0
 74
     0
 75
     0
 76
     0
 77
     1
 78
     8
170
     0
171
     2
172
     1
173
     1
174
     0
175
     0
176
   256
177
   256
178
   256
  0
ENDTAB
  0
ENDSEC
  0
SECTION
  2
BLOCKS
  0
BLOCK
  8
0
  2
$MODEL_SPACE
 70
     0
 10
0.0
 20
0.0
 30
0.0
  3
$MODEL_SPACE
  1

  0
ENDBLK
  5
1B
  8
0
  0
BLOCK
 67
     1
  8
0
  2
$PAPER_SPACE
 70
     0
 10
0.0
 20
0.0
 30
0.0
  3
$PAPER_SPACE
  1

  0
ENDBLK
  5
18
 67
     1
  8
0
  0
BLOCK
  8
0
  2
_OPEN
 70
     0
 10
0.0
 20
0.0
 30
0.0
  3
_OPEN
  1

  0
LINE
  5
28
  8
0
  6
BYBLOCK
 62
     0
 10
-1.0
 20
0.1666666666666666
 30
0.0
 11
0.0
 21
0.0
 31
0.0
  0
LINE
  5
29
  8
0
  6
BYBLOCK
 62
     0
 10
0.0
 20
0.0
 30
0.0
 11
-1.0
 21
-0.1666666666666666
 31
0.0
  0
LINE
  5
2A
  8
0
  6
BYBLOCK
 62
     0
 10
0.0
 20
0.0
 30
0.0
 11
-1.0
 21
0.0
 31
0.0
  0
ENDBLK
  5
2B
  8
0
  0
BLOCK
  8
0
  2
まっすぐの矢印
 70
     0
 10
0.0
 20
0.0
 30
0.0
  3
まっすぐの矢印
  1

  0
LINE
  5
56E2
  8
SP
 10
0.6962157491662495
 20
-2.216890595009601
 30
0.0
 11
0.6962157491662495
 21
-5.0
 31
0.0
  0
LINE
  5
56E3
  8
SP
 10
0.6962157491662495
 20
-5.0
 30
0.0
 11
-0.6962157491662495
 21
-5.0
 31
0.0
  0
LINE
  5
56E4
  8
SP
 10
-0.6962157491662495
 20
-5.0
 30
0.0
 11
-0.6962157491662495
 21
-2.216890595009601
 31
0.0
  0
LINE
  5
56E5
  8
SP
 10
-0.6962157491662495
 20
-2.216890595009601
 30
0.0
 11
-1.7145256852758151
 21
-2.216890595009601
 31
0.0
  0
LINE
  5
56E6
  8
SP
 10
-1.7145256852758151
 20
-2.216890595009601
 30
0.0
 11
0.0
 21
0.0
 31
0.0
  0
LINE
  5
56E7
  8
SP
 10
0.0
 20
0.0
 30
0.0
 11
1.7145256852758151
 21
-2.216890595009601
 31
0.0
  0
LINE
  5
56E8
  8
SP
 10
1.7145256852758151
 20
-2.216890595009601
 30
0.0
 11
0.6962157491662495
 21
-2.216890595009601
 31
0.0
  0
ENDBLK
  5
56EA
  8
0
  0
BLOCK
  8
0
  2
右回転矢印
 70
     0
 10
0.0
 20
0.0
 30
0.0
  3
右回転矢印
  1

  0
LINE
  5
56EC
  8
SP
 10
-2.7705290305565882
 20
1.567794835092901
 30
0.0
 11
-2.4288000558398148
 21
2.8051227455822878
 31
0.0
  0
LINE
  5
56ED
  8
SP
 10
-2.4288000558398148
 20
2.8051227455822878
 30
0.0
 11
0.0
 21
0.0
 31
0.0
  0
LINE
  5
56EE
  8
SP
 10
0.0
 20
0.0
 30
0.0
 11
-3.3160037613098718
 21
-0.4072531086382499
 31
0.0
  0
LINE
  5
56EF
  8
SP
 10
-3.3160037613098718
 20
-0.4072531086382499
 30
0.0
 11
-3.0391574735299112
 21
0.5951483970269315
 31
0.0
  0
ARC
  5
56F0
  8
SP
 10
-5.9215210782018062
 20
-9.8412769578768184
 30
0.0
 40
10.82714154973578
 50
74.560750721316467
 51
112.11861101078711
  0
LINE
  5
56F1
  8
SP
 10
-9.9982127316752951
 20
0.1890560027239694
 30
0.0
 11
-10.37814929817227
 21
1.1238557349100611
 31
0.0
  0
ARC
  5
56F2
  8
SP
 10
-5.9215210782018062
 20
-9.8412769578768291
 30
0.0
 40
11.83620167374065
 50
74.560750721316396
 51
112.11861101078701
  0
ENDBLK
  5
56F4
  8
0
  0
BLOCK
  8
0
  2
*D3
 70
     1
 10
0.0
 20
0.0
 30
0.0
  3
*D3
  1

  0
LINE
  5
8D78
  8
SP
 10
5269.8694057084476
 20
5744.6138642968617
 30
0.0
 11
5269.8694057084476
 21
5494.1015541137594
 31
0.0
  0
LINE
  5
8D79
  8
SP
 10
6219.8694057084494
 20
5744.6138642968617
 30
0.0
 11
6219.8694057084494
 21
5494.1015541137594
 31
0.0
  0
LINE
  5
8D7A
  8
SP
 10
5357.3694057084494
 20
5529.1015541137594
 30
0.0
 11
6132.3694057084476
 21
5529.1015541137594
 31
0.0
  0
INSERT
  5
8D7B
  8
SP
  2
_OPEN
 10
5269.8694057084476
 20
5529.1015541137594
 30
0.0
 41
87.5
 42
87.5
 43
87.5
 50
180.0
  0
INSERT
  5
8D7C
  8
SP
  2
_OPEN
 10
6219.8694057084494
 20
5529.1015541137594
 30
0.0
 41
87.5
 42
87.5
 43
87.5
  0
TEXT
  5
8D7D
  8
FUTO
 10
5596.4719460868928
 20
5564.1015541137576
 30
0.0
 40
105.0
  1
950
 51
15.0
  0
POINT
  5
8D7E
  8
DEFPOINTS
 62
     0
 10
5269.8694057084476
 20
5779.6138642968617
 30
0.0
  0
POINT
  5
8D7F
  8
DEFPOINTS
 62
     0
 10
6219.8694057084494
 20
5779.6138642968617
 30
0.0
  0
POINT
  5
8D80
  8
DEFPOINTS
 62
     0
 10
6219.8694057084494
 20
5529.1015541137594
 30
0.0
  0
ENDBLK
  5
6A60
  8
0
  0
BLOCK
  8
0
  2
*D4
 70
     1
 10
0.0
 20
0.0
 30
0.0
  3
*D4
  1

  0
LINE
  5
8D8A
  8
SP
 10
6219.8694057084494
 20
5744.6138642968617
 30
0.0
 11
6219.8694057084494
 21
5494.1015541137594
 31
0.0
  0
LINE
  5
8D8B
  8
SP
 10
7769.8694057084476
 20
5744.6138642968617
 30
0.0
 11
7769.8694057084476
 21
5494.1015541137594
 31
0.0
  0
LINE
  5
8D8C
  8
SP
 10
6307.3694057084494
 20
5529.1015541137594
 30
0.0
 11
7682.3694057084476
 21
5529.1015541137594
 31
0.0
  0
INSERT
  5
8D8D
  8
SP
  2
_OPEN
 10
6219.8694057084494
 20
5529.1015541137594
 30
0.0
 41
87.5
 42
87.5
 43
87.5
 50
180.0
  0
INSERT
  5
8D8E
  8
SP
  2
_OPEN
 10
7769.8694057084476
 20
5529.1015541137594
 30
0.0
 41
87.5
 42
87.5
 43
87.5
  0
TEXT
  5
8D8F
  8
FUTO
 10
6799.5937243518028
 20
5564.1015541137576
 30
0.0
 40
105.0
  1
1550
 51
15.0
  0
POINT
  5
8D90
  8
DEFPOINTS
 62
     0
 10
6219.8694057084494
 20
5779.6138642968617
 30
0.0
  0
POINT
  5
8D91
  8
DEFPOINTS
 62
     0
 10
7769.8694057084476
 20
5779.6138642968617
 30
0.0
  0
POINT
  5
8D92
  8
DEFPOINTS
 62
     0
 10
7769.8694057084476
 20
5529.1015541137594
 30
0.0
  0
ENDBLK
  5
6A6D
  8
0
  0
BLOCK
  8
0
  2
*D5
 70
     1
 10
0.0
 20
0.0
 30
0.0
  3
*D5
  1

  0
LINE
  5
8D6F
  8
SP
 10
5269.8694057084476
 20
5744.6138642968617
 30
0.0
 11
5269.8694057084476
 21
5244.013810116101
 31
0.0
  0
LINE
  5
8D70
  8
SP
 10
7769.8694057084476
 20
5744.6138642968617
 30
0.0
 11
7769.8694057084476
 21
5244.013810116101
 31
0.0
  0
LINE
  5
8D71
  8
SP
 10
5357.3694057084494
 20
5279.013810116101
 30
0.0
 11
7682.3694057084476
 21
5279.013810116101
 31
0.0
  0
INSERT
  5
8D72
  8
SP
  2
_OPEN
 10
5269.8694057084476
 20
5279.013810116101
 30
0.0
 41
87.5
 42
87.5
 43
87.5
 50
180.0
  0
INSERT
  5
8D73
  8
SP
  2
_OPEN
 10
7769.8694057084476
 20
5279.013810116101
 30
0.0
 41
87.5
 42
87.5
 43
87.5
  0
TEXT
  5
8D74
  8
FUTO
 10
6325.9815650301261
 20
5314.013810116101
 30
0.0
 40
105.0
  1
2500
 51
15.0
  0
POINT
  5
8D75
  8
DEFPOINTS
 62
     0
 10
5269.8694057084476
 20
5779.6138642968617
 30
0.0
  0
POINT
  5
8D76
  8
DEFPOINTS
 62
     0
 10
7769.8694057084476
 20
5779.6138642968617
 30
0.0
  0
POINT
  5
8D77
  8
DEFPOINTS
 62
     0
 10
7769.8694057084476
 20
5279.013810116101
 30
0.0
  0
ENDBLK
  5
6A7A
  8
0
  0
BLOCK
  8
0
  2
*D6
 70
     1
 10
0.0
 20
0.0
 30
0.0
  3
*D6
  1

  0
LINE
  5
8DDA
  8
SP
 10
9580.8779557904782
 20
5744.6138642968599
 30
0.0
 11
9580.8779557904782
 21
5494.1015307259204
 31
0.0
  0
LINE
  5
8DDB
  8
SP
 10
11211.877955790471
 20
5744.6138642968617
 30
0.0
 11
11211.877955790471
 21
5494.1015307259204
 31
0.0
  0
LINE
  5
8DDC
  8
SP
 10
9668.3779557904782
 20
5529.1015307259204
 30
0.0
 11
11124.377955790471
 21
5529.1015307259204
 31
0.0
  0
INSERT
  5
8DDD
  8
SP
  2
_OPEN
 10
9580.8779557904782
 20
5529.1015307259204
 30
0.0
 41
87.5
 42
87.5
 43
87.5
 50
180.0
  0
INSERT
  5
8DDE
  8
SP
  2
_OPEN
 10
11211.877955790471
 20
5529.1015307259204
 30
0.0
 41
87.5
 42
87.5
 43
87.5
  0
TEXT
  5
8DDF
  8
FUTO
 10
10218.42278250952
 20
5564.1015307259204
 30
0.0
 40
105.0
  1
1631
 51
15.0
  0
POINT
  5
8DE0
  8
DEFPOINTS
 62
     0
 10
9580.8779557904782
 20
5779.6138642968608
 30
0.0
  0
POINT
  5
8DE1
  8
DEFPOINTS
 62
     0
 10
11211.877955790471
 20
5779.6138642968617
 30
0.0
  0
POINT
  5
8DE2
  8
DEFPOINTS
 62
     0
 10
11211.877955790471
 20
5529.1015307259204
 30
0.0
  0
ENDBLK
  5
6A87
  8
0
  0
BLOCK
  8
0
  2
*D7
 70
     1
 10
0.0
 20
0.0
 30
0.0
  3
*D7
  1

  0
LINE
  5
8DE3
  8
SP
 10
11211.877955790471
 20
5744.6138642968617
 30
0.0
 11
11211.877955790471
 21
5494.1015307259204
 31
0.0
  0
LINE
  5
8DE4
  8
SP
 10
11880.877955790471
 20
5744.6138642968599
 30
0.0
 11
11880.877955790471
 21
5494.1015307259204
 31
0.0
  0
LINE
  5
8DE5
  8
SP
 10
11299.377955790471
 20
5529.1015307259204
 30
0.0
 11
11793.377955790471
 21
5529.1015307259204
 31
0.0
  0
INSERT
  5
8DE6
  8
SP
  2
_OPEN
 10
11211.877955790471
 20
5529.1015307259204
 30
0.0
 41
87.5
 42
87.5
 43
87.5
 50
180.0
  0
INSERT
  5
8DE7
  8
SP
  2
_OPEN
 10
11880.877955790471
 20
5529.1015307259204
 30
0.0
 41
87.5
 42
87.5
 43
87.5
  0
TEXT
  5
8DE8
  8
FUTO
 10
11399.810623187839
 20
5564.1015307259204
 30
0.0
 40
105.0
  1
669
 51
15.0
  0
POINT
  5
8DE9
  8
DEFPOINTS
 62
     0
 10
11211.877955790471
 20
5779.6138642968617
 30
0.0
  0
POINT
  5
8DEA
  8
DEFPOINTS
 62
     0
 10
11880.877955790471
 20
5779.6138642968608
 30
0.0
  0
POINT
  5
8DEB
  8
DEFPOINTS
 62
     0
 10
11880.877955790471
 20
5529.1015307259204
 30
0.0
  0
ENDBLK
  5
6A94
  8
0
  0
BLOCK
  8
0
  2
*D8
 70
     1
 10
0.0
 20
0.0
 30
0.0
  3
*D8
  1

  0
LINE
  5
8DD1
  8
SP
 10
9580.8779557904782
 20
5744.6138642968599
 30
0.0
 11
9580.8779557904782
 21
5244.0137867282629
 31
0.0
  0
LINE
  5
8DD2
  8
SP
 10
11880.877955790471
 20
5744.6138642968599
 30
0.0
 11
11880.877955790471
 21
5244.0137867282629
 31
0.0
  0
LINE
  5
8DD3
  8
SP
 10
9668.3779557904782
 20
5279.0137867282629
 30
0.0
 11
11793.377955790471
 21
5279.0137867282629
 31
0.0
  0
INSERT
  5
8DD4
  8
SP
  2
_OPEN
 10
9580.8779557904782
 20
5279.0137867282629
 30
0.0
 41
87.5
 42
87.5
 43
87.5
 50
180.0
  0
INSERT
  5
8DD5
  8
SP
  2
_OPEN
 10
11880.877955790471
 20
5279.0137867282629
 30
0.0
 41
87.5
 42
87.5
 43
87.5
  0
TEXT
  5
8DD6
  8
FUTO
 10
10536.99011511215
 20
5314.0137867282629
 30
0.0
 40
105.0
  1
2300
 51
15.0
  0
POINT
  5
8DD7
  8
DEFPOINTS
 62
     0
 10
9580.8779557904782
 20
5779.6138642968608
 30
0.0
  0
POINT
  5
8DD8
  8
DEFPOINTS
 62
     0
 10
11880.877955790471
 20
5779.6138642968608
 30
0.0
  0
POINT
  5
8DD9
  8
DEFPOINTS
 62
     0
 10
11880.877955790471
 20
5279.0137867282629
 30
0.0
  0
ENDBLK
  5
6AA1
  8
0
  0
BLOCK
  8
0
  2
*D9
 70
     1
 10
0.0
 20
0.0
 30
0.0
  3
*D9
  1

  0
LINE
  5
8DEC
  8
SP
 10
11211.877955790471
 20
8706.8728664257105
 30
0.0
 11
11211.877955790471
 21
8752.8452459746786
 31
0.0
  0
LINE
  5
8DED
  8
SP
 10
11936.877955790471
 20
8249.6138642968617
 30
0.0
 11
11936.877955790471
 21
8752.8452459746786
 31
0.0
  0
LINE
  5
8DEE
  8
SP
 10
11299.377955790471
 20
8717.8452459746786
 30
0.0
 11
11849.377955790471
 21
8717.8452459746786
 31
0.0
  0
INSERT
  5
8DEF
  8
SP
  2
_OPEN
 10
11211.877955790471
 20
8717.8452459746786
 30
0.0
 41
87.5
 42
87.5
 43
87.5
 50
180.0
  0
INSERT
  5
8DF0
  8
SP
  2
_OPEN
 10
11936.877955790471
 20
8717.8452459746786
 30
0.0
 41
87.5
 42
87.5
 43
87.5
  0
TEXT
  5
8DF1
  8
FUTO
 10
11420.310623187839
 20
8752.8452459746786
 30
0.0
 40
105.0
  1
725
 51
15.0
  0
POINT
  5
8DF2
  8
DEFPOINTS
 62
     0
 10
11211.877955790471
 20
8671.8728664257123
 30
0.0
  0
POINT
  5
8DF3
  8
DEFPOINTS
 62
     0
 10
11936.877955790471
 20
8214.6138642968635
 30
0.0
  0
POINT
  5
8DF4
  8
DEFPOINTS
 62
     0
 10
11936.877955790471
 20
8717.8452459746786
 30
0.0
  0
ENDBLK
  5
6AFF
  8
0
  0
BLOCK
  8
0
  2
*D10
 70
     1
 10
0.0
 20
0.0
 30
0.0
  3
*D10
  1

  0
LINE
  5
8DF5
  8
SP
 10
11971.877955790471
 20
8149.6138642968617
 30
0.0
 11
12251.07135699235
 21
8149.6138642968617
 31
0.0
  0
LINE
  5
8DF6
  8
SP
 10
11971.877955790471
 20
6549.6138642968617
 30
0.0
 11
12251.07135699235
 21
6549.6138642968617
 31
0.0
  0
LINE
  5
8DF7
  8
SP
 10
12216.07135699235
 20
8062.1138642968608
 30
0.0
 11
12216.07135699235
 21
6637.1138642968608
 31
0.0
  0
INSERT
  5
8DF8
  8
SP
  2
_OPEN
 10
12216.07135699235
 20
8149.6138642968617
 30
0.0
 41
87.5
 42
87.5
 43
87.5
 50
90.0
  0
INSERT
  5
8DF9
  8
SP
  2
_OPEN
 10
12216.07135699235
 20
6549.6138642968617
 30
0.0
 41
87.5
 42
87.5
 43
87.5
 50
270.0
  0
TEXT
  5
8DFA
  8
FUTO
 10
12181.07135699235
 20
7117.9151344860857
 30
0.0
 40
105.0
  1
φ1600
 50
90.0
 51
15.0
  0
POINT
  5
8DFB
  8
DEFPOINTS
 62
     0
 10
11936.877955790471
 20
8149.6138642968617
 30
0.0
  0
POINT
  5
8DFC
  8
DEFPOINTS
 62
     0
 10
11936.877955790471
 20
6549.6138642968617
 30
0.0
  0
POINT
  5
8DFD
  8
DEFPOINTS
 62
     0
 10
12216.07135699235
 20
6549.6138642968617
 30
0.0
  0
ENDBLK
  5
6F63
  8
0
  0
BLOCK
  8
0
  2
*D11
 70
     1
 10
0.0
 20
0.0
 30
0.0
  3
*D11
  1

  0
LINE
  5
8DC9
  8
SP
 10
9331.87795579048
 20
7764.6138642968617
 30
0.0
 11
9331.87795579048
 21
8752.8452459746786
 31
0.0
  0
LINE
  5
8DCA
  8
SP
 10
9419.37795579048
 20
8717.8452459746786
 30
0.0
 11
11124.377955790471
 21
8717.8452459746786
 31
0.0
  0
INSERT
  5
8DCB
  8
SP
  2
_OPEN
 10
9331.87795579048
 20
8717.8452459746786
 30
0.0
 41
87.5
 42
87.5
 43
87.5
 50
180.0
  0
INSERT
  5
8DCC
  8
SP
  2
_OPEN
 10
11211.877955790471
 20
8717.8452459746786
 30
0.0
 41
87.5
 42
87.5
 43
87.5
  0
TEXT
  5
8DCD
  8
FUTO
 10
10076.60227443383
 20
8752.8452459746786
 30
0.0
 40
105.0
  1
1880
 51
15.0
  0
POINT
  5
8DCE
  8
DEFPOINTS
 62
     0
 10
9331.87795579048
 20
7729.6138642968617
 30
0.0
  0
POINT
  5
8DCF
  8
DEFPOINTS
 62
     0
 10
11211.877955790471
 20
8717.8452459746786
 30
0.0
  0
POINT
  5
8DD0
  8
DEFPOINTS
 62
     0
 10
11211.877955790471
 20
8717.8452459746786
 30
0.0
  0
ENDBLK
  5
6FBD
  8
0
  0
BLOCK
  8
0
  2
*D12
 70
     1
 10
0.0
 20
0.0
 30
0.0
  3
*D12
  1

  0
LINE
  5
8D93
  8
SP
 10
6219.8694057084494
 20
8537.2457248102291
 30
0.0
 11
6219.8694057084494
 21
8779.7802553787387
 31
0.0
  0
LINE
  5
8D94
  8
SP
 10
7982.8694057084494
 20
8429.6138642968617
 30
0.0
 11
7982.8694057084494
 21
8779.7802553787387
 31
0.0
  0
LINE
  5
8D95
  8
SP
 10
6307.3694057084494
 20
8744.7802553787387
 30
0.0
 11
7895.3694057084494
 21
8744.7802553787387
 31
0.0
  0
INSERT
  5
8D96
  8
SP
  2
_OPEN
 10
6219.8694057084494
 20
8744.7802553787387
 30
0.0
 41
87.5
 42
87.5
 43
87.5
 50
180.0
  0
INSERT
  5
8D97
  8
SP
  2
_OPEN
 10
7982.8694057084494
 20
8744.7802553787387
 30
0.0
 41
87.5
 42
87.5
 43
87.5
  0
TEXT
  5
8D98
  8
FUTO
 10
6903.4142324274917
 20
8779.7802553787387
 30
0.0
 40
105.0
  1
1763
 51
15.0
  0
POINT
  5
8D99
  8
DEFPOINTS
 62
     0
 10
6219.8694057084494
 20
8502.2457248102291
 30
0.0
  0
POINT
  5
8D9A
  8
DEFPOINTS
 62
     0
 10
7982.8694057084494
 20
8394.6138642968635
 30
0.0
  0
POINT
  5
8D9B
  8
DEFPOINTS
 62
     0
 10
7982.8694057084494
 20
8744.7802553787387
 30
0.0
  0
ENDBLK
  5
8034
  8
0
  0
BLOCK
  8
0
  2
*D13
 70
     1
 10
0.0
 20
0.0
 30
0.0
  3
*D13
  1

  0
LINE
  5
8D81
  8
SP
 10
7804.8694057084494
 20
5949.6138642968608
 30
0.0
 11
8271.0645719561962
 21
5949.6138642968608
 31
0.0
  0
LINE
  5
8D82
  8
SP
 10
8088.2275276782993
 20
7349.6138642968617
 30
0.0
 11
8271.0645719561962
 21
7349.6138642968617
 31
0.0
  0
LINE
  5
8D83
  8
SP
 10
8236.0645719561962
 20
6037.1138642968617
 30
0.0
 11
8236.0645719561962
 21
7262.1138642968608
 31
0.0
  0
INSERT
  5
8D84
  8
SP
  2
_OPEN
 10
8236.0645719561962
 20
5949.6138642968608
 30
0.0
 41
87.5
 42
87.5
 43
87.5
 50
270.0
  0
INSERT
  5
8D85
  8
SP
  2
_OPEN
 10
8236.0645719561962
 20
7349.6138642968617
 30
0.0
 41
87.5
 42
87.5
 43
87.5
 50
90.0
  0
TEXT
  5
8D86
  8
FUTO
 10
8201.0645719561944
 20
6454.338182940216
 30
0.0
 40
105.0
  1
1400
 50
90.0
 51
15.0
  0
POINT
  5
8D87
  8
DEFPOINTS
 62
     0
 10
7769.8694057084476
 20
5949.6138642968608
 30
0.0
  0
POINT
  5
8D88
  8
DEFPOINTS
 62
     0
 10
8053.2275276782984
 20
7349.6138642968617
 30
0.0
  0
POINT
  5
8D89
  8
DEFPOINTS
 62
     0
 10
8236.0645719561962
 20
7349.6138642968617
 30
0.0
  0
ENDBLK
  5
8052
  8
0
  0
BLOCK
  8
0
  2
*D14
 70
     1
 10
0.0
 20
0.0
 30
0.0
  3
*D14
  1

  0
LINE
  5
8D9C
  8
SP
 10
8088.2275276782993
 20
7349.6138642968617
 30
0.0
 11
8271.0645719561962
 21
7349.6138642968617
 31
0.0
  0
LINE
  5
8D9D
  8
SP
 10
8017.8694057084494
 20
8394.6138642968635
 30
0.0
 11
8271.0645719561962
 21
8394.6138642968635
 31
0.0
  0
LINE
  5
8D9E
  8
SP
 10
8236.0645719561962
 20
7437.1138642968608
 30
0.0
 11
8236.0645719561962
 21
8307.1138642968617
 31
0.0
  0
INSERT
  5
8D9F
  8
SP
  2
_OPEN
 10
8236.0645719561962
 20
7349.6138642968617
 30
0.0
 41
87.5
 42
87.5
 43
87.5
 50
270.0
  0
INSERT
  5
8DA0
  8
SP
  2
_OPEN
 10
8236.0645719561962
 20
8394.6138642968635
 30
0.0
 41
87.5
 42
87.5
 43
87.5
 50
90.0
  0
TEXT
  5
8DA1
  8
FUTO
 10
8201.0645719561944
 20
7676.6586910159058
 30
0.0
 40
105.0
  1
1045
 50
90.0
 51
15.0
  0
POINT
  5
8DA2
  8
DEFPOINTS
 62
     0
 10
8053.2275276782984
 20
7349.6138642968617
 30
0.0
  0
POINT
  5
8DA3
  8
DEFPOINTS
 62
     0
 10
7982.8694057084494
 20
8394.6138642968635
 30
0.0
  0
POINT
  5
8DA4
  8
DEFPOINTS
 62
     0
 10
8236.0645719561962
 20
8394.6138642968635
 30
0.0
  0
ENDBLK
  5
805F
  8
0
  0
BLOCK
  8
0
  2
*D15
 70
     1
 10
0.0
 20
0.0
 30
0.0
  3
*D15
  1

  0
LINE
  5
8DC0
  8
SP
 10
6219.8694057084494
 20
12166.728913547169
 30
0.0
 11
6219.8694057084494
 21
12442.10166918602
 31
0.0
  0
LINE
  5
8DC1
  8
SP
 10
7982.8694057084476
 20
12055.951001730309
 30
0.0
 11
7982.8694057084476
 21
12442.10166918602
 31
0.0
  0
LINE
  5
8DC2
  8
SP
 10
6307.3694057084494
 20
12407.10166918602
 30
0.0
 11
7895.3694057084467
 21
12407.10166918602
 31
0.0
  0
INSERT
  5
8DC3
  8
SP
  2
_OPEN
 10
6219.8694057084494
 20
12407.10166918602
 30
0.0
 41
87.5
 42
87.5
 43
87.5
 50
180.0
  0
INSERT
  5
8DC4
  8
SP
  2
_OPEN
 10
7982.8694057084476
 20
12407.10166918602
 30
0.0
 41
87.5
 42
87.5
 43
87.5
  0
TEXT
  5
8DC5
  8
FUTO
 10
6903.4142324274917
 20
12442.10166918602
 30
0.0
 40
105.0
  1
1763
 51
15.0
  0
POINT
  5
8DC6
  8
DEFPOINTS
 62
     0
 10
6219.8694057084494
 20
12131.728913547169
 30
0.0
  0
POINT
  5
8DC7
  8
DEFPOINTS
 62
     0
 10
7982.8694057084476
 20
12020.951001730309
 30
0.0
  0
POINT
  5
8DC8
  8
DEFPOINTS
 62
     0
 10
7982.8694057084476
 20
12407.10166918602
 30
0.0
  0
ENDBLK
  5
8087
  8
0
  0
BLOCK
  8
0
  2
*D16
 70
     1
 10
0.0
 20
0.0
 30
0.0
  3
*D16
  1

  0
LINE
  5
8DA5
  8
SP
 10
6219.8694057084494
 20
12201.728913547169
 30
0.0
 11
6219.8694057084494
 21
12442.10166918602
 31
0.0
  0
LINE
  5
8DA6
  8
SP
 10
5030.8694057084494
 20
12040.951001730309
 30
0.0
 11
5030.8694057084494
 21
12442.10166918602
 31
0.0
  0
LINE
  5
8DA7
  8
SP
 10
6132.3694057084476
 20
12407.10166918602
 30
0.0
 11
5118.3694057084494
 21
12407.10166918602
 31
0.0
  0
INSERT
  5
8DA8
  8
SP
  2
_OPEN
 10
6219.8694057084494
 20
12407.10166918602
 30
0.0
 41
87.5
 42
87.5
 43
87.5
  0
INSERT
  5
8DA9
  8
SP
  2
_OPEN
 10
5030.8694057084494
 20
12407.10166918602
 30
0.0
 41
87.5
 42
87.5
 43
87.5
 50
180.0
  0
TEXT
  5
8DAA
  8
FUTO
 10
5441.9238513707251
 20
12442.10166918602
 30
0.0
 40
105.0
  1
1189
 51
15.0
  0
POINT
  5
8DAB
  8
DEFPOINTS
 62
     0
 10
6219.8694057084494
 20
12166.728913547169
 30
0.0
  0
POINT
  5
8DAC
  8
DEFPOINTS
 62
     0
 10
5030.8694057084494
 20
12005.951001730309
 30
0.0
  0
POINT
  5
8DAD
  8
DEFPOINTS
 62
     0
 10
5030.8694057084494
 20
12407.10166918602
 30
0.0
  0
ENDBLK
  5
8094
  8
0
  0
BLOCK
  8
0
  2
*D17
 70
     1
 10
0.0
 20
0.0
 30
0.0
  3
*D17
  1

  0
LINE
  5
8DB7
  8
SP
 10
8017.8694057084494
 20
11361.951001730309
 30
0.0
 11
8360.4891660220474
 21
11361.951001730309
 31
0.0
  0
LINE
  5
8DB8
  8
SP
 10
7119.8694057084476
 20
12086.951001730309
 30
0.0
 11
8360.4891660220474
 21
12086.951001730309
 31
0.0
  0
LINE
  5
8DB9
  8
SP
 10
8325.4891660220474
 20
11449.451001730309
 30
0.0
 11
8325.4891660220474
 21
11999.451001730309
 31
0.0
  0
INSERT
  5
8DBA
  8
SP
  2
_OPEN
 10
8325.4891660220474
 20
11361.951001730309
 30
0.0
 41
87.5
 42
87.5
 43
87.5
 50
270.0
  0
INSERT
  5
8DBB
  8
SP
  2
_OPEN
 10
8325.4891660220474
 20
12086.951001730309
 30
0.0
 41
87.5
 42
87.5
 43
87.5
 50
90.0
  0
TEXT
  5
8DBC
  8
FUTO
 10
8290.4891660220455
 20
11570.383669127679
 30
0.0
 40
105.0
  1
725
 50
90.0
 51
15.0
  0
POINT
  5
8DBD
  8
DEFPOINTS
 62
     0
 10
7982.8694057084494
 20
11361.951001730309
 30
0.0
  0
POINT
  5
8DBE
  8
DEFPOINTS
 62
     0
 10
7084.8694057084494
 20
12086.951001730309
 30
0.0
  0
POINT
  5
8DBF
  8
DEFPOINTS
 62
     0
 10
8325.4891660220474
 20
12086.951001730309
 30
0.0
  0
ENDBLK
  5
80A1
  8
0
  0
BLOCK
  8
0
  2
*D18
 70
     1
 10
0.0
 20
0.0
 30
0.0
  3
*D18
  1

  0
LINE
  5
8DAE
  8
SP
 10
8017.8694057084494
 20
11361.951001730309
 30
0.0
 11
8360.4891660220474
 21
11361.951001730309
 31
0.0
  0
LINE
  5
8DAF
  8
SP
 10
7708.3694057084494
 20
9481.9510017303128
 30
0.0
 11
8360.4891660220474
 21
9481.9510017303128
 31
0.0
  0
LINE
  5
8DB0
  8
SP
 10
8325.4891660220474
 20
11274.451001730309
 30
0.0
 11
8325.4891660220474
 21
9569.4510017303128
 31
0.0
  0
INSERT
  5
8DB1
  8
SP
  2
_OPEN
 10
8325.4891660220474
 20
11361.951001730309
 30
0.0
 41
87.5
 42
87.5
 43
87.5
 50
90.0
  0
INSERT
  5
8DB2
  8
SP
  2
_OPEN
 10
8325.4891660220474
 20
9481.9510017303128
 30
0.0
 41
87.5
 42
87.5
 43
87.5
 50
270.0
  0
TEXT
  5
8DB3
  8
FUTO
 10
8290.4891660220455
 20
10226.67532037367
 30
0.0
 40
105.0
  1
1880
 50
90.0
 51
15.0
  0
POINT
  5
8DB4
  8
DEFPOINTS
 62
     0
 10
7982.8694057084494
 20
11361.951001730309
 30
0.0
  0
POINT
  5
8DB5
  8
DEFPOINTS
 62
     0
 10
7673.3694057084494
 20
9481.9510017303128
 30
0.0
  0
POINT
  5
8DB6
  8
DEFPOINTS
 62
     0
 10
8325.4891660220474
 20
9481.9510017303128
 30
0.0
  0
ENDBLK
  5
80AE
  8
0
  0
BLOCK
  8
0
  2
*U19
 70
     1
 10
0.0
 20
0.0
 30
0.0
  3
*U19
  1

  0
SOLID
  5
8E16
  8
SP
  6
CONTINUOUS
 10
8236.0645719561962
 20
5946.4207522762626
 30
0.0
 11
8224.1803074953186
 21
5941.4981287577384
 31
0.0
 12
8236.0645719561962
 22
5929.6138642968617
 32
0.0
 13
8236.0645719561962
 23
5929.6138642968617
 33
0.0
210
0.0
220
0.0
230
1.0
  0
SOLID
  5
8E17
  8
SP
  6
CONTINUOUS
 10
8219.2576839767953
 20
5929.6138642968617
 30
0.0
 11
8236.0645719561962
 21
5929.6138642968617
 31
0.0
 12
8224.1803074953186
 22
5941.4981287577384
 32
0.0
 13
8224.1803074953186
 23
5941.4981287577384
 33
0.0
210
0.0
220
0.0
230
1.0
  0
SOLID
  5
8E18
  8
SP
  6
CONTINUOUS
 10
8236.0645719561962
 20
5946.4207522762626
 30
0.0
 11
8236.0645719561962
 21
5929.6138642968617
 31
0.0
 12
8247.9488364170702
 22
5941.4981287577384
 32
0.0
 13
8247.9488364170702
 23
5941.4981287577384
 33
0.0
210
0.0
220
0.0
230
1.0
  0
SOLID
  5
8E19
  8
SP
  6
CONTINUOUS
 10
8252.8714599355953
 20
5929.6138642968617
 30
0.0
 11
8247.9488364170702
 21
5941.4981287577384
 31
0.0
 12
8236.0645719561962
 22
5929.6138642968617
 32
0.0
 13
8236.0645719561962
 23
5929.6138642968617
 33
0.0
210
0.0
220
0.0
230
1.0
  0
SOLID
  5
8E1A
  8
SP
  6
CONTINUOUS
 10
8252.8714599355953
 20
5929.6138642968617
 30
0.0
 11
8236.0645719561962
 21
5929.6138642968626
 31
0.0
 12
8247.9488364170702
 22
5917.7295998359859
 32
0.0
 13
8247.9488364170702
 23
5917.7295998359859
 33
0.0
210
0.0
220
0.0
230
1.0
  0
SOLID
  5
8E1B
  8
SP
  6
CONTINUOUS
 10
8236.0645719561962
 20
5912.8069763174617
 30
0.0
 11
8247.9488364170702
 21
5917.7295998359859
 31
0.0
 12
8236.0645719561962
 22
5929.6138642968626
 32
0.0
 13
8236.0645719561962
 23
5929.6138642968626
 33
0.0
  0
SOLID
  5
8E1C
  8
SP
  6
CONTINUOUS
 10
8236.0645719561962
 20
5929.6138642968617
 30
0.0
 11
8219.2576839767953
 21
5929.6138642968617
 31
0.0
 12
8236.0645719561962
 22
5912.8069763174617
 32
0.0
 13
8236.0645719561962
 23
5912.8069763174617
 33
0.0
210
0.0
220
0.0
230
1.0
  0
SOLID
  5
8E1D
  8
SP
  6
CONTINUOUS
 10
8224.1803074953186
 20
5917.729599835985
 30
0.0
 11
8236.0645719561962
 21
5912.8069763174617
 31
0.0
 12
8219.2576839767953
 22
5929.6138642968617
 32
0.0
 13
8219.2576839767953
 23
5929.6138642968617
 33
0.0
210
0.0
220
0.0
230
1.0
  0
ENDBLK
  5
8E1F
  8
0
  0
ENDSEC
  0
SECTION
  2
ENTITIES
  0
LINE
  5
522D
  8
CT
 10
4910.2065694410758
 20
7349.6138642968617
 30
0.0
 11
8053.2275276782984
 21
7349.6138642968617
 31
0.0
  0
LINE
  5
522E
  8
CT
 10
6219.8694057084494
 20
8502.2457248102291
 30
0.0
 11
6219.8694057084494
 21
5725.1461803373877
 31
0.0
  0
ARC
  5
5232
  8
KL
 10
6335.8694057084476
 20
7465.6138642968608
 30
0.0
 40
1487.0
 50
270.0
 51
355.52584402394382
  0
ARC
  5
5234
  8
KL
 10
6335.8694057084476
 20
7233.6138642968617
 30
0.0
 40
1255.0
 50
180.0
 51
270.0
  0
ARC
  5
5238
  8
KL
 10
6122.8694057084494
 20
7252.6138642968608
 30
0.0
 40
1042.0
 50
90.0
 51
180.0
  0
ARC
  5
5239
  8
KL
 10
6122.8694057084494
 20
7446.6138642968608
 30
0.0
 40
848.0
 50
56.2952570492711
 51
90.0
  0
LINE
  5
523A
  8
FUTO
 10
6261.8694057084476
 20
8394.6138642968635
 30
0.0
 11
7917.8694057084476
 21
8394.6138642968635
 31
0.0
  0
LINE
  5
523C
  8
KL
 10
6264.8694057084494
 20
8394.6138642968635
 30
0.0
 11
6264.8694057084494
 21
8282.640179672162
 31
0.0
  0
LINE
  5
523D
  8
KL
 10
7818.3379551218923
 20
7349.6138642968626
 30
0.0
 11
7914.8694057084476
 21
8394.6138642968635
 31
0.0
  0
LINE
  5
523F
  8
FUTO
 10
6246.8694057084476
 20
8329.6138642968617
 30
0.0
 11
7926.9416915632537
 21
8329.6138642968617
 31
0.0
  0
LINE
  5
5251
  8
FUTO
 10
6261.8694057084476
 20
8394.6138642968635
 30
0.0
 11
6196.8694057084476
 21
8394.6138642968635
 31
0.0
  0
LINE
  5
5252
  8
FUTO
 10
6261.8694057084476
 20
8394.6138642968635
 30
0.0
 11
6261.8694057084476
 21
8329.6138642968617
 31
0.0
  0
LINE
  5
5253
  8
FUTO
 10
6196.8694057084476
 20
8394.6138642968635
 30
0.0
 11
6196.8694057084476
 21
8392.6138642968617
 31
0.0
  0
LINE
  5
5254
  8
FUTO
 10
6261.8694057084476
 20
8329.6138642968617
 30
0.0
 11
6259.8694057084494
 21
8329.6138642968617
 31
0.0
  0
LINE
  5
5255
  8
FUTO
 10
6255.8694057084476
 20
8380.1138642968635
 30
0.0
 11
6255.8694057084476
 21
8333.6138642968635
 31
0.0
  0
LINE
  5
5256
  8
FUTO
 10
6247.3694057084494
 20
8388.6138642968617
 30
0.0
 11
6200.8694057084494
 21
8388.6138642968617
 31
0.0
  0
ARC
  5
5257
  8
FUTO
 10
6200.8694057084494
 20
8392.6138642968617
 30
0.0
 40
4.0
 50
180.0
 51
270.0
  0
ARC
  5
5258
  8
FUTO
 10
6259.8694057084494
 20
8333.6138642968635
 30
0.0
 40
4.0
 50
180.0
 51
269.9999999999992
  0
ARC
  5
5259
  8
FUTO
 10
6247.3694057084494
 20
8380.1138642968635
 30
0.0
 40
8.5
 50
0.0
 51
90.0
  0
LINE
  5
525A
  8
FUTO
 10
7917.8694057084476
 20
8394.6138642968635
 30
0.0
 11
7917.8694057084476
 21
8329.6138642968617
 31
0.0
  0
LINE
  5
525B
  8
FUTO
 10
7917.8694057084476
 20
8394.6138642968635
 30
0.0
 11
7982.8694057084494
 21
8394.6138642968635
 31
0.0
  0
LINE
  5
525C
  8
FUTO
 10
7917.8694057084476
 20
8329.6138642968617
 30
0.0
 11
7919.8694057084476
 21
8329.6138642968617
 31
0.0
  0
LINE
  5
525D
  8
FUTO
 10
7982.8694057084494
 20
8394.6138642968635
 30
0.0
 11
7982.8694057084494
 21
8392.6138642968617
 31
0.0
  0
LINE
  5
525E
  8
FUTO
 10
7932.3694057084476
 20
8388.6138642968617
 30
0.0
 11
7978.8694057084476
 21
8388.6138642968617
 31
0.0
  0
LINE
  5
525F
  8
FUTO
 10
7923.8694057084476
 20
8380.1138642968635
 30
0.0
 11
7923.8694057084476
 21
8333.6138642968635
 31
0.0
  0
ARC
  5
5260
  8
FUTO
 10
7919.8694057084476
 20
8333.6138642968635
 30
0.0
 40
4.0
 50
270.0
 51
0.0
  0
ARC
  5
5261
  8
FUTO
 10
7978.8694057084476
 20
8392.6138642968617
 30
0.0
 40
4.0
 50
270.0
 51
359.9999999999992
  0
ARC
  5
5262
  8
FUTO
 10
7932.3694057084476
 20
8380.1138642968635
 30
0.0
 40
8.5
 50
90.0
 51
180.0
  0
LINE
  5
5263
  8
FUTO
 10
6261.8694057084476
 20
8388.6138642968617
 30
0.0
 11
7917.8694057084476
 21
8388.6138642968617
 31
0.0
  0
ARC
  5
5264
  8
FUTO
 10
6122.8694057084494
 20
7446.6138642968608
 30
0.0
 40
866.0
 50
81.76768968499718
 51
90.0
  0
LINE
  5
5265
  8
FUTO
 10
6246.8694057084476
 20
8329.6138642968617
 30
0.0
 11
6246.8694057084476
 21
8303.6902902939837
 31
0.0
  0
ARC
  5
5266
  8
FUTO
 10
6122.8694057084494
 20
7252.6138642968608
 30
0.0
 40
1060.0
 50
90.0
 51
174.26082952273319
  0
LINE
  5
5267
  8
KL
 10
5080.8694057084476
 20
7233.6138642968617
 30
0.0
 11
5080.8694057084476
 21
7252.6138642968608
 31
0.0
  0
LINE
  5
5268
  8
FUTO
 10
5062.8694057084494
 20
7233.6138642968617
 30
0.0
 11
5062.8694057084494
 21
7252.6138642968608
 31
0.0
  0
ARC
  5
5269
  8
FUTO
 10
6335.8694057084476
 20
7233.6138642968617
 30
0.0
 40
1273.0
 50
180.0
 51
235.32328429597999
  0
ARC
  5
526A
  8
FUTO
 10
6335.8694057084476
 20
7465.6138642968608
 30
0.0
 40
1505.0
 50
294.8186092054417
 51
306.34329300028338
  0
LINE
  5
526B
  8
FUTO
 10
7837.2459609225389
 20
7358.6138642968617
 30
0.0
 11
7926.9416915632537
 21
8329.6138642968617
 31
0.0
  0
CIRCLE
  5
526C
  8
KL
 10
6602.8694057084504
 20
8166.2144479542139
 30
0.0
 40
17.0
  0
LINE
  5
526D
  8
FUTO
 10
7769.8694057084476
 20
5949.6138642968608
 30
0.0
 11
5269.8694057084476
 21
5949.6138642968608
 31
0.0
  0
LINE
  5
526E
  8
FUTO
 10
7769.8694057084476
 20
6099.6138642968617
 30
0.0
 11
5269.8694057084476
 21
6099.6138642968617
 31
0.0
  0
LINE
  5
526F
  8
FUTO
 10
5269.8694057084476
 20
6099.6138642968617
 30
0.0
 11
5269.8694057084476
 21
5949.6138642968608
 31
0.0
  0
LINE
  5
5270
  8
FUTO
 10
7769.8694057084476
 20
6099.6138642968617
 30
0.0
 11
7769.8694057084476
 21
5949.6138642968617
 31
0.0
  0
LINE
  5
5273
  8
FUTO
 10
5279.8694057084494
 20
7879.6138642968608
 30
0.0
 11
5279.8694057084494
 21
7358.6138642968617
 31
0.0
  0
LINE
  5
5274
  8
FUTO
 10
7159.8694057084476
 20
8329.6138642968617
 30
0.0
 11
7159.8694057084476
 21
7358.6138642968617
 31
0.0
  0
LINE
  5
5275
  8
FUTO
 10
7150.8694057084476
 20
8329.6138642968617
 30
0.0
 11
7150.8694057084476
 21
7358.6138642968617
 31
0.0
  0
LINE
  5
5276
  8
FUTO
 10
5288.8694057084494
 20
7879.6138642968608
 30
0.0
 11
5288.8694057084494
 21
7358.6138642968617
 31
0.0
  0
LINE
  5
5277
  8
FUTO
 10
5279.8694057084494
 20
7879.6138642968608
 30
0.0
 11
5288.8694057084494
 21
7879.6138642968608
 31
0.0
  0
LINE
  5
52EB
  8
CT
 10
7233.4130484233028
 20
6359.6138642968617
 30
0.0
 11
7862.2061261691451
 21
6359.6138642968617
 31
0.0
  0
LINE
  5
52F4
  8
CT
 10
7469.8694057084476
 20
5949.6138642968608
 30
0.0
 11
7469.8694057084476
 21
6589.7118784934637
 31
0.0
  0
LINE
  5
5391
  8
CT
 10
6074.8694057084476
 20
7229.6138642968626
 30
0.0
 11
6074.8694057084476
 21
7303.6138642968617
 31
0.0
  0
LINE
  5
5393
  8
CT
 10
6364.8694057084476
 20
7229.6138642968626
 30
0.0
 11
6364.8694057084476
 21
7303.6138642968617
 31
0.0
  0
ARC
  5
53C8
  8
FUTO
 10
6396.8694057084476
 20
7280.6138642968617
 30
0.0
 40
3.0
 50
0.0
 51
90.0
  0
LINE
  5
53C9
  8
FUTO
 10
6399.8694057084476
 20
7280.6138642968617
 30
0.0
 11
6399.8694057084476
 21
7249.6138642968626
 31
0.0
  0
ARC
  5
53CA
  8
FUTO
 10
6267.3694057084467
 20
7431.8862776563828
 30
0.0
 40
15.00000000000038
 50
325.47193698619282
 51
154.52806301381281
  0
LINE
  5
53CB
  8
FUTO
 10
6235.5510684062501
 20
7443.3106382809883
 30
0.0
 11
6235.5510684062501
 21
7449.6138642968608
 31
0.0
  0
LINE
  5
53CC
  8
FUTO
 10
6204.187743010646
 20
7443.3106382809883
 30
0.0
 11
6204.187743010646
 21
7449.6138642968608
 31
0.0
  0
LINE
  5
53CD
  8
FUTO
 10
6204.187743010646
 20
7449.6138642968626
 30
0.0
 11
6235.5510684062501
 21
7449.6138642968608
 31
0.0
  0
ARC
  5
53CE
  8
FUTO
 10
6219.8694057084467
 20
7349.6138642968617
 30
0.0
 40
95.000000000000057
 50
9.0561260276173101
 51
50.943873972382391
  0
LINE
  5
53CF
  8
FUTO
 10
6314.8694057084476
 20
7334.6138642968617
 30
0.0
 11
6314.8694057084476
 21
7299.6138642968617
 31
0.0
  0
LINE
  5
53D0
  8
FUTO
 10
6309.8694057084494
 20
7249.6138642968626
 30
0.0
 11
6309.8694057084494
 21
7252.6138642968626
 31
0.0
  0
ARC
  5
53D1
  8
FUTO
 10
6330.8694057084476
 20
7299.6138642968617
 30
0.0
 40
16.0
 50
180.0
 51
270.0
  0
ARC
  5
53D2
  8
FUTO
 10
6267.3694057084494
 20
7267.3414509373397
 30
0.0
 40
14.999999999999909
 50
205.47193698618469
 51
34.528063013809451
  0
ARC
  5
53D3
  8
FUTO
 10
6219.8694057084467
 20
7349.6138642968626
 30
0.0
 40
95.000000000000966
 50
309.05612602761738
 51
350.94387397238222
  0
ARC
  5
53D4
  8
FUTO
 10
6314.8694057084476
 20
7349.6138642968617
 30
0.0
 40
15.00000000000011
 50
265.47193698619139
 51
94.528063013808264
  0
LINE
  5
53D5
  8
FUTO
 10
6330.8694057084476
 20
7283.6138642968617
 30
0.0
 11
6396.8694057084476
 21
7283.6138642968617
 31
0.0
  0
ARC
  5
53D7
  8
FUTO
 10
6172.3694057084476
 20
7431.8862776563828
 30
0.0
 40
15.00000000000006
 50
25.471936986186069
 51
214.52806301380949
  0
ARC
  5
53D8
  8
FUTO
 10
6219.8694057084476
 20
7349.6138642968617
 30
0.0
 40
94.999999999999375
 50
129.0561260276167
 51
170.94387397238259
  0
LINE
  5
53D9
  8
FUTO
 10
6124.8694057084476
 20
7334.6138642968617
 30
0.0
 11
6124.8694057084476
 21
7299.6138642968617
 31
0.0
  0
ARC
  5
53DA
  8
FUTO
 10
6172.3694057084476
 20
7267.3414509373397
 30
0.0
 40
14.99999999999978
 50
145.47193698619111
 51
334.52806301381349
  0
LINE
  5
53DB
  8
FUTO
 10
6129.8694057084494
 20
7249.6138642968626
 30
0.0
 11
6129.8694057084494
 21
7252.6138642968626
 31
0.0
  0
ARC
  5
53DC
  8
FUTO
 10
6219.8694057084494
 20
7349.6138642968617
 30
0.0
 40
95.000000000000057
 50
189.05612602761681
 51
230.94387397238239
  0
ARC
  5
53DD
  8
FUTO
 10
6042.8694057084467
 20
7280.6138642968617
 30
0.0
 40
3.0
 50
90.0
 51
180.0
  0
LINE
  5
53DE
  8
FUTO
 10
6039.8694057084467
 20
7280.6138642968617
 30
0.0
 11
6039.8694057084476
 21
7249.6138642968626
 31
0.0
  0
LINE
  5
53DF
  8
FUTO
 10
6108.8694057084494
 20
7283.6138642968617
 30
0.0
 11
6042.8694057084467
 21
7283.6138642968617
 31
0.0
  0
ARC
  5
53E0
  8
FUTO
 10
6108.8694057084494
 20
7299.6138642968617
 30
0.0
 40
16.0
 50
270.0
 51
0.0
  0
LINE
  5
53E1
  8
FUTO
 10
6024.8694057084476
 20
7249.6138642968626
 30
0.0
 11
6414.8694057084476
 21
7249.6138642968626
 31
0.0
  0
ARC
  5
53E2
  8
FUTO
 10
6124.8694057084476
 20
7349.6138642968617
 30
0.0
 40
14.999999999999879
 50
85.471936986191025
 51
274.52806301380912
  0
CIRCLE
  5
53E3
  8
FUTO
 10
6219.8694057084494
 20
7349.6138642968617
 30
0.0
 40
36.5
  0
LINE
  5
53E4
  8
FUTO
 10
6129.8694057084494
 20
7252.6138642968626
 30
0.0
 11
6309.8694057084494
 21
7252.6138642968626
 31
0.0
  0
ARC
  5
53E5
  8
FUTO
 10
6219.8694057084494
 20
7349.6138642968599
 30
0.0
 40
94.999999999998266
 50
249.05612602761619
 51
290.94387397238302
  0
ARC
  5
53E6
  8
FUTO
 10
6219.8694057084467
 20
7349.6138642968626
 30
0.0
 40
94.999999999998053
 50
69.056126027616386
 51
110.94387397238231
  0
LINE
  5
53E7
  8
FUTO
 10
9795.87795579048
 20
7429.6138642968608
 30
0.0
 11
9800.8779557904782
 21
7429.6138642968608
 31
0.0
  0
ARC
  5
53E8
  8
FUTO
 10
9789.87795579048
 20
7438.6138642968626
 30
0.0
 40
6.0
 50
0.0
 51
90.0
  0
LINE
  5
53E9
  8
FUTO
 10
9780.8779557904782
 20
7444.6138642968617
 30
0.0
 11
9789.87795579048
 21
7444.6138642968626
 31
0.0
  0
LINE
  5
53EA
  8
FUTO
 10
9800.8779557904782
 20
7269.6138642968617
 30
0.0
 11
9795.87795579048
 21
7269.6138642968617
 31
0.0
  0
ARC
  5
53EB
  8
FUTO
 10
9789.87795579048
 20
7260.6138642968626
 30
0.0
 40
6.0
 50
270.0
 51
0.0
  0
ARC
  5
53EC
  8
FUTO
 10
9774.8779557904782
 20
7277.6138642968617
 30
0.0
 40
6.0
 50
0.0
 51
90.0
  0
LINE
  5
53ED
  8
FUTO
 10
9789.87795579048
 20
7254.6138642968626
 30
0.0
 11
9780.8779557904782
 21
7254.6138642968626
 31
0.0
  0
LINE
  5
53EE
  8
FUTO
 10
9800.8779557904782
 20
7429.6138642968608
 30
0.0
 11
9800.8779557904782
 21
7269.6138642968617
 31
0.0
  0
LINE
  5
53EF
  8
FUTO
 10
9795.87795579048
 20
7438.6138642968626
 30
0.0
 11
9795.87795579048
 21
7260.6138642968626
 31
0.0
  0
LINE
  5
53F0
  8
FUTO
 10
9780.8779557904782
 20
7249.6138642968626
 30
0.0
 11
9780.8779557904782
 21
7449.6138642968608
 31
0.0
  0
LINE
  5
53F1
  8
FUTO
 10
9680.8779557904782
 20
7444.6138642968617
 30
0.0
 11
9671.8779557904782
 21
7444.6138642968626
 31
0.0
  0
ARC
  5
53F2
  8
FUTO
 10
9671.8779557904782
 20
7438.6138642968626
 30
0.0
 40
6.0
 50
90.0
 51
180.0
  0
LINE
  5
53F3
  8
FUTO
 10
9665.8779557904763
 20
7429.6138642968608
 30
0.0
 11
9660.8779557904782
 21
7429.6138642968608
 31
0.0
  0
ARC
  5
53F4
  8
FUTO
 10
9686.8779557904782
 20
7277.6138642968617
 30
0.0
 40
6.0
 50
90.0
 51
180.0
  0
ARC
  5
53F5
  8
FUTO
 10
9671.8779557904782
 20
7260.6138642968626
 30
0.0
 40
6.0
 50
180.0
 51
270.0
  0
LINE
  5
53F6
  8
FUTO
 10
9671.8779557904782
 20
7254.6138642968626
 30
0.0
 11
9680.8779557904782
 21
7254.6138642968626
 31
0.0
  0
LINE
  5
53F7
  8
FUTO
 10
9660.8779557904782
 20
7269.6138642968617
 30
0.0
 11
9665.8779557904763
 21
7269.6138642968617
 31
0.0
  0
LINE
  5
53F8
  8
FUTO
 10
9665.8779557904763
 20
7438.6138642968626
 30
0.0
 11
9665.8779557904763
 21
7260.6138642968626
 31
0.0
  0
LINE
  5
53F9
  8
FUTO
 10
9660.8779557904782
 20
7429.6138642968608
 30
0.0
 11
9660.8779557904782
 21
7269.6138642968617
 31
0.0
  0
LINE
  5
53FA
  8
FUTO
 10
9680.8779557904782
 20
7449.6138642968608
 30
0.0
 11
9680.8779557904782
 21
7249.6138642968626
 31
0.0
  0
LINE
  5
53FB
  8
FUTO
 10
9780.8779557904782
 20
7449.6138642968608
 30
0.0
 11
9680.8779557904782
 21
7449.6138642968608
 31
0.0
  0
LINE
  5
53FC
  8
FUTO
 10
9675.8779557904782
 20
7249.6138642968626
 30
0.0
 11
9785.8779557904782
 21
7249.6138642968626
 31
0.0
  0
LINE
  5
53FD
  8
FUTO
 10
9774.8779557904782
 20
7283.6138642968617
 30
0.0
 11
9686.8779557904782
 21
7283.6138642968617
 31
0.0
  0
LINE
  5
53FE
  8
KL
 10
6605.5212785991707
 20
7241.6138642968626
 30
0.0
 11
5834.2175328177254
 21
7241.6138642968626
 31
0.0
  0
LINE
  5
53FF
  8
FUTO
 10
6024.8694057084476
 20
7249.6138642968626
 30
0.0
 11
6024.8694057084476
 21
7241.6138642968626
 31
0.0
  0
LINE
  5
5400
  8
FUTO
 10
6414.8694057084476
 20
7249.6138642968626
 30
0.0
 11
6414.8694057084476
 21
7241.6138642968626
 31
0.0
  0
LINE
  5
5405
  8
FUTO
 10
5594.8694057084494
 20
6107.4414113558041
 30
0.0
 11
5594.8694057084494
 21
6099.6138642968617
 31
0.0
  0
LINE
  5
5408
  8
FUTO
 10
5834.2175328177254
 20
7241.6138642968626
 30
0.0
 11
5594.8694057084494
 21
6107.4414113558041
 31
0.0
  0
LINE
  5
540B
  8
KL
 10
6605.5212785991707
 20
7241.6138642968626
 30
0.0
 11
6749.472955192271
 21
6559.486002598429
 31
0.0
  0
LINE
  5
540E
  8
FUTO
 10
6844.8694057084476
 20
6107.4414113558041
 30
0.0
 11
6844.8694057084476
 21
6099.6138642968617
 31
0.0
  0
LINE
  5
5411
  8
FUTO
 10
5594.8694057084494
 20
6099.6138642968617
 30
0.0
 11
5594.8694057084494
 21
5949.6138642968608
 31
0.0
  0
LINE
  5
5412
  8
KL
 10
6019.8694057084476
 20
7358.6138642968617
 30
0.0
 11
6019.8694057084476
 21
7340.6138642968608
 31
0.0
  0
LINE
  5
5413
  8
KL
 10
6419.8694057084476
 20
7358.6138642968617
 30
0.0
 11
6419.8694057084476
 21
7340.6138642968608
 31
0.0
  0
LINE
  5
5414
  8
FUTO
 10
5035.3941047976259
 20
7358.6138642968617
 30
0.0
 11
5839.9759996061566
 21
7358.6138642968617
 31
0.0
  0
LINE
  5
5415
  8
FUTO
 10
5035.3941047976259
 20
7340.6138642968608
 30
0.0
 11
5839.9759996061566
 21
7340.6138642968608
 31
0.0
  0
LINE
  5
5416
  8
KL
 10
6419.8694057084476
 20
7340.6138642968608
 30
0.0
 11
6774.815803227415
 21
7340.6138642968608
 31
0.0
  0
LINE
  5
5417
  8
KL
 10
6419.8694057084476
 20
7358.6138642968617
 30
0.0
 11
6756.2659196348623
 21
7358.6138642968617
 31
0.0
  0
LINE
  5
5418
  8
FUTO
 10
5035.3941047976259
 20
7340.6138642968608
 30
0.0
 11
5035.3941047976259
 21
7358.6138642968617
 31
0.0
  0
LINE
  5
5419
  8
CT
 10
5060.3941047976268
 20
7319.6138642968617
 30
0.0
 11
5060.3941047976268
 21
7379.6138642968608
 31
0.0
  0
ARC
  5
541E
  8
FUTO
 10
6122.8694057084494
 20
7252.6138642968608
 30
0.0
 40
1060.0
 50
175.2378883439155
 51
180.0
  0
LINE
  5
541F
  8
FUTO
 10
5279.8694057084494
 20
7340.6138642968608
 30
0.0
 11
5279.8694057084494
 21
6099.6138642968617
 31
0.0
  0
LINE
  5
5420
  8
FUTO
 10
5288.8694057084494
 20
7340.6138642968608
 30
0.0
 11
5288.8694057084494
 21
6099.6138642968617
 31
0.0
  0
LINE
  5
5421
  8
FUTO
 10
7868.3379551218923
 20
7358.6138642968617
 30
0.0
 11
7868.3379551218923
 21
7340.6138642968608
 31
0.0
  0
LINE
  5
5422
  8
FUTO
 10
7843.3379551218923
 20
7379.6138642968608
 30
0.0
 11
7843.3379551218923
 21
7319.6138642968617
 31
0.0
  0
LINE
  5
5425
  8
FUTO
 10
7159.8694057084476
 20
7340.6138642968608
 30
0.0
 11
7159.8694057084476
 21
6966.9746007361518
 31
0.0
  0
LINE
  5
5426
  8
FUTO
 10
7150.8694057084476
 20
7340.6138642968608
 30
0.0
 11
7150.8694057084476
 21
6975.707809178768
 31
0.0
  0
ARC
  5
543E
  8
FUTO
 10
6335.8694057084476
 20
7465.6138642968608
 30
0.0
 40
1505.0
 50
324.11245044793139
 51
355.2357259540903
  0
CIRCLE
  5
544F
  8
SL
 10
6219.8694057084494
 20
7349.6138642968617
 30
0.0
 40
315.0
  0
ARC
  5
5451
  8
FUTO
 10
6219.8694057084494
 20
7349.6138642968617
 30
0.0
 40
380.0
 50
45.861935230285411
 51
237.37961693434451
  0
CIRCLE
  5
5453
  8
SL
 10
7469.8694057084476
 20
6359.6138642968617
 30
0.0
 40
132.49999999999989
  0
ARC
  5
5454
  8
FUTO
 10
7469.8694057084476
 20
6359.6138642968617
 30
0.0
 40
220.0
 50
237.37961693434451
 51
45.861935230285411
  0
LINE
  5
5455
  8
SL
 10
6442.4184413260209
 20
7572.5419395715762
 30
0.0
 11
7563.4813016428234
 21
6453.3851975473372
 31
0.0
  0
LINE
  5
5456
  8
SL
 10
6053.8446955844647
 20
7081.9185232312266
 30
0.0
 11
7400.03361494201
 21
6247.0118557533806
 31
0.0
  0
LINE
  5
5457
  8
FUTO
 10
6015.0226329218094
 20
7029.5548077480762
 30
0.0
 11
7351.2739056740784
 21
6174.3165157686171
 31
0.0
  0
LINE
  5
5458
  8
FUTO
 10
6484.4975046966119
 20
7622.3261104940393
 30
0.0
 11
7623.0751472279117
 21
6517.4999015689118
 31
0.0
  0
LINE
  5
5459
  8
CT
 10
9331.87795579048
 20
7349.6138642968617
 30
0.0
 11
11981.65586760734
 21
7349.6138642968617
 31
0.0
  0
LINE
  5
545A
  8
CT
 10
11211.877955790471
 20
8717.8452459746786
 30
0.0
 11
11211.877955790471
 21
5733.5314221932331
 31
0.0
  0
LINE
  5
545B
  8
FUTO
 10
11805.877955790471
 20
6099.6138642968617
 30
0.0
 11
9655.8779557904782
 21
6099.6138642968617
 31
0.0
  0
LINE
  5
545C
  8
FUTO
 10
11805.877955790471
 20
5949.6138642968608
 30
0.0
 11
9655.8779557904782
 21
5949.6138642968608
 31
0.0
  0
LINE
  5
5505
  8
FUTO
 10
11805.877955790471
 20
5949.6138642968608
 30
0.0
 11
11880.877955790471
 21
5949.6138642968608
 31
0.0
  0
LINE
  5
5506
  8
FUTO
 10
11816.02933281948
 20
5962.2908969263272
 30
0.0
 11
11877.22657876146
 21
5956.9368316673954
 31
0.0
  0
LINE
  5
5507
  8
FUTO
 10
11805.877955790471
 20
6099.6138642968617
 30
0.0
 11
11880.877955790471
 21
6099.6138642968617
 31
0.0
  0
LINE
  5
5508
  8
FUTO
 10
11816.02933281948
 20
6086.9368316673954
 30
0.0
 11
11877.22657876146
 21
6092.2908969263281
 31
0.0
  0
LINE
  5
5509
  8
FUTO
 10
11812.377955790471
 20
6082.952052875029
 30
0.0
 11
11812.377955790471
 21
5966.2756757186944
 31
0.0
  0
ARC
  5
550A
  8
FUTO
 10
11816.377955790471
 20
5966.2756757186944
 30
0.0
 40
4.0
 50
180.0
 51
264.99999999999989
  0
LINE
  5
550B
  8
FUTO
 10
11805.877955790471
 20
6099.6138642968617
 30
0.0
 11
11805.877955790471
 21
5949.6138642968608
 31
0.0
  0
ARC
  5
550C
  8
FUTO
 10
11816.377955790471
 20
6082.952052875029
 30
0.0
 40
4.0
 50
95.000000000000057
 51
180.0
  0
LINE
  5
550D
  8
FUTO
 10
11880.877955790471
 20
5949.6138642968608
 30
0.0
 11
11880.877955790471
 21
5952.952052875029
 31
0.0
  0
LINE
  5
550E
  8
FUTO
 10
11880.877955790471
 20
6099.6138642968617
 30
0.0
 11
11880.877955790471
 21
6096.2756757186944
 31
0.0
  0
ARC
  5
550F
  8
FUTO
 10
11876.877955790471
 20
6096.2756757186944
 30
0.0
 40
4.0
 50
275.00000000000051
 51
359.9999999999921
  0
ARC
  5
5510
  8
FUTO
 10
11876.877955790471
 20
5952.952052875029
 30
0.0
 40
4.0
 50
0.0000000000078369
 51
84.999999999999503
  0
LINE
  5
5511
  8
FUTO
 10
9655.8779557904782
 20
6099.6138642968617
 30
0.0
 11
9580.8779557904782
 21
6099.6138642968617
 31
0.0
  0
LINE
  5
5512
  8
FUTO
 10
9645.7265787614688
 20
6086.9368316673954
 30
0.0
 11
9584.5293328194894
 21
6092.2908969263281
 31
0.0
  0
LINE
  5
5513
  8
FUTO
 10
9655.8779557904782
 20
5949.6138642968608
 30
0.0
 11
9580.8779557904782
 21
5949.6138642968608
 31
0.0
  0
LINE
  5
5514
  8
FUTO
 10
9645.7265787614688
 20
5962.2908969263272
 30
0.0
 11
9584.5293328194894
 21
5956.9368316673954
 31
0.0
  0
LINE
  5
5515
  8
FUTO
 10
9649.3779557904782
 20
5966.2756757186944
 30
0.0
 11
9649.3779557904782
 21
6082.952052875029
 31
0.0
  0
ARC
  5
5516
  8
FUTO
 10
9645.3779557904782
 20
6082.952052875029
 30
0.0
 40
4.0
 50
0.0
 51
84.999999999999943
  0
LINE
  5
5517
  8
FUTO
 10
9655.8779557904782
 20
5949.6138642968608
 30
0.0
 11
9655.8779557904782
 21
6099.6138642968617
 31
0.0
  0
ARC
  5
5518
  8
FUTO
 10
9645.3779557904782
 20
5966.2756757186944
 30
0.0
 40
4.0
 50
275.0
 51
0.0
  0
LINE
  5
5519
  8
FUTO
 10
9580.8779557904782
 20
6099.6138642968617
 30
0.0
 11
9580.8779557904782
 21
6096.2756757186926
 31
0.0
  0
LINE
  5
551A
  8
FUTO
 10
9580.8779557904782
 20
5949.6138642968608
 30
0.0
 11
9580.8779557904782
 21
5952.952052875029
 31
0.0
  0
ARC
  5
551B
  8
FUTO
 10
9584.8779557904782
 20
5952.952052875029
 30
0.0
 40
4.0
 50
95.000000000000554
 51
179.9999999999921
  0
ARC
  5
551C
  8
FUTO
 10
9584.8779557904782
 20
6096.2756757186944
 30
0.0
 40
4.0
 50
180.00000000000779
 51
264.99999999999949
  0
LINE
  5
551D
  8
FUTO
 10
11805.877955790471
 20
5962.6103642968619
 30
0.0
 11
9655.8779557904782
 21
5962.6103642968619
 31
0.0
  0
LINE
  5
551E
  8
FUTO
 10
11805.877955790471
 20
6086.6173642968633
 30
0.0
 11
9655.8779557904782
 21
6086.6173642968633
 31
0.0
  0
LINE
  5
551F
  8
FUTO
 10
7769.8694057084476
 20
5962.6103642968619
 30
0.0
 11
5269.8694057084476
 21
5962.6103642968619
 31
0.0
  0
LINE
  5
5520
  8
FUTO
 10
7769.8694057084476
 20
6086.6173642968633
 30
0.0
 11
5269.8694057084476
 21
6086.6173642968633
 31
0.0
  0
LINE
  5
5521
  8
FUTO
 10
10552.877955790471
 20
8394.6138642968635
 30
0.0
 11
11870.877955790471
 21
8394.6138642968635
 31
0.0
  0
LINE
  5
5522
  8
FUTO
 10
10621.877955790471
 20
8394.6138642968635
 30
0.0
 11
10621.877955790471
 21
7358.6138642968617
 31
0.0
  0
LINE
  5
5523
  8
FUTO
 10
11801.877955790471
 20
8394.6138642968635
 30
0.0
 11
11801.877955790471
 21
7358.6138642968617
 31
0.0
  0
LINE
  5
5524
  8
FUTO
 10
11805.07795579047
 20
8394.6138642968635
 30
0.0
 11
11805.07795579047
 21
7358.6138642968617
 31
0.0
  0
LINE
  5
5525
  8
FUTO
 10
10618.67795579047
 20
8394.6138642968635
 30
0.0
 11
10618.67795579047
 21
7358.6138642968617
 31
0.0
  0
LINE
  5
5526
  8
FUTO
 10
10543.67795579047
 20
8329.6138642968617
 30
0.0
 11
11880.077955790481
 21
8329.6138642968617
 31
0.0
  0
LINE
  5
5527
  8
FUTO
 10
10552.877955790471
 20
8388.6138642968617
 30
0.0
 11
11870.877955790471
 21
8388.6138642968617
 31
0.0
  0
LINE
  5
5528
  8
FUTO
 10
10552.877955790471
 20
8394.6138642968635
 30
0.0
 11
10552.877955790471
 21
8329.6138642968617
 31
0.0
  0
LINE
  5
5529
  8
FUTO
 10
11870.877955790471
 20
8394.6138642968635
 30
0.0
 11
11870.877955790471
 21
8329.6138642968617
 31
0.0
  0
LINE
  5
552A
  8
FUTO
 10
11880.077955790481
 20
8329.6138642968617
 30
0.0
 11
11880.077955790481
 21
7368.6138642968654
 31
0.0
  0
LINE
  5
552B
  8
FUTO
 10
10543.677955790479
 20
8329.6138642968617
 30
0.0
 11
10543.677955790479
 21
7368.6138642968608
 31
0.0
  0
LINE
  5
552C
  8
KL
 10
10621.877955790471
 20
5978.6138642968608
 30
0.0
 11
11801.877955790471
 21
5978.6138642968608
 31
0.0
  0
LINE
  5
552D
  8
KL
 10
10618.677955790479
 20
5960.6138642968617
 30
0.0
 11
10621.877955790471
 21
5960.6138642968617
 31
0.0
  0
LINE
  5
552E
  8
KL
 10
11801.877955790471
 20
5960.6138642968617
 30
0.0
 11
11805.07795579047
 21
5960.6138642968617
 31
0.0
  0
LINE
  5
552F
  8
KL
 10
10621.877955790471
 20
6099.6138642968626
 30
0.0
 11
10621.877955790471
 21
5960.6138642968617
 31
0.0
  0
LINE
  5
5530
  8
KL
 10
10618.67795579047
 20
6099.6138642968626
 30
0.0
 11
10618.67795579047
 21
5960.6138642968617
 31
0.0
  0
LINE
  5
5531
  8
KL
 10
11801.877955790471
 20
6099.6138642968617
 30
0.0
 11
11801.877955790471
 21
5960.6138642968617
 31
0.0
  0
LINE
  5
5532
  8
KL
 10
11805.07795579047
 20
6099.6138642968617
 30
0.0
 11
11805.07795579047
 21
5960.6138642968617
 31
0.0
  0
LINE
  5
5533
  8
CT
 10
10410.877955790471
 20
7509.9808223328246
 30
0.0
 11
10410.877955790471
 21
7177.9347735593292
 31
0.0
  0
LINE
  5
5534
  8
CT
 10
9730.8779557904782
 20
7509.9808223328246
 30
0.0
 11
9730.8779557904782
 21
7177.9347735593292
 31
0.0
  0
LINE
  5
5537
  8
CT
 10
10365.877955790471
 20
7281.5567210761319
 30
0.0
 11
10365.877955790471
 21
7191.556721076131
 31
0.0
  0
LINE
  5
5538
  8
CT
 10
10455.877955790471
 20
7281.5567210761319
 30
0.0
 11
10455.877955790471
 21
7191.556721076131
 31
0.0
  0
LINE
  5
5548
  8
FUTO
 10
10438.377955790471
 20
7469.6138642968617
 30
0.0
 11
10474.877955790471
 21
7469.6138642968617
 31
0.0
  0
LINE
  5
5549
  8
FUTO
 10
10438.377955790471
 20
7482.6138642968617
 30
0.0
 11
10438.377955790471
 21
7269.6138642968617
 31
0.0
  0
LINE
  5
554A
  8
FUTO
 10
10383.377955790471
 20
7482.6138642968617
 30
0.0
 11
10383.377955790471
 21
7269.6138642968617
 31
0.0
  0
ARC
  5
554B
  8
FUTO
 10
10477.877955790471
 20
7266.6138642968617
 30
0.0
 40
3.0
 50
0.0
 51
90.0
  0
ARC
  5
554C
  8
FUTO
 10
10343.877955790471
 20
7266.6138642968617
 30
0.0
 40
3.0
 50
90.000000000000028
 51
180.0
  0
LINE
  5
554D
  8
FUTO
 10
10488.877955790471
 20
7469.6138642968617
 30
0.0
 11
10474.877955790471
 21
7469.6138642968617
 31
0.0
  0
LINE
  5
554E
  8
FUTO
 10
10464.877955790471
 20
7482.6138642968617
 30
0.0
 11
10464.877955790471
 21
7469.6138642968617
 31
0.0
  0
LINE
  5
554F
  8
FUTO
 10
10346.877955790471
 20
7469.6138642968617
 30
0.0
 11
10383.377955790471
 21
7469.6138642968617
 31
0.0
  0
LINE
  5
5550
  8
FUTO
 10
10356.877955790471
 20
7482.6138642968617
 30
0.0
 11
10356.877955790471
 21
7469.6138642968617
 31
0.0
  0
LINE
  5
5551
  8
FUTO
 10
10332.877955790471
 20
7469.6138642968617
 30
0.0
 11
10346.877955790471
 21
7469.6138642968617
 31
0.0
  0
LINE
  5
5552
  8
FUTO
 10
10356.877955790471
 20
7482.6138642968617
 30
0.0
 11
10464.877955790471
 21
7482.6138642968617
 31
0.0
  0
LINE
  5
5553
  8
FUTO
 10
10488.877955790471
 20
7229.6138642968617
 30
0.0
 11
10480.877955790471
 21
7229.6138642968617
 31
0.0
  0
LINE
  5
5554
  8
FUTO
 10
10496.877955790471
 20
7269.6138642968617
 30
0.0
 11
10488.877955790471
 21
7249.6138642968608
 31
0.0
  0
LINE
  5
5555
  8
FUTO
 10
10480.877955790471
 20
7266.6138642968617
 30
0.0
 11
10480.877955790471
 21
7219.6138642968617
 31
0.0
  0
LINE
  5
5556
  8
FUTO
 10
10496.877955790471
 20
7429.6138642968608
 30
0.0
 11
10496.877955790471
 21
7269.6138642968617
 31
0.0
  0
LINE
  5
5557
  8
FUTO
 10
10332.877955790471
 20
7229.6138642968617
 30
0.0
 11
10340.877955790471
 21
7229.6138642968617
 31
0.0
  0
LINE
  5
5558
  8
FUTO
 10
10324.877955790471
 20
7269.6138642968617
 30
0.0
 11
10332.877955790471
 21
7249.6138642968608
 31
0.0
  0
LINE
  5
5559
  8
FUTO
 10
10340.877955790471
 20
7266.6138642968617
 30
0.0
 11
10340.877955790471
 21
7219.6138642968617
 31
0.0
  0
LINE
  5
555A
  8
FUTO
 10
10324.877955790471
 20
7429.6138642968608
 30
0.0
 11
10324.877955790471
 21
7269.6138642968617
 31
0.0
  0
LINE
  5
555B
  8
FUTO
 10
10343.877955790471
 20
7269.6138642968617
 30
0.0
 11
10477.877955790471
 21
7269.6138642968617
 31
0.0
  0
LINE
  5
555C
  8
FUTO
 10
10330.877955790471
 20
7219.6138642968617
 30
0.0
 11
10490.877955790471
 21
7219.6138642968617
 31
0.0
  0
LINE
  5
555D
  8
FUTO
 10
10474.877955790471
 20
7469.6138642968617
 30
0.0
 11
10474.877955790471
 21
7269.6138642968617
 31
0.0
  0
LINE
  5
555E
  8
FUTO
 10
10488.877955790471
 20
7469.6138642968617
 30
0.0
 11
10488.877955790471
 21
7229.6138642968617
 31
0.0
  0
LINE
  5
555F
  8
FUTO
 10
10496.877955790471
 20
7429.6138642968608
 30
0.0
 11
10488.877955790471
 21
7449.6138642968608
 31
0.0
  0
LINE
  5
5560
  8
FUTO
 10
10324.877955790471
 20
7429.6138642968608
 30
0.0
 11
10332.877955790471
 21
7449.6138642968608
 31
0.0
  0
LINE
  5
5561
  8
FUTO
 10
10332.877955790471
 20
7469.6138642968617
 30
0.0
 11
10332.877955790471
 21
7229.6138642968617
 31
0.0
  0
LINE
  5
5562
  8
FUTO
 10
10474.877955790471
 20
7469.6138642968617
 30
0.0
 11
10474.877955790471
 21
7269.6138642968617
 31
0.0
  0
LINE
  5
5563
  8
FUTO
 10
10346.877955790471
 20
7469.6138642968617
 30
0.0
 11
10346.877955790471
 21
7269.6138642968617
 31
0.0
  0
LINE
  5
55BF
  8
FUTO
 10
9805.8779557904782
 20
7241.6138642968617
 30
0.0
 11
9655.8779557904782
 21
7241.6138642968626
 31
0.0
  0
LINE
  5
55C1
  8
FUTO
 10
9805.8779557904782
 20
7241.6138642968617
 30
0.0
 11
9805.8779557904782
 21
7201.6138642968608
 31
0.0
  0
LINE
  5
55C6
  8
FUTO
 10
9655.8779557904782
 20
7241.6138642968626
 30
0.0
 11
9655.8779557904782
 21
6099.6138642968617
 31
0.0
  0
LINE
  5
55CC
  8
FUTO
 10
9675.8779557904782
 20
7249.6138642968626
 30
0.0
 11
9675.8779557904782
 21
7241.6138642968626
 31
0.0
  0
LINE
  5
55CD
  8
FUTO
 10
9785.8779557904782
 20
7249.6138642968626
 30
0.0
 11
9785.8779557904782
 21
7241.6138642968617
 31
0.0
  0
LINE
  5
55DF
  8
FUTO
 10
10320.877955790471
 20
7211.6138642968617
 30
0.0
 11
10500.877955790471
 21
7211.6138642968617
 31
0.0
  0
LINE
  5
55E0
  8
FUTO
 10
10500.877955790471
 20
7211.6138642968617
 30
0.0
 11
10500.877955790471
 21
6099.6138642968626
 31
0.0
  0
LINE
  5
55E6
  8
FUTO
 10
10320.877955790471
 20
7211.6138642968617
 30
0.0
 11
10320.877955790471
 21
7201.6138642968608
 31
0.0
  0
LINE
  5
55ED
  8
FUTO
 10
10330.877955790471
 20
7219.6138642968617
 30
0.0
 11
10330.877955790471
 21
7211.6138642968617
 31
0.0
  0
LINE
  5
55EE
  8
FUTO
 10
10490.877955790471
 20
7219.6138642968617
 30
0.0
 11
10490.877955790471
 21
7211.6138642968617
 31
0.0
  0
LINE
  5
55F3
  8
FUTO
 10
10320.877955790471
 20
7201.6138642968608
 30
0.0
 11
9805.8779557904782
 21
7201.6138642968608
 31
0.0
  0
LINE
  5
5600
  8
FUTO
 10
10553.67795579047
 20
7358.6138642968617
 30
0.0
 11
11870.07795579047
 21
7358.6138642968617
 31
0.0
  0
LINE
  5
5601
  8
FUTO
 10
10553.67795579047
 20
7340.6138642968608
 30
0.0
 11
11870.07795579047
 21
7340.6138642968608
 31
0.0
  0
LINE
  5
5602
  8
FUTO
 10
10553.67795579047
 20
7358.6138642968617
 30
0.0
 11
10553.677955790479
 21
7340.6138642968608
 31
0.0
  0
LINE
  5
5603
  8
FUTO
 10
10621.877955790471
 20
7340.6138642968608
 30
0.0
 11
10621.877955790471
 21
6099.6138642968617
 31
0.0
  0
LINE
  5
5604
  8
FUTO
 10
10618.67795579047
 20
7340.6138642968608
 30
0.0
 11
10618.677955790479
 21
6099.6138642968617
 31
0.0
  0
LINE
  5
5605
  8
FUTO
 10
11805.07795579047
 20
7340.6138642968608
 30
0.0
 11
11805.07795579047
 21
6099.6138642968617
 31
0.0
  0
LINE
  5
5606
  8
FUTO
 10
11801.877955790471
 20
7340.6138642968608
 30
0.0
 11
11801.877955790471
 21
6099.6138642968617
 31
0.0
  0
LINE
  5
5608
  8
FUTO
 10
11870.07795579047
 20
7358.6138642968626
 30
0.0
 11
11880.077955790481
 21
7368.6138642968654
 31
0.0
  0
LINE
  5
5609
  8
FUTO
 10
11870.07795579047
 20
7340.6138642968608
 30
0.0
 11
11880.077955790481
 21
7330.6138642968608
 31
0.0
  0
LINE
  5
560A
  8
FUTO
 10
11880.077955790481
 20
7330.6138642968608
 30
0.0
 11
11880.077955790481
 21
6099.6138642968617
 31
0.0
  0
LINE
  5
560B
  8
FUTO
 10
10553.67795579047
 20
7358.6138642968617
 30
0.0
 11
10543.677955790479
 21
7368.6138642968608
 31
0.0
  0
LINE
  5
560C
  8
FUTO
 10
10553.67795579047
 20
7340.6138642968608
 30
0.0
 11
10543.67795579047
 21
7330.6138642968626
 31
0.0
  0
LINE
  5
560D
  8
FUTO
 10
10543.67795579047
 20
7330.6138642968626
 30
0.0
 11
10543.67795579047
 21
6099.6138642968617
 31
0.0
  0
LINE
  5
560E
  8
SL
 10
9470.8779557904818
 20
7664.6138642968617
 30
0.0
 11
9470.8779557904745
 21
6227.1138642968608
 31
0.0
  0
LINE
  5
560F
  8
SL
 10
9470.8779557904818
 20
7664.6138642968617
 30
0.0
 11
9548.7779557904796
 21
7664.6138642968617
 31
0.0
  0
LINE
  5
5610
  8
SL
 10
9470.8779557904763
 20
7034.6138642968617
 30
0.0
 11
9548.7779557904778
 21
7034.6138642968617
 31
0.0
  0
LINE
  5
5611
  8
SL
 10
9548.7779557904796
 20
7664.6138642968617
 30
0.0
 11
9548.7779557904796
 21
7429.6138642968608
 31
0.0
  0
LINE
  5
5613
  8
SL
 10
9570.8779557904782
 20
7429.6138642968608
 30
0.0
 11
9570.8779557904782
 21
7269.6138642968617
 31
0.0
  0
LINE
  5
5614
  8
SL
 10
9548.7779557904796
 20
7429.6138642968608
 30
0.0
 11
9570.8779557904782
 21
7429.6138642968608
 31
0.0
  0
LINE
  5
5615
  8
SL
 10
9548.7779557904796
 20
7269.6138642968617
 30
0.0
 11
9570.8779557904782
 21
7269.6138642968617
 31
0.0
  0
LINE
  5
5616
  8
SL
 10
9548.7779557904796
 20
7269.6138642968617
 30
0.0
 11
9548.7779557904778
 21
7034.6138642968617
 31
0.0
  0
LINE
  5
5617
  8
CT
 10
9331.8779557904745
 20
6359.6138642968617
 30
0.0
 11
9647.8779557904782
 21
6359.6138642968617
 31
0.0
  0
LINE
  5
5618
  8
SL
 10
9470.8779557904745
 20
6492.1138642968608
 30
0.0
 11
9548.7779557904742
 21
6492.1138642968608
 31
0.0
  0
LINE
  5
5619
  8
SL
 10
9470.8779557904745
 20
6227.1138642968608
 30
0.0
 11
9548.7779557904742
 21
6227.1138642968608
 31
0.0
  0
LINE
  5
561A
  8
SL
 10
9548.7779557904796
 20
7664.6138642968617
 30
0.0
 11
9548.7779557904742
 21
6429.6138642968608
 31
0.0
  0
LINE
  5
561B
  8
SL
 10
9568.8779557904763
 20
6429.6138642968608
 30
0.0
 11
9568.8779557904763
 21
6289.6138642968608
 31
0.0
  0
LINE
  5
561C
  8
SL
 10
9548.7779557904742
 20
6429.6138642968608
 30
0.0
 11
9568.8779557904763
 21
6429.6138642968608
 31
0.0
  0
LINE
  5
561D
  8
SL
 10
9548.7779557904742
 20
6289.6138642968608
 30
0.0
 11
9568.8779557904745
 21
6289.6138642968608
 31
0.0
  0
LINE
  5
561E
  8
SL
 10
9548.7779557904742
 20
6289.6138642968608
 30
0.0
 11
9548.7779557904742
 21
6227.1138642968608
 31
0.0
  0
LINE
  5
561F
  8
FUTO
 10
9331.87795579048
 20
7729.6138642968617
 30
0.0
 11
9620.8779557904782
 21
7729.6138642968617
 31
0.0
  0
LINE
  5
5620
  8
FUTO
 10
9331.8779557904745
 20
6139.6138642968626
 30
0.0
 11
9620.8779557904818
 21
6139.6138642968617
 31
0.0
  0
LINE
  5
5621
  8
FUTO
 10
9331.87795579048
 20
7729.6138642968617
 30
0.0
 11
9331.8779557904745
 21
6139.6138642968617
 31
0.0
  0
LINE
  5
5622
  8
FUTO
 10
9620.8779557904782
 20
7729.6138642968617
 30
0.0
 11
9620.8779557904818
 21
6139.6138642968617
 31
0.0
  0
LINE
  5
5623
  8
FUTO
 10
9800.8779557904782
 20
7399.6138642968617
 30
0.0
 11
10324.877955790471
 21
7399.6138642968617
 31
0.0
  0
LINE
  5
5624
  8
FUTO
 10
9800.8779557904782
 20
7299.6138642968617
 30
0.0
 11
10324.877955790471
 21
7299.6138642968617
 31
0.0
  0
LINE
  5
5625
  8
KL
 10
10496.877955790471
 20
7399.6138642968617
 30
0.0
 11
10618.67795579047
 21
7399.6138642968617
 31
0.0
  0
LINE
  5
5626
  8
KL
 10
10496.877955790471
 20
7299.6138642968617
 30
0.0
 11
10618.67795579047
 21
7299.6138642968626
 31
0.0
  0
LINE
  5
5627
  8
FUTO
 10
9570.8779557904782
 20
7392.1138642968608
 30
0.0
 11
9660.8779557904782
 21
7392.1138642968608
 31
0.0
  0
LINE
  5
5628
  8
FUTO
 10
9570.8779557904782
 20
7307.1138642968617
 30
0.0
 11
9660.8779557904782
 21
7307.1138642968617
 31
0.0
  0
LINE
  5
5694
  8
FUTO
 10
7769.8694057084476
 20
9730.9510017303164
 30
0.0
 11
5594.8694057084494
 21
9730.9510017303164
 31
0.0
  0
LINE
  5
5695
  8
FUTO
 10
7169.8694057084476
 20
12030.951001730309
 30
0.0
 11
5269.8694057084476
 21
12030.951001730309
 31
0.0
  0
LINE
  5
5696
  8
FUTO
 10
5269.8694057084476
 20
12030.951001730309
 30
0.0
 11
5269.8694057084476
 21
12005.951001730309
 31
0.0
  0
LINE
  5
5699
  8
FUTO
 10
7917.8694057084476
 20
10767.951001730309
 30
0.0
 11
6261.8694057084476
 21
10767.951001730309
 31
0.0
  0
LINE
  5
569A
  8
FUTO
 10
7769.8694057084476
 20
10692.951001730309
 30
0.0
 11
5269.8694057084476
 21
10692.951001730309
 31
0.0
  0
LINE
  5
569B
  8
FUTO
 10
7769.8694057084476
 20
9805.9510017303146
 30
0.0
 11
5594.8694057084494
 21
9805.9510017303146
 31
0.0
  0
LINE
  5
569C
  8
FUTO
 10
7917.8694057084476
 20
11955.951001730309
 30
0.0
 11
6261.8694057084476
 21
11955.951001730309
 31
0.0
  0
LINE
  5
56A0
  8
FUTO
 10
5594.8694057084494
 20
10692.951001730309
 30
0.0
 11
5594.8694057084494
 21
9730.9510017303164
 31
0.0
  0
LINE
  5
56A2
  8
FUTO
 10
5669.8694057084494
 20
10692.951001730309
 30
0.0
 11
5669.8694057084494
 21
9805.9510017303146
 31
0.0
  0
LINE
  5
56A4
  8
FUTO
 10
6844.8694057084476
 20
10692.951001730309
 30
0.0
 11
6844.8694057084476
 21
9805.9510017303146
 31
0.0
  0
LINE
  5
56A6
  8
FUTO
 10
7169.8694057084476
 20
12030.951001730309
 30
0.0
 11
7169.8694057084476
 21
12020.951001730309
 31
0.0
  0
LINE
  5
56A7
  8
FUTO
 10
6769.8694057084476
 20
10692.951001730309
 30
0.0
 11
6769.8694057084476
 21
9805.9510017303146
 31
0.0
  0
LINE
  5
56A8
  8
FUTO
 10
7769.8694057084476
 20
10702.951001730309
 30
0.0
 11
7769.8694057084476
 21
10692.951001730309
 31
0.0
  0
LINE
  5
56A9
  8
FUTO
 10
7769.8694057084476
 20
9805.9510017303146
 30
0.0
 11
7769.8694057084476
 21
9730.9510017303164
 31
0.0
  0
LINE
  5
56AA
  8
CT
 10
7469.8694057084476
 20
10642.951001730309
 30
0.0
 11
7469.8694057084476
 21
9225.4941738556936
 31
0.0
  0
LINE
  5
56AC
  8
FUTO
 10
7659.8694057084476
 20
10692.951001730309
 30
0.0
 11
7659.8694057084476
 21
10368.489559358461
 31
0.0
  0
LINE
  5
56AD
  8
FUTO
 10
7594.8694057084476
 20
10692.951001730309
 30
0.0
 11
7594.8694057084476
 21
10420.451001730309
 31
0.0
  0
LINE
  5
56AE
  8
FUTO
 10
7344.8694057084476
 20
10692.951001730309
 30
0.0
 11
7344.8694057084476
 21
10420.451001730309
 31
0.0
  0
LINE
  5
56AF
  8
FUTO
 10
7279.8694057084467
 20
10692.951001730309
 30
0.0
 11
7279.8694057084467
 21
10361.350964730311
 31
0.0
  0
LINE
  5
56B0
  8
CT
 10
7994.4558659878703
 20
11361.951001730309
 30
0.0
 11
4869.3534037783847
 21
11361.951001730309
 31
0.0
  0
LINE
  5
69CC
  8
CT
 10
11781.877955790471
 20
8189.6138642968617
 30
0.0
 11
11825.07795579047
 21
8189.6138642968617
 31
0.0
  0
DIMENSION
  5
6A61
  8
SP
  2
*D3
 10
6219.8694057084494
 20
5529.1015541137594
 30
0.0
 11
5744.8694057084494
 21
5616.6015541137594
 31
0.0
 70
     0
 13
5269.8694057084476
 23
5779.6138642968617
 33
0.0
 14
6219.8694057084494
 24
5779.6138642968617
 34
0.0
1001
ACAD
1000
DSTYLE
1002
{
1070
    40
1040
35.0
1070
   147
1040
1.0
1070
    41
1040
2.5
1002
}
  0
DIMENSION
  5
6A6E
  8
SP
  2
*D4
 10
7769.8694057084476
 20
5529.1015541137594
 30
0.0
 11
6994.8694057084476
 21
5616.6015541137594
 31
0.0
 70
     0
 13
6219.8694057084494
 23
5779.6138642968617
 33
0.0
 14
7769.8694057084476
 24
5779.6138642968617
 34
0.0
1001
ACAD
1000
DSTYLE
1002
{
1070
    40
1040
35.0
1070
   147
1040
1.0
1070
    41
1040
2.5
1002
}
  0
DIMENSION
  5
6A7B
  8
SP
  2
*D5
 10
7769.8694057084476
 20
5279.013810116101
 30
0.0
 11
6519.8694057084476
 21
5366.513810116101
 31
0.0
 70
     0
 13
5269.8694057084476
 23
5779.6138642968617
 33
0.0
 14
7769.8694057084476
 24
5779.6138642968617
 34
0.0
1001
ACAD
1000
DSTYLE
1002
{
1070
    40
1040
35.0
1070
   147
1040
1.0
1070
    41
1040
2.5
1002
}
  0
DIMENSION
  5
6A88
  8
SP
  2
*D6
 10
11211.877955790471
 20
5529.1015307259204
 30
0.0
 11
10396.377955790471
 21
5616.6015307259213
 31
0.0
 70
     0
 13
9580.8779557904782
 23
5779.6138642968608
 33
0.0
 14
11211.877955790471
 24
5779.6138642968617
 34
0.0
1001
ACAD
1000
DSTYLE
1002
{
1070
    40
1040
35.0
1070
   147
1040
1.0
1070
    41
1040
2.5
1002
}
  0
DIMENSION
  5
6A95
  8
SP
  2
*D7
 10
11880.877955790471
 20
5529.1015307259204
 30
0.0
 11
11546.377955790471
 21
5616.6015307259213
 31
0.0
 70
     0
 13
11211.877955790471
 23
5779.6138642968617
 33
0.0
 14
11880.877955790471
 24
5779.6138642968608
 34
0.0
1001
ACAD
1000
DSTYLE
1002
{
1070
    40
1040
35.0
1070
   147
1040
1.0
1070
    41
1040
2.5
1002
}
  0
DIMENSION
  5
6AA2
  8
SP
  2
*D8
 10
11880.877955790471
 20
5279.0137867282629
 30
0.0
 11
10730.877955790471
 21
5366.5137867282629
 31
0.0
 70
     0
 13
9580.8779557904782
 23
5779.6138642968608
 33
0.0
 14
11880.877955790471
 24
5779.6138642968608
 34
0.0
1001
ACAD
1000
DSTYLE
1002
{
1070
    40
1040
35.0
1070
   147
1040
1.0
1070
    41
1040
2.5
1002
}
  0
LINE
  5
6AB0
  8
SP
 10
11211.877955790471
 20
8671.8728664257123
 30
0.0
 11
11211.877955790471
 21
8706.8728664257105
 31
0.0
  0
LINE
  5
6ADF
  8
FUTO
 10
11936.877955790471
 20
8214.6138642968635
 30
0.0
 11
11936.877955790471
 21
6484.6138642968608
 31
0.0
  0
LINE
  5
6AE1
  8
KL
 10
11805.07795579047
 20
8149.6138642968617
 30
0.0
 11
11936.877955790471
 21
8149.6138642968617
 31
0.0
  0
LINE
  5
6AE5
  8
KL
 10
11805.07795579047
 20
8214.6138642968635
 30
0.0
 11
11811.07795579047
 21
8214.6138642968635
 31
0.0
  0
LINE
  5
6AE7
  8
FUTO
 10
11930.877955790471
 20
8214.6138642968635
 30
0.0
 11
11930.877955790471
 21
6484.6138642968608
 31
0.0
  0
LINE
  5
6AE8
  8
FUTO
 10
11880.077955790481
 20
8155.6138642968617
 30
0.0
 11
11930.877955790471
 21
8155.6138642968617
 31
0.0
  0
LINE
  5
6AEA
  8
KL
 10
11811.07795579047
 20
8214.6138642968635
 30
0.0
 11
11811.07795579047
 21
7358.6138642968617
 31
0.0
  0
LINE
  5
6AEB
  8
FUTO
 10
11930.877955790471
 20
8214.6138642968635
 30
0.0
 11
11936.877955790471
 21
8214.6138642968635
 31
0.0
  0
LINE
  5
6AEC
  8
CT
 10
11911.877955790471
 20
8189.6138642968617
 30
0.0
 11
11955.07795579047
 21
8189.6138642968617
 31
0.0
  0
LINE
  5
6AED
  8
KL
 10
11805.07795579047
 20
6549.6138642968617
 30
0.0
 11
11936.877955790471
 21
6549.6138642968617
 31
0.0
  0
LINE
  5
6AEE
  8
CT
 10
11781.877955790471
 20
6509.6138642968608
 30
0.0
 11
11825.07795579047
 21
6509.6138642968608
 31
0.0
  0
LINE
  5
6AEF
  8
KL
 10
11805.07795579047
 20
6484.6138642968608
 30
0.0
 11
11811.07795579047
 21
6484.6138642968608
 31
0.0
  0
LINE
  5
6AF0
  8
CT
 10
11911.877955790471
 20
6509.6138642968608
 30
0.0
 11
11955.07795579047
 21
6509.6138642968608
 31
0.0
  0
LINE
  5
6AF1
  8
FUTO
 10
11880.077955790481
 20
6543.6138642968617
 30
0.0
 11
11930.877955790471
 21
6543.6138642968617
 31
0.0
  0
LINE
  5
6AF2
  8
FUTO
 10
11930.877955790471
 20
6484.6138642968608
 30
0.0
 11
11936.877955790471
 21
6484.6138642968608
 31
0.0
  0
LINE
  5
6AF3
  8
KL
 10
11811.07795579047
 20
7340.6138642968608
 30
0.0
 11
11811.07795579047
 21
6484.6138642968608
 31
0.0
  0
DIMENSION
  5
6B00
  8
SP
  2
*D9
 10
11936.877955790471
 20
8717.8452459746786
 30
0.0
 11
11574.377955790471
 21
8805.3452459746786
 31
0.0
 70
     0
 13
11211.877955790471
 23
8671.8728664257123
 33
0.0
 14
11936.877955790471
 24
8214.6138642968635
 34
0.0
1001
ACAD
1000
DSTYLE
1002
{
1070
    40
1040
35.0
1070
   147
1040
1.0
1070
    41
1040
2.5
1002
}
  0
LINE
  5
6E16
  8
SL
 10
9822.0979418448933
 20
7201.6138642968626
 30
0.0
 11
9822.0979418448933
 21
7506.4312229004508
 31
0.0
  0
LINE
  5
6E17
  8
SL
 10
9822.0979418448933
 20
7506.4312229004508
 30
0.0
 11
10308.053314273649
 21
7506.4312229004508
 31
0.0
  0
LINE
  5
6E18
  8
SL
 10
10308.053314273649
 20
7506.4312229004508
 30
0.0
 11
10308.053314273649
 21
7201.6138642968608
 31
0.0
  0
INSERT
  5
6E51
  8
FUTO
  2
右回転矢印
 10
6009.3637059371658
 20
7962.4151885441006
 30
0.0
 41
-35.0
 42
35.0
 43
35.0
  0
INSERT
  5
6EE2
  8
FUTO
  2
まっすぐの矢印
 10
6616.786906379044
 20
8625.500388040693
 30
0.0
 41
35.0
 42
35.0
 43
35.0
  0
INSERT
  5
6EEC
  8
FUTO
  2
まっすぐの矢印
 10
11983.345935361631
 20
7877.3155646404257
 30
0.0
 41
35.0
 42
35.0
 43
35.0
 50
90.0
  0
DIMENSION
  5
6F64
  8
SP
  2
*D10
 10
12216.07135699235
 20
6549.6138642968617
 30
0.0
 11
12128.57135699235
 21
7349.6138642968626
 31
0.0
 70
     0
 13
11936.877955790471
 23
8149.6138642968617
 33
0.0
 14
11936.877955790471
 24
6549.6138642968617
 34
0.0
 50
90.0
1001
ACAD
1000
DSTYLE
1002
{
1070
    40
1040
35.0
1070
     3
1000
φ<>
1070
   147
1040
1.0
1070
    41
1040
2.5
1002
}
  0
DIMENSION
  5
6FB2
  8
SP
  2
*D11
 10
11211.877955790471
 20
8717.8452459746786
 30
0.0
 11
10271.877955790471
 21
8805.3452459746786
 31
0.0
 70
     0
 13
9331.87795579048
 23
7729.6138642968617
 33
0.0
 14
11211.877955790471
 24
8717.8452459746786
 34
0.0
1001
ACAD
1000
DSTYLE
1002
{
1070
    40
1040
35.0
1070
    41
1040
2.5
1070
   147
1040
1.0
1002
}
  0
LINE
  5
6FD7
  8
CT
 10
6219.8694057084494
 20
9481.9510017303146
 30
0.0
 11
6219.8694057084494
 21
12131.728913547169
 31
0.0
  0
LINE
  5
6FDA
  8
FUTO
 10
5839.8694057084476
 20
9481.9510017303146
 30
0.0
 11
7673.3694057084494
 21
9481.9510017303128
 31
0.0
  0
LINE
  5
6FDB
  8
FUTO
 10
5839.8694057084476
 20
9770.9510017303146
 30
0.0
 11
7673.3694057084494
 21
9770.9510017303164
 31
0.0
  0
LINE
  5
6FDC
  8
SL
 10
5904.8694057084494
 20
9698.8510017303161
 30
0.0
 11
7337.3694057084494
 21
9698.8510017303106
 31
0.0
  0
LINE
  5
6FDD
  8
SL
 10
5904.8694057084494
 20
9620.9510017303146
 30
0.0
 11
7602.3694057084476
 21
9620.951001730311
 31
0.0
  0
LINE
  5
6FE5
  8
SL
 10
7337.3694057084504
 20
9718.9510017303091
 30
0.0
 11
7602.3694057084476
 21
9718.9510017303091
 31
0.0
  0
LINE
  5
6FE8
  8
FUTO
 10
5839.8694057084476
 20
9481.9510017303146
 30
0.0
 11
5839.8694057084476
 21
9770.9510017303146
 31
0.0
  0
LINE
  5
6FE9
  8
SL
 10
6299.8694057084494
 20
9698.8510017303142
 30
0.0
 11
6299.8694057084494
 21
9720.9510017303146
 31
0.0
  0
LINE
  5
6FEA
  8
SL
 10
6139.8694057084494
 20
9698.8510017303161
 30
0.0
 11
6139.8694057084494
 21
9720.9510017303146
 31
0.0
  0
LINE
  5
6FEB
  8
SL
 10
5904.8694057084494
 20
9698.8510017303161
 30
0.0
 11
6139.8694057084494
 21
9698.8510017303161
 31
0.0
  0
LINE
  5
6FEC
  8
SL
 10
6299.8694057084494
 20
9698.8510017303161
 30
0.0
 11
6534.8694057084476
 21
9698.8510017303142
 31
0.0
  0
LINE
  5
6FED
  8
SL
 10
6534.8694057084476
 20
9620.9510017303146
 30
0.0
 11
6534.8694057084476
 21
9698.8510017303142
 31
0.0
  0
LINE
  5
6FEE
  8
SL
 10
5904.8694057084494
 20
9620.9510017303146
 30
0.0
 11
5904.8694057084494
 21
9698.8510017303161
 31
0.0
  0
LINE
  5
6FF1
  8
FUTO
 10
6269.8694057084476
 20
9950.9510017303146
 30
0.0
 11
6269.8694057084476
 21
10474.951001730309
 31
0.0
  0
LINE
  5
6FF2
  8
FUTO
 10
6169.8694057084494
 20
9950.9510017303146
 30
0.0
 11
6169.8694057084494
 21
10474.951001730309
 31
0.0
  0
LINE
  5
6FF5
  8
CT
 10
6059.5024476724848
 20
9880.9510017303164
 30
0.0
 11
6391.548496445982
 21
9880.9510017303164
 31
0.0
  0
LINE
  5
6FF6
  8
FUTO
 10
6119.8694057084494
 20
9830.9510017303164
 30
0.0
 11
6319.8694057084476
 21
9830.9510017303164
 31
0.0
  0
ARC
  5
6FF7
  8
FUTO
 10
6308.8694057084494
 20
9821.9510017303146
 30
0.0
 40
6.0
 50
270.0
 51
0.0
  0
LINE
  5
6FF8
  8
FUTO
 10
6319.8694057084476
 20
9930.9510017303146
 30
0.0
 11
6119.8694057084494
 21
9930.9510017303146
 31
0.0
  0
ARC
  5
6FF9
  8
FUTO
 10
6308.8694057084494
 20
9939.9510017303146
 30
0.0
 40
6.0
 50
0.0
 51
90.0
  0
LINE
  5
6FFD
  8
FUTO
 10
6314.8694057084476
 20
9821.9510017303146
 30
0.0
 11
6314.8694057084476
 21
9830.9510017303164
 31
0.0
  0
LINE
  5
7000
  8
FUTO
 10
6314.8694057084476
 20
9939.9510017303146
 30
0.0
 11
6314.8694057084476
 21
9930.9510017303146
 31
0.0
  0
ARC
  5
7001
  8
FUTO
 10
6130.8694057084476
 20
9821.9510017303146
 30
0.0
 40
6.0
 50
180.0
 51
270.0
  0
ARC
  5
7002
  8
FUTO
 10
6130.8694057084476
 20
9939.9510017303146
 30
0.0
 40
6.0
 50
90.0
 51
180.0
  0
LINE
  5
7004
  8
FUTO
 10
6262.3694057084476
 20
9720.9510017303146
 30
0.0
 11
6262.3694057084476
 21
9810.9510017303164
 31
0.0
  0
LINE
  5
7005
  8
FUTO
 10
6177.3694057084476
 20
9720.9510017303146
 30
0.0
 11
6177.3694057084476
 21
9810.9510017303164
 31
0.0
  0
LINE
  5
7006
  8
SL
 10
6139.8694057084494
 20
9720.9510017303146
 30
0.0
 11
6299.8694057084494
 21
9720.9510017303146
 31
0.0
  0
LINE
  5
7007
  8
FUTO
 10
6139.8694057084494
 20
9810.9510017303164
 30
0.0
 11
6299.8694057084494
 21
9810.9510017303164
 31
0.0
  0
LINE
  5
7008
  8
FUTO
 10
6130.8694057084476
 20
9815.9510017303146
 30
0.0
 11
6308.8694057084467
 21
9815.9510017303146
 31
0.0
  0
LINE
  5
7009
  8
FUTO
 10
6299.8694057084494
 20
9810.9510017303164
 30
0.0
 11
6299.8694057084494
 21
9815.9510017303146
 31
0.0
  0
LINE
  5
700B
  8
FUTO
 10
6139.8694057084494
 20
9815.9510017303146
 30
0.0
 11
6139.8694057084494
 21
9810.9510017303164
 31
0.0
  0
LINE
  5
700C
  8
FUTO
 10
6130.8694057084476
 20
9945.9510017303146
 30
0.0
 11
6308.8694057084467
 21
9945.9510017303146
 31
0.0
  0
LINE
  5
700D
  8
FUTO
 10
6139.8694057084494
 20
9950.9510017303146
 30
0.0
 11
6299.8694057084494
 21
9950.9510017303146
 31
0.0
  0
LINE
  5
700F
  8
FUTO
 10
6299.8694057084494
 20
9950.9510017303146
 30
0.0
 11
6299.8694057084494
 21
9945.9510017303146
 31
0.0
  0
LINE
  5
7010
  8
FUTO
 10
6139.8694057084494
 20
9945.9510017303146
 30
0.0
 11
6139.8694057084494
 21
9950.9510017303146
 31
0.0
  0
LINE
  5
7011
  8
FUTO
 10
6119.8694057084494
 20
9930.9510017303146
 30
0.0
 11
6119.8694057084494
 21
9830.9510017303164
 31
0.0
  0
LINE
  5
7012
  8
FUTO
 10
6124.8694057084476
 20
9830.9510017303164
 30
0.0
 11
6124.8694057084476
 21
9821.9510017303146
 31
0.0
  0
LINE
  5
7013
  8
FUTO
 10
6124.8694057084476
 20
9930.9510017303146
 30
0.0
 11
6124.8694057084476
 21
9939.9510017303146
 31
0.0
  0
LINE
  5
7015
  8
FUTO
 10
6099.8694057084494
 20
10482.951001730309
 30
0.0
 11
6339.8694057084476
 21
10482.951001730309
 31
0.0
  0
LINE
  5
7016
  8
FUTO
 10
6099.8694057084494
 20
10638.951001730309
 30
0.0
 11
6339.8694057084476
 21
10638.951001730309
 31
0.0
  0
LINE
  5
7018
  8
FUTO
 10
6299.8694057084494
 20
10474.951001730309
 30
0.0
 11
6319.8694057084476
 21
10482.951001730309
 31
0.0
  0
LINE
  5
701A
  8
FUTO
 10
6299.8694057084494
 20
10646.951001730309
 30
0.0
 11
6319.8694057084476
 21
10638.951001730309
 31
0.0
  0
LINE
  5
701D
  8
CT
 10
6059.5024476724848
 20
10560.951001730309
 30
0.0
 11
6391.548496445982
 21
10560.951001730309
 31
0.0
  0
LINE
  5
7022
  8
FUTO
 10
6339.8694057084476
 20
10482.951001730309
 30
0.0
 11
6339.8694057084476
 21
10490.951001730309
 31
0.0
  0
LINE
  5
7024
  8
FUTO
 10
6339.8694057084476
 20
10638.951001730309
 30
0.0
 11
6339.8694057084476
 21
10630.951001730309
 31
0.0
  0
LINE
  5
7026
  8
FUTO
 10
6086.8694057084494
 20
10506.951001730309
 30
0.0
 11
6086.8694057084494
 21
10614.951001730309
 31
0.0
  0
LINE
  5
7027
  8
FUTO
 10
6099.8694057084494
 20
10496.951001730309
 30
0.0
 11
6339.8694057084476
 21
10496.951001730309
 31
0.0
  0
LINE
  5
7028
  8
FUTO
 10
6139.8694057084494
 20
10474.951001730309
 30
0.0
 11
6119.8694057084494
 21
10482.951001730309
 31
0.0
  0
LINE
  5
7029
  8
FUTO
 10
6086.8694057084494
 20
10533.451001730309
 30
0.0
 11
6352.8694057084494
 21
10533.451001730309
 31
0.0
  0
LINE
  5
702A
  8
FUTO
 10
6139.8694057084494
 20
10474.951001730309
 30
0.0
 11
6299.8694057084494
 21
10474.951001730309
 31
0.0
  0
LINE
  5
702C
  8
FUTO
 10
6099.8694057084494
 20
10482.951001730309
 30
0.0
 11
6099.8694057084494
 21
10496.951001730309
 31
0.0
  0
LINE
  5
702D
  8
FUTO
 10
6086.8694057084494
 20
10506.951001730309
 30
0.0
 11
6099.8694057084494
 21
10506.951001730309
 31
0.0
  0
LINE
  5
702E
  8
FUTO
 10
6099.8694057084494
 20
10496.951001730309
 30
0.0
 11
6099.8694057084494
 21
10533.451001730309
 31
0.0
  0
LINE
  5
702F
  8
FUTO
 10
6099.8694057084494
 20
10624.951001730309
 30
0.0
 11
6299.8694057084494
 21
10624.951001730309
 31
0.0
  0
LINE
  5
7030
  8
FUTO
 10
6139.8694057084494
 20
10646.951001730309
 30
0.0
 11
6119.8694057084494
 21
10638.951001730309
 31
0.0
  0
LINE
  5
7031
  8
FUTO
 10
6099.8694057084494
 20
10624.951001730309
 30
0.0
 11
6339.8694057084476
 21
10624.951001730309
 31
0.0
  0
LINE
  5
7032
  8
FUTO
 10
6086.8694057084494
 20
10588.451001730309
 30
0.0
 11
6352.8694057084494
 21
10588.451001730309
 31
0.0
  0
LINE
  5
7033
  8
KL
 10
6269.8694057084476
 20
10646.951001730309
 30
0.0
 11
6269.8694057084476
 21
10768.75100173031
 31
0.0
  0
LINE
  5
7034
  8
KL
 10
6169.8694057084494
 20
10646.951001730309
 30
0.0
 11
6169.8694057084494
 21
10768.75100173031
 31
0.0
  0
LINE
  5
7035
  8
FUTO
 10
6139.8694057084494
 20
10646.951001730309
 30
0.0
 11
6299.8694057084494
 21
10646.951001730309
 31
0.0
  0
LINE
  5
703A
  8
FUTO
 10
6086.8694057084494
 20
10614.951001730309
 30
0.0
 11
6099.8694057084494
 21
10614.951001730309
 31
0.0
  0
LINE
  5
703B
  8
FUTO
 10
6099.8694057084494
 20
10638.951001730309
 30
0.0
 11
6099.8694057084494
 21
10624.951001730309
 31
0.0
  0
LINE
  5
703C
  8
FUTO
 10
6099.8694057084494
 20
10588.451001730309
 30
0.0
 11
6099.8694057084494
 21
10624.951001730309
 31
0.0
  0
LINE
  5
703F
  8
KL
 10
6228.8694057084476
 20
11961.15100173031
 30
0.0
 11
7084.8694057084494
 21
11961.15100173031
 31
0.0
  0
LINE
  5
7040
  8
FUTO
 10
5354.8694057084476
 20
12080.951001730309
 30
0.0
 11
7084.8694057084494
 21
12080.951001730309
 31
0.0
  0
LINE
  5
7041
  8
FUTO
 10
5354.8694057084476
 20
12086.951001730309
 30
0.0
 11
7084.8694057084494
 21
12086.951001730309
 31
0.0
  0
LINE
  5
7045
  8
KL
 10
7084.8694057084494
 20
11955.15100173031
 30
0.0
 11
7084.8694057084494
 21
11961.15100173031
 31
0.0
  0
LINE
  5
7046
  8
FUTO
 10
7084.8694057084494
 20
12080.951001730309
 30
0.0
 11
7084.8694057084494
 21
12086.951001730309
 31
0.0
  0
LINE
  5
7047
  8
FUTO
 10
7025.8694057084476
 20
12030.15100173031
 30
0.0
 11
7025.8694057084476
 21
12080.951001730309
 31
0.0
  0
LINE
  5
7048
  8
KL
 10
7019.8694057084476
 20
11955.15100173031
 30
0.0
 11
7019.8694057084476
 21
12086.951001730309
 31
0.0
  0
LINE
  5
7049
  8
CT
 10
7059.8694057084494
 20
11931.951001730309
 30
0.0
 11
7059.8694057084494
 21
11975.15100173031
 31
0.0
  0
LINE
  5
704A
  8
CT
 10
7059.8694057084494
 20
12061.951001730309
 30
0.0
 11
7059.8694057084494
 21
12105.15100173031
 31
0.0
  0
LINE
  5
704E
  8
KL
 10
5354.8694057084476
 20
11961.15100173031
 30
0.0
 11
6210.8694057084476
 21
11961.15100173031
 31
0.0
  0
INSERT
  5
7052
  8
FUTO
  2
まっすぐの矢印
 10
5963.0081534174788
 20
12133.418981301469
 30
0.0
 41
35.0
 42
35.0
 43
35.0
 50
180.0
  0
LINE
  5
7053
  8
FUTO
 10
5413.8694057084494
 20
12030.15100173031
 30
0.0
 11
5413.8694057084494
 21
12080.951001730309
 31
0.0
  0
LINE
  5
7054
  8
KL
 10
5419.8694057084494
 20
11955.15100173031
 30
0.0
 11
5419.8694057084494
 21
12086.951001730309
 31
0.0
  0
LINE
  5
7055
  8
CT
 10
5379.8694057084467
 20
11931.951001730309
 30
0.0
 11
5379.8694057084467
 21
11975.15100173031
 31
0.0
  0
LINE
  5
7056
  8
CT
 10
5379.8694057084467
 20
12061.951001730309
 30
0.0
 11
5379.8694057084467
 21
12105.15100173031
 31
0.0
  0
LINE
  5
7057
  8
KL
 10
5354.8694057084476
 20
11955.15100173031
 30
0.0
 11
5354.8694057084476
 21
11961.15100173031
 31
0.0
  0
LINE
  5
7058
  8
FUTO
 10
5354.8694057084476
 20
12080.951001730309
 30
0.0
 11
5354.8694057084476
 21
12086.951001730309
 31
0.0
  0
LINE
  5
7096
  8
FUTO
 10
6319.8694057084476
 20
9930.9510017303146
 30
0.0
 11
6319.8694057084476
 21
9830.9510017303164
 31
0.0
  0
LINE
  5
7097
  8
FUTO
 10
6352.8694057084494
 20
10506.951001730309
 30
0.0
 11
6352.8694057084494
 21
10614.951001730309
 31
0.0
  0
LINE
  5
7098
  8
FUTO
 10
6339.8694057084476
 20
10496.951001730309
 30
0.0
 11
6339.8694057084476
 21
10533.451001730309
 31
0.0
  0
LINE
  5
7099
  8
FUTO
 10
6352.8694057084494
 20
10506.951001730309
 30
0.0
 11
6339.8694057084476
 21
10506.951001730309
 31
0.0
  0
LINE
  5
709A
  8
FUTO
 10
6339.8694057084476
 20
10482.951001730309
 30
0.0
 11
6339.8694057084476
 21
10496.951001730309
 31
0.0
  0
LINE
  5
709B
  8
FUTO
 10
6339.8694057084476
 20
10588.451001730309
 30
0.0
 11
6339.8694057084476
 21
10624.951001730309
 31
0.0
  0
LINE
  5
709C
  8
FUTO
 10
6339.8694057084476
 20
10638.951001730309
 30
0.0
 11
6339.8694057084476
 21
10624.951001730309
 31
0.0
  0
LINE
  5
709D
  8
FUTO
 10
6352.8694057084494
 20
10614.951001730309
 30
0.0
 11
6339.8694057084476
 21
10614.951001730309
 31
0.0
  0
ARC
  5
7D1A
  8
FUTO
 10
7469.8694057084476
 20
9721.9510017303091
 30
0.0
 40
9.0
 50
0.000000000000007
 51
180.0
  0
LINE
  5
7D1B
  8
FUTO
 10
7478.8694057084476
 20
9620.951001730311
 30
0.0
 11
7478.8694057084476
 21
9721.9510017303091
 31
0.0
  0
LINE
  5
7D1C
  8
FUTO
 10
7460.8694057084494
 20
9620.951001730311
 30
0.0
 11
7460.8694057084494
 21
9721.9510017303091
 31
0.0
  0
LINE
  5
7D1D
  8
FUTO
 10
7726.8693447084488
 20
10135.45094073031
 30
0.0
 11
7726.8693447084488
 21
10171.451001730309
 31
0.0
  0
LINE
  5
7D1E
  8
FUTO
 10
7729.8693447084488
 20
10135.45094073031
 30
0.0
 11
7729.8693447084488
 21
10171.451001730309
 31
0.0
  0
LINE
  5
7D1F
  8
FUTO
 10
7721.8693447084488
 20
10135.45094073031
 30
0.0
 11
7721.8693447084488
 21
10182.451001730309
 31
0.0
  0
LINE
  5
7D20
  8
FUTO
 10
7679.8694057084494
 20
9796.451001730311
 30
0.0
 11
7679.8694057084476
 21
9843.326001730311
 31
0.0
  0
LINE
  5
7D21
  8
FUTO
 10
7627.5610407039721
 20
9791.4510017303128
 30
0.0
 11
7674.8694057084494
 21
9791.4510017303128
 31
0.0
  0
ARC
  5
7D22
  8
FUTO
 10
7674.8694057084494
 20
9796.451001730311
 30
0.0
 40
5.0
 50
270.0
 51
0.000000000000007
  0
LINE
  5
7D23
  8
FUTO
 10
7659.5507509268773
 20
9843.326001730311
 30
0.0
 11
7679.8694057084476
 21
9843.326001730311
 31
0.0
  0
LINE
  5
7D24
  8
FUTO
 10
7679.8694057084476
 20
9841.4510017303128
 30
0.0
 11
7726.8693447084488
 21
9841.4510017303128
 31
0.0
  0
LINE
  5
7D25
  8
FUTO
 10
7679.8694057084476
 20
9838.4510017303128
 30
0.0
 11
7729.8693447084488
 21
9838.4510017303128
 31
0.0
  0
LINE
  5
7D26
  8
FUTO
 10
7659.65987927673
 20
9846.451001730311
 30
0.0
 11
7721.8693447084488
 21
9846.451001730311
 31
0.0
  0
LINE
  5
7D27
  8
FUTO
 10
7721.8693447084488
 20
9846.451001730311
 30
0.0
 11
7726.8693447084488
 21
9841.4510017303128
 31
0.0
  0
LINE
  5
7D28
  8
FUTO
 10
7754.8693447084488
 20
9881.4510017303128
 30
0.0
 11
7754.8693447084488
 21
9921.451001730311
 31
0.0
  0
LINE
  5
7D29
  8
FUTO
 10
7724.8693447084488
 20
9881.4510017303128
 30
0.0
 11
7724.8693447084488
 21
9921.451001730311
 31
0.0
  0
LINE
  5
7D2A
  8
FUTO
 10
7754.8693447084488
 20
9921.451001730311
 30
0.0
 11
7724.8693447084488
 21
9921.451001730311
 31
0.0
  0
LINE
  5
7D2B
  8
FUTO
 10
7724.8693447084488
 20
9881.4510017303128
 30
0.0
 11
7754.8693447084488
 21
9881.4510017303128
 31
0.0
  0
LINE
  5
7D2C
  8
CT
 10
7673.3694057084494
 20
9901.451001730311
 30
0.0
 11
7840.9237877084488
 21
9901.451001730311
 31
0.0
  0
LINE
  5
7D2D
  8
FUTO
 10
7829.3238127084487
 20
9919.0408457303147
 30
0.0
 11
7817.2238367084492
 21
9919.0408457303147
 31
0.0
  0
LINE
  5
7D2E
  8
FUTO
 10
7829.3238127084487
 20
9883.861158730313
 30
0.0
 11
7817.2238367084492
 21
9883.861158730313
 31
0.0
  0
LINE
  5
7D2F
  8
FUTO
 10
7829.3238127084487
 20
9911.1560797303136
 30
0.0
 11
7817.2238367084492
 21
9911.1560797303136
 31
0.0
  0
LINE
  5
7D30
  8
FUTO
 10
7829.3238127084487
 20
9891.7459237303119
 30
0.0
 11
7817.2238367084492
 21
9891.7459237303119
 31
0.0
  0
LINE
  5
7D31
  8
FUTO
 10
7830.9237877084479
 20
9917.4412367303103
 30
0.0
 11
7830.9237877084479
 21
9885.4617437303132
 31
0.0
  0
LINE
  5
7D32
  8
FUTO
 10
7829.3238127084487
 20
9883.861158730313
 30
0.0
 11
7830.9237877084479
 21
9885.4617437303132
 31
0.0
  0
LINE
  5
7D33
  8
FUTO
 10
7829.3238127084487
 20
9891.7459237303119
 30
0.0
 11
7830.9237877084479
 21
9890.1463147303111
 31
0.0
  0
LINE
  5
7D34
  8
FUTO
 10
7829.3238127084487
 20
9891.7459237303119
 30
0.0
 11
7830.9237877084479
 21
9893.3465097303142
 31
0.0
  0
LINE
  5
7D35
  8
FUTO
 10
7830.9237877084479
 20
9917.4412367303103
 30
0.0
 11
7829.3238127084487
 21
9919.0408457303147
 31
0.0
  0
LINE
  5
7D36
  8
FUTO
 10
7829.3238127084487
 20
9911.1560797303136
 30
0.0
 11
7830.9237877084479
 21
9912.7566657303123
 31
0.0
  0
LINE
  5
7D37
  8
FUTO
 10
7829.3238127084487
 20
9911.1560797303136
 30
0.0
 11
7830.9237877084479
 21
9909.5564707303129
 31
0.0
  0
LINE
  5
7D38
  8
FUTO
 10
7817.2238367084492
 20
9919.0408457303147
 30
0.0
 11
7817.2238367084492
 21
9883.861158730313
 31
0.0
  0
LINE
  5
7D39
  8
FUTO
 10
7817.2238367084492
 20
9892.451001730311
 30
0.0
 11
7754.8693447084488
 21
9892.451001730311
 31
0.0
  0
LINE
  5
7D3A
  8
HOSO
 10
7754.8693447084488
 20
9894.4510017303128
 30
0.0
 11
7817.2238977084489
 21
9894.4510017303128
 31
0.0
  0
LINE
  5
7D3B
  8
HOSO
 10
7817.2238367084492
 20
9908.4510017303128
 30
0.0
 11
7754.8693447084488
 21
9908.4510017303128
 31
0.0
  0
LINE
  5
7D3C
  8
FUTO
 10
7754.8693447084488
 20
9910.4510017303128
 30
0.0
 11
7817.2238977084489
 21
9910.4510017303128
 31
0.0
  0
LINE
  5
7D3D
  8
FUTO
 10
7724.8693447084488
 20
9892.451001730311
 30
0.0
 11
7673.3694057084494
 21
9892.451001730311
 31
0.0
  0
LINE
  5
7D3E
  8
HOSO
 10
7673.3694057084494
 20
9894.4510017303128
 30
0.0
 11
7724.8693447084488
 21
9894.4510017303128
 31
0.0
  0
LINE
  5
7D3F
  8
FUTO
 10
7673.3694057084494
 20
9910.4510017303128
 30
0.0
 11
7724.8693447084488
 21
9910.4510017303128
 31
0.0
  0
LINE
  5
7D40
  8
HOSO
 10
7724.8693447084488
 20
9908.4510017303128
 30
0.0
 11
7673.3694057084494
 21
9908.4510017303128
 31
0.0
  0
LINE
  5
7D41
  8
FUTO
 10
7729.8693447084488
 20
9838.4510017303128
 30
0.0
 11
7729.8693447084488
 21
9881.4510017303128
 31
0.0
  0
LINE
  5
7D42
  8
FUTO
 10
7726.8693447084488
 20
9841.4510017303128
 30
0.0
 11
7726.8693447084488
 21
9881.4510017303128
 31
0.0
  0
LINE
  5
7D43
  8
FUTO
 10
7721.8693447084488
 20
9846.451001730311
 30
0.0
 11
7721.8693447084488
 21
9892.451001730311
 31
0.0
  0
LINE
  5
7D44
  8
FUTO
 10
7729.8693447084488
 20
9921.4510017303128
 30
0.0
 11
7729.8693447084488
 21
9957.4510017303128
 31
0.0
  0
LINE
  5
7D45
  8
FUTO
 10
7726.8693447084488
 20
9921.451001730311
 30
0.0
 11
7726.8693447084488
 21
9957.4510017303128
 31
0.0
  0
LINE
  5
7D46
  8
FUTO
 10
7721.8693447084488
 20
9910.4510017303128
 30
0.0
 11
7721.8693447084488
 21
9957.4510017303128
 31
0.0
  0
LINE
  5
7D47
  8
FUTO
 10
7754.8693447084488
 20
10182.451001730309
 30
0.0
 11
7817.2238977084489
 21
10182.451001730309
 31
0.0
  0
LINE
  5
7D48
  8
HOSO
 10
7817.2238367084492
 20
10184.451001730309
 30
0.0
 11
7754.8693447084488
 21
10184.451001730309
 31
0.0
  0
LINE
  5
7D49
  8
HOSO
 10
7754.8693447084488
 20
10198.451001730309
 30
0.0
 11
7817.2238977084489
 21
10198.451001730309
 31
0.0
  0
LINE
  5
7D4A
  8
FUTO
 10
7817.2238367084492
 20
10200.451001730309
 30
0.0
 11
7754.8693447084488
 21
10200.451001730309
 31
0.0
  0
LINE
  5
7D4B
  8
FUTO
 10
7817.2238367084492
 20
10173.861157730311
 30
0.0
 11
7817.2238367084492
 21
10209.040844730311
 31
0.0
  0
LINE
  5
7D4C
  8
FUTO
 10
7829.3238127084487
 20
10181.74592373031
 30
0.0
 11
7830.9237877084479
 21
10183.345532730311
 31
0.0
  0
LINE
  5
7D4D
  8
FUTO
 10
7829.3238127084487
 20
10181.74592373031
 30
0.0
 11
7830.9237877084479
 21
10180.14533773031
 31
0.0
  0
LINE
  5
7D4E
  8
FUTO
 10
7830.9237877084479
 20
10175.46076673031
 30
0.0
 11
7829.3238127084487
 21
10173.861157730311
 31
0.0
  0
LINE
  5
7D4F
  8
FUTO
 10
7829.3238127084487
 20
10201.15607973031
 30
0.0
 11
7830.9237877084479
 21
10199.55549373031
 31
0.0
  0
LINE
  5
7D50
  8
FUTO
 10
7829.3238127084487
 20
10201.15607973031
 30
0.0
 11
7830.9237877084479
 21
10202.755688730311
 31
0.0
  0
LINE
  5
7D51
  8
FUTO
 10
7829.3238127084487
 20
10209.040844730311
 30
0.0
 11
7830.9237877084479
 21
10207.440259730311
 31
0.0
  0
LINE
  5
7D52
  8
FUTO
 10
7830.9237877084479
 20
10175.46076673031
 30
0.0
 11
7830.9237877084479
 21
10207.440259730311
 31
0.0
  0
LINE
  5
7D53
  8
FUTO
 10
7829.3238127084487
 20
10201.15607973031
 30
0.0
 11
7817.2238367084492
 21
10201.15607973031
 31
0.0
  0
LINE
  5
7D54
  8
FUTO
 10
7829.3238127084487
 20
10181.74592373031
 30
0.0
 11
7817.2238367084492
 21
10181.74592373031
 31
0.0
  0
LINE
  5
7D55
  8
FUTO
 10
7829.3238127084487
 20
10209.040844730311
 30
0.0
 11
7817.2238367084492
 21
10209.040844730311
 31
0.0
  0
LINE
  5
7D56
  8
FUTO
 10
7829.3238127084487
 20
10173.861157730311
 30
0.0
 11
7817.2238367084492
 21
10173.861157730311
 31
0.0
  0
LINE
  5
7D57
  8
FUTO
 10
7724.8693447084488
 20
10211.451001730309
 30
0.0
 11
7754.8693447084488
 21
10211.451001730309
 31
0.0
  0
LINE
  5
7D58
  8
FUTO
 10
7754.8693447084488
 20
10171.451001730309
 30
0.0
 11
7724.8693447084488
 21
10171.451001730309
 31
0.0
  0
LINE
  5
7D59
  8
FUTO
 10
7724.8693447084488
 20
10211.451001730309
 30
0.0
 11
7724.8693447084488
 21
10171.451001730309
 31
0.0
  0
LINE
  5
7D5A
  8
FUTO
 10
7754.8693447084488
 20
10211.451001730309
 30
0.0
 11
7754.8693447084488
 21
10171.451001730309
 31
0.0
  0
LINE
  5
7D5B
  8
HOSO
 10
7724.8693447084488
 20
10184.451001730309
 30
0.0
 11
7673.3694057084494
 21
10184.451001730309
 31
0.0
  0
LINE
  5
7D5C
  8
FUTO
 10
7673.3694057084494
 20
10182.451001730309
 30
0.0
 11
7724.8693447084488
 21
10182.451001730309
 31
0.0
  0
LINE
  5
7D5D
  8
HOSO
 10
7673.3694057084494
 20
10198.451001730309
 30
0.0
 11
7724.8693447084488
 21
10198.451001730309
 31
0.0
  0
LINE
  5
7D5E
  8
FUTO
 10
7724.8693447084488
 20
10200.451001730309
 30
0.0
 11
7673.3694057084494
 21
10200.451001730309
 31
0.0
  0
LINE
  5
7D5F
  8
CT
 10
7673.3694057084494
 20
10191.451001730309
 30
0.0
 11
7840.9237877084488
 21
10191.451001730309
 31
0.0
  0
LINE
  5
7D60
  8
FUTO
 10
7721.8693447084488
 20
10246.451001730309
 30
0.0
 11
7726.8693447084488
 21
10251.451001730309
 31
0.0
  0
LINE
  5
7D61
  8
FUTO
 10
7679.8694057084476
 20
10254.451001730309
 30
0.0
 11
7729.8693447084488
 21
10254.451001730309
 31
0.0
  0
LINE
  5
7D62
  8
FUTO
 10
7679.8694057084476
 20
10251.451001730309
 30
0.0
 11
7726.8693447084488
 21
10251.451001730309
 31
0.0
  0
LINE
  5
7D63
  8
FUTO
 10
7673.3694057084476
 20
10249.576001730309
 30
0.0
 11
7679.8694057084476
 21
10249.576001730309
 31
0.0
  0
LINE
  5
7D64
  8
FUTO
 10
7673.3694057084494
 20
10246.451001730309
 30
0.0
 11
7721.8693447084488
 21
10246.451001730309
 31
0.0
  0
LINE
  5
7D65
  8
FUTO
 10
7721.8693447084488
 20
10246.451001730309
 30
0.0
 11
7721.8693447084488
 21
10200.451001730309
 31
0.0
  0
LINE
  5
7D66
  8
FUTO
 10
7726.8693447084488
 20
10251.451001730309
 30
0.0
 11
7726.8693447084488
 21
10211.451001730309
 31
0.0
  0
LINE
  5
7D67
  8
FUTO
 10
7729.8693447084488
 20
10254.451001730309
 30
0.0
 11
7729.8693447084488
 21
10211.451001730309
 31
0.0
  0
ARC
  5
7D68
  8
FUTO
 10
7674.8694057084494
 20
10296.451001730309
 30
0.0
 40
5.0
 50
0.000000000000007
 51
90.000000000000028
  0
LINE
  5
7D69
  8
FUTO
 10
7679.8694057084494
 20
10296.451001730309
 30
0.0
 11
7679.8694057084476
 21
10249.576001730309
 31
0.0
  0
LINE
  5
7D6A
  8
FUTO
 10
7662.3694057084494
 20
10301.451001730309
 30
0.0
 11
7674.8694057084494
 21
10301.451001730309
 31
0.0
  0
LINE
  5
7D6B
  8
CT
 10
7266.3694057084494
 20
10191.451001730309
 30
0.0
 11
7098.8150237084501
 21
10191.451001730309
 31
0.0
  0
LINE
  5
7D6C
  8
FUTO
 10
7214.8694667084483
 20
10200.451001730309
 30
0.0
 11
7266.3694057084504
 21
10200.451001730309
 31
0.0
  0
LINE
  5
7D6D
  8
HOSO
 10
7266.3694057084504
 20
10198.451001730309
 30
0.0
 11
7214.8694667084483
 21
10198.451001730309
 31
0.0
  0
LINE
  5
7D6E
  8
FUTO
 10
7266.3694057084504
 20
10182.451001730309
 30
0.0
 11
7214.8694667084483
 21
10182.451001730309
 31
0.0
  0
LINE
  5
7D6F
  8
HOSO
 10
7214.8694667084483
 20
10184.451001730309
 30
0.0
 11
7266.3694057084504
 21
10184.451001730309
 31
0.0
  0
LINE
  5
7D70
  8
FUTO
 10
7184.8694667084483
 20
10211.451001730309
 30
0.0
 11
7184.8694667084483
 21
10171.451001730309
 31
0.0
  0
LINE
  5
7D71
  8
FUTO
 10
7214.8694667084483
 20
10211.451001730309
 30
0.0
 11
7214.8694667084483
 21
10171.451001730309
 31
0.0
  0
LINE
  5
7D72
  8
FUTO
 10
7184.8694667084483
 20
10171.451001730309
 30
0.0
 11
7214.8694667084483
 21
10171.451001730309
 31
0.0
  0
LINE
  5
7D73
  8
FUTO
 10
7214.8694667084483
 20
10211.451001730309
 30
0.0
 11
7184.8694667084483
 21
10211.451001730309
 31
0.0
  0
LINE
  5
7D74
  8
FUTO
 10
7110.4149987084484
 20
10173.861157730311
 30
0.0
 11
7122.5149747084497
 21
10173.861157730311
 31
0.0
  0
LINE
  5
7D75
  8
FUTO
 10
7110.4149987084484
 20
10209.040844730311
 30
0.0
 11
7122.5149747084497
 21
10209.040844730311
 31
0.0
  0
LINE
  5
7D76
  8
FUTO
 10
7110.4149987084484
 20
10181.74592373031
 30
0.0
 11
7122.5149747084497
 21
10181.74592373031
 31
0.0
  0
LINE
  5
7D77
  8
FUTO
 10
7110.4149987084484
 20
10201.15607973031
 30
0.0
 11
7122.5149747084497
 21
10201.15607973031
 31
0.0
  0
LINE
  5
7D78
  8
FUTO
 10
7108.8150237084492
 20
10175.46076673031
 30
0.0
 11
7108.8150237084492
 21
10207.440259730311
 31
0.0
  0
LINE
  5
7D79
  8
FUTO
 10
7110.4149987084484
 20
10209.040844730311
 30
0.0
 11
7108.8150237084492
 21
10207.440259730311
 31
0.0
  0
LINE
  5
7D7A
  8
FUTO
 10
7110.4149987084484
 20
10201.15607973031
 30
0.0
 11
7108.8150237084492
 21
10202.755688730311
 31
0.0
  0
LINE
  5
7D7B
  8
FUTO
 10
7110.4149987084484
 20
10201.15607973031
 30
0.0
 11
7108.8150237084492
 21
10199.55549373031
 31
0.0
  0
LINE
  5
7D7C
  8
FUTO
 10
7108.8150237084492
 20
10175.46076673031
 30
0.0
 11
7110.4149987084484
 21
10173.861157730311
 31
0.0
  0
LINE
  5
7D7D
  8
FUTO
 10
7110.4149987084484
 20
10181.74592373031
 30
0.0
 11
7108.8150237084492
 21
10180.14533773031
 31
0.0
  0
LINE
  5
7D7E
  8
FUTO
 10
7110.4149987084484
 20
10181.74592373031
 30
0.0
 11
7108.8150237084492
 21
10183.345532730311
 31
0.0
  0
LINE
  5
7D7F
  8
FUTO
 10
7122.5149747084497
 20
10173.861157730311
 30
0.0
 11
7122.5149747084497
 21
10209.040844730311
 31
0.0
  0
LINE
  5
7D80
  8
FUTO
 10
7122.5149747084497
 20
10200.451001730309
 30
0.0
 11
7184.8694667084483
 21
10200.451001730309
 31
0.0
  0
LINE
  5
7D81
  8
HOSO
 10
7184.8694667084483
 20
10198.451001730309
 30
0.0
 11
7122.5149137084491
 21
10198.451001730309
 31
0.0
  0
LINE
  5
7D82
  8
HOSO
 10
7122.5149747084497
 20
10184.451001730309
 30
0.0
 11
7184.8694667084483
 21
10184.451001730309
 31
0.0
  0
LINE
  5
7D83
  8
FUTO
 10
7184.8694667084483
 20
10182.451001730309
 30
0.0
 11
7122.5149137084491
 21
10182.451001730309
 31
0.0
  0
LINE
  5
7D84
  8
FUTO
 10
7209.8694667084492
 20
10254.451001730309
 30
0.0
 11
7209.8694667084492
 21
10211.451001730309
 31
0.0
  0
LINE
  5
7D85
  8
FUTO
 10
7212.8694667084492
 20
10251.451001730309
 30
0.0
 11
7212.8694667084492
 21
10211.451001730309
 31
0.0
  0
LINE
  5
7D86
  8
FUTO
 10
7217.8694667084492
 20
10246.451001730309
 30
0.0
 11
7217.8694667084492
 21
10200.451001730309
 31
0.0
  0
LINE
  5
7D87
  8
FUTO
 10
7277.3694057084504
 20
10301.451001730309
 30
0.0
 11
7264.8694057084494
 21
10301.451001730309
 31
0.0
  0
LINE
  5
7D88
  8
FUTO
 10
7266.3694057084504
 20
10246.451001730309
 30
0.0
 11
7217.8694667084492
 21
10246.451001730309
 31
0.0
  0
LINE
  5
7D89
  8
FUTO
 10
7266.3694057084504
 20
10249.576001730309
 30
0.0
 11
7259.8694057084504
 21
10249.576001730309
 31
0.0
  0
LINE
  5
7D8A
  8
FUTO
 10
7259.8694057084504
 20
10296.451001730309
 30
0.0
 11
7259.8694057084504
 21
10249.576001730309
 31
0.0
  0
LINE
  5
7D8B
  8
FUTO
 10
7259.8694057084504
 20
10251.451001730309
 30
0.0
 11
7212.8694667084492
 21
10251.451001730309
 31
0.0
  0
LINE
  5
7D8C
  8
FUTO
 10
7259.8694057084504
 20
10254.451001730309
 30
0.0
 11
7209.8694667084492
 21
10254.451001730309
 31
0.0
  0
ARC
  5
7D8D
  8
FUTO
 10
7264.8694057084494
 20
10296.451001730309
 30
0.0
 40
5.0
 50
90.000000000000028
 51
180.0
  0
LINE
  5
7D8E
  8
FUTO
 10
7217.8694667084492
 20
10246.451001730309
 30
0.0
 11
7212.8694667084492
 21
10251.451001730309
 31
0.0
  0
LINE
  5
7D8F
  8
FUTO
 10
7280.1880604900198
 20
9843.326001730311
 30
0.0
 11
7259.8694057084504
 21
9843.326001730311
 31
0.0
  0
LINE
  5
7D90
  8
FUTO
 10
7217.8694667084492
 20
9910.4510017303128
 30
0.0
 11
7217.8694667084492
 21
10182.451001730309
 31
0.0
  0
LINE
  5
7D91
  8
FUTO
 10
7217.8694667084492
 20
9846.451001730311
 30
0.0
 11
7212.8694667084492
 21
9841.4510017303128
 31
0.0
  0
LINE
  5
7D92
  8
FUTO
 10
7217.8694667084492
 20
9846.451001730311
 30
0.0
 11
7217.8694667084492
 21
9892.451001730311
 31
0.0
  0
LINE
  5
7D93
  8
FUTO
 10
7280.0789321401671
 20
9846.451001730311
 30
0.0
 11
7217.8694667084492
 21
9846.451001730311
 31
0.0
  0
ARC
  5
7D94
  8
FUTO
 10
7264.8694057084494
 20
9796.451001730311
 30
0.0
 40
5.0
 50
180.0
 51
270.0
  0
LINE
  5
7D95
  8
FUTO
 10
7259.8694057084504
 20
9838.4510017303128
 30
0.0
 11
7209.8694667084492
 21
9838.4510017303128
 31
0.0
  0
LINE
  5
7D96
  8
FUTO
 10
7259.8694057084504
 20
9841.4510017303128
 30
0.0
 11
7212.8694667084492
 21
9841.4510017303128
 31
0.0
  0
LINE
  5
7D97
  8
FUTO
 10
7312.1777707129249
 20
9791.4510017303128
 30
0.0
 11
7264.8694057084494
 21
9791.4510017303128
 31
0.0
  0
LINE
  5
7D98
  8
FUTO
 10
7259.8694057084504
 20
9796.451001730311
 30
0.0
 11
7259.8694057084504
 21
9843.326001730311
 31
0.0
  0
LINE
  5
7D99
  8
FUTO
 10
7212.8694667084492
 20
9921.451001730311
 30
0.0
 11
7212.8694667084492
 21
10171.451001730309
 31
0.0
  0
LINE
  5
7D9A
  8
FUTO
 10
7209.8694667084492
 20
9921.451001730311
 30
0.0
 11
7209.8694667084492
 21
10171.451001730309
 31
0.0
  0
LINE
  5
7D9B
  8
FUTO
 10
7212.8694667084492
 20
9841.4510017303128
 30
0.0
 11
7212.8694667084492
 21
9881.4510017303128
 31
0.0
  0
LINE
  5
7D9C
  8
FUTO
 10
7209.8694667084492
 20
9838.4510017303128
 30
0.0
 11
7209.8694667084492
 21
9881.4510017303128
 31
0.0
  0
LINE
  5
7D9D
  8
HOSO
 10
7214.8694667084483
 20
9908.4510017303128
 30
0.0
 11
7266.3694057084504
 21
9908.4510017303128
 31
0.0
  0
LINE
  5
7D9E
  8
FUTO
 10
7266.3694057084504
 20
9910.4510017303128
 30
0.0
 11
7214.8694667084483
 21
9910.4510017303128
 31
0.0
  0
LINE
  5
7D9F
  8
HOSO
 10
7266.3694057084504
 20
9894.4510017303128
 30
0.0
 11
7214.8694667084483
 21
9894.4510017303128
 31
0.0
  0
LINE
  5
7DA0
  8
FUTO
 10
7214.8694667084483
 20
9892.451001730311
 30
0.0
 11
7266.3694057084504
 21
9892.451001730311
 31
0.0
  0
LINE
  5
7DA1
  8
FUTO
 10
7184.8694667084483
 20
9910.4510017303128
 30
0.0
 11
7122.5149137084491
 21
9910.4510017303128
 31
0.0
  0
LINE
  5
7DA2
  8
HOSO
 10
7122.5149747084497
 20
9908.4510017303128
 30
0.0
 11
7184.8694667084483
 21
9908.4510017303128
 31
0.0
  0
LINE
  5
7DA3
  8
HOSO
 10
7184.8694667084483
 20
9894.4510017303128
 30
0.0
 11
7122.5149137084491
 21
9894.4510017303128
 31
0.0
  0
LINE
  5
7DA4
  8
FUTO
 10
7122.5149747084497
 20
9892.451001730311
 30
0.0
 11
7184.8694667084483
 21
9892.451001730311
 31
0.0
  0
LINE
  5
7DA5
  8
FUTO
 10
7122.5149747084497
 20
9919.040845730311
 30
0.0
 11
7122.5149747084497
 21
9883.8611587303112
 31
0.0
  0
LINE
  5
7DA6
  8
FUTO
 10
7110.4149987084484
 20
9911.1560797303136
 30
0.0
 11
7108.8150237084492
 21
9909.556470730311
 31
0.0
  0
LINE
  5
7DA7
  8
FUTO
 10
7110.4149987084484
 20
9911.1560797303136
 30
0.0
 11
7108.8150237084492
 21
9912.7566657303123
 31
0.0
  0
LINE
  5
7DA8
  8
FUTO
 10
7108.8150237084492
 20
9917.4412367303103
 30
0.0
 11
7110.4149987084484
 21
9919.040845730311
 31
0.0
  0
LINE
  5
7DA9
  8
FUTO
 10
7110.4149987084484
 20
9891.7459237303119
 30
0.0
 11
7108.8150237084492
 21
9893.3465097303124
 31
0.0
  0
LINE
  5
7DAA
  8
FUTO
 10
7110.4149987084484
 20
9891.7459237303119
 30
0.0
 11
7108.8150237084492
 21
9890.1463147303111
 31
0.0
  0
LINE
  5
7DAB
  8
FUTO
 10
7110.4149987084484
 20
9883.8611587303112
 30
0.0
 11
7108.8150237084492
 21
9885.4617437303114
 31
0.0
  0
LINE
  5
7DAC
  8
FUTO
 10
7108.8150237084492
 20
9917.4412367303103
 30
0.0
 11
7108.8150237084492
 21
9885.4617437303114
 31
0.0
  0
LINE
  5
7DAD
  8
FUTO
 10
7110.4149987084484
 20
9891.7459237303119
 30
0.0
 11
7122.5149747084497
 21
9891.7459237303119
 31
0.0
  0
LINE
  5
7DAE
  8
FUTO
 10
7110.4149987084484
 20
9911.1560797303136
 30
0.0
 11
7122.5149747084497
 21
9911.1560797303136
 31
0.0
  0
LINE
  5
7DAF
  8
FUTO
 10
7110.4149987084484
 20
9883.8611587303112
 30
0.0
 11
7122.5149747084497
 21
9883.8611587303112
 31
0.0
  0
LINE
  5
7DB0
  8
FUTO
 10
7110.4149987084484
 20
9919.040845730311
 30
0.0
 11
7122.5149747084497
 21
9919.040845730311
 31
0.0
  0
LINE
  5
7DB1
  8
CT
 10
7266.3694057084494
 20
9901.451001730311
 30
0.0
 11
7098.8150237084501
 21
9901.451001730311
 31
0.0
  0
LINE
  5
7DB2
  8
FUTO
 10
7214.8694667084483
 20
9881.4510017303128
 30
0.0
 11
7184.8694667084483
 21
9881.4510017303128
 31
0.0
  0
LINE
  5
7DB3
  8
FUTO
 10
7184.8694667084483
 20
9921.451001730311
 30
0.0
 11
7214.8694667084483
 21
9921.451001730311
 31
0.0
  0
LINE
  5
7DB4
  8
FUTO
 10
7214.8694667084483
 20
9881.4510017303128
 30
0.0
 11
7214.8694667084483
 21
9921.451001730311
 31
0.0
  0
LINE
  5
7DB5
  8
FUTO
 10
7184.8694667084483
 20
9881.4510017303128
 30
0.0
 11
7184.8694667084483
 21
9921.451001730311
 31
0.0
  0
ARC
  5
7DB6
  8
FUTO
 10
7801.4985557084501
 20
10108.45094073031
 30
0.0
 40
20.0
 50
0.000000000000007
 51
90.000000000000028
  0
ARC
  5
7DB7
  8
FUTO
 10
7801.4985557084483
 20
9984.451001730311
 30
0.0
 40
20.0
 50
270.0
 51
0.000000000000007
  0
ARC
  5
7DB8
  8
FUTO
 10
7811.4985557084483
 20
9967.4510017303091
 30
0.0
 40
10.0
 50
270.0
 51
0.000000000000007
  0
ARC
  5
7DB9
  8
FUTO
 10
7811.4985557084483
 20
10125.45094073031
 30
0.0
 40
10.0
 50
0.000000000000007
 51
90.000000000000028
  0
ARC
  5
7DBA
  8
FUTO
 10
7708.6418308095581
 20
9967.4510017303091
 30
0.0
 40
10.0
 50
180.0
 51
270.0
  0
ARC
  5
7DBB
  8
FUTO
 10
7711.8089463478909
 20
9967.4510017303091
 30
0.0
 40
10.0
 50
180.0
 51
270.0
  0
ARC
  5
7DBC
  8
FUTO
 10
7708.6418308095581
 20
10125.45094073031
 30
0.0
 40
10.0
 50
90.000000000000028
 51
180.0
  0
ARC
  5
7DBD
  8
FUTO
 10
7711.8089463478909
 20
10125.45094073031
 30
0.0
 40
10.0
 50
90.000000000000028
 51
180.0
  0
LINE
  5
7DBE
  8
FUTO
 10
7709.0055496273462
 20
9964.4510017303091
 30
0.0
 11
7801.4985557084483
 21
9964.4510017303091
 31
0.0
  0
LINE
  5
7DBF
  8
FUTO
 10
7709.0055496273462
 20
10128.45094073031
 30
0.0
 11
7801.4985557084483
 21
10128.45094073031
 31
0.0
  0
ARC
  5
7DC0
  8
FUTO
 10
7694.8694057084494
 20
9969.4510017303128
 30
0.0
 40
5.0
 50
180.0
 51
270.0
  0
ARC
  5
7DC1
  8
FUTO
 10
7694.8694057084494
 20
10123.450940730299
 30
0.0
 40
5.0
 50
90.000000000000028
 51
180.0
  0
ARC
  5
7DC2
  8
FUTO
 10
7709.0055496273462
 20
9969.4510017303128
 30
0.0
 40
5.0
 50
180.0
 51
270.0
  0
ARC
  5
7DC3
  8
FUTO
 10
7709.0055496273462
 20
10123.450940730299
 30
0.0
 40
5.0
 50
90.000000000000028
 51
180.0
  0
LINE
  5
7DC4
  8
FUTO
 10
7708.6418308095581
 20
9957.4510017303128
 30
0.0
 11
7811.4985557084483
 21
9957.4510017303128
 31
0.0
  0
LINE
  5
7DC5
  8
FUTO
 10
7694.8694057084476
 20
9964.4510017303091
 30
0.0
 11
7698.6418308095581
 21
9964.4510017303091
 31
0.0
  0
LINE
  5
7DC6
  8
FUTO
 10
7708.6418308095581
 20
10135.45094073031
 30
0.0
 11
7811.4985557084483
 21
10135.45094073031
 31
0.0
  0
LINE
  5
7DC7
  8
FUTO
 10
7694.8694057084476
 20
10128.45094073031
 30
0.0
 11
7698.6418308095581
 21
10128.45094073031
 31
0.0
  0
LINE
  5
7DC8
  8
FUTO
 10
7673.3694057084494
 20
10106.451001730309
 30
0.0
 11
7673.3694057084494
 21
10213.26177247934
 31
0.0
  0
LINE
  5
7DC9
  8
FUTO
 10
7689.8694057084476
 20
9986.4510017303146
 30
0.0
 11
7622.1430081482667
 21
9986.4510017303128
 31
0.0
  0
LINE
  5
7DCA
  8
FUTO
 10
7689.8694057084476
 20
10106.451001730309
 30
0.0
 11
7622.1430081482677
 21
10106.451001730309
 31
0.0
  0
LINE
  5
7DCB
  8
FUTO
 10
7780.1887417084499
 20
9984.451001730311
 30
0.0
 11
7780.188741708449
 21
10108.45094073031
 31
0.0
  0
LINE
  5
7DCC
  8
FUTO
 10
7704.0055496273462
 20
9969.4510017303128
 30
0.0
 11
7704.0055496273462
 21
10123.45094073031
 31
0.0
  0
LINE
  5
7DCD
  8
FUTO
 10
7701.80894634789
 20
9967.4510017303091
 30
0.0
 11
7701.80894634789
 21
10125.45094073031
 31
0.0
  0
LINE
  5
7DCE
  8
FUTO
 10
7698.6418308095581
 20
9967.4510017303091
 30
0.0
 11
7698.6418308095581
 21
10125.45094073031
 31
0.0
  0
LINE
  5
7DCF
  8
FUTO
 10
7689.8694057084476
 20
9969.4510017303128
 30
0.0
 11
7689.8694057084476
 21
10123.45094073031
 31
0.0
  0
LINE
  5
7DD0
  8
FUTO
 10
7679.8694057084494
 20
9986.4510017303128
 30
0.0
 11
7679.8694057084494
 21
10106.451001730309
 31
0.0
  0
LINE
  5
7DD1
  8
FUTO
 10
7622.1430081482677
 20
9986.4510017303128
 30
0.0
 11
7622.1430081482667
 21
10106.451001730309
 31
0.0
  0
LINE
  5
7DD2
  8
FUTO
 10
7821.4985557084492
 20
9967.4510017303091
 30
0.0
 11
7821.4985557084492
 21
10125.45094073031
 31
0.0
  0
LINE
  5
7DD3
  8
FUTO
 10
7476.1194057084476
 20
10022.701001730309
 30
0.0
 11
7476.1194057084476
 21
10070.201001730309
 31
0.0
  0
ARC
  5
7DD4
  8
FUTO
 10
7469.8694057084476
 20
10022.701001730309
 30
0.0
 40
6.25
 50
180.0
 51
0.000000000000007
  0
ARC
  5
7DD5
  8
FUTO
 10
7469.8694057084476
 20
10070.201001730309
 30
0.0
 40
6.25
 50
0.000000000000007
 51
180.0
  0
LINE
  5
7DD6
  8
CT
 10
7841.4985557084474
 20
10046.451001730309
 30
0.0
 11
7189.8694667084483
 21
10046.451001730309
 31
0.0
  0
LINE
  5
7DD7
  8
FUTO
 10
7463.6194057084476
 20
10022.701001730309
 30
0.0
 11
7463.6194057084476
 21
10070.201001730309
 31
0.0
  0
LINE
  5
7DD8
  8
FUTO
 10
7673.3694057084476
 20
10213.26177247934
 30
0.0
 11
7671.5476287084493
 21
10215.45094073031
 31
0.0
  0
LINE
  5
7DD9
  8
FUTO
 10
7673.3694057084494
 20
9879.6400887303116
 30
0.0
 11
7666.8694057084504
 21
9871.8291757303123
 31
0.0
  0
LINE
  5
7DDA
  8
FUTO
 10
7673.3694057084494
 20
9879.6400887303134
 30
0.0
 11
7673.3694057084494
 21
9986.4510017303146
 31
0.0
  0
LINE
  5
7DDB
  8
FUTO
 10
7266.3694057084504
 20
9879.6400887303134
 30
0.0
 11
7266.3694057084494
 21
10213.26177247934
 31
0.0
  0
ARC
  5
7DDC
  8
FUTO
 10
7547.8694057084476
 20
9772.9510017303128
 30
0.0
 40
2.0
 50
270.0
 51
0.000000000000007
  0
ARC
  5
7DDD
  8
FUTO
 10
7552.8694057084494
 20
9783.1040777303115
 30
0.0
 40
2.9999599999999988
 50
92.999557000035409
 51
180.0
  0
LINE
  5
7DDE
  8
FUTO
 10
7549.8694057084494
 20
9783.1040777303115
 30
0.0
 11
7549.8694057084494
 21
9772.9510017303128
 31
0.0
  0
ARC
  5
7DDF
  8
FUTO
 10
7648.9653537084487
 20
9826.7366467303109
 30
0.0
 40
9.9999679999999991
 50
315.0
 51
358.00067099997602
  0
ARC
  5
7DE0
  8
FUTO
 10
7621.9721897084482
 20
9799.743481730311
 30
0.0
 40
10.000024
 50
272.99903899998708
 51
315.0
  0
LINE
  5
7DE1
  8
FUTO
 10
7656.0363987084484
 20
9819.6656017303103
 30
0.0
 11
7629.0432337084476
 21
9792.6724377303126
 31
0.0
  0
LINE
  5
7DE2
  8
FUTO
 10
7659.8694057084476
 20
9852.4510017303128
 30
0.0
 11
7658.9592497084477
 21
9826.3877697303105
 31
0.0
  0
LINE
  5
7DE3
  8
FUTO
 10
7622.4953827084491
 20
9789.7571537303138
 30
0.0
 11
7533.9040737084479
 21
9785.1143317303122
 31
0.0
  0
LINE
  5
7DE4
  8
FUTO
 10
7631.8694057084494
 20
9862.451001730311
 30
0.0
 11
7307.8694057084494
 21
9862.451001730311
 31
0.0
  0
LINE
  5
7DE5
  8
FUTO
 10
7631.8694057084494
 20
9852.4510017303128
 30
0.0
 11
7631.8694057084494
 21
9857.451001730311
 31
0.0
  0
LINE
  5
7DE6
  8
FUTO
 10
7631.8694057084494
 20
9857.451001730311
 30
0.0
 11
7631.8694057084494
 21
9862.451001730311
 31
0.0
  0
LINE
  5
7DE7
  8
FUTO
 10
7666.8694057084504
 20
9871.8291757303123
 30
0.0
 11
7631.8694057084494
 21
9862.451001730311
 31
0.0
  0
ARC
  5
7DE8
  8
FUTO
 10
7653.3694057084494
 20
10261.924329730309
 30
0.0
 40
20.0
 50
0.000000000000007
 51
20.000046000015271
  0
ARC
  5
7DE9
  8
FUTO
 10
7682.3694057084476
 20
10299.19971973031
 30
0.0
 40
20.0
 50
180.0
 51
199.99972500000979
  0
LINE
  5
7DEA
  8
FUTO
 10
7617.5183317084493
 20
10243.95094073031
 30
0.0
 11
7621.2712617084489
 21
10250.45094073031
 31
0.0
  0
LINE
  5
7DEB
  8
FUTO
 10
7621.2712617084489
 20
10250.45094073031
 30
0.0
 11
7617.5183317084493
 21
10256.95094073031
 31
0.0
  0
LINE
  5
7DEC
  8
FUTO
 10
7672.1633517084483
 20
10268.76478373031
 30
0.0
 11
7663.5754607084482
 21
10292.35938773031
 31
0.0
  0
LINE
  5
7DED
  8
FUTO
 10
7673.3694057084494
 20
10215.45094073031
 30
0.0
 11
7673.3694057084494
 21
10261.924329730309
 31
0.0
  0
LINE
  5
7DEE
  8
FUTO
 10
7606.2600307084476
 20
10250.45094073031
 30
0.0
 11
7610.0129607084491
 21
10256.95094073031
 31
0.0
  0
LINE
  5
7DEF
  8
FUTO
 10
7610.0129607084491
 20
10243.95094073031
 30
0.0
 11
7606.2600307084476
 21
10250.45094073031
 31
0.0
  0
LINE
  5
7DF0
  8
CT
 10
7613.7656467084498
 20
10243.00880173031
 30
0.0
 11
7613.7656467084498
 21
10257.46485673031
 31
0.0
  0
LINE
  5
7DF1
  8
CT
 10
7605.375021708448
 20
10250.45094073031
 30
0.0
 11
7622.1965547084483
 21
10250.45094073031
 31
0.0
  0
LINE
  5
7DF2
  8
FUTO
 10
7610.0129607084491
 20
10256.95094073031
 30
0.0
 11
7617.5183317084493
 21
10256.95094073031
 31
0.0
  0
LINE
  5
7DF3
  8
FUTO
 10
7610.0129607084491
 20
10243.95094073031
 30
0.0
 11
7617.5183317084493
 21
10243.95094073031
 31
0.0
  0
CIRCLE
  5
7DF4
  8
FUTO
 10
7613.7656467084498
 20
10250.45094073031
 30
0.0
 40
6.5
  0
ARC
  5
7DF5
  8
FUTO
 10
7647.3694057084494
 20
10360.140027730309
 30
0.0
 40
15.0
 50
0.000000000000007
 51
29.999817000004409
  0
ARC
  5
7DF6
  8
FUTO
 10
7626.9826877084479
 20
10415.45094073031
 30
0.0
 40
4.9999580000000003
 50
30.000281999998801
 51
90.000000000000028
  0
LINE
  5
7DF7
  8
FUTO
 10
7631.3127657084488
 20
10417.95094073031
 30
0.0
 11
7660.3598847084477
 21
10367.640027730309
 31
0.0
  0
LINE
  5
7DF8
  8
FUTO
 10
7662.3694057084494
 20
10299.19971973031
 30
0.0
 11
7662.3694057084494
 21
10360.140027730309
 31
0.0
  0
LINE
  5
7DF9
  8
FUTO
 10
7277.3694057084504
 20
10299.19971973031
 30
0.0
 11
7277.3694057084504
 21
10360.140027730309
 31
0.0
  0
LINE
  5
7DFA
  8
CT
 10
7469.8694057084476
 20
9600.9510017303128
 30
0.0
 11
7469.8694057084476
 21
10440.451001730309
 31
0.0
  0
LINE
  5
7DFB
  8
FUTO
 10
7312.2194417084493
 20
10420.451001730309
 30
0.0
 11
7627.0097557084482
 21
10420.451001730309
 31
0.0
  0
LINE
  5
7DFC
  8
FUTO
 10
7662.3694057084494
 20
10361.350964730311
 30
0.0
 11
7277.4184777084502
 21
10361.350964730311
 31
0.0
  0
LINE
  5
7DFD
  8
FUTO
 10
7308.4260457084483
 20
10417.95094073031
 30
0.0
 11
7279.3789267084494
 21
10367.640027730309
 31
0.0
  0
ARC
  5
7DFE
  8
FUTO
 10
7312.7561237084483
 20
10415.45094073031
 30
0.0
 40
4.9999580000000003
 50
90.000000000000028
 51
149.99971800000111
  0
ARC
  5
7DFF
  8
FUTO
 10
7292.3694057084476
 20
10360.140027730309
 30
0.0
 40
15.0
 50
150.00018299999559
 51
180.0
  0
LINE
  5
7E00
  8
FUTO
 10
7547.8694057084476
 20
9770.9510017303128
 30
0.0
 11
7469.8694057084476
 21
9770.9510017303128
 31
0.0
  0
LINE
  5
7E01
  8
FUTO
 10
7659.8694057084476
 20
9852.4510017303128
 30
0.0
 11
7469.8694057084476
 21
9852.4510017303128
 31
0.0
  0
LINE
  5
7E02
  8
FUTO
 10
7631.8694057084494
 20
9857.451001730311
 30
0.0
 11
7469.8694057084476
 21
9857.451001730311
 31
0.0
  0
LINE
  5
7E03
  8
FUTO
 10
7277.0520227084498
 20
10295.650891730311
 30
0.0
 11
7662.3694057084494
 21
10295.650891730311
 31
0.0
  0
LINE
  5
7E04
  8
FUTO
 10
7266.6828817084488
 20
10265.45094073031
 30
0.0
 11
7673.0560259073209
 21
10265.45094073031
 31
0.0
  0
LINE
  5
7E05
  8
FUTO
 10
7266.3694057084504
 20
10215.45094073031
 30
0.0
 11
7671.5476287084493
 21
10215.45094073031
 31
0.0
  0
LINE
  5
7E06
  8
FUTO
 10
7631.8694057084494
 20
9857.451001730311
 30
0.0
 11
7469.8694057084476
 21
9857.451001730311
 31
0.0
  0
CIRCLE
  5
7E07
  8
FUTO
 10
7325.9731647084482
 20
10250.45094073031
 30
0.0
 40
6.5
  0
LINE
  5
7E08
  8
FUTO
 10
7329.7258507084489
 20
10243.95094073031
 30
0.0
 11
7322.2204797084478
 21
10243.95094073031
 31
0.0
  0
LINE
  5
7E09
  8
FUTO
 10
7329.7258507084489
 20
10256.95094073031
 30
0.0
 11
7322.2204797084478
 21
10256.95094073031
 31
0.0
  0
LINE
  5
7E0A
  8
CT
 10
7334.3637897084473
 20
10250.45094073031
 30
0.0
 11
7317.5422567084488
 21
10250.45094073031
 31
0.0
  0
LINE
  5
7E0B
  8
CT
 10
7325.9731647084482
 20
10243.00880173031
 30
0.0
 11
7325.9731647084482
 21
10257.46485673031
 31
0.0
  0
LINE
  5
7E0C
  8
FUTO
 10
7329.7258507084489
 20
10243.95094073031
 30
0.0
 11
7333.4787807084476
 21
10250.45094073031
 31
0.0
  0
LINE
  5
7E0D
  8
FUTO
 10
7333.4787807084476
 20
10250.45094073031
 30
0.0
 11
7329.7258507084489
 21
10256.95094073031
 31
0.0
  0
LINE
  5
7E0E
  8
FUTO
 10
7266.3694057084504
 20
10215.45094073031
 30
0.0
 11
7266.3694057084504
 21
10261.924329730309
 31
0.0
  0
LINE
  5
7E0F
  8
FUTO
 10
7267.5754597084488
 20
10268.76478373031
 30
0.0
 11
7276.1633507084498
 21
10292.35938773031
 31
0.0
  0
LINE
  5
7E10
  8
FUTO
 10
7318.4675497084481
 20
10250.45094073031
 30
0.0
 11
7322.2204797084478
 21
10256.95094073031
 31
0.0
  0
LINE
  5
7E11
  8
FUTO
 10
7322.2204797084478
 20
10243.95094073031
 30
0.0
 11
7318.4675497084481
 21
10250.45094073031
 31
0.0
  0
ARC
  5
7E12
  8
FUTO
 10
7257.3694057084476
 20
10299.19971973031
 30
0.0
 40
20.0
 50
340.00027499999021
 51
0.000000000000007
  0
ARC
  5
7E13
  8
FUTO
 10
7286.3694057084476
 20
10261.924329730309
 30
0.0
 40
20.0
 50
159.99995399998471
 51
180.0
  0
LINE
  5
7E14
  8
FUTO
 10
7266.3694057084504
 20
10213.26177247934
 30
0.0
 11
7268.1911827084487
 21
10215.45094073031
 31
0.0
  0
LINE
  5
7E15
  8
FUTO
 10
7307.8694057084494
 20
9857.451001730311
 30
0.0
 11
7469.8694057084476
 21
9857.451001730311
 31
0.0
  0
LINE
  5
7E16
  8
FUTO
 10
7317.2434287084479
 20
9789.7571537303138
 30
0.0
 11
7405.8347377084492
 21
9785.1143317303122
 31
0.0
  0
LINE
  5
7E17
  8
FUTO
 10
7279.8694057084494
 20
9852.4510017303128
 30
0.0
 11
7469.8694057084476
 21
9852.4510017303128
 31
0.0
  0
LINE
  5
7E18
  8
FUTO
 10
7307.8694057084494
 20
9857.451001730311
 30
0.0
 11
7469.8694057084476
 21
9857.451001730311
 31
0.0
  0
LINE
  5
7E19
  8
FUTO
 10
7499.8694057084494
 20
9760.9510017303128
 30
0.0
 11
7499.8694057084494
 21
9620.951001730311
 31
0.0
  0
LINE
  5
7E1A
  8
FUTO
 10
7439.8694057084476
 20
9760.9510017303128
 30
0.0
 11
7439.8694057084476
 21
9620.951001730311
 31
0.0
  0
LINE
  5
7E1B
  8
FUTO
 10
7391.8694057084494
 20
9770.9510017303128
 30
0.0
 11
7469.8694057084476
 21
9770.9510017303128
 31
0.0
  0
LINE
  5
7E1C
  8
FUTO
 10
7502.3694057084476
 20
9760.9510017303128
 30
0.0
 11
7437.3694057084494
 21
9760.9510017303128
 31
0.0
  0
LINE
  5
7E1D
  8
FUTO
 10
7502.3694057084476
 20
9760.9510017303128
 30
0.0
 11
7502.3694057084476
 21
9770.9510017303128
 31
0.0
  0
LINE
  5
7E1E
  8
FUTO
 10
7437.3694057084494
 20
9760.9510017303128
 30
0.0
 11
7437.3694057084494
 21
9770.9510017303128
 31
0.0
  0
LINE
  5
7E1F
  8
FUTO
 10
7389.8694057084494
 20
9783.1040777303115
 30
0.0
 11
7389.8694057084494
 21
9772.9510017303128
 31
0.0
  0
ARC
  5
7E20
  8
FUTO
 10
7386.8694057084476
 20
9783.1040777303115
 30
0.0
 40
2.9999599999999988
 50
0.000000000000007
 51
87.000443000016659
  0
ARC
  5
7E21
  8
FUTO
 10
7391.8694057084494
 20
9772.9510017303128
 30
0.0
 40
2.0
 50
180.0
 51
270.0
  0
LINE
  5
7E22
  8
FUTO
 10
7439.8694057084476
 20
9620.951001730311
 30
0.0
 11
7499.8694057084494
 21
9620.951001730311
 31
0.0
  0
LINE
  5
7E23
  8
FUTO
 10
7266.3694057084504
 20
9879.6400887303116
 30
0.0
 11
7272.8694057084494
 21
9871.8291757303123
 31
0.0
  0
LINE
  5
7E24
  8
FUTO
 10
7279.8694057084494
 20
9852.4510017303128
 30
0.0
 11
7280.7795617084494
 21
9826.3877697303105
 31
0.0
  0
LINE
  5
7E25
  8
FUTO
 10
7272.8694057084494
 20
9871.8291757303123
 30
0.0
 11
7307.8694057084494
 21
9862.451001730311
 31
0.0
  0
LINE
  5
7E26
  8
FUTO
 10
7307.8694057084494
 20
9857.451001730311
 30
0.0
 11
7307.8694057084494
 21
9862.451001730311
 31
0.0
  0
LINE
  5
7E27
  8
FUTO
 10
7307.8694057084494
 20
9852.4510017303128
 30
0.0
 11
7307.8694057084494
 21
9857.451001730311
 31
0.0
  0
LINE
  5
7E28
  8
FUTO
 10
7283.7024127084487
 20
9819.6656017303103
 30
0.0
 11
7310.6955777084486
 21
9792.6724377303126
 31
0.0
  0
ARC
  5
7E29
  8
FUTO
 10
7317.7666217084488
 20
9799.743481730311
 30
0.0
 40
10.000024
 50
225.0
 51
267.00096100001281
  0
ARC
  5
7E2A
  8
FUTO
 10
7290.7734577084484
 20
9826.7366467303109
 30
0.0
 40
9.9999679999999991
 50
181.99932900002389
 51
225.0
  0
CIRCLE
  5
7E2B
  8
FUTO
 10
7469.8694057084476
 20
6359.6138642968617
 30
0.0
 40
30.0
  0
LINE
  5
7E2C
  8
FUTO
 10
10058.69846386616
 20
6179.6138642968617
 30
0.0
 11
10073.37789479047
 21
6179.6138642968617
 31
0.0
  0
LINE
  5
7E2D
  8
FUTO
 10
10061.377955790471
 20
6159.6138642968608
 30
0.0
 11
10096.377955790471
 21
6159.6138642968608
 31
0.0
  0
LINE
  5
7E2E
  8
FUTO
 10
9734.0574477147893
 20
6179.6138642968617
 30
0.0
 11
9719.3779557904763
 21
6179.6138642968617
 31
0.0
  0
LINE
  5
7E2F
  8
FUTO
 10
9731.3779557904782
 20
6159.6138642968608
 30
0.0
 11
9696.3779557904763
 21
6159.6138642968608
 31
0.0
  0
LINE
  5
7E30
  8
CT
 10
7629.8694057084494
 20
6149.6138642968617
 30
0.0
 11
7629.8694057084494
 21
6079.6138642968617
 31
0.0
  0
LINE
  5
7E31
  8
FUTO
 10
9796.3779557904763
 20
6154.6138642968617
 30
0.0
 11
9796.3779557904763
 21
6159.6138642968608
 31
0.0
  0
LINE
  5
7E32
  8
FUTO
 10
9996.3779557904782
 20
6159.6138642968608
 30
0.0
 11
9996.3779557904782
 21
6154.6138642968617
 31
0.0
  0
LINE
  5
7E33
  8
FUTO
 10
10066.377955790471
 20
6154.6138642968617
 30
0.0
 11
10066.377955790471
 21
6159.6138642968608
 31
0.0
  0
LINE
  5
7E34
  8
FUTO
 10
10066.377955790471
 20
6154.6138642968617
 30
0.0
 11
10061.377955790471
 21
6154.6138642968617
 31
0.0
  0
LINE
  5
7E35
  8
FUTO
 10
10016.377955790471
 20
6154.6138642968617
 30
0.0
 11
10016.377955790471
 21
6159.6138642968608
 31
0.0
  0
LINE
  5
7E36
  8
FUTO
 10
10021.377955790471
 20
6154.6138642968617
 30
0.0
 11
10016.377955790471
 21
6154.6138642968617
 31
0.0
  0
LINE
  5
7E37
  8
FUTO
 10
9771.3779557904763
 20
6154.6138642968617
 30
0.0
 11
9776.3779557904763
 21
6154.6138642968617
 31
0.0
  0
LINE
  5
7E38
  8
FUTO
 10
9726.3779557904763
 20
6154.6138642968617
 30
0.0
 11
9731.3779557904782
 21
6154.6138642968617
 31
0.0
  0
LINE
  5
7E39
  8
FUTO
 10
9776.3779557904763
 20
6154.6138642968617
 30
0.0
 11
9776.3779557904763
 21
6159.6138642968608
 31
0.0
  0
LINE
  5
7E3A
  8
FUTO
 10
9726.3779557904763
 20
6154.6138642968617
 30
0.0
 11
9726.3779557904763
 21
6159.6138642968608
 31
0.0
  0
LINE
  5
7E3B
  8
FUTO
 10
7401.8694057084494
 20
6159.6138642968608
 30
0.0
 11
7401.8694057084494
 21
6154.6138642968617
 31
0.0
  0
LINE
  5
7E3C
  8
FUTO
 10
7537.869527708448
 20
6154.6138642968617
 30
0.0
 11
7537.869527708448
 21
6159.6138642968608
 31
0.0
  0
LINE
  5
7E3D
  8
FUTO
 10
9751.3779557904763
 20
6188.0894502968622
 30
0.0
 11
9735.3779557904763
 21
6178.852146296862
 31
0.0
  0
LINE
  5
7E3E
  8
FUTO
 10
9767.3779557904763
 20
6178.852146296862
 30
0.0
 11
9751.3779557904763
 21
6188.0894502968622
 31
0.0
  0
LINE
  5
7E3F
  8
FUTO
 10
9751.3779557904763
 20
6151.1392552968618
 30
0.0
 11
9735.3779557904763
 21
6160.3765602968606
 31
0.0
  0
LINE
  5
7E40
  8
FUTO
 10
9767.3779557904763
 20
6160.3765602968606
 30
0.0
 11
9751.3779557904763
 21
6151.1392552968618
 31
0.0
  0
LINE
  5
7E41
  8
CT
 10
9721.3779557904782
 20
6169.6138642968617
 30
0.0
 11
9781.3779557904763
 21
6169.6138642968617
 31
0.0
  0
CIRCLE
  5
7E42
  8
FUTO
 10
9751.3779557904763
 20
6169.6138642968617
 30
0.0
 40
16.0
  0
LINE
  5
7E43
  8
FUTO
 10
9767.3779557904763
 20
6160.3765602968606
 30
0.0
 11
9767.3779557904763
 21
6178.852146296862
 31
0.0
  0
LINE
  5
7E44
  8
FUTO
 10
9735.3779557904763
 20
6160.3765602968606
 30
0.0
 11
9735.3779557904763
 21
6178.852146296862
 31
0.0
  0
ARC
  5
7E45
  8
FUTO
 10
9751.3779557904763
 20
6169.6138642968617
 30
0.0
 40
20.0
 50
0.000000000000007
 51
180.0
  0
ARC
  5
7E46
  8
FUTO
 10
9644.3779557904763
 20
6126.6138642968617
 30
0.0
 40
3.0
 50
90.0
 51
180.0
  0
LINE
  5
7E47
  8
FUTO
 10
9693.2529557904763
 20
6129.6138642968617
 30
0.0
 11
9644.3779557904763
 21
6129.6138642968617
 31
0.0
  0
LINE
  5
7E48
  8
FUTO
 10
9698.3779557904763
 20
6099.6138642968617
 30
0.0
 11
9698.3779557904763
 21
6104.6138642968617
 31
0.0
  0
LINE
  5
7E49
  8
FUTO
 10
9688.3779557904763
 20
6111.6138642968617
 30
0.0
 11
9688.3779557904763
 21
6104.6138642968617
 31
0.0
  0
LINE
  5
7E4A
  8
FUTO
 10
9698.3779557904763
 20
6099.6138642968617
 30
0.0
 11
9641.3779557904763
 21
6099.6138642968617
 31
0.0
  0
LINE
  5
7E4B
  8
FUTO
 10
9641.3779557904763
 20
6099.6138642968617
 30
0.0
 11
9641.3779557904763
 21
6126.6138642968617
 31
0.0
  0
LINE
  5
7E4C
  8
CT
 10
9666.3779557904763
 20
6149.6138642968617
 30
0.0
 11
9666.3779557904763
 21
6079.6138642968617
 31
0.0
  0
LINE
  5
7E4D
  8
FUTO
 10
9688.3779557904763
 20
6111.6138642968617
 30
0.0
 11
9731.3779557904782
 21
6111.6138642968617
 31
0.0
  0
LINE
  5
7E4E
  8
FUTO
 10
9696.3779557904763
 20
6159.6138642968608
 30
0.0
 11
9691.3779557904763
 21
6111.6138642968617
 31
0.0
  0
LINE
  5
7E4F
  8
FUTO
 10
9771.3779557904763
 20
6169.6138642968617
 30
0.0
 11
9771.3779557904763
 21
6104.6138642968617
 31
0.0
  0
LINE
  5
7E50
  8
FUTO
 10
9731.3779557904782
 20
6104.6138642968617
 30
0.0
 11
9731.3779557904782
 21
6169.6138642968617
 31
0.0
  0
LINE
  5
7E51
  8
CT
 10
9751.3779557904763
 20
6094.6138642968617
 30
0.0
 11
9751.3779557904763
 21
6199.6138642968608
 31
0.0
  0
LINE
  5
7E52
  8
FUTO
 10
10025.377955790471
 20
6178.852146296862
 30
0.0
 11
10041.377955790471
 21
6188.0894502968622
 31
0.0
  0
LINE
  5
7E53
  8
FUTO
 10
10025.377955790471
 20
6160.3765602968606
 30
0.0
 11
10041.377955790471
 21
6151.1392552968618
 31
0.0
  0
LINE
  5
7E54
  8
FUTO
 10
10025.377955790471
 20
6160.3765602968606
 30
0.0
 11
10025.377955790471
 21
6178.852146296862
 31
0.0
  0
LINE
  5
7E55
  8
FUTO
 10
10057.377955790471
 20
6160.3765602968606
 30
0.0
 11
10057.377955790471
 21
6178.852146296862
 31
0.0
  0
CIRCLE
  5
7E56
  8
FUTO
 10
10041.377955790471
 20
6169.6138642968617
 30
0.0
 40
16.0
  0
LINE
  5
7E57
  8
FUTO
 10
10041.377955790471
 20
6188.0894502968622
 30
0.0
 11
10057.377955790471
 21
6178.852146296862
 31
0.0
  0
LINE
  5
7E58
  8
FUTO
 10
10041.377955790471
 20
6151.1392552968618
 30
0.0
 11
10057.377955790471
 21
6160.3765602968606
 31
0.0
  0
ARC
  5
7E59
  8
FUTO
 10
10041.377955790471
 20
6169.6138642968617
 30
0.0
 40
20.0
 50
0.000000000000007
 51
180.0
  0
LINE
  5
7E5A
  8
CT
 10
10071.377955790471
 20
6169.6138642968617
 30
0.0
 11
10011.377955790471
 21
6169.6138642968617
 31
0.0
  0
LINE
  5
7E5B
  8
FUTO
 10
9796.3779557904763
 20
6154.6138642968617
 30
0.0
 11
9996.3779557904782
 21
6154.6138642968617
 31
0.0
  0
LINE
  5
7E5C
  8
FUTO
 10
10094.377955790471
 20
6099.6138642968617
 30
0.0
 11
10094.377955790471
 21
6104.6138642968617
 31
0.0
  0
LINE
  5
7E5D
  8
FUTO
 10
10104.377955790471
 20
6111.6138642968617
 30
0.0
 11
10104.377955790471
 21
6104.6138642968617
 31
0.0
  0
LINE
  5
7E5E
  8
FUTO
 10
10104.377955790471
 20
6111.6138642968617
 30
0.0
 11
10061.377955790471
 21
6111.6138642968617
 31
0.0
  0
LINE
  5
7E5F
  8
CT
 10
10126.377955790471
 20
6149.6138642968617
 30
0.0
 11
10126.377955790471
 21
6079.6138642968617
 31
0.0
  0
ARC
  5
7E60
  8
FUTO
 10
10148.377955790471
 20
6126.6138642968617
 30
0.0
 40
3.0
 50
0.000000000000007
 51
90.0
  0
LINE
  5
7E61
  8
FUTO
 10
10151.377955790471
 20
6099.6138642968617
 30
0.0
 11
10151.377955790471
 21
6126.6138642968617
 31
0.0
  0
LINE
  5
7E62
  8
FUTO
 10
10099.502955790471
 20
6129.6138642968617
 30
0.0
 11
10148.377955790471
 21
6129.6138642968617
 31
0.0
  0
LINE
  5
7E63
  8
FUTO
 10
10094.377955790471
 20
6099.6138642968617
 30
0.0
 11
10151.377955790471
 21
6099.6138642968617
 31
0.0
  0
LINE
  5
7E64
  8
FUTO
 10
10096.377955790471
 20
6159.6138642968608
 30
0.0
 11
10101.377955790471
 21
6111.6138642968617
 31
0.0
  0
LINE
  5
7E65
  8
FUTO
 10
10021.377955790471
 20
6169.6138642968617
 30
0.0
 11
10021.377955790471
 21
6104.6138642968617
 31
0.0
  0
LINE
  5
7E66
  8
FUTO
 10
10061.377955790471
 20
6104.6138642968617
 30
0.0
 11
10061.377955790471
 21
6169.6138642968617
 31
0.0
  0
LINE
  5
7E67
  8
CT
 10
10041.377955790471
 20
6094.6138642968617
 30
0.0
 11
10041.377955790471
 21
6199.6138642968608
 31
0.0
  0
LINE
  5
7E68
  8
FUTO
 10
7829.3239957084479
 20
6179.3189422968626
 30
0.0
 11
7830.9239717084483
 21
6177.7193332968618
 31
0.0
  0
LINE
  5
7E69
  8
FUTO
 10
7829.3239957084479
 20
6179.3189422968626
 30
0.0
 11
7830.9239717084483
 21
6180.9195282968631
 31
0.0
  0
LINE
  5
7E6A
  8
FUTO
 10
7829.3239957084479
 20
6179.3189422968626
 30
0.0
 11
7817.2240207084478
 21
6179.3189422968626
 31
0.0
  0
LINE
  5
7E6B
  8
FUTO
 10
7830.9238497084471
 20
6185.6040992968628
 30
0.0
 11
7829.3238737084484
 21
6187.2037082968618
 31
0.0
  0
LINE
  5
7E6C
  8
FUTO
 10
7829.3239957084479
 20
6187.2037082968618
 30
0.0
 11
7817.2240207084478
 21
6187.2037082968618
 31
0.0
  0
LINE
  5
7E6D
  8
FUTO
 10
7829.3239957084479
 20
6159.9087862968627
 30
0.0
 11
7830.9239717084483
 21
6161.5093722968622
 31
0.0
  0
LINE
  5
7E6E
  8
FUTO
 10
7829.3239957084479
 20
6159.9087862968627
 30
0.0
 11
7830.9239717084483
 21
6158.3091772968619
 31
0.0
  0
LINE
  5
7E6F
  8
FUTO
 10
7829.3239957084479
 20
6159.9087862968627
 30
0.0
 11
7817.2240207084478
 21
6159.9087862968627
 31
0.0
  0
LINE
  5
7E70
  8
FUTO
 10
7829.3239957084479
 20
6152.024021296862
 30
0.0
 11
7817.2240207084478
 21
6152.024021296862
 31
0.0
  0
LINE
  5
7E71
  8
FUTO
 10
7829.3239957084479
 20
6152.024021296862
 30
0.0
 11
7830.9239717084483
 21
6153.6246062968621
 31
0.0
  0
LINE
  5
7E72
  8
FUTO
 10
7830.9238497084471
 20
6185.6040992968628
 30
0.0
 11
7830.9238497084471
 21
6153.6246062968621
 31
0.0
  0
LINE
  5
7E73
  8
FUTO
 10
7817.2238987084475
 20
6187.2037082968618
 30
0.0
 11
7817.2238987084475
 21
6152.024021296862
 31
0.0
  0
LINE
  5
7E74
  8
HOSO
 10
7754.8695277084471
 20
6162.6138642968608
 30
0.0
 11
7817.2236547084476
 21
6162.6138642968608
 31
0.0
  0
LINE
  5
7E75
  8
FUTO
 10
7754.8695277084471
 20
6178.6138642968608
 30
0.0
 11
7817.2236547084476
 21
6178.6138642968608
 31
0.0
  0
LINE
  5
7E76
  8
HOSO
 10
7817.2238987084475
 20
6176.6138642968617
 30
0.0
 11
7754.8695277084471
 21
6176.6138642968617
 31
0.0
  0
LINE
  5
7E77
  8
FUTO
 10
7817.2238987084475
 20
6160.6138642968617
 30
0.0
 11
7754.8695277084471
 21
6160.6138642968617
 31
0.0
  0
LINE
  5
7E78
  8
FUTO
 10
7658.8694057084476
 20
6176.6138642968617
 30
0.0
 11
7660.8694057084494
 21
6178.6138642968608
 31
0.0
  0
LINE
  5
7E79
  8
HOSO
 10
7722.702861041781
 20
6176.6138642968617
 30
0.0
 11
7658.8695287084493
 21
6176.6138642968617
 31
0.0
  0
LINE
  5
7E7A
  8
FUTO
 10
7660.8694057084494
 20
6178.6138642968608
 30
0.0
 11
7723.036194375115
 21
6178.6138642968608
 31
0.0
  0
LINE
  5
7E7B
  8
FUTO
 10
7660.8694057084494
 20
6160.6138642968617
 30
0.0
 11
7658.8694057084476
 21
6162.6138642968608
 31
0.0
  0
LINE
  5
7E7C
  8
FUTO
 10
7720.036194375115
 20
6160.6138642968617
 30
0.0
 11
7660.8694057084494
 21
6160.6138642968617
 31
0.0
  0
LINE
  5
7E7D
  8
HOSO
 10
7658.8694057084476
 20
6162.6138642968608
 30
0.0
 11
7720.369527708448
 21
6162.6138642968608
 31
0.0
  0
LINE
  5
7E7E
  8
FUTO
 10
7660.8694057084494
 20
6178.6138642968608
 30
0.0
 11
7660.8694057084494
 21
6160.6138642968617
 31
0.0
  0
LINE
  5
7E7F
  8
FUTO
 10
7724.869527708448
 20
6189.6138642968617
 30
0.0
 11
7719.869527708448
 21
6159.6138642968608
 31
0.0
  0
LINE
  5
7E80
  8
FUTO
 10
7401.8694057084494
 20
6154.6138642968617
 30
0.0
 11
7537.869527708448
 21
6154.6138642968617
 31
0.0
  0
LINE
  5
7E81
  8
FUTO
 10
7721.869527708448
 20
6159.6138642968608
 30
0.0
 11
7537.869527708448
 21
6159.6138642968608
 31
0.0
  0
LINE
  5
7E82
  8
FUTO
 10
7724.869527708448
 20
6189.6138642968617
 30
0.0
 11
7754.8695277084471
 21
6189.6138642968617
 31
0.0
  0
LINE
  5
7E83
  8
CT
 10
7658.8694057084476
 20
6169.6138642968617
 30
0.0
 11
7840.9238497084489
 21
6169.6138642968617
 31
0.0
  0
LINE
  5
7E84
  8
FUTO
 10
7729.869527708448
 20
6104.6138642968617
 30
0.0
 11
7754.8695277084471
 21
6104.6138642968617
 31
0.0
  0
LINE
  5
7E85
  8
FUTO
 10
7726.869527708448
 20
6111.6138642968617
 30
0.0
 11
7729.869527708448
 21
6111.6138642968617
 31
0.0
  0
LINE
  5
7E86
  8
FUTO
 10
7729.869527708448
 20
6111.6138642968617
 30
0.0
 11
7729.869527708448
 21
6104.6138642968617
 31
0.0
  0
ARC
  5
7E87
  8
FUTO
 10
7676.8697717084488
 20
6126.6138642968617
 30
0.0
 40
3.0
 50
0.000000000000007
 51
90.002335000001153
  0
LINE
  5
7E88
  8
FUTO
 10
7679.8695277084471
 20
6099.6138642968617
 30
0.0
 11
7679.8695277084471
 21
6126.6138642968617
 31
0.0
  0
ARC
  5
7E89
  8
FUTO
 10
7582.869527708448
 20
6126.6138642968617
 30
0.0
 40
3.0
 50
89.997664999998861
 51
180.0
  0
LINE
  5
7E8A
  8
FUTO
 10
7579.869527708448
 20
6099.6138642968617
 30
0.0
 11
7579.869527708448
 21
6126.6138642968617
 31
0.0
  0
LINE
  5
7E8B
  8
FUTO
 10
7582.869527708448
 20
6129.6138642968617
 30
0.0
 11
7676.8695277084471
 21
6129.6138642968617
 31
0.0
  0
LINE
  5
7E8C
  8
FUTO
 10
7579.869527708448
 20
6099.6138642968617
 30
0.0
 11
7679.8695277084471
 21
6099.6138642968617
 31
0.0
  0
LINE
  5
7E8D
  8
FUTO
 10
7729.869527708448
 20
6104.6138642968617
 30
0.0
 11
7679.8695277084471
 21
6104.6138642968617
 31
0.0
  0
LINE
  5
7E8E
  8
FUTO
 10
7721.869527708448
 20
6159.6138642968608
 30
0.0
 11
7726.869527708448
 21
6111.6138642968617
 31
0.0
  0
LINE
  5
7E8F
  8
FUTO
 10
7754.8695277084471
 20
6189.6138642968617
 30
0.0
 11
7754.8695277084471
 21
6104.6138642968617
 31
0.0
  0
LINE
  5
7E90
  8
FUTO
 10
7280.8694057084476
 20
6176.6138642968617
 30
0.0
 11
7278.8694057084476
 21
6178.6138642968608
 31
0.0
  0
LINE
  5
7E91
  8
HOSO
 10
7217.0361333751162
 20
6176.6138642968626
 30
0.0
 11
7280.8694057084476
 21
6176.6138642968617
 31
0.0
  0
LINE
  5
7E92
  8
FUTO
 10
7278.8694057084476
 20
6178.6138642968608
 30
0.0
 11
7216.7028000417813
 21
6178.6138642968608
 31
0.0
  0
LINE
  5
7E93
  8
FUTO
 10
7278.8694057084476
 20
6160.6138642968617
 30
0.0
 11
7280.8694057084476
 21
6162.6138642968608
 31
0.0
  0
LINE
  5
7E94
  8
FUTO
 10
7219.7028000417813
 20
6160.6138642968617
 30
0.0
 11
7278.8694057084476
 21
6160.6138642968617
 31
0.0
  0
LINE
  5
7E95
  8
HOSO
 10
7280.8694057084476
 20
6162.6138642968608
 30
0.0
 11
7219.3694667084474
 21
6162.6138642968608
 31
0.0
  0
LINE
  5
7E96
  8
FUTO
 10
7278.8694057084476
 20
6178.6138642968608
 30
0.0
 11
7278.8694057084476
 21
6160.6138642968617
 31
0.0
  0
LINE
  5
7E97
  8
FUTO
 10
7214.8694667084474
 20
6189.6138642968617
 30
0.0
 11
7219.8694667084483
 21
6159.6138642968608
 31
0.0
  0
LINE
  5
7E98
  8
FUTO
 10
7184.8694667084474
 20
6178.6138642968608
 30
0.0
 11
7122.5149137084491
 21
6178.6138642968608
 31
0.0
  0
LINE
  5
7E99
  8
HOSO
 10
7122.5149747084479
 20
6176.6138642968617
 30
0.0
 11
7184.8694667084474
 21
6176.6138642968617
 31
0.0
  0
LINE
  5
7E9A
  8
HOSO
 10
7184.8694667084474
 20
6162.6138642968626
 30
0.0
 11
7122.5149137084491
 21
6162.6138642968608
 31
0.0
  0
LINE
  5
7E9B
  8
FUTO
 10
7122.5149747084479
 20
6160.6138642968617
 30
0.0
 11
7184.8694667084474
 21
6160.6138642968617
 31
0.0
  0
LINE
  5
7E9C
  8
FUTO
 10
7122.5149747084479
 20
6187.2037082968618
 30
0.0
 11
7122.5149747084479
 21
6152.024021296862
 31
0.0
  0
LINE
  5
7E9D
  8
FUTO
 10
7110.4149987084484
 20
6179.3189422968626
 30
0.0
 11
7108.8150237084492
 21
6177.7193332968618
 31
0.0
  0
LINE
  5
7E9E
  8
FUTO
 10
7110.4149987084484
 20
6179.3189422968626
 30
0.0
 11
7108.8150237084492
 21
6180.9195282968631
 31
0.0
  0
LINE
  5
7E9F
  8
FUTO
 10
7108.8150237084492
 20
6185.6040992968628
 30
0.0
 11
7110.4149987084484
 21
6187.2037082968618
 31
0.0
  0
LINE
  5
7EA0
  8
FUTO
 10
7110.4149987084484
 20
6159.9087862968627
 30
0.0
 11
7108.8150237084492
 21
6161.5093722968622
 31
0.0
  0
LINE
  5
7EA1
  8
FUTO
 10
7110.4149987084484
 20
6159.9087862968627
 30
0.0
 11
7108.8150237084492
 21
6158.3091772968619
 31
0.0
  0
LINE
  5
7EA2
  8
FUTO
 10
7110.4149987084484
 20
6152.024021296862
 30
0.0
 11
7108.8150237084492
 21
6153.6246062968621
 31
0.0
  0
LINE
  5
7EA3
  8
FUTO
 10
7108.8150237084492
 20
6185.6040992968628
 30
0.0
 11
7108.8150237084492
 21
6153.6246062968621
 31
0.0
  0
LINE
  5
7EA4
  8
FUTO
 10
7110.4149987084484
 20
6159.9087862968627
 30
0.0
 11
7122.5149747084479
 21
6159.9087862968627
 31
0.0
  0
LINE
  5
7EA5
  8
FUTO
 10
7110.4149987084484
 20
6179.3189422968626
 30
0.0
 11
7122.5149747084479
 21
6179.3189422968626
 31
0.0
  0
LINE
  5
7EA6
  8
FUTO
 10
7110.4149987084484
 20
6152.024021296862
 30
0.0
 11
7122.5149747084479
 21
6152.024021296862
 31
0.0
  0
LINE
  5
7EA7
  8
FUTO
 10
7110.4149987084484
 20
6187.2037082968618
 30
0.0
 11
7122.5149747084479
 21
6187.2037082968618
 31
0.0
  0
LINE
  5
7EA8
  8
FUTO
 10
7214.8694667084474
 20
6189.6138642968617
 30
0.0
 11
7184.8694667084474
 21
6189.6138642968617
 31
0.0
  0
LINE
  5
7EA9
  8
CT
 10
7280.8694057084476
 20
6169.6138642968617
 30
0.0
 11
7098.8150237084483
 21
6169.6138642968617
 31
0.0
  0
ARC
  5
7EAA
  8
FUTO
 10
7356.8695277084489
 20
6126.6138642968617
 30
0.0
 40
2.999938999999999
 50
0.000000000000007
 51
90.001166999976832
  0
LINE
  5
7EAB
  8
FUTO
 10
7359.8694057084476
 20
6099.6138642968617
 30
0.0
 11
7359.8694057084476
 21
6126.6138642968617
 31
0.0
  0
ARC
  5
7EAC
  8
FUTO
 10
7262.8694057084494
 20
6126.6138642968617
 30
0.0
 40
3.0
 50
89.998832999971086
 51
180.0
  0
LINE
  5
7EAD
  8
FUTO
 10
7212.8694667084474
 20
6111.6138642968617
 30
0.0
 11
7209.8694667084474
 21
6111.6138642968617
 31
0.0
  0
LINE
  5
7EAE
  8
FUTO
 10
7209.8694667084474
 20
6111.6138642968617
 30
0.0
 11
7209.8694667084474
 21
6104.6138642968617
 31
0.0
  0
LINE
  5
7EAF
  8
FUTO
 10
7209.8694667084474
 20
6104.6138642968617
 30
0.0
 11
7259.8694057084494
 21
6104.6138642968617
 31
0.0
  0
LINE
  5
7EB0
  8
FUTO
 10
7259.8694057084494
 20
6099.6138642968617
 30
0.0
 11
7259.8694057084494
 21
6126.6138642968617
 31
0.0
  0
LINE
  5
7EB1
  8
FUTO
 10
7356.8694057084476
 20
6129.6138642968617
 30
0.0
 11
7262.8694057084494
 21
6129.6138642968617
 31
0.0
  0
LINE
  5
7EB2
  8
FUTO
 10
7359.8694057084476
 20
6099.6138642968617
 30
0.0
 11
7259.8694057084494
 21
6099.6138642968617
 31
0.0
  0
LINE
  5
7EB3
  8
FUTO
 10
7209.8694667084474
 20
6104.6138642968617
 30
0.0
 11
7184.8694667084474
 21
6104.6138642968617
 31
0.0
  0
LINE
  5
7EB4
  8
FUTO
 10
7217.8694667084474
 20
6159.6138642968608
 30
0.0
 11
7212.8694667084474
 21
6111.6138642968617
 31
0.0
  0
LINE
  5
7EB5
  8
FUTO
 10
7184.8694667084474
 20
6189.6138642968617
 30
0.0
 11
7184.8694667084474
 21
6104.6138642968617
 31
0.0
  0
LINE
  5
7EB6
  8
CT
 10
7309.8694057084494
 20
6149.6138642968617
 30
0.0
 11
7309.8694057084494
 21
6079.6138642968617
 31
0.0
  0
LINE
  5
7EB7
  8
FUTO
 10
7217.8694667084474
 20
6159.6138642968608
 30
0.0
 11
7401.8694057084494
 21
6159.6138642968608
 31
0.0
  0
LINE
  5
7EB8
  8
FUTO
 10
7359.8694057084476
 20
6104.6138642968617
 30
0.0
 11
7579.8694057084494
 21
6104.6138642968617
 31
0.0
  0
LINE
  5
7EB9
  8
FUTO
 10
9771.3779557904763
 20
6111.6138642968617
 30
0.0
 11
10021.377955790471
 21
6111.6138642968617
 31
0.0
  0
LINE
  5
7EBA
  8
FUTO
 10
9688.3779557904763
 20
6104.6138642968617
 30
0.0
 11
10104.377955790471
 21
6104.6138642968617
 31
0.0
  0
LINE
  5
7EBB
  8
FUTO
 10
9712.3779557904763
 20
6521.6138642968608
 30
0.0
 11
9712.3779557904763
 21
6484.6138642968608
 31
0.0
  0
ARC
  5
7EBC
  8
FUTO
 10
9676.6636007904763
 20
6538.7098122968619
 30
0.0
 40
9.9999679999999991
 50
91.999329000023934
 51
135.0
  0
ARC
  5
7EBD
  8
FUTO
 10
9649.6704357904764
 20
6511.7166482968614
 30
0.0
 40
10.000024
 50
135.0
 51
177.00096100001281
  0
LINE
  5
7EBE
  8
FUTO
 10
9669.5925557904757
 20
6545.7808572968606
 30
0.0
 11
9642.5993917904761
 21
6518.7876922968608
 31
0.0
  0
LINE
  5
7EBF
  8
FUTO
 10
9702.3779557904763
 20
6521.6138642968608
 30
0.0
 11
9707.3779557904763
 21
6521.6138642968608
 31
0.0
  0
LINE
  5
7EC0
  8
FUTO
 10
9707.3779557904763
 20
6521.6138642968608
 30
0.0
 11
9712.3779557904763
 21
6521.6138642968608
 31
0.0
  0
LINE
  5
7EC1
  8
FUTO
 10
9721.7561297904776
 20
6556.6138642968617
 30
0.0
 11
9712.3779557904763
 21
6521.6138642968608
 31
0.0
  0
LINE
  5
7EC2
  8
FUTO
 10
9702.3779557904763
 20
6549.6138642968617
 30
0.0
 11
9676.3147237904759
 21
6548.7037082968609
 31
0.0
  0
LINE
  5
7EC3
  8
FUTO
 10
9677.3779557904745
 20
6511.3091772968619
 30
0.0
 11
9702.3779557904763
 21
6511.3091772968619
 31
0.0
  0
LINE
  5
7EC4
  8
FUTO
 10
9737.3779557904782
 20
6569.6138642968617
 30
0.0
 11
9721.7561297904776
 21
6556.6138642968617
 31
0.0
  0
LINE
  5
7EC5
  8
FUTO
 10
9470.8779557904745
 20
6393.6138642968617
 30
0.0
 11
9470.8779557904745
 21
6329.6138642968617
 31
0.0
  0
ARC
  5
7EC6
  8
FUTO
 10
9622.8779557904782
 20
6437.6138642968608
 30
0.0
 40
2.0
 50
90.0
 51
180.0
  0
LINE
  5
7EC7
  8
FUTO
 10
9670.1179457904782
 20
6490.3760712968624
 30
0.0
 11
9677.3779557904745
 21
6490.3760712968624
 31
0.0
  0
LINE
  5
7EC8
  8
FUTO
 10
9670.1179457904782
 20
6485.6451142968617
 30
0.0
 11
9677.3779557904745
 21
6485.6451142968617
 31
0.0
  0
LINE
  5
7EC9
  8
CT
 10
9681.5495867904756
 20
6479.8221162968621
 30
0.0
 11
9665.9753677904773
 21
6479.8221162968621
 31
0.0
  0
LINE
  5
7ECA
  8
FUTO
 10
9670.1179457904782
 20
6485.6451142968617
 30
0.0
 11
9669.1579847904759
 21
6486.6050752968622
 31
0.0
  0
LINE
  5
7ECB
  8
FUTO
 10
9670.1179457904782
 20
6485.6451142968617
 30
0.0
 11
9669.1579847904759
 21
6484.6851532968631
 31
0.0
  0
LINE
  5
7ECC
  8
FUTO
 10
9670.1179457904782
 20
6490.3760712968624
 30
0.0
 11
9669.1579847904759
 21
6489.4161102968619
 31
0.0
  0
LINE
  5
7ECD
  8
FUTO
 10
9669.1579847904759
 20
6474.6138642968617
 30
0.0
 11
9664.4675557904757
 21
6474.6138642968617
 31
0.0
  0
LINE
  5
7ECE
  8
FUTO
 10
9670.1179457904782
 20
6469.2679172968619
 30
0.0
 11
9677.3779557904745
 21
6469.2679172968619
 31
0.0
  0
LINE
  5
7ECF
  8
FUTO
 10
9670.1179457904782
 20
6473.9988742968617
 30
0.0
 11
9677.3779557904745
 21
6473.9988742968617
 31
0.0
  0
LINE
  5
7ED0
  8
FUTO
 10
9669.1579847904759
 20
6470.2281222968613
 30
0.0
 11
9670.1179457904782
 21
6469.2679172968619
 31
0.0
  0
LINE
  5
7ED1
  8
FUTO
 10
9670.1179457904782
 20
6473.9988742968617
 30
0.0
 11
9669.1579847904759
 21
6473.0389132968621
 31
0.0
  0
LINE
  5
7ED2
  8
FUTO
 10
9670.1179457904782
 20
6473.9988742968617
 30
0.0
 11
9669.1579847904759
 21
6474.9588352968613
 31
0.0
  0
LINE
  5
7ED3
  8
FUTO
 10
9677.3779557904745
 20
6469.2679172968619
 30
0.0
 11
9677.3779557904745
 21
6490.3760712968624
 31
0.0
  0
LINE
  5
7ED4
  8
FUTO
 10
9669.1579847904759
 20
6470.2281222968613
 30
0.0
 11
9669.1579847904759
 21
6489.4161102968619
 31
0.0
  0
ARC
  5
7ED5
  8
FUTO
 10
9722.3779557904763
 20
6484.6138642968608
 30
0.0
 40
10.0
 50
90.0
 51
180.0
  0
LINE
  5
7ED6
  8
FUTO
 10
9677.3779557904745
 20
6489.8350562968608
 30
0.0
 11
9702.3779557904763
 21
6489.8350562968608
 31
0.0
  0
LINE
  5
7ED7
  8
FUTO
 10
9677.3779557904745
 20
6466.0296362968629
 30
0.0
 11
9702.3779557904763
 21
6466.0296362968629
 31
0.0
  0
ARC
  5
7ED8
  8
FUTO
 10
9633.0310317904787
 20
6442.6138642968626
 30
0.0
 40
2.9999599999999988
 50
270.0
 51
357.00044300001662
  0
LINE
  5
7ED9
  8
FUTO
 10
9633.0310317904787
 20
6439.6138642968617
 30
0.0
 11
9622.8779557904782
 21
6439.6138642968617
 31
0.0
  0
LINE
  5
7EDA
  8
FUTO
 10
9580.8779557904763
 20
6393.6138642968617
 30
0.0
 11
9580.8779557904763
 21
6389.6138642968617
 31
0.0
  0
LINE
  5
7EDB
  8
FUTO
 10
9610.8779557904782
 20
6392.1138642968617
 30
0.0
 11
9620.8779557904763
 21
6392.1138642968617
 31
0.0
  0
LINE
  5
7EDC
  8
FUTO
 10
9610.8779557904782
 20
6327.1138642968617
 30
0.0
 11
9620.8779557904763
 21
6327.1138642968617
 31
0.0
  0
LINE
  5
7EDD
  8
FUTO
 10
9610.8779557904782
 20
6327.1138642968617
 30
0.0
 11
9610.8779557904782
 21
6392.1138642968617
 31
0.0
  0
ARC
  5
7EDE
  8
FUTO
 10
9722.3779557904763
 20
6384.6138642968617
 30
0.0
 40
10.0
 50
180.0
 51
270.0
  0
LINE
  5
7EDF
  8
FUTO
 10
9620.8779557904763
 20
6437.6138642968608
 30
0.0
 11
9620.8779557904763
 21
6359.6138642968617
 31
0.0
  0
LINE
  5
7EE0
  8
FUTO
 10
9712.3779557904763
 20
6384.6138642968617
 30
0.0
 11
9712.3779557904763
 21
6484.6138642968608
 31
0.0
  0
LINE
  5
7EE1
  8
FUTO
 10
9610.8779557904782
 20
6389.6138642968617
 30
0.0
 11
9470.8779557904745
 21
6389.6138642968617
 31
0.0
  0
LINE
  5
7EE2
  8
FUTO
 10
9610.8779557904782
 20
6329.6138642968617
 30
0.0
 11
9470.8779557904745
 21
6329.6138642968617
 31
0.0
  0
LINE
  5
7EE3
  8
FUTO
 10
9580.8779557904763
 20
6393.6138642968617
 30
0.0
 11
9470.8779557904745
 21
6393.6138642968617
 31
0.0
  0
LINE
  5
7EE4
  8
FUTO
 10
9707.3779557904763
 20
6521.6138642968608
 30
0.0
 11
9707.3779557904763
 21
6359.6138642968617
 31
0.0
  0
LINE
  5
7EE5
  8
FUTO
 10
9702.3779557904763
 20
6549.6138642968617
 30
0.0
 11
9702.3779557904763
 21
6359.6138642968617
 31
0.0
  0
LINE
  5
7EE6
  8
FUTO
 10
9639.6841077904755
 20
6512.2398412968623
 30
0.0
 11
9635.0412857904757
 21
6423.648532296862
 31
0.0
  0
LINE
  5
7EE7
  8
FUTO
 10
9677.3779557904745
 20
6511.3091772968619
 30
0.0
 11
9677.3779557904745
 21
6466.0296362968629
 31
0.0
  0
LINE
  5
7EE8
  8
FUTO
 10
9707.3779557904763
 20
6521.6138642968608
 30
0.0
 11
9707.3779557904763
 21
6359.6138642968617
 31
0.0
  0
ARC
  5
7EE9
  8
FUTO
 10
9885.1429707904754
 20
6577.8929782968617
 30
0.0
 40
2.9999909999999992
 50
96.115172999988943
 51
174.80557099997009
  0
LINE
  5
7EEA
  8
FUTO
 10
9882.1552997904764
 20
6578.1645852968604
 30
0.0
 11
9881.3779557904763
 21
6569.6138642968617
 31
0.0
  0
ARC
  5
7EEB
  8
FUTO
 10
9875.4195817904765
 20
6570.343662296862
 30
0.0
 40
5.9999760000000002
 50
354.80557299999322
 51
54.396263000016731
  0
ARC
  5
7EEC
  8
FUTO
 10
9907.6129407904773
 20
6577.8929782968617
 30
0.0
 40
2.999981
 50
5.194427000006832
 51
83.884827000011072
  0
ARC
  5
7EED
  8
FUTO
 10
9896.3779557904763
 20
6599.6138642968617
 30
0.0
 40
30.0
 50
305.19004800002568
 51
305.60386699999998
  0
LINE
  5
7EEE
  8
FUTO
 10
9896.3779557904763
 20
6582.1138642968617
 30
0.0
 11
9907.9325207904785
 21
6580.8758882968623
 31
0.0
  0
LINE
  5
7EEF
  8
FUTO
 10
9910.6006117904781
 20
6578.1645852968604
 30
0.0
 11
9911.3779557904763
 21
6569.6138642968617
 31
0.0
  0
ARC
  5
7EF0
  8
FUTO
 10
9917.3363297904762
 20
6570.343662296862
 30
0.0
 40
5.9999820000000001
 50
125.6037369999832
 51
185.19442700000681
  0
LINE
  5
7EF1
  8
FUTO
 10
9896.3779557904763
 20
6582.1138642968617
 30
0.0
 11
9884.823390790476
 21
6580.8758882968623
 31
0.0
  0
LINE
  5
7EF2
  8
FUTO
 10
9884.823390790476
 20
6580.8758882968623
 30
0.0
 11
9907.9325207904785
 21
6580.8758882968623
 31
0.0
  0
LINE
  5
7EF3
  8
CT
 10
9936.3779557904763
 20
6599.6138642968617
 30
0.0
 11
9856.3779557904782
 21
6599.6138642968617
 31
0.0
  0
LINE
  5
7EF4
  8
FUTO
 10
9837.3779557904763
 20
6508.6138642968617
 30
0.0
 11
9955.3779557904763
 21
6508.6138642968617
 31
0.0
  0
CIRCLE
  5
7EF5
  8
FUTO
 10
9896.3779557904763
 20
6599.6138642968617
 30
0.0
 40
17.5
  0
ARC
  5
7EF6
  8
FUTO
 10
9896.3779557904763
 20
6599.6138642968617
 30
0.0
 40
30.0
 50
305.60386699999998
 51
234.39614899998969
  0
LINE
  5
7EF7
  8
FUTO
 10
10055.37789479047
 20
6569.6138642968617
 30
0.0
 11
10065.37789479047
 21
6561.2920872968616
 31
0.0
  0
ARC
  5
7EF8
  8
FUTO
 10
10111.851283790469
 20
6543.1138642968617
 30
0.0
 40
20.0
 50
69.99995399998474
 51
90.0
  0
ARC
  5
7EF9
  8
FUTO
 10
10149.12667379047
 20
6572.1138642968608
 30
0.0
 40
20.0
 50
250.00027499999021
 51
270.0
  0
LINE
  5
7EFA
  8
FUTO
 10
10093.87789479047
 20
6507.2627902968616
 30
0.0
 11
10100.37789479047
 21
6511.0157202968621
 31
0.0
  0
LINE
  5
7EFB
  8
FUTO
 10
10100.37789479047
 20
6511.0157202968621
 30
0.0
 11
10106.87789479047
 21
6507.2627902968616
 31
0.0
  0
LINE
  5
7EFC
  8
FUTO
 10
10118.69173779047
 20
6561.9078102968624
 30
0.0
 11
10142.28634179047
 21
6553.3199192968596
 31
0.0
  0
LINE
  5
7EFD
  8
FUTO
 10
10065.37789479047
 20
6563.1138642968617
 30
0.0
 11
10111.851283790469
 21
6563.1138642968617
 31
0.0
  0
LINE
  5
7EFE
  8
FUTO
 10
10055.37789479047
 20
6569.6138642968617
 30
0.0
 11
9896.3779557904763
 21
6569.6138642968617
 31
0.0
  0
LINE
  5
7EFF
  8
FUTO
 10
9958.3778947904757
 20
6501.6138642968608
 30
0.0
 11
9834.3779557904763
 21
6501.6138642968608
 31
0.0
  0
ARC
  5
7F00
  8
FUTO
 10
9834.3779557904763
 20
6326.9161102968619
 30
0.0
 40
20.0
 50
180.0
 51
270.0
  0
CIRCLE
  5
7F01
  8
FUTO
 10
9896.3779557904763
 20
6293.9161102968619
 30
0.0
 40
3.5
  0
LINE
  5
7F02
  8
CT
 10
9902.8308367904756
 20
6293.9161102968619
 30
0.0
 11
9888.2417257904763
 21
6293.9161102968619
 31
0.0
  0
LINE
  5
7F03
  8
FUTO
 10
9834.3779557904763
 20
6306.9161102968619
 30
0.0
 11
9958.3779557904763
 21
6306.9161102968619
 31
0.0
  0
LINE
  5
7F04
  8
FUTO
 10
9955.3778947904757
 20
6286.9161102968619
 30
0.0
 11
9837.3779557904763
 21
6286.9161102968619
 31
0.0
  0
LINE
  5
7F05
  8
FUTO
 10
9814.3779557904763
 20
6481.6138642968617
 30
0.0
 11
9814.3779557904763
 21
6326.9161102968619
 31
0.0
  0
LINE
  5
7F06
  8
FUTO
 10
9807.3779557904782
 20
6478.6138642968617
 30
0.0
 11
9807.3779557904782
 21
6316.9161102968619
 31
0.0
  0
LINE
  5
7F07
  8
FUTO
 10
10065.37789479047
 20
6494.6138642968617
 30
0.0
 11
9980.7550917904773
 21
6494.6138642968617
 31
0.0
  0
LINE
  5
7F08
  8
FUTO
 10
10100.37789479047
 20
6496.0044892968617
 30
0.0
 11
10106.87789479047
 21
6499.7574192968614
 31
0.0
  0
LINE
  5
7F09
  8
FUTO
 10
10093.87789479047
 20
6499.7574192968614
 30
0.0
 11
10100.37789479047
 21
6496.0044892968617
 31
0.0
  0
LINE
  5
7F0A
  8
CT
 10
10092.93575579047
 20
6503.510105296863
 30
0.0
 11
10107.39181079047
 21
6503.510105296863
 31
0.0
  0
LINE
  5
7F0B
  8
FUTO
 10
10065.37789479047
 20
6374.6138642968608
 30
0.0
 11
9985.3778947904757
 21
6374.6138642968608
 31
0.0
  0
LINE
  5
7F0C
  8
FUTO
 10
9978.3778947904757
 20
6481.6138642968617
 30
0.0
 11
9978.3778947904757
 21
6326.9161102968619
 31
0.0
  0
LINE
  5
7F0D
  8
FUTO
 10
9985.3778947904757
 20
6478.6138642968617
 30
0.0
 11
9985.3778947904757
 21
6316.9161102968619
 31
0.0
  0
ARC
  5
7F0E
  8
FUTO
 10
9958.3778947904757
 20
6326.9161102968619
 30
0.0
 40
20.0
 50
270.0
 51
0.000000000000007
  0
LINE
  5
7F0F
  8
CT
 10
10005.37789479047
 20
6434.6138642968608
 30
0.0
 11
9787.3779557904763
 21
6434.6138642968608
 31
0.0
  0
ARC
  5
7F10
  8
FUTO
 10
9958.3778947904757
 20
6481.6138642968617
 30
0.0
 40
20.0
 50
0.000000000000007
 51
90.0
  0
ARC
  5
7F11
  8
FUTO
 10
9834.3779557904763
 20
6481.6138642968617
 30
0.0
 40
20.0
 50
90.0
 51
180.0
  0
ARC
  5
7F12
  8
FUTO
 10
9837.3779557904763
 20
6478.6138642968617
 30
0.0
 40
30.0
 50
90.0
 51
180.0
  0
ARC
  5
7F13
  8
FUTO
 10
9955.3778947904757
 20
6478.6138642968617
 30
0.0
 40
30.0
 50
0.000000000000007
 51
90.0
  0
LINE
  5
7F14
  8
CT
 10
10100.37789479047
 20
6495.1194802968612
 30
0.0
 11
10100.37789479047
 21
6511.9410132968605
 31
0.0
  0
LINE
  5
7F15
  8
FUTO
 10
10106.87789479047
 20
6499.7574192968614
 30
0.0
 11
10106.87789479047
 21
6507.2627902968616
 31
0.0
  0
LINE
  5
7F16
  8
FUTO
 10
10093.87789479047
 20
6499.7574192968614
 30
0.0
 11
10093.87789479047
 21
6507.2627902968616
 31
0.0
  0
CIRCLE
  5
7F17
  8
FUTO
 10
10100.37789479047
 20
6503.510105296863
 30
0.0
 40
6.5
  0
LINE
  5
7F18
  8
FUTO
 10
9737.3779557904782
 20
6569.6138642968617
 30
0.0
 11
9896.3779557904763
 21
6569.6138642968617
 31
0.0
  0
LINE
  5
7F19
  8
FUTO
 10
9722.3779557904763
 20
6494.6138642968617
 30
0.0
 11
9812.0007587904765
 21
6494.6138642968617
 31
0.0
  0
LINE
  5
7F1A
  8
FUTO
 10
9722.3779557904763
 20
6374.6138642968608
 30
0.0
 11
9807.3779557904782
 21
6374.6138642968608
 31
0.0
  0
ARC
  5
7F1B
  8
FUTO
 10
9622.8779557904782
 20
6281.6138642968608
 30
0.0
 40
2.0
 50
180.0
 51
270.0
  0
ARC
  5
7F1C
  8
FUTO
 10
9633.0310317904787
 20
6276.6138642968617
 30
0.0
 40
3.0
 50
2.9995570000354208
 51
90.0
  0
ARC
  5
7F1D
  8
FUTO
 10
9647.7275647904771
 20
6244.582126296862
 30
0.0
 40
10.000139999999989
 50
183.00042699998181
 51
225.00097699998821
  0
LINE
  5
7F1E
  8
FUTO
 10
9670.1179457904782
 20
6249.9598122968619
 30
0.0
 11
9677.3779557904745
 21
6249.9598122968619
 31
0.0
  0
LINE
  5
7F1F
  8
FUTO
 10
9670.1179457904782
 20
6245.2288552968621
 30
0.0
 11
9677.3779557904745
 21
6245.2288552968621
 31
0.0
  0
LINE
  5
7F20
  8
FUTO
 10
9669.1579847904759
 20
6248.9996072968625
 30
0.0
 11
9670.1179457904782
 21
6249.9598122968619
 31
0.0
  0
LINE
  5
7F21
  8
FUTO
 10
9670.1179457904782
 20
6245.2288552968621
 30
0.0
 11
9669.1579847904759
 21
6246.1888162968617
 31
0.0
  0
LINE
  5
7F22
  8
FUTO
 10
9670.1179457904782
 20
6245.2288552968621
 30
0.0
 11
9669.1579847904759
 21
6244.2688942968616
 31
0.0
  0
LINE
  5
7F23
  8
FUTO
 10
9670.1179457904782
 20
6233.5826142968617
 30
0.0
 11
9677.3779557904745
 21
6233.5826142968617
 31
0.0
  0
LINE
  5
7F24
  8
CT
 10
9681.5495867904756
 20
6239.4056122968614
 30
0.0
 11
9665.9753677904773
 21
6239.4056122968614
 31
0.0
  0
LINE
  5
7F25
  8
FUTO
 10
9670.1179457904782
 20
6233.5826142968617
 30
0.0
 11
9669.1579847904759
 21
6232.6226532968622
 31
0.0
  0
LINE
  5
7F26
  8
FUTO
 10
9670.1179457904782
 20
6233.5826142968617
 30
0.0
 11
9669.1579847904759
 21
6234.5425752968613
 31
0.0
  0
LINE
  5
7F27
  8
FUTO
 10
9669.1579847904759
 20
6248.9996072968625
 30
0.0
 11
9669.1579847904759
 21
6229.8116182968624
 31
0.0
  0
LINE
  5
7F28
  8
FUTO
 10
9677.3779557904745
 20
6229.3926732968621
 30
0.0
 11
9702.3779557904763
 21
6229.3926732968621
 31
0.0
  0
LINE
  5
7F29
  8
FUTO
 10
9677.3779557904745
 20
6253.1980932968618
 30
0.0
 11
9702.3779557904763
 21
6253.1980932968618
 31
0.0
  0
LINE
  5
7F2A
  8
FUTO
 10
9670.1179457904782
 20
6228.851657296861
 30
0.0
 11
9677.3779557904745
 21
6228.851657296861
 31
0.0
  0
ARC
  5
7F2B
  8
FUTO
 10
9676.5200457904757
 20
6215.789646296862
 30
0.0
 40
10.0
 50
225.0
 51
270.0
  0
ARC
  5
7F2C
  8
FUTO
 10
9649.6704357904764
 20
6207.5110812968614
 30
0.0
 40
9.9999679999999991
 50
182.9990540000266
 51
225.0
  0
LINE
  5
7F2D
  8
FUTO
 10
9712.3779557904763
 20
6207.8531222968613
 30
0.0
 11
9731.466578790476
 21
6207.8531222968613
 31
0.0
  0
LINE
  5
7F2E
  8
FUTO
 10
9713.4138447904788
 20
6197.6138642968617
 30
0.0
 11
9707.3779557904763
 21
6197.6138642968617
 31
0.0
  0
LINE
  5
7F2F
  8
FUTO
 10
9702.3779557904763
 20
6197.6138642968617
 30
0.0
 11
9707.3779557904763
 21
6197.6138642968617
 31
0.0
  0
ARC
  5
7F30
  8
FUTO
 10
9719.3779557904763
 20
6176.6138642968617
 30
0.0
 40
3.0
 50
90.0
 51
180.0
  0
ARC
  5
7F31
  8
FUTO
 10
9726.4665787904778
 20
6184.6138642968617
 30
0.0
 40
5.0
 50
270.0
 51
0.000000000000007
  0
LINE
  5
7F32
  8
FUTO
 10
9712.3779557904763
 20
6200.740329296862
 30
0.0
 11
9714.9365497904764
 21
6200.740329296862
 31
0.0
  0
LINE
  5
7F33
  8
FUTO
 10
9719.3779557904763
 20
6179.6138642968617
 30
0.0
 11
9712.3779557904763
 21
6200.740329296862
 31
0.0
  0
LINE
  5
7F34
  8
FUTO
 10
9731.466578790476
 20
6184.6138642968617
 30
0.0
 11
9731.466578790476
 21
6207.8531222968613
 31
0.0
  0
LINE
  5
7F35
  8
FUTO
 10
9722.5361587904772
 20
6179.6138642968617
 30
0.0
 11
9712.3779557904763
 21
6207.8531222968613
 31
0.0
  0
LINE
  5
7F36
  8
FUTO
 10
9676.5200457904757
 20
6205.789646296862
 30
0.0
 11
9702.3779557904763
 21
6205.789646296862
 31
0.0
  0
LINE
  5
7F37
  8
FUTO
 10
9677.3779557904745
 20
6207.9185522968619
 30
0.0
 11
9702.3779557904763
 21
6207.9185522968619
 31
0.0
  0
LINE
  5
7F38
  8
FUTO
 10
9636.0093037904771
 20
6277.1091042968619
 30
0.0
 11
9639.6841077904755
 21
6206.9878882968605
 31
0.0
  0
LINE
  5
7F39
  8
FUTO
 10
9677.3779557904745
 20
6207.9185522968619
 30
0.0
 11
9677.3779557904745
 21
6253.1980932968618
 31
0.0
  0
LINE
  5
7F3A
  8
FUTO
 10
9669.4490007904751
 20
6208.7186012968623
 30
0.0
 11
9640.6565197904765
 21
6237.5108372968616
 31
0.0
  0
LINE
  5
7F3B
  8
FUTO
 10
9670.1179457904782
 20
6228.851657296861
 30
0.0
 11
9669.1579847904759
 21
6229.8116182968624
 31
0.0
  0
LINE
  5
7F3C
  8
FUTO
 10
9677.3779557904745
 20
6249.9598122968619
 30
0.0
 11
9677.3779557904745
 21
6228.851657296861
 31
0.0
  0
LINE
  5
7F3D
  8
FUTO
 10
9633.0310317904787
 20
6279.6138642968617
 30
0.0
 11
9622.8779557904782
 21
6279.6138642968617
 31
0.0
  0
ARC
  5
7F3E
  8
FUTO
 10
9676.6636007904763
 20
6180.5179172968619
 30
0.0
 40
9.9999839999999995
 50
225.0
 51
268.00067099997602
  0
LINE
  5
7F3F
  8
FUTO
 10
9702.3779557904763
 20
6169.6138642968617
 30
0.0
 11
9676.3147237904759
 21
6170.524021296862
 31
0.0
  0
LINE
  5
7F40
  8
FUTO
 10
9716.3779557904763
 20
6159.6138642968608
 30
0.0
 11
9716.3779557904763
 21
6176.6138642968617
 31
0.0
  0
LINE
  5
7F41
  8
FUTO
 10
9669.5925557904757
 20
6173.4468722968613
 30
0.0
 11
9642.5993917904761
 21
6200.4400362968609
 31
0.0
  0
LINE
  5
7F42
  8
FUTO
 10
9856.7778577904755
 20
6181.2217752968618
 30
0.0
 11
9776.3779557904763
 21
6179.6138642968617
 31
0.0
  0
ARC
  5
7F43
  8
FUTO
 10
9871.3779557904782
 20
6242.1099582968618
 30
0.0
 40
5.0
 50
0.000000000000007
 51
90.0
  0
ARC
  5
7F44
  8
FUTO
 10
9921.3779557904763
 20
6242.1099582968618
 30
0.0
 40
5.0
 50
90.0
 51
180.0
  0
ARC
  5
7F45
  8
FUTO
 10
9936.3778947904757
 20
6201.2178682968606
 30
0.0
 40
20.000091999999999
 50
180.0
 51
268.85427899999053
  0
LINE
  5
7F46
  8
FUTO
 10
9916.3779557904763
 20
6242.1099582968618
 30
0.0
 11
9916.3779557904763
 21
6201.2178682968606
 31
0.0
  0
LINE
  5
7F47
  8
FUTO
 10
9876.3779557904763
 20
6242.1099582968618
 30
0.0
 11
9876.3779557904763
 21
6201.2178682968606
 31
0.0
  0
ARC
  5
7F48
  8
FUTO
 10
9856.3779557904782
 20
6201.2178682968606
 30
0.0
 40
20.0
 50
271.14572100000942
 51
0.000000000000007
  0
LINE
  5
7F49
  8
FUTO
 10
9796.3779557904763
 20
6159.6138642968608
 30
0.0
 11
9796.3779557904763
 21
6160.6138642968617
 31
0.0
  0
ARC
  5
7F4A
  8
FUTO
 10
9801.3779557904782
 20
6160.6138642968617
 30
0.0
 40
5.0
 50
90.0
 51
180.0
  0
LINE
  5
7F4B
  8
FUTO
 10
9801.3779557904782
 20
6165.6138642968617
 30
0.0
 11
9896.3779557904763
 21
6165.6138642968617
 31
0.0
  0
ARC
  5
7F4C
  8
FUTO
 10
10073.37789479047
 20
6176.6138642968617
 30
0.0
 40
3.0
 50
0.000000000000007
 51
90.0
  0
LINE
  5
7F4D
  8
FUTO
 10
10016.37789479047
 20
6179.6138642968617
 30
0.0
 11
10024.05744771478
 21
6179.6138642968617
 31
0.0
  0
LINE
  5
7F4E
  8
FUTO
 10
10100.37789479047
 20
6223.2232392968617
 30
0.0
 11
10106.87789479047
 21
6219.4703102968624
 31
0.0
  0
LINE
  5
7F4F
  8
FUTO
 10
10093.87789479047
 20
6219.4703102968624
 30
0.0
 11
10100.37789479047
 21
6223.2232392968617
 31
0.0
  0
LINE
  5
7F50
  8
CT
 10
10092.93575579047
 20
6215.7176242968608
 30
0.0
 11
10107.39181079047
 21
6215.7176242968608
 31
0.0
  0
LINE
  5
7F51
  8
FUTO
 10
10093.87789479047
 20
6211.9649392968613
 30
0.0
 11
10100.37789479047
 21
6208.2120092968607
 31
0.0
  0
LINE
  5
7F52
  8
FUTO
 10
10100.37789479047
 20
6208.2120092968607
 30
0.0
 11
10106.87789479047
 21
6211.9649392968613
 31
0.0
  0
LINE
  5
7F53
  8
CT
 10
10100.37789479047
 20
6224.1082492968608
 30
0.0
 11
10100.37789479047
 21
6207.2867162968614
 31
0.0
  0
LINE
  5
7F54
  8
FUTO
 10
10106.87789479047
 20
6219.4703102968624
 30
0.0
 11
10106.87789479047
 21
6211.9649392968613
 31
0.0
  0
LINE
  5
7F55
  8
FUTO
 10
10093.87789479047
 20
6219.4703102968624
 30
0.0
 11
10093.87789479047
 21
6211.9649392968613
 31
0.0
  0
CIRCLE
  5
7F56
  8
FUTO
 10
10100.37789479047
 20
6215.7176242968608
 30
0.0
 40
6.5
  0
ARC
  5
7F57
  8
FUTO
 10
9991.3778947904757
 20
6160.6138642968617
 30
0.0
 40
5.0
 50
0.000000000000007
 51
90.0
  0
LINE
  5
7F58
  8
FUTO
 10
9996.3778947904775
 20
6159.6138642968608
 30
0.0
 11
9996.3778947904775
 21
6160.6138642968617
 31
0.0
  0
LINE
  5
7F59
  8
FUTO
 10
9996.3778947904775
 20
6159.6138642968608
 30
0.0
 11
10021.377955790471
 21
6159.6138642968608
 31
0.0
  0
LINE
  5
7F5A
  8
FUTO
 10
10135.983973790469
 20
6163.6138642968617
 30
0.0
 11
10145.599940790469
 21
6167.1138642968617
 31
0.0
  0
LINE
  5
7F5B
  8
FUTO
 10
10135.983973790469
 20
6163.6138642968617
 30
0.0
 11
10076.37789479047
 21
6163.6138642968617
 31
0.0
  0
LINE
  5
7F5C
  8
FUTO
 10
10076.37789479047
 20
6159.6138642968608
 30
0.0
 11
10076.37789479047
 21
6176.6138642968617
 31
0.0
  0
LINE
  5
7F5D
  8
FUTO
 10
9935.9779927904765
 20
6181.2217752968618
 30
0.0
 11
10016.37789479047
 21
6179.6138642968617
 31
0.0
  0
LINE
  5
7F5E
  8
FUTO
 10
9991.3778947904757
 20
6165.6138642968617
 30
0.0
 11
9896.3779557904763
 21
6165.6138642968617
 31
0.0
  0
LINE
  5
7F5F
  8
FUTO
 10
9776.3779557904763
 20
6179.6138642968617
 30
0.0
 11
9768.6984638661652
 21
6179.6138642968617
 31
0.0
  0
LINE
  5
7F60
  8
FUTO
 10
9796.3779557904763
 20
6159.6138642968608
 30
0.0
 11
9771.3779557904763
 21
6159.6138642968608
 31
0.0
  0
ARC
  5
7F61
  8
FUTO
 10
9955.3778947904757
 20
6316.9161102968619
 30
0.0
 40
30.0
 50
270.0
 51
0.000000000000007
  0
ARC
  5
7F62
  8
FUTO
 10
9837.3779557904763
 20
6316.9161102968619
 30
0.0
 40
30.0
 50
180.0
 51
270.0
  0
LINE
  5
7F63
  8
CT
 10
9896.3779557904763
 20
6649.6138642968617
 30
0.0
 11
9896.3779557904763
 21
6079.6138642968617
 31
0.0
  0
LINE
  5
7F64
  8
FUTO
 10
9707.3779557904763
 20
6197.6138642968617
 30
0.0
 11
9707.3779557904763
 21
6359.6138642968617
 31
0.0
  0
LINE
  5
7F65
  8
FUTO
 10
10065.37789479047
 20
6563.1138642968617
 30
0.0
 11
10065.37789479047
 21
6179.6138642968617
 31
0.0
  0
LINE
  5
7F66
  8
FUTO
 10
10115.37789479047
 20
6562.8003882968605
 30
0.0
 11
10115.37789479047
 21
6163.6138642968617
 31
0.0
  0
LINE
  5
7F67
  8
FUTO
 10
10145.577845790471
 20
6552.4312472968622
 30
0.0
 11
10145.577845790471
 21
6167.1138642968617
 31
0.0
  0
LINE
  5
7F68
  8
FUTO
 10
9707.3779557904763
 20
6197.6138642968617
 30
0.0
 11
9707.3779557904763
 21
6359.6138642968617
 31
0.0
  0
LINE
  5
7F69
  8
FUTO
 10
9702.3779557904763
 20
6169.6138642968617
 30
0.0
 11
9702.3779557904763
 21
6359.6138642968617
 31
0.0
  0
LINE
  5
7F6A
  8
FUTO
 10
9620.8779557904763
 20
6281.6138642968608
 30
0.0
 11
9620.8779557904763
 21
6359.6138642968617
 31
0.0
  0
ARC
  5
7F6B
  8
FUTO
 10
10210.066981790471
 20
6537.1138642968617
 30
0.0
 40
15.0
 50
60.00018299999563
 51
90.0
  0
ARC
  5
7F6C
  8
FUTO
 10
10265.37789479047
 20
6516.727146296862
 30
0.0
 40
4.9999580000000003
 50
0.000000000000007
 51
59.999718000001181
  0
LINE
  5
7F6D
  8
FUTO
 10
10267.87789479047
 20
6521.0572242968619
 30
0.0
 11
10217.566981790471
 21
6550.1043432968618
 31
0.0
  0
LINE
  5
7F6E
  8
FUTO
 10
7700.9292197084487
 20
6505.8428682968633
 30
0.0
 11
7699.5216267084488
 21
6505.082126296862
 31
0.0
  0
ARC
  5
7F6F
  8
FUTO
 10
7701.4046837084479
 20
6504.9629852968628
 30
0.0
 40
1.000079999999999
 50
28.39501399997588
 51
118.3855359999758
  0
ARC
  5
7F70
  8
FUTO
 10
7699.9970907084489
 20
6504.2022432968624
 30
0.0
 40
1.0001299999999991
 50
118.3855359999758
 51
208.3860319999763
  0
LINE
  5
7F71
  8
FUTO
 10
7620.090840708448
 20
6504.3689912968612
 30
0.0
 11
7620.9394737084476
 21
6504.3689912968612
 31
0.0
  0
LINE
  5
7F72
  8
FUTO
 10
7620.090840708448
 20
6504.3689912968612
 30
0.0
 11
7620.090840708448
 21
6505.2176242968608
 31
0.0
  0
LINE
  5
7F73
  8
FUTO
 10
7612.3373007084483
 20
6512.1226532968631
 30
0.0
 11
7608.745137708449
 21
6508.5306122968623
 31
0.0
  0
LINE
  5
7F74
  8
FUTO
 10
7613.1858117084494
 20
6512.1226532968631
 30
0.0
 11
7612.3373007084483
 21
6512.1226532968631
 31
0.0
  0
LINE
  5
7F75
  8
FUTO
 10
7614.6246547084493
 20
6509.8353002968624
 30
0.0
 11
7614.6246547084493
 21
6510.6839332968639
 31
0.0
  0
LINE
  5
7F76
  8
FUTO
 10
7614.6246547084493
 20
6509.8353002968624
 30
0.0
 11
7611.032491708449
 21
6506.2432592968617
 31
0.0
  0
LINE
  5
7F77
  8
FUTO
 10
7614.6246547084493
 20
6509.8353002968624
 30
0.0
 11
7615.4731647084491
 21
6509.8353002968624
 31
0.0
  0
LINE
  5
7F78
  8
FUTO
 10
7815.9250697084481
 20
6295.1844212968626
 30
0.0
 11
7818.7234097084474
 21
6296.6968722968622
 31
0.0
  0
ARC
  5
7F79
  8
FUTO
 10
7820.2757777084489
 20
6285.0320772968626
 30
0.0
 40
1.0001299999999991
 50
298.38552900002043
 51
28.382720999977689
  0
ARC
  5
7F7A
  8
FUTO
 10
6821.4985557084483
 20
6371.1451142968617
 30
0.0
 40
1000.0
 50
355.7304690000102
 51
5.1562809999889501
  0
LINE
  5
7F7B
  8
FUTO
 10
7700.8385217084488
 20
6500.5425752968613
 30
0.0
 11
7692.492085708448
 21
6496.0313452968621
 31
0.0
  0
ARC
  5
7F7C
  8
FUTO
 10
7694.8694057084476
 20
6491.632663296863
 30
0.0
 40
5.000062999999999
 50
118.3907549999861
 51
180.0
  0
LINE
  5
7F7D
  8
CT
 10
7672.424580708448
 20
6434.6138642968608
 30
0.0
 11
7708.8579307084474
 21
6434.6138642968608
 31
0.0
  0
LINE
  5
7F7E
  8
FUTO
 10
7622.3781947084472
 20
6502.0816382968624
 30
0.0
 11
7618.7861537084482
 21
6498.4895972968634
 31
0.0
  0
LINE
  5
7F7F
  8
FUTO
 10
7622.3781947084472
 20
6502.0816382968624
 30
0.0
 11
7622.3781947084472
 21
6502.9302712968611
 31
0.0
  0
LINE
  5
7F80
  8
FUTO
 10
7690.8553067084476
 20
6494.6138642968617
 30
0.0
 11
7622.1430867084491
 21
6494.6138642968617
 31
0.0
  0
LINE
  5
7F81
  8
FUTO
 10
7689.8694057084476
 20
6374.6138642968608
 30
0.0
 11
7672.8159387084488
 21
6374.6138642968608
 31
0.0
  0
ARC
  5
7F82
  8
FUTO
 10
7708.6972857084475
 20
6304.6138642968617
 30
0.0
 40
10.000057999999999
 50
187.1243290000296
 51
270.0
  0
LINE
  5
7F83
  8
FUTO
 10
7689.8694057084476
 20
6374.6138642968608
 30
0.0
 11
7698.774434708449
 21
6303.3736302968628
 31
0.0
  0
LINE
  5
7F84
  8
FUTO
 10
7679.8694057084494
 20
6374.6138642968608
 30
0.0
 11
7679.8694057084494
 21
6494.6138642968617
 31
0.0
  0
LINE
  5
7F85
  8
FUTO
 10
7689.8694057084476
 20
6374.6138642968608
 30
0.0
 11
7689.8694057084476
 21
6491.632663296863
 31
0.0
  0
LINE
  5
7F86
  8
FUTO
 10
7812.1414387084478
 20
6294.6138642968617
 30
0.0
 11
7708.6972857084475
 21
6294.6138642968617
 31
0.0
  0
LINE
  5
7F87
  8
FUTO
 10
7704.0055137084491
 20
6502.2542452968619
 30
0.0
 11
7780.188741708449
 21
6497.3396942968629
 31
0.0
  0
ARC
  5
7F88
  8
FUTO
 10
7777.6137897084482
 20
6457.4227022968626
 30
0.0
 40
40.000011000000001
 50
5.1563729999685757
 51
86.309097000000307
  0
LINE
  5
7F89
  8
FUTO
 10
7702.2844447084481
 20
6505.4385712968606
 30
0.0
 11
7821.1555377084478
 21
6285.5074192968623
 31
0.0
  0
LINE
  5
7F8A
  8
FUTO
 10
7608.745137708449
 20
6508.5306122968623
 30
0.0
 11
7618.7861537084482
 21
6498.4895972968634
 31
0.0
  0
LINE
  5
7F8B
  8
CT
 10
7618.3104457084482
 20
6508.0547822968629
 30
0.0
 11
7613.0622767084469
 21
6502.8067352968628
 31
0.0
  0
LINE
  5
7F8C
  8
FUTO
 10
7613.1858117084494
 20
6512.1226532968631
 30
0.0
 11
7622.3781947084472
 21
6502.9302712968611
 31
0.0
  0
LINE
  5
7F8D
  8
FUTO
 10
7620.090840708448
 20
6504.3689912968612
 30
0.0
 11
7616.4987997084481
 21
6500.7769502968631
 31
0.0
  0
ARC
  5
7F8E
  8
FUTO
 10
7469.8694057084476
 20
6623.3638642968608
 30
0.0
 40
6.25
 50
0.000000000000007
 51
180.0
  0
LINE
  5
7F8F
  8
FUTO
 10
7486.4661617084485
 20
6566.032688296862
 30
0.0
 11
7486.3060967084484
 21
6562.4488862968628
 31
0.0
  0
LINE
  5
7F90
  8
FUTO
 10
7476.1194057084476
 20
6581.4442482968634
 30
0.0
 11
7481.4239707084489
 21
6580.8758882968623
 31
0.0
  0
ARC
  5
7F91
  8
FUTO
 10
7481.1043757084472
 20
6577.8929782968626
 30
0.0
 40
3.0000059999999991
 50
5.1944030000043186
 51
83.884536999966215
  0
LINE
  5
7F92
  8
FUTO
 10
7463.6194057084476
 20
6581.4442482968634
 30
0.0
 11
7458.3148397084487
 21
6580.8758882968623
 31
0.0
  0
ARC
  5
7F93
  8
FUTO
 10
7482.8694057084494
 20
6566.6138642968608
 30
0.0
 40
3.0
 50
46.130962000013298
 51
90.0
  0
ARC
  5
7F94
  8
FUTO
 10
7469.8694057084476
 20
6359.6138642968617
 30
0.0
 40
209.99987799999991
 50
86.233009000037313
 51
86.266975000016402
  0
ARC
  5
7F95
  8
FUTO
 10
7483.3466087084489
 20
6566.1745942968619
 30
0.0
 40
3.0001099999999989
 50
86.265807999991665
 51
175.05505399999171
  0
ARC
  5
7F96
  8
FUTO
 10
7482.8694057084494
 20
6566.6138642968608
 30
0.0
 40
3.0
 50
47.440357000007118
 51
90.0
  0
LINE
  5
7F97
  8
FUTO
 10
7480.357838708449
 20
6566.4331392968616
 30
0.0
 11
7480.0487567084474
 21
6562.8590432968604
 31
0.0
  0
LINE
  5
7F98
  8
FUTO
 10
7459.38109370845
 20
6566.4331392968616
 30
0.0
 11
7459.6901757084488
 21
6562.8590432968604
 31
0.0
  0
ARC
  5
7F99
  8
FUTO
 10
7460.6194057084494
 20
6575.0464822968625
 30
0.0
 40
3.0
 50
270.0
 51
0.000000000000007
  0
ARC
  5
7F9A
  8
FUTO
 10
7479.1194057084476
 20
6575.3346902968633
 30
0.0
 40
3.0
 50
180.0
 51
270.0
  0
LINE
  5
7F9B
  8
FUTO
 10
7484.0920617084494
 20
6578.1645852968604
 30
0.0
 11
7484.8694057084476
 21
6569.6138642968617
 31
0.0
  0
ARC
  5
7F9C
  8
FUTO
 10
7483.469182708448
 20
6566.1665992968628
 30
0.0
 40
3.000081999999999
 50
357.44171099996208
 51
86.234252999979233
  0
ARC
  5
7F9D
  8
FUTO
 10
7469.8694057084476
 20
6359.6138642968617
 30
0.0
 40
209.99998500000001
 50
93.732994000026736
 51
93.766990999962673
  0
ARC
  5
7F9E
  8
FUTO
 10
7456.2697497084482
 20
6566.1665382968622
 30
0.0
 40
2.9999649999999991
 50
93.767860000028065
 51
182.55722000000901
  0
LINE
  5
7F9F
  8
FUTO
 10
7453.2727717084499
 20
6566.032688296862
 30
0.0
 11
7453.4328357084487
 21
6562.4488862968628
 31
0.0
  0
LINE
  5
7FA0
  8
FUTO
 10
7455.6467487084492
 20
6578.1645852968604
 30
0.0
 11
7454.8694057084494
 21
6569.6138642968617
 31
0.0
  0
ARC
  5
7FA1
  8
FUTO
 10
7456.8694057084494
 20
6566.6138642968608
 30
0.0
 40
3.0
 50
90.0
 51
133.88737499997529
  0
LINE
  5
7FA2
  8
FUTO
 10
7484.8694057084476
 20
6569.6138642968617
 30
0.0
 11
7454.8694057084494
 21
6569.6138642968617
 31
0.0
  0
ARC
  5
7FA3
  8
FUTO
 10
7456.8694057084494
 20
6566.6138642968608
 30
0.0
 40
3.0
 50
90.0
 51
133.8315120000008
  0
ARC
  5
7FA4
  8
FUTO
 10
7458.6344357084481
 20
6577.8929782968626
 30
0.0
 40
2.9999820000000001
 50
96.115463000033799
 51
174.80560300000801
  0
ARC
  5
7FA5
  8
FUTO
 10
7456.3922017084478
 20
6566.1745942968619
 30
0.0
 40
3.0000490000000002
 50
4.9438900000065571
 51
93.731941000007794
  0
LINE
  5
7FA6
  8
FUTO
 10
7327.401631708447
 20
6512.1226532968631
 30
0.0
 11
7330.9936727084478
 21
6508.5306122968623
 31
0.0
  0
LINE
  5
7FA7
  8
FUTO
 10
7327.401631708447
 20
6512.1226532968631
 30
0.0
 11
7326.5529987084492
 21
6512.1226532968631
 31
0.0
  0
LINE
  5
7FA8
  8
FUTO
 10
7319.6479697084478
 20
6504.3692352968628
 30
0.0
 11
7318.7993367084482
 21
6504.3692352968628
 31
0.0
  0
LINE
  5
7FA9
  8
FUTO
 10
7319.6479697084478
 20
6504.3692352968628
 30
0.0
 11
7319.6479697084478
 21
6505.2176242968608
 31
0.0
  0
LINE
  5
7FAA
  8
FUTO
 10
7325.1142787084491
 20
6509.8353002968624
 30
0.0
 11
7325.1142787084491
 21
6510.6839332968639
 31
0.0
  0
LINE
  5
7FAB
  8
FUTO
 10
7325.1142787084491
 20
6509.8353002968624
 30
0.0
 11
7324.2656457084486
 21
6509.8353002968624
 31
0.0
  0
LINE
  5
7FAC
  8
FUTO
 10
7325.1142787084491
 20
6509.8353002968624
 30
0.0
 11
7328.7063197084481
 21
6506.2432592968617
 31
0.0
  0
LINE
  5
7FAD
  8
FUTO
 10
7463.6194057084476
 20
6623.3638642968608
 30
0.0
 11
7463.6194057084476
 21
6575.0464822968625
 31
0.0
  0
LINE
  5
7FAE
  8
FUTO
 10
7476.1194057084476
 20
6623.3638642968608
 30
0.0
 11
7476.1194057084476
 21
6575.3346902968633
 31
0.0
  0
LINE
  5
7FAF
  8
FUTO
 10
7317.3606167084481
 20
6502.0816382968624
 30
0.0
 11
7320.9526577084489
 21
6498.4895972968634
 31
0.0
  0
LINE
  5
7FB0
  8
FUTO
 10
7317.3606167084481
 20
6502.9302712968611
 30
0.0
 11
7317.3606167084481
 21
6502.0816382968624
 31
0.0
  0
LINE
  5
7FB1
  8
FUTO
 10
7320.9526577084489
 20
6498.4895972968634
 30
0.0
 11
7330.9936727084478
 21
6508.5306122968623
 31
0.0
  0
LINE
  5
7FB2
  8
CT
 10
7321.4284877084483
 20
6508.0547822968629
 30
0.0
 11
7326.6765347084474
 21
6502.8067352968628
 31
0.0
  0
LINE
  5
7FB3
  8
FUTO
 10
7317.3606167084481
 20
6502.9302712968611
 30
0.0
 11
7326.5529987084492
 21
6512.1226532968631
 31
0.0
  0
LINE
  5
7FB4
  8
FUTO
 10
7319.6479697084478
 20
6504.3692352968628
 30
0.0
 11
7323.2400107084486
 21
6500.7769502968631
 31
0.0
  0
LINE
  5
7FB5
  8
CT
 10
7246.3694057084476
 20
6359.6138642968617
 30
0.0
 11
7693.3694057084476
 21
6359.6138642968617
 31
0.0
  0
ARC
  5
7FB6
  8
FUTO
 10
10265.37789479047
 20
6202.5005832968618
 30
0.0
 40
5.0
 50
300.00027499997202
 51
0.000000000000007
  0
ARC
  5
7FB7
  8
FUTO
 10
7818.8681847084481
 20
6284.2713352968622
 30
0.0
 40
1.000079999999999
 50
208.39501999997901
 51
298.38552900002043
  0
ARC
  5
7FB8
  8
FUTO
 10
10210.066981790471
 20
6182.1138642968617
 30
0.0
 40
15.000085
 50
270.0
 51
299.99981700000433
  0
LINE
  5
7FB9
  8
FUTO
 10
10267.87789479047
 20
6198.1705052968618
 30
0.0
 11
10217.566981790471
 21
6169.123386296862
 31
0.0
  0
ARC
  5
7FBA
  8
FUTO
 10
7653.8694057084476
 20
6233.9405252968618
 30
0.0
 40
5.0
 50
0.000000000000007
 51
55.056338999992313
  0
LINE
  5
7FBB
  8
FUTO
 10
7656.7332967084476
 20
6238.039157296862
 30
0.0
 11
7640.7954307084483
 21
6249.1756322968613
 31
0.0
  0
ARC
  5
7FBC
  8
FUTO
 10
7655.8694057084476
 20
6176.6138642968617
 30
0.0
 40
3.0
 50
0.000000000000007
 51
90.0
  0
LINE
  5
7FBD
  8
FUTO
 10
7622.3781947084472
 20
6217.1460912968614
 30
0.0
 11
7618.7861537084482
 21
6220.7381322968622
 31
0.0
  0
LINE
  5
7FBE
  8
FUTO
 10
7622.3781947084472
 20
6216.2974582968618
 30
0.0
 11
7622.3781947084472
 21
6217.1460912968614
 31
0.0
  0
LINE
  5
7FBF
  8
FUTO
 10
7620.090840708448
 20
6214.8584932968624
 30
0.0
 11
7620.9394737084476
 21
6214.8584932968624
 31
0.0
  0
LINE
  5
7FC0
  8
FUTO
 10
7620.090840708448
 20
6214.8584932968624
 30
0.0
 11
7620.090840708448
 21
6214.0101052968621
 31
0.0
  0
LINE
  5
7FC1
  8
FUTO
 10
7612.3371787084488
 20
6207.1050752968622
 30
0.0
 11
7608.745137708449
 21
6210.6971162968621
 31
0.0
  0
LINE
  5
7FC2
  8
FUTO
 10
7612.3371787084488
 20
6207.1050752968622
 30
0.0
 11
7613.1858117084494
 21
6207.1050752968622
 31
0.0
  0
LINE
  5
7FC3
  8
FUTO
 10
7614.624532708448
 20
6209.3924292968622
 30
0.0
 11
7614.624532708448
 21
6208.5437962968617
 31
0.0
  0
LINE
  5
7FC4
  8
FUTO
 10
7614.624532708448
 20
6209.3924292968622
 30
0.0
 11
7611.032491708449
 21
6212.984470296863
 31
0.0
  0
LINE
  5
7FC5
  8
FUTO
 10
7614.624532708448
 20
6209.3924292968622
 30
0.0
 11
7615.4731647084491
 21
6209.3924292968622
 31
0.0
  0
LINE
  5
7FC6
  8
FUTO
 10
7618.7861537084482
 20
6220.7381322968622
 30
0.0
 11
7608.745137708449
 21
6210.6971162968621
 31
0.0
  0
LINE
  5
7FC7
  8
CT
 10
7618.3103237084488
 20
6211.1729462968624
 30
0.0
 11
7613.0622767084469
 21
6216.4209932968624
 31
0.0
  0
LINE
  5
7FC8
  8
FUTO
 10
7622.3781947084472
 20
6216.2974582968618
 30
0.0
 11
7613.1858117084494
 21
6207.1050752968622
 31
0.0
  0
LINE
  5
7FC9
  8
FUTO
 10
7620.090840708448
 20
6214.8584932968624
 30
0.0
 11
7616.4987997084481
 21
6218.4507782968631
 31
0.0
  0
ARC
  5
7FCA
  8
FUTO
 10
7582.3694057084476
 20
6176.6138642968617
 30
0.0
 40
3.0
 50
90.0
 51
180.0
  0
LINE
  5
7FCB
  8
FUTO
 10
7582.3694057084476
 20
6179.6138642968617
 30
0.0
 11
7655.8694057084476
 21
6179.6138642968617
 31
0.0
  0
LINE
  5
7FCC
  8
FUTO
 10
7658.8694057084476
 20
6159.6138642968608
 30
0.0
 11
7579.3694057084494
 21
6159.6138642968608
 31
0.0
  0
LINE
  5
7FCD
  8
FUTO
 10
7579.3694057084494
 20
6176.6138642968617
 30
0.0
 11
7579.3694057084494
 21
6159.6138642968608
 31
0.0
  0
LINE
  5
7FCE
  8
FUTO
 10
7573.9721887084488
 20
6184.7571752968624
 30
0.0
 11
7579.3694057084494
 21
6164.6138642968608
 31
0.0
  0
LINE
  5
7FCF
  8
CT
 10
7628.8694057084476
 20
6189.6138642968617
 30
0.0
 11
7628.8694057084476
 21
6149.6138642968617
 31
0.0
  0
LINE
  5
7FD0
  8
FUTO
 10
7658.8694057084476
 20
6233.9405252968618
 30
0.0
 11
7658.8694057084476
 21
6159.6138642968608
 31
0.0
  0
LINE
  5
7FD1
  8
FUTO
 10
7283.0056357084477
 20
6238.039157296862
 30
0.0
 11
7298.9435017084488
 21
6249.1756322968613
 31
0.0
  0
ARC
  5
7FD2
  8
FUTO
 10
7357.3694057084476
 20
6176.6138642968617
 30
0.0
 40
3.0
 50
0.000000000000007
 51
90.0
  0
LINE
  5
7FD3
  8
FUTO
 10
7317.3606167084481
 20
6217.1460912968614
 30
0.0
 11
7320.9526577084489
 21
6220.7381322968622
 31
0.0
  0
LINE
  5
7FD4
  8
FUTO
 10
7317.3606167084481
 20
6217.1460912968614
 30
0.0
 11
7317.3606167084481
 21
6216.2974582968618
 31
0.0
  0
LINE
  5
7FD5
  8
FUTO
 10
7327.401631708447
 20
6207.1050752968622
 30
0.0
 11
7330.9936727084478
 21
6210.6971162968621
 31
0.0
  0
LINE
  5
7FD6
  8
FUTO
 10
7326.5529987084492
 20
6207.1050752968622
 30
0.0
 11
7327.401631708447
 21
6207.1050752968622
 31
0.0
  0
LINE
  5
7FD7
  8
FUTO
 10
7325.1140347084474
 20
6209.3924292968622
 30
0.0
 11
7325.1140347084474
 21
6208.5437962968617
 31
0.0
  0
LINE
  5
7FD8
  8
FUTO
 10
7325.1140347084474
 20
6209.3924292968622
 30
0.0
 11
7324.2656457084486
 21
6209.3924292968622
 31
0.0
  0
LINE
  5
7FD9
  8
FUTO
 10
7319.6479697084478
 20
6214.8587372968614
 30
0.0
 11
7318.7993367084482
 21
6214.8587372968614
 31
0.0
  0
LINE
  5
7FDA
  8
FUTO
 10
7319.6479697084478
 20
6214.8587372968614
 30
0.0
 11
7319.6479697084478
 21
6214.0101052968621
 31
0.0
  0
LINE
  5
7FDB
  8
FUTO
 10
7325.1140347084474
 20
6209.3924292968622
 30
0.0
 11
7328.7063197084481
 21
6212.984470296863
 31
0.0
  0
LINE
  5
7FDC
  8
FUTO
 10
7330.9936727084478
 20
6210.6971162968621
 30
0.0
 11
7320.9526577084489
 21
6220.7381322968622
 31
0.0
  0
LINE
  5
7FDD
  8
CT
 10
7321.4284877084483
 20
6211.1729462968624
 30
0.0
 11
7326.6765347084474
 21
6216.4209932968624
 31
0.0
  0
LINE
  5
7FDE
  8
FUTO
 10
7326.5529987084492
 20
6207.1050752968622
 30
0.0
 11
7317.3606167084481
 21
6216.2974582968618
 31
0.0
  0
LINE
  5
7FDF
  8
FUTO
 10
7319.6479697084478
 20
6214.8587372968614
 30
0.0
 11
7323.2400107084486
 21
6218.4507782968631
 31
0.0
  0
LINE
  5
7FE0
  8
FUTO
 10
7357.3694057084476
 20
6179.6138642968617
 30
0.0
 11
7283.8694057084476
 21
6179.6138642968617
 31
0.0
  0
LINE
  5
7FE1
  8
FUTO
 10
7360.3694057084476
 20
6176.6138642968617
 30
0.0
 11
7360.3694057084476
 21
6159.6138642968608
 31
0.0
  0
LINE
  5
7FE2
  8
FUTO
 10
7365.7668357084476
 20
6184.757053296863
 30
0.0
 11
7360.3694057084476
 21
6164.6138642968608
 31
0.0
  0
LINE
  5
7FE3
  8
CT
 10
7310.8694057084494
 20
6189.6138642968617
 30
0.0
 11
7310.8694057084494
 21
6149.6138642968617
 31
0.0
  0
LINE
  5
7FE4
  8
FUTO
 10
7280.8694057084476
 20
6233.9405252968618
 30
0.0
 11
7280.8694057084476
 21
6159.6138642968608
 31
0.0
  0
LINE
  5
7FE5
  8
FUTO
 10
7280.8694057084476
 20
6159.6138642968608
 30
0.0
 11
7360.3694057084476
 21
6159.6138642968608
 31
0.0
  0
ARC
  5
7FE6
  8
FUTO
 10
7285.8694057084494
 20
6233.9405252968618
 30
0.0
 40
5.0000669999999987
 50
124.9436649999749
 51
180.0
  0
ARC
  5
7FE7
  8
FUTO
 10
7283.8694057084476
 20
6176.6138642968617
 30
0.0
 40
3.0
 50
90.0
 51
180.0
  0
LINE
  5
7FE8
  8
FUTO
 10
7524.6074427084477
 20
6163.6138642968617
 30
0.0
 11
7415.1313687084476
 21
6163.6138642968617
 31
0.0
  0
LINE
  5
7FE9
  8
CT
 10
7469.8694057084476
 20
6649.6138642968617
 30
0.0
 11
7469.8694057084476
 21
6079.6138642968617
 31
0.0
  0
ARC
  5
7FEA
  8
FUTO
 10
7469.8694057084476
 20
6359.6138642968617
 30
0.0
 40
203.5
 50
285.60375999997461
 51
254.39630099999039
  0
LINE
  5
7FEB
  8
FUTO
 10
10211.277918790471
 20
6167.1138642968617
 30
0.0
 11
10211.277918790471
 21
6552.0647922968619
 31
0.0
  0
LINE
  5
7FEC
  8
CT
 10
7759.8694057084494
 20
6312.0081512968627
 30
0.0
 11
7759.8694057084494
 21
6273.0142552968628
 31
0.0
  0
LINE
  5
7FED
  8
FUTO
 10
7699.1174527084477
 20
6503.726657296862
 30
0.0
 11
7817.9885457084483
 21
6283.7957492968617
 31
0.0
  0
LINE
  5
7FEE
  8
FUTO
 10
7819.34364870845
 20
6283.3914522968626
 30
0.0
 11
7820.751241708449
 21
6284.1521942968629
 31
0.0
  0
LINE
  5
7FEF
  8
FUTO
 10
10270.377955790471
 20
6517.2638282968619
 30
0.0
 11
10270.377955790471
 21
6202.473514296862
 31
0.0
  0
LINE
  5
7FF0
  8
CT
 10
9450.8779557904763
 20
6359.6138642968617
 30
0.0
 11
10290.377955790471
 21
6359.6138642968617
 31
0.0
  0
LINE
  5
7FF1
  8
FUTO
 10
10149.12667379047
 20
6552.1138642968617
 30
0.0
 11
10210.066981790471
 21
6552.1138642968617
 31
0.0
  0
LINE
  5
7FF2
  8
FUTO
 10
10145.577845790471
 20
6167.1138642968617
 30
0.0
 11
10210.066981790471
 21
6167.1138642968617
 31
0.0
  0
LINE
  5
7FF3
  8
FUTO
 10
7478.8694057084476
 20
6393.6138642968617
 30
0.0
 11
7460.8694057084494
 21
6393.6138642968617
 31
0.0
  0
LINE
  5
7FF4
  8
FUTO
 10
7478.8694057084476
 20
6382.6138642968608
 30
0.0
 11
7460.8694057084494
 21
6382.6138642968626
 31
0.0
  0
LINE
  5
7FF5
  8
FUTO
 10
7478.8694057084476
 20
6393.6138642968626
 30
0.0
 11
7478.8694057084476
 21
6382.6138642968608
 31
0.0
  0
LINE
  5
7FF6
  8
FUTO
 10
7460.8694057084467
 20
6393.6138642968626
 30
0.0
 11
7460.8694057084494
 21
6382.6138642968608
 31
0.0
  0
LINE
  5
7FF7
  8
CT
 10
7334.8694057084504
 20
9816.4510017303128
 30
0.0
 11
7284.8694057084467
 21
9816.4510017303128
 31
0.0
  0
LINE
  5
7FF8
  8
CT
 10
7309.8694057084494
 20
9791.4510017303128
 30
0.0
 11
7309.8694057084494
 21
9841.4510017303128
 31
0.0
  0
LINE
  5
7FF9
  8
CT
 10
7629.8694057084494
 20
9791.4510017303128
 30
0.0
 11
7629.8694057084494
 21
9841.4510017303128
 31
0.0
  0
LINE
  5
7FFA
  8
CT
 10
7604.8694057084476
 20
9816.4510017303128
 30
0.0
 11
7654.8694057084494
 21
9816.4510017303128
 31
0.0
  0
LINE
  5
7FFB
  8
CT
 10
7604.8694057084476
 20
10276.451001730309
 30
0.0
 11
7654.8694057084494
 21
10276.451001730309
 31
0.0
  0
LINE
  5
7FFC
  8
CT
 10
7629.8694057084494
 20
10301.451001730309
 30
0.0
 11
7629.8694057084494
 21
10251.451001730309
 31
0.0
  0
LINE
  5
7FFD
  8
CT
 10
7309.8694057084494
 20
10301.451001730309
 30
0.0
 11
7309.8694057084494
 21
10251.451001730309
 31
0.0
  0
LINE
  5
7FFE
  8
CT
 10
7334.8694057084504
 20
10276.451001730309
 30
0.0
 11
7284.8694057084467
 21
10276.451001730309
 31
0.0
  0
LINE
  5
8000
  8
SL
 10
7602.3694057084476
 20
9620.951001730311
 30
0.0
 11
7602.3694057084476
 21
9718.9510017303091
 31
0.0
  0
LINE
  5
8001
  8
FUTO
 10
7673.3694057084494
 20
9481.9510017303128
 30
0.0
 11
7673.3694057084494
 21
9770.9510017303164
 31
0.0
  0
LINE
  5
8002
  8
SL
 10
7337.3694057084494
 20
9620.951001730311
 30
0.0
 11
7337.3694057084494
 21
9718.9510017303091
 31
0.0
  0
LINE
  5
8003
  8
SL
 10
7659.8694057084476
 20
10368.489559358461
 30
0.0
 11
7659.8694057084476
 21
9805.9510017303146
 31
0.0
  0
LINE
  5
8004
  8
SL
 10
7594.8694057084476
 20
10420.451001730309
 30
0.0
 11
7594.8694057084476
 21
9805.9510017303146
 31
0.0
  0
LINE
  5
8005
  8
SL
 10
7344.8694057084476
 20
10420.451001730309
 30
0.0
 11
7344.8694057084476
 21
9805.9510017303146
 31
0.0
  0
LINE
  5
8006
  8
SL
 10
7279.8694057084467
 20
10361.350964730311
 30
0.0
 11
7279.8694057084494
 21
9805.9510017303146
 31
0.0
  0
LINE
  5
8007
  8
FUTO
 10
7982.8694057084494
 20
10702.951001730309
 30
0.0
 11
7982.8694057084476
 21
12020.951001730309
 31
0.0
  0
LINE
  5
8008
  8
FUTO
 10
7917.8694057084476
 20
10767.951001730309
 30
0.0
 11
7917.8694057084476
 21
11955.951001730309
 31
0.0
  0
LINE
  5
8009
  8
FUTO
 10
6196.8694057084476
 20
10702.951001730309
 30
0.0
 11
6196.8694057084476
 21
12020.951001730309
 31
0.0
  0
LINE
  5
8017
  8
FUTO
 10
6261.8694057084476
 20
10767.951001730309
 30
0.0
 11
6261.8694057084476
 21
11955.951001730309
 31
0.0
  0
LINE
  5
8018
  8
FUTO
 10
7982.8694057084476
 20
12020.951001730309
 30
0.0
 11
6196.8694057084476
 21
12020.951001730309
 31
0.0
  0
LINE
  5
8019
  8
FUTO
 10
7982.8694057084494
 20
10702.951001730309
 30
0.0
 11
6196.8694057084476
 21
10702.951001730309
 31
0.0
  0
LINE
  5
801A
  8
FUTO
 10
7169.8694057084476
 20
10702.951001730309
 30
0.0
 11
7169.8694057084476
 21
10692.951001730309
 31
0.0
  0
LINE
  5
801C
  8
FUTO
 10
6196.8694057084476
 20
10767.951001730309
 30
0.0
 11
5080.8694057084476
 21
10767.951001730309
 31
0.0
  0
LINE
  5
801D
  8
FUTO
 10
6196.8694057084476
 20
11955.951001730309
 30
0.0
 11
5080.8694057084476
 21
11955.951001730309
 31
0.0
  0
LINE
  5
801E
  8
FUTO
 10
5080.8694057084476
 20
10767.951001730309
 30
0.0
 11
5080.8694057084476
 21
11955.951001730309
 31
0.0
  0
LINE
  5
801F
  8
FUTO
 10
5030.8694057084494
 20
10717.951001730309
 30
0.0
 11
5030.8694057084494
 21
12005.951001730309
 31
0.0
  0
LINE
  5
8020
  8
FUTO
 10
6196.8694057084476
 20
10717.951001730309
 30
0.0
 11
5030.8694057084494
 21
10717.951001730309
 31
0.0
  0
LINE
  5
8021
  8
FUTO
 10
6196.8694057084467
 20
12005.951001730309
 30
0.0
 11
5030.8694057084494
 21
12005.951001730309
 31
0.0
  0
LINE
  5
8022
  8
FUTO
 10
5269.8694057084476
 20
10717.951001730309
 30
0.0
 11
5269.8694057084476
 21
10692.951001730309
 31
0.0
  0
LINE
  5
8023
  8
SL
 10
7917.8694057084476
 20
11955.951001730309
 30
0.0
 11
6261.8694057084476
 21
10767.951001730309
 31
0.0
  0
LINE
  5
8024
  8
SL
 10
6261.8694057084476
 20
11955.951001730309
 30
0.0
 11
7917.8694057084476
 21
10767.951001730309
 31
0.0
  0
LINE
  5
8025
  8
FUTO
 10
6605.5212785991707
 20
9805.9510017303146
 30
0.0
 11
6605.5212785991707
 21
10692.951001730309
 31
0.0
  0
LINE
  5
8027
  8
FUTO
 10
5834.2175328177264
 20
9805.9510017303146
 30
0.0
 11
5834.2175328177264
 21
10692.951001730309
 31
0.0
  0
DIMENSION
  5
8028
  8
SP
  2
*D12
 10
7982.8694057084494
 20
8744.7802553787387
 30
0.0
 11
7101.3694057084494
 21
8832.2802553787387
 31
0.0
 70
     0
 13
6219.8694057084494
 23
8502.2457248102291
 33
0.0
 14
7982.8694057084494
 24
8394.6138642968635
 34
0.0
1001
ACAD
1000
DSTYLE
1002
{
1070
    40
1040
35.0
1070
    41
1040
2.5
1070
   147
1040
1.0
1002
}
  0
DIMENSION
  5
8046
  8
SP
  2
*D13
 10
8236.0645719561962
 20
7349.6138642968617
 30
0.0
 11
8148.5645719561944
 21
6649.6138642968626
 31
0.0
 70
     0
 13
7769.8694057084476
 23
5949.6138642968608
 33
0.0
 14
8053.2275276782984
 24
7349.6138642968617
 34
0.0
 50
90.0
1001
ACAD
1000
DSTYLE
1002
{
1070
    40
1040
35.0
1070
    41
1040
2.5
1070
   147
1040
1.0
1002
}
  0
DIMENSION
  5
8053
  8
SP
  2
*D14
 10
8236.0645719561962
 20
8394.6138642968635
 30
0.0
 11
8148.5645719561962
 21
7872.1138642968626
 31
0.0
 70
     0
 13
8053.2275276782984
 23
7349.6138642968617
 33
0.0
 14
7982.8694057084494
 24
8394.6138642968635
 34
0.0
 50
90.0
1001
ACAD
1000
DSTYLE
1002
{
1070
    40
1040
35.0
1070
    41
1040
2.5
1070
   147
1040
1.0
1002
}
  0
DIMENSION
  5
807B
  8
SP
  2
*D15
 10
7982.8694057084476
 20
12407.10166918602
 30
0.0
 11
7101.3694057084494
 21
12494.60166918602
 31
0.0
 70
     0
 13
6219.8694057084494
 23
12131.728913547169
 33
0.0
 14
7982.8694057084476
 24
12020.951001730309
 34
0.0
1001
ACAD
1000
DSTYLE
1002
{
1070
    40
1040
35.0
1070
    41
1040
2.5
1070
   147
1040
1.0
1002
}
  0
DIMENSION
  5
8088
  8
SP
  2
*D16
 10
5030.8694057084494
 20
12407.10166918602
 30
0.0
 11
5625.3694057084494
 21
12494.60166918602
 31
0.0
 70
     0
 13
6219.8694057084494
 23
12166.728913547169
 33
0.0
 14
5030.8694057084494
 24
12005.951001730309
 34
0.0
1001
ACAD
1000
DSTYLE
1002
{
1070
    40
1040
35.0
1070
    41
1040
2.5
1070
   147
1040
1.0
1002
}
  0
DIMENSION
  5
8095
  8
SP
  2
*D17
 10
8325.4891660220474
 20
12086.951001730309
 30
0.0
 11
8237.9891660220437
 21
11724.451001730309
 31
0.0
 70
     0
 13
7982.8694057084494
 23
11361.951001730309
 33
0.0
 14
7084.8694057084494
 24
12086.951001730309
 34
0.0
 50
90.0
1001
ACAD
1000
DSTYLE
1002
{
1070
    40
1040
35.0
1070
    41
1040
2.5
1070
   147
1040
1.0
1002
}
  0
DIMENSION
  5
80A2
  8
SP
  2
*D18
 10
8325.4891660220474
 20
9481.9510017303128
 30
0.0
 11
8237.9891660220437
 21
10421.951001730309
 31
0.0
 70
     0
 13
7982.8694057084494
 23
11361.951001730309
 33
0.0
 14
7673.3694057084494
 24
9481.9510017303128
 34
0.0
 50
90.0
1001
ACAD
1000
DSTYLE
1002
{
1070
    40
1040
35.0
1070
    41
1040
2.5
1070
   147
1040
1.0
1002
}
  0
LINE
  5
80D3
  8
FUTO
 10
6749.472955192271
 20
6559.486002598429
 30
0.0
 11
6844.8694057084476
 21
6107.4414113558041
 31
0.0
  0
LINE
  5
80D4
  8
FUTO
 10
7159.8694057084476
 20
6296.8207640082637
 30
0.0
 11
7159.8694057084476
 21
6099.6138642968617
 31
0.0
  0
LINE
  5
80D5
  8
FUTO
 10
7150.8694057084476
 20
6302.5810164284248
 30
0.0
 11
7150.8694057084476
 21
6099.6138642968617
 31
0.0
  0
LINE
  5
80D6
  8
KL
 10
7159.8694057084476
 20
6966.9746007361518
 30
0.0
 11
7159.8694057084476
 21
6296.8207640082637
 31
0.0
  0
LINE
  5
80D7
  8
KL
 10
7150.8694057084476
 20
6975.707809178768
 30
0.0
 11
7150.8694057084476
 21
6302.5810164284248
 31
0.0
  0
LINE
  5
80D8
  8
FUTO
 10
6756.2659196348623
 20
7358.6138642968617
 30
0.0
 11
7868.3379551218923
 21
7358.6138642968617
 31
0.0
  0
LINE
  5
80D9
  8
FUTO
 10
6774.815803227415
 20
7340.6138642968608
 30
0.0
 11
7868.3379551218923
 21
7340.6138642968608
 31
0.0
  0
LINE
  5
80DA
  8
KL
 10
5839.9759996061566
 20
7358.6138642968617
 30
0.0
 11
6019.8694057084476
 21
7358.6138642968617
 31
0.0
  0
LINE
  5
80DB
  8
KL
 10
5839.9759996061566
 20
7340.6138642968608
 30
0.0
 11
6019.8694057084476
 21
7340.6138642968608
 31
0.0
  0
LINE
  5
813C
  8
FUTO
 10
7769.8694057084476
 20
5916.6173642968624
 30
0.0
 11
5269.8694057084476
 21
5916.6173642968624
 31
0.0
  0
LINE
  5
813D
  8
FUTO
 10
7769.8694057084476
 20
5792.6103642968619
 30
0.0
 11
5269.8694057084476
 21
5792.6103642968619
 31
0.0
  0
LINE
  5
813E
  8
FUTO
 10
7769.8694057084476
 20
5929.6138642968617
 30
0.0
 11
5269.8694057084476
 21
5929.6138642968617
 31
0.0
  0
LINE
  5
813F
  8
FUTO
 10
7769.8694057084476
 20
5779.6138642968617
 30
0.0
 11
5269.8694057084476
 21
5779.6138642968617
 31
0.0
  0
LINE
  5
8140
  8
FUTO
 10
5269.8694057084476
 20
5929.6138642968617
 30
0.0
 11
5269.8694057084476
 21
5779.6138642968617
 31
0.0
  0
LINE
  5
8141
  8
FUTO
 10
5594.8694057084494
 20
5929.6138642968617
 30
0.0
 11
5594.8694057084494
 21
5779.6138642968617
 31
0.0
  0
LINE
  5
814C
  8
FUTO
 10
7769.8694057084476
 20
5929.6138642968617
 30
0.0
 11
7769.8694057084476
 21
5779.6138642968617
 31
0.0
  0
LINE
  5
816E
  8
SP
 10
7804.8694057084494
 20
5929.6138642968617
 30
0.0
 11
8271.0645719561962
 21
5929.6138642968617
 31
0.0
  0
LINE
  5
816F
  8
SP
 10
7804.8694057084494
 20
5779.6138642968617
 30
0.0
 11
8271.0645719561962
 21
5779.6138642968617
 31
0.0
  0
LINE
  5
8170
  8
SP
 10
8236.0645719561962
 20
6017.1138642968617
 30
0.0
 11
8236.0645719561962
 21
6104.6138642968617
 31
0.0
  0
LINE
  5
8171
  8
SP
 10
8236.0645719561962
 20
5692.1138642968617
 30
0.0
 11
8236.0645719561962
 21
5289.6138642968608
 31
0.0
  0
LINE
  5
8172
  8
SP
 10
8236.0645719561962
 20
5929.6138642968617
 30
0.0
 11
8236.0645719561962
 21
5779.6138642968617
 31
0.0
  0
INSERT
  5
8174
  8
SP
  2
_OPEN
 10
8236.0645719561962
 20
5779.6138642968617
 30
0.0
 41
87.5
 42
87.5
 43
87.5
 50
90.0
  0
TEXT
  5
8175
  8
FUTO
 10
8201.0645719561962
 20
5301.8381829402169
 30
0.0
 40
105.0
  1
150
 50
90.0
 51
15.0
  0
LINE
  5
8176
  8
SP
 10
7804.8694057084494
 20
5949.6138642968608
 30
0.0
 11
8271.0645719561962
 21
5949.6138642968608
 31
0.0
  0
LINE
  5
8177
  8
SP
 10
7804.8694057084494
 20
5929.6138642968617
 30
0.0
 11
8271.0645719561962
 21
5929.6138642968617
 31
0.0
  0
LINE
  5
8178
  8
SP
 10
8236.0645719561962
 20
6037.1138642968617
 30
0.0
 11
8236.0645719561962
 21
6124.6138642968608
 31
0.0
  0
LINE
  5
8179
  8
SP
 10
8236.0645719561962
 20
5842.1138642968617
 30
0.0
 11
8236.0645719561962
 21
5496.8381829402169
 31
0.0
  0
LINE
  5
817A
  8
SP
 10
8236.0645719561962
 20
5949.6138642968608
 30
0.0
 11
8236.0645719561962
 21
5929.6138642968617
 31
0.0
  0
INSERT
  5
817B
  8
SP
  2
_OPEN
 10
8236.0645719561962
 20
5949.6138642968608
 30
0.0
 41
87.5
 42
87.5
 43
87.5
 50
270.0
  0
TEXT
  5
817D
  8
FUTO
 10
8436.0869745698055
 20
5833.3763490109959
 30
0.0
 40
105.0
  1
20
 50
90.0
 51
15.0
  0
CIRCLE
  5
817E
  8
SP
 10
8236.0645719561962
 20
5929.6138642968617
 30
0.0
 40
16.806887979400472
  0
INSERT
  5
8194
  8
SP
  6
CONTINUOUS
  2
*U19
 10
0.0
 20
0.0
 30
0.0
1001
ACAD
1002
{
1000
R14_HATCH_DATA
1000
8194
1011
1.0
1021
0.0
1031
0.0
1021
0.0
1031
0.0
1011
0.0
1021
0.0
1031
0.0
1021
1.0
1031
0.0
1011
0.0
1021
0.0
1031
0.0
1021
0.0
1031
1.0
1040
0.0
1010
0.0
1020
0.0
1030
1.0
1000
SOLID
1070
     1
1070
     0
1071
        4
1071
        7
1070
     1
1070
     1
1071
        3
1040
8236.0645719561962
1040
5946.4207522762626
1040
0.4142135623730951
1040
8219.2576839767953
1040
5929.6138642968617
1040
0.0
1040
8236.0645719561962
1040
5929.6138642968617
1040
0.0
1071
        0
1071
        7
1070
     1
1070
     1
1071
        3
1040
8236.0645719561962
1040
5946.4207522762626
1040
0.0
1040
8236.0645719561962
1040
5929.6138642968617
1040
0.0
1040
8252.8714599355953
1040
5929.6138642968617
1040
0.4142135623730951
1071
        0
1071
        7
1070
     1
1070
     1
1071
        3
1040
8252.8714599355953
1040
5929.6138642968617
1040
0.0
1040
8236.0645719561962
1040
5929.6138642968626
1040
0.0
1040
8236.0645719561962
1040
5912.8069763174617
1040
0.4142135623730951
1071
        0
1071
        7
1070
     1
1070
     1
1071
        3
1040
8236.0645719561962
1040
5929.6138642968617
1040
0.0
1040
8219.2576839767953
1040
5929.6138642968617
1040
0.4142135623730951
1040
8236.0645719561962
1040
5912.8069763174617
1040
0.0
1071
        0
1070
     0
1070
     1
1040
0.487381141900096
1071
        4
1040
8230.4755847212746
1040
5939.4195926571883
1040
0.0
1040
8245.1076544144216
1040
5939.9069731471936
1040
0.0
1040
8241.6934854657502
1040
5926.2603026329944
1040
0.0
1040
8231.4510615637519
1040
5923.8234001829687
1040
0.0
1002
}
  0
LINE
  5
819F
  8
FUTO
 10
11805.877955790471
 20
5916.6173642968624
 30
0.0
 11
9655.8779557904782
 21
5916.6173642968624
 31
0.0
  0
LINE
  5
81A0
  8
FUTO
 10
11805.877955790471
 20
5792.6103642968619
 30
0.0
 11
9655.8779557904782
 21
5792.6103642968619
 31
0.0
  0
LINE
  5
81A1
  8
FUTO
 10
11805.877955790471
 20
5779.6138642968617
 30
0.0
 11
9655.8779557904782
 21
5779.6138642968617
 31
0.0
  0
LINE
  5
81A2
  8
FUTO
 10
11805.877955790471
 20
5929.6138642968617
 30
0.0
 11
9655.8779557904782
 21
5929.6138642968617
 31
0.0
  0
LINE
  5
81A5
  8
FUTO
 10
9655.8779557904782
 20
5779.6138642968617
 30
0.0
 11
9655.8779557904782
 21
5929.6138642968617
 31
0.0
  0
LINE
  5
81A6
  8
FUTO
 10
9649.3779557904782
 20
5796.2756757186944
 30
0.0
 11
9649.3779557904782
 21
5912.952052875029
 31
0.0
  0
LINE
  5
81A7
  8
FUTO
 10
9645.7265787614688
 20
5792.2908969263281
 30
0.0
 11
9584.5293328194894
 21
5786.9368316673963
 31
0.0
  0
LINE
  5
81A8
  8
FUTO
 10
9655.8779557904782
 20
5779.6138642968617
 30
0.0
 11
9580.8779557904782
 21
5779.6138642968608
 31
0.0
  0
ARC
  5
81A9
  8
FUTO
 10
9584.8779557904782
 20
5782.952052875029
 30
0.0
 40
4.0
 50
95.000000000000554
 51
179.9999999999921
  0
LINE
  5
81AA
  8
FUTO
 10
9580.8779557904782
 20
5779.6138642968608
 30
0.0
 11
9580.8779557904782
 21
5782.952052875029
 31
0.0
  0
ARC
  5
81AB
  8
FUTO
 10
9645.3779557904782
 20
5796.2756757186944
 30
0.0
 40
4.0
 50
275.0
 51
0.0
  0
LINE
  5
81AC
  8
FUTO
 10
9698.3779557904763
 20
5929.6138642968617
 30
0.0
 11
9641.3779557904763
 21
5929.6138642968617
 31
0.0
  0
LINE
  5
81AD
  8
FUTO
 10
9645.7265787614688
 20
5916.9368316673963
 30
0.0
 11
9584.5293328194894
 21
5922.2908969263272
 31
0.0
  0
LINE
  5
81AE
  8
FUTO
 10
9655.8779557904782
 20
5929.6138642968617
 30
0.0
 11
9580.8779557904782
 21
5929.6138642968617
 31
0.0
  0
ARC
  5
81AF
  8
FUTO
 10
9584.8779557904782
 20
5926.2756757186944
 30
0.0
 40
4.0
 50
180.00000000000779
 51
264.99999999999949
  0
LINE
  5
81B0
  8
FUTO
 10
9580.8779557904782
 20
5929.6138642968617
 30
0.0
 11
9580.8779557904782
 21
5926.2756757186926
 31
0.0
  0
ARC
  5
81B3
  8
FUTO
 10
9645.3779557904782
 20
5912.952052875029
 30
0.0
 40
4.0
 50
0.0
 51
84.999999999999943
  0
ARC
  5
81BC
  8
FUTO
 10
11876.877955790471
 20
5782.952052875029
 30
0.0
 40
4.0
 50
0.0000000000078369
 51
84.999999999999503
  0
ARC
  5
81BD
  8
FUTO
 10
11876.877955790471
 20
5926.2756757186944
 30
0.0
 40
4.0
 50
275.00000000000051
 51
359.9999999999921
  0
LINE
  5
81BE
  8
FUTO
 10
11805.877955790471
 20
5929.6138642968617
 30
0.0
 11
11880.877955790471
 21
5929.6138642968617
 31
0.0
  0
LINE
  5
81BF
  8
FUTO
 10
11805.877955790471
 20
5779.6138642968617
 30
0.0
 11
11880.877955790471
 21
5779.6138642968617
 31
0.0
  0
LINE
  5
81C2
  8
FUTO
 10
11805.877955790471
 20
5929.6138642968617
 30
0.0
 11
11805.877955790471
 21
5779.6138642968617
 31
0.0
  0
LINE
  5
81C3
  8
FUTO
 10
11812.377955790471
 20
5912.952052875029
 30
0.0
 11
11812.377955790471
 21
5796.2756757186944
 31
0.0
  0
ARC
  5
81C5
  8
FUTO
 10
11816.377955790471
 20
5796.2756757186944
 30
0.0
 40
4.0
 50
180.0
 51
264.99999999999989
  0
LINE
  5
81C6
  8
FUTO
 10
11816.02933281948
 20
5792.2908969263281
 30
0.0
 11
11877.22657876146
 21
5786.9368316673963
 31
0.0
  0
ARC
  5
81C7
  8
FUTO
 10
11816.377955790471
 20
5912.952052875029
 30
0.0
 40
4.0
 50
95.000000000000057
 51
180.0
  0
LINE
  5
81C8
  8
FUTO
 10
11816.02933281948
 20
5916.9368316673963
 30
0.0
 11
11877.22657876146
 21
5922.2908969263272
 31
0.0
  0
LINE
  5
81C9
  8
FUTO
 10
11880.877955790471
 20
5779.6138642968608
 30
0.0
 11
11880.877955790471
 21
5782.952052875029
 31
0.0
  0
LINE
  5
81CA
  8
FUTO
 10
11880.877955790471
 20
5929.6138642968617
 30
0.0
 11
11880.877955790471
 21
5926.2756757186944
 31
0.0
  0
TEXT
  5
8C01
  8
SP
 10
13244.33600958034
 20
7534.5932891530611
 30
0.0
 40
100.0
  1
 
  0
LINE
  5
8C02
  8
4
 10
12345.586440607171
 20
3933.5400618645231
 30
0.0
 11
12345.586440607171
 21
2933.5400618645231
 31
0.0
  0
LINE
  5
8C03
  8
4
 10
8845.5864406071778
 20
3933.5400618645231
 30
0.0
 11
8845.5864406071778
 21
2933.5400618645231
 31
0.0
  0
LINE
  5
8C04
  8
4
 10
6345.5864406071778
 20
3933.5400618645231
 30
0.0
 11
6345.5864406071769
 21
2933.5400618645231
 31
0.0
  0
LINE
  5
8C07
  8
4
 10
6345.5864406071778
 20
2933.5400618645231
 30
0.0
 11
12345.586440607171
 21
2933.5400618645231
 31
0.0
  0
LINE
  5
8C08
  8
4
 10
6345.5864406071778
 20
3433.5400618645231
 30
0.0
 11
12345.586440607171
 21
3433.5400618645231
 31
0.0
  0
TEXT
  5
8C09
  8
4
 10
6538.0968448416961
 20
3591.2551911975911
 30
0.0
 40
250.0
  1
機器名称
  0
TEXT
  5
8C0A
  8
4
 10
6526.8769707311731
 20
3041.7658455245769
 30
0.0
 40
250.0
  1
機器型番
  0
TEXT
  5
8C0B
  8
4
 10
8869.5517491123901
 20
3544.4765736492609
 30
0.0
 40
225.0
  1
ミツヤリミットロードファン
  0
TEXT
  5
8C0C
  8
4
 10
9028.8589185345918
 20
3019.337983264239
 30
0.0
 40
250.0
  1
LL#10-1
  0
TEXT
  5
8C0E
  8
4
 10
7108.685232156291
 20
13350.6842685271
 30
0.0
 40
270.0
  1
床置防振ベット
  0
TEXT
  5
8C0F
  8
4
 10
4676.4244072544088
 20
14102.94494286101
 30
0.0
 40
360.0
  1
遠心式片吸込片持リミットロードファン
  0
LINE
  5
8C10
  8
4
 10
4345.5864406071769
 20
13780.583833188541
 30
0.0
 11
12345.586440607171
 21
13780.583833188541
 31
0.0
  0
LINE
  5
8C11
  8
4
 10
4345.5864406071769
 20
14780.583833188541
 30
0.0
 11
12345.586440607171
 21
14780.583833188541
 31
0.0
  0
LINE
  5
8C12
  8
4
 10
6345.5864406071778
 20
3933.5400618645231
 30
0.0
 11
12345.586440607171
 21
3933.5400618645231
 31
0.0
  0
LINE
  5
8C13
  8
4
 10
4345.5864406071769
 20
14780.583833188541
 30
0.0
 11
4345.5864406071769
 21
13780.583833188541
 31
0.0
  0
TEXT
  5
8C14
  8
4
 10
4791.4540213625442
 20
13345.137449596239
 30
0.0
 40
270.0
  1
左回転上向
  0
TEXT
  5
8C15
  8
4
 10
10440.434236853631
 20
14963.845469341069
 30
0.0
 40
280.0
  1
No.
  0
TEXT
  5
8C16
  8
4
 10
10507.36566386395
 20
12854.4194255169
 30
0.0
 40
270.0
  1
縮尺：1/50
  0
LINE
  5
8C17
  8
4
 10
12345.586440607171
 20
14780.583833188541
 30
0.0
 11
12345.586440607171
 21
13780.583833188541
 31
0.0
  0
LINE
  5
8C18
  8
4
 10
13595.586440607171
 20
16183.54006186452
 30
0.0
 11
13595.586440607171
 21
16183.54006186452
 31
0.0
  0
LINE
  5
8C19
  8
4
 10
10298.673552406501
 20
14839.857977491531
 30
0.0
 11
10298.673552406501
 21
15366.80136961328
 31
0.0
  0
LINE
  5
8C1A
  8
4
 10
10298.673552406501
 20
15366.80136961328
 30
0.0
 11
12345.586440607171
 21
15366.80136961328
 31
0.0
  0
LINE
  5
8C1B
  8
4
 10
12345.586440607171
 20
15366.80136961328
 30
0.0
 11
12345.586440607171
 21
14839.857977491531
 31
0.0
  0
LINE
  5
8C1C
  8
4
 10
12345.586440607171
 20
14839.857977491531
 30
0.0
 11
10298.673552406501
 21
14839.857977491531
 31
0.0
  0
LINE
  5
8C1D
  8
4
 10
3095.5864406071778
 20
1433.5400618645219
 30
0.0
 11
3095.5864406071778
 21
16183.54006186452
 31
0.0
  0
LINE
  5
8C1E
  8
4
 10
3095.5864406071778
 20
16183.54006186452
 30
0.0
 11
13595.586440607171
 21
16183.54006186452
 31
0.0
  0
LINE
  5
8C1F
  8
4
 10
13595.586440607171
 20
16183.54006186452
 30
0.0
 11
13595.586440607171
 21
1433.5400618645219
 31
0.0
  0
LINE
  5
8C20
  8
4
 10
13595.586440607171
 20
1433.5400618645219
 30
0.0
 11
3095.5864406071778
 21
1433.5400618645219
 31
0.0
  0
ENDSEC
  0
EOF
