  0
SECTION
  2
HEADER
  9
$ACADVER
  1
AC1009
  9
$INSBASE
 10
0.0
 20
0.0
 30
0.0
  9
$EXTMIN
 10
5073.9114932076673
 20
3343.4030296830651
 30
0.0
  9
$EXTMAX
 10
15573.911493207661
 20
18093.403029683061
 30
0.0
  9
$LIMMIN
 10
0.0
 20
0.0
  9
$LIMMAX
 10
297.0
 20
210.0
  9
$ORTHOMODE
 70
     0
  9
$REGENMODE
 70
     1
  9
$FILLMODE
 70
     1
  9
$QTEXTMODE
 70
     0
  9
$MIRRTEXT
 70
     0
  9
$DRAGMODE
 70
     2
  9
$LTSCALE
 40
175.0
  9
$OSMODE
 70
    37
  9
$ATTMODE
 70
     1
  9
$TEXTSIZE
 40
150.0
  9
$TRACEWID
 40
0.05
  9
$TEXTSTYLE
  7
STANDARD
  9
$CLAYER
  8
FUTO
  9
$CELTYPE
  6
BYLAYER
  9
$CECOLOR
 62
   256
  9
$DIMSCALE
 40
35.0
  9
$DIMASZ
 40
2.5
  9
$DIMEXO
 40
1.0
  9
$DIMDLI
 40
10.0
  9
$DIMRND
 40
0.0
  9
$DIMDLE
 40
0.0
  9
$DIMEXE
 40
1.0
  9
$DIMTP
 40
0.0
  9
$DIMTM
 40
0.0
  9
$DIMTXT
 40
3.0
  9
$DIMCEN
 40
0.0
  9
$DIMTSZ
 40
0.0
  9
$DIMTOL
 70
     0
  9
$DIMLIM
 70
     0
  9
$DIMTIH
 70
     0
  9
$DIMTOH
 70
     0
  9
$DIMSE1
 70
     0
  9
$DIMSE2
 70
     0
  9
$DIMTAD
 70
     1
  9
$DIMZIN
 70
     8
  9
$DIMBLK
  1

  9
$DIMASO
 70
     1
  9
$DIMSHO
 70
     1
  9
$DIMPOST
  1

  9
$DIMAPOST
  1

  9
$DIMALT
 70
     0
  9
$DIMALTD
 70
     2
  9
$DIMALTF
 40
0.03937
  9
$DIMLFAC
 40
1.0
  9
$DIMTOFL
 70
     1
  9
$DIMTVP
 40
0.0
  9
$DIMTIX
 70
     0
  9
$DIMSOXD
 70
     0
  9
$DIMSAH
 70
     1
  9
$DIMBLK1
  1
OPEN
  9
$DIMBLK2
  1
OPEN
  9
$DIMSTYLE
  2
MATSU
  9
$DIMCLRD
 70
   256
  9
$DIMCLRE
 70
   256
  9
$DIMCLRT
 70
   256
  9
$DIMTFAC
 40
1.0
  9
$DIMGAP
 40
1.0
  9
$LUNITS
 70
     2
  9
$LUPREC
 70
     4
  9
$SKETCHINC
 40
0.1
  9
$FILLETRAD
 40
30.0
  9
$AUNITS
 70
     0
  9
$AUPREC
 70
     2
  9
$MENU
  1
acad
  9
$ELEVATION
 40
0.0
  9
$PELEVATION
 40
0.0
  9
$THICKNESS
 40
0.0
  9
$LIMCHECK
 70
     0
  9
$BLIPMODE
 70
     0
  9
$CHAMFERA
 40
8.0
  9
$CHAMFERB
 40
8.0
  9
$SKPOLY
 70
     0
  9
$TDCREATE
 40
2453957.375965347
  9
$TDUPDATE
 40
2454953.6495618052
  9
$TDINDWG
 40
0.1827772338
  9
$TDUSRTIMER
 40
0.1827772338
  9
$USRTIMER
 70
     1
  9
$ANGBASE
 50
0.0
  9
$ANGDIR
 70
     0
  9
$PDMODE
 70
     0
  9
$PDSIZE
 40
1.0
  9
$PLINEWID
 40
0.0
  9
$COORDS
 70
     1
  9
$SPLFRAME
 70
     0
  9
$SPLINETYPE
 70
     6
  9
$SPLINESEGS
 70
     8
  9
$ATTDIA
 70
     0
  9
$ATTREQ
 70
     1
  9
$HANDLING
 70
 10241
  9
$HANDSEED
  5
90DA
  9
$SURFTAB1
 70
     6
  9
$SURFTAB2
 70
     6
  9
$SURFTYPE
 70
     6
  9
$SURFU
 70
     6
  9
$SURFV
 70
     6
  9
$UCSNAME
  2

  9
$UCSORG
 10
0.0
 20
-0.0000000000000142
 30
0.0
  9
$UCSXDIR
 10
1.0
 20
0.0
 30
0.0
  9
$UCSYDIR
 10
0.0
 20
1.0
 30
0.0
  9
$PUCSNAME
  2

  9
$PUCSORG
 10
0.0
 20
0.0
 30
0.0
  9
$PUCSXDIR
 10
1.0
 20
0.0
 30
0.0
  9
$PUCSYDIR
 10
0.0
 20
1.0
 30
0.0
  9
$USERI1
 70
     0
  9
$USERI2
 70
     0
  9
$USERI3
 70
     0
  9
$USERI4
 70
     0
  9
$USERI5
 70
     0
  9
$USERR1
 40
0.0
  9
$USERR2
 40
0.0
  9
$USERR3
 40
0.0
  9
$USERR4
 40
0.0
  9
$USERR5
 40
0.0
  9
$WORLDVIEW
 70
     1
  9
$SHADEDGE
 70
     3
  9
$SHADEDIF
 70
    70
  9
$TILEMODE
 70
     1
  9
$MAXACTVP
 70
    16
  9
$PLIMCHECK
 70
     0
  9
$PEXTMIN
 10
1.0000000000000000E+020
 20
1.0000000000000000E+020
 30
1.0000000000000000E+020
  9
$PEXTMAX
 10
-1.0000000000000000E+020
 20
-1.0000000000000000E+020
 30
-1.0000000000000000E+020
  9
$PLIMMIN
 10
0.0
 20
0.0
  9
$PLIMMAX
 10
12.0
 20
9.0
  9
$UNITMODE
 70
     0
  9
$VISRETAIN
 70
     0
  9
$PLINEGEN
 70
     0
  9
$PSLTSCALE
 70
     0
  0
ENDSEC
  0
SECTION
  2
TABLES
  0
TABLE
  2
VPORT
 70
     2
  0
VPORT
  2
*ACTIVE
 70
     0
 10
0.0
 20
0.0
 11
1.0
 21
1.0
 12
14883.66645621387
 22
5163.1921353099169
 13
0.0
 23
0.0
 14
5.0
 24
5.0
 15
0.0
 25
0.0
 16
0.0
 26
0.0
 36
1.0
 17
0.0
 27
0.0
 37
0.0
 40
4484.1646168599509
 41
3.1666666666666661
 42
50.0
 43
0.0
 44
0.0
 50
0.0
 51
0.0
 71
     0
 72
   100
 73
     1
 74
     0
 75
     0
 76
     0
 77
     0
 78
     0
  0
ENDTAB
  0
TABLE
  2
LTYPE
 70
     4
  0
LTYPE
  2
CONTINUOUS
 70
     0
  3
Solid line
 72
    65
 73
     0
 40
0.0
  0
LTYPE
  2
CENTER
 70
     0
  3
____ _ ____ _ ____ _ ____ _ ____ _ ____ _ ____ 
 72
    65
 73
     4
 40
2.0
 49
1.25
 49
-0.25
 49
0.25
 49
-0.25
  0
LTYPE
  2
HIDDEN
 70
     0
  3
__ __ __ __ __ __ __ __ __ __ __ __ __ __ __ __
 72
    65
 73
     2
 40
0.375
 49
0.25
 49
-0.125
  0
LTYPE
  2
PHANTOM
 70
     0
  3
______  __  __  ______  __  __  ______  __  __ 
 72
    65
 73
     6
 40
2.5
 49
1.25
 49
-0.25
 49
0.25
 49
-0.25
 49
0.25
 49
-0.25
  0
ENDTAB
  0
TABLE
  2
LAYER
 70
     9
  0
LAYER
  2
0
 70
     0
 62
     7
  6
CONTINUOUS
  0
LAYER
  2
CT
 70
     0
 62
     3
  6
CENTER
  0
LAYER
  2
FUTO
 70
     0
 62
     4
  6
CONTINUOUS
  0
LAYER
  2
HOSO
 70
     0
 62
     7
  6
CONTINUOUS
  0
LAYER
  2
KL
 70
     0
 62
     7
  6
HIDDEN
  0
LAYER
  2
SL
 70
     0
 62
     1
  6
PHANTOM
  0
LAYER
  2
SP
 70
     0
 62
     2
  6
CONTINUOUS
  0
LAYER
  2
DEFPOINTS
 70
     0
 62
     7
  6
CONTINUOUS
  0
LAYER
  2
4
 70
     0
 62
     7
  6
CONTINUOUS
  0
ENDTAB
  0
TABLE
  2
STYLE
 70
     1
  0
STYLE
  2
STANDARD
 70
     0
 40
0.0
 41
1.0
 50
15.0
 71
     0
 42
150.0
  3
C:\Program Files\AutoCAD LT\simplex.shx
  4
extfont.shx
  0
ENDTAB
  0
TABLE
  2
VIEW
 70
     0
  0
ENDTAB
  0
TABLE
  2
UCS
 70
     0
  0
ENDTAB
  0
TABLE
  2
APPID
 70
     1
  0
APPID
  2
ACAD
 70
     0
  0
ENDTAB
  0
TABLE
  2
DIMSTYLE
 70
     2
  0
DIMSTYLE
  2
STANDARD
 70
     0
  3

  4

  5

  6

  7

 40
1.0
 41
0.18
 42
0.0625
 43
0.38
 44
0.18
 45
0.0
 46
0.0
 47
0.0
 48
0.0
140
0.18
141
0.09
142
0.0
143
25.399999999999999
144
1.0
145
0.0
146
1.0
147
0.09
 71
     0
 72
     0
 73
     1
 74
     1
 75
     0
 76
     0
 77
     0
 78
     0
170
     0
171
     2
172
     0
173
     0
174
     0
175
     0
176
     0
177
     0
178
     0
  0
DIMSTYLE
  2
MATSU
 70
     0
  3

  4

  5

  6
OPEN
  7
OPEN
 40
1.0
 41
2.0
 42
1.0
 43
10.0
 44
1.0
 45
0.0
 46
0.0
 47
0.0
 48
0.0
140
3.0
141
0.0
142
0.0
143
0.03937
144
1.0
145
0.0
146
1.0
147
0.5
 71
     0
 72
     0
 73
     0
 74
     0
 75
     0
 76
     0
 77
     1
 78
     8
170
     0
171
     2
172
     1
173
     1
174
     0
175
     0
176
   256
177
   256
178
   256
  0
ENDTAB
  0
ENDSEC
  0
SECTION
  2
BLOCKS
  0
BLOCK
  8
0
  2
$MODEL_SPACE
 70
     0
 10
0.0
 20
0.0
 30
0.0
  3
$MODEL_SPACE
  1

  0
ENDBLK
  5
1B
  8
0
  0
BLOCK
 67
     1
  8
0
  2
$PAPER_SPACE
 70
     0
 10
0.0
 20
0.0
 30
0.0
  3
$PAPER_SPACE
  1

  0
ENDBLK
  5
18
 67
     1
  8
0
  0
BLOCK
  8
0
  2
_OPEN
 70
     0
 10
0.0
 20
0.0
 30
0.0
  3
_OPEN
  1

  0
LINE
  5
28
  8
0
  6
BYBLOCK
 62
     0
 10
-1.0
 20
0.1666666666666666
 30
0.0
 11
0.0
 21
0.0
 31
0.0
  0
LINE
  5
29
  8
0
  6
BYBLOCK
 62
     0
 10
0.0
 20
0.0
 30
0.0
 11
-1.0
 21
-0.1666666666666666
 31
0.0
  0
LINE
  5
2A
  8
0
  6
BYBLOCK
 62
     0
 10
0.0
 20
0.0
 30
0.0
 11
-1.0
 21
0.0
 31
0.0
  0
ENDBLK
  5
2B
  8
0
  0
BLOCK
  8
0
  2
まっすぐの矢印
 70
     0
 10
0.0
 20
0.0
 30
0.0
  3
まっすぐの矢印
  1

  0
LINE
  5
56E2
  8
SP
 10
0.6962157491662495
 20
-2.216890595009601
 30
0.0
 11
0.6962157491662495
 21
-5.0
 31
0.0
  0
LINE
  5
56E3
  8
SP
 10
0.6962157491662495
 20
-5.0
 30
0.0
 11
-0.6962157491662495
 21
-5.0
 31
0.0
  0
LINE
  5
56E4
  8
SP
 10
-0.6962157491662495
 20
-5.0
 30
0.0
 11
-0.6962157491662495
 21
-2.216890595009601
 31
0.0
  0
LINE
  5
56E5
  8
SP
 10
-0.6962157491662495
 20
-2.216890595009601
 30
0.0
 11
-1.7145256852758151
 21
-2.216890595009601
 31
0.0
  0
LINE
  5
56E6
  8
SP
 10
-1.7145256852758151
 20
-2.216890595009601
 30
0.0
 11
0.0
 21
0.0
 31
0.0
  0
LINE
  5
56E7
  8
SP
 10
0.0
 20
0.0
 30
0.0
 11
1.7145256852758151
 21
-2.216890595009601
 31
0.0
  0
LINE
  5
56E8
  8
SP
 10
1.7145256852758151
 20
-2.216890595009601
 30
0.0
 11
0.6962157491662495
 21
-2.216890595009601
 31
0.0
  0
ENDBLK
  5
56EA
  8
0
  0
BLOCK
  8
0
  2
右回転矢印
 70
     0
 10
0.0
 20
0.0
 30
0.0
  3
右回転矢印
  1

  0
LINE
  5
56EC
  8
SP
 10
-2.7705290305565882
 20
1.567794835092901
 30
0.0
 11
-2.4288000558398148
 21
2.8051227455822878
 31
0.0
  0
LINE
  5
56ED
  8
SP
 10
-2.4288000558398148
 20
2.8051227455822878
 30
0.0
 11
0.0
 21
0.0
 31
0.0
  0
LINE
  5
56EE
  8
SP
 10
0.0
 20
0.0
 30
0.0
 11
-3.3160037613098718
 21
-0.4072531086382499
 31
0.0
  0
LINE
  5
56EF
  8
SP
 10
-3.3160037613098718
 20
-0.4072531086382499
 30
0.0
 11
-3.0391574735299112
 21
0.5951483970269315
 31
0.0
  0
ARC
  5
56F0
  8
SP
 10
-5.9215210782018062
 20
-9.8412769578768184
 30
0.0
 40
10.82714154973578
 50
74.560750721316467
 51
112.11861101078711
  0
LINE
  5
56F1
  8
SP
 10
-9.9982127316752951
 20
0.1890560027239694
 30
0.0
 11
-10.37814929817227
 21
1.1238557349100611
 31
0.0
  0
ARC
  5
56F2
  8
SP
 10
-5.9215210782018062
 20
-9.8412769578768291
 30
0.0
 40
11.83620167374065
 50
74.560750721316396
 51
112.11861101078701
  0
ENDBLK
  5
56F4
  8
0
  0
BLOCK
  8
0
  2
*D3
 70
     1
 10
0.0
 20
0.0
 30
0.0
  3
*D3
  1

  0
LINE
  5
9048
  8
SP
 10
8109.2228358724833
 20
7679.5395653772703
 30
0.0
 11
8109.2228358724833
 21
7429.0272551941671
 31
0.0
  0
LINE
  5
9049
  8
SP
 10
9059.2228358724824
 20
7679.5395653772703
 30
0.0
 11
9059.2228358724824
 21
7429.0272551941671
 31
0.0
  0
LINE
  5
904A
  8
SP
 10
8196.7228358724824
 20
7464.0272551941671
 30
0.0
 11
8971.7228358724824
 21
7464.0272551941671
 31
0.0
  0
INSERT
  5
904B
  8
SP
  2
_OPEN
 10
8109.2228358724833
 20
7464.0272551941671
 30
0.0
 41
87.5
 42
87.5
 43
87.5
 50
180.0
  0
INSERT
  5
904C
  8
SP
  2
_OPEN
 10
9059.2228358724824
 20
7464.0272551941671
 30
0.0
 41
87.5
 42
87.5
 43
87.5
  0
TEXT
  5
904D
  8
FUTO
 10
8435.8253762509266
 20
7499.0272551941671
 30
0.0
 40
105.0
  1
950
 51
15.0
  0
POINT
  5
904E
  8
DEFPOINTS
 62
     0
 10
8109.2228358724833
 20
7714.5395653772712
 30
0.0
  0
POINT
  5
904F
  8
DEFPOINTS
 62
     0
 10
9059.2228358724824
 20
7714.5395653772712
 30
0.0
  0
POINT
  5
9050
  8
DEFPOINTS
 62
     0
 10
9059.2228358724824
 20
7464.0272551941671
 30
0.0
  0
ENDBLK
  5
6A60
  8
0
  0
BLOCK
  8
0
  2
*D4
 70
     1
 10
0.0
 20
0.0
 30
0.0
  3
*D4
  1

  0
LINE
  5
9063
  8
SP
 10
9059.2228358724824
 20
7679.5395653772703
 30
0.0
 11
9059.2228358724824
 21
7429.0272551941671
 31
0.0
  0
LINE
  5
9064
  8
SP
 10
10609.222835872481
 20
7679.5395653772703
 30
0.0
 11
10609.222835872481
 21
7429.0272551941671
 31
0.0
  0
LINE
  5
9065
  8
SP
 10
9146.7228358724824
 20
7464.0272551941671
 30
0.0
 11
10521.722835872481
 21
7464.0272551941671
 31
0.0
  0
INSERT
  5
9066
  8
SP
  2
_OPEN
 10
9059.2228358724824
 20
7464.0272551941671
 30
0.0
 41
87.5
 42
87.5
 43
87.5
 50
180.0
  0
INSERT
  5
9067
  8
SP
  2
_OPEN
 10
10609.222835872481
 20
7464.0272551941671
 30
0.0
 41
87.5
 42
87.5
 43
87.5
  0
TEXT
  5
9068
  8
FUTO
 10
9638.9471545158376
 20
7499.0272551941671
 30
0.0
 40
105.0
  1
1550
 51
15.0
  0
POINT
  5
9069
  8
DEFPOINTS
 62
     0
 10
9059.2228358724824
 20
7714.5395653772712
 30
0.0
  0
POINT
  5
906A
  8
DEFPOINTS
 62
     0
 10
10609.222835872481
 20
7714.5395653772712
 30
0.0
  0
POINT
  5
906B
  8
DEFPOINTS
 62
     0
 10
10609.222835872481
 20
7464.0272551941671
 30
0.0
  0
ENDBLK
  5
6A6D
  8
0
  0
BLOCK
  8
0
  2
*D5
 70
     1
 10
0.0
 20
0.0
 30
0.0
  3
*D5
  1

  0
LINE
  5
903F
  8
SP
 10
8109.2228358724833
 20
7679.5395653772703
 30
0.0
 11
8109.2228358724833
 21
7178.9395111965086
 31
0.0
  0
LINE
  5
9040
  8
SP
 10
10609.222835872481
 20
7679.5395653772703
 30
0.0
 11
10609.222835872481
 21
7178.9395111965086
 31
0.0
  0
LINE
  5
9041
  8
SP
 10
8196.7228358724824
 20
7213.9395111965096
 30
0.0
 11
10521.722835872481
 21
7213.9395111965096
 31
0.0
  0
INSERT
  5
9042
  8
SP
  2
_OPEN
 10
8109.2228358724833
 20
7213.9395111965096
 30
0.0
 41
87.5
 42
87.5
 43
87.5
 50
180.0
  0
INSERT
  5
9043
  8
SP
  2
_OPEN
 10
10609.222835872481
 20
7213.9395111965096
 30
0.0
 41
87.5
 42
87.5
 43
87.5
  0
TEXT
  5
9044
  8
FUTO
 10
9165.3349951941618
 20
7248.9395111965096
 30
0.0
 40
105.0
  1
2500
 51
15.0
  0
POINT
  5
9045
  8
DEFPOINTS
 62
     0
 10
8109.2228358724833
 20
7714.5395653772712
 30
0.0
  0
POINT
  5
9046
  8
DEFPOINTS
 62
     0
 10
10609.222835872481
 20
7714.5395653772712
 30
0.0
  0
POINT
  5
9047
  8
DEFPOINTS
 62
     0
 10
10609.222835872481
 20
7213.9395111965096
 30
0.0
  0
ENDBLK
  5
6A7A
  8
0
  0
BLOCK
  8
0
  2
*D6
 70
     1
 10
0.0
 20
0.0
 30
0.0
  3
*D6
  1

  0
LINE
  5
9098
  8
SP
 10
11584.380352216311
 20
7679.5395653772703
 30
0.0
 11
11584.380352216311
 21
7429.0272318063289
 31
0.0
  0
LINE
  5
9099
  8
SP
 10
13215.380352216311
 20
7679.5395653772703
 30
0.0
 11
13215.380352216311
 21
7429.0272318063289
 31
0.0
  0
LINE
  5
909A
  8
SP
 10
11671.880352216311
 20
7464.0272318063298
 30
0.0
 11
13127.880352216311
 21
7464.0272318063298
 31
0.0
  0
INSERT
  5
909B
  8
SP
  2
_OPEN
 10
11584.380352216311
 20
7464.0272318063298
 30
0.0
 41
87.5
 42
87.5
 43
87.5
 50
180.0
  0
INSERT
  5
909C
  8
SP
  2
_OPEN
 10
13215.380352216311
 20
7464.0272318063298
 30
0.0
 41
87.5
 42
87.5
 43
87.5
  0
TEXT
  5
909D
  8
FUTO
 10
12221.925178935349
 20
7499.0272318063289
 30
0.0
 40
105.0
  1
1631
 51
15.0
  0
POINT
  5
909E
  8
DEFPOINTS
 62
     0
 10
11584.380352216311
 20
7714.5395653772694
 30
0.0
  0
POINT
  5
909F
  8
DEFPOINTS
 62
     0
 10
13215.380352216311
 20
7714.5395653772712
 30
0.0
  0
POINT
  5
90A0
  8
DEFPOINTS
 62
     0
 10
13215.380352216311
 20
7464.0272318063298
 30
0.0
  0
ENDBLK
  5
6A87
  8
0
  0
BLOCK
  8
0
  2
*D7
 70
     1
 10
0.0
 20
0.0
 30
0.0
  3
*D7
  1

  0
LINE
  5
90AA
  8
SP
 10
13215.380352216311
 20
7679.5395653772703
 30
0.0
 11
13215.380352216311
 21
7429.0272318063289
 31
0.0
  0
LINE
  5
90AB
  8
SP
 10
13884.380352216311
 20
7679.5395653772703
 30
0.0
 11
13884.380352216311
 21
7429.0272318063289
 31
0.0
  0
LINE
  5
90AC
  8
SP
 10
13302.880352216311
 20
7464.0272318063298
 30
0.0
 11
13796.880352216311
 21
7464.0272318063298
 31
0.0
  0
INSERT
  5
90AD
  8
SP
  2
_OPEN
 10
13215.380352216311
 20
7464.0272318063298
 30
0.0
 41
87.5
 42
87.5
 43
87.5
 50
180.0
  0
INSERT
  5
90AE
  8
SP
  2
_OPEN
 10
13884.380352216311
 20
7464.0272318063298
 30
0.0
 41
87.5
 42
87.5
 43
87.5
  0
TEXT
  5
90AF
  8
FUTO
 10
13403.313019613681
 20
7499.0272318063289
 30
0.0
 40
105.0
  1
669
 51
15.0
  0
POINT
  5
90B0
  8
DEFPOINTS
 62
     0
 10
13215.380352216311
 20
7714.5395653772712
 30
0.0
  0
POINT
  5
90B1
  8
DEFPOINTS
 62
     0
 10
13884.380352216311
 20
7714.5395653772694
 30
0.0
  0
POINT
  5
90B2
  8
DEFPOINTS
 62
     0
 10
13884.380352216311
 20
7464.0272318063298
 30
0.0
  0
ENDBLK
  5
6A94
  8
0
  0
BLOCK
  8
0
  2
*D8
 70
     1
 10
0.0
 20
0.0
 30
0.0
  3
*D8
  1

  0
LINE
  5
908F
  8
SP
 10
11584.380352216311
 20
7679.5395653772703
 30
0.0
 11
11584.380352216311
 21
7178.9394878086714
 31
0.0
  0
LINE
  5
9090
  8
SP
 10
13884.380352216311
 20
7679.5395653772703
 30
0.0
 11
13884.380352216311
 21
7178.9394878086714
 31
0.0
  0
LINE
  5
9091
  8
SP
 10
11671.880352216311
 20
7213.9394878086723
 30
0.0
 11
13796.880352216311
 21
7213.9394878086723
 31
0.0
  0
INSERT
  5
9092
  8
SP
  2
_OPEN
 10
11584.380352216311
 20
7213.9394878086723
 30
0.0
 41
87.5
 42
87.5
 43
87.5
 50
180.0
  0
INSERT
  5
9093
  8
SP
  2
_OPEN
 10
13884.380352216311
 20
7213.9394878086723
 30
0.0
 41
87.5
 42
87.5
 43
87.5
  0
TEXT
  5
9094
  8
FUTO
 10
12540.49251153799
 20
7248.9394878086714
 30
0.0
 40
105.0
  1
2300
 51
15.0
  0
POINT
  5
9095
  8
DEFPOINTS
 62
     0
 10
11584.380352216311
 20
7714.5395653772694
 30
0.0
  0
POINT
  5
9096
  8
DEFPOINTS
 62
     0
 10
13884.380352216311
 20
7714.5395653772694
 30
0.0
  0
POINT
  5
9097
  8
DEFPOINTS
 62
     0
 10
13884.380352216311
 20
7213.9394878086723
 30
0.0
  0
ENDBLK
  5
6AA1
  8
0
  0
BLOCK
  8
0
  2
*D9
 70
     1
 10
0.0
 20
0.0
 30
0.0
  3
*D9
  1

  0
LINE
  5
9086
  8
SP
 10
13215.380352216311
 20
11050.098943767691
 30
0.0
 11
13215.380352216311
 21
11096.071323316661
 31
0.0
  0
LINE
  5
9087
  8
SP
 10
13940.380352216311
 20
9940.0764389844935
 30
0.0
 11
13940.380352216311
 21
11096.071323316661
 31
0.0
  0
LINE
  5
9088
  8
SP
 10
13302.880352216311
 20
11061.071323316661
 30
0.0
 11
13852.880352216311
 21
11061.071323316661
 31
0.0
  0
INSERT
  5
9089
  8
SP
  2
_OPEN
 10
13215.380352216311
 20
11061.071323316661
 30
0.0
 41
87.5
 42
87.5
 43
87.5
 50
180.0
  0
INSERT
  5
908A
  8
SP
  2
_OPEN
 10
13940.380352216311
 20
11061.071323316661
 30
0.0
 41
87.5
 42
87.5
 43
87.5
  0
TEXT
  5
908B
  8
FUTO
 10
13423.81301961367
 20
11096.071323316661
 30
0.0
 40
105.0
  1
725
 51
15.0
  0
POINT
  5
908C
  8
DEFPOINTS
 62
     0
 10
13215.380352216311
 20
11015.098943767691
 30
0.0
  0
POINT
  5
908D
  8
DEFPOINTS
 62
     0
 10
13940.380352216311
 20
9905.0764389844935
 30
0.0
  0
POINT
  5
908E
  8
DEFPOINTS
 62
     0
 10
13940.380352216311
 20
11061.071323316661
 30
0.0
  0
ENDBLK
  5
6AFF
  8
0
  0
BLOCK
  8
0
  2
*D10
 70
     1
 10
0.0
 20
0.0
 30
0.0
  3
*D10
  1

  0
LINE
  5
90A1
  8
SP
 10
13975.380352216311
 20
9854.5395653772703
 30
0.0
 11
14254.57375341819
 21
9854.5395653772703
 31
0.0
  0
LINE
  5
90A2
  8
SP
 10
13975.380352216311
 20
8254.5395653772684
 30
0.0
 11
14254.57375341819
 21
8254.5395653772684
 31
0.0
  0
LINE
  5
90A3
  8
SP
 10
14219.57375341819
 20
9767.0395653772703
 30
0.0
 11
14219.57375341819
 21
8342.0395653772703
 31
0.0
  0
INSERT
  5
90A4
  8
SP
  2
_OPEN
 10
14219.57375341819
 20
9854.5395653772703
 30
0.0
 41
87.5
 42
87.5
 43
87.5
 50
90.0
  0
INSERT
  5
90A5
  8
SP
  2
_OPEN
 10
14219.57375341819
 20
8254.5395653772684
 30
0.0
 41
87.5
 42
87.5
 43
87.5
 50
270.0
  0
TEXT
  5
90A6
  8
FUTO
 10
14184.573753418181
 20
8822.8408355664978
 30
0.0
 40
105.0
  1
φ1600
 50
90.0
 51
15.0
  0
POINT
  5
90A7
  8
DEFPOINTS
 62
     0
 10
13940.380352216311
 20
9854.5395653772703
 30
0.0
  0
POINT
  5
90A8
  8
DEFPOINTS
 62
     0
 10
13940.380352216311
 20
8254.5395653772684
 30
0.0
  0
POINT
  5
90A9
  8
DEFPOINTS
 62
     0
 10
14219.57375341819
 20
8254.5395653772684
 30
0.0
  0
ENDBLK
  5
6F63
  8
0
  0
BLOCK
  8
0
  2
*D11
 70
     1
 10
0.0
 20
0.0
 30
0.0
  3
*D11
  1

  0
LINE
  5
907E
  8
SP
 10
11335.380352216311
 20
9454.8081566901456
 30
0.0
 11
11335.380352216311
 21
11096.071323316661
 31
0.0
  0
LINE
  5
907F
  8
SP
 10
11422.880352216311
 20
11061.071323316661
 30
0.0
 11
13127.880352216311
 21
11061.071323316661
 31
0.0
  0
INSERT
  5
9080
  8
SP
  2
_OPEN
 10
11335.380352216311
 20
11061.071323316661
 30
0.0
 41
87.5
 42
87.5
 43
87.5
 50
180.0
  0
INSERT
  5
9081
  8
SP
  2
_OPEN
 10
13215.380352216311
 20
11061.071323316661
 30
0.0
 41
87.5
 42
87.5
 43
87.5
  0
TEXT
  5
9082
  8
FUTO
 10
12080.10467085967
 20
11096.071323316661
 30
0.0
 40
105.0
  1
1880
 51
15.0
  0
POINT
  5
9083
  8
DEFPOINTS
 62
     0
 10
11335.380352216311
 20
9419.8081566901437
 30
0.0
  0
POINT
  5
9084
  8
DEFPOINTS
 62
     0
 10
13215.380352216311
 20
11061.071323316661
 30
0.0
  0
POINT
  5
9085
  8
DEFPOINTS
 62
     0
 10
13215.380352216311
 20
11061.071323316661
 30
0.0
  0
ENDBLK
  5
6FBD
  8
0
  0
BLOCK
  8
0
  2
*D12
 70
     1
 10
0.0
 20
0.0
 30
0.0
  3
*D12
  1

  0
LINE
  5
905A
  8
SP
 10
7871.5909753591159
 20
9054.5395653772703
 30
0.0
 11
7629.0564447906054
 21
9054.5395653772703
 31
0.0
  0
LINE
  5
905B
  8
SP
 10
7979.2228358724806
 20
10817.539565377259
 30
0.0
 11
7629.0564447906054
 21
10817.539565377259
 31
0.0
  0
LINE
  5
905C
  8
SP
 10
7664.0564447906036
 20
9142.0395653772703
 30
0.0
 11
7664.0564447906063
 21
10730.03956537727
 31
0.0
  0
INSERT
  5
905D
  8
SP
  2
_OPEN
 10
7664.0564447906036
 20
9054.5395653772703
 30
0.0
 41
87.5
 42
87.5
 43
87.5
 50
270.0
  0
INSERT
  5
905E
  8
SP
  2
_OPEN
 10
7664.0564447906063
 20
10817.539565377259
 30
0.0
 41
87.5
 42
87.5
 43
87.5
 50
90.0
  0
TEXT
  5
905F
  8
FUTO
 10
7629.0564447906027
 20
9738.0843920963162
 30
0.0
 40
105.0
  1
1763
 50
90.0
 51
15.0
  0
POINT
  5
9060
  8
DEFPOINTS
 62
     0
 10
7906.590975359115
 20
9054.5395653772703
 30
0.0
  0
POINT
  5
9061
  8
DEFPOINTS
 62
     0
 10
8014.2228358724824
 20
10817.539565377259
 30
0.0
  0
POINT
  5
9062
  8
DEFPOINTS
 62
     0
 10
7664.0564447906063
 20
10817.539565377259
 30
0.0
  0
ENDBLK
  5
8034
  8
0
  0
BLOCK
  8
0
  2
*D13
 70
     1
 10
0.0
 20
0.0
 30
0.0
  3
*D13
  1

  0
LINE
  5
9036
  8
SP
 10
9059.2228358724824
 20
10922.89768734712
 30
0.0
 11
9059.2228358724824
 21
11105.734731625011
 31
0.0
  0
LINE
  5
9037
  8
SP
 10
8014.2228358724824
 20
10852.53956537727
 30
0.0
 11
8014.2228358724824
 21
11105.734731625011
 31
0.0
  0
LINE
  5
9038
  8
SP
 10
8971.7228358724824
 20
11070.734731625011
 30
0.0
 11
8101.7228358724824
 21
11070.734731625011
 31
0.0
  0
INSERT
  5
9039
  8
SP
  2
_OPEN
 10
9059.2228358724824
 20
11070.734731625011
 30
0.0
 41
87.5
 42
87.5
 43
87.5
  0
INSERT
  5
903A
  8
SP
  2
_OPEN
 10
8014.2228358724824
 20
11070.734731625011
 30
0.0
 41
87.5
 42
87.5
 43
87.5
 50
180.0
  0
TEXT
  5
903B
  8
FUTO
 10
8341.2676625915265
 20
11105.734731625011
 30
0.0
 40
105.0
  1
1045
 51
15.0
  0
POINT
  5
903C
  8
DEFPOINTS
 62
     0
 10
9059.2228358724824
 20
10887.89768734712
 30
0.0
  0
POINT
  5
903D
  8
DEFPOINTS
 62
     0
 10
8014.2228358724824
 20
10817.539565377259
 30
0.0
  0
POINT
  5
903E
  8
DEFPOINTS
 62
     0
 10
8014.2228358724824
 20
11070.734731625011
 30
0.0
  0
ENDBLK
  5
805F
  8
0
  0
BLOCK
  8
0
  2
*D14
 70
     1
 10
0.0
 20
0.0
 30
0.0
  3
*D14
  1

  0
LINE
  5
902D
  8
SP
 10
10857.222835872481
 20
13428.904059408749
 30
0.0
 11
11199.842596186079
 21
13428.904059408749
 31
0.0
  0
LINE
  5
902E
  8
SP
 10
9959.2228358724824
 20
14153.904059408749
 30
0.0
 11
11199.842596186079
 21
14153.904059408749
 31
0.0
  0
LINE
  5
902F
  8
SP
 10
11164.842596186079
 20
13516.404059408749
 30
0.0
 11
11164.842596186079
 21
14066.404059408749
 31
0.0
  0
INSERT
  5
9030
  8
SP
  2
_OPEN
 10
11164.842596186079
 20
13428.904059408749
 30
0.0
 41
87.5
 42
87.5
 43
87.5
 50
270.0
  0
INSERT
  5
9031
  8
SP
  2
_OPEN
 10
11164.842596186079
 20
14153.904059408749
 30
0.0
 41
87.5
 42
87.5
 43
87.5
 50
90.0
  0
TEXT
  5
9032
  8
FUTO
 10
11129.84259618607
 20
13637.33672680611
 30
0.0
 40
105.0
  1
725
 50
90.0
 51
15.0
  0
POINT
  5
9033
  8
DEFPOINTS
 62
     0
 10
10822.222835872481
 20
13428.904059408749
 30
0.0
  0
POINT
  5
9034
  8
DEFPOINTS
 62
     0
 10
9924.2228358724842
 20
14153.904059408749
 30
0.0
  0
POINT
  5
9035
  8
DEFPOINTS
 62
     0
 10
11164.842596186079
 20
14153.904059408749
 30
0.0
  0
ENDBLK
  5
80A1
  8
0
  0
BLOCK
  8
0
  2
*D15
 70
     1
 10
0.0
 20
0.0
 30
0.0
  3
*D15
  1

  0
LINE
  5
9024
  8
SP
 10
10857.222835872481
 20
13428.904059408749
 30
0.0
 11
11199.842596186079
 21
13428.904059408749
 31
0.0
  0
LINE
  5
9025
  8
SP
 10
10547.722835872481
 20
11548.90405940874
 30
0.0
 11
11199.842596186079
 21
11548.90405940874
 31
0.0
  0
LINE
  5
9026
  8
SP
 10
11164.842596186079
 20
13341.404059408749
 30
0.0
 11
11164.842596186079
 21
11636.40405940874
 31
0.0
  0
INSERT
  5
9027
  8
SP
  2
_OPEN
 10
11164.842596186079
 20
13428.904059408749
 30
0.0
 41
87.5
 42
87.5
 43
87.5
 50
90.0
  0
INSERT
  5
9028
  8
SP
  2
_OPEN
 10
11164.842596186079
 20
11548.90405940874
 30
0.0
 41
87.5
 42
87.5
 43
87.5
 50
270.0
  0
TEXT
  5
9029
  8
FUTO
 10
11129.84259618607
 20
12293.628378052101
 30
0.0
 40
105.0
  1
1880
 50
90.0
 51
15.0
  0
POINT
  5
902A
  8
DEFPOINTS
 62
     0
 10
10822.222835872481
 20
13428.904059408749
 30
0.0
  0
POINT
  5
902B
  8
DEFPOINTS
 62
     0
 10
10512.722835872481
 20
11548.90405940874
 30
0.0
  0
POINT
  5
902C
  8
DEFPOINTS
 62
     0
 10
11164.842596186079
 20
11548.90405940874
 30
0.0
  0
ENDBLK
  5
80AE
  8
0
  0
BLOCK
  8
0
  2
*D16
 70
     1
 10
0.0
 20
0.0
 30
0.0
  3
*D16
  1

  0
LINE
  5
9075
  8
SP
 10
9059.2228358724824
 20
14233.681971225609
 30
0.0
 11
9059.2228358724824
 21
14499.83494838727
 31
0.0
  0
LINE
  5
9076
  8
SP
 10
10609.222835872481
 20
12869.90405940874
 30
0.0
 11
10609.222835872481
 21
14499.83494838727
 31
0.0
  0
LINE
  5
9077
  8
SP
 10
9146.7228358724824
 20
14464.83494838727
 30
0.0
 11
10521.722835872481
 21
14464.83494838727
 31
0.0
  0
INSERT
  5
9078
  8
SP
  2
_OPEN
 10
9059.2228358724824
 20
14464.83494838727
 30
0.0
 41
87.5
 42
87.5
 43
87.5
 50
180.0
  0
INSERT
  5
9079
  8
SP
  2
_OPEN
 10
10609.222835872481
 20
14464.83494838727
 30
0.0
 41
87.5
 42
87.5
 43
87.5
  0
TEXT
  5
907A
  8
FUTO
 10
9638.9471545158394
 20
14499.83494838727
 30
0.0
 40
105.0
  1
1550
 51
15.0
  0
POINT
  5
907B
  8
DEFPOINTS
 62
     0
 10
9059.2228358724824
 20
14198.681971225609
 30
0.0
  0
POINT
  5
907C
  8
DEFPOINTS
 62
     0
 10
10609.222835872481
 20
12834.90405940874
 30
0.0
  0
POINT
  5
907D
  8
DEFPOINTS
 62
     0
 10
10609.222835872481
 20
14464.83494838727
 30
0.0
  0
ENDBLK
  5
8221
  8
0
  0
BLOCK
  8
0
  2
*D17
 70
     1
 10
0.0
 20
0.0
 30
0.0
  3
*D17
  1

  0
LINE
  5
906C
  8
SP
 10
9059.2228358724824
 20
14233.681971225609
 30
0.0
 11
9059.2228358724824
 21
14499.83494838727
 31
0.0
  0
LINE
  5
906D
  8
SP
 10
8014.2228358724824
 20
14107.90405940874
 30
0.0
 11
8014.2228358724824
 21
14499.83494838727
 31
0.0
  0
LINE
  5
906E
  8
SP
 10
8971.7228358724824
 20
14464.83494838727
 30
0.0
 11
8101.7228358724824
 21
14464.83494838727
 31
0.0
  0
INSERT
  5
906F
  8
SP
  2
_OPEN
 10
9059.2228358724824
 20
14464.83494838727
 30
0.0
 41
87.5
 42
87.5
 43
87.5
  0
INSERT
  5
9070
  8
SP
  2
_OPEN
 10
8014.2228358724824
 20
14464.83494838727
 30
0.0
 41
87.5
 42
87.5
 43
87.5
 50
180.0
  0
TEXT
  5
9071
  8
FUTO
 10
8341.2676625915265
 20
14499.83494838727
 30
0.0
 40
105.0
  1
1045
 51
15.0
  0
POINT
  5
9072
  8
DEFPOINTS
 62
     0
 10
9059.2228358724824
 20
14198.681971225609
 30
0.0
  0
POINT
  5
9073
  8
DEFPOINTS
 62
     0
 10
8014.2228358724824
 20
14072.904059408749
 30
0.0
  0
POINT
  5
9074
  8
DEFPOINTS
 62
     0
 10
8014.2228358724824
 20
14464.83494838727
 30
0.0
  0
ENDBLK
  5
822E
  8
0
  0
BLOCK
  8
0
  2
*D18
 70
     1
 10
0.0
 20
0.0
 30
0.0
  3
*D18
  1

  0
LINE
  5
9051
  8
SP
 10
7714.5599996051114
 20
9054.5395653772703
 30
0.0
 11
7629.0564447906054
 21
9054.5395653772703
 31
0.0
  0
LINE
  5
9052
  8
SP
 10
8074.2228358724833
 20
7884.5395653772703
 30
0.0
 11
7629.0564447906054
 21
7884.5395653772703
 31
0.0
  0
LINE
  5
9053
  8
SP
 10
7664.0564447906063
 20
8967.0395653772703
 30
0.0
 11
7664.0564447906063
 21
7972.0395653772694
 31
0.0
  0
INSERT
  5
9054
  8
SP
  2
_OPEN
 10
7664.0564447906063
 20
9054.5395653772703
 30
0.0
 41
87.5
 42
87.5
 43
87.5
 50
90.0
  0
INSERT
  5
9055
  8
SP
  2
_OPEN
 10
7664.0564447906063
 20
7884.5395653772703
 30
0.0
 41
87.5
 42
87.5
 43
87.5
 50
270.0
  0
TEXT
  5
9056
  8
FUTO
 10
7629.0564447906054
 20
8284.2638840206273
 30
0.0
 40
105.0
  1
1170
 50
90.0
 51
15.0
  0
POINT
  5
9057
  8
DEFPOINTS
 62
     0
 10
7749.5599996051096
 20
9054.5395653772703
 30
0.0
  0
POINT
  5
9058
  8
DEFPOINTS
 62
     0
 10
8109.2228358724833
 20
7884.5395653772703
 30
0.0
  0
POINT
  5
9059
  8
DEFPOINTS
 62
     0
 10
7664.0564447906063
 20
7884.5395653772703
 30
0.0
  0
ENDBLK
  5
829D
  8
0
  0
BLOCK
  8
0
  2
*U19
 70
     1
 10
0.0
 20
0.0
 30
0.0
  3
*U19
  1

  0
SOLID
  5
90C9
  8
FUTO
  6
CONTINUOUS
 10
8299.2228358724824
 20
7884.5395653772703
 30
0.0
 11
8259.2228358724824
 21
7884.5395653772703
 31
0.0
 12
8299.2228358724824
 22
7864.5395653772703
 32
0.0
 13
8299.2228358724824
 23
7864.5395653772703
 33
0.0
210
0.0
220
0.0
230
1.0
  0
SOLID
  5
90CA
  8
FUTO
  6
CONTINUOUS
 10
8259.2228358724824
 20
7864.5395653772703
 30
0.0
 11
8299.2228358724824
 21
7864.5395653772703
 31
0.0
 12
8259.2228358724824
 22
7884.5395653772703
 32
0.0
 13
8259.2228358724824
 23
7884.5395653772703
 33
0.0
210
0.0
220
0.0
230
1.0
  0
SOLID
  5
90CB
  8
FUTO
  6
CONTINUOUS
 10
8339.2228358724806
 20
7884.5395653772703
 30
0.0
 11
8299.2228358724824
 21
7884.5395653772703
 31
0.0
 12
8339.2228358724806
 22
7864.5395653772703
 32
0.0
 13
8339.2228358724806
 23
7864.5395653772703
 33
0.0
210
0.0
220
0.0
230
1.0
  0
SOLID
  5
90CC
  8
FUTO
  6
CONTINUOUS
 10
8299.2228358724824
 20
7864.5395653772703
 30
0.0
 11
8339.2228358724806
 21
7864.5395653772703
 31
0.0
 12
8299.2228358724824
 22
7884.5395653772703
 32
0.0
 13
8299.2228358724824
 23
7884.5395653772703
 33
0.0
210
0.0
220
0.0
230
1.0
  0
ENDBLK
  5
90CE
  8
0
  0
BLOCK
  8
0
  2
*U20
 70
     1
 10
0.0
 20
0.0
 30
0.0
  3
*U20
  1

  0
SOLID
  5
90D0
  8
SP
  6
CONTINUOUS
 10
7664.0564447906063
 20
7880.6466007805038
 30
0.0
 11
7652.6670508321668
 21
7875.9289593357089
 31
0.0
 12
7664.0564447906063
 22
7864.5395653772703
 32
0.0
 13
7664.0564447906063
 23
7864.5395653772703
 33
0.0
210
0.0
220
0.0
230
1.0
  0
SOLID
  5
90D1
  8
SP
  6
CONTINUOUS
 10
7647.9494093873709
 20
7864.5395653772703
 30
0.0
 11
7664.0564447906063
 21
7864.5395653772703
 31
0.0
 12
7652.6670508321668
 22
7875.9289593357089
 32
0.0
 13
7652.6670508321668
 23
7875.9289593357089
 33
0.0
210
0.0
220
0.0
230
1.0
  0
SOLID
  5
90D2
  8
SP
  6
CONTINUOUS
 10
7664.0564447906063
 20
7880.6466007805038
 30
0.0
 11
7664.0564447906063
 21
7864.5395653772703
 31
0.0
 12
7675.4458387490449
 22
7875.9289593357089
 32
0.0
 13
7675.4458387490449
 23
7875.9289593357089
 33
0.0
210
0.0
220
0.0
230
1.0
  0
SOLID
  5
90D3
  8
SP
  6
CONTINUOUS
 10
7680.1634801938399
 20
7864.5395653772703
 30
0.0
 11
7675.4458387490449
 21
7875.9289593357089
 31
0.0
 12
7664.0564447906063
 22
7864.5395653772703
 32
0.0
 13
7664.0564447906063
 23
7864.5395653772703
 33
0.0
210
0.0
220
0.0
230
1.0
  0
SOLID
  5
90D4
  8
SP
  6
CONTINUOUS
 10
7680.1634801938399
 20
7864.5395653772703
 30
0.0
 11
7664.0564447906063
 21
7864.5395653772703
 31
0.0
 12
7675.4458387490449
 22
7853.1501714188316
 32
0.0
 13
7675.4458387490449
 23
7853.1501714188316
 33
0.0
210
0.0
220
0.0
230
1.0
  0
SOLID
  5
90D5
  8
SP
  6
CONTINUOUS
 10
7664.0564447906063
 20
7848.4325299740358
 30
0.0
 11
7675.4458387490449
 21
7853.1501714188316
 31
0.0
 12
7664.0564447906063
 22
7864.5395653772703
 32
0.0
 13
7664.0564447906063
 23
7864.5395653772703
 33
0.0
210
0.0
220
0.0
230
1.0
  0
SOLID
  5
90D6
  8
SP
  6
CONTINUOUS
 10
7664.0564447906063
 20
7864.5395653772703
 30
0.0
 11
7647.9494093873709
 21
7864.5395653772703
 31
0.0
 12
7664.0564447906063
 22
7848.4325299740358
 32
0.0
 13
7664.0564447906063
 23
7848.4325299740358
 33
0.0
210
0.0
220
0.0
230
1.0
  0
SOLID
  5
90D7
  8
SP
  6
CONTINUOUS
 10
7652.6670508321668
 20
7853.1501714188316
 30
0.0
 11
7664.0564447906063
 21
7848.4325299740358
 31
0.0
 12
7647.9494093873709
 22
7864.5395653772703
 32
0.0
 13
7647.9494093873709
 23
7864.5395653772703
 33
0.0
  0
ENDBLK
  5
90D9
  8
0
  0
ENDSEC
  0
SECTION
  2
ENTITIES
  0
LINE
  5
522D
  8
CT
 10
7749.5599996051096
 20
9054.5395653772703
 30
0.0
 11
10552.142326013191
 21
9054.5395653772703
 31
0.0
  0
LINE
  5
522E
  8
CT
 10
9059.2228358724824
 20
10894.23245461041
 30
0.0
 11
9059.2228358724824
 21
7654.5395653772703
 31
0.0
  0
ARC
  5
5232
  8
KL
 10
8943.2228358724824
 20
9170.5395653772703
 30
0.0
 40
1487.0
 50
0.000000000000007
 51
85.525844023943904
  0
ARC
  5
5234
  8
KL
 10
9175.2228358724824
 20
9170.5395653772703
 30
0.0
 40
1255.0
 50
270.0
 51
0.000000000000007
  0
ARC
  5
5238
  8
KL
 10
9156.2228358724806
 20
8957.5395653772703
 30
0.0
 40
1042.0
 50
180.0
 51
270.0
  0
ARC
  5
5239
  8
KL
 10
8962.2228358724824
 20
8957.5395653772703
 30
0.0
 40
848.0
 50
146.2952570492711
 51
180.0
  0
LINE
  5
523A
  8
FUTO
 10
8014.2228358724824
 20
9096.5395653772703
 30
0.0
 11
8014.2228358724824
 21
10752.53956537727
 31
0.0
  0
LINE
  5
523C
  8
KL
 10
8014.2228358724824
 20
9099.5395653772703
 30
0.0
 11
8126.1965204971812
 21
9099.5395653772703
 31
0.0
  0
LINE
  5
523D
  8
KL
 10
9059.2228358724806
 20
10653.008114790709
 30
0.0
 11
8014.2228358724824
 21
10749.53956537727
 31
0.0
  0
LINE
  5
523F
  8
FUTO
 10
8079.2228358724833
 20
9081.5395653772703
 30
0.0
 11
8079.2228358724824
 21
10761.61185123207
 31
0.0
  0
LINE
  5
5251
  8
FUTO
 10
8014.2228358724824
 20
9096.5395653772703
 30
0.0
 11
8014.2228358724824
 21
9031.5395653772703
 31
0.0
  0
LINE
  5
5252
  8
FUTO
 10
8014.2228358724824
 20
9096.5395653772703
 30
0.0
 11
8079.2228358724833
 21
9096.5395653772703
 31
0.0
  0
LINE
  5
5253
  8
FUTO
 10
8014.2228358724824
 20
9031.5395653772703
 30
0.0
 11
8016.2228358724833
 21
9031.5395653772703
 31
0.0
  0
LINE
  5
5254
  8
FUTO
 10
8079.2228358724833
 20
9096.5395653772703
 30
0.0
 11
8079.2228358724833
 21
9094.5395653772703
 31
0.0
  0
LINE
  5
5255
  8
FUTO
 10
8028.7228358724842
 20
9090.5395653772703
 30
0.0
 11
8075.2228358724824
 21
9090.5395653772703
 31
0.0
  0
LINE
  5
5256
  8
FUTO
 10
8020.2228358724824
 20
9082.0395653772703
 30
0.0
 11
8020.2228358724824
 21
9035.5395653772703
 31
0.0
  0
ARC
  5
5257
  8
FUTO
 10
8016.2228358724833
 20
9035.5395653772703
 30
0.0
 40
4.0
 50
270.0
 51
0.000000000000007
  0
ARC
  5
5258
  8
FUTO
 10
8075.2228358724824
 20
9094.5395653772703
 30
0.0
 40
4.0
 50
270.0
 51
359.9999999999992
  0
ARC
  5
5259
  8
FUTO
 10
8028.7228358724842
 20
9082.0395653772703
 30
0.0
 40
8.5
 50
90.000000000000028
 51
180.0
  0
LINE
  5
525A
  8
FUTO
 10
8014.2228358724824
 20
10752.53956537727
 30
0.0
 11
8079.2228358724824
 21
10752.53956537727
 31
0.0
  0
LINE
  5
525B
  8
FUTO
 10
8014.2228358724824
 20
10752.53956537727
 30
0.0
 11
8014.2228358724824
 21
10817.539565377259
 31
0.0
  0
LINE
  5
525C
  8
FUTO
 10
8079.2228358724824
 20
10752.53956537727
 30
0.0
 11
8079.2228358724824
 21
10754.53956537727
 31
0.0
  0
LINE
  5
525D
  8
FUTO
 10
8014.2228358724824
 20
10817.539565377259
 30
0.0
 11
8016.2228358724806
 21
10817.539565377259
 31
0.0
  0
LINE
  5
525E
  8
FUTO
 10
8020.2228358724797
 20
10767.039565377259
 30
0.0
 11
8020.2228358724797
 21
10813.53956537727
 31
0.0
  0
LINE
  5
525F
  8
FUTO
 10
8028.7228358724824
 20
10758.539565377259
 30
0.0
 11
8075.2228358724824
 21
10758.539565377259
 31
0.0
  0
ARC
  5
5260
  8
FUTO
 10
8075.2228358724824
 20
10754.53956537727
 30
0.0
 40
4.0
 50
0.000000000000007
 51
90.000000000000028
  0
ARC
  5
5261
  8
FUTO
 10
8016.2228358724806
 20
10813.53956537727
 30
0.0
 40
4.0
 50
0.000000000000007
 51
89.999999999999204
  0
ARC
  5
5262
  8
FUTO
 10
8028.7228358724824
 20
10767.039565377259
 30
0.0
 40
8.5
 50
180.0
 51
270.0
  0
LINE
  5
5263
  8
FUTO
 10
8020.2228358724797
 20
9096.5395653772703
 30
0.0
 11
8020.2228358724797
 21
10752.53956537727
 31
0.0
  0
ARC
  5
5264
  8
FUTO
 10
8962.2228358724824
 20
8957.5395653772703
 30
0.0
 40
866.0
 50
171.76768968499709
 51
180.0
  0
LINE
  5
5265
  8
FUTO
 10
8079.2228358724833
 20
9081.5395653772703
 30
0.0
 11
8105.1464098753613
 21
9081.5395653772703
 31
0.0
  0
ARC
  5
5266
  8
FUTO
 10
9156.2228358724806
 20
8957.5395653772703
 30
0.0
 40
1060.0
 50
180.0
 51
229.33222794572171
  0
LINE
  5
5267
  8
KL
 10
9175.2228358724824
 20
7915.5395653772703
 30
0.0
 11
9156.2228358724806
 21
7915.5395653772703
 31
0.0
  0
LINE
  5
5268
  8
FUTO
 10
9175.2228358724824
 20
7897.5395653772712
 30
0.0
 11
9156.2228358724806
 21
7897.5395653772712
 31
0.0
  0
ARC
  5
5269
  8
FUTO
 10
9175.2228358724824
 20
9170.5395653772703
 30
0.0
 40
1273.0
 50
332.25096260178509
 51
354.77176523186739
  0
LINE
  5
526B
  8
FUTO
 10
9050.2228358724824
 20
10671.916120591361
 30
0.0
 11
8079.2228358724824
 21
10761.61185123207
 31
0.0
  0
CIRCLE
  5
526C
  8
KL
 10
8242.6222522151311
 20
9437.5395653772684
 30
0.0
 40
17.0
  0
LINE
  5
526D
  8
FUTO
 10
10609.222835872481
 20
7884.5395653772703
 30
0.0
 11
8109.2228358724833
 21
7884.5395653772703
 31
0.0
  0
LINE
  5
526E
  8
FUTO
 10
10609.222835872481
 20
8034.5395653772703
 30
0.0
 11
8109.2228358724833
 21
8034.5395653772703
 31
0.0
  0
LINE
  5
526F
  8
FUTO
 10
8109.2228358724833
 20
8034.5395653772703
 30
0.0
 11
8109.2228358724833
 21
7884.5395653772703
 31
0.0
  0
LINE
  5
5270
  8
FUTO
 10
10609.222835872481
 20
8034.5395653772703
 30
0.0
 11
10609.222835872481
 21
7884.5395653772712
 31
0.0
  0
LINE
  5
5273
  8
FUTO
 10
8119.2228358724824
 20
10757.916867477559
 30
0.0
 11
8119.2228358724824
 21
9063.5395653772703
 31
0.0
  0
LINE
  5
5274
  8
FUTO
 10
9999.2228358724824
 20
10242.86833958786
 30
0.0
 11
9999.2228358724824
 21
9063.5395653772703
 31
0.0
  0
LINE
  5
5275
  8
FUTO
 10
9990.2228358724824
 20
10251.65750528947
 30
0.0
 11
9990.2228358724824
 21
9063.5395653772703
 31
0.0
  0
LINE
  5
5276
  8
FUTO
 10
8128.2228358724833
 20
10757.0854961328
 30
0.0
 11
8128.2228358724833
 21
9063.5395653772703
 31
0.0
  0
LINE
  5
52EB
  8
CT
 10
10072.766478587329
 20
8064.5395653772721
 30
0.0
 11
10701.559556333181
 21
8064.5395653772721
 31
0.0
  0
LINE
  5
52F4
  8
CT
 10
10309.222835872481
 20
7654.5395653772703
 30
0.0
 11
10309.222835872481
 21
8294.6375795738713
 31
0.0
  0
LINE
  5
5391
  8
CT
 10
8914.2228358724824
 20
8934.5395653772739
 30
0.0
 11
8914.2228358724824
 21
9008.5395653772703
 31
0.0
  0
LINE
  5
5393
  8
CT
 10
9204.2228358724824
 20
8934.5395653772739
 30
0.0
 11
9204.2228358724824
 21
9008.5395653772703
 31
0.0
  0
ARC
  5
53C8
  8
FUTO
 10
9236.2228358724824
 20
8985.5395653772703
 30
0.0
 40
3.0
 50
0.000000000000007
 51
90.0
  0
LINE
  5
53C9
  8
FUTO
 10
9239.2228358724824
 20
8985.5395653772703
 30
0.0
 11
9239.2228358724824
 21
8954.5395653772721
 31
0.0
  0
ARC
  5
53CA
  8
FUTO
 10
9106.7228358724806
 20
9136.8119787367905
 30
0.0
 40
15.00000000000038
 50
325.47193698619282
 51
154.52806301381281
  0
LINE
  5
53CB
  8
FUTO
 10
9074.9044985702822
 20
9148.2363393613959
 30
0.0
 11
9074.9044985702822
 21
9154.5395653772703
 31
0.0
  0
LINE
  5
53CC
  8
FUTO
 10
9043.541173174679
 20
9148.2363393613959
 30
0.0
 11
9043.541173174679
 21
9154.5395653772703
 31
0.0
  0
LINE
  5
53CD
  8
FUTO
 10
9043.541173174679
 20
9154.5395653772739
 30
0.0
 11
9074.9044985702822
 21
9154.5395653772703
 31
0.0
  0
ARC
  5
53CE
  8
FUTO
 10
9059.2228358724806
 20
9054.5395653772703
 30
0.0
 40
95.000000000000057
 50
9.0561260276173208
 51
50.943873972382391
  0
LINE
  5
53CF
  8
FUTO
 10
9154.2228358724824
 20
9039.5395653772703
 30
0.0
 11
9154.2228358724824
 21
9004.5395653772684
 31
0.0
  0
LINE
  5
53D0
  8
FUTO
 10
9149.2228358724842
 20
8954.5395653772721
 30
0.0
 11
9149.2228358724842
 21
8957.5395653772721
 31
0.0
  0
ARC
  5
53D1
  8
FUTO
 10
9170.2228358724824
 20
9004.5395653772684
 30
0.0
 40
16.0
 50
180.0
 51
270.0
  0
ARC
  5
53D2
  8
FUTO
 10
9106.7228358724806
 20
8972.2671520177482
 30
0.0
 40
14.999999999999909
 50
205.47193698618469
 51
34.528063013809451
  0
ARC
  5
53D3
  8
FUTO
 10
9059.2228358724806
 20
9054.5395653772739
 30
0.0
 40
95.000000000000966
 50
309.05612602761732
 51
350.94387397238222
  0
ARC
  5
53D4
  8
FUTO
 10
9154.2228358724824
 20
9054.5395653772703
 30
0.0
 40
15.00000000000011
 50
265.47193698619139
 51
94.528063013808236
  0
LINE
  5
53D5
  8
FUTO
 10
9170.2228358724824
 20
8988.5395653772703
 30
0.0
 11
9236.2228358724824
 21
8988.5395653772703
 31
0.0
  0
ARC
  5
53D7
  8
FUTO
 10
9011.7228358724824
 20
9136.8119787367923
 30
0.0
 40
15.00000000000006
 50
25.47193698618608
 51
214.5280630138096
  0
ARC
  5
53D8
  8
FUTO
 10
9059.2228358724824
 20
9054.5395653772703
 30
0.0
 40
94.999999999999375
 50
129.0561260276167
 51
170.94387397238259
  0
LINE
  5
53D9
  8
FUTO
 10
8964.2228358724806
 20
9039.5395653772703
 30
0.0
 11
8964.2228358724806
 21
9004.5395653772684
 31
0.0
  0
ARC
  5
53DA
  8
FUTO
 10
9011.7228358724824
 20
8972.2671520177482
 30
0.0
 40
14.99999999999978
 50
145.47193698619111
 51
334.52806301381349
  0
LINE
  5
53DB
  8
FUTO
 10
8969.2228358724824
 20
8954.5395653772721
 30
0.0
 11
8969.2228358724824
 21
8957.5395653772721
 31
0.0
  0
ARC
  5
53DC
  8
FUTO
 10
9059.2228358724824
 20
9054.5395653772703
 30
0.0
 40
95.000000000000057
 50
189.05612602761681
 51
230.94387397238239
  0
ARC
  5
53DD
  8
FUTO
 10
8882.2228358724824
 20
8985.5395653772703
 30
0.0
 40
3.0
 50
90.0
 51
180.0
  0
LINE
  5
53DE
  8
FUTO
 10
8879.2228358724824
 20
8985.5395653772703
 30
0.0
 11
8879.2228358724824
 21
8954.5395653772721
 31
0.0
  0
LINE
  5
53DF
  8
FUTO
 10
8948.2228358724824
 20
8988.5395653772703
 30
0.0
 11
8882.2228358724824
 21
8988.5395653772703
 31
0.0
  0
ARC
  5
53E0
  8
FUTO
 10
8948.2228358724824
 20
9004.5395653772684
 30
0.0
 40
16.0
 50
270.0
 51
0.000000000000007
  0
LINE
  5
53E1
  8
FUTO
 10
8864.2228358724824
 20
8954.5395653772721
 30
0.0
 11
9254.2228358724824
 21
8954.5395653772721
 31
0.0
  0
ARC
  5
53E2
  8
FUTO
 10
8964.2228358724806
 20
9054.5395653772703
 30
0.0
 40
14.999999999999879
 50
85.471936986191025
 51
274.52806301380912
  0
CIRCLE
  5
53E3
  8
FUTO
 10
9059.2228358724824
 20
9054.5395653772703
 30
0.0
 40
36.5
  0
LINE
  5
53E4
  8
FUTO
 10
8969.2228358724824
 20
8957.5395653772721
 30
0.0
 11
9149.2228358724842
 21
8957.5395653772721
 31
0.0
  0
ARC
  5
53E5
  8
FUTO
 10
9059.2228358724824
 20
9054.5395653772684
 30
0.0
 40
94.999999999998266
 50
249.0561260276163
 51
290.94387397238302
  0
ARC
  5
53E6
  8
FUTO
 10
9059.2228358724806
 20
9054.5395653772739
 30
0.0
 40
94.999999999998053
 50
69.056126027616386
 51
110.94387397238231
  0
LINE
  5
53E7
  8
FUTO
 10
11799.380352216311
 20
9134.5395653772703
 30
0.0
 11
11804.380352216311
 21
9134.5395653772703
 31
0.0
  0
ARC
  5
53E8
  8
FUTO
 10
11793.380352216311
 20
9143.5395653772721
 30
0.0
 40
6.0
 50
0.0
 51
90.0
  0
LINE
  5
53E9
  8
FUTO
 10
11784.380352216311
 20
9149.5395653772703
 30
0.0
 11
11793.380352216311
 21
9149.5395653772721
 31
0.0
  0
LINE
  5
53EA
  8
FUTO
 10
11804.380352216311
 20
8974.5395653772703
 30
0.0
 11
11799.380352216311
 21
8974.5395653772703
 31
0.0
  0
ARC
  5
53EB
  8
FUTO
 10
11793.380352216311
 20
8965.5395653772739
 30
0.0
 40
6.0
 50
270.0
 51
0.0
  0
ARC
  5
53EC
  8
FUTO
 10
11778.380352216311
 20
8982.5395653772703
 30
0.0
 40
6.0
 50
0.0
 51
90.0
  0
LINE
  5
53ED
  8
FUTO
 10
11793.380352216311
 20
8959.5395653772739
 30
0.0
 11
11784.380352216311
 21
8959.5395653772739
 31
0.0
  0
LINE
  5
53EE
  8
FUTO
 10
11804.380352216311
 20
9134.5395653772703
 30
0.0
 11
11804.380352216311
 21
8974.5395653772703
 31
0.0
  0
LINE
  5
53EF
  8
FUTO
 10
11799.380352216311
 20
9143.5395653772721
 30
0.0
 11
11799.380352216311
 21
8965.5395653772739
 31
0.0
  0
LINE
  5
53F0
  8
FUTO
 10
11784.380352216311
 20
8954.5395653772721
 30
0.0
 11
11784.380352216311
 21
9154.5395653772703
 31
0.0
  0
LINE
  5
53F1
  8
FUTO
 10
11684.380352216311
 20
9149.5395653772703
 30
0.0
 11
11675.380352216311
 21
9149.5395653772721
 31
0.0
  0
ARC
  5
53F2
  8
FUTO
 10
11675.380352216311
 20
9143.5395653772721
 30
0.0
 40
6.0
 50
90.0
 51
180.0
  0
LINE
  5
53F3
  8
FUTO
 10
11669.380352216311
 20
9134.5395653772703
 30
0.0
 11
11664.380352216311
 21
9134.5395653772703
 31
0.0
  0
ARC
  5
53F4
  8
FUTO
 10
11690.380352216311
 20
8982.5395653772703
 30
0.0
 40
6.0
 50
90.0
 51
180.0
  0
ARC
  5
53F5
  8
FUTO
 10
11675.380352216311
 20
8965.5395653772739
 30
0.0
 40
6.0
 50
180.0
 51
270.0
  0
LINE
  5
53F6
  8
FUTO
 10
11675.380352216311
 20
8959.5395653772739
 30
0.0
 11
11684.380352216311
 21
8959.5395653772739
 31
0.0
  0
LINE
  5
53F7
  8
FUTO
 10
11664.380352216311
 20
8974.5395653772703
 30
0.0
 11
11669.380352216311
 21
8974.5395653772703
 31
0.0
  0
LINE
  5
53F8
  8
FUTO
 10
11669.380352216311
 20
9143.5395653772721
 30
0.0
 11
11669.380352216311
 21
8965.5395653772739
 31
0.0
  0
LINE
  5
53F9
  8
FUTO
 10
11664.380352216311
 20
9134.5395653772703
 30
0.0
 11
11664.380352216311
 21
8974.5395653772703
 31
0.0
  0
LINE
  5
53FA
  8
FUTO
 10
11684.380352216311
 20
9154.5395653772703
 30
0.0
 11
11684.380352216311
 21
8954.5395653772721
 31
0.0
  0
LINE
  5
53FB
  8
FUTO
 10
11784.380352216311
 20
9154.5395653772703
 30
0.0
 11
11684.380352216311
 21
9154.5395653772703
 31
0.0
  0
LINE
  5
53FC
  8
FUTO
 10
11679.380352216311
 20
8954.5395653772721
 30
0.0
 11
11789.380352216311
 21
8954.5395653772721
 31
0.0
  0
LINE
  5
53FD
  8
FUTO
 10
11778.380352216311
 20
8988.5395653772703
 30
0.0
 11
11690.380352216311
 21
8988.5395653772703
 31
0.0
  0
LINE
  5
53FE
  8
KL
 10
9444.8747087632055
 20
8946.5395653772703
 30
0.0
 11
8673.5709629817593
 21
8946.5395653772684
 31
0.0
  0
LINE
  5
53FF
  8
FUTO
 10
8864.2228358724824
 20
8954.5395653772721
 30
0.0
 11
8864.2228358724824
 21
8946.5395653772703
 31
0.0
  0
LINE
  5
5400
  8
FUTO
 10
9254.2228358724824
 20
8954.5395653772721
 30
0.0
 11
9254.2228358724824
 21
8946.5395653772703
 31
0.0
  0
LINE
  5
5405
  8
FUTO
 10
8434.2228358724824
 20
8042.3671124362108
 30
0.0
 11
8434.2228358724824
 21
8034.5395653772703
 31
0.0
  0
LINE
  5
540E
  8
FUTO
 10
9684.2228358724824
 20
8042.3671124362108
 30
0.0
 11
9684.2228358724824
 21
8034.5395653772703
 31
0.0
  0
LINE
  5
5411
  8
FUTO
 10
8434.2228358724824
 20
8034.5395653772703
 30
0.0
 11
8434.2228358724824
 21
7884.5395653772703
 31
0.0
  0
LINE
  5
5412
  8
KL
 10
8859.5684875334828
 20
9039.7361472135653
 30
0.0
 11
8861.7050687021201
 21
9021.8634020156442
 31
0.0
  0
LINE
  5
5413
  8
KL
 10
9259.2228358724824
 20
9063.5395653772703
 30
0.0
 11
9259.2228358724824
 21
9045.5395653772703
 31
0.0
  0
LINE
  5
5414
  8
FUTO
 10
8055.8131616341107
 20
8943.9264975997994
 30
0.0
 11
8680.9468758639068
 21
9018.3829881113088
 31
0.0
  0
LINE
  5
5415
  8
FUTO
 10
8057.9497428027507
 20
8926.0537524018782
 30
0.0
 11
8683.0834570325442
 21
9000.5102429133894
 31
0.0
  0
LINE
  5
5416
  8
KL
 10
9259.2228358724824
 20
9045.5395653772703
 30
0.0
 11
9694.0224446165612
 21
9045.5395653772703
 31
0.0
  0
LINE
  5
5417
  8
KL
 10
9259.2228358724824
 20
9063.5395653772703
 30
0.0
 11
9670.6309596262472
 21
9063.5395653772703
 31
0.0
  0
LINE
  5
541F
  8
FUTO
 10
8119.2228358724824
 20
9045.5395653772703
 30
0.0
 11
8119.2228358724824
 21
8034.5395653772703
 31
0.0
  0
LINE
  5
5420
  8
FUTO
 10
8128.2228358724833
 20
9045.5395653772703
 30
0.0
 11
8128.2228358724833
 21
8034.5395653772703
 31
0.0
  0
LINE
  5
5425
  8
FUTO
 10
9999.2228358724824
 20
9045.5395653772703
 30
0.0
 11
9999.2228358724824
 21
8810.6845724223112
 31
0.0
  0
LINE
  5
5426
  8
FUTO
 10
9990.2228358724824
 20
9045.5395653772703
 30
0.0
 11
9990.2228358724824
 21
8817.6101694960817
 31
0.0
  0
ARC
  5
543E
  8
FUTO
 10
8943.2228358724824
 20
9170.5395653772703
 30
0.0
 40
1505.0
 50
355.57946260306431
 51
85.235725954090256
  0
CIRCLE
  5
544F
  8
SL
 10
9059.2228358724824
 20
9054.5395653772703
 30
0.0
 40
315.0
  0
ARC
  5
5451
  8
FUTO
 10
9059.2228358724824
 20
9054.5395653772703
 30
0.0
 40
380.0
 50
52.421329787095857
 51
244.97946754364699
  0
CIRCLE
  5
5453
  8
SL
 10
10309.222835872481
 20
8294.5395653772703
 30
0.0
 40
132.49999999999989
  0
ARC
  5
5454
  8
FUTO
 10
10309.222835872481
 20
8294.5395653772703
 30
0.0
 40
220.0
 50
244.97946754364699
 51
52.421329787095878
  0
LINE
  5
5459
  8
CT
 10
11299.014991111409
 20
9054.5395653772703
 30
0.0
 11
13985.158264033171
 21
9054.5395653772703
 31
0.0
  0
LINE
  5
545A
  8
CT
 10
13215.380352216311
 20
11061.071323316661
 30
0.0
 11
13215.380352216311
 21
7654.5395653772703
 31
0.0
  0
LINE
  5
545B
  8
FUTO
 10
13809.380352216311
 20
8034.5395653772703
 30
0.0
 11
11659.380352216311
 21
8034.5395653772703
 31
0.0
  0
LINE
  5
545C
  8
FUTO
 10
13809.380352216311
 20
7884.5395653772703
 30
0.0
 11
11659.380352216311
 21
7884.5395653772703
 31
0.0
  0
LINE
  5
5505
  8
FUTO
 10
13809.380352216311
 20
7884.5395653772703
 30
0.0
 11
13884.380352216311
 21
7884.5395653772703
 31
0.0
  0
LINE
  5
5506
  8
FUTO
 10
13819.53172924532
 20
7897.2165980067348
 30
0.0
 11
13880.7289751873
 21
7891.8625327478039
 31
0.0
  0
LINE
  5
5507
  8
FUTO
 10
13809.380352216311
 20
8034.5395653772703
 30
0.0
 11
13884.380352216311
 21
8034.5395653772703
 31
0.0
  0
LINE
  5
5508
  8
FUTO
 10
13819.53172924532
 20
8021.862532747803
 30
0.0
 11
13880.7289751873
 21
8027.2165980067357
 31
0.0
  0
LINE
  5
5509
  8
FUTO
 10
13815.880352216311
 20
8017.8777539554367
 30
0.0
 11
13815.880352216311
 21
7901.2013767991039
 31
0.0
  0
ARC
  5
550A
  8
FUTO
 10
13819.880352216311
 20
7901.2013767991039
 30
0.0
 40
4.0
 50
180.0
 51
264.99999999999989
  0
LINE
  5
550B
  8
FUTO
 10
13809.380352216311
 20
8034.5395653772703
 30
0.0
 11
13809.380352216311
 21
7884.5395653772703
 31
0.0
  0
ARC
  5
550C
  8
FUTO
 10
13819.880352216311
 20
8017.8777539554367
 30
0.0
 40
4.0
 50
95.000000000000057
 51
180.0
  0
LINE
  5
550D
  8
FUTO
 10
13884.380352216311
 20
7884.5395653772703
 30
0.0
 11
13884.380352216311
 21
7887.8777539554376
 31
0.0
  0
LINE
  5
550E
  8
FUTO
 10
13884.380352216311
 20
8034.5395653772703
 30
0.0
 11
13884.380352216311
 21
8031.2013767991029
 31
0.0
  0
ARC
  5
550F
  8
FUTO
 10
13880.380352216311
 20
8031.2013767991029
 30
0.0
 40
4.0
 50
275.00000000000051
 51
359.9999999999921
  0
ARC
  5
5510
  8
FUTO
 10
13880.380352216311
 20
7887.8777539554376
 30
0.0
 40
4.0
 50
0.0000000000078369
 51
84.999999999999503
  0
LINE
  5
5511
  8
FUTO
 10
11659.380352216311
 20
8034.5395653772703
 30
0.0
 11
11584.380352216311
 21
8034.5395653772703
 31
0.0
  0
LINE
  5
5512
  8
FUTO
 10
11649.2289751873
 20
8021.862532747803
 30
0.0
 11
11588.03172924532
 21
8027.2165980067357
 31
0.0
  0
LINE
  5
5513
  8
FUTO
 10
11659.380352216311
 20
7884.5395653772703
 30
0.0
 11
11584.380352216311
 21
7884.5395653772703
 31
0.0
  0
LINE
  5
5514
  8
FUTO
 10
11649.2289751873
 20
7897.2165980067348
 30
0.0
 11
11588.03172924532
 21
7891.8625327478039
 31
0.0
  0
LINE
  5
5515
  8
FUTO
 10
11652.880352216311
 20
7901.2013767991039
 30
0.0
 11
11652.880352216311
 21
8017.8777539554367
 31
0.0
  0
ARC
  5
5516
  8
FUTO
 10
11648.880352216311
 20
8017.8777539554367
 30
0.0
 40
4.0
 50
0.0
 51
84.999999999999943
  0
LINE
  5
5517
  8
FUTO
 10
11659.380352216311
 20
7884.5395653772703
 30
0.0
 11
11659.380352216311
 21
8034.5395653772703
 31
0.0
  0
ARC
  5
5518
  8
FUTO
 10
11648.880352216311
 20
7901.2013767991039
 30
0.0
 40
4.0
 50
275.0
 51
0.0
  0
LINE
  5
5519
  8
FUTO
 10
11584.380352216311
 20
8034.5395653772703
 30
0.0
 11
11584.380352216311
 21
8031.2013767991011
 31
0.0
  0
LINE
  5
551A
  8
FUTO
 10
11584.380352216311
 20
7884.5395653772703
 30
0.0
 11
11584.380352216311
 21
7887.8777539554376
 31
0.0
  0
ARC
  5
551B
  8
FUTO
 10
11588.380352216311
 20
7887.8777539554376
 30
0.0
 40
4.0
 50
95.000000000000554
 51
179.9999999999921
  0
ARC
  5
551C
  8
FUTO
 10
11588.380352216311
 20
8031.2013767991029
 30
0.0
 40
4.0
 50
180.00000000000779
 51
264.99999999999949
  0
LINE
  5
551D
  8
FUTO
 10
13809.380352216311
 20
7897.5360653772714
 30
0.0
 11
11659.380352216311
 21
7897.5360653772714
 31
0.0
  0
LINE
  5
551E
  8
FUTO
 10
13809.380352216311
 20
8021.543065377271
 30
0.0
 11
11659.380352216311
 21
8021.543065377271
 31
0.0
  0
LINE
  5
551F
  8
FUTO
 10
10609.222835872481
 20
7897.5360653772714
 30
0.0
 11
8109.2228358724833
 21
7897.5360653772714
 31
0.0
  0
LINE
  5
5520
  8
FUTO
 10
10609.222835872481
 20
8021.543065377271
 30
0.0
 11
8109.2228358724833
 21
8021.543065377271
 31
0.0
  0
LINE
  5
5522
  8
FUTO
 10
12625.380352216311
 20
10752.53956537727
 30
0.0
 11
12625.380352216311
 21
9054.5395653772703
 31
0.0
  0
LINE
  5
5523
  8
FUTO
 10
13805.380352216311
 20
10752.53956537727
 30
0.0
 11
13805.380352216311
 21
9054.5395653772703
 31
0.0
  0
LINE
  5
5524
  8
FUTO
 10
13808.58035221631
 20
10752.53956537727
 30
0.0
 11
13808.58035221631
 21
9054.5395653772703
 31
0.0
  0
LINE
  5
5525
  8
FUTO
 10
12622.18035221631
 20
10752.53956537727
 30
0.0
 11
12622.18035221631
 21
9054.5395653772703
 31
0.0
  0
LINE
  5
5528
  8
FUTO
 10
12556.38035221632
 20
10817.539565377259
 30
0.0
 11
12556.38035221632
 21
10752.53956537727
 31
0.0
  0
LINE
  5
5529
  8
FUTO
 10
13874.380352216311
 20
10817.539565377259
 30
0.0
 11
13874.380352216311
 21
10752.53956537727
 31
0.0
  0
LINE
  5
552A
  8
FUTO
 10
13883.58035221631
 20
10752.53956537727
 30
0.0
 11
13883.58035221631
 21
9073.5395653772721
 31
0.0
  0
LINE
  5
552B
  8
FUTO
 10
12547.18035221631
 20
10752.53956537727
 30
0.0
 11
12547.18035221631
 21
9073.5395653772703
 31
0.0
  0
LINE
  5
552C
  8
KL
 10
12625.380352216311
 20
7913.5395653772703
 30
0.0
 11
13805.380352216311
 21
7913.5395653772703
 31
0.0
  0
LINE
  5
552D
  8
KL
 10
12622.18035221631
 20
7895.5395653772694
 30
0.0
 11
12625.380352216311
 21
7895.5395653772694
 31
0.0
  0
LINE
  5
552E
  8
KL
 10
13805.380352216311
 20
7895.5395653772694
 30
0.0
 11
13808.58035221631
 21
7895.5395653772694
 31
0.0
  0
LINE
  5
552F
  8
KL
 10
12625.380352216311
 20
8034.5395653772703
 30
0.0
 11
12625.380352216311
 21
7895.5395653772694
 31
0.0
  0
LINE
  5
5530
  8
KL
 10
12622.18035221631
 20
8034.5395653772703
 30
0.0
 11
12622.18035221631
 21
7895.5395653772694
 31
0.0
  0
LINE
  5
5531
  8
KL
 10
13805.380352216311
 20
8034.5395653772703
 30
0.0
 11
13805.380352216311
 21
7895.5395653772694
 31
0.0
  0
LINE
  5
5532
  8
KL
 10
13808.58035221631
 20
8034.5395653772703
 30
0.0
 11
13808.58035221631
 21
7895.5395653772694
 31
0.0
  0
LINE
  5
5533
  8
CT
 10
12414.380352216311
 20
9214.9065234132322
 30
0.0
 11
12414.380352216311
 21
8882.8604746397359
 31
0.0
  0
LINE
  5
5534
  8
CT
 10
11734.380352216311
 20
9214.9065234132322
 30
0.0
 11
11734.380352216311
 21
8882.8604746397359
 31
0.0
  0
LINE
  5
5537
  8
CT
 10
12369.380352216311
 20
8986.4824221565395
 30
0.0
 11
12369.380352216311
 21
8896.4824221565395
 31
0.0
  0
LINE
  5
5538
  8
CT
 10
12459.380352216311
 20
8986.4824221565395
 30
0.0
 11
12459.380352216311
 21
8896.4824221565395
 31
0.0
  0
LINE
  5
5548
  8
FUTO
 10
12441.880352216311
 20
9174.5395653772703
 30
0.0
 11
12478.380352216311
 21
9174.5395653772703
 31
0.0
  0
LINE
  5
5549
  8
FUTO
 10
12441.880352216311
 20
9187.5395653772684
 30
0.0
 11
12441.880352216311
 21
8974.5395653772703
 31
0.0
  0
LINE
  5
554A
  8
FUTO
 10
12386.880352216311
 20
9187.5395653772684
 30
0.0
 11
12386.880352216311
 21
8974.5395653772703
 31
0.0
  0
ARC
  5
554B
  8
FUTO
 10
12481.380352216311
 20
8971.5395653772703
 30
0.0
 40
3.0
 50
0.0
 51
90.0
  0
ARC
  5
554C
  8
FUTO
 10
12347.380352216311
 20
8971.5395653772703
 30
0.0
 40
3.0
 50
90.000000000000028
 51
180.0
  0
LINE
  5
554D
  8
FUTO
 10
12492.380352216311
 20
9174.5395653772703
 30
0.0
 11
12478.380352216311
 21
9174.5395653772703
 31
0.0
  0
LINE
  5
554E
  8
FUTO
 10
12468.380352216311
 20
9187.5395653772684
 30
0.0
 11
12468.380352216311
 21
9174.5395653772703
 31
0.0
  0
LINE
  5
554F
  8
FUTO
 10
12350.380352216311
 20
9174.5395653772703
 30
0.0
 11
12386.880352216311
 21
9174.5395653772703
 31
0.0
  0
LINE
  5
5550
  8
FUTO
 10
12360.380352216311
 20
9187.5395653772684
 30
0.0
 11
12360.380352216311
 21
9174.5395653772703
 31
0.0
  0
LINE
  5
5551
  8
FUTO
 10
12336.380352216311
 20
9174.5395653772703
 30
0.0
 11
12350.380352216311
 21
9174.5395653772703
 31
0.0
  0
LINE
  5
5552
  8
FUTO
 10
12360.380352216311
 20
9187.5395653772684
 30
0.0
 11
12468.380352216311
 21
9187.5395653772684
 31
0.0
  0
LINE
  5
5553
  8
FUTO
 10
12492.380352216311
 20
8934.5395653772684
 30
0.0
 11
12484.380352216311
 21
8934.5395653772684
 31
0.0
  0
LINE
  5
5554
  8
FUTO
 10
12500.380352216311
 20
8974.5395653772703
 30
0.0
 11
12492.380352216311
 21
8954.5395653772703
 31
0.0
  0
LINE
  5
5555
  8
FUTO
 10
12484.380352216311
 20
8971.5395653772703
 30
0.0
 11
12484.380352216311
 21
8924.5395653772703
 31
0.0
  0
LINE
  5
5556
  8
FUTO
 10
12500.380352216311
 20
9134.5395653772703
 30
0.0
 11
12500.380352216311
 21
8974.5395653772703
 31
0.0
  0
LINE
  5
5557
  8
FUTO
 10
12336.380352216311
 20
8934.5395653772684
 30
0.0
 11
12344.380352216311
 21
8934.5395653772684
 31
0.0
  0
LINE
  5
5558
  8
FUTO
 10
12328.380352216311
 20
8974.5395653772703
 30
0.0
 11
12336.380352216311
 21
8954.5395653772703
 31
0.0
  0
LINE
  5
5559
  8
FUTO
 10
12344.380352216311
 20
8971.5395653772703
 30
0.0
 11
12344.380352216311
 21
8924.5395653772703
 31
0.0
  0
LINE
  5
555A
  8
FUTO
 10
12328.380352216311
 20
9134.5395653772703
 30
0.0
 11
12328.380352216311
 21
8974.5395653772703
 31
0.0
  0
LINE
  5
555B
  8
FUTO
 10
12347.380352216311
 20
8974.5395653772703
 30
0.0
 11
12481.380352216311
 21
8974.5395653772703
 31
0.0
  0
LINE
  5
555C
  8
FUTO
 10
12334.380352216311
 20
8924.5395653772703
 30
0.0
 11
12494.380352216311
 21
8924.5395653772703
 31
0.0
  0
LINE
  5
555D
  8
FUTO
 10
12478.380352216311
 20
9174.5395653772703
 30
0.0
 11
12478.380352216311
 21
8974.5395653772703
 31
0.0
  0
LINE
  5
555E
  8
FUTO
 10
12492.380352216311
 20
9174.5395653772703
 30
0.0
 11
12492.380352216311
 21
8934.5395653772684
 31
0.0
  0
LINE
  5
555F
  8
FUTO
 10
12500.380352216311
 20
9134.5395653772703
 30
0.0
 11
12492.380352216311
 21
9154.5395653772703
 31
0.0
  0
LINE
  5
5560
  8
FUTO
 10
12328.380352216311
 20
9134.5395653772703
 30
0.0
 11
12336.380352216311
 21
9154.5395653772703
 31
0.0
  0
LINE
  5
5561
  8
FUTO
 10
12336.380352216311
 20
9174.5395653772703
 30
0.0
 11
12336.380352216311
 21
8934.5395653772684
 31
0.0
  0
LINE
  5
5562
  8
FUTO
 10
12478.380352216311
 20
9174.5395653772703
 30
0.0
 11
12478.380352216311
 21
8974.5395653772703
 31
0.0
  0
LINE
  5
5563
  8
FUTO
 10
12350.380352216311
 20
9174.5395653772703
 30
0.0
 11
12350.380352216311
 21
8974.5395653772703
 31
0.0
  0
LINE
  5
55BF
  8
FUTO
 10
11809.380352216311
 20
8946.5395653772684
 30
0.0
 11
11659.380352216311
 21
8946.5395653772703
 31
0.0
  0
LINE
  5
55C1
  8
FUTO
 10
11809.380352216311
 20
8946.5395653772684
 30
0.0
 11
11809.380352216311
 21
8906.5395653772703
 31
0.0
  0
LINE
  5
55C6
  8
FUTO
 10
11659.380352216311
 20
8946.5395653772703
 30
0.0
 11
11659.380352216311
 21
8034.5395653772703
 31
0.0
  0
LINE
  5
55CC
  8
FUTO
 10
11679.380352216311
 20
8954.5395653772721
 30
0.0
 11
11679.380352216311
 21
8946.5395653772703
 31
0.0
  0
LINE
  5
55CD
  8
FUTO
 10
11789.380352216311
 20
8954.5395653772721
 30
0.0
 11
11789.380352216311
 21
8946.5395653772684
 31
0.0
  0
LINE
  5
55DF
  8
FUTO
 10
12324.380352216311
 20
8916.5395653772703
 30
0.0
 11
12504.380352216311
 21
8916.5395653772703
 31
0.0
  0
LINE
  5
55E0
  8
FUTO
 10
12504.380352216311
 20
8916.5395653772703
 30
0.0
 11
12504.380352216311
 21
8034.5395653772703
 31
0.0
  0
LINE
  5
55E6
  8
FUTO
 10
12324.380352216311
 20
8916.5395653772703
 30
0.0
 11
12324.380352216311
 21
8906.5395653772703
 31
0.0
  0
LINE
  5
55ED
  8
FUTO
 10
12334.380352216311
 20
8924.5395653772703
 30
0.0
 11
12334.380352216311
 21
8916.5395653772703
 31
0.0
  0
LINE
  5
55EE
  8
FUTO
 10
12494.380352216311
 20
8924.5395653772703
 30
0.0
 11
12494.380352216311
 21
8916.5395653772703
 31
0.0
  0
LINE
  5
55F3
  8
FUTO
 10
12324.380352216311
 20
8906.5395653772703
 30
0.0
 11
11809.380352216311
 21
8906.5395653772703
 31
0.0
  0
LINE
  5
5600
  8
FUTO
 10
12557.18035221631
 20
9063.5395653772703
 30
0.0
 11
13873.58035221631
 21
9063.5395653772703
 31
0.0
  0
LINE
  5
5601
  8
FUTO
 10
12557.18035221631
 20
9045.5395653772703
 30
0.0
 11
13873.58035221631
 21
9045.5395653772703
 31
0.0
  0
LINE
  5
5602
  8
FUTO
 10
12557.18035221631
 20
9063.5395653772703
 30
0.0
 11
12557.18035221631
 21
9045.5395653772703
 31
0.0
  0
LINE
  5
5603
  8
FUTO
 10
12625.380352216311
 20
9054.5395653772703
 30
0.0
 11
12625.380352216311
 21
8034.5395653772703
 31
0.0
  0
LINE
  5
5604
  8
FUTO
 10
12622.18035221631
 20
9054.5395653772703
 30
0.0
 11
12622.18035221631
 21
8034.5395653772703
 31
0.0
  0
LINE
  5
5605
  8
FUTO
 10
13808.58035221631
 20
9054.5395653772703
 30
0.0
 11
13808.58035221631
 21
8034.5395653772703
 31
0.0
  0
LINE
  5
5606
  8
FUTO
 10
13805.380352216311
 20
9054.5395653772703
 30
0.0
 11
13805.380352216311
 21
8034.5395653772703
 31
0.0
  0
LINE
  5
5608
  8
FUTO
 10
13873.58035221631
 20
9063.5395653772721
 30
0.0
 11
13883.58035221631
 21
9073.5395653772721
 31
0.0
  0
LINE
  5
5609
  8
FUTO
 10
13873.58035221631
 20
9045.5395653772703
 30
0.0
 11
13883.58035221631
 21
9035.5395653772684
 31
0.0
  0
LINE
  5
560A
  8
FUTO
 10
13883.58035221631
 20
9035.5395653772703
 30
0.0
 11
13883.58035221631
 21
8953.9901250008406
 31
0.0
  0
LINE
  5
560B
  8
FUTO
 10
12557.18035221631
 20
9063.5395653772703
 30
0.0
 11
12547.18035221631
 21
9073.5395653772703
 31
0.0
  0
LINE
  5
560C
  8
FUTO
 10
12557.18035221631
 20
9045.5395653772703
 30
0.0
 11
12547.18035221631
 21
9035.5395653772721
 31
0.0
  0
LINE
  5
560D
  8
FUTO
 10
12547.18035221631
 20
9035.5395653772703
 30
0.0
 11
12547.18035221631
 21
8953.9901250008388
 31
0.0
  0
LINE
  5
560E
  8
SL
 10
11474.380352216311
 20
9369.5395653772703
 30
0.0
 11
11474.380352216311
 21
8162.0395653772703
 31
0.0
  0
LINE
  5
560F
  8
SL
 10
11474.380352216311
 20
9369.5395653772703
 30
0.0
 11
11552.28035221631
 21
9369.5395653772703
 31
0.0
  0
LINE
  5
5610
  8
SL
 10
11474.380352216311
 20
8739.5395653772703
 30
0.0
 11
11552.28035221631
 21
8739.5395653772703
 31
0.0
  0
LINE
  5
5611
  8
SL
 10
11552.28035221631
 20
9369.5395653772703
 30
0.0
 11
11552.28035221631
 21
9134.5395653772703
 31
0.0
  0
LINE
  5
5613
  8
SL
 10
11574.380352216311
 20
9134.5395653772703
 30
0.0
 11
11574.380352216311
 21
8974.5395653772703
 31
0.0
  0
LINE
  5
5614
  8
SL
 10
11552.28035221631
 20
9134.5395653772703
 30
0.0
 11
11574.380352216311
 21
9134.5395653772703
 31
0.0
  0
LINE
  5
5615
  8
SL
 10
11552.28035221631
 20
8974.5395653772703
 30
0.0
 11
11574.380352216311
 21
8974.5395653772703
 31
0.0
  0
LINE
  5
5616
  8
SL
 10
11552.28035221631
 20
8974.5395653772703
 30
0.0
 11
11552.28035221631
 21
8739.5395653772703
 31
0.0
  0
LINE
  5
5617
  8
CT
 10
11312.79610824261
 20
8294.5395653772703
 30
0.0
 11
11651.380352216311
 21
8294.5395653772703
 31
0.0
  0
LINE
  5
5618
  8
SL
 10
11474.380352216311
 20
8427.0395653772703
 30
0.0
 11
11552.28035221631
 21
8427.0395653772703
 31
0.0
  0
LINE
  5
5619
  8
SL
 10
11474.380352216311
 20
8162.0395653772703
 30
0.0
 11
11552.28035221631
 21
8162.0395653772703
 31
0.0
  0
LINE
  5
561A
  8
SL
 10
11552.28035221631
 20
9369.5395653772703
 30
0.0
 11
11552.28035221631
 21
8162.0395653772703
 31
0.0
  0
LINE
  5
561B
  8
SL
 10
11572.380352216311
 20
8364.5395653772703
 30
0.0
 11
11572.380352216311
 21
8224.5395653772703
 31
0.0
  0
LINE
  5
561C
  8
SL
 10
11552.28035221631
 20
8364.5395653772703
 30
0.0
 11
11572.380352216311
 21
8364.5395653772703
 31
0.0
  0
LINE
  5
561D
  8
SL
 10
11552.28035221631
 20
8224.5395653772703
 30
0.0
 11
11572.380352216311
 21
8224.5395653772703
 31
0.0
  0
LINE
  5
561E
  8
SL
 10
11552.28035221631
 20
8224.5395653772703
 30
0.0
 11
11552.28035221631
 21
8162.0395653772703
 31
0.0
  0
LINE
  5
561F
  8
FUTO
 10
11335.380352216311
 20
9434.5395653772684
 30
0.0
 11
11624.380352216311
 21
9434.5395653772684
 31
0.0
  0
LINE
  5
5620
  8
FUTO
 10
11335.3803522163
 20
8074.5395653772712
 30
0.0
 11
11624.380352216311
 21
8074.5395653772703
 31
0.0
  0
LINE
  5
5621
  8
FUTO
 10
11335.380352216311
 20
9434.5395653772684
 30
0.0
 11
11335.380352216311
 21
8074.5395653772712
 31
0.0
  0
LINE
  5
5622
  8
FUTO
 10
11624.380352216311
 20
9434.5395653772684
 30
0.0
 11
11624.380352216311
 21
8074.5395653772703
 31
0.0
  0
LINE
  5
5623
  8
FUTO
 10
11804.380352216311
 20
9104.5395653772703
 30
0.0
 11
12328.380352216311
 21
9104.5395653772703
 31
0.0
  0
LINE
  5
5624
  8
FUTO
 10
11804.380352216311
 20
9004.5395653772684
 30
0.0
 11
12328.380352216311
 21
9004.5395653772684
 31
0.0
  0
LINE
  5
5625
  8
KL
 10
12500.380352216311
 20
9104.5395653772703
 30
0.0
 11
12622.18035221631
 21
9104.5395653772703
 31
0.0
  0
LINE
  5
5626
  8
KL
 10
12500.380352216311
 20
9004.5395653772684
 30
0.0
 11
12622.18035221631
 21
9004.5395653772684
 31
0.0
  0
LINE
  5
5627
  8
FUTO
 10
11574.380352216311
 20
9097.0395653772703
 30
0.0
 11
11664.380352216311
 21
9097.0395653772703
 31
0.0
  0
LINE
  5
5628
  8
FUTO
 10
11574.380352216311
 20
9012.0395653772703
 30
0.0
 11
11664.380352216311
 21
9012.0395653772703
 31
0.0
  0
LINE
  5
5694
  8
FUTO
 10
10609.222835872481
 20
11797.904059408749
 30
0.0
 11
8434.2228358724824
 21
11797.904059408749
 31
0.0
  0
LINE
  5
5695
  8
FUTO
 10
10009.222835872481
 20
14097.904059408749
 30
0.0
 11
8109.2228358724833
 21
14097.90405940874
 31
0.0
  0
LINE
  5
5696
  8
FUTO
 10
8109.2228358724833
 20
14097.90405940874
 30
0.0
 11
8109.2228358724833
 21
14072.904059408749
 31
0.0
  0
LINE
  5
5699
  8
FUTO
 10
10430.222835872481
 20
12834.90405940874
 30
0.0
 11
9059.2228358724824
 21
12834.90405940874
 31
0.0
  0
LINE
  5
569A
  8
FUTO
 10
10609.222835872481
 20
12759.90405940874
 30
0.0
 11
8109.2228358724833
 21
12759.90405940874
 31
0.0
  0
LINE
  5
569B
  8
FUTO
 10
10609.222835872481
 20
11872.90405940874
 30
0.0
 11
8434.2228358724824
 21
11872.90405940874
 31
0.0
  0
LINE
  5
569C
  8
FUTO
 10
10430.222835872481
 20
14022.904059408749
 30
0.0
 11
9059.2228358724824
 21
14022.90405940874
 31
0.0
  0
LINE
  5
56A0
  8
FUTO
 10
8434.2228358724824
 20
12759.90405940874
 30
0.0
 11
8434.2228358724824
 21
11797.904059408749
 31
0.0
  0
LINE
  5
56A2
  8
FUTO
 10
8509.2228358724824
 20
12759.90405940874
 30
0.0
 11
8509.2228358724824
 21
11872.90405940874
 31
0.0
  0
LINE
  5
56A4
  8
FUTO
 10
9684.2228358724824
 20
12759.90405940874
 30
0.0
 11
9684.2228358724824
 21
11872.90405940874
 31
0.0
  0
LINE
  5
56A6
  8
FUTO
 10
10009.222835872481
 20
14097.90405940874
 30
0.0
 11
10009.222835872481
 21
14072.904059408749
 31
0.0
  0
LINE
  5
56A7
  8
FUTO
 10
9609.2228358724824
 20
12759.90405940874
 30
0.0
 11
9609.2228358724824
 21
11872.90405940874
 31
0.0
  0
LINE
  5
56A8
  8
FUTO
 10
10609.222835872481
 20
12834.90405940874
 30
0.0
 11
10609.222835872481
 21
12759.90405940874
 31
0.0
  0
LINE
  5
56A9
  8
FUTO
 10
10609.222835872481
 20
11872.90405940874
 30
0.0
 11
10609.222835872481
 21
11797.904059408749
 31
0.0
  0
LINE
  5
56AC
  8
FUTO
 10
10499.222835872481
 20
12759.90405940874
 30
0.0
 11
10499.222835872481
 21
12435.442617036901
 31
0.0
  0
LINE
  5
56AD
  8
FUTO
 10
10434.222835872481
 20
12759.90405940874
 30
0.0
 11
10434.222835872481
 21
12487.40405940874
 31
0.0
  0
LINE
  5
56AE
  8
FUTO
 10
10184.222835872481
 20
12759.90405940874
 30
0.0
 11
10184.222835872481
 21
12487.40405940874
 31
0.0
  0
LINE
  5
56AF
  8
FUTO
 10
10119.222835872481
 20
12759.90405940874
 30
0.0
 11
10119.222835872481
 21
12428.30402240874
 31
0.0
  0
LINE
  5
56B0
  8
CT
 10
10833.8092961519
 20
13428.904059408749
 30
0.0
 11
7859.1825112773477
 21
13428.904059408749
 31
0.0
  0
LINE
  5
69CC
  8
CT
 10
13785.380352216311
 20
9894.5395653772721
 30
0.0
 11
13828.58035221631
 21
9894.5395653772721
 31
0.0
  0
DIMENSION
  5
6A61
  8
SP
  2
*D3
 10
9059.2228358724824
 20
7464.0272551941671
 30
0.0
 11
8584.2228358724824
 21
7551.527255194168
 31
0.0
 70
     0
 13
8109.2228358724833
 23
7714.5395653772712
 33
0.0
 14
9059.2228358724824
 24
7714.5395653772712
 34
0.0
1001
ACAD
1000
DSTYLE
1002
{
1070
    40
1040
35.0
1070
   147
1040
1.0
1070
    41
1040
2.5
1002
}
  0
DIMENSION
  5
6A6E
  8
SP
  2
*D4
 10
10609.222835872481
 20
7464.0272551941671
 30
0.0
 11
9834.2228358724824
 21
7551.527255194168
 31
0.0
 70
     0
 13
9059.2228358724824
 23
7714.5395653772712
 33
0.0
 14
10609.222835872481
 24
7714.5395653772712
 34
0.0
1001
ACAD
1000
DSTYLE
1002
{
1070
    40
1040
35.0
1070
   147
1040
1.0
1070
    41
1040
2.5
1002
}
  0
DIMENSION
  5
6A7B
  8
SP
  2
*D5
 10
10609.222835872481
 20
7213.9395111965096
 30
0.0
 11
9359.2228358724824
 21
7301.4395111965096
 31
0.0
 70
     0
 13
8109.2228358724833
 23
7714.5395653772712
 33
0.0
 14
10609.222835872481
 24
7714.5395653772712
 34
0.0
1001
ACAD
1000
DSTYLE
1002
{
1070
    40
1040
35.0
1070
   147
1040
1.0
1070
    41
1040
2.5
1002
}
  0
DIMENSION
  5
6A88
  8
SP
  2
*D6
 10
13215.380352216311
 20
7464.0272318063298
 30
0.0
 11
12399.880352216311
 21
7551.5272318063289
 31
0.0
 70
     0
 13
11584.380352216311
 23
7714.5395653772694
 33
0.0
 14
13215.380352216311
 24
7714.5395653772712
 34
0.0
1001
ACAD
1000
DSTYLE
1002
{
1070
    40
1040
35.0
1070
   147
1040
1.0
1070
    41
1040
2.5
1002
}
  0
DIMENSION
  5
6A95
  8
SP
  2
*D7
 10
13884.380352216311
 20
7464.0272318063298
 30
0.0
 11
13549.880352216311
 21
7551.5272318063289
 31
0.0
 70
     0
 13
13215.380352216311
 23
7714.5395653772712
 33
0.0
 14
13884.380352216311
 24
7714.5395653772694
 34
0.0
1001
ACAD
1000
DSTYLE
1002
{
1070
    40
1040
35.0
1070
   147
1040
1.0
1070
    41
1040
2.5
1002
}
  0
DIMENSION
  5
6AA2
  8
SP
  2
*D8
 10
13884.380352216311
 20
7213.9394878086723
 30
0.0
 11
12734.380352216311
 21
7301.4394878086714
 31
0.0
 70
     0
 13
11584.380352216311
 23
7714.5395653772694
 33
0.0
 14
13884.380352216311
 24
7714.5395653772694
 34
0.0
1001
ACAD
1000
DSTYLE
1002
{
1070
    40
1040
35.0
1070
   147
1040
1.0
1070
    41
1040
2.5
1002
}
  0
LINE
  5
6ADF
  8
FUTO
 10
13940.380352216311
 20
9919.5395653772703
 30
0.0
 11
13940.380352216311
 21
8189.5395653772721
 31
0.0
  0
LINE
  5
6AE1
  8
KL
 10
13808.58035221631
 20
9854.5395653772703
 30
0.0
 11
13940.380352216311
 21
9854.5395653772703
 31
0.0
  0
LINE
  5
6AE5
  8
KL
 10
13808.58035221631
 20
9919.5395653772703
 30
0.0
 11
13814.58035221631
 21
9919.5395653772703
 31
0.0
  0
LINE
  5
6AE7
  8
FUTO
 10
13934.380352216311
 20
9919.5395653772703
 30
0.0
 11
13934.380352216311
 21
8189.5395653772721
 31
0.0
  0
LINE
  5
6AE8
  8
FUTO
 10
13883.58035221631
 20
9860.5395653772703
 30
0.0
 11
13934.380352216311
 21
9860.5395653772703
 31
0.0
  0
LINE
  5
6AEA
  8
KL
 10
13814.58035221631
 20
9919.5395653772703
 30
0.0
 11
13814.58035221631
 21
9063.5395653772703
 31
0.0
  0
LINE
  5
6AEB
  8
FUTO
 10
13934.380352216311
 20
9919.5395653772703
 30
0.0
 11
13940.380352216311
 21
9919.5395653772703
 31
0.0
  0
LINE
  5
6AEC
  8
CT
 10
13915.380352216311
 20
9894.5395653772721
 30
0.0
 11
13958.58035221631
 21
9894.5395653772721
 31
0.0
  0
LINE
  5
6AED
  8
KL
 10
13808.58035221631
 20
8254.5395653772684
 30
0.0
 11
13940.380352216311
 21
8254.5395653772684
 31
0.0
  0
LINE
  5
6AEE
  8
CT
 10
13785.380352216311
 20
8214.5395653772703
 30
0.0
 11
13828.58035221631
 21
8214.5395653772703
 31
0.0
  0
LINE
  5
6AEF
  8
KL
 10
13808.58035221631
 20
8189.5395653772721
 30
0.0
 11
13814.58035221631
 21
8189.5395653772721
 31
0.0
  0
LINE
  5
6AF0
  8
CT
 10
13915.380352216311
 20
8214.5395653772703
 30
0.0
 11
13958.58035221631
 21
8214.5395653772703
 31
0.0
  0
LINE
  5
6AF1
  8
FUTO
 10
13883.58035221631
 20
8248.5395653772684
 30
0.0
 11
13934.380352216311
 21
8248.5395653772684
 31
0.0
  0
LINE
  5
6AF2
  8
FUTO
 10
13934.380352216311
 20
8189.5395653772721
 30
0.0
 11
13940.380352216311
 21
8189.5395653772721
 31
0.0
  0
LINE
  5
6AF3
  8
KL
 10
13814.58035221631
 20
9045.5395653772703
 30
0.0
 11
13814.58035221631
 21
8189.5395653772721
 31
0.0
  0
DIMENSION
  5
6B00
  8
SP
  2
*D9
 10
13940.380352216311
 20
11061.071323316661
 30
0.0
 11
13577.880352216311
 21
11148.571323316661
 31
0.0
 70
     0
 13
13215.380352216311
 23
11015.098943767691
 33
0.0
 14
13940.380352216311
 24
9905.0764389844935
 34
0.0
1001
ACAD
1000
DSTYLE
1002
{
1070
    40
1040
35.0
1070
   147
1040
1.0
1070
    41
1040
2.5
1002
}
  0
LINE
  5
6E16
  8
SL
 10
11825.60033827072
 20
8906.5395653772703
 30
0.0
 11
11825.60033827072
 21
9211.3569239808603
 31
0.0
  0
LINE
  5
6E17
  8
SL
 10
11825.60033827072
 20
9211.3569239808603
 30
0.0
 11
12311.55571069948
 21
9211.3569239808603
 31
0.0
  0
LINE
  5
6E18
  8
SL
 10
12311.55571069948
 20
9211.3569239808603
 30
0.0
 11
12311.55571069948
 21
8906.5395653772703
 31
0.0
  0
INSERT
  5
6E51
  8
FUTO
  2
右回転矢印
 10
8848.7171361012006
 20
9667.3408896245091
 30
0.0
 41
-35.0
 42
35.0
 43
35.0
  0
INSERT
  5
6EE2
  8
FUTO
  2
まっすぐの矢印
 10
7783.3363121286511
 20
9451.4570660478657
 30
0.0
 41
35.0
 42
35.0
 43
35.0
 50
90.0
  0
INSERT
  5
6EEC
  8
FUTO
  2
まっすぐの矢印
 10
13986.848331787471
 20
9582.2412657208333
 30
0.0
 41
35.0
 42
35.0
 43
35.0
 50
90.0
  0
DIMENSION
  5
6F64
  8
SP
  2
*D10
 10
14219.57375341819
 20
8254.5395653772684
 30
0.0
 11
14132.073753418181
 21
9054.5395653772739
 31
0.0
 70
     0
 13
13940.380352216311
 23
9854.5395653772703
 33
0.0
 14
13940.380352216311
 24
8254.5395653772684
 34
0.0
 50
90.0
1001
ACAD
1000
DSTYLE
1002
{
1070
    40
1040
35.0
1070
     3
1000
φ<>
1070
   147
1040
1.0
1070
    41
1040
2.5
1002
}
  0
DIMENSION
  5
6FB2
  8
SP
  2
*D11
 10
13215.380352216311
 20
11061.071323316661
 30
0.0
 11
12275.380352216311
 21
11148.571323316661
 31
0.0
 70
     0
 13
11335.380352216311
 23
9419.8081566901437
 33
0.0
 14
13215.380352216311
 24
11061.071323316661
 34
0.0
1001
ACAD
1000
DSTYLE
1002
{
1070
    40
1040
35.0
1070
    41
1040
2.5
1070
   147
1040
1.0
1002
}
  0
LINE
  5
6FD7
  8
CT
 10
9059.2228358724824
 20
11435.04086262304
 30
0.0
 11
9059.2228358724824
 21
14198.681971225609
 31
0.0
  0
LINE
  5
6FDA
  8
FUTO
 10
8679.2228358724824
 20
11548.904059408749
 30
0.0
 11
10512.722835872481
 21
11548.90405940874
 31
0.0
  0
LINE
  5
6FDB
  8
FUTO
 10
8679.2228358724824
 20
11837.904059408749
 30
0.0
 11
10512.722835872481
 21
11837.904059408749
 31
0.0
  0
LINE
  5
6FDC
  8
SL
 10
8744.2228358724824
 20
11765.804059408751
 30
0.0
 11
10176.722835872481
 21
11765.80405940874
 31
0.0
  0
LINE
  5
6FDD
  8
SL
 10
8744.2228358724824
 20
11687.904059408749
 30
0.0
 11
10441.722835872481
 21
11687.90405940874
 31
0.0
  0
LINE
  5
6FE5
  8
SL
 10
10176.722835872481
 20
11785.90405940874
 30
0.0
 11
10441.722835872481
 21
11785.90405940874
 31
0.0
  0
LINE
  5
6FE8
  8
FUTO
 10
8679.2228358724824
 20
11548.904059408749
 30
0.0
 11
8679.2228358724824
 21
11837.904059408749
 31
0.0
  0
LINE
  5
6FE9
  8
SL
 10
9139.2228358724824
 20
11765.804059408751
 30
0.0
 11
9139.2228358724824
 21
11787.904059408749
 31
0.0
  0
LINE
  5
6FEA
  8
SL
 10
8979.2228358724824
 20
11765.804059408751
 30
0.0
 11
8979.2228358724824
 21
11787.904059408749
 31
0.0
  0
LINE
  5
6FEB
  8
SL
 10
8744.2228358724824
 20
11765.804059408751
 30
0.0
 11
8979.2228358724824
 21
11765.804059408751
 31
0.0
  0
LINE
  5
6FEC
  8
SL
 10
9139.2228358724824
 20
11765.804059408751
 30
0.0
 11
9374.2228358724824
 21
11765.804059408751
 31
0.0
  0
LINE
  5
6FED
  8
SL
 10
9374.2228358724824
 20
11687.904059408749
 30
0.0
 11
9374.2228358724824
 21
11765.804059408751
 31
0.0
  0
LINE
  5
6FEE
  8
SL
 10
8744.2228358724824
 20
11687.904059408749
 30
0.0
 11
8744.2228358724824
 21
11765.804059408751
 31
0.0
  0
LINE
  5
6FF1
  8
FUTO
 10
9109.2228358724824
 20
12017.904059408749
 30
0.0
 11
9109.2228358724824
 21
12541.904059408749
 31
0.0
  0
LINE
  5
6FF2
  8
FUTO
 10
9009.2228358724824
 20
12017.904059408749
 30
0.0
 11
9009.2228358724824
 21
12541.904059408749
 31
0.0
  0
LINE
  5
6FF5
  8
CT
 10
8898.8558778365186
 20
11947.904059408749
 30
0.0
 11
9230.9019266100131
 21
11947.904059408749
 31
0.0
  0
LINE
  5
6FF6
  8
FUTO
 10
8959.2228358724824
 20
11897.904059408749
 30
0.0
 11
9159.2228358724824
 21
11897.904059408749
 31
0.0
  0
ARC
  5
6FF7
  8
FUTO
 10
9148.2228358724824
 20
11888.904059408749
 30
0.0
 40
6.0
 50
270.0
 51
0.000000000000007
  0
LINE
  5
6FF8
  8
FUTO
 10
9159.2228358724824
 20
11997.904059408749
 30
0.0
 11
8959.2228358724824
 21
11997.904059408749
 31
0.0
  0
ARC
  5
6FF9
  8
FUTO
 10
9148.2228358724824
 20
12006.904059408749
 30
0.0
 40
6.0
 50
0.000000000000007
 51
90.0
  0
LINE
  5
6FFD
  8
FUTO
 10
9154.2228358724824
 20
11888.90405940874
 30
0.0
 11
9154.2228358724824
 21
11897.904059408749
 31
0.0
  0
LINE
  5
7000
  8
FUTO
 10
9154.2228358724824
 20
12006.904059408749
 30
0.0
 11
9154.2228358724824
 21
11997.904059408749
 31
0.0
  0
ARC
  5
7001
  8
FUTO
 10
8970.2228358724824
 20
11888.904059408749
 30
0.0
 40
6.0
 50
180.0
 51
270.0
  0
ARC
  5
7002
  8
FUTO
 10
8970.2228358724824
 20
12006.904059408749
 30
0.0
 40
6.0
 50
90.0
 51
180.0
  0
LINE
  5
7004
  8
FUTO
 10
9101.7228358724824
 20
11787.904059408749
 30
0.0
 11
9101.7228358724824
 21
11877.904059408749
 31
0.0
  0
LINE
  5
7005
  8
FUTO
 10
9016.7228358724824
 20
11787.904059408749
 30
0.0
 11
9016.7228358724824
 21
11877.904059408749
 31
0.0
  0
LINE
  5
7006
  8
SL
 10
8979.2228358724824
 20
11787.904059408749
 30
0.0
 11
9139.2228358724824
 21
11787.904059408749
 31
0.0
  0
LINE
  5
7007
  8
FUTO
 10
8979.2228358724824
 20
11877.904059408749
 30
0.0
 11
9139.2228358724824
 21
11877.904059408749
 31
0.0
  0
LINE
  5
7008
  8
FUTO
 10
8970.2228358724824
 20
11882.90405940874
 30
0.0
 11
9148.2228358724824
 21
11882.90405940874
 31
0.0
  0
LINE
  5
7009
  8
FUTO
 10
9139.2228358724824
 20
11877.904059408749
 30
0.0
 11
9139.2228358724824
 21
11882.904059408749
 31
0.0
  0
LINE
  5
700B
  8
FUTO
 10
8979.2228358724824
 20
11882.904059408749
 30
0.0
 11
8979.2228358724824
 21
11877.904059408749
 31
0.0
  0
LINE
  5
700C
  8
FUTO
 10
8970.2228358724824
 20
12012.904059408749
 30
0.0
 11
9148.2228358724824
 21
12012.904059408749
 31
0.0
  0
LINE
  5
700D
  8
FUTO
 10
8979.2228358724824
 20
12017.904059408749
 30
0.0
 11
9139.2228358724824
 21
12017.904059408749
 31
0.0
  0
LINE
  5
700F
  8
FUTO
 10
9139.2228358724824
 20
12017.904059408749
 30
0.0
 11
9139.2228358724824
 21
12012.904059408749
 31
0.0
  0
LINE
  5
7010
  8
FUTO
 10
8979.2228358724824
 20
12012.904059408749
 30
0.0
 11
8979.2228358724824
 21
12017.904059408749
 31
0.0
  0
LINE
  5
7011
  8
FUTO
 10
8959.2228358724824
 20
11997.904059408749
 30
0.0
 11
8959.2228358724824
 21
11897.904059408749
 31
0.0
  0
LINE
  5
7012
  8
FUTO
 10
8964.2228358724806
 20
11897.904059408749
 30
0.0
 11
8964.2228358724806
 21
11888.90405940874
 31
0.0
  0
LINE
  5
7013
  8
FUTO
 10
8964.2228358724806
 20
11997.904059408749
 30
0.0
 11
8964.2228358724806
 21
12006.904059408749
 31
0.0
  0
LINE
  5
7015
  8
FUTO
 10
8939.2228358724824
 20
12549.904059408749
 30
0.0
 11
9179.2228358724824
 21
12549.904059408749
 31
0.0
  0
LINE
  5
7016
  8
FUTO
 10
8939.2228358724824
 20
12705.904059408749
 30
0.0
 11
9179.2228358724824
 21
12705.904059408749
 31
0.0
  0
LINE
  5
7018
  8
FUTO
 10
9139.2228358724824
 20
12541.904059408749
 30
0.0
 11
9159.2228358724824
 21
12549.904059408749
 31
0.0
  0
LINE
  5
701A
  8
FUTO
 10
9139.2228358724824
 20
12713.904059408749
 30
0.0
 11
9159.2228358724824
 21
12705.904059408749
 31
0.0
  0
LINE
  5
701D
  8
CT
 10
8898.8558778365186
 20
12627.904059408749
 30
0.0
 11
9230.9019266100131
 21
12627.904059408749
 31
0.0
  0
LINE
  5
7022
  8
FUTO
 10
9179.2228358724824
 20
12549.904059408749
 30
0.0
 11
9179.2228358724824
 21
12557.904059408749
 31
0.0
  0
LINE
  5
7024
  8
FUTO
 10
9179.2228358724824
 20
12705.904059408749
 30
0.0
 11
9179.2228358724824
 21
12697.904059408749
 31
0.0
  0
LINE
  5
7026
  8
FUTO
 10
8926.2228358724824
 20
12573.904059408749
 30
0.0
 11
8926.2228358724824
 21
12681.904059408749
 31
0.0
  0
LINE
  5
7027
  8
FUTO
 10
8939.2228358724824
 20
12563.904059408749
 30
0.0
 11
9179.2228358724824
 21
12563.904059408749
 31
0.0
  0
LINE
  5
7028
  8
FUTO
 10
8979.2228358724824
 20
12541.904059408749
 30
0.0
 11
8959.2228358724824
 21
12549.904059408749
 31
0.0
  0
LINE
  5
7029
  8
FUTO
 10
8926.2228358724824
 20
12600.404059408749
 30
0.0
 11
9192.2228358724824
 21
12600.404059408749
 31
0.0
  0
LINE
  5
702A
  8
FUTO
 10
8979.2228358724824
 20
12541.904059408749
 30
0.0
 11
9139.2228358724824
 21
12541.904059408749
 31
0.0
  0
LINE
  5
702C
  8
FUTO
 10
8939.2228358724824
 20
12549.904059408749
 30
0.0
 11
8939.2228358724824
 21
12563.904059408749
 31
0.0
  0
LINE
  5
702D
  8
FUTO
 10
8926.2228358724824
 20
12573.904059408749
 30
0.0
 11
8939.2228358724824
 21
12573.904059408749
 31
0.0
  0
LINE
  5
702E
  8
FUTO
 10
8939.2228358724824
 20
12563.904059408749
 30
0.0
 11
8939.2228358724824
 21
12600.404059408749
 31
0.0
  0
LINE
  5
702F
  8
FUTO
 10
8939.2228358724824
 20
12691.904059408749
 30
0.0
 11
9139.2228358724824
 21
12691.904059408749
 31
0.0
  0
LINE
  5
7030
  8
FUTO
 10
8979.2228358724824
 20
12713.904059408749
 30
0.0
 11
8959.2228358724824
 21
12705.904059408749
 31
0.0
  0
LINE
  5
7031
  8
FUTO
 10
8939.2228358724824
 20
12691.904059408749
 30
0.0
 11
9179.2228358724824
 21
12691.904059408749
 31
0.0
  0
LINE
  5
7032
  8
FUTO
 10
8926.2228358724824
 20
12655.404059408749
 30
0.0
 11
9192.2228358724824
 21
12655.404059408749
 31
0.0
  0
LINE
  5
7033
  8
KL
 10
9109.2228358724824
 20
12713.904059408749
 30
0.0
 11
9109.2228358724824
 21
12835.70405940875
 31
0.0
  0
LINE
  5
7034
  8
KL
 10
9009.2228358724824
 20
12713.904059408749
 30
0.0
 11
9009.2228358724824
 21
12835.70405940875
 31
0.0
  0
LINE
  5
7035
  8
FUTO
 10
8979.2228358724824
 20
12713.904059408749
 30
0.0
 11
9139.2228358724824
 21
12713.904059408749
 31
0.0
  0
LINE
  5
703A
  8
FUTO
 10
8926.2228358724824
 20
12681.904059408749
 30
0.0
 11
8939.2228358724824
 21
12681.904059408749
 31
0.0
  0
LINE
  5
703B
  8
FUTO
 10
8939.2228358724824
 20
12705.904059408749
 30
0.0
 11
8939.2228358724824
 21
12691.904059408749
 31
0.0
  0
LINE
  5
703C
  8
FUTO
 10
8939.2228358724824
 20
12655.404059408749
 30
0.0
 11
8939.2228358724824
 21
12691.904059408749
 31
0.0
  0
LINE
  5
703F
  8
KL
 10
9068.2228358724824
 20
14028.10405940875
 30
0.0
 11
9924.2228358724842
 21
14028.10405940875
 31
0.0
  0
LINE
  5
7040
  8
FUTO
 10
8194.2228358724824
 20
14147.904059408749
 30
0.0
 11
9924.2228358724842
 21
14147.904059408749
 31
0.0
  0
LINE
  5
7041
  8
FUTO
 10
8194.2228358724824
 20
14153.904059408749
 30
0.0
 11
9924.2228358724842
 21
14153.904059408749
 31
0.0
  0
LINE
  5
7045
  8
KL
 10
9924.2228358724842
 20
14022.10405940875
 30
0.0
 11
9924.2228358724842
 21
14028.10405940875
 31
0.0
  0
LINE
  5
7046
  8
FUTO
 10
9924.2228358724842
 20
14147.904059408749
 30
0.0
 11
9924.2228358724842
 21
14153.904059408749
 31
0.0
  0
LINE
  5
7047
  8
FUTO
 10
9865.2228358724824
 20
14097.10405940875
 30
0.0
 11
9865.2228358724824
 21
14147.904059408749
 31
0.0
  0
LINE
  5
7048
  8
KL
 10
9859.2228358724824
 20
14022.10405940875
 30
0.0
 11
9859.2228358724824
 21
14153.904059408749
 31
0.0
  0
LINE
  5
7049
  8
CT
 10
9899.2228358724842
 20
13998.904059408749
 30
0.0
 11
9899.2228358724842
 21
14042.10405940875
 31
0.0
  0
LINE
  5
704A
  8
CT
 10
9899.2228358724842
 20
14128.904059408749
 30
0.0
 11
9899.2228358724842
 21
14172.104059408741
 31
0.0
  0
LINE
  5
704E
  8
KL
 10
8194.2228358724824
 20
14028.10405940875
 30
0.0
 11
9050.2228358724824
 21
14028.10405940875
 31
0.0
  0
INSERT
  5
7052
  8
FUTO
  2
まっすぐの矢印
 10
8802.3615835815126
 20
14200.3720389799
 30
0.0
 41
35.0
 42
35.0
 43
35.0
 50
180.0
  0
LINE
  5
7053
  8
FUTO
 10
8253.2228358724824
 20
14097.10405940875
 30
0.0
 11
8253.2228358724824
 21
14147.904059408749
 31
0.0
  0
LINE
  5
7054
  8
KL
 10
8259.2228358724824
 20
14022.10405940875
 30
0.0
 11
8259.2228358724824
 21
14153.904059408749
 31
0.0
  0
LINE
  5
7055
  8
CT
 10
8219.2228358724824
 20
13998.904059408749
 30
0.0
 11
8219.2228358724824
 21
14042.10405940875
 31
0.0
  0
LINE
  5
7056
  8
CT
 10
8219.2228358724824
 20
14128.904059408749
 30
0.0
 11
8219.2228358724824
 21
14172.104059408741
 31
0.0
  0
LINE
  5
7057
  8
KL
 10
8194.2228358724824
 20
14022.10405940875
 30
0.0
 11
8194.2228358724824
 21
14028.10405940875
 31
0.0
  0
LINE
  5
7058
  8
FUTO
 10
8194.2228358724824
 20
14147.904059408749
 30
0.0
 11
8194.2228358724824
 21
14153.904059408749
 31
0.0
  0
LINE
  5
7096
  8
FUTO
 10
9159.2228358724824
 20
11997.904059408749
 30
0.0
 11
9159.2228358724824
 21
11897.904059408749
 31
0.0
  0
LINE
  5
7097
  8
FUTO
 10
9192.2228358724824
 20
12573.904059408749
 30
0.0
 11
9192.2228358724824
 21
12681.904059408749
 31
0.0
  0
LINE
  5
7098
  8
FUTO
 10
9179.2228358724824
 20
12563.904059408749
 30
0.0
 11
9179.2228358724824
 21
12600.404059408749
 31
0.0
  0
LINE
  5
7099
  8
FUTO
 10
9192.2228358724824
 20
12573.904059408749
 30
0.0
 11
9179.2228358724824
 21
12573.904059408749
 31
0.0
  0
LINE
  5
709A
  8
FUTO
 10
9179.2228358724824
 20
12549.904059408749
 30
0.0
 11
9179.2228358724824
 21
12563.904059408749
 31
0.0
  0
LINE
  5
709B
  8
FUTO
 10
9179.2228358724824
 20
12655.404059408749
 30
0.0
 11
9179.2228358724824
 21
12691.904059408749
 31
0.0
  0
LINE
  5
709C
  8
FUTO
 10
9179.2228358724824
 20
12705.904059408749
 30
0.0
 11
9179.2228358724824
 21
12691.904059408749
 31
0.0
  0
LINE
  5
709D
  8
FUTO
 10
9192.2228358724824
 20
12681.904059408749
 30
0.0
 11
9179.2228358724824
 21
12681.904059408749
 31
0.0
  0
ARC
  5
7D1A
  8
FUTO
 10
10309.222835872481
 20
11788.90405940874
 30
0.0
 40
9.0
 50
0.000000000000007
 51
180.0
  0
LINE
  5
7D1B
  8
FUTO
 10
10318.222835872481
 20
11687.90405940874
 30
0.0
 11
10318.222835872481
 21
11788.90405940874
 31
0.0
  0
LINE
  5
7D1C
  8
FUTO
 10
10300.222835872481
 20
11687.90405940874
 30
0.0
 11
10300.222835872481
 21
11788.90405940874
 31
0.0
  0
LINE
  5
7D1D
  8
FUTO
 10
10566.22277487248
 20
12202.403998408739
 30
0.0
 11
10566.22277487248
 21
12238.40405940874
 31
0.0
  0
LINE
  5
7D1E
  8
FUTO
 10
10569.22277487248
 20
12202.403998408739
 30
0.0
 11
10569.22277487248
 21
12238.40405940874
 31
0.0
  0
LINE
  5
7D1F
  8
FUTO
 10
10561.22277487248
 20
12202.403998408739
 30
0.0
 11
10561.22277487248
 21
12249.404059408749
 31
0.0
  0
LINE
  5
7D20
  8
FUTO
 10
10519.222835872481
 20
11863.40405940874
 30
0.0
 11
10519.222835872481
 21
11910.279059408749
 31
0.0
  0
LINE
  5
7D21
  8
FUTO
 10
10466.914470868
 20
11858.40405940874
 30
0.0
 11
10514.222835872481
 21
11858.40405940874
 31
0.0
  0
ARC
  5
7D22
  8
FUTO
 10
10514.222835872481
 20
11863.40405940874
 30
0.0
 40
5.0
 50
270.0
 51
0.000000000000007
  0
LINE
  5
7D23
  8
FUTO
 10
10498.904181090909
 20
11910.279059408749
 30
0.0
 11
10519.222835872481
 21
11910.27905940874
 31
0.0
  0
LINE
  5
7D24
  8
FUTO
 10
10519.222835872481
 20
11908.40405940874
 30
0.0
 11
10566.22277487248
 21
11908.404059408749
 31
0.0
  0
LINE
  5
7D25
  8
FUTO
 10
10519.222835872481
 20
11905.40405940874
 30
0.0
 11
10569.22277487248
 21
11905.404059408749
 31
0.0
  0
LINE
  5
7D26
  8
FUTO
 10
10499.013309440759
 20
11913.40405940874
 30
0.0
 11
10561.22277487248
 21
11913.40405940874
 31
0.0
  0
LINE
  5
7D27
  8
FUTO
 10
10561.22277487248
 20
11913.40405940874
 30
0.0
 11
10566.22277487248
 21
11908.404059408749
 31
0.0
  0
LINE
  5
7D28
  8
FUTO
 10
10594.22277487248
 20
11948.40405940874
 30
0.0
 11
10594.22277487248
 21
11988.404059408749
 31
0.0
  0
LINE
  5
7D29
  8
FUTO
 10
10564.22277487248
 20
11948.404059408749
 30
0.0
 11
10564.22277487248
 21
11988.404059408749
 31
0.0
  0
LINE
  5
7D2A
  8
FUTO
 10
10594.22277487248
 20
11988.40405940874
 30
0.0
 11
10564.22277487248
 21
11988.404059408749
 31
0.0
  0
LINE
  5
7D2B
  8
FUTO
 10
10564.22277487248
 20
11948.404059408749
 30
0.0
 11
10594.22277487248
 21
11948.40405940874
 31
0.0
  0
LINE
  5
7D2C
  8
CT
 10
10512.722835872481
 20
11968.40405940874
 30
0.0
 11
10680.277217872481
 21
11968.404059408749
 31
0.0
  0
LINE
  5
7D2D
  8
FUTO
 10
10668.67724287248
 20
11985.99390340874
 30
0.0
 11
10656.57726687248
 21
11985.99390340874
 31
0.0
  0
LINE
  5
7D2E
  8
FUTO
 10
10668.67724287248
 20
11950.81421640874
 30
0.0
 11
10656.57726687248
 21
11950.81421640874
 31
0.0
  0
LINE
  5
7D2F
  8
FUTO
 10
10668.67724287248
 20
11978.109137408739
 30
0.0
 11
10656.57726687248
 21
11978.109137408739
 31
0.0
  0
LINE
  5
7D30
  8
FUTO
 10
10668.67724287248
 20
11958.698981408739
 30
0.0
 11
10656.57726687248
 21
11958.698981408739
 31
0.0
  0
LINE
  5
7D31
  8
FUTO
 10
10670.277217872481
 20
11984.394294408739
 30
0.0
 11
10670.277217872481
 21
11952.41480140874
 31
0.0
  0
LINE
  5
7D32
  8
FUTO
 10
10668.67724287248
 20
11950.81421640874
 30
0.0
 11
10670.277217872481
 21
11952.41480140874
 31
0.0
  0
LINE
  5
7D33
  8
FUTO
 10
10668.67724287248
 20
11958.698981408739
 30
0.0
 11
10670.277217872481
 21
11957.099372408749
 31
0.0
  0
LINE
  5
7D34
  8
FUTO
 10
10668.67724287248
 20
11958.698981408739
 30
0.0
 11
10670.277217872481
 21
11960.29956740874
 31
0.0
  0
LINE
  5
7D35
  8
FUTO
 10
10670.277217872481
 20
11984.394294408739
 30
0.0
 11
10668.67724287248
 21
11985.99390340874
 31
0.0
  0
LINE
  5
7D36
  8
FUTO
 10
10668.67724287248
 20
11978.109137408739
 30
0.0
 11
10670.277217872481
 21
11979.70972340874
 31
0.0
  0
LINE
  5
7D37
  8
FUTO
 10
10668.67724287248
 20
11978.109137408739
 30
0.0
 11
10670.277217872481
 21
11976.50952840874
 31
0.0
  0
LINE
  5
7D38
  8
FUTO
 10
10656.57726687248
 20
11985.99390340874
 30
0.0
 11
10656.57726687248
 21
11950.81421640874
 31
0.0
  0
LINE
  5
7D39
  8
FUTO
 10
10656.57726687248
 20
11959.40405940874
 30
0.0
 11
10594.22277487248
 21
11959.40405940874
 31
0.0
  0
LINE
  5
7D3A
  8
HOSO
 10
10594.22277487248
 20
11961.40405940874
 30
0.0
 11
10656.577327872479
 21
11961.40405940874
 31
0.0
  0
LINE
  5
7D3B
  8
HOSO
 10
10656.57726687248
 20
11975.40405940874
 30
0.0
 11
10594.22277487248
 21
11975.40405940874
 31
0.0
  0
LINE
  5
7D3C
  8
FUTO
 10
10594.22277487248
 20
11977.40405940874
 30
0.0
 11
10656.577327872479
 21
11977.40405940874
 31
0.0
  0
LINE
  5
7D3D
  8
FUTO
 10
10564.22277487248
 20
11959.40405940874
 30
0.0
 11
10512.722835872481
 21
11959.40405940874
 31
0.0
  0
LINE
  5
7D3E
  8
HOSO
 10
10512.722835872481
 20
11961.40405940874
 30
0.0
 11
10564.22277487248
 21
11961.40405940874
 31
0.0
  0
LINE
  5
7D3F
  8
FUTO
 10
10512.722835872481
 20
11977.40405940874
 30
0.0
 11
10564.22277487248
 21
11977.40405940874
 31
0.0
  0
LINE
  5
7D40
  8
HOSO
 10
10564.22277487248
 20
11975.40405940874
 30
0.0
 11
10512.722835872481
 21
11975.40405940874
 31
0.0
  0
LINE
  5
7D41
  8
FUTO
 10
10569.22277487248
 20
11905.404059408749
 30
0.0
 11
10569.22277487248
 21
11948.404059408749
 31
0.0
  0
LINE
  5
7D42
  8
FUTO
 10
10566.22277487248
 20
11908.404059408749
 30
0.0
 11
10566.22277487248
 21
11948.40405940874
 31
0.0
  0
LINE
  5
7D43
  8
FUTO
 10
10561.22277487248
 20
11913.40405940874
 30
0.0
 11
10561.22277487248
 21
11959.40405940874
 31
0.0
  0
LINE
  5
7D44
  8
FUTO
 10
10569.22277487248
 20
11988.404059408749
 30
0.0
 11
10569.22277487248
 21
12024.40405940874
 31
0.0
  0
LINE
  5
7D45
  8
FUTO
 10
10566.22277487248
 20
11988.404059408749
 30
0.0
 11
10566.22277487248
 21
12024.40405940874
 31
0.0
  0
LINE
  5
7D46
  8
FUTO
 10
10561.22277487248
 20
11977.40405940874
 30
0.0
 11
10561.22277487248
 21
12024.40405940874
 31
0.0
  0
LINE
  5
7D47
  8
FUTO
 10
10594.22277487248
 20
12249.404059408749
 30
0.0
 11
10656.577327872479
 21
12249.404059408749
 31
0.0
  0
LINE
  5
7D48
  8
HOSO
 10
10656.57726687248
 20
12251.404059408749
 30
0.0
 11
10594.22277487248
 21
12251.404059408749
 31
0.0
  0
LINE
  5
7D49
  8
HOSO
 10
10594.22277487248
 20
12265.40405940874
 30
0.0
 11
10656.577327872479
 21
12265.40405940874
 31
0.0
  0
LINE
  5
7D4A
  8
FUTO
 10
10656.57726687248
 20
12267.404059408749
 30
0.0
 11
10594.22277487248
 21
12267.404059408749
 31
0.0
  0
LINE
  5
7D4B
  8
FUTO
 10
10656.57726687248
 20
12240.81421540874
 30
0.0
 11
10656.57726687248
 21
12275.99390240874
 31
0.0
  0
LINE
  5
7D4C
  8
FUTO
 10
10668.67724287248
 20
12248.698981408739
 30
0.0
 11
10670.277217872481
 21
12250.29859040874
 31
0.0
  0
LINE
  5
7D4D
  8
FUTO
 10
10668.67724287248
 20
12248.698981408739
 30
0.0
 11
10670.277217872481
 21
12247.098395408741
 31
0.0
  0
LINE
  5
7D4E
  8
FUTO
 10
10670.277217872481
 20
12242.413824408741
 30
0.0
 11
10668.67724287248
 21
12240.81421540874
 31
0.0
  0
LINE
  5
7D4F
  8
FUTO
 10
10668.67724287248
 20
12268.109137408739
 30
0.0
 11
10670.277217872481
 21
12266.50855140874
 31
0.0
  0
LINE
  5
7D50
  8
FUTO
 10
10668.67724287248
 20
12268.109137408739
 30
0.0
 11
10670.277217872481
 21
12269.70874640874
 31
0.0
  0
LINE
  5
7D51
  8
FUTO
 10
10668.67724287248
 20
12275.99390240874
 30
0.0
 11
10670.277217872481
 21
12274.39331740874
 31
0.0
  0
LINE
  5
7D52
  8
FUTO
 10
10670.277217872481
 20
12242.413824408741
 30
0.0
 11
10670.277217872481
 21
12274.39331740874
 31
0.0
  0
LINE
  5
7D53
  8
FUTO
 10
10668.67724287248
 20
12268.109137408739
 30
0.0
 11
10656.57726687248
 21
12268.109137408739
 31
0.0
  0
LINE
  5
7D54
  8
FUTO
 10
10668.67724287248
 20
12248.698981408739
 30
0.0
 11
10656.57726687248
 21
12248.698981408739
 31
0.0
  0
LINE
  5
7D55
  8
FUTO
 10
10668.67724287248
 20
12275.99390240874
 30
0.0
 11
10656.57726687248
 21
12275.99390240874
 31
0.0
  0
LINE
  5
7D56
  8
FUTO
 10
10668.67724287248
 20
12240.81421540874
 30
0.0
 11
10656.57726687248
 21
12240.81421540874
 31
0.0
  0
LINE
  5
7D57
  8
FUTO
 10
10564.22277487248
 20
12278.40405940874
 30
0.0
 11
10594.22277487248
 21
12278.40405940874
 31
0.0
  0
LINE
  5
7D58
  8
FUTO
 10
10594.22277487248
 20
12238.40405940874
 30
0.0
 11
10564.22277487248
 21
12238.40405940874
 31
0.0
  0
LINE
  5
7D59
  8
FUTO
 10
10564.22277487248
 20
12278.40405940874
 30
0.0
 11
10564.22277487248
 21
12238.40405940874
 31
0.0
  0
LINE
  5
7D5A
  8
FUTO
 10
10594.22277487248
 20
12278.40405940874
 30
0.0
 11
10594.22277487248
 21
12238.40405940874
 31
0.0
  0
LINE
  5
7D5B
  8
HOSO
 10
10564.22277487248
 20
12251.404059408749
 30
0.0
 11
10512.722835872481
 21
12251.40405940874
 31
0.0
  0
LINE
  5
7D5C
  8
FUTO
 10
10512.722835872481
 20
12249.40405940874
 30
0.0
 11
10564.22277487248
 21
12249.404059408749
 31
0.0
  0
LINE
  5
7D5D
  8
HOSO
 10
10512.722835872481
 20
12265.40405940874
 30
0.0
 11
10564.22277487248
 21
12265.40405940874
 31
0.0
  0
LINE
  5
7D5E
  8
FUTO
 10
10564.22277487248
 20
12267.404059408749
 30
0.0
 11
10512.722835872481
 21
12267.40405940874
 31
0.0
  0
LINE
  5
7D5F
  8
CT
 10
10512.722835872481
 20
12258.40405940874
 30
0.0
 11
10680.277217872481
 21
12258.40405940874
 31
0.0
  0
LINE
  5
7D60
  8
FUTO
 10
10561.22277487248
 20
12313.404059408749
 30
0.0
 11
10566.22277487248
 21
12318.40405940874
 31
0.0
  0
LINE
  5
7D61
  8
FUTO
 10
10519.222835872481
 20
12321.40405940874
 30
0.0
 11
10569.22277487248
 21
12321.40405940874
 31
0.0
  0
LINE
  5
7D62
  8
FUTO
 10
10519.222835872481
 20
12318.40405940874
 30
0.0
 11
10566.22277487248
 21
12318.40405940874
 31
0.0
  0
LINE
  5
7D63
  8
FUTO
 10
10512.722835872481
 20
12316.52905940874
 30
0.0
 11
10519.222835872481
 21
12316.52905940874
 31
0.0
  0
LINE
  5
7D64
  8
FUTO
 10
10512.722835872481
 20
12313.40405940874
 30
0.0
 11
10561.22277487248
 21
12313.404059408749
 31
0.0
  0
LINE
  5
7D65
  8
FUTO
 10
10561.22277487248
 20
12313.404059408749
 30
0.0
 11
10561.22277487248
 21
12267.404059408749
 31
0.0
  0
LINE
  5
7D66
  8
FUTO
 10
10566.22277487248
 20
12318.40405940874
 30
0.0
 11
10566.22277487248
 21
12278.40405940874
 31
0.0
  0
LINE
  5
7D67
  8
FUTO
 10
10569.22277487248
 20
12321.40405940874
 30
0.0
 11
10569.22277487248
 21
12278.40405940874
 31
0.0
  0
ARC
  5
7D68
  8
FUTO
 10
10514.222835872481
 20
12363.40405940874
 30
0.0
 40
5.0
 50
0.000000000000007
 51
90.000000000000028
  0
LINE
  5
7D69
  8
FUTO
 10
10519.222835872481
 20
12363.40405940874
 30
0.0
 11
10519.222835872481
 21
12316.52905940874
 31
0.0
  0
LINE
  5
7D6A
  8
FUTO
 10
10501.722835872481
 20
12368.40405940874
 30
0.0
 11
10514.222835872481
 21
12368.40405940874
 31
0.0
  0
LINE
  5
7D6B
  8
CT
 10
10105.722835872481
 20
12258.40405940874
 30
0.0
 11
9938.1684538724858
 21
12258.40405940874
 31
0.0
  0
LINE
  5
7D6C
  8
FUTO
 10
10054.222896872479
 20
12267.40405940874
 30
0.0
 11
10105.722835872481
 21
12267.40405940874
 31
0.0
  0
LINE
  5
7D6D
  8
HOSO
 10
10105.722835872481
 20
12265.40405940874
 30
0.0
 11
10054.222896872479
 21
12265.40405940874
 31
0.0
  0
LINE
  5
7D6E
  8
FUTO
 10
10105.722835872481
 20
12249.40405940874
 30
0.0
 11
10054.222896872479
 21
12249.40405940874
 31
0.0
  0
LINE
  5
7D6F
  8
HOSO
 10
10054.222896872479
 20
12251.40405940874
 30
0.0
 11
10105.722835872481
 21
12251.40405940874
 31
0.0
  0
LINE
  5
7D70
  8
FUTO
 10
10024.222896872479
 20
12278.40405940874
 30
0.0
 11
10024.222896872479
 21
12238.40405940874
 31
0.0
  0
LINE
  5
7D71
  8
FUTO
 10
10054.222896872479
 20
12278.40405940874
 30
0.0
 11
10054.222896872479
 21
12238.40405940874
 31
0.0
  0
LINE
  5
7D72
  8
FUTO
 10
10024.222896872479
 20
12238.40405940874
 30
0.0
 11
10054.222896872479
 21
12238.40405940874
 31
0.0
  0
LINE
  5
7D73
  8
FUTO
 10
10054.222896872479
 20
12278.40405940874
 30
0.0
 11
10024.222896872479
 21
12278.40405940874
 31
0.0
  0
LINE
  5
7D74
  8
FUTO
 10
9949.7684288724813
 20
12240.81421540874
 30
0.0
 11
9961.8684048724826
 21
12240.81421540874
 31
0.0
  0
LINE
  5
7D75
  8
FUTO
 10
9949.7684288724813
 20
12275.99390240874
 30
0.0
 11
9961.8684048724826
 21
12275.99390240874
 31
0.0
  0
LINE
  5
7D76
  8
FUTO
 10
9949.7684288724813
 20
12248.698981408739
 30
0.0
 11
9961.8684048724826
 21
12248.698981408739
 31
0.0
  0
LINE
  5
7D77
  8
FUTO
 10
9949.7684288724813
 20
12268.109137408739
 30
0.0
 11
9961.8684048724826
 21
12268.109137408739
 31
0.0
  0
LINE
  5
7D78
  8
FUTO
 10
9948.1684538724821
 20
12242.413824408741
 30
0.0
 11
9948.1684538724821
 21
12274.39331740874
 31
0.0
  0
LINE
  5
7D79
  8
FUTO
 10
9949.7684288724813
 20
12275.99390240874
 30
0.0
 11
9948.1684538724821
 21
12274.39331740874
 31
0.0
  0
LINE
  5
7D7A
  8
FUTO
 10
9949.7684288724813
 20
12268.109137408739
 30
0.0
 11
9948.1684538724821
 21
12269.70874640874
 31
0.0
  0
LINE
  5
7D7B
  8
FUTO
 10
9949.7684288724813
 20
12268.109137408739
 30
0.0
 11
9948.1684538724821
 21
12266.50855140874
 31
0.0
  0
LINE
  5
7D7C
  8
FUTO
 10
9948.1684538724821
 20
12242.413824408741
 30
0.0
 11
9949.7684288724813
 21
12240.81421540874
 31
0.0
  0
LINE
  5
7D7D
  8
FUTO
 10
9949.7684288724813
 20
12248.698981408739
 30
0.0
 11
9948.1684538724821
 21
12247.098395408741
 31
0.0
  0
LINE
  5
7D7E
  8
FUTO
 10
9949.7684288724813
 20
12248.698981408739
 30
0.0
 11
9948.1684538724821
 21
12250.29859040874
 31
0.0
  0
LINE
  5
7D7F
  8
FUTO
 10
9961.8684048724826
 20
12240.81421540874
 30
0.0
 11
9961.8684048724826
 21
12275.99390240874
 31
0.0
  0
LINE
  5
7D80
  8
FUTO
 10
9961.8684048724826
 20
12267.40405940874
 30
0.0
 11
10024.222896872479
 21
12267.40405940874
 31
0.0
  0
LINE
  5
7D81
  8
HOSO
 10
10024.222896872479
 20
12265.40405940874
 30
0.0
 11
9961.8683438724856
 21
12265.40405940874
 31
0.0
  0
LINE
  5
7D82
  8
HOSO
 10
9961.8684048724826
 20
12251.40405940874
 30
0.0
 11
10024.222896872479
 21
12251.40405940874
 31
0.0
  0
LINE
  5
7D83
  8
FUTO
 10
10024.222896872479
 20
12249.40405940874
 30
0.0
 11
9961.8683438724856
 21
12249.40405940874
 31
0.0
  0
LINE
  5
7D84
  8
FUTO
 10
10049.222896872479
 20
12321.40405940874
 30
0.0
 11
10049.222896872479
 21
12278.40405940874
 31
0.0
  0
LINE
  5
7D85
  8
FUTO
 10
10052.222896872479
 20
12318.40405940874
 30
0.0
 11
10052.222896872479
 21
12278.40405940874
 31
0.0
  0
LINE
  5
7D86
  8
FUTO
 10
10057.222896872479
 20
12313.40405940874
 30
0.0
 11
10057.222896872479
 21
12267.40405940874
 31
0.0
  0
LINE
  5
7D87
  8
FUTO
 10
10116.722835872481
 20
12368.40405940874
 30
0.0
 11
10104.222835872481
 21
12368.40405940874
 31
0.0
  0
LINE
  5
7D88
  8
FUTO
 10
10105.722835872481
 20
12313.40405940874
 30
0.0
 11
10057.222896872479
 21
12313.40405940874
 31
0.0
  0
LINE
  5
7D89
  8
FUTO
 10
10105.722835872481
 20
12316.52905940874
 30
0.0
 11
10099.222835872481
 21
12316.52905940874
 31
0.0
  0
LINE
  5
7D8A
  8
FUTO
 10
10099.222835872481
 20
12363.40405940874
 30
0.0
 11
10099.222835872481
 21
12316.52905940874
 31
0.0
  0
LINE
  5
7D8B
  8
FUTO
 10
10099.222835872481
 20
12318.40405940874
 30
0.0
 11
10052.222896872479
 21
12318.40405940874
 31
0.0
  0
LINE
  5
7D8C
  8
FUTO
 10
10099.222835872481
 20
12321.40405940874
 30
0.0
 11
10049.222896872479
 21
12321.40405940874
 31
0.0
  0
ARC
  5
7D8D
  8
FUTO
 10
10104.222835872481
 20
12363.40405940874
 30
0.0
 40
5.0
 50
90.000000000000028
 51
180.0
  0
LINE
  5
7D8E
  8
FUTO
 10
10057.222896872479
 20
12313.40405940874
 30
0.0
 11
10052.222896872479
 21
12318.40405940874
 31
0.0
  0
LINE
  5
7D8F
  8
FUTO
 10
10119.54149065405
 20
11910.279059408749
 30
0.0
 11
10099.222835872481
 21
11910.27905940874
 31
0.0
  0
LINE
  5
7D90
  8
FUTO
 10
10057.222896872479
 20
11977.40405940874
 30
0.0
 11
10057.222896872479
 21
12249.40405940874
 31
0.0
  0
LINE
  5
7D91
  8
FUTO
 10
10057.222896872479
 20
11913.40405940874
 30
0.0
 11
10052.222896872479
 21
11908.40405940874
 31
0.0
  0
LINE
  5
7D92
  8
FUTO
 10
10057.222896872479
 20
11913.40405940874
 30
0.0
 11
10057.222896872479
 21
11959.40405940874
 31
0.0
  0
LINE
  5
7D93
  8
FUTO
 10
10119.4323623042
 20
11913.40405940874
 30
0.0
 11
10057.222896872479
 21
11913.40405940874
 31
0.0
  0
ARC
  5
7D94
  8
FUTO
 10
10104.222835872481
 20
11863.40405940874
 30
0.0
 40
5.0
 50
180.0
 51
270.0
  0
LINE
  5
7D95
  8
FUTO
 10
10099.222835872481
 20
11905.40405940874
 30
0.0
 11
10049.222896872479
 21
11905.40405940874
 31
0.0
  0
LINE
  5
7D96
  8
FUTO
 10
10099.222835872481
 20
11908.40405940874
 30
0.0
 11
10052.222896872479
 21
11908.40405940874
 31
0.0
  0
LINE
  5
7D97
  8
FUTO
 10
10151.531200876951
 20
11858.40405940874
 30
0.0
 11
10104.222835872481
 21
11858.40405940874
 31
0.0
  0
LINE
  5
7D98
  8
FUTO
 10
10099.222835872481
 20
11863.40405940874
 30
0.0
 11
10099.222835872481
 21
11910.279059408749
 31
0.0
  0
LINE
  5
7D99
  8
FUTO
 10
10052.222896872479
 20
11988.40405940874
 30
0.0
 11
10052.222896872479
 21
12238.40405940874
 31
0.0
  0
LINE
  5
7D9A
  8
FUTO
 10
10049.222896872479
 20
11988.404059408749
 30
0.0
 11
10049.222896872479
 21
12238.40405940874
 31
0.0
  0
LINE
  5
7D9B
  8
FUTO
 10
10052.222896872479
 20
11908.40405940874
 30
0.0
 11
10052.222896872479
 21
11948.40405940874
 31
0.0
  0
LINE
  5
7D9C
  8
FUTO
 10
10049.222896872479
 20
11905.40405940874
 30
0.0
 11
10049.222896872479
 21
11948.40405940874
 31
0.0
  0
LINE
  5
7D9D
  8
HOSO
 10
10054.222896872479
 20
11975.40405940874
 30
0.0
 11
10105.722835872481
 21
11975.40405940874
 31
0.0
  0
LINE
  5
7D9E
  8
FUTO
 10
10105.722835872481
 20
11977.40405940874
 30
0.0
 11
10054.222896872479
 21
11977.40405940874
 31
0.0
  0
LINE
  5
7D9F
  8
HOSO
 10
10105.722835872481
 20
11961.40405940874
 30
0.0
 11
10054.222896872479
 21
11961.40405940874
 31
0.0
  0
LINE
  5
7DA0
  8
FUTO
 10
10054.222896872479
 20
11959.40405940874
 30
0.0
 11
10105.722835872481
 21
11959.40405940874
 31
0.0
  0
LINE
  5
7DA1
  8
FUTO
 10
10024.222896872479
 20
11977.40405940874
 30
0.0
 11
9961.8683438724856
 21
11977.40405940874
 31
0.0
  0
LINE
  5
7DA2
  8
HOSO
 10
9961.8684048724826
 20
11975.40405940874
 30
0.0
 11
10024.222896872479
 21
11975.40405940874
 31
0.0
  0
LINE
  5
7DA3
  8
HOSO
 10
10024.222896872479
 20
11961.40405940874
 30
0.0
 11
9961.8683438724856
 21
11961.40405940874
 31
0.0
  0
LINE
  5
7DA4
  8
FUTO
 10
9961.8684048724826
 20
11959.40405940874
 30
0.0
 11
10024.222896872479
 21
11959.40405940874
 31
0.0
  0
LINE
  5
7DA5
  8
FUTO
 10
9961.8684048724826
 20
11985.99390340874
 30
0.0
 11
9961.8684048724826
 21
11950.81421640874
 31
0.0
  0
LINE
  5
7DA6
  8
FUTO
 10
9949.7684288724813
 20
11978.109137408739
 30
0.0
 11
9948.1684538724821
 21
11976.50952840874
 31
0.0
  0
LINE
  5
7DA7
  8
FUTO
 10
9949.7684288724813
 20
11978.109137408739
 30
0.0
 11
9948.1684538724821
 21
11979.70972340874
 31
0.0
  0
LINE
  5
7DA8
  8
FUTO
 10
9948.1684538724821
 20
11984.394294408739
 30
0.0
 11
9949.7684288724813
 21
11985.99390340874
 31
0.0
  0
LINE
  5
7DA9
  8
FUTO
 10
9949.7684288724813
 20
11958.698981408739
 30
0.0
 11
9948.1684538724821
 21
11960.29956740874
 31
0.0
  0
LINE
  5
7DAA
  8
FUTO
 10
9949.7684288724813
 20
11958.698981408739
 30
0.0
 11
9948.1684538724821
 21
11957.09937240874
 31
0.0
  0
LINE
  5
7DAB
  8
FUTO
 10
9949.7684288724813
 20
11950.81421640874
 30
0.0
 11
9948.1684538724821
 21
11952.41480140874
 31
0.0
  0
LINE
  5
7DAC
  8
FUTO
 10
9948.1684538724821
 20
11984.394294408739
 30
0.0
 11
9948.1684538724821
 21
11952.41480140874
 31
0.0
  0
LINE
  5
7DAD
  8
FUTO
 10
9949.7684288724813
 20
11958.698981408739
 30
0.0
 11
9961.8684048724826
 21
11958.698981408739
 31
0.0
  0
LINE
  5
7DAE
  8
FUTO
 10
9949.7684288724813
 20
11978.109137408739
 30
0.0
 11
9961.8684048724826
 21
11978.109137408739
 31
0.0
  0
LINE
  5
7DAF
  8
FUTO
 10
9949.7684288724813
 20
11950.81421640874
 30
0.0
 11
9961.8684048724826
 21
11950.81421640874
 31
0.0
  0
LINE
  5
7DB0
  8
FUTO
 10
9949.7684288724813
 20
11985.99390340874
 30
0.0
 11
9961.8684048724826
 21
11985.99390340874
 31
0.0
  0
LINE
  5
7DB1
  8
CT
 10
10105.722835872481
 20
11968.40405940874
 30
0.0
 11
9938.1684538724858
 21
11968.40405940874
 31
0.0
  0
LINE
  5
7DB2
  8
FUTO
 10
10054.222896872479
 20
11948.40405940874
 30
0.0
 11
10024.222896872479
 21
11948.40405940874
 31
0.0
  0
LINE
  5
7DB3
  8
FUTO
 10
10024.222896872479
 20
11988.40405940874
 30
0.0
 11
10054.222896872479
 21
11988.40405940874
 31
0.0
  0
LINE
  5
7DB4
  8
FUTO
 10
10054.222896872479
 20
11948.40405940874
 30
0.0
 11
10054.222896872479
 21
11988.40405940874
 31
0.0
  0
LINE
  5
7DB5
  8
FUTO
 10
10024.222896872479
 20
11948.40405940874
 30
0.0
 11
10024.222896872479
 21
11988.40405940874
 31
0.0
  0
ARC
  5
7DB6
  8
FUTO
 10
10640.851985872479
 20
12175.403998408739
 30
0.0
 40
20.0
 50
0.000000000000007
 51
90.000000000000028
  0
ARC
  5
7DB7
  8
FUTO
 10
10640.851985872479
 20
12051.40405940874
 30
0.0
 40
20.0
 50
270.0
 51
0.000000000000007
  0
ARC
  5
7DB8
  8
FUTO
 10
10650.851985872479
 20
12034.40405940874
 30
0.0
 40
10.0
 50
270.0
 51
0.000000000000007
  0
ARC
  5
7DB9
  8
FUTO
 10
10650.851985872479
 20
12192.403998408739
 30
0.0
 40
10.0
 50
0.000000000000007
 51
90.000000000000028
  0
ARC
  5
7DBA
  8
FUTO
 10
10547.99526097359
 20
12034.40405940874
 30
0.0
 40
10.0
 50
180.0
 51
270.0
  0
ARC
  5
7DBB
  8
FUTO
 10
10551.16237651192
 20
12034.40405940874
 30
0.0
 40
10.0
 50
180.0
 51
270.0
  0
ARC
  5
7DBC
  8
FUTO
 10
10547.99526097359
 20
12192.403998408739
 30
0.0
 40
10.0
 50
90.000000000000028
 51
180.0
  0
ARC
  5
7DBD
  8
FUTO
 10
10551.16237651192
 20
12192.403998408739
 30
0.0
 40
10.0
 50
90.000000000000028
 51
180.0
  0
LINE
  5
7DBE
  8
FUTO
 10
10548.358979791379
 20
12031.404059408749
 30
0.0
 11
10640.851985872479
 21
12031.404059408749
 31
0.0
  0
LINE
  5
7DBF
  8
FUTO
 10
10548.358979791379
 20
12195.403998408739
 30
0.0
 11
10640.851985872479
 21
12195.403998408739
 31
0.0
  0
ARC
  5
7DC0
  8
FUTO
 10
10534.222835872481
 20
12036.40405940874
 30
0.0
 40
5.0
 50
180.0
 51
270.0
  0
ARC
  5
7DC1
  8
FUTO
 10
10534.222835872481
 20
12190.403998408739
 30
0.0
 40
5.0
 50
90.000000000000028
 51
180.0
  0
ARC
  5
7DC2
  8
FUTO
 10
10548.358979791379
 20
12036.40405940874
 30
0.0
 40
5.0
 50
180.0
 51
270.0
  0
ARC
  5
7DC3
  8
FUTO
 10
10548.358979791379
 20
12190.403998408739
 30
0.0
 40
5.0
 50
90.000000000000028
 51
180.0
  0
LINE
  5
7DC4
  8
FUTO
 10
10547.99526097359
 20
12024.40405940874
 30
0.0
 11
10650.851985872479
 21
12024.40405940874
 31
0.0
  0
LINE
  5
7DC5
  8
FUTO
 10
10534.222835872481
 20
12031.404059408749
 30
0.0
 11
10537.99526097359
 21
12031.404059408749
 31
0.0
  0
LINE
  5
7DC6
  8
FUTO
 10
10547.99526097359
 20
12202.403998408739
 30
0.0
 11
10650.851985872479
 21
12202.403998408739
 31
0.0
  0
LINE
  5
7DC7
  8
FUTO
 10
10534.222835872481
 20
12195.403998408739
 30
0.0
 11
10537.99526097359
 21
12195.403998408739
 31
0.0
  0
LINE
  5
7DC8
  8
FUTO
 10
10512.722835872481
 20
12173.404059408749
 30
0.0
 11
10512.722835872481
 21
12280.21483015778
 31
0.0
  0
LINE
  5
7DC9
  8
FUTO
 10
10529.222835872481
 20
12053.40405940874
 30
0.0
 11
10461.496438312301
 21
12053.40405940874
 31
0.0
  0
LINE
  5
7DCA
  8
FUTO
 10
10529.222835872481
 20
12173.404059408749
 30
0.0
 11
10461.496438312301
 21
12173.40405940874
 31
0.0
  0
LINE
  5
7DCB
  8
FUTO
 10
10619.542171872479
 20
12051.404059408749
 30
0.0
 11
10619.542171872479
 21
12175.403998408739
 31
0.0
  0
LINE
  5
7DCC
  8
FUTO
 10
10543.358979791379
 20
12036.40405940874
 30
0.0
 11
10543.358979791379
 21
12190.403998408739
 31
0.0
  0
LINE
  5
7DCD
  8
FUTO
 10
10541.16237651192
 20
12034.40405940874
 30
0.0
 11
10541.16237651192
 21
12192.403998408739
 31
0.0
  0
LINE
  5
7DCE
  8
FUTO
 10
10537.99526097359
 20
12034.40405940874
 30
0.0
 11
10537.99526097359
 21
12192.403998408739
 31
0.0
  0
LINE
  5
7DCF
  8
FUTO
 10
10529.222835872481
 20
12036.40405940874
 30
0.0
 11
10529.222835872481
 21
12190.403998408739
 31
0.0
  0
LINE
  5
7DD0
  8
FUTO
 10
10519.222835872481
 20
12053.40405940874
 30
0.0
 11
10519.222835872481
 21
12173.40405940874
 31
0.0
  0
LINE
  5
7DD1
  8
FUTO
 10
10461.496438312301
 20
12053.40405940874
 30
0.0
 11
10461.496438312301
 21
12173.404059408749
 31
0.0
  0
LINE
  5
7DD2
  8
FUTO
 10
10660.851985872479
 20
12034.40405940874
 30
0.0
 11
10660.851985872479
 21
12192.403998408739
 31
0.0
  0
LINE
  5
7DD3
  8
FUTO
 10
10315.472835872481
 20
12089.65405940874
 30
0.0
 11
10315.472835872481
 21
12137.15405940874
 31
0.0
  0
ARC
  5
7DD4
  8
FUTO
 10
10309.222835872481
 20
12089.65405940874
 30
0.0
 40
6.25
 50
180.0
 51
0.000000000000007
  0
ARC
  5
7DD5
  8
FUTO
 10
10309.222835872481
 20
12137.15405940874
 30
0.0
 40
6.25
 50
0.000000000000007
 51
180.0
  0
LINE
  5
7DD6
  8
CT
 10
10680.851985872479
 20
12113.40405940874
 30
0.0
 11
10029.222896872479
 21
12113.40405940874
 31
0.0
  0
LINE
  5
7DD7
  8
FUTO
 10
10302.972835872481
 20
12089.65405940874
 30
0.0
 11
10302.972835872481
 21
12137.15405940874
 31
0.0
  0
LINE
  5
7DD8
  8
FUTO
 10
10512.722835872481
 20
12280.21483015778
 30
0.0
 11
10510.90105887248
 21
12282.403998408739
 31
0.0
  0
LINE
  5
7DD9
  8
FUTO
 10
10512.722835872481
 20
11946.593146408741
 30
0.0
 11
10506.222835872481
 21
11938.78223340874
 31
0.0
  0
LINE
  5
7DDA
  8
FUTO
 10
10512.722835872481
 20
11946.593146408741
 30
0.0
 11
10512.722835872481
 21
12053.40405940874
 31
0.0
  0
LINE
  5
7DDB
  8
FUTO
 10
10105.722835872481
 20
11946.593146408741
 30
0.0
 11
10105.722835872481
 21
12280.21483015778
 31
0.0
  0
ARC
  5
7DDC
  8
FUTO
 10
10387.222835872481
 20
11839.90405940874
 30
0.0
 40
2.0
 50
270.0
 51
0.000000000000007
  0
ARC
  5
7DDD
  8
FUTO
 10
10392.222835872481
 20
11850.057135408741
 30
0.0
 40
2.9999599999999988
 50
92.999557000035395
 51
180.0
  0
LINE
  5
7DDE
  8
FUTO
 10
10389.222835872481
 20
11850.057135408741
 30
0.0
 11
10389.222835872481
 21
11839.90405940874
 31
0.0
  0
ARC
  5
7DDF
  8
FUTO
 10
10488.318783872481
 20
11893.68970440874
 30
0.0
 40
9.9999679999999991
 50
314.99999999999989
 51
358.00067099997602
  0
ARC
  5
7DE0
  8
FUTO
 10
10461.325619872479
 20
11866.69653940874
 30
0.0
 40
10.000024
 50
272.99903899998708
 51
314.99999999999989
  0
LINE
  5
7DE1
  8
FUTO
 10
10495.389828872479
 20
11886.618659408739
 30
0.0
 11
10468.39666387248
 21
11859.62549540874
 31
0.0
  0
LINE
  5
7DE2
  8
FUTO
 10
10499.222835872481
 20
11919.40405940874
 30
0.0
 11
10498.312679872481
 21
11893.34082740874
 31
0.0
  0
LINE
  5
7DE3
  8
FUTO
 10
10461.84881287248
 20
11856.710211408739
 30
0.0
 11
10373.257503872481
 21
11852.067389408739
 31
0.0
  0
LINE
  5
7DE4
  8
FUTO
 10
10471.222835872481
 20
11929.40405940874
 30
0.0
 11
10147.222835872481
 21
11929.40405940874
 31
0.0
  0
LINE
  5
7DE5
  8
FUTO
 10
10471.222835872481
 20
11919.40405940874
 30
0.0
 11
10471.222835872481
 21
11924.40405940874
 31
0.0
  0
LINE
  5
7DE6
  8
FUTO
 10
10471.222835872481
 20
11924.40405940874
 30
0.0
 11
10471.222835872481
 21
11929.40405940874
 31
0.0
  0
LINE
  5
7DE7
  8
FUTO
 10
10506.222835872481
 20
11938.78223340874
 30
0.0
 11
10471.222835872481
 21
11929.40405940874
 31
0.0
  0
ARC
  5
7DE8
  8
FUTO
 10
10492.722835872481
 20
12328.87738740874
 30
0.0
 40
20.0
 50
0.000000000000007
 51
20.000046000015271
  0
ARC
  5
7DE9
  8
FUTO
 10
10521.722835872481
 20
12366.152777408741
 30
0.0
 40
20.0
 50
180.0
 51
199.99972500000979
  0
LINE
  5
7DEA
  8
FUTO
 10
10456.87176187248
 20
12310.903998408739
 30
0.0
 11
10460.624691872479
 21
12317.403998408739
 31
0.0
  0
LINE
  5
7DEB
  8
FUTO
 10
10460.624691872479
 20
12317.403998408739
 30
0.0
 11
10456.87176187248
 21
12323.903998408739
 31
0.0
  0
LINE
  5
7DEC
  8
FUTO
 10
10511.51678187248
 20
12335.717841408739
 30
0.0
 11
10502.928890872479
 21
12359.312445408739
 31
0.0
  0
LINE
  5
7DED
  8
FUTO
 10
10512.722835872481
 20
12282.403998408739
 30
0.0
 11
10512.722835872481
 21
12328.87738740874
 31
0.0
  0
LINE
  5
7DEE
  8
FUTO
 10
10445.613460872481
 20
12317.403998408739
 30
0.0
 11
10449.366390872479
 21
12323.903998408739
 31
0.0
  0
LINE
  5
7DEF
  8
FUTO
 10
10449.366390872479
 20
12310.903998408739
 30
0.0
 11
10445.613460872481
 21
12317.403998408739
 31
0.0
  0
LINE
  5
7DF0
  8
CT
 10
10453.119076872479
 20
12309.961859408741
 30
0.0
 11
10453.119076872479
 21
12324.417914408739
 31
0.0
  0
LINE
  5
7DF1
  8
CT
 10
10444.728451872479
 20
12317.403998408739
 30
0.0
 11
10461.549984872479
 21
12317.403998408739
 31
0.0
  0
LINE
  5
7DF2
  8
FUTO
 10
10449.366390872479
 20
12323.903998408739
 30
0.0
 11
10456.87176187248
 21
12323.903998408739
 31
0.0
  0
LINE
  5
7DF3
  8
FUTO
 10
10449.366390872479
 20
12310.903998408739
 30
0.0
 11
10456.87176187248
 21
12310.903998408739
 31
0.0
  0
CIRCLE
  5
7DF4
  8
FUTO
 10
10453.119076872479
 20
12317.403998408739
 30
0.0
 40
6.5
  0
ARC
  5
7DF5
  8
FUTO
 10
10486.722835872481
 20
12427.09308540874
 30
0.0
 40
15.0
 50
0.000000000000007
 51
29.999817000004409
  0
ARC
  5
7DF6
  8
FUTO
 10
10466.336117872481
 20
12482.403998408739
 30
0.0
 40
4.9999580000000003
 50
30.000281999998801
 51
90.000000000000028
  0
LINE
  5
7DF7
  8
FUTO
 10
10470.66619587248
 20
12484.903998408739
 30
0.0
 11
10499.713314872481
 21
12434.59308540874
 31
0.0
  0
LINE
  5
7DF8
  8
FUTO
 10
10501.722835872481
 20
12366.152777408741
 30
0.0
 11
10501.722835872481
 21
12427.09308540874
 31
0.0
  0
LINE
  5
7DF9
  8
FUTO
 10
10116.722835872481
 20
12366.152777408741
 30
0.0
 11
10116.722835872481
 21
12427.09308540874
 31
0.0
  0
LINE
  5
7DFA
  8
CT
 10
10309.222835872481
 20
11505.614968442789
 30
0.0
 11
10309.222835872481
 21
12507.40405940874
 31
0.0
  0
LINE
  5
7DFB
  8
FUTO
 10
10151.57287187248
 20
12487.40405940874
 30
0.0
 11
10466.36318587248
 21
12487.40405940874
 31
0.0
  0
LINE
  5
7DFC
  8
FUTO
 10
10501.722835872481
 20
12428.30402240874
 30
0.0
 11
10116.77190787248
 21
12428.30402240874
 31
0.0
  0
LINE
  5
7DFD
  8
FUTO
 10
10147.779475872479
 20
12484.903998408739
 30
0.0
 11
10118.732356872481
 21
12434.59308540874
 31
0.0
  0
ARC
  5
7DFE
  8
FUTO
 10
10152.10955387248
 20
12482.403998408739
 30
0.0
 40
4.9999580000000003
 50
90.000000000000028
 51
149.99971800000111
  0
ARC
  5
7DFF
  8
FUTO
 10
10131.722835872481
 20
12427.09308540874
 30
0.0
 40
15.0
 50
150.00018299999559
 51
180.0
  0
LINE
  5
7E00
  8
FUTO
 10
10387.222835872481
 20
11837.90405940874
 30
0.0
 11
10309.222835872481
 21
11837.90405940874
 31
0.0
  0
LINE
  5
7E01
  8
FUTO
 10
10499.222835872481
 20
11919.40405940874
 30
0.0
 11
10309.222835872481
 21
11919.40405940874
 31
0.0
  0
LINE
  5
7E02
  8
FUTO
 10
10471.222835872481
 20
11924.40405940874
 30
0.0
 11
10309.222835872481
 21
11924.40405940874
 31
0.0
  0
LINE
  5
7E03
  8
FUTO
 10
10116.405452872479
 20
12362.60394940874
 30
0.0
 11
10501.722835872481
 21
12362.60394940874
 31
0.0
  0
LINE
  5
7E04
  8
FUTO
 10
10106.03631187248
 20
12332.403998408739
 30
0.0
 11
10512.409456071349
 21
12332.403998408739
 31
0.0
  0
LINE
  5
7E05
  8
FUTO
 10
10105.722835872481
 20
12282.403998408739
 30
0.0
 11
10510.90105887248
 21
12282.403998408739
 31
0.0
  0
LINE
  5
7E06
  8
FUTO
 10
10471.222835872481
 20
11924.40405940874
 30
0.0
 11
10309.222835872481
 21
11924.40405940874
 31
0.0
  0
CIRCLE
  5
7E07
  8
FUTO
 10
10165.32659487248
 20
12317.403998408739
 30
0.0
 40
6.5
  0
LINE
  5
7E08
  8
FUTO
 10
10169.07928087248
 20
12310.903998408739
 30
0.0
 11
10161.573909872481
 21
12310.903998408739
 31
0.0
  0
LINE
  5
7E09
  8
FUTO
 10
10169.07928087248
 20
12323.903998408739
 30
0.0
 11
10161.573909872481
 21
12323.903998408739
 31
0.0
  0
LINE
  5
7E0A
  8
CT
 10
10173.71721987248
 20
12317.403998408739
 30
0.0
 11
10156.89568687248
 21
12317.403998408739
 31
0.0
  0
LINE
  5
7E0B
  8
CT
 10
10165.32659487248
 20
12309.961859408741
 30
0.0
 11
10165.32659487248
 21
12324.417914408739
 31
0.0
  0
LINE
  5
7E0C
  8
FUTO
 10
10169.07928087248
 20
12310.903998408739
 30
0.0
 11
10172.832210872481
 21
12317.403998408739
 31
0.0
  0
LINE
  5
7E0D
  8
FUTO
 10
10172.832210872481
 20
12317.403998408739
 30
0.0
 11
10169.07928087248
 21
12323.903998408739
 31
0.0
  0
LINE
  5
7E0E
  8
FUTO
 10
10105.722835872481
 20
12282.403998408739
 30
0.0
 11
10105.722835872481
 21
12328.87738740874
 31
0.0
  0
LINE
  5
7E0F
  8
FUTO
 10
10106.928889872481
 20
12335.717841408739
 30
0.0
 11
10115.51678087248
 21
12359.312445408739
 31
0.0
  0
LINE
  5
7E10
  8
FUTO
 10
10157.82097987248
 20
12317.403998408739
 30
0.0
 11
10161.573909872481
 21
12323.903998408739
 31
0.0
  0
LINE
  5
7E11
  8
FUTO
 10
10161.573909872481
 20
12310.903998408739
 30
0.0
 11
10157.82097987248
 21
12317.403998408739
 31
0.0
  0
ARC
  5
7E12
  8
FUTO
 10
10096.722835872481
 20
12366.152777408741
 30
0.0
 40
20.0
 50
340.00027499999021
 51
0.000000000000007
  0
ARC
  5
7E13
  8
FUTO
 10
10125.722835872481
 20
12328.87738740874
 30
0.0
 40
20.0
 50
159.99995399998471
 51
180.0
  0
LINE
  5
7E14
  8
FUTO
 10
10105.722835872481
 20
12280.21483015778
 30
0.0
 11
10107.54461287248
 21
12282.403998408739
 31
0.0
  0
LINE
  5
7E15
  8
FUTO
 10
10147.222835872481
 20
11924.40405940874
 30
0.0
 11
10309.222835872481
 21
11924.40405940874
 31
0.0
  0
LINE
  5
7E16
  8
FUTO
 10
10156.596858872481
 20
11856.710211408739
 30
0.0
 11
10245.18816787248
 21
11852.067389408739
 31
0.0
  0
LINE
  5
7E17
  8
FUTO
 10
10119.222835872481
 20
11919.40405940874
 30
0.0
 11
10309.222835872481
 21
11919.40405940874
 31
0.0
  0
LINE
  5
7E18
  8
FUTO
 10
10147.222835872481
 20
11924.40405940874
 30
0.0
 11
10309.222835872481
 21
11924.40405940874
 31
0.0
  0
LINE
  5
7E19
  8
FUTO
 10
10339.222835872481
 20
11827.90405940874
 30
0.0
 11
10339.222835872481
 21
11687.90405940874
 31
0.0
  0
LINE
  5
7E1A
  8
FUTO
 10
10279.222835872481
 20
11827.90405940874
 30
0.0
 11
10279.222835872481
 21
11687.90405940874
 31
0.0
  0
LINE
  5
7E1B
  8
FUTO
 10
10231.222835872481
 20
11837.90405940874
 30
0.0
 11
10309.222835872481
 21
11837.90405940874
 31
0.0
  0
LINE
  5
7E1C
  8
FUTO
 10
10341.722835872481
 20
11827.90405940874
 30
0.0
 11
10276.722835872481
 21
11827.90405940874
 31
0.0
  0
LINE
  5
7E1D
  8
FUTO
 10
10341.722835872481
 20
11827.90405940874
 30
0.0
 11
10341.722835872481
 21
11837.90405940874
 31
0.0
  0
LINE
  5
7E1E
  8
FUTO
 10
10276.722835872481
 20
11827.90405940874
 30
0.0
 11
10276.722835872481
 21
11837.90405940874
 31
0.0
  0
LINE
  5
7E1F
  8
FUTO
 10
10229.222835872481
 20
11850.057135408741
 30
0.0
 11
10229.222835872481
 21
11839.90405940874
 31
0.0
  0
ARC
  5
7E20
  8
FUTO
 10
10226.222835872481
 20
11850.057135408741
 30
0.0
 40
2.9999599999999988
 50
0.000000000000007
 51
87.000443000016674
  0
ARC
  5
7E21
  8
FUTO
 10
10231.222835872481
 20
11839.90405940874
 30
0.0
 40
2.0
 50
180.0
 51
270.0
  0
LINE
  5
7E22
  8
FUTO
 10
10279.222835872481
 20
11687.90405940874
 30
0.0
 11
10339.222835872481
 21
11687.90405940874
 31
0.0
  0
LINE
  5
7E23
  8
FUTO
 10
10105.722835872481
 20
11946.593146408741
 30
0.0
 11
10112.222835872481
 21
11938.78223340874
 31
0.0
  0
LINE
  5
7E24
  8
FUTO
 10
10119.222835872481
 20
11919.40405940874
 30
0.0
 11
10120.13299187248
 21
11893.34082740874
 31
0.0
  0
LINE
  5
7E25
  8
FUTO
 10
10112.222835872481
 20
11938.78223340874
 30
0.0
 11
10147.222835872481
 21
11929.40405940874
 31
0.0
  0
LINE
  5
7E26
  8
FUTO
 10
10147.222835872481
 20
11924.40405940874
 30
0.0
 11
10147.222835872481
 21
11929.40405940874
 31
0.0
  0
LINE
  5
7E27
  8
FUTO
 10
10147.222835872481
 20
11919.40405940874
 30
0.0
 11
10147.222835872481
 21
11924.40405940874
 31
0.0
  0
LINE
  5
7E28
  8
FUTO
 10
10123.05584287248
 20
11886.618659408739
 30
0.0
 11
10150.04900787248
 21
11859.62549540874
 31
0.0
  0
ARC
  5
7E29
  8
FUTO
 10
10157.12005187248
 20
11866.69653940874
 30
0.0
 40
10.000024
 50
225.0
 51
267.00096100001281
  0
ARC
  5
7E2A
  8
FUTO
 10
10130.12688787248
 20
11893.68970440874
 30
0.0
 40
9.9999679999999991
 50
181.99932900002389
 51
225.0
  0
CIRCLE
  5
7E2B
  8
FUTO
 10
10309.222835872481
 20
8294.5395653772703
 30
0.0
 40
30.0
  0
LINE
  5
7E2C
  8
FUTO
 10
12062.200860292
 20
8114.5395653772703
 30
0.0
 11
12076.880291216299
 21
8114.5395653772703
 31
0.0
  0
LINE
  5
7E2D
  8
FUTO
 10
12064.880352216311
 20
8094.5395653772712
 30
0.0
 11
12099.880352216311
 21
8094.5395653772712
 31
0.0
  0
LINE
  5
7E2E
  8
FUTO
 10
11737.55984414062
 20
8114.5395653772703
 30
0.0
 11
11722.880352216311
 21
8114.5395653772703
 31
0.0
  0
LINE
  5
7E2F
  8
FUTO
 10
11734.880352216311
 20
8094.5395653772712
 30
0.0
 11
11699.880352216311
 21
8094.5395653772712
 31
0.0
  0
LINE
  5
7E30
  8
CT
 10
10469.222835872481
 20
8084.5395653772694
 30
0.0
 11
10469.222835872481
 21
8014.5395653772712
 31
0.0
  0
LINE
  5
7E31
  8
FUTO
 10
11799.880352216311
 20
8089.5395653772703
 30
0.0
 11
11799.880352216311
 21
8094.5395653772712
 31
0.0
  0
LINE
  5
7E32
  8
FUTO
 10
11999.880352216311
 20
8094.5395653772712
 30
0.0
 11
11999.880352216311
 21
8089.5395653772703
 31
0.0
  0
LINE
  5
7E3B
  8
FUTO
 10
10241.222835872481
 20
8094.5395653772712
 30
0.0
 11
10241.222835872481
 21
8089.5395653772703
 31
0.0
  0
LINE
  5
7E3C
  8
FUTO
 10
10377.22295787248
 20
8089.5395653772703
 30
0.0
 11
10377.22295787248
 21
8094.5395653772712
 31
0.0
  0
LINE
  5
7E3D
  8
FUTO
 10
11754.880352216311
 20
8123.0151513772716
 30
0.0
 11
11738.880352216311
 21
8113.7778473772714
 31
0.0
  0
LINE
  5
7E3E
  8
FUTO
 10
11770.880352216311
 20
8113.7778473772714
 30
0.0
 11
11754.880352216311
 21
8123.0151513772716
 31
0.0
  0
LINE
  5
7E3F
  8
FUTO
 10
11754.880352216311
 20
8086.0649563772713
 30
0.0
 11
11738.880352216311
 21
8095.30226137727
 31
0.0
  0
LINE
  5
7E40
  8
FUTO
 10
11770.880352216311
 20
8095.30226137727
 30
0.0
 11
11754.880352216311
 21
8086.0649563772713
 31
0.0
  0
LINE
  5
7E41
  8
FUTO
 10
11724.880352216311
 20
8104.5395653772712
 30
0.0
 11
11784.880352216311
 21
8104.5395653772712
 31
0.0
  0
CIRCLE
  5
7E42
  8
CT
 10
11754.880352216311
 20
8104.5395653772712
 30
0.0
 40
16.0
  0
LINE
  5
7E43
  8
FUTO
 10
11770.880352216311
 20
8095.30226137727
 30
0.0
 11
11770.880352216311
 21
8113.7778473772714
 31
0.0
  0
LINE
  5
7E44
  8
FUTO
 10
11738.880352216311
 20
8095.30226137727
 30
0.0
 11
11738.880352216311
 21
8113.7778473772714
 31
0.0
  0
ARC
  5
7E45
  8
FUTO
 10
11754.880352216311
 20
8104.5395653772712
 30
0.0
 40
20.0
 50
0.000000000000007
 51
180.0
  0
ARC
  5
7E46
  8
FUTO
 10
11647.880352216311
 20
8061.5395653772712
 30
0.0
 40
3.0
 50
90.0
 51
180.0
  0
LINE
  5
7E47
  8
FUTO
 10
11696.755352216311
 20
8064.5395653772721
 30
0.0
 11
11647.880352216311
 21
8064.5395653772721
 31
0.0
  0
LINE
  5
7E48
  8
FUTO
 10
11701.880352216311
 20
8034.5395653772703
 30
0.0
 11
11701.880352216311
 21
8039.5395653772712
 31
0.0
  0
LINE
  5
7E49
  8
FUTO
 10
11691.880352216311
 20
8046.5395653772712
 30
0.0
 11
11691.880352216311
 21
8039.5395653772712
 31
0.0
  0
LINE
  5
7E4A
  8
FUTO
 10
11701.880352216311
 20
8034.5395653772703
 30
0.0
 11
11644.880352216311
 21
8034.5395653772703
 31
0.0
  0
LINE
  5
7E4B
  8
FUTO
 10
11644.880352216311
 20
8034.5395653772703
 30
0.0
 11
11644.880352216311
 21
8061.5395653772712
 31
0.0
  0
LINE
  5
7E4C
  8
CT
 10
11669.880352216311
 20
8084.5395653772694
 30
0.0
 11
11669.880352216311
 21
8014.5395653772712
 31
0.0
  0
LINE
  5
7E4D
  8
FUTO
 10
11691.880352216311
 20
8046.5395653772712
 30
0.0
 11
11734.880352216311
 21
8046.5395653772712
 31
0.0
  0
LINE
  5
7E4E
  8
FUTO
 10
11699.880352216311
 20
8094.5395653772712
 30
0.0
 11
11694.880352216311
 21
8046.5395653772712
 31
0.0
  0
LINE
  5
7E4F
  8
FUTO
 10
11774.880352216311
 20
8104.5395653772712
 30
0.0
 11
11774.880352216311
 21
8039.5395653772712
 31
0.0
  0
LINE
  5
7E50
  8
FUTO
 10
11734.880352216311
 20
8039.5395653772712
 30
0.0
 11
11734.880352216311
 21
8104.5395653772712
 31
0.0
  0
LINE
  5
7E51
  8
CT
 10
11754.880352216311
 20
8029.5395653772703
 30
0.0
 11
11754.880352216311
 21
8134.5395653772703
 31
0.0
  0
LINE
  5
7E52
  8
FUTO
 10
12028.880352216311
 20
8113.7778473772714
 30
0.0
 11
12044.880352216311
 21
8123.0151513772716
 31
0.0
  0
LINE
  5
7E53
  8
FUTO
 10
12028.880352216311
 20
8095.30226137727
 30
0.0
 11
12044.880352216311
 21
8086.0649563772713
 31
0.0
  0
LINE
  5
7E54
  8
FUTO
 10
12028.880352216311
 20
8095.30226137727
 30
0.0
 11
12028.880352216311
 21
8113.7778473772714
 31
0.0
  0
LINE
  5
7E55
  8
FUTO
 10
12060.880352216311
 20
8095.30226137727
 30
0.0
 11
12060.880352216311
 21
8113.7778473772714
 31
0.0
  0
CIRCLE
  5
7E56
  8
FUTO
 10
12044.880352216311
 20
8104.5395653772712
 30
0.0
 40
16.0
  0
LINE
  5
7E57
  8
FUTO
 10
12044.880352216311
 20
8123.0151513772716
 30
0.0
 11
12060.880352216311
 21
8113.7778473772714
 31
0.0
  0
LINE
  5
7E58
  8
FUTO
 10
12044.880352216311
 20
8086.0649563772713
 30
0.0
 11
12060.880352216311
 21
8095.30226137727
 31
0.0
  0
ARC
  5
7E59
  8
FUTO
 10
12044.880352216311
 20
8104.5395653772712
 30
0.0
 40
20.0
 50
0.000000000000007
 51
180.0
  0
LINE
  5
7E5A
  8
CT
 10
12074.880352216311
 20
8104.5395653772712
 30
0.0
 11
12014.880352216311
 21
8104.5395653772712
 31
0.0
  0
LINE
  5
7E5B
  8
FUTO
 10
11799.880352216311
 20
8089.5395653772703
 30
0.0
 11
11999.880352216311
 21
8089.5395653772703
 31
0.0
  0
LINE
  5
7E5C
  8
FUTO
 10
12097.880352216311
 20
8034.5395653772703
 30
0.0
 11
12097.880352216311
 21
8039.5395653772712
 31
0.0
  0
LINE
  5
7E5D
  8
FUTO
 10
12107.880352216311
 20
8046.5395653772712
 30
0.0
 11
12107.880352216311
 21
8039.5395653772712
 31
0.0
  0
LINE
  5
7E5E
  8
FUTO
 10
12107.880352216311
 20
8046.5395653772712
 30
0.0
 11
12064.880352216311
 21
8046.5395653772712
 31
0.0
  0
LINE
  5
7E5F
  8
CT
 10
12129.880352216311
 20
8084.5395653772694
 30
0.0
 11
12129.880352216311
 21
8014.5395653772712
 31
0.0
  0
ARC
  5
7E60
  8
FUTO
 10
12151.880352216311
 20
8061.5395653772712
 30
0.0
 40
3.0
 50
0.000000000000007
 51
90.0
  0
LINE
  5
7E61
  8
FUTO
 10
12154.880352216311
 20
8034.5395653772703
 30
0.0
 11
12154.880352216311
 21
8061.5395653772712
 31
0.0
  0
LINE
  5
7E62
  8
FUTO
 10
12103.005352216311
 20
8064.5395653772721
 30
0.0
 11
12151.880352216311
 21
8064.5395653772721
 31
0.0
  0
LINE
  5
7E63
  8
FUTO
 10
12097.880352216311
 20
8034.5395653772703
 30
0.0
 11
12154.880352216311
 21
8034.5395653772703
 31
0.0
  0
LINE
  5
7E64
  8
FUTO
 10
12099.880352216311
 20
8094.5395653772712
 30
0.0
 11
12104.880352216311
 21
8046.5395653772712
 31
0.0
  0
LINE
  5
7E65
  8
FUTO
 10
12024.880352216311
 20
8104.5395653772712
 30
0.0
 11
12024.880352216311
 21
8039.5395653772712
 31
0.0
  0
LINE
  5
7E66
  8
FUTO
 10
12064.880352216311
 20
8039.5395653772712
 30
0.0
 11
12064.880352216311
 21
8104.5395653772712
 31
0.0
  0
LINE
  5
7E67
  8
CT
 10
12044.880352216311
 20
8029.5395653772703
 30
0.0
 11
12044.880352216311
 21
8134.5395653772703
 31
0.0
  0
LINE
  5
7E68
  8
FUTO
 10
10668.67742587248
 20
8114.244643377272
 30
0.0
 11
10670.277401872479
 21
8112.6450343772713
 31
0.0
  0
LINE
  5
7E69
  8
FUTO
 10
10668.67742587248
 20
8114.244643377272
 30
0.0
 11
10670.277401872479
 21
8115.8452293772707
 31
0.0
  0
LINE
  5
7E6A
  8
FUTO
 10
10668.67742587248
 20
8114.244643377272
 30
0.0
 11
10656.577450872481
 21
8114.244643377272
 31
0.0
  0
LINE
  5
7E6B
  8
FUTO
 10
10670.27727987248
 20
8120.5298003772714
 30
0.0
 11
10668.67730387248
 21
8122.1294093772703
 31
0.0
  0
LINE
  5
7E6C
  8
FUTO
 10
10668.67742587248
 20
8122.1294093772703
 30
0.0
 11
10656.577450872481
 21
8122.1294093772703
 31
0.0
  0
LINE
  5
7E6D
  8
FUTO
 10
10668.67742587248
 20
8094.8344873772712
 30
0.0
 11
10670.277401872479
 21
8096.4350733772699
 31
0.0
  0
LINE
  5
7E6E
  8
FUTO
 10
10668.67742587248
 20
8094.8344873772712
 30
0.0
 11
10670.277401872479
 21
8093.2348783772723
 31
0.0
  0
LINE
  5
7E6F
  8
FUTO
 10
10668.67742587248
 20
8094.8344873772712
 30
0.0
 11
10656.577450872481
 21
8094.8344873772712
 31
0.0
  0
LINE
  5
7E70
  8
FUTO
 10
10668.67742587248
 20
8086.9497223772714
 30
0.0
 11
10656.577450872481
 21
8086.9497223772714
 31
0.0
  0
LINE
  5
7E71
  8
FUTO
 10
10668.67742587248
 20
8086.9497223772714
 30
0.0
 11
10670.277401872479
 21
8088.5503073772707
 31
0.0
  0
LINE
  5
7E72
  8
FUTO
 10
10670.27727987248
 20
8120.5298003772714
 30
0.0
 11
10670.27727987248
 21
8088.5503073772707
 31
0.0
  0
LINE
  5
7E73
  8
FUTO
 10
10656.577328872479
 20
8122.1294093772703
 30
0.0
 11
10656.577328872479
 21
8086.9497223772714
 31
0.0
  0
LINE
  5
7E74
  8
HOSO
 10
10594.22295787248
 20
8097.5395653772712
 30
0.0
 11
10656.577084872481
 21
8097.5395653772712
 31
0.0
  0
LINE
  5
7E75
  8
FUTO
 10
10594.22295787248
 20
8113.5395653772712
 30
0.0
 11
10656.577084872481
 21
8113.5395653772712
 31
0.0
  0
LINE
  5
7E76
  8
HOSO
 10
10656.577328872479
 20
8111.5395653772703
 30
0.0
 11
10594.22295787248
 21
8111.5395653772703
 31
0.0
  0
LINE
  5
7E77
  8
FUTO
 10
10656.577328872479
 20
8095.5395653772703
 30
0.0
 11
10594.22295787248
 21
8095.5395653772703
 31
0.0
  0
LINE
  5
7E78
  8
FUTO
 10
10498.222835872481
 20
8111.5395653772703
 30
0.0
 11
10500.222835872481
 21
8113.5395653772712
 31
0.0
  0
LINE
  5
7E79
  8
HOSO
 10
10562.05629120581
 20
8111.5395653772703
 30
0.0
 11
10498.22295887248
 21
8111.5395653772703
 31
0.0
  0
LINE
  5
7E7A
  8
FUTO
 10
10500.222835872481
 20
8113.5395653772712
 30
0.0
 11
10562.389624539141
 21
8113.5395653772712
 31
0.0
  0
LINE
  5
7E7B
  8
FUTO
 10
10500.222835872481
 20
8095.5395653772703
 30
0.0
 11
10498.222835872481
 21
8097.5395653772712
 31
0.0
  0
LINE
  5
7E7C
  8
FUTO
 10
10559.389624539141
 20
8095.5395653772703
 30
0.0
 11
10500.222835872481
 21
8095.5395653772703
 31
0.0
  0
LINE
  5
7E7D
  8
HOSO
 10
10498.222835872481
 20
8097.5395653772712
 30
0.0
 11
10559.72295787248
 21
8097.5395653772712
 31
0.0
  0
LINE
  5
7E7E
  8
FUTO
 10
10500.222835872481
 20
8113.5395653772712
 30
0.0
 11
10500.222835872481
 21
8095.5395653772703
 31
0.0
  0
LINE
  5
7E7F
  8
FUTO
 10
10564.22295787248
 20
8124.5395653772703
 30
0.0
 11
10559.22295787248
 21
8094.5395653772712
 31
0.0
  0
LINE
  5
7E80
  8
FUTO
 10
10241.222835872481
 20
8089.5395653772703
 30
0.0
 11
10377.22295787248
 21
8089.5395653772703
 31
0.0
  0
LINE
  5
7E81
  8
FUTO
 10
10561.22295787248
 20
8094.5395653772712
 30
0.0
 11
10377.22295787248
 21
8094.5395653772712
 31
0.0
  0
LINE
  5
7E82
  8
FUTO
 10
10564.22295787248
 20
8124.5395653772703
 30
0.0
 11
10594.22295787248
 21
8124.5395653772703
 31
0.0
  0
LINE
  5
7E83
  8
CT
 10
10498.222835872481
 20
8104.5395653772712
 30
0.0
 11
10680.27727987248
 21
8104.5395653772712
 31
0.0
  0
LINE
  5
7E84
  8
FUTO
 10
10569.22295787248
 20
8039.5395653772712
 30
0.0
 11
10594.22295787248
 21
8039.5395653772712
 31
0.0
  0
LINE
  5
7E85
  8
FUTO
 10
10566.22295787248
 20
8046.5395653772712
 30
0.0
 11
10569.22295787248
 21
8046.5395653772712
 31
0.0
  0
LINE
  5
7E86
  8
FUTO
 10
10569.22295787248
 20
8046.5395653772712
 30
0.0
 11
10569.22295787248
 21
8039.5395653772712
 31
0.0
  0
ARC
  5
7E87
  8
FUTO
 10
10516.223201872481
 20
8061.5395653772712
 30
0.0
 40
3.0
 50
0.000000000000007
 51
90.002335000001125
  0
LINE
  5
7E88
  8
FUTO
 10
10519.22295787248
 20
8034.5395653772703
 30
0.0
 11
10519.22295787248
 21
8061.5395653772712
 31
0.0
  0
ARC
  5
7E89
  8
FUTO
 10
10422.22295787248
 20
8061.5395653772712
 30
0.0
 40
3.0
 50
89.997664999998889
 51
180.0
  0
LINE
  5
7E8A
  8
FUTO
 10
10419.22295787248
 20
8034.5395653772703
 30
0.0
 11
10419.22295787248
 21
8061.5395653772712
 31
0.0
  0
LINE
  5
7E8B
  8
FUTO
 10
10422.22295787248
 20
8064.5395653772721
 30
0.0
 11
10516.22295787248
 21
8064.5395653772721
 31
0.0
  0
LINE
  5
7E8C
  8
FUTO
 10
10419.22295787248
 20
8034.5395653772703
 30
0.0
 11
10519.22295787248
 21
8034.5395653772703
 31
0.0
  0
LINE
  5
7E8D
  8
FUTO
 10
10569.22295787248
 20
8039.5395653772712
 30
0.0
 11
10519.22295787248
 21
8039.5395653772712
 31
0.0
  0
LINE
  5
7E8E
  8
FUTO
 10
10561.22295787248
 20
8094.5395653772712
 30
0.0
 11
10566.22295787248
 21
8046.5395653772712
 31
0.0
  0
LINE
  5
7E8F
  8
FUTO
 10
10594.22295787248
 20
8124.5395653772703
 30
0.0
 11
10594.22295787248
 21
8039.5395653772712
 31
0.0
  0
LINE
  5
7E90
  8
FUTO
 10
10120.222835872481
 20
8111.5395653772703
 30
0.0
 11
10118.222835872481
 21
8113.5395653772712
 31
0.0
  0
LINE
  5
7E91
  8
HOSO
 10
10056.38956353914
 20
8111.5395653772721
 30
0.0
 11
10120.222835872481
 21
8111.5395653772703
 31
0.0
  0
LINE
  5
7E92
  8
FUTO
 10
10118.222835872481
 20
8113.5395653772712
 30
0.0
 11
10056.05623020581
 21
8113.5395653772712
 31
0.0
  0
LINE
  5
7E93
  8
FUTO
 10
10118.222835872481
 20
8095.5395653772703
 30
0.0
 11
10120.222835872481
 21
8097.5395653772712
 31
0.0
  0
LINE
  5
7E94
  8
FUTO
 10
10059.05623020581
 20
8095.5395653772703
 30
0.0
 11
10118.222835872481
 21
8095.5395653772703
 31
0.0
  0
LINE
  5
7E95
  8
HOSO
 10
10120.222835872481
 20
8097.5395653772712
 30
0.0
 11
10058.722896872479
 21
8097.5395653772712
 31
0.0
  0
LINE
  5
7E96
  8
FUTO
 10
10118.222835872481
 20
8113.5395653772712
 30
0.0
 11
10118.222835872481
 21
8095.5395653772703
 31
0.0
  0
LINE
  5
7E97
  8
FUTO
 10
10054.222896872479
 20
8124.5395653772703
 30
0.0
 11
10059.222896872479
 21
8094.5395653772712
 31
0.0
  0
LINE
  5
7E98
  8
FUTO
 10
10024.222896872479
 20
8113.5395653772712
 30
0.0
 11
9961.8683438724802
 21
8113.5395653772712
 31
0.0
  0
LINE
  5
7E99
  8
HOSO
 10
9961.8684048724826
 20
8111.5395653772703
 30
0.0
 11
10024.222896872479
 21
8111.5395653772703
 31
0.0
  0
LINE
  5
7E9A
  8
HOSO
 10
10024.222896872479
 20
8097.539565377273
 30
0.0
 11
9961.8683438724802
 21
8097.5395653772712
 31
0.0
  0
LINE
  5
7E9B
  8
FUTO
 10
9961.8684048724826
 20
8095.5395653772703
 30
0.0
 11
10024.222896872479
 21
8095.5395653772703
 31
0.0
  0
LINE
  5
7E9C
  8
FUTO
 10
9961.8684048724826
 20
8122.1294093772703
 30
0.0
 11
9961.8684048724826
 21
8086.9497223772714
 31
0.0
  0
LINE
  5
7E9D
  8
FUTO
 10
9949.7684288724813
 20
8114.244643377272
 30
0.0
 11
9948.1684538724821
 21
8112.6450343772713
 31
0.0
  0
LINE
  5
7E9E
  8
FUTO
 10
9949.7684288724813
 20
8114.244643377272
 30
0.0
 11
9948.1684538724821
 21
8115.8452293772707
 31
0.0
  0
LINE
  5
7E9F
  8
FUTO
 10
9948.1684538724821
 20
8120.5298003772714
 30
0.0
 11
9949.7684288724813
 21
8122.1294093772703
 31
0.0
  0
LINE
  5
7EA0
  8
FUTO
 10
9949.7684288724813
 20
8094.8344873772712
 30
0.0
 11
9948.1684538724821
 21
8096.4350733772699
 31
0.0
  0
LINE
  5
7EA1
  8
FUTO
 10
9949.7684288724813
 20
8094.8344873772712
 30
0.0
 11
9948.1684538724821
 21
8093.2348783772723
 31
0.0
  0
LINE
  5
7EA2
  8
FUTO
 10
9949.7684288724813
 20
8086.9497223772714
 30
0.0
 11
9948.1684538724821
 21
8088.5503073772707
 31
0.0
  0
LINE
  5
7EA3
  8
FUTO
 10
9948.1684538724821
 20
8120.5298003772714
 30
0.0
 11
9948.1684538724821
 21
8088.5503073772707
 31
0.0
  0
LINE
  5
7EA4
  8
FUTO
 10
9949.7684288724813
 20
8094.8344873772712
 30
0.0
 11
9961.8684048724826
 21
8094.8344873772712
 31
0.0
  0
LINE
  5
7EA5
  8
FUTO
 10
9949.7684288724813
 20
8114.244643377272
 30
0.0
 11
9961.8684048724826
 21
8114.244643377272
 31
0.0
  0
LINE
  5
7EA6
  8
FUTO
 10
9949.7684288724813
 20
8086.9497223772714
 30
0.0
 11
9961.8684048724826
 21
8086.9497223772714
 31
0.0
  0
LINE
  5
7EA7
  8
FUTO
 10
9949.7684288724813
 20
8122.1294093772703
 30
0.0
 11
9961.8684048724826
 21
8122.1294093772703
 31
0.0
  0
LINE
  5
7EA8
  8
FUTO
 10
10054.222896872479
 20
8124.5395653772703
 30
0.0
 11
10024.222896872479
 21
8124.5395653772703
 31
0.0
  0
LINE
  5
7EA9
  8
CT
 10
10120.222835872481
 20
8104.5395653772712
 30
0.0
 11
9938.1684538724821
 21
8104.5395653772712
 31
0.0
  0
ARC
  5
7EAA
  8
FUTO
 10
10196.22295787248
 20
8061.5395653772712
 30
0.0
 40
2.999938999999999
 50
0.000000000000007
 51
90.001166999976803
  0
LINE
  5
7EAB
  8
FUTO
 10
10199.222835872481
 20
8034.5395653772703
 30
0.0
 11
10199.222835872481
 21
8061.5395653772712
 31
0.0
  0
ARC
  5
7EAC
  8
FUTO
 10
10102.222835872481
 20
8061.5395653772712
 30
0.0
 40
3.0
 50
89.9988329999711
 51
180.0
  0
LINE
  5
7EAD
  8
FUTO
 10
10052.222896872479
 20
8046.5395653772712
 30
0.0
 11
10049.222896872479
 21
8046.5395653772712
 31
0.0
  0
LINE
  5
7EAE
  8
FUTO
 10
10049.222896872479
 20
8046.5395653772712
 30
0.0
 11
10049.222896872479
 21
8039.5395653772712
 31
0.0
  0
LINE
  5
7EAF
  8
FUTO
 10
10049.222896872479
 20
8039.5395653772712
 30
0.0
 11
10099.222835872481
 21
8039.5395653772712
 31
0.0
  0
LINE
  5
7EB0
  8
FUTO
 10
10099.222835872481
 20
8034.5395653772703
 30
0.0
 11
10099.222835872481
 21
8061.5395653772712
 31
0.0
  0
LINE
  5
7EB1
  8
FUTO
 10
10196.222835872481
 20
8064.5395653772721
 30
0.0
 11
10102.222835872481
 21
8064.5395653772721
 31
0.0
  0
LINE
  5
7EB2
  8
FUTO
 10
10199.222835872481
 20
8034.5395653772703
 30
0.0
 11
10099.222835872481
 21
8034.5395653772703
 31
0.0
  0
LINE
  5
7EB3
  8
FUTO
 10
10049.222896872479
 20
8039.5395653772712
 30
0.0
 11
10024.222896872479
 21
8039.5395653772712
 31
0.0
  0
LINE
  5
7EB4
  8
FUTO
 10
10057.222896872479
 20
8094.5395653772712
 30
0.0
 11
10052.222896872479
 21
8046.5395653772712
 31
0.0
  0
LINE
  5
7EB5
  8
FUTO
 10
10024.222896872479
 20
8124.5395653772703
 30
0.0
 11
10024.222896872479
 21
8039.5395653772712
 31
0.0
  0
LINE
  5
7EB6
  8
CT
 10
10149.222835872481
 20
8084.5395653772694
 30
0.0
 11
10149.222835872481
 21
8014.5395653772712
 31
0.0
  0
LINE
  5
7EB7
  8
FUTO
 10
10057.222896872479
 20
8094.5395653772712
 30
0.0
 11
10241.222835872481
 21
8094.5395653772712
 31
0.0
  0
LINE
  5
7EB8
  8
FUTO
 10
10199.222835872481
 20
8039.5395653772712
 30
0.0
 11
10419.222835872481
 21
8039.5395653772712
 31
0.0
  0
LINE
  5
7EB9
  8
FUTO
 10
11774.880352216311
 20
8046.5395653772712
 30
0.0
 11
12024.880352216311
 21
8046.5395653772712
 31
0.0
  0
LINE
  5
7EBA
  8
FUTO
 10
11691.880352216311
 20
8039.5395653772712
 30
0.0
 11
12107.880352216311
 21
8039.5395653772712
 31
0.0
  0
LINE
  5
7EBB
  8
FUTO
 10
11715.880352216311
 20
8456.5395653772703
 30
0.0
 11
11715.880352216311
 21
8419.5395653772703
 31
0.0
  0
ARC
  5
7EBC
  8
FUTO
 10
11680.165997216311
 20
8473.6355133772704
 30
0.0
 40
9.9999679999999991
 50
91.999329000023934
 51
135.0
  0
ARC
  5
7EBD
  8
FUTO
 10
11653.172832216311
 20
8446.6423493772709
 30
0.0
 40
10.000024
 50
135.0
 51
177.00096100001281
  0
LINE
  5
7EBE
  8
FUTO
 10
11673.094952216299
 20
8480.706558377271
 30
0.0
 11
11646.101788216311
 21
8453.7133933772693
 31
0.0
  0
LINE
  5
7EBF
  8
FUTO
 10
11705.880352216311
 20
8456.5395653772703
 30
0.0
 11
11710.880352216311
 21
8456.5395653772703
 31
0.0
  0
LINE
  5
7EC0
  8
FUTO
 10
11710.880352216311
 20
8456.5395653772703
 30
0.0
 11
11715.880352216311
 21
8456.5395653772703
 31
0.0
  0
LINE
  5
7EC1
  8
FUTO
 10
11725.25852621631
 20
8491.5395653772703
 30
0.0
 11
11715.880352216311
 21
8456.5395653772703
 31
0.0
  0
LINE
  5
7EC2
  8
FUTO
 10
11705.880352216311
 20
8484.5395653772703
 30
0.0
 11
11679.81712021631
 21
8483.6294093772703
 31
0.0
  0
LINE
  5
7EC4
  8
FUTO
 10
11740.880352216311
 20
8504.5395653772684
 30
0.0
 11
11725.25852621631
 21
8491.5395653772703
 31
0.0
  0
LINE
  5
7EC5
  8
FUTO
 10
11474.380352216311
 20
8328.5395653772703
 30
0.0
 11
11474.380352216311
 21
8264.5395653772703
 31
0.0
  0
ARC
  5
7EC6
  8
FUTO
 10
11626.380352216311
 20
8372.5395653772703
 30
0.0
 40
2.0
 50
90.0
 51
180.0
  0
ARC
  5
7ED5
  8
FUTO
 10
11725.880352216311
 20
8419.5395653772703
 30
0.0
 40
10.0
 50
90.0
 51
180.0
  0
ARC
  5
7ED8
  8
FUTO
 10
11636.5334282163
 20
8377.5395653772703
 30
0.0
 40
2.9999599999999988
 50
270.0
 51
357.00044300001662
  0
LINE
  5
7ED9
  8
FUTO
 10
11636.5334282163
 20
8374.5395653772703
 30
0.0
 11
11626.380352216311
 21
8374.5395653772703
 31
0.0
  0
LINE
  5
7EDA
  8
FUTO
 10
11584.380352216311
 20
8328.5395653772703
 30
0.0
 11
11584.380352216311
 21
8324.5395653772703
 31
0.0
  0
LINE
  5
7EDB
  8
FUTO
 10
11614.380352216311
 20
8327.0395653772703
 30
0.0
 11
11624.380352216311
 21
8327.0395653772703
 31
0.0
  0
LINE
  5
7EDC
  8
FUTO
 10
11614.380352216311
 20
8262.0395653772703
 30
0.0
 11
11624.380352216311
 21
8262.0395653772703
 31
0.0
  0
LINE
  5
7EDD
  8
FUTO
 10
11614.380352216311
 20
8262.0395653772703
 30
0.0
 11
11614.380352216311
 21
8327.0395653772703
 31
0.0
  0
ARC
  5
7EDE
  8
FUTO
 10
11725.880352216311
 20
8319.5395653772703
 30
0.0
 40
10.0
 50
180.0
 51
270.0
  0
LINE
  5
7EDF
  8
FUTO
 10
11624.380352216311
 20
8372.5395653772703
 30
0.0
 11
11624.380352216311
 21
8294.5395653772703
 31
0.0
  0
LINE
  5
7EE0
  8
FUTO
 10
11715.880352216311
 20
8319.5395653772703
 30
0.0
 11
11715.880352216311
 21
8419.5395653772703
 31
0.0
  0
LINE
  5
7EE1
  8
FUTO
 10
11614.380352216311
 20
8324.5395653772703
 30
0.0
 11
11474.380352216311
 21
8324.5395653772703
 31
0.0
  0
LINE
  5
7EE2
  8
FUTO
 10
11614.380352216311
 20
8264.5395653772703
 30
0.0
 11
11474.380352216311
 21
8264.5395653772703
 31
0.0
  0
LINE
  5
7EE3
  8
FUTO
 10
11584.380352216311
 20
8328.5395653772703
 30
0.0
 11
11474.380352216311
 21
8328.5395653772703
 31
0.0
  0
LINE
  5
7EE4
  8
FUTO
 10
11710.880352216311
 20
8456.5395653772703
 30
0.0
 11
11710.880352216311
 21
8294.5395653772703
 31
0.0
  0
LINE
  5
7EE5
  8
FUTO
 10
11705.880352216311
 20
8484.5395653772703
 30
0.0
 11
11705.880352216311
 21
8294.5395653772703
 31
0.0
  0
LINE
  5
7EE6
  8
FUTO
 10
11643.18650421631
 20
8447.16554237727
 30
0.0
 11
11638.54368221631
 21
8358.5742333772705
 31
0.0
  0
LINE
  5
7EE8
  8
FUTO
 10
11710.880352216311
 20
8456.5395653772703
 30
0.0
 11
11710.880352216311
 21
8294.5395653772703
 31
0.0
  0
ARC
  5
7EE9
  8
FUTO
 10
11888.64536721631
 20
8512.8186793772693
 30
0.0
 40
2.9999909999999992
 50
96.115172999988943
 51
174.80557099997009
  0
LINE
  5
7EEA
  8
FUTO
 10
11885.657696216311
 20
8513.0902863772699
 30
0.0
 11
11884.880352216311
 21
8504.5395653772684
 31
0.0
  0
ARC
  5
7EEB
  8
FUTO
 10
11878.921978216311
 20
8505.2693633772706
 30
0.0
 40
5.9999760000000002
 50
354.80557299999322
 51
54.396263000016731
  0
ARC
  5
7EEC
  8
FUTO
 10
11911.11533721631
 20
8512.8186793772693
 30
0.0
 40
2.999981
 50
5.194427000006832
 51
83.884827000011072
  0
ARC
  5
7EED
  8
FUTO
 10
11899.880352216311
 20
8534.5395653772703
 30
0.0
 40
30.0
 50
305.19004800002568
 51
305.60386699999998
  0
LINE
  5
7EEE
  8
FUTO
 10
11899.880352216311
 20
8517.0395653772703
 30
0.0
 11
11911.434917216309
 21
8515.8015893772699
 31
0.0
  0
LINE
  5
7EEF
  8
FUTO
 10
11914.103008216311
 20
8513.0902863772699
 30
0.0
 11
11914.880352216311
 21
8504.5395653772684
 31
0.0
  0
ARC
  5
7EF0
  8
FUTO
 10
11920.838726216311
 20
8505.2693633772706
 30
0.0
 40
5.9999820000000001
 50
125.6037369999832
 51
185.19442700000681
  0
LINE
  5
7EF1
  8
FUTO
 10
11899.880352216311
 20
8517.0395653772703
 30
0.0
 11
11888.32578721631
 21
8515.8015893772699
 31
0.0
  0
LINE
  5
7EF2
  8
FUTO
 10
11888.32578721631
 20
8515.8015893772699
 30
0.0
 11
11911.434917216309
 21
8515.8015893772699
 31
0.0
  0
LINE
  5
7EF3
  8
CT
 10
11939.880352216311
 20
8534.5395653772703
 30
0.0
 11
11859.880352216311
 21
8534.5395653772703
 31
0.0
  0
LINE
  5
7EF4
  8
FUTO
 10
11840.880352216311
 20
8443.5395653772684
 30
0.0
 11
11958.880352216311
 21
8443.5395653772684
 31
0.0
  0
CIRCLE
  5
7EF5
  8
FUTO
 10
11899.880352216311
 20
8534.5395653772703
 30
0.0
 40
17.5
  0
ARC
  5
7EF6
  8
FUTO
 10
11899.880352216311
 20
8534.5395653772703
 30
0.0
 40
30.0
 50
305.60386699999998
 51
234.39614899998969
  0
LINE
  5
7EF7
  8
FUTO
 10
12058.880291216299
 20
8504.5395653772684
 30
0.0
 11
12068.88029121631
 21
8496.2177883772692
 31
0.0
  0
ARC
  5
7EF8
  8
FUTO
 10
12115.353680216311
 20
8478.0395653772703
 30
0.0
 40
20.0
 50
69.99995399998474
 51
90.0
  0
ARC
  5
7EF9
  8
FUTO
 10
12152.629070216301
 20
8507.0395653772703
 30
0.0
 40
20.0
 50
250.00027499999021
 51
270.0
  0
LINE
  5
7EFC
  8
FUTO
 10
12122.19413421631
 20
8496.8335113772682
 30
0.0
 11
12145.788738216301
 21
8488.2456203772708
 31
0.0
  0
LINE
  5
7EFD
  8
FUTO
 10
12068.88029121631
 20
8498.0395653772703
 30
0.0
 11
12115.353680216311
 21
8498.0395653772703
 31
0.0
  0
LINE
  5
7EFE
  8
FUTO
 10
12058.880291216299
 20
8504.5395653772684
 30
0.0
 11
11899.880352216311
 21
8504.5395653772684
 31
0.0
  0
LINE
  5
7EFF
  8
FUTO
 10
11961.88029121631
 20
8436.5395653772703
 30
0.0
 11
11837.880352216311
 21
8436.5395653772703
 31
0.0
  0
ARC
  5
7F00
  8
FUTO
 10
11837.880352216311
 20
8261.8418113772714
 30
0.0
 40
20.0
 50
180.0
 51
270.0
  0
CIRCLE
  5
7F01
  8
FUTO
 10
11899.880352216311
 20
8228.8418113772714
 30
0.0
 40
3.5
  0
LINE
  5
7F02
  8
FUTO
 10
11906.33323321631
 20
8228.8418113772714
 30
0.0
 11
11891.744122216311
 21
8228.8418113772714
 31
0.0
  0
LINE
  5
7F03
  8
FUTO
 10
11837.880352216311
 20
8241.8418113772714
 30
0.0
 11
11961.880352216311
 21
8241.8418113772714
 31
0.0
  0
LINE
  5
7F04
  8
FUTO
 10
11958.88029121631
 20
8221.8418113772714
 30
0.0
 11
11840.880352216311
 21
8221.8418113772714
 31
0.0
  0
LINE
  5
7F05
  8
FUTO
 10
11817.880352216311
 20
8416.5395653772703
 30
0.0
 11
11817.880352216311
 21
8261.8418113772714
 31
0.0
  0
LINE
  5
7F06
  8
FUTO
 10
11810.880352216311
 20
8413.5395653772703
 30
0.0
 11
11810.880352216311
 21
8251.8418113772714
 31
0.0
  0
LINE
  5
7F07
  8
FUTO
 10
12068.88029121631
 20
8429.5395653772703
 30
0.0
 11
11984.257488216301
 21
8429.5395653772703
 31
0.0
  0
LINE
  5
7F0B
  8
FUTO
 10
12068.88029121631
 20
8309.5395653772684
 30
0.0
 11
11988.88029121631
 21
8309.5395653772684
 31
0.0
  0
LINE
  5
7F0C
  8
FUTO
 10
11981.88029121631
 20
8416.5395653772703
 30
0.0
 11
11981.88029121631
 21
8261.8418113772714
 31
0.0
  0
LINE
  5
7F0D
  8
FUTO
 10
11988.88029121631
 20
8413.5395653772703
 30
0.0
 11
11988.88029121631
 21
8251.8418113772714
 31
0.0
  0
ARC
  5
7F0E
  8
FUTO
 10
11961.88029121631
 20
8261.8418113772714
 30
0.0
 40
20.0
 50
270.0
 51
0.000000000000007
  0
LINE
  5
7F0F
  8
CT
 10
12008.88029121631
 20
8369.5395653772703
 30
0.0
 11
11790.880352216311
 21
8369.5395653772703
 31
0.0
  0
ARC
  5
7F10
  8
FUTO
 10
11961.88029121631
 20
8416.5395653772703
 30
0.0
 40
20.0
 50
0.000000000000007
 51
90.0
  0
ARC
  5
7F11
  8
FUTO
 10
11837.880352216311
 20
8416.5395653772703
 30
0.0
 40
20.0
 50
90.0
 51
180.0
  0
ARC
  5
7F12
  8
FUTO
 10
11840.880352216311
 20
8413.5395653772703
 30
0.0
 40
30.0
 50
90.0
 51
180.0
  0
ARC
  5
7F13
  8
FUTO
 10
11958.88029121631
 20
8413.5395653772703
 30
0.0
 40
30.0
 50
0.000000000000007
 51
90.0
  0
LINE
  5
7F18
  8
FUTO
 10
11740.880352216311
 20
8504.5395653772684
 30
0.0
 11
11899.880352216311
 21
8504.5395653772684
 31
0.0
  0
LINE
  5
7F19
  8
FUTO
 10
11725.880352216311
 20
8429.5395653772703
 30
0.0
 11
11815.5031552163
 21
8429.5395653772703
 31
0.0
  0
LINE
  5
7F1A
  8
FUTO
 10
11725.880352216311
 20
8309.5395653772684
 30
0.0
 11
11810.880352216311
 21
8309.5395653772684
 31
0.0
  0
ARC
  5
7F1B
  8
FUTO
 10
11626.380352216311
 20
8216.5395653772703
 30
0.0
 40
2.0
 50
180.0
 51
270.0
  0
ARC
  5
7F1C
  8
FUTO
 10
11636.5334282163
 20
8211.5395653772703
 30
0.0
 40
3.0
 50
2.9995570000354208
 51
90.0
  0
ARC
  5
7F1D
  8
FUTO
 10
11651.22996121631
 20
8179.5078273772688
 30
0.0
 40
10.000139999999989
 50
183.00042699998181
 51
225.00097699998821
  0
ARC
  5
7F2C
  8
FUTO
 10
11653.172832216311
 20
8142.43678237727
 30
0.0
 40
9.9999679999999991
 50
182.9990540000266
 51
225.0
  0
LINE
  5
7F2D
  8
FUTO
 10
11715.880352216311
 20
8142.7788233772699
 30
0.0
 11
11734.96897521631
 21
8142.7788233772699
 31
0.0
  0
LINE
  5
7F2E
  8
FUTO
 10
11716.91624121631
 20
8132.5395653772694
 30
0.0
 11
11710.880352216311
 21
8132.5395653772694
 31
0.0
  0
LINE
  5
7F2F
  8
FUTO
 10
11705.880352216311
 20
8132.5395653772694
 30
0.0
 11
11710.880352216311
 21
8132.5395653772694
 31
0.0
  0
ARC
  5
7F30
  8
FUTO
 10
11722.880352216311
 20
8111.5395653772703
 30
0.0
 40
3.0
 50
90.0
 51
180.0
  0
ARC
  5
7F31
  8
FUTO
 10
11729.96897521631
 20
8119.5395653772712
 30
0.0
 40
5.0
 50
270.0
 51
0.000000000000007
  0
LINE
  5
7F32
  8
FUTO
 10
11715.880352216311
 20
8135.6660303772696
 30
0.0
 11
11718.438946216311
 21
8135.6660303772696
 31
0.0
  0
LINE
  5
7F33
  8
FUTO
 10
11722.880352216311
 20
8114.5395653772703
 30
0.0
 11
11715.880352216311
 21
8135.6660303772696
 31
0.0
  0
LINE
  5
7F34
  8
FUTO
 10
11734.96897521631
 20
8119.5395653772712
 30
0.0
 11
11734.96897521631
 21
8142.7788233772699
 31
0.0
  0
LINE
  5
7F35
  8
FUTO
 10
11726.038555216301
 20
8114.5395653772703
 30
0.0
 11
11715.880352216311
 21
8142.7788233772699
 31
0.0
  0
LINE
  5
7F38
  8
FUTO
 10
11639.511700216301
 20
8212.0348053772686
 30
0.0
 11
11643.18650421631
 21
8141.9135893772709
 31
0.0
  0
LINE
  5
7F3A
  8
FUTO
 10
11672.951397216309
 20
8143.644302377269
 30
0.0
 11
11644.158916216311
 21
8172.4365383772711
 31
0.0
  0
LINE
  5
7F3D
  8
FUTO
 10
11636.5334282163
 20
8214.5395653772703
 30
0.0
 11
11626.380352216311
 21
8214.5395653772703
 31
0.0
  0
ARC
  5
7F3E
  8
FUTO
 10
11680.165997216311
 20
8115.4436183772696
 30
0.0
 40
9.9999839999999995
 50
225.0
 51
268.00067099997602
  0
LINE
  5
7F3F
  8
FUTO
 10
11705.880352216311
 20
8104.5395653772712
 30
0.0
 11
11679.81712021631
 21
8105.4497223772714
 31
0.0
  0
LINE
  5
7F40
  8
FUTO
 10
11719.880352216311
 20
8094.5395653772712
 30
0.0
 11
11719.880352216311
 21
8111.5395653772703
 31
0.0
  0
LINE
  5
7F41
  8
FUTO
 10
11673.094952216299
 20
8108.3725733772699
 30
0.0
 11
11646.101788216311
 21
8135.3657373772703
 31
0.0
  0
LINE
  5
7F42
  8
FUTO
 10
11860.28025421631
 20
8116.1474763772694
 30
0.0
 11
11779.880352216311
 21
8114.5395653772703
 31
0.0
  0
ARC
  5
7F43
  8
FUTO
 10
11874.880352216311
 20
8177.0356593772713
 30
0.0
 40
5.0
 50
0.000000000000007
 51
90.0
  0
ARC
  5
7F44
  8
FUTO
 10
11924.880352216311
 20
8177.0356593772713
 30
0.0
 40
5.0
 50
90.0
 51
180.0
  0
ARC
  5
7F45
  8
FUTO
 10
11939.88029121631
 20
8136.143569377271
 30
0.0
 40
20.000091999999999
 50
180.0
 51
268.85427899999053
  0
LINE
  5
7F46
  8
FUTO
 10
11919.880352216311
 20
8177.0356593772713
 30
0.0
 11
11919.880352216311
 21
8136.143569377271
 31
0.0
  0
LINE
  5
7F47
  8
FUTO
 10
11879.880352216311
 20
8177.0356593772713
 30
0.0
 11
11879.880352216311
 21
8136.143569377271
 31
0.0
  0
ARC
  5
7F48
  8
FUTO
 10
11859.880352216311
 20
8136.143569377271
 30
0.0
 40
20.0
 50
271.14572100000942
 51
0.000000000000007
  0
LINE
  5
7F49
  8
FUTO
 10
11799.880352216311
 20
8094.5395653772712
 30
0.0
 11
11799.880352216311
 21
8095.5395653772703
 31
0.0
  0
ARC
  5
7F4A
  8
FUTO
 10
11804.880352216311
 20
8095.5395653772703
 30
0.0
 40
5.0
 50
90.0
 51
180.0
  0
LINE
  5
7F4B
  8
FUTO
 10
11804.880352216311
 20
8100.5395653772712
 30
0.0
 11
11899.880352216311
 21
8100.5395653772712
 31
0.0
  0
ARC
  5
7F4C
  8
FUTO
 10
12076.880291216299
 20
8111.5395653772703
 30
0.0
 40
3.0
 50
0.000000000000007
 51
90.0
  0
LINE
  5
7F4D
  8
FUTO
 10
12019.88029121631
 20
8114.5395653772703
 30
0.0
 11
12027.55984414062
 21
8114.5395653772703
 31
0.0
  0
ARC
  5
7F57
  8
FUTO
 10
11994.880291216299
 20
8095.5395653772703
 30
0.0
 40
5.0
 50
0.000000000000007
 51
90.0
  0
LINE
  5
7F58
  8
FUTO
 10
11999.88029121631
 20
8094.5395653772712
 30
0.0
 11
11999.88029121631
 21
8095.5395653772703
 31
0.0
  0
LINE
  5
7F59
  8
FUTO
 10
11999.88029121631
 20
8094.5395653772712
 30
0.0
 11
12024.880352216311
 21
8094.5395653772712
 31
0.0
  0
LINE
  5
7F5A
  8
FUTO
 10
12139.486370216309
 20
8098.5395653772703
 30
0.0
 11
12149.102337216311
 21
8102.0395653772712
 31
0.0
  0
LINE
  5
7F5B
  8
FUTO
 10
12139.486370216309
 20
8098.5395653772703
 30
0.0
 11
12079.88029121631
 21
8098.5395653772703
 31
0.0
  0
LINE
  5
7F5C
  8
FUTO
 10
12079.88029121631
 20
8094.5395653772712
 30
0.0
 11
12079.88029121631
 21
8111.5395653772703
 31
0.0
  0
LINE
  5
7F5D
  8
FUTO
 10
11939.480389216311
 20
8116.1474763772694
 30
0.0
 11
12019.88029121631
 21
8114.5395653772703
 31
0.0
  0
LINE
  5
7F5E
  8
FUTO
 10
11994.880291216299
 20
8100.5395653772712
 30
0.0
 11
11899.880352216311
 21
8100.5395653772712
 31
0.0
  0
LINE
  5
7F5F
  8
FUTO
 10
11779.880352216311
 20
8114.5395653772703
 30
0.0
 11
11772.20086029199
 21
8114.5395653772703
 31
0.0
  0
LINE
  5
7F60
  8
FUTO
 10
11799.880352216311
 20
8094.5395653772712
 30
0.0
 11
11774.880352216311
 21
8094.5395653772712
 31
0.0
  0
ARC
  5
7F61
  8
FUTO
 10
11958.88029121631
 20
8251.8418113772714
 30
0.0
 40
30.0
 50
270.0
 51
0.000000000000007
  0
ARC
  5
7F62
  8
FUTO
 10
11840.880352216311
 20
8251.8418113772714
 30
0.0
 40
30.0
 50
180.0
 51
270.0
  0
LINE
  5
7F63
  8
CT
 10
11899.880352216311
 20
8584.5395653772684
 30
0.0
 11
11899.880352216311
 21
8014.5395653772712
 31
0.0
  0
LINE
  5
7F64
  8
FUTO
 10
11710.880352216311
 20
8132.5395653772694
 30
0.0
 11
11710.880352216311
 21
8294.5395653772703
 31
0.0
  0
LINE
  5
7F65
  8
FUTO
 10
12068.88029121631
 20
8498.0395653772703
 30
0.0
 11
12068.88029121631
 21
8114.5395653772703
 31
0.0
  0
LINE
  5
7F66
  8
FUTO
 10
12118.880291216299
 20
8497.7260893772691
 30
0.0
 11
12118.880291216299
 21
8098.5395653772703
 31
0.0
  0
LINE
  5
7F67
  8
FUTO
 10
12149.080242216311
 20
8487.3569483772699
 30
0.0
 11
12149.080242216311
 21
8102.0395653772712
 31
0.0
  0
LINE
  5
7F68
  8
FUTO
 10
11710.880352216311
 20
8132.5395653772694
 30
0.0
 11
11710.880352216311
 21
8294.5395653772703
 31
0.0
  0
LINE
  5
7F69
  8
FUTO
 10
11705.880352216311
 20
8104.5395653772712
 30
0.0
 11
11705.880352216311
 21
8294.5395653772703
 31
0.0
  0
LINE
  5
7F6A
  8
FUTO
 10
11624.380352216311
 20
8216.5395653772703
 30
0.0
 11
11624.380352216311
 21
8294.5395653772703
 31
0.0
  0
ARC
  5
7F6B
  8
FUTO
 10
12213.569378216311
 20
8472.0395653772703
 30
0.0
 40
15.0
 50
60.00018299999563
 51
90.0
  0
ARC
  5
7F6C
  8
FUTO
 10
12268.88029121631
 20
8451.6528473772705
 30
0.0
 40
4.9999580000000003
 50
0.000000000000007
 51
59.999718000001181
  0
LINE
  5
7F6D
  8
FUTO
 10
12271.38029121631
 20
8455.9829253772677
 30
0.0
 11
12221.069378216311
 21
8485.0300443772703
 31
0.0
  0
LINE
  5
7F6E
  8
FUTO
 10
10540.282649872481
 20
8440.7685693772692
 30
0.0
 11
10538.875056872481
 21
8440.0078273772706
 31
0.0
  0
ARC
  5
7F6F
  8
FUTO
 10
10540.75811387248
 20
8439.8886863772714
 30
0.0
 40
1.000079999999999
 50
28.39501399997588
 51
118.3855359999758
  0
ARC
  5
7F70
  8
FUTO
 10
10539.35052087248
 20
8439.1279443772728
 30
0.0
 40
1.0001299999999991
 50
118.3855359999758
 51
208.3860319999763
  0
LINE
  5
7F71
  8
FUTO
 10
10459.44427087248
 20
8439.2946923772724
 30
0.0
 11
10460.29290387248
 21
8439.2946923772724
 31
0.0
  0
LINE
  5
7F72
  8
FUTO
 10
10459.44427087248
 20
8439.2946923772724
 30
0.0
 11
10459.44427087248
 21
8440.1433253772702
 31
0.0
  0
LINE
  5
7F73
  8
FUTO
 10
10451.69073087248
 20
8447.0483543772716
 30
0.0
 11
10448.098567872479
 21
8443.4563133772699
 31
0.0
  0
LINE
  5
7F74
  8
FUTO
 10
10452.53924187248
 20
8447.0483543772716
 30
0.0
 11
10451.69073087248
 21
8447.0483543772716
 31
0.0
  0
LINE
  5
7F75
  8
FUTO
 10
10453.97808487248
 20
8444.7610013772719
 30
0.0
 11
10453.97808487248
 21
8445.6096343772715
 31
0.0
  0
LINE
  5
7F76
  8
FUTO
 10
10453.97808487248
 20
8444.7610013772719
 30
0.0
 11
10450.385921872479
 21
8441.1689603772702
 31
0.0
  0
LINE
  5
7F77
  8
FUTO
 10
10453.97808487248
 20
8444.7610013772719
 30
0.0
 11
10454.82659487248
 21
8444.7610013772719
 31
0.0
  0
LINE
  5
7F78
  8
FUTO
 10
10655.27849987248
 20
8230.1101223772712
 30
0.0
 11
10658.076839872479
 21
8231.6225733772699
 31
0.0
  0
ARC
  5
7F79
  8
FUTO
 10
10659.62920787248
 20
8219.9577783772711
 30
0.0
 40
1.0001299999999991
 50
298.38552900002043
 51
28.382720999977689
  0
ARC
  5
7F7A
  8
FUTO
 10
9660.8519858724831
 20
8306.0708153772703
 30
0.0
 40
1000.0
 50
355.7304690000102
 51
5.1562809999889501
  0
LINE
  5
7F7B
  8
FUTO
 10
10540.191951872481
 20
8435.4682763772707
 30
0.0
 11
10531.845515872479
 21
8430.9570463772707
 31
0.0
  0
ARC
  5
7F7C
  8
FUTO
 10
10534.222835872481
 20
8426.5583643772716
 30
0.0
 40
5.000062999999999
 50
118.3907549999861
 51
180.0
  0
LINE
  5
7F7D
  8
CT
 10
10511.77801087248
 20
8369.5395653772703
 30
0.0
 11
10548.211360872479
 21
8369.5395653772703
 31
0.0
  0
LINE
  5
7F7E
  8
FUTO
 10
10461.73162487248
 20
8437.0073393772727
 30
0.0
 11
10458.13958387248
 21
8433.415298377271
 31
0.0
  0
LINE
  5
7F7F
  8
FUTO
 10
10461.73162487248
 20
8437.0073393772727
 30
0.0
 11
10461.73162487248
 21
8437.8559723772705
 31
0.0
  0
LINE
  5
7F80
  8
FUTO
 10
10530.208736872481
 20
8429.5395653772703
 30
0.0
 11
10461.496516872479
 21
8429.5395653772703
 31
0.0
  0
LINE
  5
7F81
  8
FUTO
 10
10529.222835872481
 20
8309.5395653772684
 30
0.0
 11
10512.169368872481
 21
8309.5395653772684
 31
0.0
  0
ARC
  5
7F82
  8
FUTO
 10
10548.050715872479
 20
8239.5395653772703
 30
0.0
 40
10.000057999999999
 50
187.1243290000296
 51
270.0
  0
LINE
  5
7F83
  8
FUTO
 10
10529.222835872481
 20
8309.5395653772684
 30
0.0
 11
10538.12786487248
 21
8238.2993313772713
 31
0.0
  0
LINE
  5
7F84
  8
FUTO
 10
10519.222835872481
 20
8309.5395653772684
 30
0.0
 11
10519.222835872481
 21
8429.5395653772703
 31
0.0
  0
LINE
  5
7F85
  8
FUTO
 10
10529.222835872481
 20
8309.5395653772684
 30
0.0
 11
10529.222835872481
 21
8426.5583643772716
 31
0.0
  0
LINE
  5
7F86
  8
FUTO
 10
10651.49486887248
 20
8229.5395653772703
 30
0.0
 11
10548.050715872479
 21
8229.5395653772703
 31
0.0
  0
LINE
  5
7F87
  8
FUTO
 10
10543.358943872479
 20
8437.1799463772713
 30
0.0
 11
10619.542171872479
 21
8432.2653953772715
 31
0.0
  0
ARC
  5
7F88
  8
FUTO
 10
10616.96721987248
 20
8392.3484033772711
 30
0.0
 40
40.000011000000001
 50
5.1563729999685757
 51
86.309097000000321
  0
LINE
  5
7F89
  8
FUTO
 10
10541.63787487248
 20
8440.3642723772718
 30
0.0
 11
10660.50896787248
 21
8220.4331203772708
 31
0.0
  0
LINE
  5
7F8A
  8
FUTO
 10
10448.098567872479
 20
8443.4563133772699
 30
0.0
 11
10458.13958387248
 21
8433.415298377271
 31
0.0
  0
LINE
  5
7F8B
  8
CT
 10
10457.66387587248
 20
8442.9804833772705
 30
0.0
 11
10452.41570687248
 21
8437.7324363772714
 31
0.0
  0
LINE
  5
7F8C
  8
FUTO
 10
10452.53924187248
 20
8447.0483543772716
 30
0.0
 11
10461.73162487248
 21
8437.8559723772705
 31
0.0
  0
LINE
  5
7F8D
  8
FUTO
 10
10459.44427087248
 20
8439.2946923772724
 30
0.0
 11
10455.85222987248
 21
8435.7026513772707
 31
0.0
  0
ARC
  5
7F8E
  8
FUTO
 10
10309.222835872481
 20
8558.2895653772703
 30
0.0
 40
6.25
 50
0.000000000000007
 51
180.0
  0
LINE
  5
7F8F
  8
FUTO
 10
10325.81959187248
 20
8500.9583893772724
 30
0.0
 11
10325.65952687248
 21
8497.3745873772714
 31
0.0
  0
LINE
  5
7F90
  8
FUTO
 10
10315.472835872481
 20
8516.369949377271
 30
0.0
 11
10320.777400872479
 21
8515.8015893772699
 31
0.0
  0
ARC
  5
7F91
  8
FUTO
 10
10320.45780587248
 20
8512.8186793772711
 30
0.0
 40
3.0000059999999991
 50
5.1944030000043186
 51
83.884536999966215
  0
LINE
  5
7F92
  8
FUTO
 10
10302.972835872481
 20
8516.369949377271
 30
0.0
 11
10297.66826987248
 21
8515.8015893772699
 31
0.0
  0
ARC
  5
7F93
  8
FUTO
 10
10322.222835872481
 20
8501.5395653772684
 30
0.0
 40
3.0
 50
46.130962000013298
 51
90.0
  0
ARC
  5
7F94
  8
FUTO
 10
10309.222835872481
 20
8294.5395653772703
 30
0.0
 40
209.99987799999991
 50
86.233009000037342
 51
86.266975000016416
  0
ARC
  5
7F95
  8
FUTO
 10
10322.700038872479
 20
8501.1002953772713
 30
0.0
 40
3.0001099999999989
 50
86.265807999991694
 51
175.05505399999171
  0
ARC
  5
7F96
  8
FUTO
 10
10322.222835872481
 20
8501.5395653772684
 30
0.0
 40
3.0
 50
47.440357000007118
 51
90.0
  0
LINE
  5
7F97
  8
FUTO
 10
10319.711268872479
 20
8501.3588403772683
 30
0.0
 11
10319.402186872479
 21
8497.7847443772698
 31
0.0
  0
LINE
  5
7F98
  8
FUTO
 10
10298.734523872479
 20
8501.3588403772683
 30
0.0
 11
10299.043605872481
 21
8497.7847443772698
 31
0.0
  0
ARC
  5
7F99
  8
FUTO
 10
10299.972835872481
 20
8509.9721833772692
 30
0.0
 40
3.0
 50
270.0
 51
0.000000000000007
  0
ARC
  5
7F9A
  8
FUTO
 10
10318.472835872481
 20
8510.2603913772691
 30
0.0
 40
3.0
 50
180.0
 51
270.0
  0
LINE
  5
7F9B
  8
FUTO
 10
10323.44549187248
 20
8513.0902863772699
 30
0.0
 11
10324.222835872481
 21
8504.5395653772684
 31
0.0
  0
ARC
  5
7F9C
  8
FUTO
 10
10322.82261287248
 20
8501.0923003772714
 30
0.0
 40
3.000081999999999
 50
357.44171099996208
 51
86.234252999979262
  0
ARC
  5
7F9D
  8
FUTO
 10
10309.222835872481
 20
8294.5395653772703
 30
0.0
 40
209.99998500000001
 50
93.732994000026721
 51
93.766990999962644
  0
ARC
  5
7F9E
  8
FUTO
 10
10295.62317987248
 20
8501.0922393772689
 30
0.0
 40
2.9999649999999991
 50
93.767860000028065
 51
182.55722000000901
  0
LINE
  5
7F9F
  8
FUTO
 10
10292.626201872479
 20
8500.9583893772724
 30
0.0
 11
10292.786265872481
 21
8497.3745873772714
 31
0.0
  0
LINE
  5
7FA0
  8
FUTO
 10
10295.00017887248
 20
8513.0902863772699
 30
0.0
 11
10294.222835872481
 21
8504.5395653772684
 31
0.0
  0
ARC
  5
7FA1
  8
FUTO
 10
10296.222835872481
 20
8501.5395653772684
 30
0.0
 40
3.0
 50
90.0
 51
133.88737499997529
  0
LINE
  5
7FA2
  8
FUTO
 10
10324.222835872481
 20
8504.5395653772684
 30
0.0
 11
10294.222835872481
 21
8504.5395653772684
 31
0.0
  0
ARC
  5
7FA3
  8
FUTO
 10
10296.222835872481
 20
8501.5395653772684
 30
0.0
 40
3.0
 50
90.0
 51
133.8315120000008
  0
ARC
  5
7FA4
  8
FUTO
 10
10297.987865872479
 20
8512.8186793772711
 30
0.0
 40
2.9999820000000001
 50
96.115463000033785
 51
174.80560300000801
  0
ARC
  5
7FA5
  8
FUTO
 10
10295.74563187248
 20
8501.1002953772713
 30
0.0
 40
3.0000490000000002
 50
4.9438900000065571
 51
93.731941000007794
  0
LINE
  5
7FA6
  8
FUTO
 10
10166.75506187248
 20
8447.0483543772716
 30
0.0
 11
10170.34710287248
 21
8443.4563133772699
 31
0.0
  0
LINE
  5
7FA7
  8
FUTO
 10
10166.75506187248
 20
8447.0483543772716
 30
0.0
 11
10165.90642887248
 21
8447.0483543772716
 31
0.0
  0
LINE
  5
7FA8
  8
FUTO
 10
10159.001399872481
 20
8439.2949363772714
 30
0.0
 11
10158.152766872479
 21
8439.2949363772714
 31
0.0
  0
LINE
  5
7FA9
  8
FUTO
 10
10159.001399872481
 20
8439.2949363772714
 30
0.0
 11
10159.001399872481
 21
8440.1433253772702
 31
0.0
  0
LINE
  5
7FAA
  8
FUTO
 10
10164.46770887248
 20
8444.7610013772719
 30
0.0
 11
10164.46770887248
 21
8445.6096343772715
 31
0.0
  0
LINE
  5
7FAB
  8
FUTO
 10
10164.46770887248
 20
8444.7610013772719
 30
0.0
 11
10163.619075872481
 21
8444.7610013772719
 31
0.0
  0
LINE
  5
7FAC
  8
FUTO
 10
10164.46770887248
 20
8444.7610013772719
 30
0.0
 11
10168.05974987248
 21
8441.1689603772702
 31
0.0
  0
LINE
  5
7FAD
  8
FUTO
 10
10302.972835872481
 20
8558.2895653772703
 30
0.0
 11
10302.972835872481
 21
8509.9721833772692
 31
0.0
  0
LINE
  5
7FAE
  8
FUTO
 10
10315.472835872481
 20
8558.2895653772703
 30
0.0
 11
10315.472835872481
 21
8510.2603913772691
 31
0.0
  0
LINE
  5
7FAF
  8
FUTO
 10
10156.714046872479
 20
8437.0073393772727
 30
0.0
 11
10160.306087872479
 21
8433.415298377271
 31
0.0
  0
LINE
  5
7FB0
  8
FUTO
 10
10156.714046872479
 20
8437.8559723772705
 30
0.0
 11
10156.714046872479
 21
8437.0073393772727
 31
0.0
  0
LINE
  5
7FB1
  8
FUTO
 10
10160.306087872479
 20
8433.415298377271
 30
0.0
 11
10170.34710287248
 21
8443.4563133772699
 31
0.0
  0
LINE
  5
7FB2
  8
CT
 10
10160.78191787248
 20
8442.9804833772705
 30
0.0
 11
10166.029964872479
 21
8437.7324363772714
 31
0.0
  0
LINE
  5
7FB3
  8
FUTO
 10
10156.714046872479
 20
8437.8559723772705
 30
0.0
 11
10165.90642887248
 21
8447.0483543772716
 31
0.0
  0
LINE
  5
7FB4
  8
FUTO
 10
10159.001399872481
 20
8439.2949363772714
 30
0.0
 11
10162.593440872481
 21
8435.7026513772707
 31
0.0
  0
LINE
  5
7FB5
  8
CT
 10
10085.722835872481
 20
8064.5395653772721
 30
0.0
 11
10532.722835872481
 21
8064.5395653772721
 31
0.0
  0
ARC
  5
7FB6
  8
FUTO
 10
12268.88029121631
 20
8137.4262843772713
 30
0.0
 40
5.0
 50
300.00027499997202
 51
0.000000000000007
  0
ARC
  5
7FB7
  8
FUTO
 10
10658.22161487248
 20
8219.1970363772725
 30
0.0
 40
1.000079999999999
 50
208.39501999997901
 51
298.38552900002043
  0
ARC
  5
7FB8
  8
FUTO
 10
12213.569378216311
 20
8117.0395653772703
 30
0.0
 40
15.000085
 50
270.0
 51
299.99981700000433
  0
LINE
  5
7FB9
  8
FUTO
 10
12271.38029121631
 20
8133.0962063772704
 30
0.0
 11
12221.069378216311
 21
8104.0490873772706
 31
0.0
  0
ARC
  5
7FBA
  8
FUTO
 10
10493.222835872481
 20
8168.8662263772712
 30
0.0
 40
5.0
 50
0.000000000000007
 51
55.056338999992313
  0
LINE
  5
7FBB
  8
FUTO
 10
10496.08672687248
 20
8172.9648583772696
 30
0.0
 11
10480.148860872479
 21
8184.101333377268
 31
0.0
  0
ARC
  5
7FBC
  8
FUTO
 10
10495.222835872481
 20
8111.5395653772703
 30
0.0
 40
3.0
 50
0.000000000000007
 51
90.0
  0
LINE
  5
7FBD
  8
FUTO
 10
10461.73162487248
 20
8152.07179237727
 30
0.0
 11
10458.13958387248
 21
8155.6638333772689
 31
0.0
  0
LINE
  5
7FBE
  8
FUTO
 10
10461.73162487248
 20
8151.2231593772722
 30
0.0
 11
10461.73162487248
 21
8152.07179237727
 31
0.0
  0
LINE
  5
7FBF
  8
FUTO
 10
10459.44427087248
 20
8149.784194377271
 30
0.0
 11
10460.29290387248
 21
8149.784194377271
 31
0.0
  0
LINE
  5
7FC0
  8
FUTO
 10
10459.44427087248
 20
8149.784194377271
 30
0.0
 11
10459.44427087248
 21
8148.9358063772715
 31
0.0
  0
LINE
  5
7FC1
  8
FUTO
 10
10451.690608872481
 20
8142.0307763772707
 30
0.0
 11
10448.098567872479
 21
8145.6228173772706
 31
0.0
  0
LINE
  5
7FC2
  8
FUTO
 10
10451.690608872481
 20
8142.0307763772707
 30
0.0
 11
10452.53924187248
 21
8142.0307763772707
 31
0.0
  0
LINE
  5
7FC3
  8
FUTO
 10
10453.977962872479
 20
8144.3181303772699
 30
0.0
 11
10453.977962872479
 21
8143.4694973772712
 31
0.0
  0
LINE
  5
7FC4
  8
FUTO
 10
10453.977962872479
 20
8144.3181303772699
 30
0.0
 11
10450.385921872479
 21
8147.9101713772707
 31
0.0
  0
LINE
  5
7FC5
  8
FUTO
 10
10453.977962872479
 20
8144.3181303772699
 30
0.0
 11
10454.82659487248
 21
8144.3181303772699
 31
0.0
  0
LINE
  5
7FC6
  8
FUTO
 10
10458.13958387248
 20
8155.6638333772689
 30
0.0
 11
10448.098567872479
 21
8145.6228173772706
 31
0.0
  0
LINE
  5
7FC7
  8
CT
 10
10457.663753872481
 20
8146.09864737727
 30
0.0
 11
10452.41570687248
 21
8151.3466943772719
 31
0.0
  0
LINE
  5
7FC8
  8
FUTO
 10
10461.73162487248
 20
8151.2231593772722
 30
0.0
 11
10452.53924187248
 21
8142.0307763772707
 31
0.0
  0
LINE
  5
7FC9
  8
FUTO
 10
10459.44427087248
 20
8149.784194377271
 30
0.0
 11
10455.85222987248
 21
8153.3764793772707
 31
0.0
  0
ARC
  5
7FCA
  8
FUTO
 10
10421.722835872481
 20
8111.5395653772703
 30
0.0
 40
3.0
 50
90.0
 51
180.0
  0
LINE
  5
7FCB
  8
FUTO
 10
10421.722835872481
 20
8114.5395653772703
 30
0.0
 11
10495.222835872481
 21
8114.5395653772703
 31
0.0
  0
LINE
  5
7FCC
  8
FUTO
 10
10498.222835872481
 20
8094.5395653772712
 30
0.0
 11
10418.722835872481
 21
8094.5395653772712
 31
0.0
  0
LINE
  5
7FCD
  8
FUTO
 10
10418.722835872481
 20
8111.5395653772703
 30
0.0
 11
10418.722835872481
 21
8094.5395653772712
 31
0.0
  0
LINE
  5
7FCE
  8
FUTO
 10
10413.325618872481
 20
8119.6828763772701
 30
0.0
 11
10418.722835872481
 21
8099.5395653772703
 31
0.0
  0
LINE
  5
7FCF
  8
CT
 10
10468.222835872481
 20
8124.5395653772703
 30
0.0
 11
10468.222835872481
 21
8084.5395653772694
 31
0.0
  0
LINE
  5
7FD0
  8
FUTO
 10
10498.222835872481
 20
8168.8662263772712
 30
0.0
 11
10498.222835872481
 21
8094.5395653772712
 31
0.0
  0
LINE
  5
7FD1
  8
FUTO
 10
10122.359065872481
 20
8172.9648583772696
 30
0.0
 11
10138.296931872481
 21
8184.101333377268
 31
0.0
  0
ARC
  5
7FD2
  8
FUTO
 10
10196.722835872481
 20
8111.5395653772703
 30
0.0
 40
3.0
 50
0.000000000000007
 51
90.0
  0
LINE
  5
7FD3
  8
FUTO
 10
10156.714046872479
 20
8152.07179237727
 30
0.0
 11
10160.306087872479
 21
8155.6638333772689
 31
0.0
  0
LINE
  5
7FD4
  8
FUTO
 10
10156.714046872479
 20
8152.07179237727
 30
0.0
 11
10156.714046872479
 21
8151.2231593772722
 31
0.0
  0
LINE
  5
7FD5
  8
FUTO
 10
10166.75506187248
 20
8142.0307763772707
 30
0.0
 11
10170.34710287248
 21
8145.6228173772706
 31
0.0
  0
LINE
  5
7FD6
  8
FUTO
 10
10165.90642887248
 20
8142.0307763772707
 30
0.0
 11
10166.75506187248
 21
8142.0307763772707
 31
0.0
  0
LINE
  5
7FD7
  8
FUTO
 10
10164.467464872479
 20
8144.3181303772699
 30
0.0
 11
10164.467464872479
 21
8143.4694973772712
 31
0.0
  0
LINE
  5
7FD8
  8
FUTO
 10
10164.467464872479
 20
8144.3181303772699
 30
0.0
 11
10163.619075872481
 21
8144.3181303772699
 31
0.0
  0
LINE
  5
7FD9
  8
FUTO
 10
10159.001399872481
 20
8149.7844383772699
 30
0.0
 11
10158.152766872479
 21
8149.7844383772699
 31
0.0
  0
LINE
  5
7FDA
  8
FUTO
 10
10159.001399872481
 20
8149.7844383772699
 30
0.0
 11
10159.001399872481
 21
8148.9358063772715
 31
0.0
  0
LINE
  5
7FDB
  8
FUTO
 10
10164.467464872479
 20
8144.3181303772699
 30
0.0
 11
10168.05974987248
 21
8147.9101713772707
 31
0.0
  0
LINE
  5
7FDC
  8
FUTO
 10
10170.34710287248
 20
8145.6228173772706
 30
0.0
 11
10160.306087872479
 21
8155.6638333772689
 31
0.0
  0
LINE
  5
7FDD
  8
CT
 10
10160.78191787248
 20
8146.09864737727
 30
0.0
 11
10166.029964872479
 21
8151.3466943772719
 31
0.0
  0
LINE
  5
7FDE
  8
FUTO
 10
10165.90642887248
 20
8142.0307763772707
 30
0.0
 11
10156.714046872479
 21
8151.2231593772722
 31
0.0
  0
LINE
  5
7FDF
  8
FUTO
 10
10159.001399872481
 20
8149.7844383772699
 30
0.0
 11
10162.593440872481
 21
8153.3764793772707
 31
0.0
  0
LINE
  5
7FE0
  8
FUTO
 10
10196.722835872481
 20
8114.5395653772703
 30
0.0
 11
10123.222835872481
 21
8114.5395653772703
 31
0.0
  0
LINE
  5
7FE1
  8
FUTO
 10
10199.722835872481
 20
8111.5395653772703
 30
0.0
 11
10199.722835872481
 21
8094.5395653772712
 31
0.0
  0
LINE
  5
7FE2
  8
FUTO
 10
10205.12026587248
 20
8119.6827543772697
 30
0.0
 11
10199.722835872481
 21
8099.5395653772703
 31
0.0
  0
LINE
  5
7FE3
  8
CT
 10
10150.222835872481
 20
8124.5395653772703
 30
0.0
 11
10150.222835872481
 21
8084.5395653772694
 31
0.0
  0
LINE
  5
7FE4
  8
FUTO
 10
10120.222835872481
 20
8168.8662263772712
 30
0.0
 11
10120.222835872481
 21
8094.5395653772712
 31
0.0
  0
LINE
  5
7FE5
  8
FUTO
 10
10120.222835872481
 20
8094.5395653772712
 30
0.0
 11
10199.722835872481
 21
8094.5395653772712
 31
0.0
  0
ARC
  5
7FE6
  8
FUTO
 10
10125.222835872481
 20
8168.8662263772712
 30
0.0
 40
5.0000669999999987
 50
124.9436649999749
 51
180.0
  0
ARC
  5
7FE7
  8
FUTO
 10
10123.222835872481
 20
8111.5395653772703
 30
0.0
 40
3.0
 50
90.0
 51
180.0
  0
LINE
  5
7FE8
  8
FUTO
 10
10363.96087287248
 20
8098.5395653772703
 30
0.0
 11
10254.48479887248
 21
8098.5395653772703
 31
0.0
  0
LINE
  5
7FE9
  8
CT
 10
10309.222835872481
 20
8584.5395653772684
 30
0.0
 11
10309.222835872481
 21
8014.5395653772712
 31
0.0
  0
ARC
  5
7FEA
  8
FUTO
 10
10309.222835872481
 20
8294.5395653772703
 30
0.0
 40
203.5
 50
285.60375999997461
 51
254.39630099999039
  0
LINE
  5
7FEB
  8
FUTO
 10
12214.780315216311
 20
8102.0395653772712
 30
0.0
 11
12214.780315216311
 21
8486.9904933772705
 31
0.0
  0
LINE
  5
7FEC
  8
CT
 10
10599.222835872481
 20
8246.9338523772731
 30
0.0
 11
10599.222835872481
 21
8207.9399563772713
 31
0.0
  0
LINE
  5
7FED
  8
FUTO
 10
10538.47088287248
 20
8438.6523583772705
 30
0.0
 11
10657.341975872479
 21
8218.7214503772702
 31
0.0
  0
LINE
  5
7FEE
  8
FUTO
 10
10658.697078872479
 20
8218.3171533772693
 30
0.0
 11
10660.104671872479
 21
8219.0778953772733
 31
0.0
  0
LINE
  5
7FEF
  8
FUTO
 10
12273.880352216311
 20
8452.1895293772686
 30
0.0
 11
12273.880352216311
 21
8137.3992153772697
 31
0.0
  0
LINE
  5
7FF0
  8
CT
 10
11454.380352216311
 20
8294.5395653772703
 30
0.0
 11
12293.880352216311
 21
8294.5395653772703
 31
0.0
  0
LINE
  5
7FF1
  8
FUTO
 10
12152.629070216301
 20
8487.0395653772703
 30
0.0
 11
12213.569378216311
 21
8487.0395653772703
 31
0.0
  0
LINE
  5
7FF2
  8
FUTO
 10
12149.080242216311
 20
8102.0395653772712
 30
0.0
 11
12213.569378216311
 21
8102.0395653772712
 31
0.0
  0
LINE
  5
7FF3
  8
FUTO
 10
10318.222835872481
 20
8328.5395653772703
 30
0.0
 11
10300.222835872481
 21
8328.5395653772703
 31
0.0
  0
LINE
  5
7FF4
  8
FUTO
 10
10318.222835872481
 20
8317.5395653772721
 30
0.0
 11
10300.222835872481
 21
8317.5395653772721
 31
0.0
  0
LINE
  5
7FF5
  8
FUTO
 10
10318.222835872481
 20
8328.5395653772739
 30
0.0
 11
10318.222835872481
 21
8317.5395653772721
 31
0.0
  0
LINE
  5
7FF6
  8
FUTO
 10
10300.222835872481
 20
8328.5395653772739
 30
0.0
 11
10300.222835872481
 21
8317.5395653772721
 31
0.0
  0
LINE
  5
7FF7
  8
CT
 10
10174.222835872481
 20
11883.40405940874
 30
0.0
 11
10124.222835872481
 21
11883.40405940874
 31
0.0
  0
LINE
  5
7FF8
  8
CT
 10
10149.222835872481
 20
11858.40405940874
 30
0.0
 11
10149.222835872481
 21
11908.404059408749
 31
0.0
  0
LINE
  5
7FF9
  8
CT
 10
10469.222835872481
 20
11858.40405940874
 30
0.0
 11
10469.222835872481
 21
11908.404059408749
 31
0.0
  0
LINE
  5
7FFA
  8
CT
 10
10444.222835872481
 20
11883.40405940874
 30
0.0
 11
10494.222835872481
 21
11883.40405940874
 31
0.0
  0
LINE
  5
7FFB
  8
CT
 10
10444.222835872481
 20
12343.40405940874
 30
0.0
 11
10494.222835872481
 21
12343.40405940874
 31
0.0
  0
LINE
  5
7FFC
  8
CT
 10
10469.222835872481
 20
12368.40405940874
 30
0.0
 11
10469.222835872481
 21
12318.40405940874
 31
0.0
  0
LINE
  5
7FFD
  8
CT
 10
10149.222835872481
 20
12368.40405940874
 30
0.0
 11
10149.222835872481
 21
12318.40405940874
 31
0.0
  0
LINE
  5
7FFE
  8
CT
 10
10174.222835872481
 20
12343.40405940874
 30
0.0
 11
10124.222835872481
 21
12343.40405940874
 31
0.0
  0
LINE
  5
8000
  8
SL
 10
10441.722835872481
 20
11687.90405940874
 30
0.0
 11
10441.722835872481
 21
11785.90405940874
 31
0.0
  0
LINE
  5
8001
  8
FUTO
 10
10512.722835872481
 20
11548.90405940874
 30
0.0
 11
10512.722835872481
 21
11837.904059408749
 31
0.0
  0
LINE
  5
8002
  8
SL
 10
10176.722835872481
 20
11687.90405940874
 30
0.0
 11
10176.722835872481
 21
11785.90405940874
 31
0.0
  0
LINE
  5
8003
  8
SL
 10
10499.222835872481
 20
12435.442617036901
 30
0.0
 11
10499.222835872481
 21
11872.90405940874
 31
0.0
  0
LINE
  5
8004
  8
SL
 10
10434.222835872481
 20
12487.40405940874
 30
0.0
 11
10434.222835872481
 21
11872.90405940874
 31
0.0
  0
LINE
  5
8005
  8
SL
 10
10184.222835872481
 20
12487.40405940874
 30
0.0
 11
10184.222835872481
 21
11872.90405940874
 31
0.0
  0
LINE
  5
8006
  8
SL
 10
10119.222835872481
 20
12428.30402240874
 30
0.0
 11
10119.222835872481
 21
11872.90405940874
 31
0.0
  0
LINE
  5
8007
  8
FUTO
 10
10480.222835872481
 20
12784.904059408749
 30
0.0
 11
10480.222835872481
 21
14072.904059408749
 31
0.0
  0
LINE
  5
8008
  8
FUTO
 10
10430.222835872481
 20
12834.90405940874
 30
0.0
 11
10430.222835872481
 21
14022.904059408749
 31
0.0
  0
LINE
  5
8018
  8
FUTO
 10
10480.222835872481
 20
14072.904059408749
 30
0.0
 11
8079.2228358724824
 21
14072.904059408749
 31
0.0
  0
LINE
  5
8019
  8
FUTO
 10
10480.222835872481
 20
12784.904059408749
 30
0.0
 11
8079.2228358724833
 21
12784.90405940874
 31
0.0
  0
LINE
  5
801A
  8
FUTO
 10
10009.222835872481
 20
12784.904059408749
 30
0.0
 11
10009.222835872481
 21
12759.90405940874
 31
0.0
  0
LINE
  5
801C
  8
FUTO
 10
9059.2228358724824
 20
12834.90405940874
 30
0.0
 11
8014.2228358724824
 21
12834.90405940874
 31
0.0
  0
LINE
  5
801D
  8
FUTO
 10
9059.2228358724824
 20
14022.904059408749
 30
0.0
 11
8014.2228358724824
 21
14022.90405940874
 31
0.0
  0
LINE
  5
8021
  8
FUTO
 10
8079.2228358724824
 20
14087.90405940874
 30
0.0
 11
8014.2228358724824
 21
14087.90405940874
 31
0.0
  0
LINE
  5
8022
  8
FUTO
 10
8109.2228358724806
 20
12784.904059408749
 30
0.0
 11
8109.2228358724806
 21
12759.90405940874
 31
0.0
  0
LINE
  5
8025
  8
FUTO
 10
9444.8747087632055
 20
11872.904059408749
 30
0.0
 11
9444.8747087632055
 21
12759.90405940874
 31
0.0
  0
LINE
  5
8027
  8
FUTO
 10
8673.5709629817611
 20
11872.904059408749
 30
0.0
 11
8673.5709629817611
 21
12759.90405940874
 31
0.0
  0
DIMENSION
  5
8028
  8
SP
  2
*D12
 10
7664.0564447906063
 20
10817.539565377259
 30
0.0
 11
7576.5564447906036
 21
9936.0395653772739
 31
0.0
 70
     0
 13
7906.590975359115
 23
9054.5395653772703
 33
0.0
 14
8014.2228358724824
 24
10817.539565377259
 34
0.0
 50
90.0
1001
ACAD
1000
DSTYLE
1002
{
1070
    40
1040
35.0
1070
    41
1040
2.5
1070
   147
1040
1.0
1002
}
  0
DIMENSION
  5
8053
  8
SP
  2
*D13
 10
8014.2228358724824
 20
11070.734731625011
 30
0.0
 11
8536.7228358724824
 21
11158.234731625011
 31
0.0
 70
     0
 13
9059.2228358724824
 23
10887.89768734712
 33
0.0
 14
8014.2228358724824
 24
10817.539565377259
 34
0.0
 50
180.0
1001
ACAD
1000
DSTYLE
1002
{
1070
    40
1040
35.0
1070
    41
1040
2.5
1070
   147
1040
1.0
1002
}
  0
DIMENSION
  5
8095
  8
SP
  2
*D14
 10
11164.842596186079
 20
14153.904059408749
 30
0.0
 11
11077.34259618607
 21
13791.404059408749
 31
0.0
 70
     0
 13
10822.222835872481
 23
13428.904059408749
 33
0.0
 14
9924.2228358724842
 24
14153.904059408749
 34
0.0
 50
90.0
1001
ACAD
1000
DSTYLE
1002
{
1070
    40
1040
35.0
1070
    41
1040
2.5
1070
   147
1040
1.0
1002
}
  0
DIMENSION
  5
80A2
  8
SP
  2
*D15
 10
11164.842596186079
 20
11548.90405940874
 30
0.0
 11
11077.34259618607
 21
12488.904059408749
 31
0.0
 70
     0
 13
10822.222835872481
 23
13428.904059408749
 33
0.0
 14
10512.722835872481
 24
11548.90405940874
 34
0.0
 50
90.0
1001
ACAD
1000
DSTYLE
1002
{
1070
    40
1040
35.0
1070
    41
1040
2.5
1070
   147
1040
1.0
1002
}
  0
LINE
  5
80D6
  8
KL
 10
9999.2228358724824
 20
8810.6845724223112
 30
0.0
 11
9999.2228358724824
 21
8034.5395653772703
 31
0.0
  0
LINE
  5
80D7
  8
KL
 10
9990.2228358724824
 20
8817.6101694960817
 30
0.0
 11
9990.2228358724824
 21
8034.5395653772703
 31
0.0
  0
LINE
  5
80D8
  8
FUTO
 10
9670.6309596262472
 20
9063.5395653772703
 30
0.0
 11
10474.850380383239
 21
9063.5395653772703
 31
0.0
  0
LINE
  5
80D9
  8
FUTO
 10
9694.0224446165612
 20
9045.5395653772703
 30
0.0
 11
10474.850380383239
 21
9045.5395653772703
 31
0.0
  0
LINE
  5
80DA
  8
KL
 10
8680.9468758639068
 20
9018.3829881113088
 30
0.0
 11
8859.5684875334828
 21
9039.7361472135653
 31
0.0
  0
LINE
  5
80DB
  8
KL
 10
8683.0834570325442
 20
9000.5102429133894
 30
0.0
 11
8861.7050687021201
 21
9021.8634020156442
 31
0.0
  0
LINE
  5
81A6
  8
FUTO
 10
8055.8131616341107
 20
8943.9264975997994
 30
0.0
 11
8057.9497428027507
 21
8926.0537524018782
 31
0.0
  0
LINE
  5
81A7
  8
CT
 10
8056.8814522184321
 20
8934.9901250008388
 30
0.0
 11
8860.6367781178033
 21
9030.7997746146048
 31
0.0
  0
LINE
  5
81A9
  8
FUTO
 10
10474.850380383239
 20
9045.5395653772703
 30
0.0
 11
10474.850380383239
 21
9063.5395653772703
 31
0.0
  0
LINE
  5
81E0
  8
FUTO
 10
12557.18035221631
 20
9054.5395653772703
 30
0.0
 11
13883.58035221631
 21
9054.5395653772703
 31
0.0
  0
LINE
  5
81E1
  8
FUTO
 10
13883.58035221631
 20
9035.5395653772703
 30
0.0
 11
13883.58035221631
 21
8034.5395653772703
 31
0.0
  0
LINE
  5
81E2
  8
FUTO
 10
13873.58035221631
 20
9063.5395653772703
 30
0.0
 11
13873.58035221631
 21
9045.5395653772703
 31
0.0
  0
LINE
  5
81E3
  8
FUTO
 10
12547.18035221631
 20
9035.5395653772721
 30
0.0
 11
12547.18035221631
 21
8034.5395653772703
 31
0.0
  0
LINE
  5
81E4
  8
FUTO
 10
12556.38035221632
 20
10817.53956537727
 30
0.0
 11
13874.380352216311
 21
10817.539565377259
 31
0.0
  0
LINE
  5
81F6
  8
FUTO
 10
12625.380352216311
 20
10752.53956537727
 30
0.0
 11
12547.18035221631
 21
10752.53956537727
 31
0.0
  0
LINE
  5
81FA
  8
FUTO
 10
13808.58035221631
 20
10752.53956537727
 30
0.0
 11
13883.58035221631
 21
10752.53956537727
 31
0.0
  0
LINE
  5
81FB
  8
FUTO
 10
12622.18035221631
 20
10752.53956537727
 30
0.0
 11
13808.58035221631
 21
10752.53956537727
 31
0.0
  0
LINE
  5
8200
  8
FUTO
 10
8014.2228358724824
 20
12769.90405940874
 30
0.0
 11
8014.2228358724824
 21
14087.90405940874
 31
0.0
  0
LINE
  5
8201
  8
FUTO
 10
8020.2228358724797
 20
12769.90405940874
 30
0.0
 11
8020.2228358724797
 21
14087.90405940874
 31
0.0
  0
LINE
  5
8202
  8
FUTO
 10
8079.2228358724833
 20
12769.90405940874
 30
0.0
 11
8079.2228358724824
 21
14087.90405940874
 31
0.0
  0
LINE
  5
8213
  8
FUTO
 10
10609.222835872481
 20
12834.90405940874
 30
0.0
 11
10480.222835872481
 21
12834.90405940874
 31
0.0
  0
DIMENSION
  5
8215
  8
SP
  2
*D16
 10
10609.222835872481
 20
14464.83494838727
 30
0.0
 11
9834.2228358724842
 21
14552.33494838727
 31
0.0
 70
     0
 13
9059.2228358724824
 23
14198.681971225609
 33
0.0
 14
10609.222835872481
 24
12834.90405940874
 34
0.0
 50
180.0
1001
ACAD
1000
DSTYLE
1002
{
1070
    40
1040
35.0
1070
    41
1040
2.5
1070
   147
1040
1.0
1002
}
  0
DIMENSION
  5
8222
  8
SP
  2
*D17
 10
8014.2228358724824
 20
14464.83494838727
 30
0.0
 11
8536.7228358724824
 21
14552.33494838727
 31
0.0
 70
     0
 13
9059.2228358724824
 23
14198.681971225609
 33
0.0
 14
8014.2228358724824
 24
14072.904059408749
 34
0.0
 50
180.0
1001
ACAD
1000
DSTYLE
1002
{
1070
    40
1040
35.0
1070
    41
1040
2.5
1070
   147
1040
1.0
1002
}
  0
LINE
  5
8288
  8
FUTO
 10
8673.5709629817593
 20
8946.5395653772703
 30
0.0
 11
8434.2228358724824
 21
8034.5395653772703
 31
0.0
  0
LINE
  5
8289
  8
KL
 10
9444.8747087632055
 20
8946.5395653772703
 30
0.0
 11
9591.8281777223674
 21
8386.5954985094886
 31
0.0
  0
LINE
  5
828A
  8
SL
 10
10391.6444905723
 20
8398.2840632388143
 30
0.0
 11
9255.1686564795982
 21
9301.1774282179213
 31
0.0
  0
LINE
  5
828B
  8
SL
 10
10255.0489850136
 20
8173.6204027804342
 30
0.0
 11
8930.4321715664737
 21
8767.0713675055467
 31
0.0
  0
LINE
  5
828C
  8
FUTO
 10
10443.389873710439
 20
8468.8932460318138
 30
0.0
 11
9290.965901228963
 21
9355.6959228714823
 31
0.0
  0
LINE
  5
828D
  8
FUTO
 10
10216.1753718862
 20
8095.1851838209004
 30
0.0
 11
8898.5044889871006
 21
8710.2001790526301
 31
0.0
  0
LINE
  5
828E
  8
FUTO
 10
9591.8281777223674
 20
8386.5954985094886
 30
0.0
 11
9684.2228358724824
 21
8034.5395653772703
 31
0.0
  0
ARC
  5
828F
  8
FUTO
 10
9175.2228358724824
 20
9170.5395653772703
 30
0.0
 40
1273.0
 50
296.82611687829927
 51
310.16890547900431
  0
DIMENSION
  5
8291
  8
SP
  2
*D18
 10
7664.0564447906063
 20
7884.5395653772703
 30
0.0
 11
7576.5564447906036
 21
8469.5395653772739
 31
0.0
 70
     0
 13
7749.5599996051096
 23
9054.5395653772703
 33
0.0
 14
8109.2228358724833
 24
7884.5395653772703
 34
0.0
 50
90.0
1001
ACAD
1000
DSTYLE
1002
{
1070
    40
1040
35.0
1070
    41
1040
2.5
1070
   147
1040
1.0
1002
}
  0
LINE
  5
82B5
  8
FUTO
 10
8079.2228358724833
 20
12769.90405940874
 30
0.0
 11
8014.2228358724824
 21
12769.90405940874
 31
0.0
  0
LINE
  5
83C3
  8
FUTO
 10
10609.222835872481
 20
7851.543065377271
 30
0.0
 11
8109.2228358724833
 21
7851.543065377271
 31
0.0
  0
LINE
  5
83C4
  8
FUTO
 10
10609.222835872481
 20
7727.5360653772714
 30
0.0
 11
8109.2228358724833
 21
7727.5360653772714
 31
0.0
  0
LINE
  5
83C5
  8
FUTO
 10
10609.222835872481
 20
7864.5395653772703
 30
0.0
 11
8109.2228358724833
 21
7864.5395653772703
 31
0.0
  0
LINE
  5
83C6
  8
FUTO
 10
10609.222835872481
 20
7714.5395653772712
 30
0.0
 11
8109.2228358724833
 21
7714.5395653772712
 31
0.0
  0
LINE
  5
83C7
  8
FUTO
 10
8109.2228358724833
 20
7864.5395653772703
 30
0.0
 11
8109.2228358724833
 21
7714.5395653772712
 31
0.0
  0
LINE
  5
83C8
  8
FUTO
 10
8434.2228358724824
 20
7864.5395653772703
 30
0.0
 11
8434.2228358724824
 21
7714.5395653772712
 31
0.0
  0
LINE
  5
83D8
  8
FUTO
 10
10609.222835872481
 20
7864.5395653772703
 30
0.0
 11
10609.222835872481
 21
7714.5395653772712
 31
0.0
  0
LINE
  5
83DE
  8
SP
 10
8299.2228358724824
 20
7949.4387515241806
 30
0.0
 11
8299.2228358724824
 21
7799.4387515241806
 31
0.0
  0
LINE
  5
83DF
  8
FUTO
 10
8259.2228358724824
 20
7884.5395653772703
 30
0.0
 11
8259.2228358724824
 21
7864.5395653772703
 31
0.0
  0
LINE
  5
83E0
  8
FUTO
 10
8339.2228358724806
 20
7884.5395653772703
 30
0.0
 11
8339.2228358724806
 21
7864.5395653772703
 31
0.0
  0
INSERT
  5
83EC
  8
FUTO
  6
CONTINUOUS
  2
*U19
 10
0.0
 20
0.0
 30
0.0
1001
ACAD
1002
{
1000
R14_HATCH_DATA
1000
83EC
1011
1.0
1021
0.0
1031
0.0
1021
0.0
1031
0.0
1011
0.0
1021
0.0
1031
0.0
1021
1.0
1031
0.0
1011
0.0
1021
0.0
1031
0.0
1021
0.0
1031
1.0
1040
0.0
1010
0.0
1020
0.0
1030
1.0
1000
SOLID
1070
     1
1070
     0
1071
        2
1071
        7
1070
     0
1070
     1
1071
        4
1040
8299.2228358724824
1040
7884.5395653772703
1040
8259.2228358724824
1040
7884.5395653772703
1040
8259.2228358724824
1040
7864.5395653772703
1040
8299.2228358724824
1040
7864.5395653772703
1071
        0
1071
        7
1070
     0
1070
     1
1071
        4
1040
8339.2228358724806
1040
7884.5395653772703
1040
8299.2228358724824
1040
7884.5395653772703
1040
8299.2228358724824
1040
7864.5395653772703
1040
8339.2228358724806
1040
7864.5395653772703
1071
        0
1070
     0
1070
     1
1040
0.5641206793754191
1071
        2
1040
8287.7112640630367
1040
7874.7925489169538
1040
0.0
1040
8327.7929354146763
1040
7875.3566676384999
1040
0.0
1002
}
  0
LINE
  5
840B
  8
SP
 10
8074.2228358724833
 20
7864.5395653772703
 30
0.0
 11
7629.0564447906054
 21
7864.5395653772703
 31
0.0
  0
LINE
  5
840C
  8
SP
 10
8074.2228358724833
 20
7714.5395653772712
 30
0.0
 11
7629.0564447906054
 21
7714.5395653772712
 31
0.0
  0
LINE
  5
840D
  8
SP
 10
7664.0564447906063
 20
7952.0395653772712
 30
0.0
 11
7664.0564447906063
 21
8039.5395653772712
 31
0.0
  0
LINE
  5
840E
  8
SP
 10
7664.0564447906063
 20
7627.0395653772712
 30
0.0
 11
7664.0564447906063
 21
7224.5395653772703
 31
0.0
  0
LINE
  5
840F
  8
SP
 10
7664.0564447906063
 20
7864.5395653772703
 30
0.0
 11
7664.0564447906063
 21
7714.5395653772712
 31
0.0
  0
INSERT
  5
8411
  8
SP
  2
_OPEN
 10
7664.0564447906063
 20
7714.5395653772712
 30
0.0
 41
87.5
 42
87.5
 43
87.5
 50
90.0
  0
TEXT
  5
8412
  8
FUTO
 10
7629.0564447906063
 20
7236.7638840206246
 30
0.0
 40
105.0
  1
150
 50
90.0
 51
15.0
  0
LINE
  5
8413
  8
SP
 10
8074.2228358724833
 20
7884.5395653772703
 30
0.0
 11
7629.0564447906054
 21
7884.5395653772703
 31
0.0
  0
LINE
  5
8414
  8
SP
 10
8074.2228358724833
 20
7864.5395653772703
 30
0.0
 11
7629.0564447906054
 21
7864.5395653772703
 31
0.0
  0
LINE
  5
8415
  8
SP
 10
7664.0564447906063
 20
7972.0395653772694
 30
0.0
 11
7664.0564447906063
 21
8059.5395653772694
 31
0.0
  0
LINE
  5
8416
  8
SP
 10
7664.0564447906063
 20
7777.0395653772712
 30
0.0
 11
7664.0564447906063
 21
7431.7638840206246
 31
0.0
  0
LINE
  5
8417
  8
SP
 10
7664.0564447906063
 20
7884.5395653772703
 30
0.0
 11
7664.0564447906063
 21
7864.5395653772703
 31
0.0
  0
INSERT
  5
8418
  8
SP
  2
_OPEN
 10
7664.0564447906063
 20
7884.5395653772703
 30
0.0
 41
87.5
 42
87.5
 43
87.5
 50
270.0
  0
TEXT
  5
841A
  8
FUTO
 10
7594.1172107550328
 20
7782.6515931715212
 30
0.0
 40
105.0
  1
20
 50
90.0
 51
15.0
  0
CIRCLE
  5
841B
  8
SP
 10
7664.0564447906063
 20
7864.5395653772703
 30
0.0
 40
16.107035403234569
  0
INSERT
  5
842C
  8
SP
  6
CONTINUOUS
  2
*U20
 10
0.0
 20
0.0
 30
0.0
1001
ACAD
1002
{
1000
R14_HATCH_DATA
1000
842C
1011
1.0
1021
0.0
1031
0.0
1021
0.0
1031
0.0
1011
0.0
1021
0.0
1031
0.0
1021
1.0
1031
0.0
1011
0.0
1021
0.0
1031
0.0
1021
0.0
1031
1.0
1040
0.0
1010
0.0
1020
0.0
1030
1.0
1000
SOLID
1070
     1
1070
     0
1071
        4
1071
        7
1070
     1
1070
     1
1071
        3
1040
7664.0564447906063
1040
7880.6466007805038
1040
0.4142135623730913
1040
7647.9494093873709
1040
7864.5395653772703
1040
0.0
1040
7664.0564447906063
1040
7864.5395653772703
1040
0.0
1071
        0
1071
        7
1070
     1
1070
     1
1071
        3
1040
7664.0564447906063
1040
7880.6466007805038
1040
0.0
1040
7664.0564447906063
1040
7864.5395653772703
1040
0.0
1040
7680.1634801938399
1040
7864.5395653772703
1040
0.4142135623730913
1071
        0
1071
        7
1070
     1
1070
     1
1071
        3
1040
7680.1634801938399
1040
7864.5395653772703
1040
0.0
1040
7664.0564447906063
1040
7864.5395653772703
1040
0.0
1040
7664.0564447906063
1040
7848.4325299740358
1040
0.4142135623730873
1071
        0
1071
        7
1070
     1
1070
     1
1071
        3
1040
7664.0564447906063
1040
7864.5395653772703
1040
0.0
1040
7647.9494093873709
1040
7864.5395653772703
1040
0.4142135623730873
1040
7664.0564447906063
1040
7848.4325299740358
1040
0.0
1071
        0
1070
     0
1070
     1
1040
0.5035446347995674
1071
        4
1040
7658.1421516418022
1040
7869.7781090300778
1040
0.0
1040
7668.2203657906912
1040
7870.2816662644518
1040
0.0
1040
7669.7320979130236
1040
7860.714317982216
1040
0.0
1040
7657.6382409343569
1040
7859.2036804463596
1040
0.0
1002
}
  0
LINE
  5
8453
  8
FUTO
 10
13809.380352216311
 20
7851.543065377271
 30
0.0
 11
11659.380352216311
 21
7851.543065377271
 31
0.0
  0
LINE
  5
8454
  8
FUTO
 10
13809.380352216311
 20
7727.5360653772714
 30
0.0
 11
11659.380352216311
 21
7727.5360653772714
 31
0.0
  0
LINE
  5
8455
  8
FUTO
 10
13809.380352216311
 20
7714.5395653772712
 30
0.0
 11
11659.380352216311
 21
7714.5395653772712
 31
0.0
  0
LINE
  5
8456
  8
FUTO
 10
13809.380352216311
 20
7864.5395653772703
 30
0.0
 11
11659.380352216311
 21
7864.5395653772703
 31
0.0
  0
LINE
  5
8459
  8
FUTO
 10
11701.880352216311
 20
7864.5395653772703
 30
0.0
 11
11644.880352216311
 21
7864.5395653772703
 31
0.0
  0
LINE
  5
845A
  8
FUTO
 10
11659.380352216311
 20
7714.5395653772712
 30
0.0
 11
11659.380352216311
 21
7864.5395653772703
 31
0.0
  0
LINE
  5
845B
  8
FUTO
 10
11652.880352216311
 20
7731.2013767991029
 30
0.0
 11
11652.880352216311
 21
7847.8777539554367
 31
0.0
  0
LINE
  5
845C
  8
FUTO
 10
11649.2289751873
 20
7727.2165980067348
 30
0.0
 11
11588.03172924532
 21
7721.862532747803
 31
0.0
  0
LINE
  5
845D
  8
FUTO
 10
11659.380352216311
 20
7714.5395653772712
 30
0.0
 11
11584.380352216311
 21
7714.5395653772694
 31
0.0
  0
ARC
  5
845E
  8
FUTO
 10
11588.380352216311
 20
7717.8777539554376
 30
0.0
 40
4.0
 50
95.000000000000554
 51
179.9999999999921
  0
LINE
  5
845F
  8
FUTO
 10
11584.380352216311
 20
7714.5395653772694
 30
0.0
 11
11584.380352216311
 21
7717.8777539554376
 31
0.0
  0
ARC
  5
8460
  8
FUTO
 10
11648.880352216311
 20
7731.2013767991029
 30
0.0
 40
4.0
 50
275.0
 51
0.0
  0
LINE
  5
8461
  8
FUTO
 10
11649.2289751873
 20
7851.862532747803
 30
0.0
 11
11588.03172924532
 21
7857.2165980067348
 31
0.0
  0
LINE
  5
8462
  8
FUTO
 10
11659.380352216311
 20
7864.5395653772703
 30
0.0
 11
11584.380352216311
 21
7864.5395653772703
 31
0.0
  0
ARC
  5
8463
  8
FUTO
 10
11588.380352216311
 20
7861.2013767991029
 30
0.0
 40
4.0
 50
180.00000000000779
 51
264.99999999999949
  0
LINE
  5
8464
  8
FUTO
 10
11584.380352216311
 20
7864.5395653772703
 30
0.0
 11
11584.380352216311
 21
7861.2013767991011
 31
0.0
  0
ARC
  5
8465
  8
FUTO
 10
11648.880352216311
 20
7847.8777539554367
 30
0.0
 40
4.0
 50
0.0
 51
84.999999999999943
  0
LINE
  5
8472
  8
FUTO
 10
13809.380352216311
 20
7864.5395653772703
 30
0.0
 11
13809.380352216311
 21
7714.5395653772712
 31
0.0
  0
LINE
  5
8473
  8
FUTO
 10
13815.880352216311
 20
7847.8777539554367
 30
0.0
 11
13815.880352216311
 21
7731.2013767991029
 31
0.0
  0
LINE
  5
8474
  8
FUTO
 10
13819.53172924532
 20
7727.2165980067348
 30
0.0
 11
13880.7289751873
 21
7721.862532747803
 31
0.0
  0
LINE
  5
8475
  8
FUTO
 10
13809.380352216311
 20
7714.5395653772712
 30
0.0
 11
13884.380352216311
 21
7714.5395653772712
 31
0.0
  0
ARC
  5
8477
  8
FUTO
 10
13819.880352216311
 20
7731.2013767991029
 30
0.0
 40
4.0
 50
180.0
 51
264.99999999999989
  0
ARC
  5
8478
  8
FUTO
 10
13880.380352216311
 20
7717.8777539554376
 30
0.0
 40
4.0
 50
0.0000000000078369
 51
84.999999999999503
  0
LINE
  5
8479
  8
FUTO
 10
13884.380352216311
 20
7714.5395653772694
 30
0.0
 11
13884.380352216311
 21
7717.8777539554376
 31
0.0
  0
LINE
  5
847A
  8
FUTO
 10
13819.53172924532
 20
7851.862532747803
 30
0.0
 11
13880.7289751873
 21
7857.2165980067348
 31
0.0
  0
LINE
  5
847B
  8
FUTO
 10
13809.380352216311
 20
7864.5395653772703
 30
0.0
 11
13884.380352216311
 21
7864.5395653772703
 31
0.0
  0
ARC
  5
847C
  8
FUTO
 10
13819.880352216311
 20
7847.8777539554367
 30
0.0
 40
4.0
 50
95.000000000000057
 51
180.0
  0
ARC
  5
847D
  8
FUTO
 10
13880.380352216311
 20
7861.2013767991029
 30
0.0
 40
4.0
 50
275.00000000000051
 51
359.9999999999921
  0
LINE
  5
847E
  8
FUTO
 10
13884.380352216311
 20
7864.5395653772703
 30
0.0
 11
13884.380352216311
 21
7861.2013767991029
 31
0.0
  0
LINE
  5
849D
  8
CT
 10
10129.490862112511
 20
8294.5395653772703
 30
0.0
 11
10735.589050753289
 21
8294.5395653772703
 31
0.0
  0
TEXT
  5
8EB6
  8
SP
 10
15222.66106218083
 20
9444.4562569716036
 30
0.0
 40
100.0
  1
 
  0
LINE
  5
8EB7
  8
4
 10
14323.911493207661
 20
5843.403029683067
 30
0.0
 11
14323.911493207661
 21
4843.4030296830661
 31
0.0
  0
LINE
  5
8EB8
  8
4
 10
10823.911493207661
 20
5843.403029683067
 30
0.0
 11
10823.911493207661
 21
4843.4030296830661
 31
0.0
  0
LINE
  5
8EB9
  8
4
 10
8323.9114932076645
 20
5843.403029683067
 30
0.0
 11
8323.9114932076645
 21
4843.4030296830661
 31
0.0
  0
LINE
  5
8EBC
  8
4
 10
8323.9114932076645
 20
4843.4030296830661
 30
0.0
 11
14323.911493207661
 21
4843.4030296830661
 31
0.0
  0
LINE
  5
8EBD
  8
4
 10
8323.9114932076645
 20
5343.403029683067
 30
0.0
 11
14323.911493207661
 21
5343.403029683067
 31
0.0
  0
TEXT
  5
8EBE
  8
4
 10
8516.4218974421856
 20
5501.1181590161341
 30
0.0
 40
250.0
  1
機器名称
  0
TEXT
  5
8EBF
  8
4
 10
8505.2020233316598
 20
4951.6288133431199
 30
0.0
 40
250.0
  1
機器型番
  0
TEXT
  5
8EC0
  8
4
 10
10847.87680171287
 20
5454.3395414678034
 30
0.0
 40
225.0
  1
ミツヤリミットロードファン
  0
TEXT
  5
8EC1
  8
4
 10
11007.18397113508
 20
4929.200951082782
 30
0.0
 40
250.0
  1
LL#10-1
  0
TEXT
  5
8EC3
  8
4
 10
9087.0102847567796
 20
15260.547236345639
 30
0.0
 40
270.0
  1
床置防振ベット
  0
TEXT
  5
8EC4
  8
4
 10
6654.7494598548974
 20
16012.80791067955
 30
0.0
 40
360.0
  1
遠心式片吸込片持リミットロードファン
  0
LINE
  5
8EC5
  8
4
 10
6323.9114932076673
 20
15690.44680100708
 30
0.0
 11
14323.911493207661
 21
15690.44680100708
 31
0.0
  0
LINE
  5
8EC6
  8
4
 10
6323.9114932076673
 20
16690.446801007089
 30
0.0
 11
14323.911493207661
 21
16690.446801007089
 31
0.0
  0
LINE
  5
8EC7
  8
4
 10
8323.9114932076645
 20
5843.403029683067
 30
0.0
 11
14323.911493207661
 21
5843.403029683067
 31
0.0
  0
LINE
  5
8EC8
  8
4
 10
6323.9114932076673
 20
16690.446801007089
 30
0.0
 11
6323.9114932076673
 21
15690.44680100708
 31
0.0
  0
TEXT
  5
8EC9
  8
4
 10
6769.7790739630327
 20
15255.00041741478
 30
0.0
 40
270.0
  1
左回転左横向
  0
TEXT
  5
8ECA
  8
4
 10
12418.75928945411
 20
16873.70843715961
 30
0.0
 40
280.0
  1
No.
  0
TEXT
  5
8ECB
  8
4
 10
12485.69071646444
 20
14764.282393335439
 30
0.0
 40
270.0
  1
縮尺：1/50
  0
LINE
  5
8ECC
  8
4
 10
14323.911493207661
 20
16690.446801007089
 30
0.0
 11
14323.911493207661
 21
15690.44680100708
 31
0.0
  0
LINE
  5
8ECD
  8
4
 10
15573.911493207661
 20
18093.403029683061
 30
0.0
 11
15573.911493207661
 21
18093.403029683061
 31
0.0
  0
LINE
  5
8ECE
  8
4
 10
12276.998605006989
 20
16749.72094531007
 30
0.0
 11
12276.998605006989
 21
17276.66433743183
 31
0.0
  0
LINE
  5
8ECF
  8
4
 10
12276.998605006989
 20
17276.66433743183
 30
0.0
 11
14323.911493207661
 21
17276.66433743183
 31
0.0
  0
LINE
  5
8ED0
  8
4
 10
14323.911493207661
 20
17276.66433743183
 30
0.0
 11
14323.911493207661
 21
16749.72094531007
 31
0.0
  0
LINE
  5
8ED1
  8
4
 10
14323.911493207661
 20
16749.72094531007
 30
0.0
 11
12276.998605006989
 21
16749.72094531007
 31
0.0
  0
LINE
  5
8ED2
  8
4
 10
5073.9114932076673
 20
3343.4030296830651
 30
0.0
 11
5073.9114932076673
 21
18093.403029683061
 31
0.0
  0
LINE
  5
8ED3
  8
4
 10
5073.9114932076673
 20
18093.403029683061
 30
0.0
 11
15573.911493207661
 21
18093.403029683061
 31
0.0
  0
LINE
  5
8ED4
  8
4
 10
15573.911493207661
 20
18093.403029683061
 30
0.0
 11
15573.911493207661
 21
3343.4030296830651
 31
0.0
  0
LINE
  5
8ED5
  8
4
 10
15573.911493207661
 20
3343.4030296830651
 30
0.0
 11
5073.9114932076673
 21
3343.4030296830651
 31
0.0
  0
ENDSEC
  0
EOF
