  0
SECTION
  2
HEADER
  9
$ACADVER
  1
AC1009
  9
$INSBASE
 10
0.0
 20
0.0
 30
0.0
  9
$EXTMIN
 10
5902.4570060537553
 20
1054.300250401388
 30
0.0
  9
$EXTMAX
 10
16402.457006053752
 20
15804.300250401389
 30
0.0
  9
$LIMMIN
 10
0.0
 20
0.0
  9
$LIMMAX
 10
297.0
 20
210.0
  9
$ORTHOMODE
 70
     0
  9
$REGENMODE
 70
     1
  9
$FILLMODE
 70
     1
  9
$QTEXTMODE
 70
     0
  9
$MIRRTEXT
 70
     0
  9
$DRAGMODE
 70
     2
  9
$LTSCALE
 40
175.0
  9
$OSMODE
 70
    37
  9
$ATTMODE
 70
     1
  9
$TEXTSIZE
 40
150.0
  9
$TRACEWID
 40
0.05
  9
$TEXTSTYLE
  7
STANDARD
  9
$CLAYER
  8
FUTO
  9
$CELTYPE
  6
BYLAYER
  9
$CECOLOR
 62
   256
  9
$DIMSCALE
 40
35.0
  9
$DIMASZ
 40
2.5
  9
$DIMEXO
 40
1.0
  9
$DIMDLI
 40
10.0
  9
$DIMRND
 40
0.0
  9
$DIMDLE
 40
0.0
  9
$DIMEXE
 40
1.0
  9
$DIMTP
 40
0.0
  9
$DIMTM
 40
0.0
  9
$DIMTXT
 40
3.0
  9
$DIMCEN
 40
0.0
  9
$DIMTSZ
 40
0.0
  9
$DIMTOL
 70
     0
  9
$DIMLIM
 70
     0
  9
$DIMTIH
 70
     0
  9
$DIMTOH
 70
     0
  9
$DIMSE1
 70
     0
  9
$DIMSE2
 70
     0
  9
$DIMTAD
 70
     1
  9
$DIMZIN
 70
     8
  9
$DIMBLK
  1

  9
$DIMASO
 70
     1
  9
$DIMSHO
 70
     1
  9
$DIMPOST
  1

  9
$DIMAPOST
  1

  9
$DIMALT
 70
     0
  9
$DIMALTD
 70
     2
  9
$DIMALTF
 40
0.03937
  9
$DIMLFAC
 40
1.0
  9
$DIMTOFL
 70
     1
  9
$DIMTVP
 40
0.0
  9
$DIMTIX
 70
     0
  9
$DIMSOXD
 70
     0
  9
$DIMSAH
 70
     1
  9
$DIMBLK1
  1
OPEN
  9
$DIMBLK2
  1
OPEN
  9
$DIMSTYLE
  2
MATSU
  9
$DIMCLRD
 70
   256
  9
$DIMCLRE
 70
   256
  9
$DIMCLRT
 70
   256
  9
$DIMTFAC
 40
1.0
  9
$DIMGAP
 40
1.0
  9
$LUNITS
 70
     2
  9
$LUPREC
 70
     4
  9
$SKETCHINC
 40
0.1
  9
$FILLETRAD
 40
30.0
  9
$AUNITS
 70
     0
  9
$AUPREC
 70
     2
  9
$MENU
  1
acad
  9
$ELEVATION
 40
0.0
  9
$PELEVATION
 40
0.0
  9
$THICKNESS
 40
0.0
  9
$LIMCHECK
 70
     0
  9
$BLIPMODE
 70
     0
  9
$CHAMFERA
 40
8.0
  9
$CHAMFERB
 40
8.0
  9
$SKPOLY
 70
     0
  9
$TDCREATE
 40
2453957.375965347
  9
$TDUPDATE
 40
2454953.6495066551
  9
$TDINDWG
 40
0.1849558681
  9
$TDUSRTIMER
 40
0.1849558681
  9
$USRTIMER
 70
     1
  9
$ANGBASE
 50
0.0
  9
$ANGDIR
 70
     0
  9
$PDMODE
 70
     0
  9
$PDSIZE
 40
1.0
  9
$PLINEWID
 40
0.0
  9
$COORDS
 70
     1
  9
$SPLFRAME
 70
     0
  9
$SPLINETYPE
 70
     6
  9
$SPLINESEGS
 70
     8
  9
$ATTDIA
 70
     0
  9
$ATTREQ
 70
     1
  9
$HANDLING
 70
 10241
  9
$HANDSEED
  5
9008
  9
$SURFTAB1
 70
     6
  9
$SURFTAB2
 70
     6
  9
$SURFTYPE
 70
     6
  9
$SURFU
 70
     6
  9
$SURFV
 70
     6
  9
$UCSNAME
  2

  9
$UCSORG
 10
0.0
 20
-0.0000000000000142
 30
0.0
  9
$UCSXDIR
 10
1.0
 20
0.0
 30
0.0
  9
$UCSYDIR
 10
0.0
 20
1.0
 30
0.0
  9
$PUCSNAME
  2

  9
$PUCSORG
 10
0.0
 20
0.0
 30
0.0
  9
$PUCSXDIR
 10
1.0
 20
0.0
 30
0.0
  9
$PUCSYDIR
 10
0.0
 20
1.0
 30
0.0
  9
$USERI1
 70
     0
  9
$USERI2
 70
     0
  9
$USERI3
 70
     0
  9
$USERI4
 70
     0
  9
$USERI5
 70
     0
  9
$USERR1
 40
0.0
  9
$USERR2
 40
0.0
  9
$USERR3
 40
0.0
  9
$USERR4
 40
0.0
  9
$USERR5
 40
0.0
  9
$WORLDVIEW
 70
     1
  9
$SHADEDGE
 70
     3
  9
$SHADEDIF
 70
    70
  9
$TILEMODE
 70
     1
  9
$MAXACTVP
 70
    16
  9
$PLIMCHECK
 70
     0
  9
$PEXTMIN
 10
1.0000000000000000E+020
 20
1.0000000000000000E+020
 30
1.0000000000000000E+020
  9
$PEXTMAX
 10
-1.0000000000000000E+020
 20
-1.0000000000000000E+020
 30
-1.0000000000000000E+020
  9
$PLIMMIN
 10
0.0
 20
0.0
  9
$PLIMMAX
 10
12.0
 20
9.0
  9
$UNITMODE
 70
     0
  9
$VISRETAIN
 70
     0
  9
$PLINEGEN
 70
     0
  9
$PSLTSCALE
 70
     0
  0
ENDSEC
  0
SECTION
  2
TABLES
  0
TABLE
  2
VPORT
 70
     2
  0
VPORT
  2
*ACTIVE
 70
     0
 10
0.0
 20
0.0
 11
1.0
 21
1.0
 12
15647.76626766867
 22
2785.2885093761979
 13
0.0
 23
0.0
 14
5.0
 24
5.0
 15
0.0
 25
0.0
 16
0.0
 26
0.0
 36
1.0
 17
0.0
 27
0.0
 37
0.0
 40
4425.7559466776611
 41
3.1666666666666661
 42
50.0
 43
0.0
 44
0.0
 50
0.0
 51
0.0
 71
     0
 72
   100
 73
     1
 74
     0
 75
     0
 76
     0
 77
     0
 78
     0
  0
ENDTAB
  0
TABLE
  2
LTYPE
 70
     4
  0
LTYPE
  2
CONTINUOUS
 70
     0
  3
Solid line
 72
    65
 73
     0
 40
0.0
  0
LTYPE
  2
CENTER
 70
     0
  3
____ _ ____ _ ____ _ ____ _ ____ _ ____ _ ____ 
 72
    65
 73
     4
 40
2.0
 49
1.25
 49
-0.25
 49
0.25
 49
-0.25
  0
LTYPE
  2
HIDDEN
 70
     0
  3
__ __ __ __ __ __ __ __ __ __ __ __ __ __ __ __
 72
    65
 73
     2
 40
0.375
 49
0.25
 49
-0.125
  0
LTYPE
  2
PHANTOM
 70
     0
  3
______  __  __  ______  __  __  ______  __  __ 
 72
    65
 73
     6
 40
2.5
 49
1.25
 49
-0.25
 49
0.25
 49
-0.25
 49
0.25
 49
-0.25
  0
ENDTAB
  0
TABLE
  2
LAYER
 70
     9
  0
LAYER
  2
0
 70
     0
 62
     7
  6
CONTINUOUS
  0
LAYER
  2
CT
 70
     0
 62
     3
  6
CENTER
  0
LAYER
  2
FUTO
 70
     0
 62
     4
  6
CONTINUOUS
  0
LAYER
  2
HOSO
 70
     0
 62
     7
  6
CONTINUOUS
  0
LAYER
  2
KL
 70
     0
 62
     7
  6
HIDDEN
  0
LAYER
  2
SL
 70
     0
 62
     1
  6
PHANTOM
  0
LAYER
  2
SP
 70
     0
 62
     2
  6
CONTINUOUS
  0
LAYER
  2
DEFPOINTS
 70
     0
 62
     7
  6
CONTINUOUS
  0
LAYER
  2
4
 70
     0
 62
     7
  6
CONTINUOUS
  0
ENDTAB
  0
TABLE
  2
STYLE
 70
     1
  0
STYLE
  2
STANDARD
 70
     0
 40
0.0
 41
1.0
 50
15.0
 71
     0
 42
150.0
  3
C:\Program Files\AutoCAD LT\simplex.shx
  4
extfont.shx
  0
ENDTAB
  0
TABLE
  2
VIEW
 70
     0
  0
ENDTAB
  0
TABLE
  2
UCS
 70
     0
  0
ENDTAB
  0
TABLE
  2
APPID
 70
     1
  0
APPID
  2
ACAD
 70
     0
  0
ENDTAB
  0
TABLE
  2
DIMSTYLE
 70
     2
  0
DIMSTYLE
  2
STANDARD
 70
     0
  3

  4

  5

  6

  7

 40
1.0
 41
0.18
 42
0.0625
 43
0.38
 44
0.18
 45
0.0
 46
0.0
 47
0.0
 48
0.0
140
0.18
141
0.09
142
0.0
143
25.399999999999999
144
1.0
145
0.0
146
1.0
147
0.09
 71
     0
 72
     0
 73
     1
 74
     1
 75
     0
 76
     0
 77
     0
 78
     0
170
     0
171
     2
172
     0
173
     0
174
     0
175
     0
176
     0
177
     0
178
     0
  0
DIMSTYLE
  2
MATSU
 70
     0
  3

  4

  5

  6
OPEN
  7
OPEN
 40
1.0
 41
2.0
 42
1.0
 43
10.0
 44
1.0
 45
0.0
 46
0.0
 47
0.0
 48
0.0
140
3.0
141
0.0
142
0.0
143
0.03937
144
1.0
145
0.0
146
1.0
147
0.5
 71
     0
 72
     0
 73
     0
 74
     0
 75
     0
 76
     0
 77
     1
 78
     8
170
     0
171
     2
172
     1
173
     1
174
     0
175
     0
176
   256
177
   256
178
   256
  0
ENDTAB
  0
ENDSEC
  0
SECTION
  2
BLOCKS
  0
BLOCK
  8
0
  2
$MODEL_SPACE
 70
     0
 10
0.0
 20
0.0
 30
0.0
  3
$MODEL_SPACE
  1

  0
ENDBLK
  5
1B
  8
0
  0
BLOCK
 67
     1
  8
0
  2
$PAPER_SPACE
 70
     0
 10
0.0
 20
0.0
 30
0.0
  3
$PAPER_SPACE
  1

  0
ENDBLK
  5
18
 67
     1
  8
0
  0
BLOCK
  8
0
  2
_OPEN
 70
     0
 10
0.0
 20
0.0
 30
0.0
  3
_OPEN
  1

  0
LINE
  5
28
  8
0
  6
BYBLOCK
 62
     0
 10
-1.0
 20
0.1666666666666666
 30
0.0
 11
0.0
 21
0.0
 31
0.0
  0
LINE
  5
29
  8
0
  6
BYBLOCK
 62
     0
 10
0.0
 20
0.0
 30
0.0
 11
-1.0
 21
-0.1666666666666666
 31
0.0
  0
LINE
  5
2A
  8
0
  6
BYBLOCK
 62
     0
 10
0.0
 20
0.0
 30
0.0
 11
-1.0
 21
0.0
 31
0.0
  0
ENDBLK
  5
2B
  8
0
  0
BLOCK
  8
0
  2
まっすぐの矢印
 70
     0
 10
0.0
 20
0.0
 30
0.0
  3
まっすぐの矢印
  1

  0
LINE
  5
56E2
  8
SP
 10
0.6962157491662495
 20
-2.216890595009601
 30
0.0
 11
0.6962157491662495
 21
-5.0
 31
0.0
  0
LINE
  5
56E3
  8
SP
 10
0.6962157491662495
 20
-5.0
 30
0.0
 11
-0.6962157491662495
 21
-5.0
 31
0.0
  0
LINE
  5
56E4
  8
SP
 10
-0.6962157491662495
 20
-5.0
 30
0.0
 11
-0.6962157491662495
 21
-2.216890595009601
 31
0.0
  0
LINE
  5
56E5
  8
SP
 10
-0.6962157491662495
 20
-2.216890595009601
 30
0.0
 11
-1.7145256852758151
 21
-2.216890595009601
 31
0.0
  0
LINE
  5
56E6
  8
SP
 10
-1.7145256852758151
 20
-2.216890595009601
 30
0.0
 11
0.0
 21
0.0
 31
0.0
  0
LINE
  5
56E7
  8
SP
 10
0.0
 20
0.0
 30
0.0
 11
1.7145256852758151
 21
-2.216890595009601
 31
0.0
  0
LINE
  5
56E8
  8
SP
 10
1.7145256852758151
 20
-2.216890595009601
 30
0.0
 11
0.6962157491662495
 21
-2.216890595009601
 31
0.0
  0
ENDBLK
  5
56EA
  8
0
  0
BLOCK
  8
0
  2
右回転矢印
 70
     0
 10
0.0
 20
0.0
 30
0.0
  3
右回転矢印
  1

  0
LINE
  5
56EC
  8
SP
 10
-2.7705290305565882
 20
1.567794835092901
 30
0.0
 11
-2.4288000558398148
 21
2.8051227455822878
 31
0.0
  0
LINE
  5
56ED
  8
SP
 10
-2.4288000558398148
 20
2.8051227455822878
 30
0.0
 11
0.0
 21
0.0
 31
0.0
  0
LINE
  5
56EE
  8
SP
 10
0.0
 20
0.0
 30
0.0
 11
-3.3160037613098718
 21
-0.4072531086382499
 31
0.0
  0
LINE
  5
56EF
  8
SP
 10
-3.3160037613098718
 20
-0.4072531086382499
 30
0.0
 11
-3.0391574735299112
 21
0.5951483970269315
 31
0.0
  0
ARC
  5
56F0
  8
SP
 10
-5.9215210782018062
 20
-9.8412769578768184
 30
0.0
 40
10.82714154973578
 50
74.560750721316467
 51
112.11861101078711
  0
LINE
  5
56F1
  8
SP
 10
-9.9982127316752951
 20
0.1890560027239694
 30
0.0
 11
-10.37814929817227
 21
1.1238557349100611
 31
0.0
  0
ARC
  5
56F2
  8
SP
 10
-5.9215210782018062
 20
-9.8412769578768291
 30
0.0
 40
11.83620167374065
 50
74.560750721316396
 51
112.11861101078701
  0
ENDBLK
  5
56F4
  8
0
  0
BLOCK
  8
0
  2
*D3
 70
     1
 10
0.0
 20
0.0
 30
0.0
  3
*D3
  1

  0
LINE
  5
8F90
  8
SP
 10
8639.5177861500706
 20
5046.9043144659136
 30
0.0
 11
8639.5177861500706
 21
4796.3920042828104
 31
0.0
  0
LINE
  5
8F91
  8
SP
 10
9589.5177861500706
 20
5046.9043144659136
 30
0.0
 11
9589.5177861500706
 21
4796.3920042828104
 31
0.0
  0
LINE
  5
8F92
  8
SP
 10
8727.0177861500706
 20
4831.3920042828104
 30
0.0
 11
9502.0177861500706
 21
4831.3920042828104
 31
0.0
  0
INSERT
  5
8F93
  8
SP
  2
_OPEN
 10
8639.5177861500706
 20
4831.3920042828104
 30
0.0
 41
87.5
 42
87.5
 43
87.5
 50
180.0
  0
INSERT
  5
8F94
  8
SP
  2
_OPEN
 10
9589.5177861500706
 20
4831.3920042828104
 30
0.0
 41
87.5
 42
87.5
 43
87.5
  0
TEXT
  5
8F95
  8
FUTO
 10
8966.1203265285167
 20
4866.3920042828104
 30
0.0
 40
105.0
  1
950
 51
15.0
  0
POINT
  5
8F96
  8
DEFPOINTS
 62
     0
 10
8639.5177861500706
 20
5081.9043144659126
 30
0.0
  0
POINT
  5
8F97
  8
DEFPOINTS
 62
     0
 10
9589.5177861500706
 20
5081.9043144659126
 30
0.0
  0
POINT
  5
8F98
  8
DEFPOINTS
 62
     0
 10
9589.5177861500706
 20
4831.3920042828104
 30
0.0
  0
ENDBLK
  5
6A60
  8
0
  0
BLOCK
  8
0
  2
*D4
 70
     1
 10
0.0
 20
0.0
 30
0.0
  3
*D4
  1

  0
LINE
  5
8FA2
  8
SP
 10
9589.5177861500706
 20
5046.9043144659136
 30
0.0
 11
9589.5177861500706
 21
4796.3920042828104
 31
0.0
  0
LINE
  5
8FA3
  8
SP
 10
11139.517786150071
 20
5046.9043144659136
 30
0.0
 11
11139.517786150071
 21
4796.3920042828104
 31
0.0
  0
LINE
  5
8FA4
  8
SP
 10
9677.0177861500724
 20
4831.3920042828104
 30
0.0
 11
11052.017786150071
 21
4831.3920042828104
 31
0.0
  0
INSERT
  5
8FA5
  8
SP
  2
_OPEN
 10
9589.5177861500706
 20
4831.3920042828104
 30
0.0
 41
87.5
 42
87.5
 43
87.5
 50
180.0
  0
INSERT
  5
8FA6
  8
SP
  2
_OPEN
 10
11139.517786150071
 20
4831.3920042828104
 30
0.0
 41
87.5
 42
87.5
 43
87.5
  0
TEXT
  5
8FA7
  8
FUTO
 10
10169.24210479342
 20
4866.3920042828104
 30
0.0
 40
105.0
  1
1550
 51
15.0
  0
POINT
  5
8FA8
  8
DEFPOINTS
 62
     0
 10
9589.5177861500706
 20
5081.9043144659126
 30
0.0
  0
POINT
  5
8FA9
  8
DEFPOINTS
 62
     0
 10
11139.517786150071
 20
5081.9043144659126
 30
0.0
  0
POINT
  5
8FAA
  8
DEFPOINTS
 62
     0
 10
11139.517786150071
 20
4831.3920042828104
 30
0.0
  0
ENDBLK
  5
6A6D
  8
0
  0
BLOCK
  8
0
  2
*D5
 70
     1
 10
0.0
 20
0.0
 30
0.0
  3
*D5
  1

  0
LINE
  5
8F87
  8
SP
 10
8639.5177861500706
 20
5046.9043144659136
 30
0.0
 11
8639.5177861500706
 21
4546.3042602851528
 31
0.0
  0
LINE
  5
8F88
  8
SP
 10
11139.517786150071
 20
5046.9043144659136
 30
0.0
 11
11139.517786150071
 21
4546.3042602851528
 31
0.0
  0
LINE
  5
8F89
  8
SP
 10
8727.0177861500706
 20
4581.3042602851528
 30
0.0
 11
11052.017786150071
 21
4581.3042602851528
 31
0.0
  0
INSERT
  5
8F8A
  8
SP
  2
_OPEN
 10
8639.5177861500706
 20
4581.3042602851528
 30
0.0
 41
87.5
 42
87.5
 43
87.5
 50
180.0
  0
INSERT
  5
8F8B
  8
SP
  2
_OPEN
 10
11139.517786150071
 20
4581.3042602851528
 30
0.0
 41
87.5
 42
87.5
 43
87.5
  0
TEXT
  5
8F8C
  8
FUTO
 10
9695.6299454717482
 20
4616.3042602851519
 30
0.0
 40
105.0
  1
2500
 51
15.0
  0
POINT
  5
8F8D
  8
DEFPOINTS
 62
     0
 10
8639.5177861500706
 20
5081.9043144659126
 30
0.0
  0
POINT
  5
8F8E
  8
DEFPOINTS
 62
     0
 10
11139.517786150071
 20
5081.9043144659126
 30
0.0
  0
POINT
  5
8F8F
  8
DEFPOINTS
 62
     0
 10
11139.517786150071
 20
4581.3042602851528
 30
0.0
  0
ENDBLK
  5
6A7A
  8
0
  0
BLOCK
  8
0
  2
*D6
 70
     1
 10
0.0
 20
0.0
 30
0.0
  3
*D6
  1

  0
LINE
  5
8FD7
  8
SP
 10
12114.675302493901
 20
5046.9043144659117
 30
0.0
 11
12114.675302493901
 21
4796.3919808949731
 31
0.0
  0
LINE
  5
8FD8
  8
SP
 10
13745.675302493901
 20
5046.9043144659136
 30
0.0
 11
13745.675302493901
 21
4796.3919808949731
 31
0.0
  0
LINE
  5
8FD9
  8
SP
 10
12202.175302493901
 20
4831.3919808949722
 30
0.0
 11
13658.175302493901
 21
4831.3919808949722
 31
0.0
  0
INSERT
  5
8FDA
  8
SP
  2
_OPEN
 10
12114.675302493901
 20
4831.3919808949722
 30
0.0
 41
87.5
 42
87.5
 43
87.5
 50
180.0
  0
INSERT
  5
8FDB
  8
SP
  2
_OPEN
 10
13745.675302493901
 20
4831.3919808949722
 30
0.0
 41
87.5
 42
87.5
 43
87.5
  0
TEXT
  5
8FDC
  8
FUTO
 10
12752.220129212939
 20
4866.3919808949722
 30
0.0
 40
105.0
  1
1631
 51
15.0
  0
POINT
  5
8FDD
  8
DEFPOINTS
 62
     0
 10
12114.675302493901
 20
5081.9043144659117
 30
0.0
  0
POINT
  5
8FDE
  8
DEFPOINTS
 62
     0
 10
13745.675302493901
 20
5081.9043144659126
 30
0.0
  0
POINT
  5
8FDF
  8
DEFPOINTS
 62
     0
 10
13745.675302493901
 20
4831.3919808949722
 30
0.0
  0
ENDBLK
  5
6A87
  8
0
  0
BLOCK
  8
0
  2
*D7
 70
     1
 10
0.0
 20
0.0
 30
0.0
  3
*D7
  1

  0
LINE
  5
8FE0
  8
SP
 10
13745.675302493901
 20
5046.9043144659136
 30
0.0
 11
13745.675302493901
 21
4796.3919808949731
 31
0.0
  0
LINE
  5
8FE1
  8
SP
 10
14414.675302493901
 20
5046.9043144659117
 30
0.0
 11
14414.675302493901
 21
4796.3919808949731
 31
0.0
  0
LINE
  5
8FE2
  8
SP
 10
13833.175302493901
 20
4831.3919808949722
 30
0.0
 11
14327.175302493901
 21
4831.3919808949722
 31
0.0
  0
INSERT
  5
8FE3
  8
SP
  2
_OPEN
 10
13745.675302493901
 20
4831.3919808949722
 30
0.0
 41
87.5
 42
87.5
 43
87.5
 50
180.0
  0
INSERT
  5
8FE4
  8
SP
  2
_OPEN
 10
14414.675302493901
 20
4831.3919808949722
 30
0.0
 41
87.5
 42
87.5
 43
87.5
  0
TEXT
  5
8FE5
  8
FUTO
 10
13933.60796989126
 20
4866.3919808949722
 30
0.0
 40
105.0
  1
669
 51
15.0
  0
POINT
  5
8FE6
  8
DEFPOINTS
 62
     0
 10
13745.675302493901
 20
5081.9043144659126
 30
0.0
  0
POINT
  5
8FE7
  8
DEFPOINTS
 62
     0
 10
14414.675302493901
 20
5081.9043144659117
 30
0.0
  0
POINT
  5
8FE8
  8
DEFPOINTS
 62
     0
 10
14414.675302493901
 20
4831.3919808949722
 30
0.0
  0
ENDBLK
  5
6A94
  8
0
  0
BLOCK
  8
0
  2
*D8
 70
     1
 10
0.0
 20
0.0
 30
0.0
  3
*D8
  1

  0
LINE
  5
8FCE
  8
SP
 10
12114.675302493901
 20
5046.9043144659117
 30
0.0
 11
12114.675302493901
 21
4546.3042368973147
 31
0.0
  0
LINE
  5
8FCF
  8
SP
 10
14414.675302493901
 20
5046.9043144659117
 30
0.0
 11
14414.675302493901
 21
4546.3042368973147
 31
0.0
  0
LINE
  5
8FD0
  8
SP
 10
12202.175302493901
 20
4581.3042368973147
 30
0.0
 11
14327.175302493901
 21
4581.3042368973147
 31
0.0
  0
INSERT
  5
8FD1
  8
SP
  2
_OPEN
 10
12114.675302493901
 20
4581.3042368973147
 30
0.0
 41
87.5
 42
87.5
 43
87.5
 50
180.0
  0
INSERT
  5
8FD2
  8
SP
  2
_OPEN
 10
14414.675302493901
 20
4581.3042368973147
 30
0.0
 41
87.5
 42
87.5
 43
87.5
  0
TEXT
  5
8FD3
  8
FUTO
 10
13070.787461815569
 20
4616.3042368973138
 30
0.0
 40
105.0
  1
2300
 51
15.0
  0
POINT
  5
8FD4
  8
DEFPOINTS
 62
     0
 10
12114.675302493901
 20
5081.9043144659117
 30
0.0
  0
POINT
  5
8FD5
  8
DEFPOINTS
 62
     0
 10
14414.675302493901
 20
5081.9043144659117
 30
0.0
  0
POINT
  5
8FD6
  8
DEFPOINTS
 62
     0
 10
14414.675302493901
 20
4581.3042368973147
 30
0.0
  0
ENDBLK
  5
6AA1
  8
0
  0
BLOCK
  8
0
  2
*D9
 70
     1
 10
0.0
 20
0.0
 30
0.0
  3
*D9
  1

  0
LINE
  5
8FC5
  8
SP
 10
13745.675302493901
 20
8430.5059565339179
 30
0.0
 11
13745.675302493901
 21
8476.4783360828897
 31
0.0
  0
LINE
  5
8FC6
  8
SP
 10
14470.675302493901
 20
7867.4411880731359
 30
0.0
 11
14470.675302493901
 21
8476.4783360828897
 31
0.0
  0
LINE
  5
8FC7
  8
SP
 10
13833.175302493901
 20
8441.4783360828878
 30
0.0
 11
14383.175302493901
 21
8441.4783360828878
 31
0.0
  0
INSERT
  5
8FC8
  8
SP
  2
_OPEN
 10
13745.675302493901
 20
8441.4783360828878
 30
0.0
 41
87.5
 42
87.5
 43
87.5
 50
180.0
  0
INSERT
  5
8FC9
  8
SP
  2
_OPEN
 10
14470.675302493901
 20
8441.4783360828878
 30
0.0
 41
87.5
 42
87.5
 43
87.5
  0
TEXT
  5
8FCA
  8
FUTO
 10
13954.10796989126
 20
8476.4783360828897
 30
0.0
 40
105.0
  1
725
 51
15.0
  0
POINT
  5
8FCB
  8
DEFPOINTS
 62
     0
 10
13745.675302493901
 20
8395.5059565339197
 30
0.0
  0
POINT
  5
8FCC
  8
DEFPOINTS
 62
     0
 10
14470.675302493901
 20
7832.4411880731368
 30
0.0
  0
POINT
  5
8FCD
  8
DEFPOINTS
 62
     0
 10
14470.675302493901
 20
8441.4783360828878
 30
0.0
  0
ENDBLK
  5
6AFF
  8
0
  0
BLOCK
  8
0
  2
*D10
 70
     1
 10
0.0
 20
0.0
 30
0.0
  3
*D10
  1

  0
LINE
  5
8FE9
  8
SP
 10
14505.675302493901
 20
7781.9043144659126
 30
0.0
 11
14784.868703695771
 21
7781.9043144659126
 31
0.0
  0
LINE
  5
8FEA
  8
SP
 10
14505.675302493901
 20
6181.9043144659136
 30
0.0
 11
14784.868703695771
 21
6181.9043144659136
 31
0.0
  0
LINE
  5
8FEB
  8
SP
 10
14749.868703695771
 20
7694.4043144659126
 30
0.0
 11
14749.868703695771
 21
6269.4043144659136
 31
0.0
  0
INSERT
  5
8FEC
  8
SP
  2
_OPEN
 10
14749.868703695771
 20
7781.9043144659126
 30
0.0
 41
87.5
 42
87.5
 43
87.5
 50
90.0
  0
INSERT
  5
8FED
  8
SP
  2
_OPEN
 10
14749.868703695771
 20
6181.9043144659136
 30
0.0
 41
87.5
 42
87.5
 43
87.5
 50
270.0
  0
TEXT
  5
8FEE
  8
FUTO
 10
14714.868703695771
 20
6750.2055846551384
 30
0.0
 40
105.0
  1
φ1600
 50
90.0
 51
15.0
  0
POINT
  5
8FEF
  8
DEFPOINTS
 62
     0
 10
14470.675302493901
 20
7781.9043144659126
 30
0.0
  0
POINT
  5
8FF0
  8
DEFPOINTS
 62
     0
 10
14470.675302493901
 20
6181.9043144659136
 30
0.0
  0
POINT
  5
8FF1
  8
DEFPOINTS
 62
     0
 10
14749.868703695771
 20
6181.9043144659136
 30
0.0
  0
ENDBLK
  5
6F63
  8
0
  0
BLOCK
  8
0
  2
*D11
 70
     1
 10
0.0
 20
0.0
 30
0.0
  3
*D11
  1

  0
LINE
  5
8FBD
  8
SP
 10
11865.675302493901
 20
7382.172905778787
 30
0.0
 11
11865.675302493901
 21
8476.4783360828897
 31
0.0
  0
LINE
  5
8FBE
  8
SP
 10
11953.175302493901
 20
8441.4783360828878
 30
0.0
 11
13658.175302493901
 21
8441.4783360828878
 31
0.0
  0
INSERT
  5
8FBF
  8
SP
  2
_OPEN
 10
11865.675302493901
 20
8441.4783360828878
 30
0.0
 41
87.5
 42
87.5
 43
87.5
 50
180.0
  0
INSERT
  5
8FC0
  8
SP
  2
_OPEN
 10
13745.675302493901
 20
8441.4783360828878
 30
0.0
 41
87.5
 42
87.5
 43
87.5
  0
TEXT
  5
8FC1
  8
FUTO
 10
12610.399621137251
 20
8476.4783360828897
 30
0.0
 40
105.0
  1
1880
 51
15.0
  0
POINT
  5
8FC2
  8
DEFPOINTS
 62
     0
 10
11865.675302493901
 20
7347.172905778787
 30
0.0
  0
POINT
  5
8FC3
  8
DEFPOINTS
 62
     0
 10
13745.675302493901
 20
8441.4783360828878
 30
0.0
  0
POINT
  5
8FC4
  8
DEFPOINTS
 62
     0
 10
13745.675302493901
 20
8441.4783360828878
 30
0.0
  0
ENDBLK
  5
6FBD
  8
0
  0
BLOCK
  8
0
  2
*D12
 70
     1
 10
0.0
 20
0.0
 30
0.0
  3
*D12
  1

  0
LINE
  5
8F6C
  8
SP
 10
11387.517786150071
 20
11050.31423566702
 30
0.0
 11
11730.137546463669
 21
11050.31423566702
 31
0.0
  0
LINE
  5
8F6D
  8
SP
 10
10489.517786150071
 20
11775.31423566702
 30
0.0
 11
11730.137546463669
 21
11775.31423566702
 31
0.0
  0
LINE
  5
8F6E
  8
SP
 10
11695.13754646366
 20
11137.81423566702
 30
0.0
 11
11695.13754646366
 21
11687.81423566702
 31
0.0
  0
INSERT
  5
8F6F
  8
SP
  2
_OPEN
 10
11695.13754646366
 20
11050.31423566702
 30
0.0
 41
87.5
 42
87.5
 43
87.5
 50
270.0
  0
INSERT
  5
8F70
  8
SP
  2
_OPEN
 10
11695.13754646366
 20
11775.31423566702
 30
0.0
 41
87.5
 42
87.5
 43
87.5
 50
90.0
  0
TEXT
  5
8F71
  8
FUTO
 10
11660.13754646366
 20
11258.746903064381
 30
0.0
 40
105.0
  1
725
 50
90.0
 51
15.0
  0
POINT
  5
8F72
  8
DEFPOINTS
 62
     0
 10
11352.517786150071
 20
11050.31423566702
 30
0.0
  0
POINT
  5
8F73
  8
DEFPOINTS
 62
     0
 10
10454.517786150071
 20
11775.31423566702
 30
0.0
  0
POINT
  5
8F74
  8
DEFPOINTS
 62
     0
 10
11695.13754646366
 20
11775.31423566702
 30
0.0
  0
ENDBLK
  5
80A1
  8
0
  0
BLOCK
  8
0
  2
*D13
 70
     1
 10
0.0
 20
0.0
 30
0.0
  3
*D13
  1

  0
LINE
  5
8F63
  8
SP
 10
11387.517786150071
 20
11050.31423566702
 30
0.0
 11
11730.137546463669
 21
11050.31423566702
 31
0.0
  0
LINE
  5
8F64
  8
SP
 10
11078.017786150071
 20
9170.3142356670141
 30
0.0
 11
11730.137546463669
 21
9170.3142356670141
 31
0.0
  0
LINE
  5
8F65
  8
SP
 10
11695.13754646366
 20
10962.814235667011
 30
0.0
 11
11695.13754646366
 21
9257.814235667016
 31
0.0
  0
INSERT
  5
8F66
  8
SP
  2
_OPEN
 10
11695.13754646366
 20
11050.31423566702
 30
0.0
 41
87.5
 42
87.5
 43
87.5
 50
90.0
  0
INSERT
  5
8F67
  8
SP
  2
_OPEN
 10
11695.13754646366
 20
9170.3142356670141
 30
0.0
 41
87.5
 42
87.5
 43
87.5
 50
270.0
  0
TEXT
  5
8F68
  8
FUTO
 10
11660.13754646366
 20
9915.0385543103766
 30
0.0
 40
105.0
  1
1880
 50
90.0
 51
15.0
  0
POINT
  5
8F69
  8
DEFPOINTS
 62
     0
 10
11352.517786150071
 20
11050.31423566702
 30
0.0
  0
POINT
  5
8F6A
  8
DEFPOINTS
 62
     0
 10
11043.017786150071
 20
9170.3142356670141
 30
0.0
  0
POINT
  5
8F6B
  8
DEFPOINTS
 62
     0
 10
11695.13754646366
 20
9170.3142356670141
 30
0.0
  0
ENDBLK
  5
80AE
  8
0
  0
BLOCK
  8
0
  2
*D14
 70
     1
 10
0.0
 20
0.0
 30
0.0
  3
*D14
  1

  0
LINE
  5
8FB4
  8
SP
 10
9589.5177861500706
 20
11855.09214748388
 30
0.0
 11
9589.5177861500706
 21
12121.245124645529
 31
0.0
  0
LINE
  5
8FB5
  8
SP
 10
11139.517786150071
 20
10491.314235667011
 30
0.0
 11
11139.517786150071
 21
12121.245124645529
 31
0.0
  0
LINE
  5
8FB6
  8
SP
 10
9677.0177861500724
 20
12086.245124645529
 30
0.0
 11
11052.017786150071
 21
12086.245124645529
 31
0.0
  0
INSERT
  5
8FB7
  8
SP
  2
_OPEN
 10
9589.5177861500706
 20
12086.245124645529
 30
0.0
 41
87.5
 42
87.5
 43
87.5
 50
180.0
  0
INSERT
  5
8FB8
  8
SP
  2
_OPEN
 10
11139.517786150071
 20
12086.245124645529
 30
0.0
 41
87.5
 42
87.5
 43
87.5
  0
TEXT
  5
8FB9
  8
FUTO
 10
10169.24210479342
 20
12121.245124645529
 30
0.0
 40
105.0
  1
1550
 51
15.0
  0
POINT
  5
8FBA
  8
DEFPOINTS
 62
     0
 10
9589.5177861500706
 20
11820.09214748388
 30
0.0
  0
POINT
  5
8FBB
  8
DEFPOINTS
 62
     0
 10
11139.517786150071
 20
10456.314235667011
 30
0.0
  0
POINT
  5
8FBC
  8
DEFPOINTS
 62
     0
 10
11139.517786150071
 20
12086.245124645529
 30
0.0
  0
ENDBLK
  5
8221
  8
0
  0
BLOCK
  8
0
  2
*D15
 70
     1
 10
0.0
 20
0.0
 30
0.0
  3
*D15
  1

  0
LINE
  5
8FAB
  8
SP
 10
9589.5177861500706
 20
11855.09214748388
 30
0.0
 11
9589.5177861500706
 21
12121.245124645529
 31
0.0
  0
LINE
  5
8FAC
  8
SP
 10
8544.5177861500724
 20
11729.314235667011
 30
0.0
 11
8544.5177861500724
 21
12121.245124645529
 31
0.0
  0
LINE
  5
8FAD
  8
SP
 10
9502.0177861500706
 20
12086.245124645529
 30
0.0
 11
8632.0177861500706
 21
12086.245124645529
 31
0.0
  0
INSERT
  5
8FAE
  8
SP
  2
_OPEN
 10
9589.5177861500706
 20
12086.245124645529
 30
0.0
 41
87.5
 42
87.5
 43
87.5
  0
INSERT
  5
8FAF
  8
SP
  2
_OPEN
 10
8544.5177861500724
 20
12086.245124645529
 30
0.0
 41
87.5
 42
87.5
 43
87.5
 50
180.0
  0
TEXT
  5
8FB0
  8
FUTO
 10
8871.5626128691147
 20
12121.245124645529
 30
0.0
 40
105.0
  1
1045
 51
15.0
  0
POINT
  5
8FB1
  8
DEFPOINTS
 62
     0
 10
9589.5177861500706
 20
11820.09214748388
 30
0.0
  0
POINT
  5
8FB2
  8
DEFPOINTS
 62
     0
 10
8544.5177861500724
 20
11694.314235667011
 30
0.0
  0
POINT
  5
8FB3
  8
DEFPOINTS
 62
     0
 10
8544.5177861500724
 20
12086.245124645529
 30
0.0
  0
ENDBLK
  5
822E
  8
0
  0
BLOCK
  8
0
  2
*D16
 70
     1
 10
0.0
 20
0.0
 30
0.0
  3
*D16
  1

  0
LINE
  5
8F7E
  8
SP
 10
9457.0030052207039
 20
8120.9043144659136
 30
0.0
 11
8146.8987344147936
 21
8120.9043144659136
 31
0.0
  0
LINE
  5
8F7F
  8
SP
 10
8244.8549498826978
 20
6981.9043144659126
 30
0.0
 11
8146.8987344147936
 21
6981.9043144659126
 31
0.0
  0
LINE
  5
8F80
  8
SP
 10
8181.8987344147936
 20
8033.4043144659126
 30
0.0
 11
8181.8987344147936
 21
7069.4043144659126
 31
0.0
  0
INSERT
  5
8F81
  8
SP
  2
_OPEN
 10
8181.8987344147936
 20
8120.9043144659136
 30
0.0
 41
87.5
 42
87.5
 43
87.5
 50
90.0
  0
INSERT
  5
8F82
  8
SP
  2
_OPEN
 10
8181.8987344147936
 20
6981.9043144659126
 30
0.0
 41
87.5
 42
87.5
 43
87.5
 50
270.0
  0
TEXT
  5
8F83
  8
FUTO
 10
8146.8987344147936
 20
7367.958760128191
 30
0.0
 40
105.0
  1
1139
 50
90.0
 51
15.0
  0
POINT
  5
8F84
  8
DEFPOINTS
 62
     0
 10
9492.0030052207039
 20
8120.9043144659136
 30
0.0
  0
POINT
  5
8F85
  8
DEFPOINTS
 62
     0
 10
8279.8549498826978
 20
6981.9043144659126
 30
0.0
  0
POINT
  5
8F86
  8
DEFPOINTS
 62
     0
 10
8181.8987344147936
 20
6981.9043144659126
 30
0.0
  0
ENDBLK
  5
83E3
  8
0
  0
BLOCK
  8
0
  2
*D17
 70
     1
 10
0.0
 20
0.0
 30
0.0
  3
*D17
  1

  0
LINE
  5
8F99
  8
SP
 10
8244.8549498826978
 20
6981.9043144659126
 30
0.0
 11
8146.8987344147954
 21
6981.9043144659126
 31
0.0
  0
LINE
  5
8F9A
  8
SP
 10
8604.5177861500706
 20
5081.9043144659126
 30
0.0
 11
8146.8987344147936
 21
5081.9043144659126
 31
0.0
  0
LINE
  5
8F9B
  8
SP
 10
8181.8987344147936
 20
6894.4043144659126
 30
0.0
 11
8181.8987344147936
 21
5169.4043144659126
 31
0.0
  0
INSERT
  5
8F9C
  8
SP
  2
_OPEN
 10
8181.8987344147936
 20
6981.9043144659126
 30
0.0
 41
87.5
 42
87.5
 43
87.5
 50
90.0
  0
INSERT
  5
8F9D
  8
SP
  2
_OPEN
 10
8181.8987344147936
 20
5081.9043144659126
 30
0.0
 41
87.5
 42
87.5
 43
87.5
 50
270.0
  0
TEXT
  5
8F9E
  8
FUTO
 10
8146.8987344147936
 20
5836.6286331092688
 30
0.0
 40
105.0
  1
1900
 50
90.0
 51
15.0
  0
POINT
  5
8F9F
  8
DEFPOINTS
 62
     0
 10
8279.8549498826978
 20
6981.9043144659126
 30
0.0
  0
POINT
  5
8FA0
  8
DEFPOINTS
 62
     0
 10
8639.5177861500706
 20
5081.9043144659126
 30
0.0
  0
POINT
  5
8FA1
  8
DEFPOINTS
 62
     0
 10
8181.8987344147936
 20
5081.9043144659126
 30
0.0
  0
ENDBLK
  5
83F1
  8
0
  0
BLOCK
  8
0
  2
*D18
 70
     1
 10
0.0
 20
0.0
 30
0.0
  3
*D18
  1

  0
LINE
  5
8F75
  8
SP
 10
9589.5177861500706
 20
8412.6165375371638
 30
0.0
 11
9589.5177861500706
 21
8476.4783360828897
 31
0.0
  0
LINE
  5
8F76
  8
SP
 10
8544.5177861500724
 20
7039.9043144659126
 30
0.0
 11
8544.5177861500724
 21
8476.4783360828897
 31
0.0
  0
LINE
  5
8F77
  8
SP
 10
9502.0177861500706
 20
8441.4783360828878
 30
0.0
 11
8632.0177861500706
 21
8441.4783360828878
 31
0.0
  0
INSERT
  5
8F78
  8
SP
  2
_OPEN
 10
9589.5177861500706
 20
8441.4783360828878
 30
0.0
 41
87.5
 42
87.5
 43
87.5
  0
INSERT
  5
8F79
  8
SP
  2
_OPEN
 10
8544.5177861500724
 20
8441.4783360828878
 30
0.0
 41
87.5
 42
87.5
 43
87.5
 50
180.0
  0
TEXT
  5
8F7A
  8
FUTO
 10
8871.5626128691147
 20
8476.4783360828897
 30
0.0
 40
105.0
  1
1045
 51
15.0
  0
POINT
  5
8F7B
  8
DEFPOINTS
 62
     0
 10
9589.5177861500706
 20
8377.616537537162
 30
0.0
  0
POINT
  5
8F7C
  8
DEFPOINTS
 62
     0
 10
8544.5177861500724
 20
7004.9043144659136
 30
0.0
  0
POINT
  5
8F7D
  8
DEFPOINTS
 62
     0
 10
8544.5177861500724
 20
8441.4783360828878
 30
0.0
  0
ENDBLK
  5
83FE
  8
0
  0
ENDSEC
  0
SECTION
  2
ENTITIES
  0
LINE
  5
522D
  8
CT
 10
8279.8549498826978
 20
6981.9043144659126
 30
0.0
 11
11082.437276290781
 21
6981.9043144659126
 31
0.0
  0
LINE
  5
522E
  8
CT
 10
9589.5177861500706
 20
8377.616537537162
 30
0.0
 11
9589.5177861500706
 21
5058.3122891139028
 31
0.0
  0
ARC
  5
5232
  8
KL
 10
9473.5177861500706
 20
6865.9043144659136
 30
0.0
 40
1487.0
 50
274.47415597605601
 51
0.0000000000000044
  0
ARC
  5
5234
  8
KL
 10
9705.5177861500706
 20
6865.9043144659136
 30
0.0
 40
1255.0
 50
0.0000000000000044
 51
90.000000000000028
  0
ARC
  5
5238
  8
KL
 10
9686.5177861500706
 20
7078.9043144659126
 30
0.0
 40
1042.0
 50
90.000000000000028
 51
180.0
  0
ARC
  5
5239
  8
KL
 10
9492.5177861500724
 20
7078.9043144659126
 30
0.0
 40
848.0
 50
180.0
 51
213.7047429507289
  0
LINE
  5
523A
  8
FUTO
 10
8544.5177861500724
 20
6939.9043144659126
 30
0.0
 11
8544.5177861500724
 21
5283.9043144659136
 31
0.0
  0
LINE
  5
523C
  8
KL
 10
8544.5177861500724
 20
6936.9043144659126
 30
0.0
 11
8656.4914707747703
 21
6936.9043144659126
 31
0.0
  0
LINE
  5
523D
  8
KL
 10
9589.5177861500706
 20
5383.4357650524698
 30
0.0
 11
8544.5177861500724
 21
5286.9043144659136
 31
0.0
  0
LINE
  5
523F
  8
FUTO
 10
8609.5177861500688
 20
6954.9043144659126
 30
0.0
 11
8609.5177861500688
 21
5274.8320286111093
 31
0.0
  0
LINE
  5
5251
  8
FUTO
 10
8544.5177861500724
 20
6939.9043144659126
 30
0.0
 11
8544.5177861500724
 21
7004.9043144659136
 31
0.0
  0
LINE
  5
5252
  8
FUTO
 10
8544.5177861500724
 20
6939.9043144659126
 30
0.0
 11
8609.5177861500688
 21
6939.9043144659126
 31
0.0
  0
LINE
  5
5253
  8
FUTO
 10
8544.5177861500724
 20
7004.9043144659136
 30
0.0
 11
8546.5177861500706
 21
7004.9043144659136
 31
0.0
  0
LINE
  5
5254
  8
FUTO
 10
8609.5177861500688
 20
6939.9043144659126
 30
0.0
 11
8609.5177861500688
 21
6941.9043144659136
 31
0.0
  0
LINE
  5
5255
  8
FUTO
 10
8559.0177861500706
 20
6945.9043144659126
 30
0.0
 11
8605.5177861500724
 21
6945.9043144659126
 31
0.0
  0
LINE
  5
5256
  8
FUTO
 10
8550.5177861500724
 20
6954.4043144659136
 30
0.0
 11
8550.5177861500724
 21
7000.9043144659126
 31
0.0
  0
ARC
  5
5257
  8
FUTO
 10
8546.5177861500706
 20
7000.9043144659126
 30
0.0
 40
4.0
 50
0.0000000000000044
 51
90.000000000000028
  0
ARC
  5
5258
  8
FUTO
 10
8605.5177861500724
 20
6941.9043144659136
 30
0.0
 40
4.0
 50
0.0000000000007888
 51
90.000000000000028
  0
ARC
  5
5259
  8
FUTO
 10
8559.0177861500706
 20
6954.4043144659136
 30
0.0
 40
8.5
 50
180.0
 51
270.0
  0
LINE
  5
525A
  8
FUTO
 10
8544.5177861500724
 20
5283.9043144659136
 30
0.0
 11
8609.5177861500688
 21
5283.9043144659136
 31
0.0
  0
LINE
  5
525B
  8
FUTO
 10
8544.5177861500724
 20
5283.9043144659136
 30
0.0
 11
8544.5177861500724
 21
5218.9043144659126
 31
0.0
  0
LINE
  5
525C
  8
FUTO
 10
8609.5177861500688
 20
5283.9043144659136
 30
0.0
 11
8609.5177861500688
 21
5281.9043144659126
 31
0.0
  0
LINE
  5
525D
  8
FUTO
 10
8544.5177861500724
 20
5218.9043144659126
 30
0.0
 11
8546.5177861500706
 21
5218.9043144659126
 31
0.0
  0
LINE
  5
525E
  8
FUTO
 10
8550.5177861500724
 20
5269.4043144659126
 30
0.0
 11
8550.5177861500724
 21
5222.9043144659136
 31
0.0
  0
LINE
  5
525F
  8
FUTO
 10
8559.0177861500706
 20
5277.9043144659136
 30
0.0
 11
8605.5177861500724
 21
5277.9043144659136
 31
0.0
  0
ARC
  5
5260
  8
FUTO
 10
8605.5177861500724
 20
5281.9043144659126
 30
0.0
 40
4.0
 50
270.0
 51
0.0000000000000044
  0
ARC
  5
5261
  8
FUTO
 10
8546.5177861500706
 20
5222.9043144659136
 30
0.0
 40
4.0
 50
270.0000000000008
 51
0.0000000000000044
  0
ARC
  5
5262
  8
FUTO
 10
8559.0177861500706
 20
5269.4043144659126
 30
0.0
 40
8.5
 50
90.000000000000028
 51
180.0
  0
LINE
  5
5263
  8
FUTO
 10
8550.5177861500724
 20
6939.9043144659126
 30
0.0
 11
8550.5177861500724
 21
5283.9043144659136
 31
0.0
  0
ARC
  5
5264
  8
FUTO
 10
9492.5177861500724
 20
7078.9043144659126
 30
0.0
 40
866.0
 50
180.0
 51
188.23231031500279
  0
LINE
  5
5265
  8
FUTO
 10
8609.5177861500688
 20
6954.9043144659126
 30
0.0
 11
8635.4413601529486
 21
6954.9043144659126
 31
0.0
  0
ARC
  5
5266
  8
FUTO
 10
9686.5177861500706
 20
7078.9043144659126
 30
0.0
 40
1060.0
 50
95.250449670200936
 51
180.0
  0
ARC
  5
5269
  8
FUTO
 10
9705.5177861500706
 20
6865.9043144659136
 30
0.0
 40
1273.0
 50
5.2282347681325492
 51
95.228234768132538
  0
LINE
  5
526B
  8
FUTO
 10
8975.7059551065595
 20
5308.6585119958027
 30
0.0
 11
8609.5177861500688
 21
5274.8320286111093
 31
0.0
  0
CIRCLE
  5
526C
  8
KL
 10
8772.9172024927193
 20
6598.9043144659126
 30
0.0
 40
17.0
  0
LINE
  5
526D
  8
FUTO
 10
11139.517786150071
 20
5081.9043144659126
 30
0.0
 11
8639.5177861500706
 21
5081.9043144659126
 31
0.0
  0
LINE
  5
526E
  8
FUTO
 10
11139.517786150071
 20
5231.9043144659126
 30
0.0
 11
8639.5177861500706
 21
5231.9043144659126
 31
0.0
  0
LINE
  5
526F
  8
FUTO
 10
8639.5177861500706
 20
5231.9043144659126
 30
0.0
 11
8639.5177861500706
 21
5081.9043144659126
 31
0.0
  0
LINE
  5
5270
  8
FUTO
 10
11139.517786150071
 20
5231.9043144659126
 30
0.0
 11
11139.517786150071
 21
5081.9043144659154
 31
0.0
  0
LINE
  5
5273
  8
FUTO
 10
8649.5177861500706
 20
5231.9043144659126
 30
0.0
 11
8649.5177861500706
 21
7298.5198876842069
 31
0.0
  0
LINE
  5
5274
  8
FUTO
 10
10529.517786150071
 20
7836.2408540231954
 30
0.0
 11
10529.517786150071
 21
6990.9043144659136
 31
0.0
  0
LINE
  5
5275
  8
FUTO
 10
10520.517786150071
 20
7843.812285596121
 30
0.0
 11
10520.517786150071
 21
6990.9043144659136
 31
0.0
  0
LINE
  5
5276
  8
FUTO
 10
8658.5177861500706
 20
5231.9043144659126
 30
0.0
 11
8658.5177861500706
 21
7337.3922252083703
 31
0.0
  0
LINE
  5
52EB
  8
CT
 10
10603.061428864919
 20
5261.9043144659136
 30
0.0
 11
11231.85450661076
 21
5261.9043144659136
 31
0.0
  0
LINE
  5
52F4
  8
CT
 10
10839.517786150071
 20
5114.9188813138444
 30
0.0
 11
10839.517786150071
 21
5755.0168955104446
 31
0.0
  0
LINE
  5
5391
  8
CT
 10
9444.5177861500706
 20
6861.9043144659136
 30
0.0
 11
9444.5177861500706
 21
6935.9043144659136
 31
0.0
  0
LINE
  5
5393
  8
CT
 10
9734.5177861500706
 20
6861.9043144659136
 30
0.0
 11
9734.5177861500706
 21
6935.9043144659136
 31
0.0
  0
ARC
  5
53C8
  8
FUTO
 10
9766.5177861500706
 20
6912.9043144659126
 30
0.0
 40
3.0
 50
0.000000000000007
 51
90.0
  0
LINE
  5
53C9
  8
FUTO
 10
9769.5177861500706
 20
6912.9043144659126
 30
0.0
 11
9769.5177861500706
 21
6881.9043144659154
 31
0.0
  0
ARC
  5
53CA
  8
FUTO
 10
9637.0177861500706
 20
7064.1767278254347
 30
0.0
 40
15.00000000000038
 50
325.47193698619282
 51
154.52806301381281
  0
LINE
  5
53CB
  8
FUTO
 10
9605.1994488478722
 20
7075.6010884500392
 30
0.0
 11
9605.1994488478722
 21
7081.9043144659126
 31
0.0
  0
LINE
  5
53CC
  8
FUTO
 10
9573.8361234522672
 20
7075.6010884500392
 30
0.0
 11
9573.8361234522672
 21
7081.9043144659126
 31
0.0
  0
LINE
  5
53CD
  8
FUTO
 10
9573.8361234522672
 20
7081.9043144659154
 30
0.0
 11
9605.1994488478722
 21
7081.9043144659126
 31
0.0
  0
ARC
  5
53CE
  8
FUTO
 10
9589.5177861500688
 20
6981.9043144659126
 30
0.0
 40
95.000000000000057
 50
9.0561260276173208
 51
50.943873972382391
  0
LINE
  5
53CF
  8
FUTO
 10
9684.5177861500706
 20
6966.9043144659136
 30
0.0
 11
9684.5177861500706
 21
6931.9043144659136
 31
0.0
  0
LINE
  5
53D0
  8
FUTO
 10
9679.5177861500706
 20
6881.9043144659154
 30
0.0
 11
9679.5177861500706
 21
6884.9043144659154
 31
0.0
  0
ARC
  5
53D1
  8
FUTO
 10
9700.5177861500724
 20
6931.9043144659136
 30
0.0
 40
16.0
 50
180.0
 51
270.0
  0
ARC
  5
53D2
  8
FUTO
 10
9637.0177861500706
 20
6899.6319011063933
 30
0.0
 40
14.999999999999909
 50
205.47193698618469
 51
34.528063013809451
  0
ARC
  5
53D3
  8
FUTO
 10
9589.5177861500688
 20
6981.9043144659163
 30
0.0
 40
95.000000000000966
 50
309.05612602761732
 51
350.94387397238222
  0
ARC
  5
53D4
  8
FUTO
 10
9684.5177861500706
 20
6981.9043144659126
 30
0.0
 40
15.00000000000011
 50
265.47193698619139
 51
94.528063013808236
  0
LINE
  5
53D5
  8
FUTO
 10
9700.5177861500724
 20
6915.9043144659136
 30
0.0
 11
9766.5177861500706
 21
6915.9043144659136
 31
0.0
  0
ARC
  5
53D7
  8
FUTO
 10
9542.0177861500706
 20
7064.1767278254374
 30
0.0
 40
15.00000000000006
 50
25.47193698618608
 51
214.5280630138096
  0
ARC
  5
53D8
  8
FUTO
 10
9589.5177861500706
 20
6981.9043144659126
 30
0.0
 40
94.999999999999375
 50
129.0561260276167
 51
170.94387397238259
  0
LINE
  5
53D9
  8
FUTO
 10
9494.5177861500706
 20
6966.9043144659136
 30
0.0
 11
9494.5177861500706
 21
6931.9043144659136
 31
0.0
  0
ARC
  5
53DA
  8
FUTO
 10
9542.0177861500706
 20
6899.6319011063933
 30
0.0
 40
14.99999999999978
 50
145.47193698619111
 51
334.52806301381349
  0
LINE
  5
53DB
  8
FUTO
 10
9499.5177861500706
 20
6881.9043144659154
 30
0.0
 11
9499.5177861500706
 21
6884.9043144659154
 31
0.0
  0
ARC
  5
53DC
  8
FUTO
 10
9589.5177861500706
 20
6981.9043144659126
 30
0.0
 40
95.000000000000057
 50
189.05612602761681
 51
230.94387397238239
  0
ARC
  5
53DD
  8
FUTO
 10
9412.5177861500706
 20
6912.9043144659126
 30
0.0
 40
3.0
 50
90.0
 51
180.0
  0
LINE
  5
53DE
  8
FUTO
 10
9409.5177861500706
 20
6912.9043144659126
 30
0.0
 11
9409.5177861500706
 21
6881.9043144659154
 31
0.0
  0
LINE
  5
53DF
  8
FUTO
 10
9478.5177861500706
 20
6915.9043144659136
 30
0.0
 11
9412.5177861500706
 21
6915.9043144659136
 31
0.0
  0
ARC
  5
53E0
  8
FUTO
 10
9478.5177861500706
 20
6931.9043144659136
 30
0.0
 40
16.0
 50
270.0
 51
0.000000000000007
  0
LINE
  5
53E1
  8
FUTO
 10
9394.5177861500706
 20
6881.9043144659154
 30
0.0
 11
9784.5177861500706
 21
6881.9043144659154
 31
0.0
  0
ARC
  5
53E2
  8
FUTO
 10
9494.5177861500706
 20
6981.9043144659126
 30
0.0
 40
14.999999999999879
 50
85.471936986191025
 51
274.52806301380912
  0
CIRCLE
  5
53E3
  8
FUTO
 10
9589.5177861500706
 20
6981.9043144659126
 30
0.0
 40
36.5
  0
LINE
  5
53E4
  8
FUTO
 10
9499.5177861500706
 20
6884.9043144659154
 30
0.0
 11
9679.5177861500706
 21
6884.9043144659154
 31
0.0
  0
ARC
  5
53E5
  8
FUTO
 10
9589.5177861500706
 20
6981.9043144659126
 30
0.0
 40
94.999999999998266
 50
249.0561260276163
 51
290.94387397238302
  0
ARC
  5
53E6
  8
FUTO
 10
9589.5177861500688
 20
6981.9043144659163
 30
0.0
 40
94.999999999998053
 50
69.056126027616386
 51
110.94387397238231
  0
LINE
  5
53E7
  8
FUTO
 10
12329.675302493901
 20
7061.9043144659126
 30
0.0
 11
12334.675302493901
 21
7061.9043144659126
 31
0.0
  0
ARC
  5
53E8
  8
FUTO
 10
12323.675302493901
 20
7070.9043144659154
 30
0.0
 40
6.0
 50
0.0
 51
90.0
  0
LINE
  5
53E9
  8
FUTO
 10
12314.675302493901
 20
7076.9043144659126
 30
0.0
 11
12323.675302493901
 21
7076.9043144659154
 31
0.0
  0
LINE
  5
53EA
  8
FUTO
 10
12334.675302493901
 20
6901.9043144659126
 30
0.0
 11
12329.675302493901
 21
6901.9043144659126
 31
0.0
  0
ARC
  5
53EB
  8
FUTO
 10
12323.675302493901
 20
6892.9043144659154
 30
0.0
 40
6.0
 50
270.0
 51
0.0
  0
ARC
  5
53EC
  8
FUTO
 10
12308.675302493901
 20
6909.9043144659126
 30
0.0
 40
6.0
 50
0.0
 51
90.0
  0
LINE
  5
53ED
  8
FUTO
 10
12323.675302493901
 20
6886.9043144659154
 30
0.0
 11
12314.675302493901
 21
6886.9043144659154
 31
0.0
  0
LINE
  5
53EE
  8
FUTO
 10
12334.675302493901
 20
7061.9043144659126
 30
0.0
 11
12334.675302493901
 21
6901.9043144659126
 31
0.0
  0
LINE
  5
53EF
  8
FUTO
 10
12329.675302493901
 20
7070.9043144659154
 30
0.0
 11
12329.675302493901
 21
6892.9043144659154
 31
0.0
  0
LINE
  5
53F0
  8
FUTO
 10
12314.675302493901
 20
6881.9043144659154
 30
0.0
 11
12314.675302493901
 21
7081.9043144659126
 31
0.0
  0
LINE
  5
53F1
  8
FUTO
 10
12214.675302493901
 20
7076.9043144659126
 30
0.0
 11
12205.675302493901
 21
7076.9043144659154
 31
0.0
  0
ARC
  5
53F2
  8
FUTO
 10
12205.675302493901
 20
7070.9043144659154
 30
0.0
 40
6.0
 50
90.0
 51
180.0
  0
LINE
  5
53F3
  8
FUTO
 10
12199.675302493901
 20
7061.9043144659126
 30
0.0
 11
12194.675302493901
 21
7061.9043144659126
 31
0.0
  0
ARC
  5
53F4
  8
FUTO
 10
12220.675302493901
 20
6909.9043144659126
 30
0.0
 40
6.0
 50
90.0
 51
180.0
  0
ARC
  5
53F5
  8
FUTO
 10
12205.675302493901
 20
6892.9043144659154
 30
0.0
 40
6.0
 50
180.0
 51
270.0
  0
LINE
  5
53F6
  8
FUTO
 10
12205.675302493901
 20
6886.9043144659154
 30
0.0
 11
12214.675302493901
 21
6886.9043144659154
 31
0.0
  0
LINE
  5
53F7
  8
FUTO
 10
12194.675302493901
 20
6901.9043144659126
 30
0.0
 11
12199.675302493901
 21
6901.9043144659126
 31
0.0
  0
LINE
  5
53F8
  8
FUTO
 10
12199.675302493901
 20
7070.9043144659154
 30
0.0
 11
12199.675302493901
 21
6892.9043144659154
 31
0.0
  0
LINE
  5
53F9
  8
FUTO
 10
12194.675302493901
 20
7061.9043144659126
 30
0.0
 11
12194.675302493901
 21
6901.9043144659126
 31
0.0
  0
LINE
  5
53FA
  8
FUTO
 10
12214.675302493901
 20
7081.9043144659126
 30
0.0
 11
12214.675302493901
 21
6881.9043144659154
 31
0.0
  0
LINE
  5
53FB
  8
FUTO
 10
12314.675302493901
 20
7081.9043144659126
 30
0.0
 11
12214.675302493901
 21
7081.9043144659126
 31
0.0
  0
LINE
  5
53FC
  8
FUTO
 10
12209.675302493901
 20
6881.9043144659154
 30
0.0
 11
12319.675302493901
 21
6881.9043144659154
 31
0.0
  0
LINE
  5
53FD
  8
FUTO
 10
12308.675302493901
 20
6915.9043144659136
 30
0.0
 11
12220.675302493901
 21
6915.9043144659136
 31
0.0
  0
LINE
  5
53FE
  8
KL
 10
9975.1696590407919
 20
6873.9043144659154
 30
0.0
 11
9203.8659132593475
 21
6873.9043144659154
 31
0.0
  0
LINE
  5
53FF
  8
FUTO
 10
9394.5177861500706
 20
6881.9043144659154
 30
0.0
 11
9394.5177861500706
 21
6873.9043144659154
 31
0.0
  0
LINE
  5
5400
  8
FUTO
 10
9784.5177861500706
 20
6881.9043144659154
 30
0.0
 11
9784.5177861500706
 21
6873.9043144659154
 31
0.0
  0
LINE
  5
5405
  8
FUTO
 10
8964.5177861500706
 20
5239.731861524855
 30
0.0
 11
8964.5177861500706
 21
5231.9043144659126
 31
0.0
  0
LINE
  5
540E
  8
FUTO
 10
10214.517786150071
 20
5239.731861524855
 30
0.0
 11
10214.517786150071
 21
5231.9043144659126
 31
0.0
  0
LINE
  5
5411
  8
FUTO
 10
8964.5177861500706
 20
5231.9043144659126
 30
0.0
 11
8964.5177861500706
 21
5081.9043144659126
 31
0.0
  0
LINE
  5
5412
  8
KL
 10
9389.863437811071
 20
6967.1008963022095
 30
0.0
 11
9392.0000189797101
 21
6949.2281511042893
 31
0.0
  0
LINE
  5
5413
  8
KL
 10
9789.5177861500706
 20
6990.9043144659136
 30
0.0
 11
9789.5177861500706
 21
6972.9043144659136
 31
0.0
  0
LINE
  5
5414
  8
FUTO
 10
8586.1081119116989
 20
7092.5173822433853
 30
0.0
 11
9211.2418261414932
 21
7018.0608917318759
 31
0.0
  0
LINE
  5
5415
  8
FUTO
 10
8588.2446930803399
 20
7110.3901274413056
 30
0.0
 11
9213.3784073101324
 21
7035.9336369297971
 31
0.0
  0
LINE
  5
5416
  8
KL
 10
9789.5177861500706
 20
6972.9043144659136
 30
0.0
 11
10224.31739489414
 21
6972.9043144659136
 31
0.0
  0
LINE
  5
5417
  8
KL
 10
9789.5177861500706
 20
6990.9043144659136
 30
0.0
 11
10200.92590990383
 21
6990.9043144659136
 31
0.0
  0
LINE
  5
541F
  8
FUTO
 10
8649.5177861500706
 20
6972.9043144659136
 30
0.0
 11
8649.5177861500706
 21
5961.9043144659136
 31
0.0
  0
LINE
  5
5420
  8
FUTO
 10
8658.5177861500706
 20
6972.9043144659136
 30
0.0
 11
8658.5177861500706
 21
5961.9043144659136
 31
0.0
  0
LINE
  5
5425
  8
FUTO
 10
10529.517786150071
 20
6972.9043144659136
 30
0.0
 11
10529.517786150071
 21
6311.0822720937413
 31
0.0
  0
LINE
  5
5426
  8
FUTO
 10
10520.517786150071
 20
6972.9043144659136
 30
0.0
 11
10520.517786150071
 21
6323.8050578577077
 31
0.0
  0
ARC
  5
543E
  8
FUTO
 10
9473.5177861500706
 20
6865.9043144659136
 30
0.0
 40
1505.0
 50
297.59884945114112
 51
4.4205373969357327
  0
CIRCLE
  5
544F
  8
SL
 10
9589.5177861500706
 20
6981.9043144659126
 30
0.0
 40
315.0
  0
ARC
  5
5451
  8
FUTO
 10
9589.5177861500706
 20
6981.9043144659126
 30
0.0
 40
380.0
 50
35.275292177309261
 51
224.71304271678849
  0
CIRCLE
  5
5453
  8
SL
 10
10839.517786150071
 20
5491.9043144659126
 30
0.0
 40
132.49999999999989
  0
ARC
  5
5454
  8
FUTO
 10
10839.517786150071
 20
5491.9043144659126
 30
0.0
 40
220.0
 50
224.71304271678849
 51
35.27529217730924
  0
LINE
  5
5459
  8
CT
 10
11829.309941389
 20
6981.9043144659126
 30
0.0
 11
14515.453214310761
 21
6981.9043144659126
 31
0.0
  0
LINE
  5
545A
  8
CT
 10
13745.675302493901
 20
8441.4783360828878
 30
0.0
 11
13745.675302493901
 21
5068.7632552687874
 31
0.0
  0
LINE
  5
545B
  8
FUTO
 10
14339.675302493901
 20
5231.9043144659126
 30
0.0
 11
12189.675302493901
 21
5231.9043144659126
 31
0.0
  0
LINE
  5
545C
  8
FUTO
 10
14339.675302493901
 20
5081.9043144659126
 30
0.0
 11
12189.675302493901
 21
5081.9043144659126
 31
0.0
  0
LINE
  5
5505
  8
FUTO
 10
14339.675302493901
 20
5081.9043144659126
 30
0.0
 11
14414.675302493901
 21
5081.9043144659126
 31
0.0
  0
LINE
  5
5506
  8
FUTO
 10
14349.82667952291
 20
5094.581347095379
 30
0.0
 11
14411.02392546489
 21
5089.2272818364472
 31
0.0
  0
LINE
  5
5507
  8
FUTO
 10
14339.675302493901
 20
5231.9043144659126
 30
0.0
 11
14414.675302493901
 21
5231.9043144659126
 31
0.0
  0
LINE
  5
5508
  8
FUTO
 10
14349.82667952291
 20
5219.2272818364472
 30
0.0
 11
14411.02392546489
 21
5224.581347095379
 31
0.0
  0
LINE
  5
5509
  8
FUTO
 10
14346.175302493901
 20
5215.24250304408
 30
0.0
 11
14346.175302493901
 21
5098.5661258877462
 31
0.0
  0
ARC
  5
550A
  8
FUTO
 10
14350.175302493901
 20
5098.5661258877462
 30
0.0
 40
4.0
 50
180.0
 51
264.99999999999989
  0
LINE
  5
550B
  8
FUTO
 10
14339.675302493901
 20
5231.9043144659126
 30
0.0
 11
14339.675302493901
 21
5081.9043144659126
 31
0.0
  0
ARC
  5
550C
  8
FUTO
 10
14350.175302493901
 20
5215.24250304408
 30
0.0
 40
4.0
 50
95.000000000000057
 51
180.0
  0
LINE
  5
550D
  8
FUTO
 10
14414.675302493901
 20
5081.9043144659117
 30
0.0
 11
14414.675302493901
 21
5085.2425030440809
 31
0.0
  0
LINE
  5
550E
  8
FUTO
 10
14414.675302493901
 20
5231.9043144659126
 30
0.0
 11
14414.675302493901
 21
5228.5661258877462
 31
0.0
  0
ARC
  5
550F
  8
FUTO
 10
14410.675302493901
 20
5228.5661258877462
 30
0.0
 40
4.0
 50
275.00000000000051
 51
359.9999999999921
  0
ARC
  5
5510
  8
FUTO
 10
14410.675302493901
 20
5085.2425030440809
 30
0.0
 40
4.0
 50
0.0000000000078369
 51
84.999999999999503
  0
LINE
  5
5511
  8
FUTO
 10
12189.675302493901
 20
5231.9043144659126
 30
0.0
 11
12114.675302493901
 21
5231.9043144659126
 31
0.0
  0
LINE
  5
5512
  8
FUTO
 10
12179.52392546489
 20
5219.2272818364472
 30
0.0
 11
12118.32667952291
 21
5224.581347095379
 31
0.0
  0
LINE
  5
5513
  8
FUTO
 10
12189.675302493901
 20
5081.9043144659126
 30
0.0
 11
12114.675302493901
 21
5081.9043144659117
 31
0.0
  0
LINE
  5
5514
  8
FUTO
 10
12179.52392546489
 20
5094.581347095379
 30
0.0
 11
12118.32667952291
 21
5089.2272818364472
 31
0.0
  0
LINE
  5
5515
  8
FUTO
 10
12183.175302493901
 20
5098.5661258877462
 30
0.0
 11
12183.175302493901
 21
5215.24250304408
 31
0.0
  0
ARC
  5
5516
  8
FUTO
 10
12179.175302493901
 20
5215.24250304408
 30
0.0
 40
4.0
 50
0.0
 51
84.999999999999943
  0
LINE
  5
5517
  8
FUTO
 10
12189.675302493901
 20
5081.9043144659126
 30
0.0
 11
12189.675302493901
 21
5231.9043144659126
 31
0.0
  0
ARC
  5
5518
  8
FUTO
 10
12179.175302493901
 20
5098.5661258877462
 30
0.0
 40
4.0
 50
275.0
 51
0.0
  0
LINE
  5
5519
  8
FUTO
 10
12114.675302493901
 20
5231.9043144659126
 30
0.0
 11
12114.675302493901
 21
5228.5661258877453
 31
0.0
  0
LINE
  5
551A
  8
FUTO
 10
12114.675302493901
 20
5081.9043144659117
 30
0.0
 11
12114.675302493901
 21
5085.2425030440809
 31
0.0
  0
ARC
  5
551B
  8
FUTO
 10
12118.675302493901
 20
5085.2425030440809
 30
0.0
 40
4.0
 50
95.000000000000554
 51
179.9999999999921
  0
ARC
  5
551C
  8
FUTO
 10
12118.675302493901
 20
5228.5661258877462
 30
0.0
 40
4.0
 50
180.00000000000779
 51
264.99999999999949
  0
LINE
  5
551D
  8
FUTO
 10
14339.675302493901
 20
5094.9008144659138
 30
0.0
 11
12189.675302493901
 21
5094.9008144659138
 31
0.0
  0
LINE
  5
551E
  8
FUTO
 10
14339.675302493901
 20
5218.9078144659143
 30
0.0
 11
12189.675302493901
 21
5218.9078144659143
 31
0.0
  0
LINE
  5
551F
  8
FUTO
 10
11139.517786150071
 20
5094.9008144659138
 30
0.0
 11
8639.5177861500706
 21
5094.9008144659138
 31
0.0
  0
LINE
  5
5520
  8
FUTO
 10
11139.517786150071
 20
5218.9078144659143
 30
0.0
 11
8639.5177861500706
 21
5218.9078144659143
 31
0.0
  0
LINE
  5
5522
  8
FUTO
 10
13155.675302493901
 20
8120.9043144659136
 30
0.0
 11
13155.67530249389
 21
6981.9043144659126
 31
0.0
  0
LINE
  5
5523
  8
FUTO
 10
14335.675302493901
 20
8120.9043144659136
 30
0.0
 11
14335.675302493901
 21
6981.9043144659126
 31
0.0
  0
LINE
  5
5524
  8
FUTO
 10
14338.8753024939
 20
8120.9043144659136
 30
0.0
 11
14338.8753024939
 21
6981.9043144659126
 31
0.0
  0
LINE
  5
5525
  8
FUTO
 10
13152.4753024939
 20
8120.9043144659136
 30
0.0
 11
13152.4753024939
 21
6981.9043144659126
 31
0.0
  0
LINE
  5
552A
  8
FUTO
 10
14413.8753024939
 20
8120.9043144659136
 30
0.0
 11
14413.8753024939
 21
7000.9043144659163
 31
0.0
  0
LINE
  5
552B
  8
FUTO
 10
13077.4753024939
 20
8120.9043144659136
 30
0.0
 11
13077.4753024939
 21
7000.9043144659126
 31
0.0
  0
LINE
  5
5533
  8
CT
 10
12944.675302493901
 20
7142.2712725018773
 30
0.0
 11
12944.675302493901
 21
6810.2252237283801
 31
0.0
  0
LINE
  5
5534
  8
CT
 10
12264.675302493901
 20
7142.2712725018773
 30
0.0
 11
12264.675302493901
 21
6810.2252237283801
 31
0.0
  0
LINE
  5
5537
  8
CT
 10
12899.675302493901
 20
6913.8471712451828
 30
0.0
 11
12899.675302493901
 21
6823.8471712451828
 31
0.0
  0
LINE
  5
5538
  8
CT
 10
12989.675302493901
 20
6913.8471712451828
 30
0.0
 11
12989.675302493901
 21
6823.8471712451828
 31
0.0
  0
LINE
  5
5548
  8
FUTO
 10
12972.175302493901
 20
7101.9043144659126
 30
0.0
 11
13008.675302493901
 21
7101.9043144659126
 31
0.0
  0
LINE
  5
5549
  8
FUTO
 10
12972.175302493901
 20
7114.9043144659126
 30
0.0
 11
12972.175302493901
 21
6901.9043144659126
 31
0.0
  0
LINE
  5
554A
  8
FUTO
 10
12917.175302493901
 20
7114.9043144659126
 30
0.0
 11
12917.175302493901
 21
6901.9043144659126
 31
0.0
  0
ARC
  5
554B
  8
FUTO
 10
13011.675302493901
 20
6898.9043144659126
 30
0.0
 40
3.0
 50
0.0
 51
90.0
  0
ARC
  5
554C
  8
FUTO
 10
12877.675302493901
 20
6898.9043144659126
 30
0.0
 40
3.0
 50
90.000000000000028
 51
180.0
  0
LINE
  5
554D
  8
FUTO
 10
13022.675302493901
 20
7101.9043144659126
 30
0.0
 11
13008.675302493901
 21
7101.9043144659126
 31
0.0
  0
LINE
  5
554E
  8
FUTO
 10
12998.675302493901
 20
7114.9043144659126
 30
0.0
 11
12998.675302493901
 21
7101.9043144659126
 31
0.0
  0
LINE
  5
554F
  8
FUTO
 10
12880.675302493901
 20
7101.9043144659126
 30
0.0
 11
12917.175302493901
 21
7101.9043144659126
 31
0.0
  0
LINE
  5
5550
  8
FUTO
 10
12890.675302493901
 20
7114.9043144659126
 30
0.0
 11
12890.675302493901
 21
7101.9043144659126
 31
0.0
  0
LINE
  5
5551
  8
FUTO
 10
12866.675302493901
 20
7101.9043144659126
 30
0.0
 11
12880.675302493901
 21
7101.9043144659126
 31
0.0
  0
LINE
  5
5552
  8
FUTO
 10
12890.675302493901
 20
7114.9043144659126
 30
0.0
 11
12998.675302493901
 21
7114.9043144659126
 31
0.0
  0
LINE
  5
5553
  8
FUTO
 10
13022.675302493901
 20
6861.9043144659126
 30
0.0
 11
13014.675302493901
 21
6861.9043144659126
 31
0.0
  0
LINE
  5
5554
  8
FUTO
 10
13030.675302493901
 20
6901.9043144659126
 30
0.0
 11
13022.675302493901
 21
6881.9043144659126
 31
0.0
  0
LINE
  5
5555
  8
FUTO
 10
13014.675302493901
 20
6898.9043144659126
 30
0.0
 11
13014.675302493901
 21
6851.9043144659126
 31
0.0
  0
LINE
  5
5556
  8
FUTO
 10
13030.675302493901
 20
7061.9043144659126
 30
0.0
 11
13030.675302493901
 21
6901.9043144659126
 31
0.0
  0
LINE
  5
5557
  8
FUTO
 10
12866.675302493901
 20
6861.9043144659126
 30
0.0
 11
12874.675302493901
 21
6861.9043144659126
 31
0.0
  0
LINE
  5
5558
  8
FUTO
 10
12858.675302493901
 20
6901.9043144659126
 30
0.0
 11
12866.675302493901
 21
6881.9043144659126
 31
0.0
  0
LINE
  5
5559
  8
FUTO
 10
12874.675302493901
 20
6898.9043144659126
 30
0.0
 11
12874.675302493901
 21
6851.9043144659126
 31
0.0
  0
LINE
  5
555A
  8
FUTO
 10
12858.675302493901
 20
7061.9043144659126
 30
0.0
 11
12858.675302493901
 21
6901.9043144659126
 31
0.0
  0
LINE
  5
555B
  8
FUTO
 10
12877.675302493901
 20
6901.9043144659126
 30
0.0
 11
13011.675302493901
 21
6901.9043144659126
 31
0.0
  0
LINE
  5
555C
  8
FUTO
 10
12864.675302493901
 20
6851.9043144659126
 30
0.0
 11
13024.675302493901
 21
6851.9043144659126
 31
0.0
  0
LINE
  5
555D
  8
FUTO
 10
13008.675302493901
 20
7101.9043144659126
 30
0.0
 11
13008.675302493901
 21
6901.9043144659126
 31
0.0
  0
LINE
  5
555E
  8
FUTO
 10
13022.675302493901
 20
7101.9043144659126
 30
0.0
 11
13022.675302493901
 21
6861.9043144659126
 31
0.0
  0
LINE
  5
555F
  8
FUTO
 10
13030.675302493901
 20
7061.9043144659126
 30
0.0
 11
13022.675302493901
 21
7081.9043144659126
 31
0.0
  0
LINE
  5
5560
  8
FUTO
 10
12858.675302493901
 20
7061.9043144659126
 30
0.0
 11
12866.675302493901
 21
7081.9043144659126
 31
0.0
  0
LINE
  5
5561
  8
FUTO
 10
12866.675302493901
 20
7101.9043144659126
 30
0.0
 11
12866.675302493901
 21
6861.9043144659126
 31
0.0
  0
LINE
  5
5562
  8
FUTO
 10
13008.675302493901
 20
7101.9043144659126
 30
0.0
 11
13008.675302493901
 21
6901.9043144659126
 31
0.0
  0
LINE
  5
5563
  8
FUTO
 10
12880.675302493901
 20
7101.9043144659126
 30
0.0
 11
12880.675302493901
 21
6901.9043144659126
 31
0.0
  0
LINE
  5
55BF
  8
FUTO
 10
12339.675302493901
 20
6873.9043144659136
 30
0.0
 11
12189.675302493901
 21
6873.9043144659154
 31
0.0
  0
LINE
  5
55C1
  8
FUTO
 10
12339.675302493901
 20
6873.9043144659136
 30
0.0
 11
12339.675302493901
 21
6833.9043144659154
 31
0.0
  0
LINE
  5
55C6
  8
FUTO
 10
12189.675302493901
 20
6873.9043144659154
 30
0.0
 11
12189.675302493901
 21
5231.9043144659136
 31
0.0
  0
LINE
  5
55CC
  8
FUTO
 10
12209.675302493901
 20
6881.9043144659154
 30
0.0
 11
12209.675302493901
 21
6873.9043144659154
 31
0.0
  0
LINE
  5
55CD
  8
FUTO
 10
12319.675302493901
 20
6881.9043144659154
 30
0.0
 11
12319.675302493901
 21
6873.9043144659136
 31
0.0
  0
LINE
  5
55DF
  8
FUTO
 10
12854.675302493901
 20
6843.9043144659126
 30
0.0
 11
13034.675302493901
 21
6843.9043144659126
 31
0.0
  0
LINE
  5
55E0
  8
FUTO
 10
13034.675302493901
 20
6843.9043144659126
 30
0.0
 11
13034.675302493901
 21
5231.9043144659136
 31
0.0
  0
LINE
  5
55E6
  8
FUTO
 10
12854.675302493901
 20
6843.9043144659126
 30
0.0
 11
12854.675302493901
 21
6833.9043144659154
 31
0.0
  0
LINE
  5
55ED
  8
FUTO
 10
12864.675302493901
 20
6851.9043144659126
 30
0.0
 11
12864.675302493901
 21
6843.9043144659126
 31
0.0
  0
LINE
  5
55EE
  8
FUTO
 10
13024.675302493901
 20
6851.9043144659126
 30
0.0
 11
13024.675302493901
 21
6843.9043144659126
 31
0.0
  0
LINE
  5
55F3
  8
FUTO
 10
12854.675302493901
 20
6833.9043144659154
 30
0.0
 11
12339.675302493901
 21
6833.9043144659154
 31
0.0
  0
LINE
  5
5600
  8
FUTO
 10
13087.4753024939
 20
6990.9043144659136
 30
0.0
 11
14403.8753024939
 21
6990.9043144659136
 31
0.0
  0
LINE
  5
5601
  8
FUTO
 10
13087.4753024939
 20
6972.9043144659136
 30
0.0
 11
14403.8753024939
 21
6972.9043144659136
 31
0.0
  0
LINE
  5
5602
  8
FUTO
 10
13087.4753024939
 20
6990.9043144659136
 30
0.0
 11
13087.4753024939
 21
6972.9043144659136
 31
0.0
  0
LINE
  5
5603
  8
FUTO
 10
13155.67530249389
 20
6981.9043144659126
 30
0.0
 11
13155.675302493901
 21
5231.9043144659126
 31
0.0
  0
LINE
  5
5604
  8
FUTO
 10
13152.4753024939
 20
6981.9043144659126
 30
0.0
 11
13152.4753024939
 21
5231.9043144659126
 31
0.0
  0
LINE
  5
5605
  8
FUTO
 10
14338.8753024939
 20
6981.9043144659126
 30
0.0
 11
14338.875302493891
 21
5231.9043144659126
 31
0.0
  0
LINE
  5
5606
  8
FUTO
 10
14335.675302493901
 20
6981.9043144659126
 30
0.0
 11
14335.67530249389
 21
5231.9043144659126
 31
0.0
  0
LINE
  5
5608
  8
FUTO
 10
14403.8753024939
 20
6990.9043144659154
 30
0.0
 11
14413.8753024939
 21
7000.9043144659163
 31
0.0
  0
LINE
  5
5609
  8
FUTO
 10
14403.8753024939
 20
6972.9043144659136
 30
0.0
 11
14413.8753024939
 21
6962.9043144659117
 31
0.0
  0
LINE
  5
560A
  8
FUTO
 10
14413.8753024939
 20
6962.9043144659117
 30
0.0
 11
14413.8753024939
 21
6881.3548740894848
 31
0.0
  0
LINE
  5
560B
  8
FUTO
 10
13087.4753024939
 20
6990.9043144659136
 30
0.0
 11
13077.4753024939
 21
7000.9043144659126
 31
0.0
  0
LINE
  5
560C
  8
FUTO
 10
13087.4753024939
 20
6972.9043144659136
 30
0.0
 11
13077.4753024939
 21
6962.9043144659154
 31
0.0
  0
LINE
  5
560D
  8
FUTO
 10
13077.4753024939
 20
6962.9043144659126
 30
0.0
 11
13077.4753024939
 21
6881.3548740894812
 31
0.0
  0
LINE
  5
560E
  8
SL
 10
12004.675302493901
 20
7296.9043144659136
 30
0.0
 11
12004.67530249389
 21
5359.4043144659154
 31
0.0
  0
LINE
  5
560F
  8
SL
 10
12004.675302493901
 20
7296.9043144659136
 30
0.0
 11
12082.5753024939
 21
7296.9043144659136
 31
0.0
  0
LINE
  5
5610
  8
SL
 10
12004.675302493901
 20
6666.9043144659136
 30
0.0
 11
12082.5753024939
 21
6666.9043144659136
 31
0.0
  0
LINE
  5
5611
  8
SL
 10
12082.5753024939
 20
7296.9043144659136
 30
0.0
 11
12082.5753024939
 21
7061.9043144659126
 31
0.0
  0
LINE
  5
5613
  8
SL
 10
12104.675302493901
 20
7061.9043144659126
 30
0.0
 11
12104.675302493901
 21
6901.9043144659126
 31
0.0
  0
LINE
  5
5614
  8
SL
 10
12082.5753024939
 20
7061.9043144659126
 30
0.0
 11
12104.675302493901
 21
7061.9043144659126
 31
0.0
  0
LINE
  5
5615
  8
SL
 10
12082.5753024939
 20
6901.9043144659126
 30
0.0
 11
12104.675302493901
 21
6901.9043144659126
 31
0.0
  0
LINE
  5
5616
  8
SL
 10
12082.5753024939
 20
6901.9043144659126
 30
0.0
 11
12082.5753024939
 21
6666.9043144659136
 31
0.0
  0
LINE
  5
5617
  8
CT
 10
11843.0910585202
 20
5491.9043144659126
 30
0.0
 11
12181.675302493901
 21
5491.9043144659126
 31
0.0
  0
LINE
  5
5618
  8
SL
 10
12004.67530249389
 20
5624.4043144659126
 30
0.0
 11
12082.575302493889
 21
5624.4043144659126
 31
0.0
  0
LINE
  5
5619
  8
SL
 10
12004.67530249389
 20
5359.4043144659136
 30
0.0
 11
12082.575302493889
 21
5359.4043144659136
 31
0.0
  0
LINE
  5
561A
  8
SL
 10
12082.5753024939
 20
7296.9043144659136
 30
0.0
 11
12082.575302493889
 21
5359.4043144659136
 31
0.0
  0
LINE
  5
561B
  8
SL
 10
12102.67530249389
 20
5561.9043144659126
 30
0.0
 11
12102.67530249389
 21
5421.9043144659136
 31
0.0
  0
LINE
  5
561C
  8
SL
 10
12082.575302493889
 20
5561.9043144659126
 30
0.0
 11
12102.67530249389
 21
5561.9043144659126
 31
0.0
  0
LINE
  5
561D
  8
SL
 10
12082.575302493889
 20
5421.9043144659136
 30
0.0
 11
12102.67530249389
 21
5421.9043144659136
 31
0.0
  0
LINE
  5
561E
  8
SL
 10
12082.575302493889
 20
5421.9043144659136
 30
0.0
 11
12082.575302493889
 21
5359.4043144659136
 31
0.0
  0
LINE
  5
561F
  8
FUTO
 10
11865.675302493901
 20
7361.9043144659126
 30
0.0
 11
12154.675302493901
 21
7361.9043144659126
 31
0.0
  0
LINE
  5
5620
  8
FUTO
 10
11865.67530249389
 20
5271.9043144659136
 30
0.0
 11
12154.675302493901
 21
5271.9043144659126
 31
0.0
  0
LINE
  5
5621
  8
FUTO
 10
11865.675302493901
 20
7361.9043144659126
 30
0.0
 11
11865.67530249389
 21
5271.9043144659136
 31
0.0
  0
LINE
  5
5622
  8
FUTO
 10
12154.675302493901
 20
7361.9043144659126
 30
0.0
 11
12154.675302493901
 21
5271.9043144659136
 31
0.0
  0
LINE
  5
5623
  8
FUTO
 10
12334.675302493901
 20
7031.9043144659126
 30
0.0
 11
12858.675302493901
 21
7031.9043144659126
 31
0.0
  0
LINE
  5
5624
  8
FUTO
 10
12334.675302493901
 20
6931.9043144659136
 30
0.0
 11
12858.675302493901
 21
6931.9043144659136
 31
0.0
  0
LINE
  5
5625
  8
KL
 10
13030.675302493901
 20
7031.9043144659126
 30
0.0
 11
13152.4753024939
 21
7031.9043144659126
 31
0.0
  0
LINE
  5
5626
  8
KL
 10
13030.675302493901
 20
6931.9043144659136
 30
0.0
 11
13152.4753024939
 21
6931.9043144659136
 31
0.0
  0
LINE
  5
5627
  8
FUTO
 10
12104.675302493901
 20
7024.4043144659126
 30
0.0
 11
12194.675302493901
 21
7024.4043144659126
 31
0.0
  0
LINE
  5
5628
  8
FUTO
 10
12104.675302493901
 20
6939.4043144659136
 30
0.0
 11
12194.675302493901
 21
6939.4043144659136
 31
0.0
  0
LINE
  5
5694
  8
FUTO
 10
11139.517786150071
 20
9419.3142356670178
 30
0.0
 11
8964.5177861500706
 21
9419.3142356670178
 31
0.0
  0
LINE
  5
5695
  8
FUTO
 10
10539.517786150071
 20
11719.314235667011
 30
0.0
 11
8639.5177861500706
 21
11719.314235667011
 31
0.0
  0
LINE
  5
5696
  8
FUTO
 10
8639.5177861500706
 20
11719.314235667011
 30
0.0
 11
8639.5177861500706
 21
11694.314235667011
 31
0.0
  0
LINE
  5
5699
  8
FUTO
 10
10960.517786150071
 20
10456.314235667011
 30
0.0
 11
9589.5177861500706
 21
10456.314235667011
 31
0.0
  0
LINE
  5
569A
  8
FUTO
 10
11139.517786150071
 20
10381.314235667011
 30
0.0
 11
8639.5177861500706
 21
10381.314235667011
 31
0.0
  0
LINE
  5
569B
  8
FUTO
 10
11139.517786150071
 20
9494.3142356670178
 30
0.0
 11
8964.5177861500706
 21
9494.3142356670178
 31
0.0
  0
LINE
  5
569C
  8
FUTO
 10
10960.517786150071
 20
11644.31423566702
 30
0.0
 11
9589.5177861500706
 21
11644.314235667011
 31
0.0
  0
LINE
  5
56A0
  8
FUTO
 10
8964.5177861500706
 20
10381.314235667011
 30
0.0
 11
8964.5177861500706
 21
9419.3142356670178
 31
0.0
  0
LINE
  5
56A2
  8
FUTO
 10
9039.5177861500706
 20
10381.314235667011
 30
0.0
 11
9039.5177861500706
 21
9494.3142356670178
 31
0.0
  0
LINE
  5
56A4
  8
FUTO
 10
10214.517786150071
 20
10381.314235667011
 30
0.0
 11
10214.517786150071
 21
9494.3142356670178
 31
0.0
  0
LINE
  5
56A6
  8
FUTO
 10
10539.517786150071
 20
11719.314235667011
 30
0.0
 11
10539.517786150071
 21
11694.314235667011
 31
0.0
  0
LINE
  5
56A7
  8
FUTO
 10
10139.517786150071
 20
10381.314235667011
 30
0.0
 11
10139.517786150071
 21
9494.3142356670178
 31
0.0
  0
LINE
  5
56A8
  8
FUTO
 10
11139.517786150071
 20
10456.314235667011
 30
0.0
 11
11139.517786150071
 21
10381.314235667011
 31
0.0
  0
LINE
  5
56A9
  8
FUTO
 10
11139.517786150071
 20
9494.3142356670178
 30
0.0
 11
11139.517786150071
 21
9419.3142356670178
 31
0.0
  0
LINE
  5
56AC
  8
FUTO
 10
11029.517786150071
 20
10381.314235667011
 30
0.0
 11
11029.517786150071
 21
10056.852793295169
 31
0.0
  0
LINE
  5
56AD
  8
FUTO
 10
10964.517786150071
 20
10381.314235667011
 30
0.0
 11
10964.517786150071
 21
10108.814235667011
 31
0.0
  0
LINE
  5
56AE
  8
FUTO
 10
10714.517786150071
 20
10381.314235667011
 30
0.0
 11
10714.517786150071
 21
10108.814235667011
 31
0.0
  0
LINE
  5
56AF
  8
FUTO
 10
10649.517786150071
 20
10381.314235667011
 30
0.0
 11
10649.517786150071
 21
10049.71419866701
 31
0.0
  0
LINE
  5
56B0
  8
CT
 10
11364.10424642949
 20
11050.31423566702
 30
0.0
 11
8389.4774615549377
 21
11050.31423566702
 31
0.0
  0
LINE
  5
69CC
  8
CT
 10
14315.675302493901
 20
7821.9043144659154
 30
0.0
 11
14358.8753024939
 21
7821.9043144659154
 31
0.0
  0
DIMENSION
  5
6A61
  8
SP
  2
*D3
 10
9589.5177861500706
 20
4831.3920042828104
 30
0.0
 11
9114.5177861500724
 21
4918.8920042828104
 31
0.0
 70
     0
 13
8639.5177861500706
 23
5081.9043144659126
 33
0.0
 14
9589.5177861500706
 24
5081.9043144659126
 34
0.0
1001
ACAD
1000
DSTYLE
1002
{
1070
    40
1040
35.0
1070
   147
1040
1.0
1070
    41
1040
2.5
1002
}
  0
DIMENSION
  5
6A6E
  8
SP
  2
*D4
 10
11139.517786150071
 20
4831.3920042828104
 30
0.0
 11
10364.517786150071
 21
4918.8920042828104
 31
0.0
 70
     0
 13
9589.5177861500706
 23
5081.9043144659126
 33
0.0
 14
11139.517786150071
 24
5081.9043144659126
 34
0.0
1001
ACAD
1000
DSTYLE
1002
{
1070
    40
1040
35.0
1070
   147
1040
1.0
1070
    41
1040
2.5
1002
}
  0
DIMENSION
  5
6A7B
  8
SP
  2
*D5
 10
11139.517786150071
 20
4581.3042602851528
 30
0.0
 11
9889.5177861500724
 21
4668.8042602851528
 31
0.0
 70
     0
 13
8639.5177861500706
 23
5081.9043144659126
 33
0.0
 14
11139.517786150071
 24
5081.9043144659126
 34
0.0
1001
ACAD
1000
DSTYLE
1002
{
1070
    40
1040
35.0
1070
   147
1040
1.0
1070
    41
1040
2.5
1002
}
  0
DIMENSION
  5
6A88
  8
SP
  2
*D6
 10
13745.675302493901
 20
4831.3919808949722
 30
0.0
 11
12930.175302493901
 21
4918.8919808949722
 31
0.0
 70
     0
 13
12114.675302493901
 23
5081.9043144659117
 33
0.0
 14
13745.675302493901
 24
5081.9043144659126
 34
0.0
1001
ACAD
1000
DSTYLE
1002
{
1070
    40
1040
35.0
1070
   147
1040
1.0
1070
    41
1040
2.5
1002
}
  0
DIMENSION
  5
6A95
  8
SP
  2
*D7
 10
14414.675302493901
 20
4831.3919808949722
 30
0.0
 11
14080.175302493901
 21
4918.8919808949722
 31
0.0
 70
     0
 13
13745.675302493901
 23
5081.9043144659126
 33
0.0
 14
14414.675302493901
 24
5081.9043144659117
 34
0.0
1001
ACAD
1000
DSTYLE
1002
{
1070
    40
1040
35.0
1070
   147
1040
1.0
1070
    41
1040
2.5
1002
}
  0
DIMENSION
  5
6AA2
  8
SP
  2
*D8
 10
14414.675302493901
 20
4581.3042368973147
 30
0.0
 11
13264.675302493901
 21
4668.8042368973138
 31
0.0
 70
     0
 13
12114.675302493901
 23
5081.9043144659117
 33
0.0
 14
14414.675302493901
 24
5081.9043144659117
 34
0.0
1001
ACAD
1000
DSTYLE
1002
{
1070
    40
1040
35.0
1070
   147
1040
1.0
1070
    41
1040
2.5
1002
}
  0
LINE
  5
6ADF
  8
FUTO
 10
14470.675302493901
 20
7846.9043144659136
 30
0.0
 11
14470.675302493901
 21
6116.9043144659126
 31
0.0
  0
LINE
  5
6AE1
  8
KL
 10
14338.8753024939
 20
7781.9043144659126
 30
0.0
 11
14470.675302493901
 21
7781.9043144659126
 31
0.0
  0
LINE
  5
6AE5
  8
KL
 10
14338.8753024939
 20
7846.9043144659136
 30
0.0
 11
14344.8753024939
 21
7846.9043144659136
 31
0.0
  0
LINE
  5
6AE7
  8
FUTO
 10
14464.675302493901
 20
7846.9043144659136
 30
0.0
 11
14464.675302493901
 21
6116.9043144659126
 31
0.0
  0
LINE
  5
6AE8
  8
FUTO
 10
14413.875302493891
 20
7787.9043144659126
 30
0.0
 11
14464.675302493901
 21
7787.9043144659126
 31
0.0
  0
LINE
  5
6AEA
  8
KL
 10
14344.8753024939
 20
7846.9043144659136
 30
0.0
 11
14344.8753024939
 21
6990.9043144659136
 31
0.0
  0
LINE
  5
6AEB
  8
FUTO
 10
14464.675302493901
 20
7846.9043144659136
 30
0.0
 11
14470.675302493901
 21
7846.9043144659136
 31
0.0
  0
LINE
  5
6AEC
  8
CT
 10
14445.675302493901
 20
7821.9043144659154
 30
0.0
 11
14488.8753024939
 21
7821.9043144659154
 31
0.0
  0
LINE
  5
6AED
  8
KL
 10
14338.8753024939
 20
6181.9043144659136
 30
0.0
 11
14470.675302493901
 21
6181.9043144659136
 31
0.0
  0
LINE
  5
6AEE
  8
CT
 10
14315.675302493901
 20
6141.9043144659136
 30
0.0
 11
14358.8753024939
 21
6141.9043144659136
 31
0.0
  0
LINE
  5
6AEF
  8
KL
 10
14338.8753024939
 20
6116.9043144659126
 30
0.0
 11
14344.8753024939
 21
6116.9043144659126
 31
0.0
  0
LINE
  5
6AF0
  8
CT
 10
14445.675302493901
 20
6141.9043144659136
 30
0.0
 11
14488.8753024939
 21
6141.9043144659136
 31
0.0
  0
LINE
  5
6AF1
  8
FUTO
 10
14413.875302493891
 20
6175.9043144659126
 30
0.0
 11
14464.675302493901
 21
6175.9043144659126
 31
0.0
  0
LINE
  5
6AF2
  8
FUTO
 10
14464.675302493901
 20
6116.9043144659126
 30
0.0
 11
14470.675302493901
 21
6116.9043144659126
 31
0.0
  0
LINE
  5
6AF3
  8
KL
 10
14344.8753024939
 20
6972.9043144659136
 30
0.0
 11
14344.8753024939
 21
6116.9043144659126
 31
0.0
  0
DIMENSION
  5
6B00
  8
SP
  2
*D9
 10
14470.675302493901
 20
8441.4783360828878
 30
0.0
 11
14108.175302493901
 21
8528.9783360828878
 31
0.0
 70
     0
 13
13745.675302493901
 23
8395.5059565339197
 33
0.0
 14
14470.675302493901
 24
7832.4411880731368
 34
0.0
1001
ACAD
1000
DSTYLE
1002
{
1070
    40
1040
35.0
1070
   147
1040
1.0
1070
    41
1040
2.5
1002
}
  0
LINE
  5
6E16
  8
SL
 10
12355.89528854831
 20
6833.9043144659154
 30
0.0
 11
12355.89528854831
 21
7138.7216730695036
 31
0.0
  0
LINE
  5
6E17
  8
SL
 10
12355.89528854831
 20
7138.7216730695036
 30
0.0
 11
12841.85066097707
 21
7138.7216730695036
 31
0.0
  0
LINE
  5
6E18
  8
SL
 10
12841.85066097707
 20
7138.7216730695036
 30
0.0
 11
12841.85066097707
 21
6833.9043144659154
 31
0.0
  0
INSERT
  5
6E51
  8
FUTO
  2
右回転矢印
 10
9800.0234859213524
 20
7594.7056387131524
 30
0.0
 41
35.0
 42
35.0
 43
35.0
  0
INSERT
  5
6EE2
  8
FUTO
  2
まっすぐの矢印
 10
8313.6312624062393
 20
6584.9868137953181
 30
0.0
 41
-35.0
 42
35.0
 43
35.0
 50
90.0
  0
INSERT
  5
6EEC
  8
FUTO
  2
まっすぐの矢印
 10
14517.14328206505
 20
7509.6060148094766
 30
0.0
 41
35.0
 42
35.0
 43
35.0
 50
90.0
  0
DIMENSION
  5
6F64
  8
SP
  2
*D10
 10
14749.868703695771
 20
6181.9043144659136
 30
0.0
 11
14662.368703695771
 21
6981.9043144659163
 31
0.0
 70
     0
 13
14470.675302493901
 23
7781.9043144659126
 33
0.0
 14
14470.675302493901
 24
6181.9043144659136
 34
0.0
 50
90.0
1001
ACAD
1000
DSTYLE
1002
{
1070
    40
1040
35.0
1070
     3
1000
φ<>
1070
   147
1040
1.0
1070
    41
1040
2.5
1002
}
  0
DIMENSION
  5
6FB2
  8
SP
  2
*D11
 10
13745.675302493901
 20
8441.4783360828878
 30
0.0
 11
12805.675302493901
 21
8528.9783360828878
 31
0.0
 70
     0
 13
11865.675302493901
 23
7347.172905778787
 33
0.0
 14
13745.675302493901
 24
8441.4783360828878
 34
0.0
1001
ACAD
1000
DSTYLE
1002
{
1070
    40
1040
35.0
1070
    41
1040
2.5
1070
   147
1040
1.0
1002
}
  0
LINE
  5
6FD7
  8
CT
 10
9589.5177861500706
 20
9056.4510388813105
 30
0.0
 11
9589.5177861500706
 21
11820.09214748388
 31
0.0
  0
LINE
  5
6FDA
  8
FUTO
 10
9209.5177861500706
 20
9170.3142356670214
 30
0.0
 11
11043.017786150071
 21
9170.3142356670141
 31
0.0
  0
LINE
  5
6FDB
  8
FUTO
 10
9209.5177861500706
 20
9459.3142356670214
 30
0.0
 11
11043.017786150071
 21
9459.3142356670214
 31
0.0
  0
LINE
  5
6FDC
  8
SL
 10
9274.5177861500706
 20
9387.2142356670229
 30
0.0
 11
10707.017786150071
 21
9387.2142356670138
 31
0.0
  0
LINE
  5
6FDD
  8
SL
 10
9274.5177861500706
 20
9309.3142356670214
 30
0.0
 11
10972.017786150071
 21
9309.3142356670141
 31
0.0
  0
LINE
  5
6FE5
  8
SL
 10
10707.017786150071
 20
9407.314235667016
 30
0.0
 11
10972.017786150071
 21
9407.3142356670141
 31
0.0
  0
LINE
  5
6FE8
  8
FUTO
 10
9209.5177861500706
 20
9170.3142356670196
 30
0.0
 11
9209.5177861500706
 21
9459.3142356670214
 31
0.0
  0
LINE
  5
6FE9
  8
SL
 10
9669.5177861500724
 20
9387.2142356670192
 30
0.0
 11
9669.5177861500724
 21
9409.3142356670196
 31
0.0
  0
LINE
  5
6FEA
  8
SL
 10
9509.5177861500706
 20
9387.2142356670192
 30
0.0
 11
9509.5177861500706
 21
9409.3142356670196
 31
0.0
  0
LINE
  5
6FEB
  8
SL
 10
9274.5177861500706
 20
9387.2142356670229
 30
0.0
 11
9509.5177861500706
 21
9387.2142356670192
 31
0.0
  0
LINE
  5
6FEC
  8
SL
 10
9669.5177861500724
 20
9387.2142356670192
 30
0.0
 11
9904.5177861500706
 21
9387.2142356670192
 31
0.0
  0
LINE
  5
6FED
  8
SL
 10
9904.5177861500706
 20
9309.3142356670196
 30
0.0
 11
9904.5177861500706
 21
9387.2142356670192
 31
0.0
  0
LINE
  5
6FEE
  8
SL
 10
9274.5177861500706
 20
9309.3142356670214
 30
0.0
 11
9274.5177861500706
 21
9387.2142356670229
 31
0.0
  0
LINE
  5
6FF1
  8
FUTO
 10
9639.5177861500724
 20
9639.3142356670196
 30
0.0
 11
9639.5177861500724
 21
10163.314235667011
 31
0.0
  0
LINE
  5
6FF2
  8
FUTO
 10
9539.5177861500706
 20
9639.3142356670196
 30
0.0
 11
9539.5177861500706
 21
10163.314235667011
 31
0.0
  0
LINE
  5
6FF5
  8
CT
 10
9429.1508281141087
 20
9569.3142356670196
 30
0.0
 11
9761.1968768876031
 21
9569.3142356670196
 31
0.0
  0
LINE
  5
6FF6
  8
FUTO
 10
9489.5177861500724
 20
9519.3142356670196
 30
0.0
 11
9689.5177861500706
 21
9519.3142356670196
 31
0.0
  0
ARC
  5
6FF7
  8
FUTO
 10
9678.5177861500724
 20
9510.3142356670214
 30
0.0
 40
6.0
 50
270.0
 51
0.000000000000007
  0
LINE
  5
6FF8
  8
FUTO
 10
9689.5177861500706
 20
9619.3142356670196
 30
0.0
 11
9489.5177861500724
 21
9619.3142356670196
 31
0.0
  0
ARC
  5
6FF9
  8
FUTO
 10
9678.5177861500724
 20
9628.3142356670196
 30
0.0
 40
6.0
 50
0.000000000000007
 51
90.0
  0
LINE
  5
6FFD
  8
FUTO
 10
9684.5177861500706
 20
9510.3142356670178
 30
0.0
 11
9684.5177861500706
 21
9519.3142356670196
 31
0.0
  0
LINE
  5
7000
  8
FUTO
 10
9684.5177861500706
 20
9628.3142356670196
 30
0.0
 11
9684.5177861500706
 21
9619.3142356670196
 31
0.0
  0
ARC
  5
7001
  8
FUTO
 10
9500.5177861500706
 20
9510.3142356670214
 30
0.0
 40
6.0
 50
180.0
 51
270.0
  0
ARC
  5
7002
  8
FUTO
 10
9500.5177861500706
 20
9628.3142356670196
 30
0.0
 40
6.0
 50
90.0
 51
180.0
  0
LINE
  5
7004
  8
FUTO
 10
9632.0177861500724
 20
9409.3142356670196
 30
0.0
 11
9632.0177861500724
 21
9499.3142356670196
 31
0.0
  0
LINE
  5
7005
  8
FUTO
 10
9547.0177861500688
 20
9409.3142356670196
 30
0.0
 11
9547.0177861500688
 21
9499.3142356670196
 31
0.0
  0
LINE
  5
7006
  8
SL
 10
9509.5177861500706
 20
9409.3142356670196
 30
0.0
 11
9669.5177861500724
 21
9409.3142356670196
 31
0.0
  0
LINE
  5
7007
  8
FUTO
 10
9509.5177861500706
 20
9499.3142356670196
 30
0.0
 11
9669.5177861500724
 21
9499.3142356670196
 31
0.0
  0
LINE
  5
7008
  8
FUTO
 10
9500.5177861500706
 20
9504.3142356670178
 30
0.0
 11
9678.5177861500724
 21
9504.3142356670178
 31
0.0
  0
LINE
  5
7009
  8
FUTO
 10
9669.5177861500724
 20
9499.3142356670196
 30
0.0
 11
9669.5177861500724
 21
9504.3142356670196
 31
0.0
  0
LINE
  5
700B
  8
FUTO
 10
9509.5177861500706
 20
9504.3142356670196
 30
0.0
 11
9509.5177861500706
 21
9499.3142356670196
 31
0.0
  0
LINE
  5
700C
  8
FUTO
 10
9500.5177861500706
 20
9634.3142356670196
 30
0.0
 11
9678.5177861500724
 21
9634.3142356670196
 31
0.0
  0
LINE
  5
700D
  8
FUTO
 10
9509.5177861500706
 20
9639.3142356670196
 30
0.0
 11
9669.5177861500724
 21
9639.3142356670196
 31
0.0
  0
LINE
  5
700F
  8
FUTO
 10
9669.5177861500724
 20
9639.3142356670196
 30
0.0
 11
9669.5177861500724
 21
9634.3142356670196
 31
0.0
  0
LINE
  5
7010
  8
FUTO
 10
9509.5177861500706
 20
9634.3142356670196
 30
0.0
 11
9509.5177861500706
 21
9639.3142356670196
 31
0.0
  0
LINE
  5
7011
  8
FUTO
 10
9489.5177861500724
 20
9619.3142356670196
 30
0.0
 11
9489.5177861500724
 21
9519.3142356670196
 31
0.0
  0
LINE
  5
7012
  8
FUTO
 10
9494.5177861500706
 20
9519.3142356670196
 30
0.0
 11
9494.5177861500706
 21
9510.3142356670178
 31
0.0
  0
LINE
  5
7013
  8
FUTO
 10
9494.5177861500706
 20
9619.3142356670196
 30
0.0
 11
9494.5177861500706
 21
9628.3142356670196
 31
0.0
  0
LINE
  5
7015
  8
FUTO
 10
9469.5177861500706
 20
10171.314235667011
 30
0.0
 11
9709.5177861500706
 21
10171.314235667011
 31
0.0
  0
LINE
  5
7016
  8
FUTO
 10
9469.5177861500706
 20
10327.31423566702
 30
0.0
 11
9709.5177861500706
 21
10327.31423566702
 31
0.0
  0
LINE
  5
7018
  8
FUTO
 10
9669.5177861500724
 20
10163.31423566702
 30
0.0
 11
9689.5177861500706
 21
10171.314235667011
 31
0.0
  0
LINE
  5
701A
  8
FUTO
 10
9669.5177861500724
 20
10335.314235667011
 30
0.0
 11
9689.5177861500706
 21
10327.31423566702
 31
0.0
  0
LINE
  5
701D
  8
CT
 10
9429.1508281141087
 20
10249.314235667011
 30
0.0
 11
9761.1968768876031
 21
10249.314235667011
 31
0.0
  0
LINE
  5
7022
  8
FUTO
 10
9709.5177861500706
 20
10171.314235667011
 30
0.0
 11
9709.5177861500706
 21
10179.31423566702
 31
0.0
  0
LINE
  5
7024
  8
FUTO
 10
9709.5177861500706
 20
10327.31423566702
 30
0.0
 11
9709.5177861500706
 21
10319.31423566702
 31
0.0
  0
LINE
  5
7026
  8
FUTO
 10
9456.5177861500706
 20
10195.314235667011
 30
0.0
 11
9456.5177861500706
 21
10303.31423566702
 31
0.0
  0
LINE
  5
7027
  8
FUTO
 10
9469.5177861500706
 20
10185.31423566702
 30
0.0
 11
9709.5177861500706
 21
10185.31423566702
 31
0.0
  0
LINE
  5
7028
  8
FUTO
 10
9509.5177861500706
 20
10163.31423566702
 30
0.0
 11
9489.5177861500724
 21
10171.314235667011
 31
0.0
  0
LINE
  5
7029
  8
FUTO
 10
9456.5177861500706
 20
10221.814235667011
 30
0.0
 11
9722.5177861500706
 21
10221.814235667011
 31
0.0
  0
LINE
  5
702A
  8
FUTO
 10
9509.5177861500706
 20
10163.31423566702
 30
0.0
 11
9669.5177861500724
 21
10163.31423566702
 31
0.0
  0
LINE
  5
702C
  8
FUTO
 10
9469.5177861500706
 20
10171.314235667011
 30
0.0
 11
9469.5177861500706
 21
10185.31423566702
 31
0.0
  0
LINE
  5
702D
  8
FUTO
 10
9456.5177861500706
 20
10195.314235667011
 30
0.0
 11
9469.5177861500706
 21
10195.314235667011
 31
0.0
  0
LINE
  5
702E
  8
FUTO
 10
9469.5177861500706
 20
10185.31423566702
 30
0.0
 11
9469.5177861500706
 21
10221.814235667011
 31
0.0
  0
LINE
  5
702F
  8
FUTO
 10
9469.5177861500706
 20
10313.314235667011
 30
0.0
 11
9669.5177861500724
 21
10313.314235667011
 31
0.0
  0
LINE
  5
7030
  8
FUTO
 10
9509.5177861500706
 20
10335.314235667011
 30
0.0
 11
9489.5177861500724
 21
10327.31423566702
 31
0.0
  0
LINE
  5
7031
  8
FUTO
 10
9469.5177861500706
 20
10313.314235667011
 30
0.0
 11
9709.5177861500706
 21
10313.314235667011
 31
0.0
  0
LINE
  5
7032
  8
FUTO
 10
9456.5177861500706
 20
10276.81423566702
 30
0.0
 11
9722.5177861500706
 21
10276.81423566702
 31
0.0
  0
LINE
  5
7033
  8
KL
 10
9639.5177861500724
 20
10335.314235667011
 30
0.0
 11
9639.5177861500724
 21
10457.114235667021
 31
0.0
  0
LINE
  5
7034
  8
KL
 10
9539.5177861500706
 20
10335.314235667011
 30
0.0
 11
9539.5177861500706
 21
10457.11423566701
 31
0.0
  0
LINE
  5
7035
  8
FUTO
 10
9509.5177861500706
 20
10335.314235667011
 30
0.0
 11
9669.5177861500724
 21
10335.314235667011
 31
0.0
  0
LINE
  5
703A
  8
FUTO
 10
9456.5177861500706
 20
10303.31423566702
 30
0.0
 11
9469.5177861500706
 21
10303.31423566702
 31
0.0
  0
LINE
  5
703B
  8
FUTO
 10
9469.5177861500706
 20
10327.31423566702
 30
0.0
 11
9469.5177861500706
 21
10313.314235667011
 31
0.0
  0
LINE
  5
703C
  8
FUTO
 10
9469.5177861500706
 20
10276.81423566702
 30
0.0
 11
9469.5177861500706
 21
10313.314235667011
 31
0.0
  0
LINE
  5
703F
  8
KL
 10
9598.5177861500706
 20
11649.51423566702
 30
0.0
 11
10454.517786150071
 21
11649.51423566702
 31
0.0
  0
LINE
  5
7040
  8
FUTO
 10
8724.5177861500706
 20
11769.31423566702
 30
0.0
 11
10454.517786150071
 21
11769.31423566702
 31
0.0
  0
LINE
  5
7041
  8
FUTO
 10
8724.5177861500706
 20
11775.31423566702
 30
0.0
 11
10454.517786150071
 21
11775.31423566702
 31
0.0
  0
LINE
  5
7045
  8
KL
 10
10454.517786150071
 20
11643.514235667009
 30
0.0
 11
10454.517786150071
 21
11649.51423566702
 31
0.0
  0
LINE
  5
7046
  8
FUTO
 10
10454.517786150071
 20
11769.31423566702
 30
0.0
 11
10454.517786150071
 21
11775.31423566702
 31
0.0
  0
LINE
  5
7047
  8
FUTO
 10
10395.517786150071
 20
11718.514235667009
 30
0.0
 11
10395.517786150071
 21
11769.31423566702
 31
0.0
  0
LINE
  5
7048
  8
KL
 10
10389.517786150071
 20
11643.514235667009
 30
0.0
 11
10389.517786150071
 21
11775.31423566702
 31
0.0
  0
LINE
  5
7049
  8
CT
 10
10429.517786150071
 20
11620.314235667011
 30
0.0
 11
10429.517786150071
 21
11663.514235667009
 31
0.0
  0
LINE
  5
704A
  8
CT
 10
10429.517786150071
 20
11750.31423566702
 30
0.0
 11
10429.517786150071
 21
11793.514235667009
 31
0.0
  0
LINE
  5
704E
  8
KL
 10
8724.5177861500706
 20
11649.51423566702
 30
0.0
 11
9580.5177861500706
 21
11649.51423566702
 31
0.0
  0
INSERT
  5
7052
  8
FUTO
  2
まっすぐの矢印
 10
9332.6565338591008
 20
11821.78221523817
 30
0.0
 41
35.0
 42
35.0
 43
35.0
 50
180.0
  0
LINE
  5
7053
  8
FUTO
 10
8783.5177861500706
 20
11718.514235667009
 30
0.0
 11
8783.5177861500706
 21
11769.31423566702
 31
0.0
  0
LINE
  5
7054
  8
KL
 10
8789.5177861500706
 20
11643.514235667009
 30
0.0
 11
8789.5177861500706
 21
11775.31423566702
 31
0.0
  0
LINE
  5
7055
  8
CT
 10
8749.5177861500706
 20
11620.314235667011
 30
0.0
 11
8749.5177861500706
 21
11663.514235667009
 31
0.0
  0
LINE
  5
7056
  8
CT
 10
8749.5177861500706
 20
11750.31423566702
 30
0.0
 11
8749.5177861500706
 21
11793.514235667009
 31
0.0
  0
LINE
  5
7057
  8
KL
 10
8724.5177861500706
 20
11643.514235667009
 30
0.0
 11
8724.5177861500706
 21
11649.51423566702
 31
0.0
  0
LINE
  5
7058
  8
FUTO
 10
8724.5177861500706
 20
11769.31423566702
 30
0.0
 11
8724.5177861500706
 21
11775.31423566702
 31
0.0
  0
LINE
  5
7096
  8
FUTO
 10
9689.5177861500706
 20
9619.3142356670196
 30
0.0
 11
9689.5177861500706
 21
9519.3142356670196
 31
0.0
  0
LINE
  5
7097
  8
FUTO
 10
9722.5177861500706
 20
10195.314235667011
 30
0.0
 11
9722.5177861500706
 21
10303.31423566702
 31
0.0
  0
LINE
  5
7098
  8
FUTO
 10
9709.5177861500706
 20
10185.31423566702
 30
0.0
 11
9709.5177861500706
 21
10221.814235667011
 31
0.0
  0
LINE
  5
7099
  8
FUTO
 10
9722.5177861500706
 20
10195.314235667011
 30
0.0
 11
9709.5177861500706
 21
10195.314235667011
 31
0.0
  0
LINE
  5
709A
  8
FUTO
 10
9709.5177861500706
 20
10171.314235667011
 30
0.0
 11
9709.5177861500706
 21
10185.31423566702
 31
0.0
  0
LINE
  5
709B
  8
FUTO
 10
9709.5177861500706
 20
10276.81423566702
 30
0.0
 11
9709.5177861500706
 21
10313.314235667011
 31
0.0
  0
LINE
  5
709C
  8
FUTO
 10
9709.5177861500706
 20
10327.31423566702
 30
0.0
 11
9709.5177861500706
 21
10313.314235667011
 31
0.0
  0
LINE
  5
709D
  8
FUTO
 10
9722.5177861500706
 20
10303.31423566702
 30
0.0
 11
9709.5177861500706
 21
10303.31423566702
 31
0.0
  0
ARC
  5
7D1A
  8
FUTO
 10
10839.517786150071
 20
9410.314235667016
 30
0.0
 40
9.0
 50
0.000000000000007
 51
180.0
  0
LINE
  5
7D1B
  8
FUTO
 10
10848.517786150071
 20
9309.3142356670141
 30
0.0
 11
10848.517786150071
 21
9410.314235667016
 31
0.0
  0
LINE
  5
7D1C
  8
FUTO
 10
10830.517786150071
 20
9309.3142356670141
 30
0.0
 11
10830.517786150071
 21
9410.314235667016
 31
0.0
  0
LINE
  5
7D1D
  8
FUTO
 10
11096.51772515007
 20
9823.8141746670153
 30
0.0
 11
11096.51772515007
 21
9859.8142356670178
 31
0.0
  0
LINE
  5
7D1E
  8
FUTO
 10
11099.51772515007
 20
9823.8141746670153
 30
0.0
 11
11099.51772515007
 21
9859.8142356670178
 31
0.0
  0
LINE
  5
7D1F
  8
FUTO
 10
11091.51772515007
 20
9823.8141746670153
 30
0.0
 11
11091.51772515007
 21
9870.8142356670196
 31
0.0
  0
LINE
  5
7D20
  8
FUTO
 10
11049.517786150071
 20
9484.814235667016
 30
0.0
 11
11049.517786150071
 21
9531.6892356670178
 31
0.0
  0
LINE
  5
7D21
  8
FUTO
 10
10997.20942114559
 20
9479.8142356670141
 30
0.0
 11
11044.517786150071
 21
9479.8142356670141
 31
0.0
  0
ARC
  5
7D22
  8
FUTO
 10
11044.517786150071
 20
9484.814235667016
 30
0.0
 40
5.0
 50
270.0
 51
0.000000000000007
  0
LINE
  5
7D23
  8
FUTO
 10
11029.19913136849
 20
9531.6892356670178
 30
0.0
 11
11049.517786150071
 21
9531.689235667016
 31
0.0
  0
LINE
  5
7D24
  8
FUTO
 10
11049.517786150071
 20
9529.814235667016
 30
0.0
 11
11096.51772515007
 21
9529.8142356670178
 31
0.0
  0
LINE
  5
7D25
  8
FUTO
 10
11049.517786150071
 20
9526.814235667016
 30
0.0
 11
11099.51772515007
 21
9526.8142356670178
 31
0.0
  0
LINE
  5
7D26
  8
FUTO
 10
11029.308259718349
 20
9534.8142356670196
 30
0.0
 11
11091.51772515007
 21
9534.8142356670196
 31
0.0
  0
LINE
  5
7D27
  8
FUTO
 10
11091.51772515007
 20
9534.8142356670196
 30
0.0
 11
11096.51772515007
 21
9529.8142356670178
 31
0.0
  0
LINE
  5
7D28
  8
FUTO
 10
11124.51772515007
 20
9569.8142356670141
 30
0.0
 11
11124.51772515007
 21
9609.8142356670178
 31
0.0
  0
LINE
  5
7D29
  8
FUTO
 10
11094.51772515007
 20
9569.8142356670178
 30
0.0
 11
11094.51772515007
 21
9609.8142356670178
 31
0.0
  0
LINE
  5
7D2A
  8
FUTO
 10
11124.51772515007
 20
9609.814235667016
 30
0.0
 11
11094.51772515007
 21
9609.8142356670178
 31
0.0
  0
LINE
  5
7D2B
  8
FUTO
 10
11094.51772515007
 20
9569.8142356670178
 30
0.0
 11
11124.51772515007
 21
9569.8142356670141
 31
0.0
  0
LINE
  5
7D2C
  8
CT
 10
11043.017786150071
 20
9589.8142356670178
 30
0.0
 11
11210.572168150071
 21
9589.8142356670178
 31
0.0
  0
LINE
  5
7D2D
  8
FUTO
 10
11198.97219315007
 20
9607.404079667016
 30
0.0
 11
11186.87221715007
 21
9607.404079667016
 31
0.0
  0
LINE
  5
7D2E
  8
FUTO
 10
11198.97219315007
 20
9572.2243926670144
 30
0.0
 11
11186.87221715007
 21
9572.2243926670144
 31
0.0
  0
LINE
  5
7D2F
  8
FUTO
 10
11198.97219315007
 20
9599.5193136670168
 30
0.0
 11
11186.87221715007
 21
9599.5193136670168
 31
0.0
  0
LINE
  5
7D30
  8
FUTO
 10
11198.97219315007
 20
9580.1091576670169
 30
0.0
 11
11186.87221715007
 21
9580.1091576670169
 31
0.0
  0
LINE
  5
7D31
  8
FUTO
 10
11200.572168150071
 20
9605.8044706670171
 30
0.0
 11
11200.572168150071
 21
9573.8249776670145
 31
0.0
  0
LINE
  5
7D32
  8
FUTO
 10
11198.97219315007
 20
9572.2243926670144
 30
0.0
 11
11200.572168150071
 21
9573.8249776670145
 31
0.0
  0
LINE
  5
7D33
  8
FUTO
 10
11198.97219315007
 20
9580.1091576670169
 30
0.0
 11
11200.572168150071
 21
9578.5095486670198
 31
0.0
  0
LINE
  5
7D34
  8
FUTO
 10
11198.97219315007
 20
9580.1091576670169
 30
0.0
 11
11200.572168150071
 21
9581.7097436670156
 31
0.0
  0
LINE
  5
7D35
  8
FUTO
 10
11200.572168150071
 20
9605.8044706670171
 30
0.0
 11
11198.97219315007
 21
9607.404079667016
 31
0.0
  0
LINE
  5
7D36
  8
FUTO
 10
11198.97219315007
 20
9599.5193136670168
 30
0.0
 11
11200.572168150071
 21
9601.1198996670173
 31
0.0
  0
LINE
  5
7D37
  8
FUTO
 10
11198.97219315007
 20
9599.5193136670168
 30
0.0
 11
11200.572168150071
 21
9597.9197046670179
 31
0.0
  0
LINE
  5
7D38
  8
FUTO
 10
11186.87221715007
 20
9607.404079667016
 30
0.0
 11
11186.87221715007
 21
9572.2243926670144
 31
0.0
  0
LINE
  5
7D39
  8
FUTO
 10
11186.87221715007
 20
9580.8142356670178
 30
0.0
 11
11124.51772515007
 21
9580.8142356670178
 31
0.0
  0
LINE
  5
7D3A
  8
HOSO
 10
11124.51772515007
 20
9582.8142356670196
 30
0.0
 11
11186.872278150069
 21
9582.8142356670196
 31
0.0
  0
LINE
  5
7D3B
  8
HOSO
 10
11186.87221715007
 20
9596.8142356670178
 30
0.0
 11
11124.51772515007
 21
9596.8142356670178
 31
0.0
  0
LINE
  5
7D3C
  8
FUTO
 10
11124.51772515007
 20
9598.8142356670196
 30
0.0
 11
11186.872278150069
 21
9598.8142356670196
 31
0.0
  0
LINE
  5
7D3D
  8
FUTO
 10
11094.51772515007
 20
9580.814235667016
 30
0.0
 11
11043.017786150071
 21
9580.8142356670178
 31
0.0
  0
LINE
  5
7D3E
  8
HOSO
 10
11043.017786150071
 20
9582.8142356670141
 30
0.0
 11
11094.51772515007
 21
9582.8142356670196
 31
0.0
  0
LINE
  5
7D3F
  8
FUTO
 10
11043.017786150071
 20
9598.8142356670178
 30
0.0
 11
11094.51772515007
 21
9598.8142356670196
 31
0.0
  0
LINE
  5
7D40
  8
HOSO
 10
11094.51772515007
 20
9596.8142356670178
 30
0.0
 11
11043.017786150071
 21
9596.814235667016
 31
0.0
  0
LINE
  5
7D41
  8
FUTO
 10
11099.51772515007
 20
9526.8142356670178
 30
0.0
 11
11099.51772515007
 21
9569.8142356670178
 31
0.0
  0
LINE
  5
7D42
  8
FUTO
 10
11096.51772515007
 20
9529.8142356670178
 30
0.0
 11
11096.51772515007
 21
9569.8142356670141
 31
0.0
  0
LINE
  5
7D43
  8
FUTO
 10
11091.51772515007
 20
9534.8142356670196
 30
0.0
 11
11091.51772515007
 21
9580.814235667016
 31
0.0
  0
LINE
  5
7D44
  8
FUTO
 10
11099.51772515007
 20
9609.8142356670178
 30
0.0
 11
11099.51772515007
 21
9645.8142356670178
 31
0.0
  0
LINE
  5
7D45
  8
FUTO
 10
11096.51772515007
 20
9609.8142356670178
 30
0.0
 11
11096.51772515007
 21
9645.8142356670178
 31
0.0
  0
LINE
  5
7D46
  8
FUTO
 10
11091.51772515007
 20
9598.8142356670196
 30
0.0
 11
11091.51772515007
 21
9645.8142356670178
 31
0.0
  0
LINE
  5
7D47
  8
FUTO
 10
11124.51772515007
 20
9870.8142356670196
 30
0.0
 11
11186.872278150069
 21
9870.8142356670196
 31
0.0
  0
LINE
  5
7D48
  8
HOSO
 10
11186.87221715007
 20
9872.8142356670178
 30
0.0
 11
11124.51772515007
 21
9872.8142356670178
 31
0.0
  0
LINE
  5
7D49
  8
HOSO
 10
11124.51772515007
 20
9886.8142356670178
 30
0.0
 11
11186.872278150069
 21
9886.8142356670178
 31
0.0
  0
LINE
  5
7D4A
  8
FUTO
 10
11186.87221715007
 20
9888.8142356670196
 30
0.0
 11
11124.51772515007
 21
9888.8142356670196
 31
0.0
  0
LINE
  5
7D4B
  8
FUTO
 10
11186.87221715007
 20
9862.2243916670159
 30
0.0
 11
11186.87221715007
 21
9897.4040786670157
 31
0.0
  0
LINE
  5
7D4C
  8
FUTO
 10
11198.97219315007
 20
9870.1091576670151
 30
0.0
 11
11200.572168150071
 21
9871.7087666670177
 31
0.0
  0
LINE
  5
7D4D
  8
FUTO
 10
11198.97219315007
 20
9870.1091576670151
 30
0.0
 11
11200.572168150071
 21
9868.5085716670183
 31
0.0
  0
LINE
  5
7D4E
  8
FUTO
 10
11200.572168150071
 20
9863.8240006670167
 30
0.0
 11
11198.97219315007
 21
9862.2243916670159
 31
0.0
  0
LINE
  5
7D4F
  8
FUTO
 10
11198.97219315007
 20
9889.5193136670168
 30
0.0
 11
11200.572168150071
 21
9887.9187276670164
 31
0.0
  0
LINE
  5
7D50
  8
FUTO
 10
11198.97219315007
 20
9889.5193136670168
 30
0.0
 11
11200.572168150071
 21
9891.1189226670176
 31
0.0
  0
LINE
  5
7D51
  8
FUTO
 10
11198.97219315007
 20
9897.4040786670157
 30
0.0
 11
11200.572168150071
 21
9895.8034936670174
 31
0.0
  0
LINE
  5
7D52
  8
FUTO
 10
11200.572168150071
 20
9863.8240006670167
 30
0.0
 11
11200.572168150071
 21
9895.8034936670174
 31
0.0
  0
LINE
  5
7D53
  8
FUTO
 10
11198.97219315007
 20
9889.5193136670168
 30
0.0
 11
11186.87221715007
 21
9889.5193136670168
 31
0.0
  0
LINE
  5
7D54
  8
FUTO
 10
11198.97219315007
 20
9870.1091576670151
 30
0.0
 11
11186.87221715007
 21
9870.1091576670151
 31
0.0
  0
LINE
  5
7D55
  8
FUTO
 10
11198.97219315007
 20
9897.4040786670157
 30
0.0
 11
11186.87221715007
 21
9897.4040786670157
 31
0.0
  0
LINE
  5
7D56
  8
FUTO
 10
11198.97219315007
 20
9862.2243916670159
 30
0.0
 11
11186.87221715007
 21
9862.2243916670159
 31
0.0
  0
LINE
  5
7D57
  8
FUTO
 10
11094.51772515007
 20
9899.8142356670196
 30
0.0
 11
11124.51772515007
 21
9899.8142356670196
 31
0.0
  0
LINE
  5
7D58
  8
FUTO
 10
11124.51772515007
 20
9859.8142356670178
 30
0.0
 11
11094.51772515007
 21
9859.8142356670178
 31
0.0
  0
LINE
  5
7D59
  8
FUTO
 10
11094.51772515007
 20
9899.8142356670196
 30
0.0
 11
11094.51772515007
 21
9859.8142356670178
 31
0.0
  0
LINE
  5
7D5A
  8
FUTO
 10
11124.51772515007
 20
9899.8142356670196
 30
0.0
 11
11124.51772515007
 21
9859.8142356670178
 31
0.0
  0
LINE
  5
7D5B
  8
HOSO
 10
11094.51772515007
 20
9872.8142356670178
 30
0.0
 11
11043.017786150071
 21
9872.814235667016
 31
0.0
  0
LINE
  5
7D5C
  8
FUTO
 10
11043.017786150071
 20
9870.8142356670178
 30
0.0
 11
11094.51772515007
 21
9870.8142356670196
 31
0.0
  0
LINE
  5
7D5D
  8
HOSO
 10
11043.017786150071
 20
9886.8142356670178
 30
0.0
 11
11094.51772515007
 21
9886.8142356670178
 31
0.0
  0
LINE
  5
7D5E
  8
FUTO
 10
11094.51772515007
 20
9888.8142356670196
 30
0.0
 11
11043.017786150071
 21
9888.814235667016
 31
0.0
  0
LINE
  5
7D5F
  8
CT
 10
11043.017786150071
 20
9879.814235667016
 30
0.0
 11
11210.572168150071
 21
9879.8142356670196
 31
0.0
  0
LINE
  5
7D60
  8
FUTO
 10
11091.51772515007
 20
9934.8142356670196
 30
0.0
 11
11096.51772515007
 21
9939.8142356670178
 31
0.0
  0
LINE
  5
7D61
  8
FUTO
 10
11049.517786150071
 20
9942.814235667016
 30
0.0
 11
11099.51772515007
 21
9942.8142356670178
 31
0.0
  0
LINE
  5
7D62
  8
FUTO
 10
11049.517786150071
 20
9939.814235667016
 30
0.0
 11
11096.51772515007
 21
9939.8142356670178
 31
0.0
  0
LINE
  5
7D63
  8
FUTO
 10
11043.017786150071
 20
9937.939235667016
 30
0.0
 11
11049.517786150071
 21
9937.939235667016
 31
0.0
  0
LINE
  5
7D64
  8
FUTO
 10
11043.017786150071
 20
9934.8142356670178
 30
0.0
 11
11091.51772515007
 21
9934.8142356670196
 31
0.0
  0
LINE
  5
7D65
  8
FUTO
 10
11091.51772515007
 20
9934.8142356670196
 30
0.0
 11
11091.51772515007
 21
9888.8142356670196
 31
0.0
  0
LINE
  5
7D66
  8
FUTO
 10
11096.51772515007
 20
9939.8142356670178
 30
0.0
 11
11096.51772515007
 21
9899.8142356670196
 31
0.0
  0
LINE
  5
7D67
  8
FUTO
 10
11099.51772515007
 20
9942.8142356670178
 30
0.0
 11
11099.51772515007
 21
9899.8142356670196
 31
0.0
  0
ARC
  5
7D68
  8
FUTO
 10
11044.517786150071
 20
9984.814235667016
 30
0.0
 40
5.0
 50
0.000000000000007
 51
90.000000000000028
  0
LINE
  5
7D69
  8
FUTO
 10
11049.517786150071
 20
9984.814235667016
 30
0.0
 11
11049.517786150071
 21
9937.939235667016
 31
0.0
  0
LINE
  5
7D6A
  8
FUTO
 10
11032.017786150071
 20
9989.8142356670178
 30
0.0
 11
11044.517786150071
 21
9989.8142356670178
 31
0.0
  0
LINE
  5
7D6B
  8
CT
 10
10636.017786150071
 20
9879.814235667016
 30
0.0
 11
10468.46340415007
 21
9879.814235667016
 31
0.0
  0
LINE
  5
7D6C
  8
FUTO
 10
10584.517847150069
 20
9888.814235667016
 30
0.0
 11
10636.017786150071
 21
9888.814235667016
 31
0.0
  0
LINE
  5
7D6D
  8
HOSO
 10
10636.017786150071
 20
9886.8142356670178
 30
0.0
 11
10584.517847150069
 21
9886.8142356670178
 31
0.0
  0
LINE
  5
7D6E
  8
FUTO
 10
10636.017786150071
 20
9870.8142356670178
 30
0.0
 11
10584.517847150069
 21
9870.8142356670178
 31
0.0
  0
LINE
  5
7D6F
  8
HOSO
 10
10584.517847150069
 20
9872.814235667016
 30
0.0
 11
10636.017786150071
 21
9872.814235667016
 31
0.0
  0
LINE
  5
7D70
  8
FUTO
 10
10554.51784715006
 20
9899.8142356670196
 30
0.0
 11
10554.51784715006
 21
9859.814235667016
 31
0.0
  0
LINE
  5
7D71
  8
FUTO
 10
10584.517847150069
 20
9899.8142356670141
 30
0.0
 11
10584.517847150069
 21
9859.814235667016
 31
0.0
  0
LINE
  5
7D72
  8
FUTO
 10
10554.51784715006
 20
9859.814235667016
 30
0.0
 11
10584.517847150069
 21
9859.814235667016
 31
0.0
  0
LINE
  5
7D73
  8
FUTO
 10
10584.517847150069
 20
9899.8142356670141
 30
0.0
 11
10554.51784715006
 21
9899.8142356670141
 31
0.0
  0
LINE
  5
7D74
  8
FUTO
 10
10480.06337915007
 20
9862.2243916670159
 30
0.0
 11
10492.163355150071
 21
9862.2243916670159
 31
0.0
  0
LINE
  5
7D75
  8
FUTO
 10
10480.06337915007
 20
9897.4040786670157
 30
0.0
 11
10492.163355150071
 21
9897.4040786670157
 31
0.0
  0
LINE
  5
7D76
  8
FUTO
 10
10480.06337915007
 20
9870.1091576670151
 30
0.0
 11
10492.163355150071
 21
9870.1091576670151
 31
0.0
  0
LINE
  5
7D77
  8
FUTO
 10
10480.06337915007
 20
9889.5193136670168
 30
0.0
 11
10492.163355150071
 21
9889.5193136670168
 31
0.0
  0
LINE
  5
7D78
  8
FUTO
 10
10478.46340415007
 20
9863.8240006670167
 30
0.0
 11
10478.46340415007
 21
9895.8034936670174
 31
0.0
  0
LINE
  5
7D79
  8
FUTO
 10
10480.06337915007
 20
9897.4040786670157
 30
0.0
 11
10478.46340415007
 21
9895.8034936670174
 31
0.0
  0
LINE
  5
7D7A
  8
FUTO
 10
10480.06337915007
 20
9889.5193136670168
 30
0.0
 11
10478.46340415007
 21
9891.1189226670176
 31
0.0
  0
LINE
  5
7D7B
  8
FUTO
 10
10480.06337915007
 20
9889.5193136670168
 30
0.0
 11
10478.46340415007
 21
9887.9187276670164
 31
0.0
  0
LINE
  5
7D7C
  8
FUTO
 10
10478.46340415007
 20
9863.8240006670167
 30
0.0
 11
10480.06337915007
 21
9862.2243916670159
 31
0.0
  0
LINE
  5
7D7D
  8
FUTO
 10
10480.06337915007
 20
9870.1091576670151
 30
0.0
 11
10478.46340415007
 21
9868.5085716670183
 31
0.0
  0
LINE
  5
7D7E
  8
FUTO
 10
10480.06337915007
 20
9870.1091576670151
 30
0.0
 11
10478.46340415007
 21
9871.7087666670177
 31
0.0
  0
LINE
  5
7D7F
  8
FUTO
 10
10492.163355150071
 20
9862.2243916670159
 30
0.0
 11
10492.163355150071
 21
9897.4040786670157
 31
0.0
  0
LINE
  5
7D80
  8
FUTO
 10
10492.163355150071
 20
9888.814235667016
 30
0.0
 11
10554.51784715006
 21
9888.814235667016
 31
0.0
  0
LINE
  5
7D81
  8
HOSO
 10
10554.51784715006
 20
9886.8142356670178
 30
0.0
 11
10492.16329415007
 21
9886.8142356670178
 31
0.0
  0
LINE
  5
7D82
  8
HOSO
 10
10492.163355150071
 20
9872.814235667016
 30
0.0
 11
10554.51784715006
 21
9872.814235667016
 31
0.0
  0
LINE
  5
7D83
  8
FUTO
 10
10554.51784715006
 20
9870.8142356670178
 30
0.0
 11
10492.16329415007
 21
9870.8142356670178
 31
0.0
  0
LINE
  5
7D84
  8
FUTO
 10
10579.517847150069
 20
9942.814235667016
 30
0.0
 11
10579.517847150069
 21
9899.8142356670141
 31
0.0
  0
LINE
  5
7D85
  8
FUTO
 10
10582.517847150069
 20
9939.814235667016
 30
0.0
 11
10582.517847150069
 21
9899.8142356670141
 31
0.0
  0
LINE
  5
7D86
  8
FUTO
 10
10587.51784715006
 20
9934.8142356670178
 30
0.0
 11
10587.51784715006
 21
9888.814235667016
 31
0.0
  0
LINE
  5
7D87
  8
FUTO
 10
10647.017786150071
 20
9989.8142356670178
 30
0.0
 11
10634.517786150071
 21
9989.8142356670178
 31
0.0
  0
LINE
  5
7D88
  8
FUTO
 10
10636.017786150071
 20
9934.8142356670178
 30
0.0
 11
10587.51784715006
 21
9934.8142356670178
 31
0.0
  0
LINE
  5
7D89
  8
FUTO
 10
10636.017786150071
 20
9937.939235667016
 30
0.0
 11
10629.517786150071
 21
9937.939235667016
 31
0.0
  0
LINE
  5
7D8A
  8
FUTO
 10
10629.517786150071
 20
9984.814235667016
 30
0.0
 11
10629.517786150071
 21
9937.939235667016
 31
0.0
  0
LINE
  5
7D8B
  8
FUTO
 10
10629.517786150071
 20
9939.814235667016
 30
0.0
 11
10582.517847150069
 21
9939.814235667016
 31
0.0
  0
LINE
  5
7D8C
  8
FUTO
 10
10629.517786150071
 20
9942.814235667016
 30
0.0
 11
10579.517847150069
 21
9942.814235667016
 31
0.0
  0
ARC
  5
7D8D
  8
FUTO
 10
10634.517786150071
 20
9984.814235667016
 30
0.0
 40
5.0
 50
90.000000000000028
 51
180.0
  0
LINE
  5
7D8E
  8
FUTO
 10
10587.51784715006
 20
9934.8142356670178
 30
0.0
 11
10582.517847150069
 21
9939.814235667016
 31
0.0
  0
LINE
  5
7D8F
  8
FUTO
 10
10649.83644093164
 20
9531.6892356670178
 30
0.0
 11
10629.517786150071
 21
9531.689235667016
 31
0.0
  0
LINE
  5
7D90
  8
FUTO
 10
10587.51784715006
 20
9598.8142356670178
 30
0.0
 11
10587.51784715006
 21
9870.8142356670178
 31
0.0
  0
LINE
  5
7D91
  8
FUTO
 10
10587.51784715006
 20
9534.8142356670178
 30
0.0
 11
10582.517847150069
 21
9529.814235667016
 31
0.0
  0
LINE
  5
7D92
  8
FUTO
 10
10587.51784715006
 20
9534.8142356670178
 30
0.0
 11
10587.51784715006
 21
9580.814235667016
 31
0.0
  0
LINE
  5
7D93
  8
FUTO
 10
10649.727312581779
 20
9534.8142356670196
 30
0.0
 11
10587.51784715006
 21
9534.8142356670178
 31
0.0
  0
ARC
  5
7D94
  8
FUTO
 10
10634.517786150071
 20
9484.814235667016
 30
0.0
 40
5.0
 50
180.0
 51
270.0
  0
LINE
  5
7D95
  8
FUTO
 10
10629.517786150071
 20
9526.814235667016
 30
0.0
 11
10579.517847150069
 21
9526.814235667016
 31
0.0
  0
LINE
  5
7D96
  8
FUTO
 10
10629.517786150071
 20
9529.814235667016
 30
0.0
 11
10582.517847150069
 21
9529.814235667016
 31
0.0
  0
LINE
  5
7D97
  8
FUTO
 10
10681.826151154541
 20
9479.8142356670141
 30
0.0
 11
10634.517786150071
 21
9479.8142356670141
 31
0.0
  0
LINE
  5
7D98
  8
FUTO
 10
10629.517786150071
 20
9484.814235667016
 30
0.0
 11
10629.517786150071
 21
9531.6892356670178
 31
0.0
  0
LINE
  5
7D99
  8
FUTO
 10
10582.517847150069
 20
9609.814235667016
 30
0.0
 11
10582.517847150069
 21
9859.814235667016
 31
0.0
  0
LINE
  5
7D9A
  8
FUTO
 10
10579.517847150069
 20
9609.8142356670178
 30
0.0
 11
10579.517847150069
 21
9859.814235667016
 31
0.0
  0
LINE
  5
7D9B
  8
FUTO
 10
10582.517847150069
 20
9529.814235667016
 30
0.0
 11
10582.517847150069
 21
9569.8142356670141
 31
0.0
  0
LINE
  5
7D9C
  8
FUTO
 10
10579.517847150069
 20
9526.814235667016
 30
0.0
 11
10579.517847150069
 21
9569.8142356670141
 31
0.0
  0
LINE
  5
7D9D
  8
HOSO
 10
10584.517847150069
 20
9596.8142356670178
 30
0.0
 11
10636.017786150071
 21
9596.814235667016
 31
0.0
  0
LINE
  5
7D9E
  8
FUTO
 10
10636.017786150071
 20
9598.8142356670178
 30
0.0
 11
10584.517847150069
 21
9598.8142356670178
 31
0.0
  0
LINE
  5
7D9F
  8
HOSO
 10
10636.017786150071
 20
9582.8142356670141
 30
0.0
 11
10584.517847150069
 21
9582.8142356670141
 31
0.0
  0
LINE
  5
7DA0
  8
FUTO
 10
10584.517847150069
 20
9580.814235667016
 30
0.0
 11
10636.017786150071
 21
9580.8142356670178
 31
0.0
  0
LINE
  5
7DA1
  8
FUTO
 10
10554.51784715006
 20
9598.8142356670178
 30
0.0
 11
10492.16329415007
 21
9598.8142356670178
 31
0.0
  0
LINE
  5
7DA2
  8
HOSO
 10
10492.163355150071
 20
9596.814235667016
 30
0.0
 11
10554.51784715006
 21
9596.814235667016
 31
0.0
  0
LINE
  5
7DA3
  8
HOSO
 10
10554.51784715006
 20
9582.8142356670196
 30
0.0
 11
10492.16329415007
 21
9582.8142356670141
 31
0.0
  0
LINE
  5
7DA4
  8
FUTO
 10
10492.163355150071
 20
9580.814235667016
 30
0.0
 11
10554.51784715006
 21
9580.814235667016
 31
0.0
  0
LINE
  5
7DA5
  8
FUTO
 10
10492.163355150071
 20
9607.404079667016
 30
0.0
 11
10492.163355150071
 21
9572.2243926670144
 31
0.0
  0
LINE
  5
7DA6
  8
FUTO
 10
10480.06337915007
 20
9599.5193136670168
 30
0.0
 11
10478.46340415007
 21
9597.9197046670179
 31
0.0
  0
LINE
  5
7DA7
  8
FUTO
 10
10480.06337915007
 20
9599.5193136670168
 30
0.0
 11
10478.46340415007
 21
9601.1198996670173
 31
0.0
  0
LINE
  5
7DA8
  8
FUTO
 10
10478.46340415007
 20
9605.8044706670171
 30
0.0
 11
10480.06337915007
 21
9607.404079667016
 31
0.0
  0
LINE
  5
7DA9
  8
FUTO
 10
10480.06337915007
 20
9580.1091576670169
 30
0.0
 11
10478.46340415007
 21
9581.7097436670156
 31
0.0
  0
LINE
  5
7DAA
  8
FUTO
 10
10480.06337915007
 20
9580.1091576670169
 30
0.0
 11
10478.46340415007
 21
9578.5095486670161
 31
0.0
  0
LINE
  5
7DAB
  8
FUTO
 10
10480.06337915007
 20
9572.2243926670144
 30
0.0
 11
10478.46340415007
 21
9573.8249776670145
 31
0.0
  0
LINE
  5
7DAC
  8
FUTO
 10
10478.46340415007
 20
9605.8044706670171
 30
0.0
 11
10478.46340415007
 21
9573.8249776670145
 31
0.0
  0
LINE
  5
7DAD
  8
FUTO
 10
10480.06337915007
 20
9580.1091576670169
 30
0.0
 11
10492.163355150071
 21
9580.1091576670169
 31
0.0
  0
LINE
  5
7DAE
  8
FUTO
 10
10480.06337915007
 20
9599.5193136670168
 30
0.0
 11
10492.163355150071
 21
9599.5193136670168
 31
0.0
  0
LINE
  5
7DAF
  8
FUTO
 10
10480.06337915007
 20
9572.2243926670144
 30
0.0
 11
10492.163355150071
 21
9572.2243926670144
 31
0.0
  0
LINE
  5
7DB0
  8
FUTO
 10
10480.06337915007
 20
9607.404079667016
 30
0.0
 11
10492.163355150071
 21
9607.404079667016
 31
0.0
  0
LINE
  5
7DB1
  8
CT
 10
10636.017786150071
 20
9589.8142356670178
 30
0.0
 11
10468.46340415007
 21
9589.8142356670178
 31
0.0
  0
LINE
  5
7DB2
  8
FUTO
 10
10584.517847150069
 20
9569.8142356670141
 30
0.0
 11
10554.51784715006
 21
9569.8142356670141
 31
0.0
  0
LINE
  5
7DB3
  8
FUTO
 10
10554.51784715006
 20
9609.814235667016
 30
0.0
 11
10584.517847150069
 21
9609.814235667016
 31
0.0
  0
LINE
  5
7DB4
  8
FUTO
 10
10584.517847150069
 20
9569.8142356670141
 30
0.0
 11
10584.517847150069
 21
9609.814235667016
 31
0.0
  0
LINE
  5
7DB5
  8
FUTO
 10
10554.51784715006
 20
9569.8142356670141
 30
0.0
 11
10554.51784715006
 21
9609.814235667016
 31
0.0
  0
ARC
  5
7DB6
  8
FUTO
 10
11171.146936150069
 20
9796.8141746670153
 30
0.0
 40
20.0
 50
0.000000000000007
 51
90.000000000000028
  0
ARC
  5
7DB7
  8
FUTO
 10
11171.146936150069
 20
9672.8142356670178
 30
0.0
 40
20.0
 50
270.0
 51
0.000000000000007
  0
ARC
  5
7DB8
  8
FUTO
 10
11181.146936150069
 20
9655.814235667016
 30
0.0
 40
10.0
 50
270.0
 51
0.000000000000007
  0
ARC
  5
7DB9
  8
FUTO
 10
11181.146936150069
 20
9813.8141746670153
 30
0.0
 40
10.0
 50
0.000000000000007
 51
90.000000000000028
  0
ARC
  5
7DBA
  8
FUTO
 10
11078.29021125118
 20
9655.814235667016
 30
0.0
 40
10.0
 50
180.0
 51
270.0
  0
ARC
  5
7DBB
  8
FUTO
 10
11081.45732678951
 20
9655.814235667016
 30
0.0
 40
10.0
 50
180.0
 51
270.0
  0
ARC
  5
7DBC
  8
FUTO
 10
11078.29021125118
 20
9813.8141746670153
 30
0.0
 40
10.0
 50
90.000000000000028
 51
180.0
  0
ARC
  5
7DBD
  8
FUTO
 10
11081.45732678951
 20
9813.8141746670153
 30
0.0
 40
10.0
 50
90.000000000000028
 51
180.0
  0
LINE
  5
7DBE
  8
FUTO
 10
11078.65393006896
 20
9652.8142356670178
 30
0.0
 11
11171.146936150069
 21
9652.8142356670178
 31
0.0
  0
LINE
  5
7DBF
  8
FUTO
 10
11078.65393006896
 20
9816.8141746670153
 30
0.0
 11
11171.146936150069
 21
9816.8141746670153
 31
0.0
  0
ARC
  5
7DC0
  8
FUTO
 10
11064.517786150071
 20
9657.814235667016
 30
0.0
 40
5.0
 50
180.0
 51
270.0
  0
ARC
  5
7DC1
  8
FUTO
 10
11064.517786150071
 20
9811.8141746670153
 30
0.0
 40
5.0
 50
90.000000000000028
 51
180.0
  0
ARC
  5
7DC2
  8
FUTO
 10
11078.65393006896
 20
9657.814235667016
 30
0.0
 40
5.0
 50
180.0
 51
270.0
  0
ARC
  5
7DC3
  8
FUTO
 10
11078.65393006896
 20
9811.8141746670153
 30
0.0
 40
5.0
 50
90.000000000000028
 51
180.0
  0
LINE
  5
7DC4
  8
FUTO
 10
11078.29021125118
 20
9645.8142356670178
 30
0.0
 11
11181.146936150069
 21
9645.8142356670178
 31
0.0
  0
LINE
  5
7DC5
  8
FUTO
 10
11064.517786150071
 20
9652.8142356670178
 30
0.0
 11
11068.29021125118
 21
9652.8142356670178
 31
0.0
  0
LINE
  5
7DC6
  8
FUTO
 10
11078.29021125118
 20
9823.8141746670153
 30
0.0
 11
11181.146936150069
 21
9823.8141746670153
 31
0.0
  0
LINE
  5
7DC7
  8
FUTO
 10
11064.517786150071
 20
9816.8141746670153
 30
0.0
 11
11068.29021125118
 21
9816.8141746670153
 31
0.0
  0
LINE
  5
7DC8
  8
FUTO
 10
11043.017786150071
 20
9794.8142356670178
 30
0.0
 11
11043.017786150071
 21
9901.6250064160504
 31
0.0
  0
LINE
  5
7DC9
  8
FUTO
 10
11059.517786150071
 20
9674.8142356670196
 30
0.0
 11
10991.79138858988
 21
9674.814235667016
 31
0.0
  0
LINE
  5
7DCA
  8
FUTO
 10
11059.517786150071
 20
9794.8142356670178
 30
0.0
 11
10991.79138858988
 21
9794.8142356670178
 31
0.0
  0
LINE
  5
7DCB
  8
FUTO
 10
11149.837122150069
 20
9672.8142356670196
 30
0.0
 11
11149.837122150069
 21
9796.8141746670153
 31
0.0
  0
LINE
  5
7DCC
  8
FUTO
 10
11073.65393006896
 20
9657.8142356670178
 30
0.0
 11
11073.65393006896
 21
9811.8141746670153
 31
0.0
  0
LINE
  5
7DCD
  8
FUTO
 10
11071.45732678951
 20
9655.8142356670178
 30
0.0
 11
11071.45732678951
 21
9813.8141746670153
 31
0.0
  0
LINE
  5
7DCE
  8
FUTO
 10
11068.29021125118
 20
9655.814235667016
 30
0.0
 11
11068.29021125118
 21
9813.8141746670153
 31
0.0
  0
LINE
  5
7DCF
  8
FUTO
 10
11059.517786150071
 20
9657.8142356670178
 30
0.0
 11
11059.517786150071
 21
9811.8141746670153
 31
0.0
  0
LINE
  5
7DD0
  8
FUTO
 10
11049.517786150071
 20
9674.8142356670196
 30
0.0
 11
11049.517786150071
 21
9794.8142356670178
 31
0.0
  0
LINE
  5
7DD1
  8
FUTO
 10
10991.79138858988
 20
9674.8142356670196
 30
0.0
 11
10991.79138858988
 21
9794.8142356670178
 31
0.0
  0
LINE
  5
7DD2
  8
FUTO
 10
11191.146936150069
 20
9655.814235667016
 30
0.0
 11
11191.146936150069
 21
9813.8141746670153
 31
0.0
  0
LINE
  5
7DD3
  8
FUTO
 10
10845.767786150071
 20
9711.064235667016
 30
0.0
 11
10845.767786150071
 21
9758.564235667016
 31
0.0
  0
ARC
  5
7DD4
  8
FUTO
 10
10839.517786150071
 20
9711.064235667016
 30
0.0
 40
6.25
 50
180.0
 51
0.000000000000007
  0
ARC
  5
7DD5
  8
FUTO
 10
10839.517786150071
 20
9758.564235667016
 30
0.0
 40
6.25
 50
0.000000000000007
 51
180.0
  0
LINE
  5
7DD6
  8
CT
 10
11211.146936150069
 20
9734.8142356670178
 30
0.0
 11
10559.517847150069
 21
9734.814235667016
 31
0.0
  0
LINE
  5
7DD7
  8
FUTO
 10
10833.267786150071
 20
9711.064235667016
 30
0.0
 11
10833.267786150071
 21
9758.564235667016
 31
0.0
  0
LINE
  5
7DD8
  8
FUTO
 10
11043.017786150071
 20
9901.625006416054
 30
0.0
 11
11041.19600915006
 21
9903.8141746670153
 31
0.0
  0
LINE
  5
7DD9
  8
FUTO
 10
11043.017786150071
 20
9568.0033226670148
 30
0.0
 11
11036.517786150071
 21
9560.1924096670155
 31
0.0
  0
LINE
  5
7DDA
  8
FUTO
 10
11043.017786150071
 20
9568.0033226670148
 30
0.0
 11
11043.017786150071
 21
9674.8142356670196
 31
0.0
  0
LINE
  5
7DDB
  8
FUTO
 10
10636.017786150071
 20
9568.0033226670148
 30
0.0
 11
10636.017786150071
 21
9901.6250064160504
 31
0.0
  0
ARC
  5
7DDC
  8
FUTO
 10
10917.517786150071
 20
9461.314235667016
 30
0.0
 40
2.0
 50
270.0
 51
0.000000000000007
  0
ARC
  5
7DDD
  8
FUTO
 10
10922.517786150071
 20
9471.4673116670183
 30
0.0
 40
2.9999599999999988
 50
92.999557000035395
 51
180.0
  0
LINE
  5
7DDE
  8
FUTO
 10
10919.517786150071
 20
9471.4673116670183
 30
0.0
 11
10919.517786150071
 21
9461.314235667016
 31
0.0
  0
ARC
  5
7DDF
  8
FUTO
 10
11018.613734150071
 20
9515.0998806670159
 30
0.0
 40
9.9999679999999991
 50
314.99999999999989
 51
358.00067099997602
  0
ARC
  5
7DE0
  8
FUTO
 10
10991.62057015006
 20
9488.1067156670142
 30
0.0
 40
10.000024
 50
272.99903899998708
 51
314.99999999999989
  0
LINE
  5
7DE1
  8
FUTO
 10
11025.68477915006
 20
9508.0288356670153
 30
0.0
 11
10998.69161415007
 21
9481.0356716670158
 31
0.0
  0
LINE
  5
7DE2
  8
FUTO
 10
11029.517786150071
 20
9540.8142356670141
 30
0.0
 11
11028.607630150071
 21
9514.7510036670155
 31
0.0
  0
LINE
  5
7DE3
  8
FUTO
 10
10992.14376315007
 20
9478.120387667017
 30
0.0
 11
10903.552454150071
 21
9473.4775656670154
 31
0.0
  0
LINE
  5
7DE4
  8
FUTO
 10
11001.517786150071
 20
9550.8142356670178
 30
0.0
 11
10677.517786150071
 21
9550.8142356670178
 31
0.0
  0
LINE
  5
7DE5
  8
FUTO
 10
11001.517786150071
 20
9540.8142356670141
 30
0.0
 11
11001.517786150071
 21
9545.814235667016
 31
0.0
  0
LINE
  5
7DE6
  8
FUTO
 10
11001.517786150071
 20
9545.814235667016
 30
0.0
 11
11001.517786150071
 21
9550.8142356670178
 31
0.0
  0
LINE
  5
7DE7
  8
FUTO
 10
11036.517786150071
 20
9560.1924096670155
 30
0.0
 11
11001.517786150071
 21
9550.8142356670178
 31
0.0
  0
ARC
  5
7DE8
  8
FUTO
 10
11023.017786150071
 20
9950.2875636670178
 30
0.0
 40
20.0
 50
0.000000000000007
 51
20.000046000015271
  0
ARC
  5
7DE9
  8
FUTO
 10
11052.017786150071
 20
9987.5629536670167
 30
0.0
 40
20.0
 50
180.0
 51
199.99972500000979
  0
LINE
  5
7DEA
  8
FUTO
 10
10987.16671215007
 20
9932.3141746670153
 30
0.0
 11
10990.919642150069
 21
9938.8141746670153
 31
0.0
  0
LINE
  5
7DEB
  8
FUTO
 10
10990.919642150069
 20
9938.8141746670153
 30
0.0
 11
10987.16671215007
 21
9945.3141746670153
 31
0.0
  0
LINE
  5
7DEC
  8
FUTO
 10
11041.81173215007
 20
9957.128017667017
 30
0.0
 11
11033.223841150069
 21
9980.7226216670188
 31
0.0
  0
LINE
  5
7DED
  8
FUTO
 10
11043.017786150071
 20
9903.8141746670153
 30
0.0
 11
11043.017786150071
 21
9950.2875636670178
 31
0.0
  0
LINE
  5
7DEE
  8
FUTO
 10
10975.908411150071
 20
9938.8141746670153
 30
0.0
 11
10979.661341150069
 21
9945.3141746670153
 31
0.0
  0
LINE
  5
7DEF
  8
FUTO
 10
10979.661341150069
 20
9932.3141746670153
 30
0.0
 11
10975.908411150071
 21
9938.8141746670153
 31
0.0
  0
LINE
  5
7DF0
  8
CT
 10
10983.414027150069
 20
9931.3720356670165
 30
0.0
 11
10983.414027150069
 21
9945.828090667017
 31
0.0
  0
LINE
  5
7DF1
  8
CT
 10
10975.023402150069
 20
9938.8141746670153
 30
0.0
 11
10991.844935150069
 21
9938.8141746670153
 31
0.0
  0
LINE
  5
7DF2
  8
FUTO
 10
10979.661341150069
 20
9945.3141746670153
 30
0.0
 11
10987.16671215007
 21
9945.3141746670153
 31
0.0
  0
LINE
  5
7DF3
  8
FUTO
 10
10979.661341150069
 20
9932.3141746670153
 30
0.0
 11
10987.16671215007
 21
9932.3141746670153
 31
0.0
  0
CIRCLE
  5
7DF4
  8
FUTO
 10
10983.414027150069
 20
9938.8141746670153
 30
0.0
 40
6.5
  0
ARC
  5
7DF5
  8
FUTO
 10
11017.017786150071
 20
10048.503261667011
 30
0.0
 40
15.0
 50
0.000000000000007
 51
29.999817000004409
  0
ARC
  5
7DF6
  8
FUTO
 10
10996.631068150071
 20
10103.81417466701
 30
0.0
 40
4.9999580000000003
 50
30.000281999998801
 51
90.000000000000028
  0
LINE
  5
7DF7
  8
FUTO
 10
11000.96114615007
 20
10106.31417466701
 30
0.0
 11
11030.008265150071
 21
10056.003261667011
 31
0.0
  0
LINE
  5
7DF8
  8
FUTO
 10
11032.017786150071
 20
9987.5629536670167
 30
0.0
 11
11032.017786150071
 21
10048.503261667011
 31
0.0
  0
LINE
  5
7DF9
  8
FUTO
 10
10647.017786150071
 20
9987.5629536670167
 30
0.0
 11
10647.017786150071
 21
10048.503261667011
 31
0.0
  0
LINE
  5
7DFA
  8
CT
 10
10839.517786150071
 20
9127.0251447010633
 30
0.0
 11
10839.517786150071
 21
10128.814235667011
 31
0.0
  0
LINE
  5
7DFB
  8
FUTO
 10
10681.86782215007
 20
10108.814235667011
 30
0.0
 11
10996.65813615007
 21
10108.814235667011
 31
0.0
  0
LINE
  5
7DFC
  8
FUTO
 10
11032.017786150071
 20
10049.71419866701
 30
0.0
 11
10647.06685815007
 21
10049.71419866701
 31
0.0
  0
LINE
  5
7DFD
  8
FUTO
 10
10678.074426150069
 20
10106.31417466701
 30
0.0
 11
10649.027307150071
 21
10056.003261667011
 31
0.0
  0
ARC
  5
7DFE
  8
FUTO
 10
10682.40450415007
 20
10103.81417466701
 30
0.0
 40
4.9999580000000003
 50
90.000000000000028
 51
149.99971800000111
  0
ARC
  5
7DFF
  8
FUTO
 10
10662.017786150071
 20
10048.503261667011
 30
0.0
 40
15.0
 50
150.00018299999559
 51
180.0
  0
LINE
  5
7E00
  8
FUTO
 10
10917.517786150071
 20
9459.3142356670141
 30
0.0
 11
10839.517786150071
 21
9459.3142356670141
 31
0.0
  0
LINE
  5
7E01
  8
FUTO
 10
11029.517786150071
 20
9540.8142356670141
 30
0.0
 11
10839.517786150071
 21
9540.8142356670141
 31
0.0
  0
LINE
  5
7E02
  8
FUTO
 10
11001.517786150071
 20
9545.814235667016
 30
0.0
 11
10839.517786150071
 21
9545.814235667016
 31
0.0
  0
LINE
  5
7E03
  8
FUTO
 10
10646.700403150069
 20
9984.0141256670158
 30
0.0
 11
11032.017786150071
 21
9984.0141256670158
 31
0.0
  0
LINE
  5
7E04
  8
FUTO
 10
10636.331262150061
 20
9953.8141746670153
 30
0.0
 11
11042.704406348939
 21
9953.8141746670153
 31
0.0
  0
LINE
  5
7E05
  8
FUTO
 10
10636.017786150071
 20
9903.8141746670153
 30
0.0
 11
11041.19600915006
 21
9903.8141746670153
 31
0.0
  0
LINE
  5
7E06
  8
FUTO
 10
11001.517786150071
 20
9545.814235667016
 30
0.0
 11
10839.517786150071
 21
9545.814235667016
 31
0.0
  0
CIRCLE
  5
7E07
  8
FUTO
 10
10695.62154515007
 20
9938.8141746670153
 30
0.0
 40
6.5
  0
LINE
  5
7E08
  8
FUTO
 10
10699.37423115007
 20
9932.3141746670153
 30
0.0
 11
10691.868860150071
 21
9932.3141746670153
 31
0.0
  0
LINE
  5
7E09
  8
FUTO
 10
10699.37423115007
 20
9945.3141746670153
 30
0.0
 11
10691.868860150071
 21
9945.3141746670153
 31
0.0
  0
LINE
  5
7E0A
  8
CT
 10
10704.01217015007
 20
9938.8141746670153
 30
0.0
 11
10687.19063715007
 21
9938.8141746670153
 31
0.0
  0
LINE
  5
7E0B
  8
CT
 10
10695.62154515007
 20
9931.3720356670165
 30
0.0
 11
10695.62154515007
 21
9945.828090667017
 31
0.0
  0
LINE
  5
7E0C
  8
FUTO
 10
10699.37423115007
 20
9932.3141746670153
 30
0.0
 11
10703.127161150071
 21
9938.8141746670153
 31
0.0
  0
LINE
  5
7E0D
  8
FUTO
 10
10703.127161150071
 20
9938.8141746670153
 30
0.0
 11
10699.37423115007
 21
9945.3141746670153
 31
0.0
  0
LINE
  5
7E0E
  8
FUTO
 10
10636.017786150071
 20
9903.8141746670153
 30
0.0
 11
10636.017786150071
 21
9950.2875636670178
 31
0.0
  0
LINE
  5
7E0F
  8
FUTO
 10
10637.223840150071
 20
9957.128017667017
 30
0.0
 11
10645.81173115007
 21
9980.7226216670188
 31
0.0
  0
LINE
  5
7E10
  8
FUTO
 10
10688.11593015007
 20
9938.8141746670153
 30
0.0
 11
10691.868860150071
 21
9945.3141746670153
 31
0.0
  0
LINE
  5
7E11
  8
FUTO
 10
10691.868860150071
 20
9932.3141746670153
 30
0.0
 11
10688.11593015007
 21
9938.8141746670153
 31
0.0
  0
ARC
  5
7E12
  8
FUTO
 10
10627.017786150071
 20
9987.5629536670167
 30
0.0
 40
20.0
 50
340.00027499999021
 51
0.000000000000007
  0
ARC
  5
7E13
  8
FUTO
 10
10656.017786150071
 20
9950.2875636670178
 30
0.0
 40
20.0
 50
159.99995399998471
 51
180.0
  0
LINE
  5
7E14
  8
FUTO
 10
10636.017786150071
 20
9901.625006416054
 30
0.0
 11
10637.83956315007
 21
9903.8141746670153
 31
0.0
  0
LINE
  5
7E15
  8
FUTO
 10
10677.517786150071
 20
9545.814235667016
 30
0.0
 11
10839.517786150071
 21
9545.814235667016
 31
0.0
  0
LINE
  5
7E16
  8
FUTO
 10
10686.891809150069
 20
9478.120387667017
 30
0.0
 11
10775.48311815007
 21
9473.4775656670154
 31
0.0
  0
LINE
  5
7E17
  8
FUTO
 10
10649.517786150071
 20
9540.8142356670141
 30
0.0
 11
10839.517786150071
 21
9540.8142356670141
 31
0.0
  0
LINE
  5
7E18
  8
FUTO
 10
10677.517786150071
 20
9545.814235667016
 30
0.0
 11
10839.517786150071
 21
9545.814235667016
 31
0.0
  0
LINE
  5
7E19
  8
FUTO
 10
10869.517786150071
 20
9449.3142356670141
 30
0.0
 11
10869.517786150071
 21
9309.3142356670141
 31
0.0
  0
LINE
  5
7E1A
  8
FUTO
 10
10809.517786150071
 20
9449.3142356670141
 30
0.0
 11
10809.517786150071
 21
9309.3142356670141
 31
0.0
  0
LINE
  5
7E1B
  8
FUTO
 10
10761.517786150071
 20
9459.3142356670141
 30
0.0
 11
10839.517786150071
 21
9459.3142356670141
 31
0.0
  0
LINE
  5
7E1C
  8
FUTO
 10
10872.017786150071
 20
9449.3142356670141
 30
0.0
 11
10807.017786150071
 21
9449.3142356670141
 31
0.0
  0
LINE
  5
7E1D
  8
FUTO
 10
10872.017786150071
 20
9449.3142356670141
 30
0.0
 11
10872.017786150071
 21
9459.3142356670141
 31
0.0
  0
LINE
  5
7E1E
  8
FUTO
 10
10807.017786150071
 20
9449.3142356670141
 30
0.0
 11
10807.017786150071
 21
9459.3142356670141
 31
0.0
  0
LINE
  5
7E1F
  8
FUTO
 10
10759.517786150071
 20
9471.4673116670183
 30
0.0
 11
10759.517786150071
 21
9461.314235667016
 31
0.0
  0
ARC
  5
7E20
  8
FUTO
 10
10756.517786150071
 20
9471.4673116670183
 30
0.0
 40
2.9999599999999988
 50
0.000000000000007
 51
87.000443000016674
  0
ARC
  5
7E21
  8
FUTO
 10
10761.517786150071
 20
9461.314235667016
 30
0.0
 40
2.0
 50
180.0
 51
270.0
  0
LINE
  5
7E22
  8
FUTO
 10
10809.517786150071
 20
9309.3142356670141
 30
0.0
 11
10869.517786150071
 21
9309.3142356670141
 31
0.0
  0
LINE
  5
7E23
  8
FUTO
 10
10636.017786150071
 20
9568.0033226670148
 30
0.0
 11
10642.517786150071
 21
9560.1924096670155
 31
0.0
  0
LINE
  5
7E24
  8
FUTO
 10
10649.517786150071
 20
9540.8142356670141
 30
0.0
 11
10650.427942150071
 21
9514.7510036670155
 31
0.0
  0
LINE
  5
7E25
  8
FUTO
 10
10642.517786150071
 20
9560.1924096670155
 30
0.0
 11
10677.517786150071
 21
9550.8142356670178
 31
0.0
  0
LINE
  5
7E26
  8
FUTO
 10
10677.517786150071
 20
9545.814235667016
 30
0.0
 11
10677.517786150071
 21
9550.8142356670178
 31
0.0
  0
LINE
  5
7E27
  8
FUTO
 10
10677.517786150071
 20
9540.8142356670141
 30
0.0
 11
10677.517786150071
 21
9545.814235667016
 31
0.0
  0
LINE
  5
7E28
  8
FUTO
 10
10653.35079315007
 20
9508.0288356670153
 30
0.0
 11
10680.34395815007
 21
9481.0356716670158
 31
0.0
  0
ARC
  5
7E29
  8
FUTO
 10
10687.41500215007
 20
9488.1067156670142
 30
0.0
 40
10.000024
 50
225.0
 51
267.00096100001281
  0
ARC
  5
7E2A
  8
FUTO
 10
10660.42183815007
 20
9515.0998806670159
 30
0.0
 40
9.9999679999999991
 50
181.99932900002389
 51
225.0
  0
CIRCLE
  5
7E2B
  8
FUTO
 10
10839.517786150071
 20
5491.9043144659126
 30
0.0
 40
30.0
  0
LINE
  5
7E2C
  8
FUTO
 10
12592.49581056958
 20
5311.9043144659126
 30
0.0
 11
12607.175241493889
 21
5311.9043144659126
 31
0.0
  0
LINE
  5
7E2D
  8
FUTO
 10
12595.17530249389
 20
5291.9043144659126
 30
0.0
 11
12630.175302493901
 21
5291.9043144659126
 31
0.0
  0
LINE
  5
7E2E
  8
FUTO
 10
12267.85479441821
 20
5311.9043144659126
 30
0.0
 11
12253.17530249389
 21
5311.9043144659126
 31
0.0
  0
LINE
  5
7E2F
  8
FUTO
 10
12265.175302493901
 20
5291.9043144659126
 30
0.0
 11
12230.17530249389
 21
5291.9043144659126
 31
0.0
  0
LINE
  5
7E30
  8
CT
 10
10999.517786150071
 20
5281.9043144659126
 30
0.0
 11
10999.517786150071
 21
5211.9043144659136
 31
0.0
  0
LINE
  5
7E31
  8
FUTO
 10
12330.17530249389
 20
5286.9043144659136
 30
0.0
 11
12330.17530249389
 21
5291.9043144659126
 31
0.0
  0
LINE
  5
7E32
  8
FUTO
 10
12530.17530249389
 20
5291.9043144659126
 30
0.0
 11
12530.17530249389
 21
5286.9043144659136
 31
0.0
  0
LINE
  5
7E3B
  8
FUTO
 10
10771.517786150071
 20
5291.9043144659126
 30
0.0
 11
10771.517786150071
 21
5286.9043144659136
 31
0.0
  0
LINE
  5
7E3C
  8
FUTO
 10
10907.51790815007
 20
5286.9043144659136
 30
0.0
 11
10907.51790815007
 21
5291.9043144659126
 31
0.0
  0
LINE
  5
7E3D
  8
FUTO
 10
12285.175302493901
 20
5320.379900465914
 30
0.0
 11
12269.17530249389
 21
5311.1425964659138
 31
0.0
  0
LINE
  5
7E3E
  8
FUTO
 10
12301.17530249389
 20
5311.1425964659138
 30
0.0
 11
12285.175302493901
 21
5320.379900465914
 31
0.0
  0
LINE
  5
7E3F
  8
FUTO
 10
12285.175302493901
 20
5283.4297054659137
 30
0.0
 11
12269.17530249389
 21
5292.6670104659142
 31
0.0
  0
LINE
  5
7E40
  8
FUTO
 10
12301.17530249389
 20
5292.6670104659142
 30
0.0
 11
12285.175302493901
 21
5283.4297054659137
 31
0.0
  0
LINE
  5
7E41
  8
FUTO
 10
12255.17530249389
 20
5301.9043144659136
 30
0.0
 11
12315.17530249389
 21
5301.9043144659136
 31
0.0
  0
CIRCLE
  5
7E42
  8
CT
 10
12285.175302493901
 20
5301.9043144659136
 30
0.0
 40
16.0
  0
LINE
  5
7E43
  8
FUTO
 10
12301.17530249389
 20
5292.6670104659142
 30
0.0
 11
12301.17530249389
 21
5311.1425964659138
 31
0.0
  0
LINE
  5
7E44
  8
FUTO
 10
12269.17530249389
 20
5292.6670104659142
 30
0.0
 11
12269.17530249389
 21
5311.1425964659138
 31
0.0
  0
ARC
  5
7E45
  8
FUTO
 10
12285.175302493901
 20
5301.9043144659136
 30
0.0
 40
20.0
 50
0.000000000000007
 51
180.0
  0
ARC
  5
7E46
  8
FUTO
 10
12178.17530249389
 20
5258.9043144659126
 30
0.0
 40
3.0
 50
90.0
 51
180.0
  0
LINE
  5
7E47
  8
FUTO
 10
12227.050302493901
 20
5261.9043144659136
 30
0.0
 11
12178.17530249389
 21
5261.9043144659136
 31
0.0
  0
LINE
  5
7E48
  8
FUTO
 10
12232.17530249389
 20
5231.9043144659126
 30
0.0
 11
12232.17530249389
 21
5236.9043144659126
 31
0.0
  0
LINE
  5
7E49
  8
FUTO
 10
12222.175302493901
 20
5243.9043144659136
 30
0.0
 11
12222.175302493901
 21
5236.9043144659126
 31
0.0
  0
LINE
  5
7E4A
  8
FUTO
 10
12232.17530249389
 20
5231.9043144659126
 30
0.0
 11
12175.17530249389
 21
5231.9043144659126
 31
0.0
  0
LINE
  5
7E4B
  8
FUTO
 10
12175.17530249389
 20
5231.9043144659126
 30
0.0
 11
12175.17530249389
 21
5258.9043144659126
 31
0.0
  0
LINE
  5
7E4C
  8
CT
 10
12200.17530249389
 20
5281.9043144659126
 30
0.0
 11
12200.17530249389
 21
5211.9043144659136
 31
0.0
  0
LINE
  5
7E4D
  8
FUTO
 10
12222.175302493901
 20
5243.9043144659136
 30
0.0
 11
12265.175302493901
 21
5243.9043144659136
 31
0.0
  0
LINE
  5
7E4E
  8
FUTO
 10
12230.17530249389
 20
5291.9043144659126
 30
0.0
 11
12225.175302493901
 21
5243.9043144659136
 31
0.0
  0
LINE
  5
7E4F
  8
FUTO
 10
12305.175302493901
 20
5301.9043144659136
 30
0.0
 11
12305.175302493901
 21
5236.9043144659126
 31
0.0
  0
LINE
  5
7E50
  8
FUTO
 10
12265.175302493901
 20
5236.9043144659126
 30
0.0
 11
12265.175302493901
 21
5301.9043144659136
 31
0.0
  0
LINE
  5
7E51
  8
CT
 10
12285.175302493901
 20
5226.9043144659126
 30
0.0
 11
12285.175302493901
 21
5331.9043144659126
 31
0.0
  0
LINE
  5
7E52
  8
FUTO
 10
12559.17530249389
 20
5311.1425964659138
 30
0.0
 11
12575.17530249389
 21
5320.379900465914
 31
0.0
  0
LINE
  5
7E53
  8
FUTO
 10
12559.17530249389
 20
5292.6670104659142
 30
0.0
 11
12575.17530249389
 21
5283.4297054659137
 31
0.0
  0
LINE
  5
7E54
  8
FUTO
 10
12559.17530249389
 20
5292.6670104659142
 30
0.0
 11
12559.17530249389
 21
5311.1425964659138
 31
0.0
  0
LINE
  5
7E55
  8
FUTO
 10
12591.17530249389
 20
5292.6670104659142
 30
0.0
 11
12591.17530249389
 21
5311.1425964659138
 31
0.0
  0
CIRCLE
  5
7E56
  8
FUTO
 10
12575.17530249389
 20
5301.9043144659136
 30
0.0
 40
16.0
  0
LINE
  5
7E57
  8
FUTO
 10
12575.17530249389
 20
5320.379900465914
 30
0.0
 11
12591.17530249389
 21
5311.1425964659138
 31
0.0
  0
LINE
  5
7E58
  8
FUTO
 10
12575.17530249389
 20
5283.4297054659137
 30
0.0
 11
12591.17530249389
 21
5292.6670104659142
 31
0.0
  0
ARC
  5
7E59
  8
FUTO
 10
12575.17530249389
 20
5301.9043144659136
 30
0.0
 40
20.0
 50
0.000000000000007
 51
180.0
  0
LINE
  5
7E5A
  8
CT
 10
12605.175302493901
 20
5301.9043144659136
 30
0.0
 11
12545.175302493901
 21
5301.9043144659136
 31
0.0
  0
LINE
  5
7E5B
  8
FUTO
 10
12330.17530249389
 20
5286.9043144659136
 30
0.0
 11
12530.17530249389
 21
5286.9043144659136
 31
0.0
  0
LINE
  5
7E5C
  8
FUTO
 10
12628.175302493901
 20
5231.9043144659126
 30
0.0
 11
12628.175302493901
 21
5236.9043144659126
 31
0.0
  0
LINE
  5
7E5D
  8
FUTO
 10
12638.17530249389
 20
5243.9043144659136
 30
0.0
 11
12638.17530249389
 21
5236.9043144659126
 31
0.0
  0
LINE
  5
7E5E
  8
FUTO
 10
12638.17530249389
 20
5243.9043144659136
 30
0.0
 11
12595.17530249389
 21
5243.9043144659136
 31
0.0
  0
LINE
  5
7E5F
  8
CT
 10
12660.17530249389
 20
5281.9043144659126
 30
0.0
 11
12660.17530249389
 21
5211.9043144659136
 31
0.0
  0
ARC
  5
7E60
  8
FUTO
 10
12682.17530249389
 20
5258.9043144659126
 30
0.0
 40
3.0
 50
0.000000000000007
 51
90.0
  0
LINE
  5
7E61
  8
FUTO
 10
12685.17530249389
 20
5231.9043144659126
 30
0.0
 11
12685.17530249389
 21
5258.9043144659126
 31
0.0
  0
LINE
  5
7E62
  8
FUTO
 10
12633.30030249389
 20
5261.9043144659136
 30
0.0
 11
12682.17530249389
 21
5261.9043144659136
 31
0.0
  0
LINE
  5
7E63
  8
FUTO
 10
12628.175302493901
 20
5231.9043144659126
 30
0.0
 11
12685.17530249389
 21
5231.9043144659126
 31
0.0
  0
LINE
  5
7E64
  8
FUTO
 10
12630.175302493901
 20
5291.9043144659126
 30
0.0
 11
12635.17530249389
 21
5243.9043144659136
 31
0.0
  0
LINE
  5
7E65
  8
FUTO
 10
12555.17530249389
 20
5301.9043144659136
 30
0.0
 11
12555.17530249389
 21
5236.9043144659126
 31
0.0
  0
LINE
  5
7E66
  8
FUTO
 10
12595.17530249389
 20
5236.9043144659126
 30
0.0
 11
12595.17530249389
 21
5301.9043144659136
 31
0.0
  0
LINE
  5
7E67
  8
CT
 10
12575.17530249389
 20
5226.9043144659126
 30
0.0
 11
12575.17530249389
 21
5331.9043144659126
 31
0.0
  0
LINE
  5
7E68
  8
FUTO
 10
11198.97237615007
 20
5311.6093924659144
 30
0.0
 11
11200.572352150069
 21
5310.0097834659136
 31
0.0
  0
LINE
  5
7E69
  8
FUTO
 10
11198.97237615007
 20
5311.6093924659144
 30
0.0
 11
11200.572352150069
 21
5313.2099784659149
 31
0.0
  0
LINE
  5
7E6A
  8
FUTO
 10
11198.97237615007
 20
5311.6093924659144
 30
0.0
 11
11186.872401150071
 21
5311.6093924659144
 31
0.0
  0
LINE
  5
7E6B
  8
FUTO
 10
11200.572230150059
 20
5317.8945494659147
 30
0.0
 11
11198.972254150071
 21
5319.4941584659136
 31
0.0
  0
LINE
  5
7E6C
  8
FUTO
 10
11198.97237615007
 20
5319.4941584659136
 30
0.0
 11
11186.872401150071
 21
5319.4941584659136
 31
0.0
  0
LINE
  5
7E6D
  8
FUTO
 10
11198.97237615007
 20
5292.1992364659154
 30
0.0
 11
11200.572352150069
 21
5293.7998224659132
 31
0.0
  0
LINE
  5
7E6E
  8
FUTO
 10
11198.97237615007
 20
5292.1992364659154
 30
0.0
 11
11200.572352150069
 21
5290.5996274659137
 31
0.0
  0
LINE
  5
7E6F
  8
FUTO
 10
11198.97237615007
 20
5292.1992364659154
 30
0.0
 11
11186.872401150071
 21
5292.1992364659154
 31
0.0
  0
LINE
  5
7E70
  8
FUTO
 10
11198.97237615007
 20
5284.3144714659138
 30
0.0
 11
11186.872401150071
 21
5284.3144714659138
 31
0.0
  0
LINE
  5
7E71
  8
FUTO
 10
11198.97237615007
 20
5284.3144714659138
 30
0.0
 11
11200.572352150069
 21
5285.915056465913
 31
0.0
  0
LINE
  5
7E72
  8
FUTO
 10
11200.572230150059
 20
5317.8945494659147
 30
0.0
 11
11200.572230150059
 21
5285.915056465913
 31
0.0
  0
LINE
  5
7E73
  8
FUTO
 10
11186.87227915007
 20
5319.4941584659136
 30
0.0
 11
11186.87227915007
 21
5284.3144714659138
 31
0.0
  0
LINE
  5
7E74
  8
HOSO
 10
11124.51790815007
 20
5294.9043144659126
 30
0.0
 11
11186.872035150071
 21
5294.9043144659126
 31
0.0
  0
LINE
  5
7E75
  8
FUTO
 10
11124.51790815007
 20
5310.9043144659136
 30
0.0
 11
11186.872035150071
 21
5310.9043144659136
 31
0.0
  0
LINE
  5
7E76
  8
HOSO
 10
11186.87227915007
 20
5308.9043144659126
 30
0.0
 11
11124.51790815007
 21
5308.9043144659126
 31
0.0
  0
LINE
  5
7E77
  8
FUTO
 10
11186.87227915007
 20
5292.9043144659136
 30
0.0
 11
11124.51790815007
 21
5292.9043144659136
 31
0.0
  0
LINE
  5
7E78
  8
FUTO
 10
11028.517786150071
 20
5308.9043144659126
 30
0.0
 11
11030.517786150071
 21
5310.9043144659136
 31
0.0
  0
LINE
  5
7E79
  8
HOSO
 10
11092.3512414834
 20
5308.9043144659126
 30
0.0
 11
11028.51790915007
 21
5308.9043144659126
 31
0.0
  0
LINE
  5
7E7A
  8
FUTO
 10
11030.517786150071
 20
5310.9043144659136
 30
0.0
 11
11092.684574816731
 21
5310.9043144659136
 31
0.0
  0
LINE
  5
7E7B
  8
FUTO
 10
11030.517786150071
 20
5292.9043144659136
 30
0.0
 11
11028.517786150071
 21
5294.9043144659126
 31
0.0
  0
LINE
  5
7E7C
  8
FUTO
 10
11089.684574816731
 20
5292.9043144659136
 30
0.0
 11
11030.517786150071
 21
5292.9043144659136
 31
0.0
  0
LINE
  5
7E7D
  8
HOSO
 10
11028.517786150071
 20
5294.9043144659126
 30
0.0
 11
11090.01790815007
 21
5294.9043144659126
 31
0.0
  0
LINE
  5
7E7E
  8
FUTO
 10
11030.517786150071
 20
5310.9043144659136
 30
0.0
 11
11030.517786150071
 21
5292.9043144659136
 31
0.0
  0
LINE
  5
7E7F
  8
FUTO
 10
11094.517908150059
 20
5321.9043144659136
 30
0.0
 11
11089.51790815007
 21
5291.9043144659126
 31
0.0
  0
LINE
  5
7E80
  8
FUTO
 10
10771.517786150071
 20
5286.9043144659136
 30
0.0
 11
10907.51790815007
 21
5286.9043144659136
 31
0.0
  0
LINE
  5
7E81
  8
FUTO
 10
11091.51790815007
 20
5291.9043144659126
 30
0.0
 11
10907.51790815007
 21
5291.9043144659126
 31
0.0
  0
LINE
  5
7E82
  8
FUTO
 10
11094.517908150059
 20
5321.9043144659136
 30
0.0
 11
11124.51790815007
 21
5321.9043144659136
 31
0.0
  0
LINE
  5
7E83
  8
CT
 10
11028.517786150071
 20
5301.9043144659136
 30
0.0
 11
11210.57223015007
 21
5301.9043144659136
 31
0.0
  0
LINE
  5
7E84
  8
FUTO
 10
11099.51790815007
 20
5236.9043144659126
 30
0.0
 11
11124.51790815007
 21
5236.9043144659126
 31
0.0
  0
LINE
  5
7E85
  8
FUTO
 10
11096.517908150059
 20
5243.9043144659136
 30
0.0
 11
11099.51790815007
 21
5243.9043144659136
 31
0.0
  0
LINE
  5
7E86
  8
FUTO
 10
11099.51790815007
 20
5243.9043144659136
 30
0.0
 11
11099.51790815007
 21
5236.9043144659126
 31
0.0
  0
ARC
  5
7E87
  8
FUTO
 10
11046.518152150071
 20
5258.9043144659126
 30
0.0
 40
3.0
 50
0.000000000000007
 51
90.002335000001125
  0
LINE
  5
7E88
  8
FUTO
 10
11049.51790815007
 20
5231.9043144659126
 30
0.0
 11
11049.51790815007
 21
5258.9043144659126
 31
0.0
  0
ARC
  5
7E89
  8
FUTO
 10
10952.51790815007
 20
5258.9043144659126
 30
0.0
 40
3.0
 50
89.997664999998889
 51
180.0
  0
LINE
  5
7E8A
  8
FUTO
 10
10949.51790815007
 20
5231.9043144659126
 30
0.0
 11
10949.51790815007
 21
5258.9043144659126
 31
0.0
  0
LINE
  5
7E8B
  8
FUTO
 10
10952.51790815007
 20
5261.9043144659136
 30
0.0
 11
11046.51790815007
 21
5261.9043144659136
 31
0.0
  0
LINE
  5
7E8C
  8
FUTO
 10
10949.51790815007
 20
5231.9043144659126
 30
0.0
 11
11049.51790815007
 21
5231.9043144659126
 31
0.0
  0
LINE
  5
7E8D
  8
FUTO
 10
11099.51790815007
 20
5236.9043144659126
 30
0.0
 11
11049.51790815007
 21
5236.9043144659126
 31
0.0
  0
LINE
  5
7E8E
  8
FUTO
 10
11091.51790815007
 20
5291.9043144659126
 30
0.0
 11
11096.517908150059
 21
5243.9043144659136
 31
0.0
  0
LINE
  5
7E8F
  8
FUTO
 10
11124.51790815007
 20
5321.9043144659136
 30
0.0
 11
11124.51790815007
 21
5236.9043144659126
 31
0.0
  0
LINE
  5
7E90
  8
FUTO
 10
10650.517786150071
 20
5308.9043144659126
 30
0.0
 11
10648.517786150071
 21
5310.9043144659136
 31
0.0
  0
LINE
  5
7E91
  8
HOSO
 10
10586.68451381673
 20
5308.9043144659163
 30
0.0
 11
10650.517786150071
 21
5308.9043144659126
 31
0.0
  0
LINE
  5
7E92
  8
FUTO
 10
10648.517786150071
 20
5310.9043144659136
 30
0.0
 11
10586.3511804834
 21
5310.9043144659136
 31
0.0
  0
LINE
  5
7E93
  8
FUTO
 10
10648.517786150071
 20
5292.9043144659136
 30
0.0
 11
10650.517786150071
 21
5294.9043144659126
 31
0.0
  0
LINE
  5
7E94
  8
FUTO
 10
10589.3511804834
 20
5292.9043144659136
 30
0.0
 11
10648.517786150071
 21
5292.9043144659136
 31
0.0
  0
LINE
  5
7E95
  8
HOSO
 10
10650.517786150071
 20
5294.9043144659126
 30
0.0
 11
10589.017847150069
 21
5294.9043144659126
 31
0.0
  0
LINE
  5
7E96
  8
FUTO
 10
10648.517786150071
 20
5310.9043144659136
 30
0.0
 11
10648.517786150071
 21
5292.9043144659136
 31
0.0
  0
LINE
  5
7E97
  8
FUTO
 10
10584.517847150069
 20
5321.9043144659136
 30
0.0
 11
10589.51784715006
 21
5291.9043144659126
 31
0.0
  0
LINE
  5
7E98
  8
FUTO
 10
10554.51784715006
 20
5310.9043144659136
 30
0.0
 11
10492.163294150059
 21
5310.9043144659136
 31
0.0
  0
LINE
  5
7E99
  8
HOSO
 10
10492.163355150071
 20
5308.9043144659126
 30
0.0
 11
10554.51784715006
 21
5308.9043144659126
 31
0.0
  0
LINE
  5
7E9A
  8
HOSO
 10
10554.51784715006
 20
5294.9043144659163
 30
0.0
 11
10492.163294150059
 21
5294.9043144659126
 31
0.0
  0
LINE
  5
7E9B
  8
FUTO
 10
10492.163355150071
 20
5292.9043144659136
 30
0.0
 11
10554.51784715006
 21
5292.9043144659136
 31
0.0
  0
LINE
  5
7E9C
  8
FUTO
 10
10492.163355150071
 20
5319.4941584659136
 30
0.0
 11
10492.163355150071
 21
5284.3144714659138
 31
0.0
  0
LINE
  5
7E9D
  8
FUTO
 10
10480.06337915007
 20
5311.6093924659144
 30
0.0
 11
10478.46340415007
 21
5310.0097834659136
 31
0.0
  0
LINE
  5
7E9E
  8
FUTO
 10
10480.06337915007
 20
5311.6093924659144
 30
0.0
 11
10478.46340415007
 21
5313.2099784659149
 31
0.0
  0
LINE
  5
7E9F
  8
FUTO
 10
10478.46340415007
 20
5317.8945494659147
 30
0.0
 11
10480.06337915007
 21
5319.4941584659136
 31
0.0
  0
LINE
  5
7EA0
  8
FUTO
 10
10480.06337915007
 20
5292.1992364659154
 30
0.0
 11
10478.46340415007
 21
5293.7998224659132
 31
0.0
  0
LINE
  5
7EA1
  8
FUTO
 10
10480.06337915007
 20
5292.1992364659154
 30
0.0
 11
10478.46340415007
 21
5290.5996274659137
 31
0.0
  0
LINE
  5
7EA2
  8
FUTO
 10
10480.06337915007
 20
5284.3144714659138
 30
0.0
 11
10478.46340415007
 21
5285.915056465913
 31
0.0
  0
LINE
  5
7EA3
  8
FUTO
 10
10478.46340415007
 20
5317.8945494659147
 30
0.0
 11
10478.46340415007
 21
5285.915056465913
 31
0.0
  0
LINE
  5
7EA4
  8
FUTO
 10
10480.06337915007
 20
5292.1992364659154
 30
0.0
 11
10492.163355150071
 21
5292.1992364659154
 31
0.0
  0
LINE
  5
7EA5
  8
FUTO
 10
10480.06337915007
 20
5311.6093924659144
 30
0.0
 11
10492.163355150071
 21
5311.6093924659144
 31
0.0
  0
LINE
  5
7EA6
  8
FUTO
 10
10480.06337915007
 20
5284.3144714659138
 30
0.0
 11
10492.163355150071
 21
5284.3144714659138
 31
0.0
  0
LINE
  5
7EA7
  8
FUTO
 10
10480.06337915007
 20
5319.4941584659136
 30
0.0
 11
10492.163355150071
 21
5319.4941584659136
 31
0.0
  0
LINE
  5
7EA8
  8
FUTO
 10
10584.517847150069
 20
5321.9043144659136
 30
0.0
 11
10554.51784715006
 21
5321.9043144659136
 31
0.0
  0
LINE
  5
7EA9
  8
CT
 10
10650.517786150071
 20
5301.9043144659136
 30
0.0
 11
10468.46340415007
 21
5301.9043144659136
 31
0.0
  0
ARC
  5
7EAA
  8
FUTO
 10
10726.51790815007
 20
5258.9043144659126
 30
0.0
 40
2.999938999999999
 50
0.000000000000007
 51
90.001166999976803
  0
LINE
  5
7EAB
  8
FUTO
 10
10729.517786150071
 20
5231.9043144659126
 30
0.0
 11
10729.517786150071
 21
5258.9043144659126
 31
0.0
  0
ARC
  5
7EAC
  8
FUTO
 10
10632.517786150071
 20
5258.9043144659126
 30
0.0
 40
3.0
 50
89.9988329999711
 51
180.0
  0
LINE
  5
7EAD
  8
FUTO
 10
10582.517847150069
 20
5243.9043144659136
 30
0.0
 11
10579.517847150069
 21
5243.9043144659136
 31
0.0
  0
LINE
  5
7EAE
  8
FUTO
 10
10579.517847150069
 20
5243.9043144659136
 30
0.0
 11
10579.517847150069
 21
5236.9043144659126
 31
0.0
  0
LINE
  5
7EAF
  8
FUTO
 10
10579.517847150069
 20
5236.9043144659126
 30
0.0
 11
10629.517786150071
 21
5236.9043144659126
 31
0.0
  0
LINE
  5
7EB0
  8
FUTO
 10
10629.517786150071
 20
5231.9043144659126
 30
0.0
 11
10629.517786150071
 21
5258.9043144659126
 31
0.0
  0
LINE
  5
7EB1
  8
FUTO
 10
10726.517786150071
 20
5261.9043144659136
 30
0.0
 11
10632.517786150071
 21
5261.9043144659136
 31
0.0
  0
LINE
  5
7EB2
  8
FUTO
 10
10729.517786150071
 20
5231.9043144659126
 30
0.0
 11
10629.517786150071
 21
5231.9043144659126
 31
0.0
  0
LINE
  5
7EB3
  8
FUTO
 10
10579.517847150069
 20
5236.9043144659126
 30
0.0
 11
10554.51784715006
 21
5236.9043144659126
 31
0.0
  0
LINE
  5
7EB4
  8
FUTO
 10
10587.51784715006
 20
5291.9043144659126
 30
0.0
 11
10582.517847150069
 21
5243.9043144659136
 31
0.0
  0
LINE
  5
7EB5
  8
FUTO
 10
10554.51784715006
 20
5321.9043144659136
 30
0.0
 11
10554.51784715006
 21
5236.9043144659126
 31
0.0
  0
LINE
  5
7EB6
  8
CT
 10
10679.517786150071
 20
5281.9043144659126
 30
0.0
 11
10679.517786150071
 21
5211.9043144659136
 31
0.0
  0
LINE
  5
7EB7
  8
FUTO
 10
10587.51784715006
 20
5291.9043144659126
 30
0.0
 11
10771.517786150071
 21
5291.9043144659126
 31
0.0
  0
LINE
  5
7EB8
  8
FUTO
 10
10729.517786150071
 20
5236.9043144659126
 30
0.0
 11
10949.517786150071
 21
5236.9043144659126
 31
0.0
  0
LINE
  5
7EB9
  8
FUTO
 10
12305.175302493901
 20
5243.9043144659136
 30
0.0
 11
12555.17530249389
 21
5243.9043144659136
 31
0.0
  0
LINE
  5
7EBA
  8
FUTO
 10
12222.175302493901
 20
5236.9043144659126
 30
0.0
 11
12638.17530249389
 21
5236.9043144659126
 31
0.0
  0
LINE
  5
7EBB
  8
FUTO
 10
12246.175302493901
 20
5653.9043144659136
 30
0.0
 11
12246.175302493901
 21
5616.9043144659126
 31
0.0
  0
ARC
  5
7EBC
  8
FUTO
 10
12210.46094749389
 20
5671.0002624659137
 30
0.0
 40
9.9999679999999991
 50
91.999329000023934
 51
135.0
  0
ARC
  5
7EBD
  8
FUTO
 10
12183.46778249389
 20
5644.0070984659133
 30
0.0
 40
10.000024
 50
135.0
 51
177.00096100001281
  0
LINE
  5
7EBE
  8
KL
 10
12203.389902493889
 20
5678.0713074659134
 30
0.0
 11
12176.39673849389
 21
5651.0781424659126
 31
0.0
  0
LINE
  5
7EBF
  8
FUTO
 10
12236.17530249389
 20
5653.9043144659136
 30
0.0
 11
12241.17530249389
 21
5653.9043144659136
 31
0.0
  0
LINE
  5
7EC0
  8
FUTO
 10
12241.17530249389
 20
5653.9043144659136
 30
0.0
 11
12246.175302493901
 21
5653.9043144659136
 31
0.0
  0
LINE
  5
7EC1
  8
FUTO
 10
12255.553476493889
 20
5688.9043144659126
 30
0.0
 11
12246.175302493901
 21
5653.9043144659136
 31
0.0
  0
LINE
  5
7EC2
  8
FUTO
 10
12236.17530249389
 20
5681.9043144659136
 30
0.0
 11
12210.112070493889
 21
5680.9941584659136
 31
0.0
  0
LINE
  5
7EC4
  8
FUTO
 10
12271.17530249389
 20
5701.9043144659126
 30
0.0
 11
12255.553476493889
 21
5688.9043144659126
 31
0.0
  0
LINE
  5
7EC5
  8
FUTO
 10
12004.67530249389
 20
5525.9043144659136
 30
0.0
 11
12004.67530249389
 21
5461.9043144659136
 31
0.0
  0
ARC
  5
7EC6
  8
FUTO
 10
12156.675302493901
 20
5569.9043144659126
 30
0.0
 40
2.0
 50
90.0
 51
180.0
  0
ARC
  5
7ED5
  8
FUTO
 10
12256.17530249389
 20
5616.9043144659126
 30
0.0
 40
10.0
 50
90.0
 51
180.0
  0
ARC
  5
7ED8
  8
FUTO
 10
12166.82837849389
 20
5574.9043144659136
 30
0.0
 40
2.9999599999999988
 50
270.0
 51
357.00044300001662
  0
LINE
  5
7ED9
  8
FUTO
 10
12166.82837849389
 20
5571.9043144659136
 30
0.0
 11
12156.675302493901
 21
5571.9043144659136
 31
0.0
  0
LINE
  5
7EDA
  8
FUTO
 10
12114.675302493901
 20
5525.9043144659136
 30
0.0
 11
12114.675302493901
 21
5521.9043144659126
 31
0.0
  0
LINE
  5
7EDB
  8
FUTO
 10
12144.67530249389
 20
5524.4043144659136
 30
0.0
 11
12154.675302493901
 21
5524.4043144659136
 31
0.0
  0
LINE
  5
7EDC
  8
FUTO
 10
12144.67530249389
 20
5459.4043144659126
 30
0.0
 11
12154.675302493901
 21
5459.4043144659126
 31
0.0
  0
LINE
  5
7EDD
  8
FUTO
 10
12144.67530249389
 20
5459.4043144659126
 30
0.0
 11
12144.67530249389
 21
5524.4043144659136
 31
0.0
  0
ARC
  5
7EDE
  8
FUTO
 10
12256.17530249389
 20
5516.9043144659136
 30
0.0
 40
10.0
 50
180.0
 51
270.0
  0
LINE
  5
7EDF
  8
FUTO
 10
12154.675302493901
 20
5569.9043144659126
 30
0.0
 11
12154.675302493901
 21
5491.9043144659126
 31
0.0
  0
LINE
  5
7EE0
  8
FUTO
 10
12246.175302493901
 20
5516.9043144659136
 30
0.0
 11
12246.175302493901
 21
5616.9043144659126
 31
0.0
  0
LINE
  5
7EE1
  8
FUTO
 10
12144.67530249389
 20
5521.9043144659126
 30
0.0
 11
12004.67530249389
 21
5521.9043144659126
 31
0.0
  0
LINE
  5
7EE2
  8
FUTO
 10
12144.67530249389
 20
5461.9043144659136
 30
0.0
 11
12004.67530249389
 21
5461.9043144659136
 31
0.0
  0
LINE
  5
7EE3
  8
FUTO
 10
12114.675302493901
 20
5525.9043144659136
 30
0.0
 11
12004.67530249389
 21
5525.9043144659136
 31
0.0
  0
LINE
  5
7EE4
  8
FUTO
 10
12241.17530249389
 20
5653.9043144659136
 30
0.0
 11
12241.17530249389
 21
5491.9043144659126
 31
0.0
  0
LINE
  5
7EE5
  8
FUTO
 10
12236.17530249389
 20
5681.9043144659136
 30
0.0
 11
12236.17530249389
 21
5491.9043144659126
 31
0.0
  0
LINE
  5
7EE6
  8
FUTO
 10
12173.481454493891
 20
5644.5302914659133
 30
0.0
 11
12168.838632493889
 21
5555.9389824659138
 31
0.0
  0
LINE
  5
7EE8
  8
FUTO
 10
12241.17530249389
 20
5653.9043144659136
 30
0.0
 11
12241.17530249389
 21
5491.9043144659126
 31
0.0
  0
ARC
  5
7EE9
  8
FUTO
 10
12418.9403174939
 20
5710.1834284659144
 30
0.0
 40
2.9999909999999992
 50
96.115172999988943
 51
174.80557099997009
  0
LINE
  5
7EEA
  8
FUTO
 10
12415.95264649389
 20
5710.4550354659132
 30
0.0
 11
12415.17530249389
 21
5701.9043144659126
 31
0.0
  0
ARC
  5
7EEB
  8
FUTO
 10
12409.216928493899
 20
5702.6341124659139
 30
0.0
 40
5.9999760000000002
 50
354.80557299999322
 51
54.396263000016731
  0
ARC
  5
7EEC
  8
FUTO
 10
12441.410287493891
 20
5710.1834284659144
 30
0.0
 40
2.999981
 50
5.194427000006832
 51
83.884827000011072
  0
ARC
  5
7EED
  8
FUTO
 10
12430.17530249389
 20
5731.9043144659126
 30
0.0
 40
30.0
 50
305.19004800002568
 51
305.60386699999998
  0
LINE
  5
7EEE
  8
FUTO
 10
12430.17530249389
 20
5714.4043144659126
 30
0.0
 11
12441.72986749389
 21
5713.1663384659141
 31
0.0
  0
LINE
  5
7EEF
  8
FUTO
 10
12444.397958493901
 20
5710.4550354659132
 30
0.0
 11
12445.175302493901
 21
5701.9043144659126
 31
0.0
  0
ARC
  5
7EF0
  8
FUTO
 10
12451.13367649389
 20
5702.6341124659139
 30
0.0
 40
5.9999820000000001
 50
125.6037369999832
 51
185.19442700000681
  0
LINE
  5
7EF1
  8
FUTO
 10
12430.17530249389
 20
5714.4043144659126
 30
0.0
 11
12418.620737493889
 21
5713.1663384659141
 31
0.0
  0
LINE
  5
7EF2
  8
FUTO
 10
12418.620737493889
 20
5713.1663384659141
 30
0.0
 11
12441.72986749389
 21
5713.1663384659141
 31
0.0
  0
LINE
  5
7EF3
  8
FUTO
 10
12470.17530249389
 20
5731.9043144659126
 30
0.0
 11
12390.17530249389
 21
5731.9043144659126
 31
0.0
  0
LINE
  5
7EF4
  8
FUTO
 10
12371.17530249389
 20
5640.9043144659126
 30
0.0
 11
12489.175302493901
 21
5640.9043144659126
 31
0.0
  0
CIRCLE
  5
7EF5
  8
FUTO
 10
12430.17530249389
 20
5731.9043144659126
 30
0.0
 40
17.5
  0
ARC
  5
7EF6
  8
FUTO
 10
12430.17530249389
 20
5731.9043144659126
 30
0.0
 40
30.0
 50
305.60386699999998
 51
234.39614899998969
  0
LINE
  5
7EF7
  8
FUTO
 10
12589.175241493889
 20
5701.9043144659126
 30
0.0
 11
12599.175241493889
 21
5693.5825374659144
 31
0.0
  0
ARC
  5
7EF8
  8
FUTO
 10
12645.64863049389
 20
5675.4043144659136
 30
0.0
 40
20.0
 50
69.99995399998474
 51
90.0
  0
ARC
  5
7EF9
  8
FUTO
 10
12682.924020493891
 20
5704.4043144659136
 30
0.0
 40
20.0
 50
250.00027499999021
 51
270.0
  0
LINE
  5
7EFC
  8
FUTO
 10
12652.4890844939
 20
5694.1982604659133
 30
0.0
 11
12676.083688493891
 21
5685.6103694659132
 31
0.0
  0
LINE
  5
7EFD
  8
FUTO
 10
12599.175241493889
 20
5695.4043144659136
 30
0.0
 11
12645.64863049389
 21
5695.4043144659136
 31
0.0
  0
LINE
  5
7EFE
  8
FUTO
 10
12589.175241493889
 20
5701.9043144659126
 30
0.0
 11
12430.17530249389
 21
5701.9043144659126
 31
0.0
  0
LINE
  5
7EFF
  8
FUTO
 10
12492.175241493889
 20
5633.9043144659126
 30
0.0
 11
12368.175302493901
 21
5633.9043144659126
 31
0.0
  0
ARC
  5
7F00
  8
FUTO
 10
12368.175302493901
 20
5459.2065604659138
 30
0.0
 40
20.0
 50
180.0
 51
270.0
  0
CIRCLE
  5
7F01
  8
FUTO
 10
12430.17530249389
 20
5426.2065604659138
 30
0.0
 40
3.5
  0
LINE
  5
7F02
  8
FUTO
 10
12436.6281834939
 20
5426.2065604659138
 30
0.0
 11
12422.039072493901
 21
5426.2065604659138
 31
0.0
  0
LINE
  5
7F03
  8
FUTO
 10
12368.175302493901
 20
5439.2065604659138
 30
0.0
 11
12492.17530249389
 21
5439.2065604659138
 31
0.0
  0
LINE
  5
7F04
  8
FUTO
 10
12489.175241493889
 20
5419.2065604659138
 30
0.0
 11
12371.17530249389
 21
5419.2065604659138
 31
0.0
  0
LINE
  5
7F05
  8
FUTO
 10
12348.175302493901
 20
5613.9043144659126
 30
0.0
 11
12348.175302493901
 21
5459.2065604659138
 31
0.0
  0
LINE
  5
7F06
  8
FUTO
 10
12341.17530249389
 20
5610.9043144659136
 30
0.0
 11
12341.17530249389
 21
5449.2065604659128
 31
0.0
  0
LINE
  5
7F07
  8
FUTO
 10
12599.175241493889
 20
5626.9043144659136
 30
0.0
 11
12514.552438493891
 21
5626.9043144659136
 31
0.0
  0
LINE
  5
7F0B
  8
FUTO
 10
12599.175241493889
 20
5506.9043144659126
 30
0.0
 11
12519.175241493889
 21
5506.9043144659126
 31
0.0
  0
LINE
  5
7F0C
  8
FUTO
 10
12512.175241493889
 20
5613.9043144659126
 30
0.0
 11
12512.175241493889
 21
5459.2065604659138
 31
0.0
  0
LINE
  5
7F0D
  8
FUTO
 10
12519.175241493889
 20
5610.9043144659136
 30
0.0
 11
12519.175241493889
 21
5449.2065604659128
 31
0.0
  0
ARC
  5
7F0E
  8
FUTO
 10
12492.175241493889
 20
5459.2065604659138
 30
0.0
 40
20.0
 50
270.0
 51
0.000000000000007
  0
LINE
  5
7F0F
  8
CT
 10
12539.175241493889
 20
5566.9043144659126
 30
0.0
 11
12321.17530249389
 21
5566.9043144659126
 31
0.0
  0
ARC
  5
7F10
  8
FUTO
 10
12492.175241493889
 20
5613.9043144659126
 30
0.0
 40
20.0
 50
0.000000000000007
 51
90.0
  0
ARC
  5
7F11
  8
FUTO
 10
12368.175302493901
 20
5613.9043144659126
 30
0.0
 40
20.0
 50
90.0
 51
180.0
  0
ARC
  5
7F12
  8
FUTO
 10
12371.17530249389
 20
5610.9043144659136
 30
0.0
 40
30.0
 50
90.0
 51
180.0
  0
ARC
  5
7F13
  8
FUTO
 10
12489.175241493889
 20
5610.9043144659136
 30
0.0
 40
30.0
 50
0.000000000000007
 51
90.0
  0
LINE
  5
7F18
  8
FUTO
 10
12271.17530249389
 20
5701.9043144659126
 30
0.0
 11
12430.17530249389
 21
5701.9043144659126
 31
0.0
  0
LINE
  5
7F19
  8
FUTO
 10
12256.17530249389
 20
5626.9043144659136
 30
0.0
 11
12345.79810549389
 21
5626.9043144659136
 31
0.0
  0
LINE
  5
7F1A
  8
FUTO
 10
12256.17530249389
 20
5506.9043144659126
 30
0.0
 11
12341.17530249389
 21
5506.9043144659126
 31
0.0
  0
ARC
  5
7F1B
  8
FUTO
 10
12156.675302493901
 20
5413.9043144659126
 30
0.0
 40
2.0
 50
180.0
 51
270.0
  0
ARC
  5
7F1C
  8
FUTO
 10
12166.82837849389
 20
5408.9043144659136
 30
0.0
 40
3.0
 50
2.9995570000354208
 51
90.0
  0
ARC
  5
7F1D
  8
FUTO
 10
12181.524911493891
 20
5376.872576465913
 30
0.0
 40
10.000139999999989
 50
183.00042699998181
 51
225.00097699998821
  0
ARC
  5
7F2C
  8
FUTO
 10
12183.46778249389
 20
5339.8015314659133
 30
0.0
 40
9.9999679999999991
 50
182.9990540000266
 51
225.0
  0
LINE
  5
7F2D
  8
FUTO
 10
12246.175302493901
 20
5340.1435724659132
 30
0.0
 11
12265.263925493889
 21
5340.1435724659132
 31
0.0
  0
LINE
  5
7F2E
  8
FUTO
 10
12247.211191493891
 20
5329.9043144659126
 30
0.0
 11
12241.17530249389
 21
5329.9043144659126
 31
0.0
  0
LINE
  5
7F2F
  8
FUTO
 10
12236.17530249389
 20
5329.9043144659126
 30
0.0
 11
12241.17530249389
 21
5329.9043144659126
 31
0.0
  0
ARC
  5
7F30
  8
FUTO
 10
12253.17530249389
 20
5308.9043144659126
 30
0.0
 40
3.0
 50
90.0
 51
180.0
  0
ARC
  5
7F31
  8
FUTO
 10
12260.263925493889
 20
5316.9043144659126
 30
0.0
 40
5.0
 50
270.0
 51
0.000000000000007
  0
LINE
  5
7F32
  8
FUTO
 10
12246.175302493901
 20
5333.0307794659138
 30
0.0
 11
12248.73389649389
 21
5333.0307794659138
 31
0.0
  0
LINE
  5
7F33
  8
FUTO
 10
12253.17530249389
 20
5311.9043144659126
 30
0.0
 11
12246.175302493901
 21
5333.0307794659138
 31
0.0
  0
LINE
  5
7F34
  8
FUTO
 10
12265.263925493889
 20
5316.9043144659126
 30
0.0
 11
12265.263925493889
 21
5340.1435724659132
 31
0.0
  0
LINE
  5
7F35
  8
FUTO
 10
12256.333505493891
 20
5311.9043144659126
 30
0.0
 11
12246.175302493901
 21
5340.1435724659132
 31
0.0
  0
LINE
  5
7F38
  8
FUTO
 10
12169.806650493891
 20
5409.3995544659128
 30
0.0
 11
12173.481454493891
 21
5339.2783384659133
 31
0.0
  0
LINE
  5
7F3A
  8
KL
 10
12203.24634749389
 20
5341.0090514659132
 30
0.0
 11
12174.45386649389
 21
5369.8012874659144
 31
0.0
  0
LINE
  5
7F3D
  8
FUTO
 10
12166.82837849389
 20
5411.9043144659136
 30
0.0
 11
12156.675302493901
 21
5411.9043144659136
 31
0.0
  0
ARC
  5
7F3E
  8
FUTO
 10
12210.46094749389
 20
5312.8083674659138
 30
0.0
 40
9.9999839999999995
 50
225.0
 51
268.00067099997602
  0
LINE
  5
7F3F
  8
FUTO
 10
12236.17530249389
 20
5301.9043144659136
 30
0.0
 11
12210.112070493889
 21
5302.8144714659138
 31
0.0
  0
LINE
  5
7F40
  8
FUTO
 10
12250.17530249389
 20
5291.9043144659126
 30
0.0
 11
12250.17530249389
 21
5308.9043144659126
 31
0.0
  0
LINE
  5
7F41
  8
KL
 10
12203.389902493889
 20
5305.7373224659132
 30
0.0
 11
12176.39673849389
 21
5332.7304864659136
 31
0.0
  0
LINE
  5
7F42
  8
FUTO
 10
12390.5752044939
 20
5313.5122254659127
 30
0.0
 11
12310.17530249389
 21
5311.9043144659126
 31
0.0
  0
ARC
  5
7F43
  8
FUTO
 10
12405.175302493901
 20
5374.4004084659136
 30
0.0
 40
5.0
 50
0.000000000000007
 51
90.0
  0
ARC
  5
7F44
  8
FUTO
 10
12455.17530249389
 20
5374.4004084659136
 30
0.0
 40
5.0
 50
90.0
 51
180.0
  0
ARC
  5
7F45
  8
FUTO
 10
12470.175241493889
 20
5333.5083184659134
 30
0.0
 40
20.000091999999999
 50
180.0
 51
268.85427899999053
  0
LINE
  5
7F46
  8
FUTO
 10
12450.17530249389
 20
5374.4004084659136
 30
0.0
 11
12450.17530249389
 21
5333.5083184659134
 31
0.0
  0
LINE
  5
7F47
  8
FUTO
 10
12410.17530249389
 20
5374.4004084659136
 30
0.0
 11
12410.17530249389
 21
5333.5083184659134
 31
0.0
  0
ARC
  5
7F48
  8
FUTO
 10
12390.17530249389
 20
5333.5083184659134
 30
0.0
 40
20.0
 50
271.14572100000942
 51
0.000000000000007
  0
LINE
  5
7F49
  8
FUTO
 10
12330.17530249389
 20
5291.9043144659126
 30
0.0
 11
12330.17530249389
 21
5292.9043144659136
 31
0.0
  0
ARC
  5
7F4A
  8
FUTO
 10
12335.17530249389
 20
5292.9043144659136
 30
0.0
 40
5.0
 50
90.0
 51
180.0
  0
LINE
  5
7F4B
  8
FUTO
 10
12335.17530249389
 20
5297.9043144659126
 30
0.0
 11
12430.17530249389
 21
5297.9043144659126
 31
0.0
  0
ARC
  5
7F4C
  8
FUTO
 10
12607.175241493889
 20
5308.9043144659126
 30
0.0
 40
3.0
 50
0.000000000000007
 51
90.0
  0
LINE
  5
7F4D
  8
FUTO
 10
12550.175241493889
 20
5311.9043144659126
 30
0.0
 11
12557.85479441821
 21
5311.9043144659126
 31
0.0
  0
ARC
  5
7F57
  8
FUTO
 10
12525.175241493889
 20
5292.9043144659136
 30
0.0
 40
5.0
 50
0.000000000000007
 51
90.0
  0
LINE
  5
7F58
  8
FUTO
 10
12530.175241493889
 20
5291.9043144659126
 30
0.0
 11
12530.175241493889
 21
5292.9043144659136
 31
0.0
  0
LINE
  5
7F59
  8
FUTO
 10
12530.175241493889
 20
5291.9043144659126
 30
0.0
 11
12555.17530249389
 21
5291.9043144659126
 31
0.0
  0
LINE
  5
7F5A
  8
FUTO
 10
12669.78132049389
 20
5295.9043144659126
 30
0.0
 11
12679.39728749389
 21
5299.4043144659126
 31
0.0
  0
LINE
  5
7F5B
  8
FUTO
 10
12669.78132049389
 20
5295.9043144659126
 30
0.0
 11
12610.175241493889
 21
5295.9043144659126
 31
0.0
  0
LINE
  5
7F5C
  8
FUTO
 10
12610.175241493889
 20
5291.9043144659126
 30
0.0
 11
12610.175241493889
 21
5308.9043144659126
 31
0.0
  0
LINE
  5
7F5D
  8
FUTO
 10
12469.775339493901
 20
5313.5122254659127
 30
0.0
 11
12550.175241493889
 21
5311.9043144659126
 31
0.0
  0
LINE
  5
7F5E
  8
FUTO
 10
12525.175241493889
 20
5297.9043144659126
 30
0.0
 11
12430.17530249389
 21
5297.9043144659126
 31
0.0
  0
LINE
  5
7F5F
  8
FUTO
 10
12310.17530249389
 20
5311.9043144659126
 30
0.0
 11
12302.49581056958
 21
5311.9043144659126
 31
0.0
  0
LINE
  5
7F60
  8
FUTO
 10
12330.17530249389
 20
5291.9043144659126
 30
0.0
 11
12305.175302493901
 21
5291.9043144659126
 31
0.0
  0
ARC
  5
7F61
  8
FUTO
 10
12489.175241493889
 20
5449.2065604659128
 30
0.0
 40
30.0
 50
270.0
 51
0.000000000000007
  0
ARC
  5
7F62
  8
FUTO
 10
12371.17530249389
 20
5449.2065604659128
 30
0.0
 40
30.0
 50
180.0
 51
270.0
  0
LINE
  5
7F63
  8
CT
 10
12430.17530249389
 20
5778.3485087720346
 30
0.0
 11
12430.17530249389
 21
5208.3485087720346
 31
0.0
  0
LINE
  5
7F64
  8
FUTO
 10
12241.17530249389
 20
5329.9043144659126
 30
0.0
 11
12241.17530249389
 21
5491.9043144659126
 31
0.0
  0
LINE
  5
7F65
  8
FUTO
 10
12599.175241493889
 20
5695.4043144659136
 30
0.0
 11
12599.175241493889
 21
5311.9043144659126
 31
0.0
  0
LINE
  5
7F66
  8
FUTO
 10
12649.175241493889
 20
5695.0908384659142
 30
0.0
 11
12649.175241493889
 21
5295.9043144659126
 31
0.0
  0
LINE
  5
7F67
  8
FUTO
 10
12679.375192493901
 20
5684.7216974659141
 30
0.0
 11
12679.375192493901
 21
5299.4043144659126
 31
0.0
  0
LINE
  5
7F68
  8
FUTO
 10
12241.17530249389
 20
5329.9043144659126
 30
0.0
 11
12241.17530249389
 21
5491.9043144659126
 31
0.0
  0
LINE
  5
7F69
  8
FUTO
 10
12236.17530249389
 20
5301.9043144659136
 30
0.0
 11
12236.17530249389
 21
5491.9043144659126
 31
0.0
  0
LINE
  5
7F6A
  8
FUTO
 10
12154.675302493901
 20
5413.9043144659126
 30
0.0
 11
12154.675302493901
 21
5491.9043144659126
 31
0.0
  0
ARC
  5
7F6B
  8
FUTO
 10
12743.86432849389
 20
5669.4043144659126
 30
0.0
 40
15.0
 50
60.00018299999563
 51
90.0
  0
ARC
  5
7F6C
  8
FUTO
 10
12799.175241493889
 20
5649.0175964659129
 30
0.0
 40
4.9999580000000003
 50
0.000000000000007
 51
59.999718000001181
  0
LINE
  5
7F6D
  8
FUTO
 10
12801.675241493889
 20
5653.3476744659138
 30
0.0
 11
12751.36432849389
 21
5682.3947934659127
 31
0.0
  0
LINE
  5
7F6E
  8
FUTO
 10
11070.577600150071
 20
5638.1333184659143
 30
0.0
 11
11069.170007150071
 21
5637.3725764659139
 31
0.0
  0
ARC
  5
7F6F
  8
FUTO
 10
11071.05306415007
 20
5637.2534354659147
 30
0.0
 40
1.000079999999999
 50
28.39501399997588
 51
118.3855359999758
  0
ARC
  5
7F70
  8
FUTO
 10
11069.64547115007
 20
5636.4926934659143
 30
0.0
 40
1.0001299999999991
 50
118.3855359999758
 51
208.3860319999763
  0
LINE
  5
7F71
  8
FUTO
 10
10989.739221150059
 20
5636.6594414659139
 30
0.0
 11
10990.58785415007
 21
5636.6594414659139
 31
0.0
  0
LINE
  5
7F72
  8
FUTO
 10
10989.739221150059
 20
5636.6594414659139
 30
0.0
 11
10989.739221150059
 21
5637.5080744659126
 31
0.0
  0
LINE
  5
7F73
  8
FUTO
 10
10981.98568115007
 20
5644.4131034659149
 30
0.0
 11
10978.393518150069
 21
5640.8210624659141
 31
0.0
  0
LINE
  5
7F74
  8
FUTO
 10
10982.834192150071
 20
5644.4131034659149
 30
0.0
 11
10981.98568115007
 21
5644.4131034659149
 31
0.0
  0
LINE
  5
7F75
  8
FUTO
 10
10984.27303515007
 20
5642.1257504659143
 30
0.0
 11
10984.27303515007
 21
5642.9743834659148
 31
0.0
  0
LINE
  5
7F76
  8
FUTO
 10
10984.27303515007
 20
5642.1257504659143
 30
0.0
 11
10980.680872150069
 21
5638.5337094659144
 31
0.0
  0
LINE
  5
7F77
  8
FUTO
 10
10984.27303515007
 20
5642.1257504659143
 30
0.0
 11
10985.12154515007
 21
5642.1257504659143
 31
0.0
  0
LINE
  5
7F78
  8
FUTO
 10
11185.57345015007
 20
5427.4748714659136
 30
0.0
 11
11188.37179015006
 21
5428.9873224659132
 31
0.0
  0
ARC
  5
7F79
  8
FUTO
 10
11189.92415815007
 20
5417.3225274659144
 30
0.0
 40
1.0001299999999991
 50
298.38552900002043
 51
28.382720999977689
  0
ARC
  5
7F7A
  8
FUTO
 10
10191.146936150069
 20
5503.4355644659126
 30
0.0
 40
1000.0
 50
355.7304690000102
 51
5.1562809999889501
  0
LINE
  5
7F7B
  8
FUTO
 10
11070.486902150071
 20
5632.833025465914
 30
0.0
 11
11062.140466150069
 21
5628.3217954659149
 31
0.0
  0
ARC
  5
7F7C
  8
FUTO
 10
11064.517786150071
 20
5623.9231134659149
 30
0.0
 40
5.000062999999999
 50
118.3907549999861
 51
180.0
  0
LINE
  5
7F7D
  8
CT
 10
11042.07296115007
 20
5566.9043144659126
 30
0.0
 11
11078.50631115006
 21
5566.9043144659126
 31
0.0
  0
LINE
  5
7F7E
  8
FUTO
 10
10992.02657515007
 20
5634.3720884659142
 30
0.0
 11
10988.43453415007
 21
5630.7800474659152
 31
0.0
  0
LINE
  5
7F7F
  8
FUTO
 10
10992.02657515007
 20
5634.3720884659142
 30
0.0
 11
10992.02657515007
 21
5635.2207214659138
 31
0.0
  0
LINE
  5
7F80
  8
FUTO
 10
11060.503687150071
 20
5626.9043144659136
 30
0.0
 11
10991.791467150069
 21
5626.9043144659136
 31
0.0
  0
LINE
  5
7F81
  8
FUTO
 10
11059.517786150071
 20
5506.9043144659126
 30
0.0
 11
11042.464319150071
 21
5506.9043144659126
 31
0.0
  0
ARC
  5
7F82
  8
FUTO
 10
11078.34566615006
 20
5436.9043144659126
 30
0.0
 40
10.000057999999999
 50
187.1243290000296
 51
270.0
  0
LINE
  5
7F83
  8
FUTO
 10
11059.517786150071
 20
5506.9043144659126
 30
0.0
 11
11068.422815150059
 21
5435.6640804659146
 31
0.0
  0
LINE
  5
7F84
  8
FUTO
 10
11049.517786150071
 20
5506.9043144659126
 30
0.0
 11
11049.517786150071
 21
5626.9043144659136
 31
0.0
  0
LINE
  5
7F85
  8
FUTO
 10
11059.517786150071
 20
5506.9043144659126
 30
0.0
 11
11059.517786150071
 21
5623.9231134659149
 31
0.0
  0
LINE
  5
7F86
  8
FUTO
 10
11181.789819150061
 20
5426.9043144659136
 30
0.0
 11
11078.34566615006
 21
5426.9043144659136
 31
0.0
  0
LINE
  5
7F87
  8
FUTO
 10
11073.653894150069
 20
5634.5446954659146
 30
0.0
 11
11149.837122150069
 21
5629.6301444659148
 31
0.0
  0
ARC
  5
7F88
  8
FUTO
 10
11147.26217015007
 20
5589.7131524659153
 30
0.0
 40
40.000011000000001
 50
5.1563729999685757
 51
86.309097000000321
  0
LINE
  5
7F89
  8
FUTO
 10
11071.93282515007
 20
5637.7290214659133
 30
0.0
 11
11190.803918150061
 21
5417.7978694659141
 31
0.0
  0
LINE
  5
7F8A
  8
FUTO
 10
10978.393518150069
 20
5640.8210624659141
 30
0.0
 11
10988.43453415007
 21
5630.7800474659152
 31
0.0
  0
LINE
  5
7F8B
  8
CT
 10
10987.95882615007
 20
5640.3452324659138
 30
0.0
 11
10982.710657150061
 21
5635.0971854659147
 31
0.0
  0
LINE
  5
7F8C
  8
FUTO
 10
10982.834192150071
 20
5644.4131034659149
 30
0.0
 11
10992.02657515007
 21
5635.2207214659138
 31
0.0
  0
LINE
  5
7F8D
  8
FUTO
 10
10989.739221150059
 20
5636.6594414659139
 30
0.0
 11
10986.147180150059
 21
5633.0674004659149
 31
0.0
  0
ARC
  5
7F8E
  8
FUTO
 10
10839.517786150071
 20
5755.6543144659136
 30
0.0
 40
6.25
 50
0.000000000000007
 51
180.0
  0
LINE
  5
7F8F
  8
FUTO
 10
10856.11454215007
 20
5698.3231384659139
 30
0.0
 11
10855.95447715006
 21
5694.7393364659138
 31
0.0
  0
LINE
  5
7F90
  8
FUTO
 10
10845.767786150071
 20
5713.7346984659143
 30
0.0
 11
10851.072351150069
 21
5713.1663384659141
 31
0.0
  0
ARC
  5
7F91
  8
FUTO
 10
10850.75275615007
 20
5710.1834284659144
 30
0.0
 40
3.0000059999999991
 50
5.1944030000043186
 51
83.884536999966215
  0
LINE
  5
7F92
  8
FUTO
 10
10833.267786150071
 20
5713.7346984659143
 30
0.0
 11
10827.963220150061
 21
5713.1663384659141
 31
0.0
  0
ARC
  5
7F93
  8
FUTO
 10
10852.517786150071
 20
5698.9043144659126
 30
0.0
 40
3.0
 50
46.130962000013298
 51
90.0
  0
ARC
  5
7F94
  8
FUTO
 10
10839.517786150071
 20
5491.9043144659126
 30
0.0
 40
209.99987799999991
 50
86.233009000037342
 51
86.266975000016416
  0
ARC
  5
7F95
  8
FUTO
 10
10852.994989150069
 20
5698.4650444659146
 30
0.0
 40
3.0001099999999989
 50
86.265807999991694
 51
175.05505399999171
  0
ARC
  5
7F96
  8
FUTO
 10
10852.517786150071
 20
5698.9043144659126
 30
0.0
 40
3.0
 50
47.440357000007118
 51
90.0
  0
LINE
  5
7F97
  8
FUTO
 10
10850.006219150069
 20
5698.7235894659134
 30
0.0
 11
10849.69713715006
 21
5695.1494934659131
 31
0.0
  0
LINE
  5
7F98
  8
FUTO
 10
10829.029474150069
 20
5698.7235894659134
 30
0.0
 11
10829.338556150071
 21
5695.1494934659131
 31
0.0
  0
ARC
  5
7F99
  8
FUTO
 10
10830.267786150071
 20
5707.3369324659143
 30
0.0
 40
3.0
 50
270.0
 51
0.000000000000007
  0
ARC
  5
7F9A
  8
FUTO
 10
10848.767786150071
 20
5707.6251404659142
 30
0.0
 40
3.0
 50
180.0
 51
270.0
  0
LINE
  5
7F9B
  8
FUTO
 10
10853.740442150071
 20
5710.4550354659132
 30
0.0
 11
10854.517786150071
 21
5701.9043144659126
 31
0.0
  0
ARC
  5
7F9C
  8
FUTO
 10
10853.117563150059
 20
5698.4570494659147
 30
0.0
 40
3.000081999999999
 50
357.44171099996208
 51
86.234252999979262
  0
ARC
  5
7F9D
  8
FUTO
 10
10839.517786150071
 20
5491.9043144659126
 30
0.0
 40
209.99998500000001
 50
93.732994000026721
 51
93.766990999962644
  0
ARC
  5
7F9E
  8
FUTO
 10
10825.91813015007
 20
5698.456988465914
 30
0.0
 40
2.9999649999999991
 50
93.767860000028065
 51
182.55722000000901
  0
LINE
  5
7F9F
  8
FUTO
 10
10822.921152150069
 20
5698.3231384659139
 30
0.0
 11
10823.081216150071
 21
5694.7393364659138
 31
0.0
  0
LINE
  5
7FA0
  8
FUTO
 10
10825.295129150059
 20
5710.4550354659132
 30
0.0
 11
10824.517786150071
 21
5701.9043144659126
 31
0.0
  0
ARC
  5
7FA1
  8
FUTO
 10
10826.517786150071
 20
5698.9043144659126
 30
0.0
 40
3.0
 50
90.0
 51
133.88737499997529
  0
LINE
  5
7FA2
  8
FUTO
 10
10854.517786150071
 20
5701.9043144659126
 30
0.0
 11
10824.517786150071
 21
5701.9043144659126
 31
0.0
  0
ARC
  5
7FA3
  8
FUTO
 10
10826.517786150071
 20
5698.9043144659126
 30
0.0
 40
3.0
 50
90.0
 51
133.8315120000008
  0
ARC
  5
7FA4
  8
FUTO
 10
10828.282816150069
 20
5710.1834284659144
 30
0.0
 40
2.9999820000000001
 50
96.115463000033785
 51
174.80560300000801
  0
ARC
  5
7FA5
  8
FUTO
 10
10826.040582150061
 20
5698.4650444659146
 30
0.0
 40
3.0000490000000002
 50
4.9438900000065571
 51
93.731941000007794
  0
LINE
  5
7FA6
  8
FUTO
 10
10697.05001215007
 20
5644.4131034659149
 30
0.0
 11
10700.64205315007
 21
5640.8210624659141
 31
0.0
  0
LINE
  5
7FA7
  8
FUTO
 10
10697.05001215007
 20
5644.4131034659149
 30
0.0
 11
10696.201379150059
 21
5644.4131034659149
 31
0.0
  0
LINE
  5
7FA8
  8
FUTO
 10
10689.296350150071
 20
5636.6596854659147
 30
0.0
 11
10688.447717150069
 21
5636.6596854659147
 31
0.0
  0
LINE
  5
7FA9
  8
FUTO
 10
10689.296350150071
 20
5636.6596854659147
 30
0.0
 11
10689.296350150071
 21
5637.5080744659126
 31
0.0
  0
LINE
  5
7FAA
  8
FUTO
 10
10694.762659150059
 20
5642.1257504659143
 30
0.0
 11
10694.762659150059
 21
5642.9743834659148
 31
0.0
  0
LINE
  5
7FAB
  8
FUTO
 10
10694.762659150059
 20
5642.1257504659143
 30
0.0
 11
10693.914026150071
 21
5642.1257504659143
 31
0.0
  0
LINE
  5
7FAC
  8
FUTO
 10
10694.762659150059
 20
5642.1257504659143
 30
0.0
 11
10698.35470015007
 21
5638.5337094659144
 31
0.0
  0
LINE
  5
7FAD
  8
FUTO
 10
10833.267786150071
 20
5755.6543144659136
 30
0.0
 11
10833.267786150071
 21
5707.3369324659143
 31
0.0
  0
LINE
  5
7FAE
  8
FUTO
 10
10845.767786150071
 20
5755.6543144659136
 30
0.0
 11
10845.767786150071
 21
5707.6251404659142
 31
0.0
  0
LINE
  5
7FAF
  8
FUTO
 10
10687.008997150069
 20
5634.3720884659142
 30
0.0
 11
10690.601038150069
 21
5630.7800474659152
 31
0.0
  0
LINE
  5
7FB0
  8
FUTO
 10
10687.008997150069
 20
5635.2207214659138
 30
0.0
 11
10687.008997150069
 21
5634.3720884659142
 31
0.0
  0
LINE
  5
7FB1
  8
FUTO
 10
10690.601038150069
 20
5630.7800474659152
 30
0.0
 11
10700.64205315007
 21
5640.8210624659141
 31
0.0
  0
LINE
  5
7FB2
  8
CT
 10
10691.07686815007
 20
5640.3452324659138
 30
0.0
 11
10696.32491515007
 21
5635.0971854659147
 31
0.0
  0
LINE
  5
7FB3
  8
FUTO
 10
10687.008997150069
 20
5635.2207214659138
 30
0.0
 11
10696.201379150059
 21
5644.4131034659149
 31
0.0
  0
LINE
  5
7FB4
  8
FUTO
 10
10689.296350150071
 20
5636.6596854659147
 30
0.0
 11
10692.888391150071
 21
5633.0674004659149
 31
0.0
  0
LINE
  5
7FB5
  8
CT
 10
10616.017786150071
 20
5261.9043144659136
 30
0.0
 11
11063.017786150071
 21
5261.9043144659136
 31
0.0
  0
ARC
  5
7FB6
  8
FUTO
 10
12799.175241493889
 20
5334.7910334659136
 30
0.0
 40
5.0
 50
300.00027499997202
 51
0.000000000000007
  0
ARC
  5
7FB7
  8
FUTO
 10
11188.51656515007
 20
5416.561785465914
 30
0.0
 40
1.000079999999999
 50
208.39501999997901
 51
298.38552900002043
  0
ARC
  5
7FB8
  8
FUTO
 10
12743.86432849389
 20
5314.4043144659136
 30
0.0
 40
15.000085
 50
270.0
 51
299.99981700000433
  0
LINE
  5
7FB9
  8
FUTO
 10
12801.675241493889
 20
5330.4609554659128
 30
0.0
 11
12751.36432849389
 21
5301.4138364659138
 31
0.0
  0
ARC
  5
7FBA
  8
FUTO
 10
11023.517786150071
 20
5366.2309754659136
 30
0.0
 40
5.0
 50
0.000000000000007
 51
55.056338999992313
  0
LINE
  5
7FBB
  8
FUTO
 10
11026.38167715007
 20
5370.3296074659129
 30
0.0
 11
11010.443811150069
 21
5381.4660824659131
 31
0.0
  0
ARC
  5
7FBC
  8
FUTO
 10
11025.517786150071
 20
5308.9043144659126
 30
0.0
 40
3.0
 50
0.000000000000007
 51
90.0
  0
LINE
  5
7FBD
  8
FUTO
 10
10992.02657515007
 20
5349.4365414659133
 30
0.0
 11
10988.43453415007
 21
5353.0285824659131
 31
0.0
  0
LINE
  5
7FBE
  8
FUTO
 10
10992.02657515007
 20
5348.5879084659136
 30
0.0
 11
10992.02657515007
 21
5349.4365414659133
 31
0.0
  0
LINE
  5
7FBF
  8
FUTO
 10
10989.739221150059
 20
5347.1489434659143
 30
0.0
 11
10990.58785415007
 21
5347.1489434659143
 31
0.0
  0
LINE
  5
7FC0
  8
FUTO
 10
10989.739221150059
 20
5347.1489434659143
 30
0.0
 11
10989.739221150059
 21
5346.3005554659139
 31
0.0
  0
LINE
  5
7FC1
  8
FUTO
 10
10981.985559150069
 20
5339.395525465914
 30
0.0
 11
10978.393518150069
 21
5342.9875664659139
 31
0.0
  0
LINE
  5
7FC2
  8
FUTO
 10
10981.985559150069
 20
5339.395525465914
 30
0.0
 11
10982.834192150071
 21
5339.395525465914
 31
0.0
  0
LINE
  5
7FC3
  8
FUTO
 10
10984.272913150069
 20
5341.6828794659132
 30
0.0
 11
10984.272913150069
 21
5340.8342464659136
 31
0.0
  0
LINE
  5
7FC4
  8
FUTO
 10
10984.272913150069
 20
5341.6828794659132
 30
0.0
 11
10980.680872150069
 21
5345.274920465914
 31
0.0
  0
LINE
  5
7FC5
  8
FUTO
 10
10984.272913150069
 20
5341.6828794659132
 30
0.0
 11
10985.12154515007
 21
5341.6828794659132
 31
0.0
  0
LINE
  5
7FC6
  8
FUTO
 10
10988.43453415007
 20
5353.0285824659131
 30
0.0
 11
10978.393518150069
 21
5342.9875664659139
 31
0.0
  0
LINE
  5
7FC7
  8
CT
 10
10987.958704150071
 20
5343.4633964659142
 30
0.0
 11
10982.710657150061
 21
5348.7114434659143
 31
0.0
  0
LINE
  5
7FC8
  8
FUTO
 10
10992.02657515007
 20
5348.5879084659136
 30
0.0
 11
10982.834192150071
 21
5339.395525465914
 31
0.0
  0
LINE
  5
7FC9
  8
FUTO
 10
10989.739221150059
 20
5347.1489434659143
 30
0.0
 11
10986.147180150059
 21
5350.7412284659149
 31
0.0
  0
ARC
  5
7FCA
  8
FUTO
 10
10952.017786150071
 20
5308.9043144659126
 30
0.0
 40
3.0
 50
90.0
 51
180.0
  0
LINE
  5
7FCB
  8
FUTO
 10
10952.017786150071
 20
5311.9043144659126
 30
0.0
 11
11025.517786150071
 21
5311.9043144659126
 31
0.0
  0
LINE
  5
7FCC
  8
FUTO
 10
11028.517786150071
 20
5291.9043144659126
 30
0.0
 11
10949.017786150071
 21
5291.9043144659126
 31
0.0
  0
LINE
  5
7FCD
  8
FUTO
 10
10949.017786150071
 20
5308.9043144659126
 30
0.0
 11
10949.017786150071
 21
5291.9043144659126
 31
0.0
  0
LINE
  5
7FCE
  8
FUTO
 10
10943.620569150071
 20
5317.0476254659143
 30
0.0
 11
10949.017786150071
 21
5296.9043144659136
 31
0.0
  0
LINE
  5
7FCF
  8
CT
 10
10998.517786150071
 20
5321.9043144659136
 30
0.0
 11
10998.517786150071
 21
5281.9043144659126
 31
0.0
  0
LINE
  5
7FD0
  8
FUTO
 10
11028.517786150071
 20
5366.2309754659136
 30
0.0
 11
11028.517786150071
 21
5291.9043144659126
 31
0.0
  0
LINE
  5
7FD1
  8
FUTO
 10
10652.654016150071
 20
5370.3296074659129
 30
0.0
 11
10668.591882150071
 21
5381.4660824659131
 31
0.0
  0
ARC
  5
7FD2
  8
FUTO
 10
10727.017786150071
 20
5308.9043144659126
 30
0.0
 40
3.0
 50
0.000000000000007
 51
90.0
  0
LINE
  5
7FD3
  8
FUTO
 10
10687.008997150069
 20
5349.4365414659133
 30
0.0
 11
10690.601038150069
 21
5353.0285824659131
 31
0.0
  0
LINE
  5
7FD4
  8
FUTO
 10
10687.008997150069
 20
5349.4365414659133
 30
0.0
 11
10687.008997150069
 21
5348.5879084659136
 31
0.0
  0
LINE
  5
7FD5
  8
FUTO
 10
10697.05001215007
 20
5339.395525465914
 30
0.0
 11
10700.64205315007
 21
5342.9875664659139
 31
0.0
  0
LINE
  5
7FD6
  8
FUTO
 10
10696.201379150059
 20
5339.395525465914
 30
0.0
 11
10697.05001215007
 21
5339.395525465914
 31
0.0
  0
LINE
  5
7FD7
  8
FUTO
 10
10694.76241515006
 20
5341.6828794659132
 30
0.0
 11
10694.76241515006
 21
5340.8342464659136
 31
0.0
  0
LINE
  5
7FD8
  8
FUTO
 10
10694.76241515006
 20
5341.6828794659132
 30
0.0
 11
10693.914026150071
 21
5341.6828794659132
 31
0.0
  0
LINE
  5
7FD9
  8
FUTO
 10
10689.296350150071
 20
5347.1491874659132
 30
0.0
 11
10688.447717150069
 21
5347.1491874659132
 31
0.0
  0
LINE
  5
7FDA
  8
FUTO
 10
10689.296350150071
 20
5347.1491874659132
 30
0.0
 11
10689.296350150071
 21
5346.3005554659139
 31
0.0
  0
LINE
  5
7FDB
  8
FUTO
 10
10694.76241515006
 20
5341.6828794659132
 30
0.0
 11
10698.35470015007
 21
5345.274920465914
 31
0.0
  0
LINE
  5
7FDC
  8
FUTO
 10
10700.64205315007
 20
5342.9875664659139
 30
0.0
 11
10690.601038150069
 21
5353.0285824659131
 31
0.0
  0
LINE
  5
7FDD
  8
CT
 10
10691.07686815007
 20
5343.4633964659142
 30
0.0
 11
10696.32491515007
 21
5348.7114434659143
 31
0.0
  0
LINE
  5
7FDE
  8
FUTO
 10
10696.201379150059
 20
5339.395525465914
 30
0.0
 11
10687.008997150069
 21
5348.5879084659136
 31
0.0
  0
LINE
  5
7FDF
  8
FUTO
 10
10689.296350150071
 20
5347.1491874659132
 30
0.0
 11
10692.888391150071
 21
5350.7412284659149
 31
0.0
  0
LINE
  5
7FE0
  8
FUTO
 10
10727.017786150071
 20
5311.9043144659126
 30
0.0
 11
10653.517786150071
 21
5311.9043144659126
 31
0.0
  0
LINE
  5
7FE1
  8
FUTO
 10
10730.017786150071
 20
5308.9043144659126
 30
0.0
 11
10730.017786150071
 21
5291.9043144659126
 31
0.0
  0
LINE
  5
7FE2
  8
FUTO
 10
10735.41521615007
 20
5317.0475034659139
 30
0.0
 11
10730.017786150071
 21
5296.9043144659136
 31
0.0
  0
LINE
  5
7FE3
  8
CT
 10
10680.517786150071
 20
5321.9043144659136
 30
0.0
 11
10680.517786150071
 21
5281.9043144659126
 31
0.0
  0
LINE
  5
7FE4
  8
FUTO
 10
10650.517786150071
 20
5366.2309754659136
 30
0.0
 11
10650.517786150071
 21
5291.9043144659126
 31
0.0
  0
LINE
  5
7FE5
  8
FUTO
 10
10650.517786150071
 20
5291.9043144659126
 30
0.0
 11
10730.017786150071
 21
5291.9043144659126
 31
0.0
  0
ARC
  5
7FE6
  8
FUTO
 10
10655.517786150071
 20
5366.2309754659136
 30
0.0
 40
5.0000669999999987
 50
124.9436649999749
 51
180.0
  0
ARC
  5
7FE7
  8
FUTO
 10
10653.517786150071
 20
5308.9043144659126
 30
0.0
 40
3.0
 50
90.0
 51
180.0
  0
LINE
  5
7FE8
  8
FUTO
 10
10894.255823150061
 20
5295.9043144659126
 30
0.0
 11
10784.77974915007
 21
5295.9043144659126
 31
0.0
  0
ARC
  5
7FEA
  8
FUTO
 10
10839.517786150071
 20
5491.9043144659126
 30
0.0
 40
203.5
 50
285.60375999997461
 51
254.39630099999039
  0
LINE
  5
7FEB
  8
FUTO
 10
12745.07526549389
 20
5299.4043144659126
 30
0.0
 11
12745.07526549389
 21
5684.3552424659138
 31
0.0
  0
LINE
  5
7FEC
  8
CT
 10
11129.517786150071
 20
5444.2986014659155
 30
0.0
 11
11129.517786150071
 21
5405.3047054659146
 31
0.0
  0
LINE
  5
7FED
  8
FUTO
 10
11068.765833150061
 20
5636.0171074659138
 30
0.0
 11
11187.636926150069
 21
5416.0861994659126
 31
0.0
  0
LINE
  5
7FEE
  8
FUTO
 10
11188.992029150069
 20
5415.6819024659144
 30
0.0
 11
11190.399622150069
 21
5416.4426444659148
 31
0.0
  0
LINE
  5
7FEF
  8
FUTO
 10
12804.17530249389
 20
5649.5542784659128
 30
0.0
 11
12804.17530249389
 21
5334.763964465913
 31
0.0
  0
LINE
  5
7FF0
  8
CT
 10
11984.67530249389
 20
5491.9043144659126
 30
0.0
 11
12824.17530249389
 21
5491.9043144659126
 31
0.0
  0
LINE
  5
7FF1
  8
FUTO
 10
12682.924020493891
 20
5684.4043144659136
 30
0.0
 11
12743.86432849389
 21
5684.4043144659136
 31
0.0
  0
LINE
  5
7FF2
  8
FUTO
 10
12679.375192493901
 20
5299.4043144659126
 30
0.0
 11
12743.86432849389
 21
5299.4043144659126
 31
0.0
  0
LINE
  5
7FF3
  8
FUTO
 10
10848.517786150071
 20
5525.9043144659136
 30
0.0
 11
10830.517786150071
 21
5525.9043144659136
 31
0.0
  0
LINE
  5
7FF4
  8
FUTO
 10
10848.517786150071
 20
5514.9043144659136
 30
0.0
 11
10830.517786150071
 21
5514.9043144659154
 31
0.0
  0
LINE
  5
7FF5
  8
FUTO
 10
10848.517786150071
 20
5525.9043144659154
 30
0.0
 11
10848.517786150071
 21
5514.9043144659136
 31
0.0
  0
LINE
  5
7FF6
  8
FUTO
 10
10830.517786150071
 20
5525.9043144659154
 30
0.0
 11
10830.517786150071
 21
5514.9043144659136
 31
0.0
  0
LINE
  5
7FF7
  8
CT
 10
10704.517786150071
 20
9504.814235667016
 30
0.0
 11
10654.517786150071
 21
9504.814235667016
 31
0.0
  0
LINE
  5
7FF8
  8
CT
 10
10679.517786150071
 20
9479.8142356670141
 30
0.0
 11
10679.517786150071
 21
9529.8142356670178
 31
0.0
  0
LINE
  5
7FF9
  8
CT
 10
10999.517786150071
 20
9479.8142356670141
 30
0.0
 11
10999.517786150071
 21
9529.8142356670178
 31
0.0
  0
LINE
  5
7FFA
  8
CT
 10
10974.517786150071
 20
9504.814235667016
 30
0.0
 11
11024.517786150071
 21
9504.814235667016
 31
0.0
  0
LINE
  5
7FFB
  8
CT
 10
10974.517786150071
 20
9964.8142356670178
 30
0.0
 11
11024.517786150071
 21
9964.8142356670178
 31
0.0
  0
LINE
  5
7FFC
  8
CT
 10
10999.517786150071
 20
9989.8142356670178
 30
0.0
 11
10999.517786150071
 21
9939.814235667016
 31
0.0
  0
LINE
  5
7FFD
  8
CT
 10
10679.517786150071
 20
9989.8142356670178
 30
0.0
 11
10679.517786150071
 21
9939.814235667016
 31
0.0
  0
LINE
  5
7FFE
  8
CT
 10
10704.517786150071
 20
9964.8142356670178
 30
0.0
 11
10654.517786150071
 21
9964.8142356670178
 31
0.0
  0
LINE
  5
8000
  8
SL
 10
10972.017786150071
 20
9309.3142356670141
 30
0.0
 11
10972.017786150071
 21
9407.3142356670141
 31
0.0
  0
LINE
  5
8001
  8
FUTO
 10
11043.017786150071
 20
9170.3142356670141
 30
0.0
 11
11043.017786150071
 21
9459.3142356670214
 31
0.0
  0
LINE
  5
8002
  8
SL
 10
10707.017786150071
 20
9309.3142356670141
 30
0.0
 11
10707.017786150071
 21
9407.3142356670141
 31
0.0
  0
LINE
  5
8003
  8
SL
 10
11029.517786150071
 20
10056.852793295169
 30
0.0
 11
11029.517786150071
 21
9494.3142356670178
 31
0.0
  0
LINE
  5
8004
  8
SL
 10
10964.517786150071
 20
10108.814235667011
 30
0.0
 11
10964.517786150071
 21
9494.3142356670178
 31
0.0
  0
LINE
  5
8005
  8
SL
 10
10714.517786150071
 20
10108.814235667011
 30
0.0
 11
10714.517786150071
 21
9494.3142356670178
 31
0.0
  0
LINE
  5
8006
  8
SL
 10
10649.517786150071
 20
10049.71419866701
 30
0.0
 11
10649.517786150071
 21
9494.3142356670178
 31
0.0
  0
LINE
  5
8007
  8
FUTO
 10
11010.517786150071
 20
10406.314235667011
 30
0.0
 11
11010.517786150071
 21
11694.31423566702
 31
0.0
  0
LINE
  5
8008
  8
FUTO
 10
10960.517786150071
 20
10456.314235667011
 30
0.0
 11
10960.517786150071
 21
11644.314235667011
 31
0.0
  0
LINE
  5
8018
  8
FUTO
 10
11010.517786150071
 20
11694.31423566702
 30
0.0
 11
8609.5177861500688
 21
11694.314235667011
 31
0.0
  0
LINE
  5
8019
  8
FUTO
 10
11010.517786150071
 20
10406.314235667011
 30
0.0
 11
8609.5177861500688
 21
10406.314235667011
 31
0.0
  0
LINE
  5
801A
  8
FUTO
 10
10539.517786150071
 20
10406.314235667011
 30
0.0
 11
10539.517786150071
 21
10381.314235667011
 31
0.0
  0
LINE
  5
801C
  8
FUTO
 10
9589.5177861500706
 20
10456.314235667011
 30
0.0
 11
8544.5177861500724
 21
10456.314235667011
 31
0.0
  0
LINE
  5
801D
  8
FUTO
 10
9589.5177861500706
 20
11644.314235667011
 30
0.0
 11
8544.5177861500724
 21
11644.314235667011
 31
0.0
  0
LINE
  5
8021
  8
FUTO
 10
8609.5177861500688
 20
11709.314235667011
 30
0.0
 11
8544.5177861500724
 21
11709.314235667011
 31
0.0
  0
LINE
  5
8022
  8
FUTO
 10
8639.5177861500706
 20
10406.314235667011
 30
0.0
 11
8639.5177861500706
 21
10381.314235667011
 31
0.0
  0
LINE
  5
8025
  8
FUTO
 10
9975.1696590407919
 20
9494.3142356670196
 30
0.0
 11
9975.1696590407919
 21
10381.314235667011
 31
0.0
  0
LINE
  5
8027
  8
FUTO
 10
9203.8659132593493
 20
9494.3142356670196
 30
0.0
 11
9203.8659132593493
 21
10381.314235667011
 31
0.0
  0
DIMENSION
  5
8095
  8
SP
  2
*D12
 10
11695.13754646366
 20
11775.31423566702
 30
0.0
 11
11607.63754646366
 21
11412.81423566702
 31
0.0
 70
     0
 13
11352.517786150071
 23
11050.31423566702
 33
0.0
 14
10454.517786150071
 24
11775.31423566702
 34
0.0
 50
90.0
1001
ACAD
1000
DSTYLE
1002
{
1070
    40
1040
35.0
1070
    41
1040
2.5
1070
   147
1040
1.0
1002
}
  0
DIMENSION
  5
80A2
  8
SP
  2
*D13
 10
11695.13754646366
 20
9170.3142356670141
 30
0.0
 11
11607.63754646366
 21
10110.314235667011
 31
0.0
 70
     0
 13
11352.517786150071
 23
11050.31423566702
 33
0.0
 14
11043.017786150071
 24
9170.3142356670141
 34
0.0
 50
90.0
1001
ACAD
1000
DSTYLE
1002
{
1070
    40
1040
35.0
1070
    41
1040
2.5
1070
   147
1040
1.0
1002
}
  0
LINE
  5
80D6
  8
KL
 10
10529.517786150071
 20
6311.0822720937413
 30
0.0
 11
10529.517786150071
 21
5492.3281526608462
 31
0.0
  0
LINE
  5
80D7
  8
KL
 10
10520.517786150071
 20
6323.8050578577077
 30
0.0
 11
10520.517786150071
 21
5501.418757488329
 31
0.0
  0
LINE
  5
80D8
  8
FUTO
 10
10200.92590990383
 20
6990.9043144659136
 30
0.0
 11
11005.145330660829
 21
6990.9043144659136
 31
0.0
  0
LINE
  5
80D9
  8
FUTO
 10
10224.31739489414
 20
6972.9043144659136
 30
0.0
 11
11005.145330660829
 21
6972.9043144659136
 31
0.0
  0
LINE
  5
80DA
  8
KL
 10
9211.2418261414932
 20
6945.7477371999512
 30
0.0
 11
9389.863437811071
 21
6967.1008963022095
 31
0.0
  0
LINE
  5
80DB
  8
KL
 10
9213.3784073101324
 20
6927.87499200203
 30
0.0
 11
9392.0000189797101
 21
6949.2281511042893
 31
0.0
  0
LINE
  5
81A6
  8
FUTO
 10
8586.1081119116989
 20
7092.5173822433853
 30
0.0
 11
8588.2446930803399
 21
7110.3901274413056
 31
0.0
  0
LINE
  5
81A7
  8
CT
 10
8587.1764024960194
 20
7101.4537548423459
 30
0.0
 11
9390.9317283953915
 21
7005.6441052285791
 31
0.0
  0
LINE
  5
81A9
  8
FUTO
 10
11005.145330660829
 20
6972.9043144659136
 30
0.0
 11
11005.145330660829
 21
6990.9043144659136
 31
0.0
  0
LINE
  5
81E1
  8
FUTO
 10
14413.8753024939
 20
6883.8245806770638
 30
0.0
 11
14413.875302493891
 21
5231.9043144659126
 31
0.0
  0
LINE
  5
81E2
  8
FUTO
 10
14403.8753024939
 20
6990.9043144659136
 30
0.0
 11
14403.8753024939
 21
6972.9043144659136
 31
0.0
  0
LINE
  5
81E3
  8
FUTO
 10
13077.4753024939
 20
6931.9043144659136
 30
0.0
 11
13077.4753024939
 21
5231.9043144659136
 31
0.0
  0
LINE
  5
81E4
  8
FUTO
 10
13086.67530249391
 20
5218.9043144659126
 30
0.0
 11
14404.675302493901
 21
5218.9043144659126
 31
0.0
  0
LINE
  5
81FB
  8
FUTO
 10
13152.4753024939
 20
5283.9043144659136
 30
0.0
 11
14338.8753024939
 21
5283.9043144659136
 31
0.0
  0
LINE
  5
8200
  8
FUTO
 10
8544.5177861500724
 20
10391.314235667011
 30
0.0
 11
8544.5177861500724
 21
11709.314235667011
 31
0.0
  0
LINE
  5
8201
  8
FUTO
 10
8550.5177861500724
 20
10391.314235667011
 30
0.0
 11
8550.5177861500724
 21
11709.314235667011
 31
0.0
  0
LINE
  5
8202
  8
FUTO
 10
8609.5177861500688
 20
10391.314235667011
 30
0.0
 11
8609.5177861500688
 21
11709.314235667011
 31
0.0
  0
LINE
  5
8213
  8
FUTO
 10
11139.517786150071
 20
10456.314235667011
 30
0.0
 11
11010.517786150071
 21
10456.314235667011
 31
0.0
  0
DIMENSION
  5
8215
  8
SP
  2
*D14
 10
11139.517786150071
 20
12086.245124645529
 30
0.0
 11
10364.517786150071
 21
12173.745124645529
 31
0.0
 70
     0
 13
9589.5177861500706
 23
11820.09214748388
 33
0.0
 14
11139.517786150071
 24
10456.314235667011
 34
0.0
 50
180.0
1001
ACAD
1000
DSTYLE
1002
{
1070
    40
1040
35.0
1070
    41
1040
2.5
1070
   147
1040
1.0
1002
}
  0
DIMENSION
  5
8222
  8
SP
  2
*D15
 10
8544.5177861500724
 20
12086.245124645529
 30
0.0
 11
9067.0177861500706
 21
12173.745124645529
 31
0.0
 70
     0
 13
9589.5177861500706
 23
11820.09214748388
 33
0.0
 14
8544.5177861500724
 24
11694.314235667011
 34
0.0
 50
180.0
1001
ACAD
1000
DSTYLE
1002
{
1070
    40
1040
35.0
1070
    41
1040
2.5
1070
   147
1040
1.0
1002
}
  0
LINE
  5
82B5
  8
FUTO
 10
8609.5177861500688
 20
10391.314235667011
 30
0.0
 11
8544.5177861500724
 21
10391.314235667011
 31
0.0
  0
LINE
  5
83BA
  8
FUTO
 10
8964.5177861500706
 20
5231.9043144659126
 30
0.0
 11
9203.8659132593475
 21
6873.9043144659154
 31
0.0
  0
LINE
  5
83BB
  8
FUTO
 10
10214.517786150071
 20
5231.9043144659126
 30
0.0
 11
10115.61659550924
 21
5910.3961706319751
 31
0.0
  0
LINE
  5
83BC
  8
FUTO
 10
10520.517786150071
 20
5501.418757488329
 30
0.0
 11
10520.517786150071
 21
5231.9043144659126
 31
0.0
  0
LINE
  5
83BD
  8
FUTO
 10
10529.517786150071
 20
5492.328152660848
 30
0.0
 11
10529.517786150071
 21
5231.9043144659126
 31
0.0
  0
LINE
  5
83BE
  8
SL
 10
9848.7749506339096
 20
7160.819720912089
 30
0.0
 11
10948.570402956761
 21
5567.1623822567653
 31
0.0
  0
LINE
  5
83BF
  8
SL
 10
9368.2553210793358
 20
6757.6992263193224
 30
0.0
 11
10746.447066715549
 21
5397.5958250074273
 31
0.0
  0
LINE
  5
83C0
  8
FUTO
 10
9899.7447341950465
 20
7201.356452087537
 30
0.0
 11
11019.122861334001
 21
5618.9555520363292
 31
0.0
  0
LINE
  5
83C1
  8
FUTO
 10
10683.17713226365
 20
5337.1218867088564
 30
0.0
 11
9319.4748385280836
 21
6714.5528483400867
 31
0.0
  0
LINE
  5
83C2
  8
FUTO
 10
13077.4753024939
 20
8120.9043144659136
 30
0.0
 11
14413.8753024939
 21
8120.9043144659136
 31
0.0
  0
LINE
  5
83C3
  8
KL
 10
10115.61659550924
 20
5910.3961706319751
 30
0.0
 11
9975.1696590407919
 21
6873.9043144659154
 31
0.0
  0
LINE
  5
83D6
  8
CT
 10
9492.0030052207039
 20
8120.9043144659136
 30
0.0
 11
9589.5177861500706
 21
8120.9043144659136
 31
0.0
  0
DIMENSION
  5
83D7
  8
SP
  2
*D16
 10
8181.8987344147936
 20
6981.9043144659126
 30
0.0
 11
8094.3987344147927
 21
7551.4043144659136
 31
0.0
 70
     0
 13
9492.0030052207039
 23
8120.9043144659136
 33
0.0
 14
8279.8549498826978
 24
6981.9043144659126
 34
0.0
 50
90.0
1001
ACAD
1000
DSTYLE
1002
{
1070
    40
1040
35.0
1070
    41
1040
2.5
1070
   147
1040
1.0
1002
}
  0
DIMENSION
  5
83E5
  8
SP
  2
*D17
 10
8181.8987344147936
 20
5081.9043144659126
 30
0.0
 11
8094.3987344147927
 21
6031.9043144659154
 31
0.0
 70
     0
 13
8279.8549498826978
 23
6981.9043144659126
 33
0.0
 14
8639.5177861500706
 24
5081.9043144659126
 34
0.0
 50
90.0
1001
ACAD
1000
DSTYLE
1002
{
1070
    40
1040
35.0
1070
    41
1040
2.5
1070
   147
1040
1.0
1002
}
  0
DIMENSION
  5
83F2
  8
SP
  2
*D18
 10
8544.5177861500724
 20
8441.4783360828878
 30
0.0
 11
9067.0177861500706
 21
8528.9783360828878
 31
0.0
 70
     0
 13
9589.5177861500706
 23
8377.616537537162
 33
0.0
 14
8544.5177861500724
 24
7004.9043144659136
 34
0.0
1001
ACAD
1000
DSTYLE
1002
{
1070
    40
1040
35.0
1070
    41
1040
2.5
1070
   147
1040
1.0
1002
}
  0
TEXT
  5
8DF5
  8
SP
 10
16051.206575026919
 20
7155.3534776899269
 30
0.0
 40
100.0
  1
 
  0
LINE
  5
8DF6
  8
4
 10
15152.45700605375
 20
3554.300250401388
 30
0.0
 11
15152.45700605375
 21
2554.300250401388
 31
0.0
  0
LINE
  5
8DF7
  8
4
 10
11652.45700605375
 20
3554.300250401388
 30
0.0
 11
11652.45700605375
 21
2554.300250401388
 31
0.0
  0
LINE
  5
8DF8
  8
4
 10
9152.4570060537553
 20
3554.300250401388
 30
0.0
 11
9152.4570060537553
 21
2554.300250401388
 31
0.0
  0
LINE
  5
8DFB
  8
4
 10
9152.4570060537553
 20
2554.300250401388
 30
0.0
 11
15152.45700605375
 21
2554.300250401388
 31
0.0
  0
LINE
  5
8DFC
  8
4
 10
9152.4570060537553
 20
3054.300250401388
 30
0.0
 11
15152.45700605375
 21
3054.300250401388
 31
0.0
  0
TEXT
  5
8DFD
  8
4
 10
9344.9674102882746
 20
3212.015379734456
 30
0.0
 40
250.0
  1
機器名称
  0
TEXT
  5
8DFE
  8
4
 10
9333.7475361777506
 20
2662.5260340614432
 30
0.0
 40
250.0
  1
機器型番
  0
TEXT
  5
8DFF
  8
4
 10
11676.42231455896
 20
3165.2367621861249
 30
0.0
 40
225.0
  1
ミツヤリミットロードファン
  0
TEXT
  5
8E00
  8
4
 10
11835.729483981169
 20
2640.0981718011049
 30
0.0
 40
250.0
  1
LL#10-1
  0
TEXT
  5
8E02
  8
4
 10
9915.5557976028704
 20
12971.444457063961
 30
0.0
 40
270.0
  1
床置ベット
  0
TEXT
  5
8E03
  8
4
 10
7483.2949727009882
 20
13723.705131397881
 30
0.0
 40
360.0
  1
遠心式片吸込片持リミットロードファン
  0
LINE
  5
8E04
  8
4
 10
7152.4570060537553
 20
13401.34402172541
 30
0.0
 11
15152.45700605375
 21
13401.34402172541
 31
0.0
  0
LINE
  5
8E05
  8
4
 10
7152.4570060537553
 20
14401.34402172541
 30
0.0
 11
15152.45700605375
 21
14401.34402172541
 31
0.0
  0
LINE
  5
8E06
  8
4
 10
9152.4570060537553
 20
3554.300250401388
 30
0.0
 11
15152.45700605375
 21
3554.300250401388
 31
0.0
  0
LINE
  5
8E07
  8
4
 10
7152.4570060537553
 20
14401.34402172541
 30
0.0
 11
7152.4570060537553
 21
13401.34402172541
 31
0.0
  0
TEXT
  5
8E08
  8
4
 10
7598.3245868091217
 20
12965.897638133099
 30
0.0
 40
270.0
  1
右回転左横向
  0
TEXT
  5
8E09
  8
4
 10
13247.304802300199
 20
14584.60565787793
 30
0.0
 40
280.0
  1
No.
  0
TEXT
  5
8E0A
  8
4
 10
13314.23622931052
 20
12475.17961405377
 30
0.0
 40
270.0
  1
縮尺：1/50
  0
LINE
  5
8E0B
  8
4
 10
15152.45700605375
 20
14401.34402172541
 30
0.0
 11
15152.45700605375
 21
13401.34402172541
 31
0.0
  0
LINE
  5
8E0C
  8
4
 10
16402.457006053752
 20
15804.300250401389
 30
0.0
 11
16402.457006053752
 21
15804.300250401389
 31
0.0
  0
LINE
  5
8E0D
  8
4
 10
13105.544117853069
 20
14460.618166028389
 30
0.0
 11
13105.544117853069
 21
14987.56155815015
 31
0.0
  0
LINE
  5
8E0E
  8
4
 10
13105.544117853069
 20
14987.56155815015
 30
0.0
 11
15152.45700605375
 21
14987.56155815015
 31
0.0
  0
LINE
  5
8E0F
  8
4
 10
15152.45700605375
 20
14987.56155815015
 30
0.0
 11
15152.45700605375
 21
14460.618166028389
 31
0.0
  0
LINE
  5
8E10
  8
4
 10
15152.45700605375
 20
14460.618166028389
 30
0.0
 11
13105.544117853069
 21
14460.618166028389
 31
0.0
  0
LINE
  5
8E11
  8
4
 10
5902.4570060537553
 20
1054.300250401388
 30
0.0
 11
5902.4570060537553
 21
15804.300250401389
 31
0.0
  0
LINE
  5
8E12
  8
4
 10
5902.4570060537553
 20
15804.300250401389
 30
0.0
 11
16402.457006053752
 21
15804.300250401389
 31
0.0
  0
LINE
  5
8E13
  8
4
 10
16402.457006053752
 20
15804.300250401389
 30
0.0
 11
16402.457006053752
 21
1054.300250401388
 31
0.0
  0
LINE
  5
8E14
  8
4
 10
16402.457006053752
 20
1054.300250401388
 30
0.0
 11
5902.4570060537553
 21
1054.300250401388
 31
0.0
  0
ENDSEC
  0
EOF
