  0
SECTION
  2
HEADER
  9
$ACADVER
  1
AC1009
  9
$INSBASE
 10
0.0
 20
0.0
 30
0.0
  9
$EXTMIN
 10
8096.8595523872063
 20
1675.09584040409
 30
0.0
  9
$EXTMAX
 10
18596.859552387199
 20
16425.09584040409
 30
0.0
  9
$LIMMIN
 10
0.0
 20
0.0
  9
$LIMMAX
 10
297.0
 20
210.0
  9
$ORTHOMODE
 70
     0
  9
$REGENMODE
 70
     1
  9
$FILLMODE
 70
     1
  9
$QTEXTMODE
 70
     0
  9
$MIRRTEXT
 70
     0
  9
$DRAGMODE
 70
     2
  9
$LTSCALE
 40
175.0
  9
$OSMODE
 70
    37
  9
$ATTMODE
 70
     1
  9
$TEXTSIZE
 40
150.0
  9
$TRACEWID
 40
0.05
  9
$TEXTSTYLE
  7
STANDARD
  9
$CLAYER
  8
FUTO
  9
$CELTYPE
  6
BYLAYER
  9
$CECOLOR
 62
   256
  9
$DIMSCALE
 40
35.0
  9
$DIMASZ
 40
2.5
  9
$DIMEXO
 40
1.0
  9
$DIMDLI
 40
10.0
  9
$DIMRND
 40
0.0
  9
$DIMDLE
 40
0.0
  9
$DIMEXE
 40
1.0
  9
$DIMTP
 40
0.0
  9
$DIMTM
 40
0.0
  9
$DIMTXT
 40
3.0
  9
$DIMCEN
 40
0.0
  9
$DIMTSZ
 40
0.0
  9
$DIMTOL
 70
     0
  9
$DIMLIM
 70
     0
  9
$DIMTIH
 70
     0
  9
$DIMTOH
 70
     0
  9
$DIMSE1
 70
     0
  9
$DIMSE2
 70
     0
  9
$DIMTAD
 70
     1
  9
$DIMZIN
 70
     8
  9
$DIMBLK
  1

  9
$DIMASO
 70
     1
  9
$DIMSHO
 70
     1
  9
$DIMPOST
  1

  9
$DIMAPOST
  1

  9
$DIMALT
 70
     0
  9
$DIMALTD
 70
     2
  9
$DIMALTF
 40
0.03937
  9
$DIMLFAC
 40
1.0
  9
$DIMTOFL
 70
     1
  9
$DIMTVP
 40
0.0
  9
$DIMTIX
 70
     0
  9
$DIMSOXD
 70
     0
  9
$DIMSAH
 70
     1
  9
$DIMBLK1
  1
OPEN
  9
$DIMBLK2
  1
OPEN
  9
$DIMSTYLE
  2
MATSU
  9
$DIMCLRD
 70
   256
  9
$DIMCLRE
 70
   256
  9
$DIMCLRT
 70
   256
  9
$DIMTFAC
 40
1.0
  9
$DIMGAP
 40
1.0
  9
$LUNITS
 70
     2
  9
$LUPREC
 70
     4
  9
$SKETCHINC
 40
0.1
  9
$FILLETRAD
 40
30.0
  9
$AUNITS
 70
     0
  9
$AUPREC
 70
     2
  9
$MENU
  1
acad
  9
$ELEVATION
 40
0.0
  9
$PELEVATION
 40
0.0
  9
$THICKNESS
 40
0.0
  9
$LIMCHECK
 70
     0
  9
$BLIPMODE
 70
     0
  9
$CHAMFERA
 40
8.0
  9
$CHAMFERB
 40
8.0
  9
$SKPOLY
 70
     0
  9
$TDCREATE
 40
2453957.375965347
  9
$TDUPDATE
 40
2454953.6494563771
  9
$TDINDWG
 40
0.135498588
  9
$TDUSRTIMER
 40
0.135498588
  9
$USRTIMER
 70
     1
  9
$ANGBASE
 50
0.0
  9
$ANGDIR
 70
     0
  9
$PDMODE
 70
     0
  9
$PDSIZE
 40
1.0
  9
$PLINEWID
 40
0.0
  9
$COORDS
 70
     1
  9
$SPLFRAME
 70
     0
  9
$SPLINETYPE
 70
     6
  9
$SPLINESEGS
 70
     8
  9
$ATTDIA
 70
     0
  9
$ATTREQ
 70
     1
  9
$HANDLING
 70
 10241
  9
$HANDSEED
  5
8D61
  9
$SURFTAB1
 70
     6
  9
$SURFTAB2
 70
     6
  9
$SURFTYPE
 70
     6
  9
$SURFU
 70
     6
  9
$SURFV
 70
     6
  9
$UCSNAME
  2

  9
$UCSORG
 10
0.0
 20
-0.0000000000000142
 30
0.0
  9
$UCSXDIR
 10
1.0
 20
0.0
 30
0.0
  9
$UCSYDIR
 10
0.0
 20
1.0
 30
0.0
  9
$PUCSNAME
  2

  9
$PUCSORG
 10
0.0
 20
0.0
 30
0.0
  9
$PUCSXDIR
 10
1.0
 20
0.0
 30
0.0
  9
$PUCSYDIR
 10
0.0
 20
1.0
 30
0.0
  9
$USERI1
 70
     0
  9
$USERI2
 70
     0
  9
$USERI3
 70
     0
  9
$USERI4
 70
     0
  9
$USERI5
 70
     0
  9
$USERR1
 40
0.0
  9
$USERR2
 40
0.0
  9
$USERR3
 40
0.0
  9
$USERR4
 40
0.0
  9
$USERR5
 40
0.0
  9
$WORLDVIEW
 70
     1
  9
$SHADEDGE
 70
     3
  9
$SHADEDIF
 70
    70
  9
$TILEMODE
 70
     1
  9
$MAXACTVP
 70
    16
  9
$PLIMCHECK
 70
     0
  9
$PEXTMIN
 10
1.0000000000000000E+020
 20
1.0000000000000000E+020
 30
1.0000000000000000E+020
  9
$PEXTMAX
 10
-1.0000000000000000E+020
 20
-1.0000000000000000E+020
 30
-1.0000000000000000E+020
  9
$PLIMMIN
 10
0.0
 20
0.0
  9
$PLIMMAX
 10
12.0
 20
9.0
  9
$UNITMODE
 70
     0
  9
$VISRETAIN
 70
     0
  9
$PLINEGEN
 70
     0
  9
$PSLTSCALE
 70
     0
  0
ENDSEC
  0
SECTION
  2
TABLES
  0
TABLE
  2
VPORT
 70
     2
  0
VPORT
  2
*ACTIVE
 70
     0
 10
0.0
 20
0.0
 11
1.0
 21
1.0
 12
17709.481019104489
 22
3372.5679531355631
 13
0.0
 23
0.0
 14
5.0
 24
5.0
 15
0.0
 25
0.0
 16
0.0
 26
0.0
 36
1.0
 17
0.0
 27
0.0
 37
0.0
 40
4134.6282051766884
 41
3.1666666666666661
 42
50.0
 43
0.0
 44
0.0
 50
0.0
 51
0.0
 71
     0
 72
   100
 73
     1
 74
     0
 75
     0
 76
     1
 77
     0
 78
     0
  0
ENDTAB
  0
TABLE
  2
LTYPE
 70
     4
  0
LTYPE
  2
CONTINUOUS
 70
     0
  3
Solid line
 72
    65
 73
     0
 40
0.0
  0
LTYPE
  2
CENTER
 70
     0
  3
____ _ ____ _ ____ _ ____ _ ____ _ ____ _ ____ 
 72
    65
 73
     4
 40
2.0
 49
1.25
 49
-0.25
 49
0.25
 49
-0.25
  0
LTYPE
  2
HIDDEN
 70
     0
  3
__ __ __ __ __ __ __ __ __ __ __ __ __ __ __ __
 72
    65
 73
     2
 40
0.375
 49
0.25
 49
-0.125
  0
LTYPE
  2
PHANTOM
 70
     0
  3
______  __  __  ______  __  __  ______  __  __ 
 72
    65
 73
     6
 40
2.5
 49
1.25
 49
-0.25
 49
0.25
 49
-0.25
 49
0.25
 49
-0.25
  0
ENDTAB
  0
TABLE
  2
LAYER
 70
     9
  0
LAYER
  2
0
 70
     0
 62
     7
  6
CONTINUOUS
  0
LAYER
  2
CT
 70
     0
 62
     3
  6
CENTER
  0
LAYER
  2
FUTO
 70
     0
 62
     4
  6
CONTINUOUS
  0
LAYER
  2
HOSO
 70
     0
 62
     7
  6
CONTINUOUS
  0
LAYER
  2
KL
 70
     0
 62
     7
  6
HIDDEN
  0
LAYER
  2
SL
 70
     0
 62
     1
  6
PHANTOM
  0
LAYER
  2
SP
 70
     0
 62
     2
  6
CONTINUOUS
  0
LAYER
  2
DEFPOINTS
 70
     0
 62
     7
  6
CONTINUOUS
  0
LAYER
  2
4
 70
     0
 62
     7
  6
CONTINUOUS
  0
ENDTAB
  0
TABLE
  2
STYLE
 70
     1
  0
STYLE
  2
STANDARD
 70
     0
 40
0.0
 41
1.0
 50
15.0
 71
     0
 42
150.0
  3
C:\Program Files\AutoCAD LT\simplex.shx
  4
extfont.shx
  0
ENDTAB
  0
TABLE
  2
VIEW
 70
     0
  0
ENDTAB
  0
TABLE
  2
UCS
 70
     0
  0
ENDTAB
  0
TABLE
  2
APPID
 70
     1
  0
APPID
  2
ACAD
 70
     0
  0
ENDTAB
  0
TABLE
  2
DIMSTYLE
 70
     2
  0
DIMSTYLE
  2
STANDARD
 70
     0
  3

  4

  5

  6

  7

 40
1.0
 41
0.18
 42
0.0625
 43
0.38
 44
0.18
 45
0.0
 46
0.0
 47
0.0
 48
0.0
140
0.18
141
0.09
142
0.0
143
25.399999999999999
144
1.0
145
0.0
146
1.0
147
0.09
 71
     0
 72
     0
 73
     1
 74
     1
 75
     0
 76
     0
 77
     0
 78
     0
170
     0
171
     2
172
     0
173
     0
174
     0
175
     0
176
     0
177
     0
178
     0
  0
DIMSTYLE
  2
MATSU
 70
     0
  3

  4

  5

  6
OPEN
  7
OPEN
 40
1.0
 41
2.0
 42
1.0
 43
10.0
 44
1.0
 45
0.0
 46
0.0
 47
0.0
 48
0.0
140
3.0
141
0.0
142
0.0
143
0.03937
144
1.0
145
0.0
146
1.0
147
0.5
 71
     0
 72
     0
 73
     0
 74
     0
 75
     0
 76
     0
 77
     1
 78
     8
170
     0
171
     2
172
     1
173
     1
174
     0
175
     0
176
   256
177
   256
178
   256
  0
ENDTAB
  0
ENDSEC
  0
SECTION
  2
BLOCKS
  0
BLOCK
  8
0
  2
$MODEL_SPACE
 70
     0
 10
0.0
 20
0.0
 30
0.0
  3
$MODEL_SPACE
  1

  0
ENDBLK
  5
1B
  8
0
  0
BLOCK
 67
     1
  8
0
  2
$PAPER_SPACE
 70
     0
 10
0.0
 20
0.0
 30
0.0
  3
$PAPER_SPACE
  1

  0
ENDBLK
  5
18
 67
     1
  8
0
  0
BLOCK
  8
0
  2
_OPEN
 70
     0
 10
0.0
 20
0.0
 30
0.0
  3
_OPEN
  1

  0
LINE
  5
28
  8
0
  6
BYBLOCK
 62
     0
 10
-1.0
 20
0.1666666666666666
 30
0.0
 11
0.0
 21
0.0
 31
0.0
  0
LINE
  5
29
  8
0
  6
BYBLOCK
 62
     0
 10
0.0
 20
0.0
 30
0.0
 11
-1.0
 21
-0.1666666666666666
 31
0.0
  0
LINE
  5
2A
  8
0
  6
BYBLOCK
 62
     0
 10
0.0
 20
0.0
 30
0.0
 11
-1.0
 21
0.0
 31
0.0
  0
ENDBLK
  5
2B
  8
0
  0
BLOCK
  8
0
  2
まっすぐの矢印
 70
     0
 10
0.0
 20
0.0
 30
0.0
  3
まっすぐの矢印
  1

  0
LINE
  5
56E2
  8
SP
 10
0.6962157491662495
 20
-2.216890595009601
 30
0.0
 11
0.6962157491662495
 21
-5.0
 31
0.0
  0
LINE
  5
56E3
  8
SP
 10
0.6962157491662495
 20
-5.0
 30
0.0
 11
-0.6962157491662495
 21
-5.0
 31
0.0
  0
LINE
  5
56E4
  8
SP
 10
-0.6962157491662495
 20
-5.0
 30
0.0
 11
-0.6962157491662495
 21
-2.216890595009601
 31
0.0
  0
LINE
  5
56E5
  8
SP
 10
-0.6962157491662495
 20
-2.216890595009601
 30
0.0
 11
-1.7145256852758151
 21
-2.216890595009601
 31
0.0
  0
LINE
  5
56E6
  8
SP
 10
-1.7145256852758151
 20
-2.216890595009601
 30
0.0
 11
0.0
 21
0.0
 31
0.0
  0
LINE
  5
56E7
  8
SP
 10
0.0
 20
0.0
 30
0.0
 11
1.7145256852758151
 21
-2.216890595009601
 31
0.0
  0
LINE
  5
56E8
  8
SP
 10
1.7145256852758151
 20
-2.216890595009601
 30
0.0
 11
0.6962157491662495
 21
-2.216890595009601
 31
0.0
  0
ENDBLK
  5
56EA
  8
0
  0
BLOCK
  8
0
  2
右回転矢印
 70
     0
 10
0.0
 20
0.0
 30
0.0
  3
右回転矢印
  1

  0
LINE
  5
56EC
  8
SP
 10
-2.7705290305565882
 20
1.567794835092901
 30
0.0
 11
-2.4288000558398148
 21
2.8051227455822878
 31
0.0
  0
LINE
  5
56ED
  8
SP
 10
-2.4288000558398148
 20
2.8051227455822878
 30
0.0
 11
0.0
 21
0.0
 31
0.0
  0
LINE
  5
56EE
  8
SP
 10
0.0
 20
0.0
 30
0.0
 11
-3.3160037613098718
 21
-0.4072531086382499
 31
0.0
  0
LINE
  5
56EF
  8
SP
 10
-3.3160037613098718
 20
-0.4072531086382499
 30
0.0
 11
-3.0391574735299112
 21
0.5951483970269315
 31
0.0
  0
ARC
  5
56F0
  8
SP
 10
-5.9215210782018062
 20
-9.8412769578768184
 30
0.0
 40
10.82714154973578
 50
74.560750721316467
 51
112.11861101078711
  0
LINE
  5
56F1
  8
SP
 10
-9.9982127316752951
 20
0.1890560027239694
 30
0.0
 11
-10.37814929817227
 21
1.1238557349100611
 31
0.0
  0
ARC
  5
56F2
  8
SP
 10
-5.9215210782018062
 20
-9.8412769578768291
 30
0.0
 40
11.83620167374065
 50
74.560750721316396
 51
112.11861101078701
  0
ENDBLK
  5
56F4
  8
0
  0
BLOCK
  8
0
  2
*D3
 70
     1
 10
0.0
 20
0.0
 30
0.0
  3
*D3
  1

  0
LINE
  5
8CEA
  8
SP
 10
12950.701659750041
 20
6073.3347929509519
 30
0.0
 11
12950.701659750041
 21
5822.8224827678496
 31
0.0
  0
LINE
  5
8CEB
  8
SP
 10
12000.701659750041
 20
6073.3347929509519
 30
0.0
 11
12000.701659750041
 21
5822.8224827678496
 31
0.0
  0
LINE
  5
8CEC
  8
SP
 10
12863.201659750041
 20
5857.8224827678496
 30
0.0
 11
12088.201659750041
 21
5857.8224827678496
 31
0.0
  0
INSERT
  5
8CED
  8
SP
  2
_OPEN
 10
12950.701659750041
 20
5857.8224827678496
 30
0.0
 41
87.5
 42
87.5
 43
87.5
  0
INSERT
  5
8CEE
  8
SP
  2
_OPEN
 10
12000.701659750041
 20
5857.8224827678496
 30
0.0
 41
87.5
 42
87.5
 43
87.5
 50
180.0
  0
TEXT
  5
8CEF
  8
FUTO
 10
12327.304200128479
 20
5892.8224827678496
 30
0.0
 40
105.0
  1
950
 51
15.0
  0
POINT
  5
8CF0
  8
DEFPOINTS
 62
     0
 10
12950.701659750041
 20
6108.3347929509528
 30
0.0
  0
POINT
  5
8CF1
  8
DEFPOINTS
 62
     0
 10
12000.701659750041
 20
6108.3347929509528
 30
0.0
  0
POINT
  5
8CF2
  8
DEFPOINTS
 62
     0
 10
12000.701659750041
 20
5857.8224827678496
 30
0.0
  0
ENDBLK
  5
6A60
  8
0
  0
BLOCK
  8
0
  2
*D4
 70
     1
 10
0.0
 20
0.0
 30
0.0
  3
*D4
  1

  0
LINE
  5
8CCF
  8
SP
 10
12000.701659750041
 20
6073.3347929509519
 30
0.0
 11
12000.701659750041
 21
5822.8224827678496
 31
0.0
  0
LINE
  5
8CD0
  8
SP
 10
10450.701659750041
 20
6073.3347929509519
 30
0.0
 11
10450.701659750041
 21
5822.8224827678496
 31
0.0
  0
LINE
  5
8CD1
  8
SP
 10
11913.201659750041
 20
5857.8224827678496
 30
0.0
 11
10538.201659750041
 21
5857.8224827678496
 31
0.0
  0
INSERT
  5
8CD2
  8
SP
  2
_OPEN
 10
12000.701659750041
 20
5857.8224827678496
 30
0.0
 41
87.5
 42
87.5
 43
87.5
  0
INSERT
  5
8CD3
  8
SP
  2
_OPEN
 10
10450.701659750041
 20
5857.8224827678496
 30
0.0
 41
87.5
 42
87.5
 43
87.5
 50
180.0
  0
TEXT
  5
8CD4
  8
FUTO
 10
11030.42597839339
 20
5892.8224827678496
 30
0.0
 40
105.0
  1
1550
 51
15.0
  0
POINT
  5
8CD5
  8
DEFPOINTS
 62
     0
 10
12000.701659750041
 20
6108.3347929509528
 30
0.0
  0
POINT
  5
8CD6
  8
DEFPOINTS
 62
     0
 10
10450.701659750041
 20
6108.3347929509528
 30
0.0
  0
POINT
  5
8CD7
  8
DEFPOINTS
 62
     0
 10
10450.701659750041
 20
5857.8224827678496
 30
0.0
  0
ENDBLK
  5
6A6D
  8
0
  0
BLOCK
  8
0
  2
*D5
 70
     1
 10
0.0
 20
0.0
 30
0.0
  3
*D5
  1

  0
LINE
  5
8CC6
  8
SP
 10
12950.701659750041
 20
6073.3347929509519
 30
0.0
 11
12950.701659750041
 21
5572.7347387701921
 31
0.0
  0
LINE
  5
8CC7
  8
SP
 10
10450.701659750041
 20
6073.3347929509519
 30
0.0
 11
10450.701659750041
 21
5572.7347387701921
 31
0.0
  0
LINE
  5
8CC8
  8
SP
 10
12863.201659750041
 20
5607.7347387701921
 30
0.0
 11
10538.201659750041
 21
5607.7347387701921
 31
0.0
  0
INSERT
  5
8CC9
  8
SP
  2
_OPEN
 10
12950.701659750041
 20
5607.7347387701921
 30
0.0
 41
87.5
 42
87.5
 43
87.5
  0
INSERT
  5
8CCA
  8
SP
  2
_OPEN
 10
10450.701659750041
 20
5607.7347387701921
 30
0.0
 41
87.5
 42
87.5
 43
87.5
 50
180.0
  0
TEXT
  5
8CCB
  8
FUTO
 10
11506.813819071711
 20
5642.7347387701921
 30
0.0
 40
105.0
  1
2500
 51
15.0
  0
POINT
  5
8CCC
  8
DEFPOINTS
 62
     0
 10
12950.701659750041
 20
6108.3347929509528
 30
0.0
  0
POINT
  5
8CCD
  8
DEFPOINTS
 62
     0
 10
10450.701659750041
 20
6108.3347929509528
 30
0.0
  0
POINT
  5
8CCE
  8
DEFPOINTS
 62
     0
 10
10450.701659750041
 20
5607.7347387701921
 30
0.0
  0
ENDBLK
  5
6A7A
  8
0
  0
BLOCK
  8
0
  2
*D6
 70
     1
 10
0.0
 20
0.0
 30
0.0
  3
*D6
  1

  0
LINE
  5
8D28
  8
SP
 10
14376.90845036576
 20
6073.3347929509519
 30
0.0
 11
14376.90845036576
 21
5822.8224593800114
 31
0.0
  0
LINE
  5
8D29
  8
SP
 10
16007.90845036576
 20
6073.3347929509519
 30
0.0
 11
16007.90845036576
 21
5822.8224593800114
 31
0.0
  0
LINE
  5
8D2A
  8
SP
 10
14464.40845036576
 20
5857.8224593800114
 30
0.0
 11
15920.40845036576
 21
5857.8224593800114
 31
0.0
  0
INSERT
  5
8D2B
  8
SP
  2
_OPEN
 10
14376.90845036576
 20
5857.8224593800114
 30
0.0
 41
87.5
 42
87.5
 43
87.5
 50
180.0
  0
INSERT
  5
8D2C
  8
SP
  2
_OPEN
 10
16007.90845036576
 20
5857.8224593800114
 30
0.0
 41
87.5
 42
87.5
 43
87.5
  0
TEXT
  5
8D2D
  8
FUTO
 10
15014.453277084811
 20
5892.8224593800123
 30
0.0
 40
105.0
  1
1631
 51
15.0
  0
POINT
  5
8D2E
  8
DEFPOINTS
 62
     0
 10
14376.90845036576
 20
6108.3347929509519
 30
0.0
  0
POINT
  5
8D2F
  8
DEFPOINTS
 62
     0
 10
16007.90845036576
 20
6108.3347929509528
 30
0.0
  0
POINT
  5
8D30
  8
DEFPOINTS
 62
     0
 10
16007.90845036576
 20
5857.8224593800114
 30
0.0
  0
ENDBLK
  5
6A87
  8
0
  0
BLOCK
  8
0
  2
*D7
 70
     1
 10
0.0
 20
0.0
 30
0.0
  3
*D7
  1

  0
LINE
  5
8D3A
  8
SP
 10
16007.90845036576
 20
6073.3347929509519
 30
0.0
 11
16007.90845036576
 21
5822.8224593800114
 31
0.0
  0
LINE
  5
8D3B
  8
SP
 10
16676.908450365761
 20
6073.3347929509519
 30
0.0
 11
16676.908450365761
 21
5822.8224593800114
 31
0.0
  0
LINE
  5
8D3C
  8
SP
 10
16095.40845036576
 20
5857.8224593800114
 30
0.0
 11
16589.408450365761
 21
5857.8224593800114
 31
0.0
  0
INSERT
  5
8D3D
  8
SP
  2
_OPEN
 10
16007.90845036576
 20
5857.8224593800114
 30
0.0
 41
87.5
 42
87.5
 43
87.5
 50
180.0
  0
INSERT
  5
8D3E
  8
SP
  2
_OPEN
 10
16676.908450365761
 20
5857.8224593800114
 30
0.0
 41
87.5
 42
87.5
 43
87.5
  0
TEXT
  5
8D3F
  8
FUTO
 10
16195.84111776313
 20
5892.8224593800123
 30
0.0
 40
105.0
  1
669
 51
15.0
  0
POINT
  5
8D40
  8
DEFPOINTS
 62
     0
 10
16007.90845036576
 20
6108.3347929509528
 30
0.0
  0
POINT
  5
8D41
  8
DEFPOINTS
 62
     0
 10
16676.908450365761
 20
6108.3347929509519
 30
0.0
  0
POINT
  5
8D42
  8
DEFPOINTS
 62
     0
 10
16676.908450365761
 20
5857.8224593800114
 30
0.0
  0
ENDBLK
  5
6A94
  8
0
  0
BLOCK
  8
0
  2
*D8
 70
     1
 10
0.0
 20
0.0
 30
0.0
  3
*D8
  1

  0
LINE
  5
8D1F
  8
SP
 10
14376.90845036576
 20
6073.3347929509519
 30
0.0
 11
14376.90845036576
 21
5572.734715382353
 31
0.0
  0
LINE
  5
8D20
  8
SP
 10
16676.908450365761
 20
6073.3347929509519
 30
0.0
 11
16676.908450365761
 21
5572.734715382353
 31
0.0
  0
LINE
  5
8D21
  8
SP
 10
14464.40845036576
 20
5607.7347153823539
 30
0.0
 11
16589.408450365761
 21
5607.7347153823539
 31
0.0
  0
INSERT
  5
8D22
  8
SP
  2
_OPEN
 10
14376.90845036576
 20
5607.7347153823539
 30
0.0
 41
87.5
 42
87.5
 43
87.5
 50
180.0
  0
INSERT
  5
8D23
  8
SP
  2
_OPEN
 10
16676.908450365761
 20
5607.7347153823539
 30
0.0
 41
87.5
 42
87.5
 43
87.5
  0
TEXT
  5
8D24
  8
FUTO
 10
15333.020609687441
 20
5642.7347153823539
 30
0.0
 40
105.0
  1
2300
 51
15.0
  0
POINT
  5
8D25
  8
DEFPOINTS
 62
     0
 10
14376.90845036576
 20
6108.3347929509519
 30
0.0
  0
POINT
  5
8D26
  8
DEFPOINTS
 62
     0
 10
16676.908450365761
 20
6108.3347929509519
 30
0.0
  0
POINT
  5
8D27
  8
DEFPOINTS
 62
     0
 10
16676.908450365761
 20
5607.7347153823539
 30
0.0
  0
ENDBLK
  5
6AA1
  8
0
  0
BLOCK
  8
0
  2
*D9
 70
     1
 10
0.0
 20
0.0
 30
0.0
  3
*D9
  1

  0
LINE
  5
8D43
  8
SP
 10
16007.90845036576
 20
8865.5937950798016
 30
0.0
 11
16007.90845036576
 21
8911.5661746287697
 31
0.0
  0
LINE
  5
8D44
  8
SP
 10
16732.908450365761
 20
8408.3347929509528
 30
0.0
 11
16732.908450365761
 21
8911.5661746287697
 31
0.0
  0
LINE
  5
8D45
  8
SP
 10
16095.40845036576
 20
8876.5661746287697
 30
0.0
 11
16645.408450365761
 21
8876.5661746287697
 31
0.0
  0
INSERT
  5
8D46
  8
SP
  2
_OPEN
 10
16007.90845036576
 20
8876.5661746287697
 30
0.0
 41
87.5
 42
87.5
 43
87.5
 50
180.0
  0
INSERT
  5
8D47
  8
SP
  2
_OPEN
 10
16732.908450365761
 20
8876.5661746287697
 30
0.0
 41
87.5
 42
87.5
 43
87.5
  0
TEXT
  5
8D48
  8
FUTO
 10
16216.34111776313
 20
8911.5661746287697
 30
0.0
 40
105.0
  1
725
 51
15.0
  0
POINT
  5
8D49
  8
DEFPOINTS
 62
     0
 10
16007.90845036576
 20
8830.5937950798016
 30
0.0
  0
POINT
  5
8D4A
  8
DEFPOINTS
 62
     0
 10
16732.908450365761
 20
8373.3347929509546
 30
0.0
  0
POINT
  5
8D4B
  8
DEFPOINTS
 62
     0
 10
16732.908450365761
 20
8876.5661746287697
 30
0.0
  0
ENDBLK
  5
6AFF
  8
0
  0
BLOCK
  8
0
  2
*D10
 70
     1
 10
0.0
 20
0.0
 30
0.0
  3
*D10
  1

  0
LINE
  5
8D31
  8
SP
 10
16767.908450365761
 20
8308.3347929509528
 30
0.0
 11
17047.101851567641
 21
8308.3347929509528
 31
0.0
  0
LINE
  5
8D32
  8
SP
 10
16767.908450365761
 20
6708.3347929509528
 30
0.0
 11
17047.101851567641
 21
6708.3347929509528
 31
0.0
  0
LINE
  5
8D33
  8
SP
 10
17012.101851567641
 20
8220.8347929509528
 30
0.0
 11
17012.101851567641
 21
6795.8347929509528
 31
0.0
  0
INSERT
  5
8D34
  8
SP
  2
_OPEN
 10
17012.101851567641
 20
8308.3347929509528
 30
0.0
 41
87.5
 42
87.5
 43
87.5
 50
90.0
  0
INSERT
  5
8D35
  8
SP
  2
_OPEN
 10
17012.101851567641
 20
6708.3347929509528
 30
0.0
 41
87.5
 42
87.5
 43
87.5
 50
270.0
  0
TEXT
  5
8D36
  8
FUTO
 10
16977.101851567641
 20
7276.6360631401776
 30
0.0
 40
105.0
  1
φ1600
 50
90.0
 51
15.0
  0
POINT
  5
8D37
  8
DEFPOINTS
 62
     0
 10
16732.908450365761
 20
8308.3347929509528
 30
0.0
  0
POINT
  5
8D38
  8
DEFPOINTS
 62
     0
 10
16732.908450365761
 20
6708.3347929509528
 30
0.0
  0
POINT
  5
8D39
  8
DEFPOINTS
 62
     0
 10
17012.101851567641
 20
6708.3347929509528
 30
0.0
  0
ENDBLK
  5
6F63
  8
0
  0
BLOCK
  8
0
  2
*D11
 70
     1
 10
0.0
 20
0.0
 30
0.0
  3
*D11
  1

  0
LINE
  5
8D17
  8
SP
 10
14127.90845036576
 20
7923.3347929509528
 30
0.0
 11
14127.90845036576
 21
8911.5661746287697
 31
0.0
  0
LINE
  5
8D18
  8
SP
 10
14215.40845036576
 20
8876.5661746287697
 30
0.0
 11
15920.40845036576
 21
8876.5661746287697
 31
0.0
  0
INSERT
  5
8D19
  8
SP
  2
_OPEN
 10
14127.90845036576
 20
8876.5661746287697
 30
0.0
 41
87.5
 42
87.5
 43
87.5
 50
180.0
  0
INSERT
  5
8D1A
  8
SP
  2
_OPEN
 10
16007.90845036576
 20
8876.5661746287697
 30
0.0
 41
87.5
 42
87.5
 43
87.5
  0
TEXT
  5
8D1B
  8
FUTO
 10
14872.63276900912
 20
8911.5661746287697
 30
0.0
 40
105.0
  1
1880
 51
15.0
  0
POINT
  5
8D1C
  8
DEFPOINTS
 62
     0
 10
14127.90845036576
 20
7888.3347929509528
 30
0.0
  0
POINT
  5
8D1D
  8
DEFPOINTS
 62
     0
 10
16007.90845036576
 20
8876.5661746287697
 30
0.0
  0
POINT
  5
8D1E
  8
DEFPOINTS
 62
     0
 10
16007.90845036576
 20
8876.5661746287697
 30
0.0
  0
ENDBLK
  5
6FBD
  8
0
  0
BLOCK
  8
0
  2
*D12
 70
     1
 10
0.0
 20
0.0
 30
0.0
  3
*D12
  1

  0
LINE
  5
8CBD
  8
SP
 10
12000.701659750041
 20
8695.9666534643184
 30
0.0
 11
12000.701659750041
 21
8938.5011840328298
 31
0.0
  0
LINE
  5
8CBE
  8
SP
 10
10237.701659750041
 20
8588.3347929509528
 30
0.0
 11
10237.701659750041
 21
8938.5011840328298
 31
0.0
  0
LINE
  5
8CBF
  8
SP
 10
11913.201659750041
 20
8903.5011840328298
 30
0.0
 11
10325.201659750041
 21
8903.5011840328298
 31
0.0
  0
INSERT
  5
8CC0
  8
SP
  2
_OPEN
 10
12000.701659750041
 20
8903.5011840328298
 30
0.0
 41
87.5
 42
87.5
 43
87.5
  0
INSERT
  5
8CC1
  8
SP
  2
_OPEN
 10
10237.701659750041
 20
8903.5011840328298
 30
0.0
 41
87.5
 42
87.5
 43
87.5
 50
180.0
  0
TEXT
  5
8CC2
  8
FUTO
 10
10921.246486469079
 20
8938.5011840328298
 30
0.0
 40
105.0
  1
1763
 51
15.0
  0
POINT
  5
8CC3
  8
DEFPOINTS
 62
     0
 10
12000.701659750041
 20
8660.9666534643184
 30
0.0
  0
POINT
  5
8CC4
  8
DEFPOINTS
 62
     0
 10
10237.701659750041
 20
8553.3347929509546
 30
0.0
  0
POINT
  5
8CC5
  8
DEFPOINTS
 62
     0
 10
10237.701659750041
 20
8903.5011840328298
 30
0.0
  0
ENDBLK
  5
8034
  8
0
  0
BLOCK
  8
0
  2
*D13
 70
     1
 10
0.0
 20
0.0
 30
0.0
  3
*D13
  1

  0
LINE
  5
8CD8
  8
SP
 10
10415.701659750041
 20
6108.3347929509528
 30
0.0
 11
9949.5064935022929
 21
6108.3347929509528
 31
0.0
  0
LINE
  5
8CD9
  8
SP
 10
10132.343537780191
 20
7508.3347929509528
 30
0.0
 11
9949.5064935022929
 21
7508.3347929509528
 31
0.0
  0
LINE
  5
8CDA
  8
SP
 10
9984.5064935022947
 20
6195.8347929509537
 30
0.0
 11
9984.5064935022947
 21
7420.8347929509528
 31
0.0
  0
INSERT
  5
8CDB
  8
SP
  2
_OPEN
 10
9984.5064935022947
 20
6108.3347929509528
 30
0.0
 41
87.5
 42
87.5
 43
87.5
 50
270.0
  0
INSERT
  5
8CDC
  8
SP
  2
_OPEN
 10
9984.5064935022947
 20
7508.3347929509528
 30
0.0
 41
87.5
 42
87.5
 43
87.5
 50
90.0
  0
TEXT
  5
8CDD
  8
FUTO
 10
9949.5064935022892
 20
6613.0591115943071
 30
0.0
 40
105.0
  1
1400
 50
90.0
 51
15.0
  0
POINT
  5
8CDE
  8
DEFPOINTS
 62
     0
 10
10450.701659750041
 20
6108.3347929509528
 30
0.0
  0
POINT
  5
8CDF
  8
DEFPOINTS
 62
     0
 10
10167.343537780191
 20
7508.3347929509528
 30
0.0
  0
POINT
  5
8CE0
  8
DEFPOINTS
 62
     0
 10
9984.5064935022947
 20
7508.3347929509528
 30
0.0
  0
ENDBLK
  5
8052
  8
0
  0
BLOCK
  8
0
  2
*D14
 70
     1
 10
0.0
 20
0.0
 30
0.0
  3
*D14
  1

  0
LINE
  5
8CE1
  8
SP
 10
10132.343537780191
 20
7508.3347929509528
 30
0.0
 11
9949.5064935022929
 21
7508.3347929509528
 31
0.0
  0
LINE
  5
8CE2
  8
SP
 10
10202.701659750041
 20
8553.3347929509546
 30
0.0
 11
9949.5064935022929
 21
8553.3347929509546
 31
0.0
  0
LINE
  5
8CE3
  8
SP
 10
9984.5064935022947
 20
7595.8347929509519
 30
0.0
 11
9984.5064935022947
 21
8465.8347929509528
 31
0.0
  0
INSERT
  5
8CE4
  8
SP
  2
_OPEN
 10
9984.5064935022947
 20
7508.3347929509528
 30
0.0
 41
87.5
 42
87.5
 43
87.5
 50
270.0
  0
INSERT
  5
8CE5
  8
SP
  2
_OPEN
 10
9984.5064935022947
 20
8553.3347929509546
 30
0.0
 41
87.5
 42
87.5
 43
87.5
 50
90.0
  0
TEXT
  5
8CE6
  8
FUTO
 10
9949.5064935022892
 20
7835.3796196699968
 30
0.0
 40
105.0
  1
1045
 50
90.0
 51
15.0
  0
POINT
  5
8CE7
  8
DEFPOINTS
 62
     0
 10
10167.343537780191
 20
7508.3347929509528
 30
0.0
  0
POINT
  5
8CE8
  8
DEFPOINTS
 62
     0
 10
10237.701659750041
 20
8553.3347929509546
 30
0.0
  0
POINT
  5
8CE9
  8
DEFPOINTS
 62
     0
 10
9984.5064935022947
 20
8553.3347929509546
 30
0.0
  0
ENDBLK
  5
805F
  8
0
  0
BLOCK
  8
0
  2
*D15
 70
     1
 10
0.0
 20
0.0
 30
0.0
  3
*D15
  1

  0
LINE
  5
8CFC
  8
SP
 10
12000.701659750041
 20
12325.449842201269
 30
0.0
 11
12000.701659750041
 21
12600.82259784011
 31
0.0
  0
LINE
  5
8CFD
  8
SP
 10
10237.701659750041
 20
12214.6719303844
 30
0.0
 11
10237.701659750041
 21
12600.82259784011
 31
0.0
  0
LINE
  5
8CFE
  8
SP
 10
11913.201659750041
 20
12565.82259784011
 30
0.0
 11
10325.201659750041
 21
12565.82259784011
 31
0.0
  0
INSERT
  5
8CFF
  8
SP
  2
_OPEN
 10
12000.701659750041
 20
12565.82259784011
 30
0.0
 41
87.5
 42
87.5
 43
87.5
  0
INSERT
  5
8D00
  8
SP
  2
_OPEN
 10
10237.701659750041
 20
12565.82259784011
 30
0.0
 41
87.5
 42
87.5
 43
87.5
 50
180.0
  0
TEXT
  5
8D01
  8
FUTO
 10
10921.246486469079
 20
12600.82259784011
 30
0.0
 40
105.0
  1
1763
 51
15.0
  0
POINT
  5
8D02
  8
DEFPOINTS
 62
     0
 10
12000.701659750041
 20
12290.44984220126
 30
0.0
  0
POINT
  5
8D03
  8
DEFPOINTS
 62
     0
 10
10237.701659750041
 20
12179.6719303844
 30
0.0
  0
POINT
  5
8D04
  8
DEFPOINTS
 62
     0
 10
10237.701659750041
 20
12565.82259784011
 30
0.0
  0
ENDBLK
  5
8087
  8
0
  0
BLOCK
  8
0
  2
*D16
 70
     1
 10
0.0
 20
0.0
 30
0.0
  3
*D16
  1

  0
LINE
  5
8D0E
  8
SP
 10
12000.701659750041
 20
12360.449842201269
 30
0.0
 11
12000.701659750041
 21
12600.82259784011
 31
0.0
  0
LINE
  5
8D0F
  8
SP
 10
13189.701659750041
 20
12199.6719303844
 30
0.0
 11
13189.701659750041
 21
12600.82259784011
 31
0.0
  0
LINE
  5
8D10
  8
SP
 10
12088.201659750041
 20
12565.82259784011
 30
0.0
 11
13102.201659750041
 21
12565.82259784011
 31
0.0
  0
INSERT
  5
8D11
  8
SP
  2
_OPEN
 10
12000.701659750041
 20
12565.82259784011
 30
0.0
 41
87.5
 42
87.5
 43
87.5
 50
180.0
  0
INSERT
  5
8D12
  8
SP
  2
_OPEN
 10
13189.701659750041
 20
12565.82259784011
 30
0.0
 41
87.5
 42
87.5
 43
87.5
  0
TEXT
  5
8D13
  8
FUTO
 10
12411.756105412311
 20
12600.82259784011
 30
0.0
 40
105.0
  1
1189
 51
15.0
  0
POINT
  5
8D14
  8
DEFPOINTS
 62
     0
 10
12000.701659750041
 20
12325.449842201269
 30
0.0
  0
POINT
  5
8D15
  8
DEFPOINTS
 62
     0
 10
13189.701659750041
 20
12164.6719303844
 30
0.0
  0
POINT
  5
8D16
  8
DEFPOINTS
 62
     0
 10
13189.701659750041
 20
12565.82259784011
 30
0.0
  0
ENDBLK
  5
8094
  8
0
  0
BLOCK
  8
0
  2
*D17
 70
     1
 10
0.0
 20
0.0
 30
0.0
  3
*D17
  1

  0
LINE
  5
8CF3
  8
SP
 10
10202.701659750041
 20
11520.6719303844
 30
0.0
 11
9860.0818994364417
 21
11520.6719303844
 31
0.0
  0
LINE
  5
8CF4
  8
SP
 10
11100.701659750041
 20
12245.6719303844
 30
0.0
 11
9860.0818994364417
 21
12245.6719303844
 31
0.0
  0
LINE
  5
8CF5
  8
SP
 10
9895.0818994364417
 20
11608.1719303844
 30
0.0
 11
9895.0818994364417
 21
12158.1719303844
 31
0.0
  0
INSERT
  5
8CF6
  8
SP
  2
_OPEN
 10
9895.0818994364417
 20
11520.6719303844
 30
0.0
 41
87.5
 42
87.5
 43
87.5
 50
270.0
  0
INSERT
  5
8CF7
  8
SP
  2
_OPEN
 10
9895.0818994364417
 20
12245.6719303844
 30
0.0
 41
87.5
 42
87.5
 43
87.5
 50
90.0
  0
TEXT
  5
8CF8
  8
FUTO
 10
9860.0818994364399
 20
11729.10459778177
 30
0.0
 40
105.0
  1
725
 50
90.0
 51
15.0
  0
POINT
  5
8CF9
  8
DEFPOINTS
 62
     0
 10
10237.701659750041
 20
11520.6719303844
 30
0.0
  0
POINT
  5
8CFA
  8
DEFPOINTS
 62
     0
 10
11135.701659750041
 20
12245.6719303844
 30
0.0
  0
POINT
  5
8CFB
  8
DEFPOINTS
 62
     0
 10
9895.0818994364417
 20
12245.6719303844
 30
0.0
  0
ENDBLK
  5
80A1
  8
0
  0
BLOCK
  8
0
  2
*D18
 70
     1
 10
0.0
 20
0.0
 30
0.0
  3
*D18
  1

  0
LINE
  5
8D05
  8
SP
 10
10202.701659750041
 20
11520.6719303844
 30
0.0
 11
9860.0818994364417
 21
11520.6719303844
 31
0.0
  0
LINE
  5
8D06
  8
SP
 10
10512.201659750041
 20
9640.6719303844038
 30
0.0
 11
9860.0818994364417
 21
9640.6719303844038
 31
0.0
  0
LINE
  5
8D07
  8
SP
 10
9895.0818994364417
 20
11433.1719303844
 30
0.0
 11
9895.0818994364417
 21
9728.1719303844038
 31
0.0
  0
INSERT
  5
8D08
  8
SP
  2
_OPEN
 10
9895.0818994364417
 20
11520.6719303844
 30
0.0
 41
87.5
 42
87.5
 43
87.5
 50
90.0
  0
INSERT
  5
8D09
  8
SP
  2
_OPEN
 10
9895.0818994364417
 20
9640.6719303844038
 30
0.0
 41
87.5
 42
87.5
 43
87.5
 50
270.0
  0
TEXT
  5
8D0A
  8
FUTO
 10
9860.0818994364399
 20
10385.396249027761
 30
0.0
 40
105.0
  1
1880
 50
90.0
 51
15.0
  0
POINT
  5
8D0B
  8
DEFPOINTS
 62
     0
 10
10237.701659750041
 20
11520.6719303844
 30
0.0
  0
POINT
  5
8D0C
  8
DEFPOINTS
 62
     0
 10
10547.201659750041
 20
9640.6719303844038
 30
0.0
  0
POINT
  5
8D0D
  8
DEFPOINTS
 62
     0
 10
9895.0818994364417
 20
9640.6719303844038
 30
0.0
  0
ENDBLK
  5
80AE
  8
0
  0
ENDSEC
  0
SECTION
  2
ENTITIES
  0
LINE
  5
522D
  8
CT
 10
13310.36449601741
 20
7508.3347929509528
 30
0.0
 11
10167.343537780191
 21
7508.3347929509528
 31
0.0
  0
LINE
  5
522E
  8
CT
 10
12000.701659750041
 20
8660.9666534643184
 30
0.0
 11
12000.701659750041
 21
6108.3347929509528
 31
0.0
  0
ARC
  5
5232
  8
KL
 10
11884.701659750041
 20
7624.3347929509528
 30
0.0
 40
1487.0
 50
184.4741559760561
 51
270.0
  0
ARC
  5
5234
  8
KL
 10
11884.701659750041
 20
7392.3347929509528
 30
0.0
 40
1255.0
 50
270.0
 51
0.000000000000007
  0
ARC
  5
5238
  8
KL
 10
12097.701659750041
 20
7411.3347929509519
 30
0.0
 40
1042.0
 50
0.000000000000007
 51
90.0
  0
ARC
  5
5239
  8
KL
 10
12097.701659750041
 20
7605.3347929509519
 30
0.0
 40
848.0
 50
90.0
 51
123.7047429507289
  0
LINE
  5
523A
  8
FUTO
 10
11958.701659750041
 20
8553.3347929509546
 30
0.0
 11
10302.701659750041
 21
8553.3347929509546
 31
0.0
  0
LINE
  5
523C
  8
KL
 10
11955.701659750041
 20
8553.3347929509546
 30
0.0
 11
11955.701659750041
 21
8441.3611083262531
 31
0.0
  0
LINE
  5
523D
  8
KL
 10
10402.23311033659
 20
7508.3347929509537
 30
0.0
 11
10305.701659750041
 21
8553.3347929509546
 31
0.0
  0
LINE
  5
523F
  8
FUTO
 10
11973.70165975003
 20
8488.3347929509528
 30
0.0
 11
10293.62937389523
 21
8488.3347929509528
 31
0.0
  0
LINE
  5
5251
  8
FUTO
 10
11958.701659750041
 20
8553.3347929509546
 30
0.0
 11
12023.701659750041
 21
8553.3347929509546
 31
0.0
  0
LINE
  5
5252
  8
FUTO
 10
11958.701659750041
 20
8553.3347929509546
 30
0.0
 11
11958.701659750041
 21
8488.3347929509528
 31
0.0
  0
LINE
  5
5253
  8
FUTO
 10
12023.701659750041
 20
8553.3347929509546
 30
0.0
 11
12023.701659750041
 21
8551.3347929509528
 31
0.0
  0
LINE
  5
5254
  8
FUTO
 10
11958.701659750041
 20
8488.3347929509528
 30
0.0
 11
11960.701659750041
 21
8488.3347929509528
 31
0.0
  0
LINE
  5
5255
  8
FUTO
 10
11964.701659750041
 20
8538.8347929509546
 30
0.0
 11
11964.701659750041
 21
8492.3347929509546
 31
0.0
  0
LINE
  5
5256
  8
FUTO
 10
11973.201659750041
 20
8547.3347929509528
 30
0.0
 11
12019.701659750041
 21
8547.3347929509528
 31
0.0
  0
ARC
  5
5257
  8
FUTO
 10
12019.701659750041
 20
8551.3347929509528
 30
0.0
 40
4.0
 50
270.0
 51
0.000000000000007
  0
ARC
  5
5258
  8
FUTO
 10
11960.701659750041
 20
8492.3347929509546
 30
0.0
 40
4.0
 50
270.0000000000008
 51
0.000000000000007
  0
ARC
  5
5259
  8
FUTO
 10
11973.201659750041
 20
8538.8347929509546
 30
0.0
 40
8.5
 50
90.0
 51
180.0
  0
LINE
  5
525A
  8
FUTO
 10
10302.701659750041
 20
8553.3347929509546
 30
0.0
 11
10302.701659750041
 21
8488.3347929509528
 31
0.0
  0
LINE
  5
525B
  8
FUTO
 10
10302.701659750041
 20
8553.3347929509546
 30
0.0
 11
10237.701659750041
 21
8553.3347929509546
 31
0.0
  0
LINE
  5
525C
  8
FUTO
 10
10302.701659750041
 20
8488.3347929509528
 30
0.0
 11
10300.701659750041
 21
8488.3347929509528
 31
0.0
  0
LINE
  5
525D
  8
FUTO
 10
10237.701659750041
 20
8553.3347929509546
 30
0.0
 11
10237.701659750041
 21
8551.3347929509528
 31
0.0
  0
LINE
  5
525E
  8
FUTO
 10
10288.201659750041
 20
8547.3347929509528
 30
0.0
 11
10241.701659750041
 21
8547.3347929509528
 31
0.0
  0
LINE
  5
525F
  8
FUTO
 10
10296.701659750041
 20
8538.8347929509546
 30
0.0
 11
10296.701659750041
 21
8492.3347929509546
 31
0.0
  0
ARC
  5
5260
  8
FUTO
 10
10300.701659750041
 20
8492.3347929509546
 30
0.0
 40
4.0
 50
180.0
 51
270.0
  0
ARC
  5
5261
  8
FUTO
 10
10241.701659750041
 20
8551.3347929509528
 30
0.0
 40
4.0
 50
180.0000000000008
 51
270.0
  0
ARC
  5
5262
  8
FUTO
 10
10288.201659750041
 20
8538.8347929509546
 30
0.0
 40
8.5
 50
0.000000000000007
 51
90.0
  0
LINE
  5
5263
  8
FUTO
 10
11958.701659750041
 20
8547.3347929509528
 30
0.0
 11
10302.701659750041
 21
8547.3347929509528
 31
0.0
  0
ARC
  5
5264
  8
FUTO
 10
12097.701659750041
 20
7605.3347929509519
 30
0.0
 40
866.0
 50
90.0
 51
98.232310315002834
  0
LINE
  5
5265
  8
FUTO
 10
11973.70165975003
 20
8488.3347929509528
 30
0.0
 11
11973.70165975003
 21
8462.4112189480747
 31
0.0
  0
ARC
  5
5266
  8
FUTO
 10
12097.701659750041
 20
7411.3347929509519
 30
0.0
 40
1060.0
 50
5.7391704772667911
 51
90.0
  0
LINE
  5
5267
  8
KL
 10
13139.701659750041
 20
7392.3347929509528
 30
0.0
 11
13139.701659750041
 21
7411.3347929509519
 31
0.0
  0
LINE
  5
5268
  8
FUTO
 10
13157.701659750041
 20
7392.3347929509528
 30
0.0
 11
13157.701659750041
 21
7411.3347929509519
 31
0.0
  0
ARC
  5
5269
  8
FUTO
 10
11884.701659750041
 20
7392.3347929509528
 30
0.0
 40
1273.0
 50
304.67671570402001
 51
0.000000000000007
  0
ARC
  5
526A
  8
FUTO
 10
11884.701659750041
 20
7624.3347929509528
 30
0.0
 40
1505.0
 50
233.6567069997165
 51
245.1813907945583
  0
LINE
  5
526B
  8
FUTO
 10
10383.325104535939
 20
7517.3347929509528
 30
0.0
 11
10293.62937389523
 21
8488.3347929509528
 31
0.0
  0
CIRCLE
  5
526C
  8
KL
 10
11617.701659750041
 20
8324.9353766083059
 30
0.0
 40
17.0
  0
LINE
  5
526D
  8
FUTO
 10
10450.701659750041
 20
6108.3347929509528
 30
0.0
 11
12950.701659750041
 21
6108.3347929509528
 31
0.0
  0
LINE
  5
526E
  8
FUTO
 10
10450.701659750041
 20
6258.3347929509528
 30
0.0
 11
12950.701659750041
 21
6258.3347929509528
 31
0.0
  0
LINE
  5
526F
  8
FUTO
 10
12950.701659750041
 20
6258.3347929509528
 30
0.0
 11
12950.701659750041
 21
6108.3347929509528
 31
0.0
  0
LINE
  5
5270
  8
FUTO
 10
10450.701659750041
 20
6258.3347929509528
 30
0.0
 11
10450.701659750041
 21
6108.3347929509528
 31
0.0
  0
LINE
  5
5273
  8
FUTO
 10
12940.701659750041
 20
8038.3347929509528
 30
0.0
 11
12940.701659750041
 21
7517.3347929509528
 31
0.0
  0
LINE
  5
5274
  8
FUTO
 10
11060.701659750041
 20
8488.3347929509528
 30
0.0
 11
11060.701659750041
 21
7517.3347929509528
 31
0.0
  0
LINE
  5
5275
  8
FUTO
 10
11069.701659750041
 20
8488.3347929509528
 30
0.0
 11
11069.701659750041
 21
7517.3347929509528
 31
0.0
  0
LINE
  5
5276
  8
FUTO
 10
12931.701659750041
 20
8038.3347929509528
 30
0.0
 11
12931.701659750041
 21
7517.3347929509528
 31
0.0
  0
LINE
  5
5277
  8
FUTO
 10
12940.701659750041
 20
8038.3347929509528
 30
0.0
 11
12931.701659750041
 21
8038.3347929509528
 31
0.0
  0
LINE
  5
52EB
  8
CT
 10
10987.158017035181
 20
6518.3347929509519
 30
0.0
 11
10358.36493928934
 21
6518.3347929509519
 31
0.0
  0
LINE
  5
52F4
  8
CT
 10
10750.701659750041
 20
6108.3347929509528
 30
0.0
 11
10750.701659750041
 21
6748.4328071475547
 31
0.0
  0
LINE
  5
5391
  8
CT
 10
12145.701659750041
 20
7388.3347929509537
 30
0.0
 11
12145.701659750041
 21
7462.3347929509537
 31
0.0
  0
LINE
  5
5393
  8
CT
 10
11855.701659750041
 20
7388.3347929509537
 30
0.0
 11
11855.701659750041
 21
7462.3347929509537
 31
0.0
  0
ARC
  5
53C8
  8
FUTO
 10
11823.701659750041
 20
7439.3347929509528
 30
0.0
 40
3.0
 50
90.0
 51
180.0
  0
LINE
  5
53C9
  8
FUTO
 10
11820.701659750041
 20
7439.3347929509528
 30
0.0
 11
11820.701659750041
 21
7408.3347929509537
 31
0.0
  0
ARC
  5
53CA
  8
FUTO
 10
11953.201659750041
 20
7590.6072063104739
 30
0.0
 40
15.00000000000038
 50
25.471936986187181
 51
214.5280630138071
  0
LINE
  5
53CB
  8
FUTO
 10
11985.01999705223
 20
7602.0315669350784
 30
0.0
 11
11985.01999705223
 21
7608.3347929509528
 31
0.0
  0
LINE
  5
53CC
  8
FUTO
 10
12016.38332244784
 20
7602.0315669350784
 30
0.0
 11
12016.38332244784
 21
7608.3347929509528
 31
0.0
  0
LINE
  5
53CD
  8
FUTO
 10
12016.38332244784
 20
7608.3347929509537
 30
0.0
 11
11985.01999705223
 21
7608.3347929509528
 31
0.0
  0
ARC
  5
53CE
  8
FUTO
 10
12000.701659750041
 20
7508.3347929509528
 30
0.0
 40
95.000000000000057
 50
129.05612602761761
 51
170.94387397238259
  0
LINE
  5
53CF
  8
FUTO
 10
11905.701659750041
 20
7493.3347929509519
 30
0.0
 11
11905.701659750041
 21
7458.3347929509528
 31
0.0
  0
LINE
  5
53D0
  8
FUTO
 10
11910.701659750041
 20
7408.3347929509537
 30
0.0
 11
11910.701659750041
 21
7411.3347929509537
 31
0.0
  0
ARC
  5
53D1
  8
FUTO
 10
11889.701659750041
 20
7458.3347929509528
 30
0.0
 40
16.0
 50
270.0
 51
0.000000000000007
  0
ARC
  5
53D2
  8
FUTO
 10
11953.201659750041
 20
7426.0623795914316
 30
0.0
 40
14.999999999999909
 50
145.47193698619051
 51
334.5280630138152
  0
ARC
  5
53D3
  8
FUTO
 10
12000.701659750041
 20
7508.3347929509537
 30
0.0
 40
95.000000000000966
 50
189.05612602761769
 51
230.9438739723827
  0
ARC
  5
53D4
  8
FUTO
 10
11905.701659750041
 20
7508.3347929509528
 30
0.0
 40
15.00000000000011
 50
85.471936986191736
 51
274.52806301380838
  0
LINE
  5
53D5
  8
FUTO
 10
11889.701659750041
 20
7442.3347929509528
 30
0.0
 11
11823.701659750041
 21
7442.3347929509528
 31
0.0
  0
ARC
  5
53D7
  8
FUTO
 10
12048.201659750041
 20
7590.6072063104739
 30
0.0
 40
15.00000000000006
 50
325.47193698619043
 51
154.52806301381389
  0
ARC
  5
53D8
  8
FUTO
 10
12000.701659750041
 20
7508.3347929509528
 30
0.0
 40
94.999999999999375
 50
9.0561260276173208
 51
50.943873972383258
  0
LINE
  5
53D9
  8
FUTO
 10
12095.701659750041
 20
7493.3347929509519
 30
0.0
 11
12095.701659750041
 21
7458.3347929509528
 31
0.0
  0
ARC
  5
53DA
  8
FUTO
 10
12048.201659750041
 20
7426.0623795914316
 30
0.0
 40
14.99999999999978
 50
205.47193698618639
 51
34.528063013808868
  0
LINE
  5
53DB
  8
FUTO
 10
12090.701659750041
 20
7408.3347929509537
 30
0.0
 11
12090.701659750041
 21
7411.3347929509537
 31
0.0
  0
ARC
  5
53DC
  8
FUTO
 10
12000.701659750041
 20
7508.3347929509528
 30
0.0
 40
95.000000000000057
 50
309.05612602761761
 51
350.94387397238319
  0
ARC
  5
53DD
  8
FUTO
 10
12177.701659750041
 20
7439.3347929509528
 30
0.0
 40
3.0
 50
0.000000000000007
 51
90.0
  0
LINE
  5
53DE
  8
FUTO
 10
12180.701659750041
 20
7439.3347929509528
 30
0.0
 11
12180.701659750041
 21
7408.3347929509537
 31
0.0
  0
LINE
  5
53DF
  8
FUTO
 10
12111.701659750041
 20
7442.3347929509528
 30
0.0
 11
12177.701659750041
 21
7442.3347929509528
 31
0.0
  0
ARC
  5
53E0
  8
FUTO
 10
12111.701659750041
 20
7458.3347929509528
 30
0.0
 40
16.0
 50
180.0
 51
270.0
  0
LINE
  5
53E1
  8
FUTO
 10
12195.701659750041
 20
7408.3347929509537
 30
0.0
 11
11805.701659750041
 21
7408.3347929509537
 31
0.0
  0
ARC
  5
53E2
  8
FUTO
 10
12095.701659750041
 20
7508.3347929509528
 30
0.0
 40
14.999999999999879
 50
265.47193698619083
 51
94.528063013808975
  0
CIRCLE
  5
53E3
  8
FUTO
 10
12000.701659750041
 20
7508.3347929509528
 30
0.0
 40
36.5
  0
LINE
  5
53E4
  8
FUTO
 10
12090.701659750041
 20
7411.3347929509537
 30
0.0
 11
11910.701659750041
 21
7411.3347929509537
 31
0.0
  0
ARC
  5
53E5
  8
FUTO
 10
12000.701659750041
 20
7508.3347929509509
 30
0.0
 40
94.999999999998266
 50
249.0561260276169
 51
290.9438739723837
  0
ARC
  5
53E6
  8
FUTO
 10
12000.701659750041
 20
7508.3347929509537
 30
0.0
 40
94.999999999998053
 50
69.056126027617694
 51
110.9438739723836
  0
LINE
  5
53E7
  8
FUTO
 10
14591.90845036576
 20
7588.3347929509519
 30
0.0
 11
14596.90845036576
 21
7588.3347929509519
 31
0.0
  0
ARC
  5
53E8
  8
FUTO
 10
14585.90845036576
 20
7597.3347929509537
 30
0.0
 40
6.0
 50
0.0
 51
90.0
  0
LINE
  5
53E9
  8
FUTO
 10
14576.90845036576
 20
7603.3347929509528
 30
0.0
 11
14585.90845036576
 21
7603.3347929509528
 31
0.0
  0
LINE
  5
53EA
  8
FUTO
 10
14596.90845036576
 20
7428.3347929509528
 30
0.0
 11
14591.90845036576
 21
7428.3347929509528
 31
0.0
  0
ARC
  5
53EB
  8
FUTO
 10
14585.90845036576
 20
7419.3347929509537
 30
0.0
 40
6.0
 50
270.0
 51
0.0
  0
ARC
  5
53EC
  8
FUTO
 10
14570.90845036576
 20
7436.3347929509528
 30
0.0
 40
6.0
 50
0.0
 51
90.0
  0
LINE
  5
53ED
  8
FUTO
 10
14585.90845036576
 20
7413.3347929509537
 30
0.0
 11
14576.90845036576
 21
7413.3347929509537
 31
0.0
  0
LINE
  5
53EE
  8
FUTO
 10
14596.90845036576
 20
7588.3347929509519
 30
0.0
 11
14596.90845036576
 21
7428.3347929509528
 31
0.0
  0
LINE
  5
53EF
  8
FUTO
 10
14591.90845036576
 20
7597.3347929509537
 30
0.0
 11
14591.90845036576
 21
7419.3347929509537
 31
0.0
  0
LINE
  5
53F0
  8
FUTO
 10
14576.90845036576
 20
7408.3347929509537
 30
0.0
 11
14576.90845036576
 21
7608.3347929509528
 31
0.0
  0
LINE
  5
53F1
  8
FUTO
 10
14476.90845036576
 20
7603.3347929509528
 30
0.0
 11
14467.90845036576
 21
7603.3347929509528
 31
0.0
  0
ARC
  5
53F2
  8
FUTO
 10
14467.90845036576
 20
7597.3347929509537
 30
0.0
 40
6.0
 50
90.0
 51
180.0
  0
LINE
  5
53F3
  8
FUTO
 10
14461.90845036576
 20
7588.3347929509519
 30
0.0
 11
14456.90845036576
 21
7588.3347929509519
 31
0.0
  0
ARC
  5
53F4
  8
FUTO
 10
14482.90845036576
 20
7436.3347929509528
 30
0.0
 40
6.0
 50
90.0
 51
180.0
  0
ARC
  5
53F5
  8
FUTO
 10
14467.90845036576
 20
7419.3347929509537
 30
0.0
 40
6.0
 50
180.0
 51
270.0
  0
LINE
  5
53F6
  8
FUTO
 10
14467.90845036576
 20
7413.3347929509537
 30
0.0
 11
14476.90845036576
 21
7413.3347929509537
 31
0.0
  0
LINE
  5
53F7
  8
FUTO
 10
14456.90845036576
 20
7428.3347929509528
 30
0.0
 11
14461.90845036576
 21
7428.3347929509528
 31
0.0
  0
LINE
  5
53F8
  8
FUTO
 10
14461.90845036576
 20
7597.3347929509537
 30
0.0
 11
14461.90845036576
 21
7419.3347929509537
 31
0.0
  0
LINE
  5
53F9
  8
FUTO
 10
14456.90845036576
 20
7588.3347929509519
 30
0.0
 11
14456.90845036576
 21
7428.3347929509528
 31
0.0
  0
LINE
  5
53FA
  8
FUTO
 10
14476.90845036576
 20
7608.3347929509528
 30
0.0
 11
14476.90845036576
 21
7408.3347929509537
 31
0.0
  0
LINE
  5
53FB
  8
FUTO
 10
14576.90845036576
 20
7608.3347929509528
 30
0.0
 11
14476.90845036576
 21
7608.3347929509528
 31
0.0
  0
LINE
  5
53FC
  8
FUTO
 10
14471.90845036576
 20
7408.3347929509537
 30
0.0
 11
14581.90845036576
 21
7408.3347929509537
 31
0.0
  0
LINE
  5
53FD
  8
FUTO
 10
14570.90845036576
 20
7442.3347929509528
 30
0.0
 11
14482.90845036576
 21
7442.3347929509528
 31
0.0
  0
LINE
  5
53FE
  8
KL
 10
11615.04978685931
 20
7400.3347929509537
 30
0.0
 11
12386.35353264076
 21
7400.3347929509537
 31
0.0
  0
LINE
  5
53FF
  8
FUTO
 10
12195.701659750041
 20
7408.3347929509537
 30
0.0
 11
12195.701659750041
 21
7400.3347929509537
 31
0.0
  0
LINE
  5
5400
  8
FUTO
 10
11805.701659750041
 20
7408.3347929509537
 30
0.0
 11
11805.701659750041
 21
7400.3347929509537
 31
0.0
  0
LINE
  5
5405
  8
FUTO
 10
12625.701659750041
 20
6266.1623400098952
 30
0.0
 11
12625.701659750041
 21
6258.3347929509528
 31
0.0
  0
LINE
  5
5408
  8
FUTO
 10
12386.35353264076
 20
7400.3347929509537
 30
0.0
 11
12625.701659750041
 21
6266.1623400098952
 31
0.0
  0
LINE
  5
540B
  8
KL
 10
11615.04978685931
 20
7400.3347929509537
 30
0.0
 11
11471.09811026621
 21
6718.20693125252
 31
0.0
  0
LINE
  5
540E
  8
FUTO
 10
11375.701659750041
 20
6266.1623400098952
 30
0.0
 11
11375.701659750041
 21
6258.3347929509528
 31
0.0
  0
LINE
  5
5411
  8
FUTO
 10
12625.701659750041
 20
6258.3347929509528
 30
0.0
 11
12625.701659750041
 21
6108.3347929509528
 31
0.0
  0
LINE
  5
5412
  8
KL
 10
12200.701659750041
 20
7517.3347929509528
 30
0.0
 11
12200.701659750041
 21
7499.3347929509528
 31
0.0
  0
LINE
  5
5413
  8
KL
 10
11800.701659750041
 20
7517.3347929509528
 30
0.0
 11
11800.701659750041
 21
7499.3347929509528
 31
0.0
  0
LINE
  5
5414
  8
FUTO
 10
13185.17696066086
 20
7517.3347929509528
 30
0.0
 11
12380.595065852331
 21
7517.3347929509528
 31
0.0
  0
LINE
  5
5415
  8
FUTO
 10
13185.17696066086
 20
7499.3347929509528
 30
0.0
 11
12380.595065852331
 21
7499.3347929509528
 31
0.0
  0
LINE
  5
5416
  8
KL
 10
11800.701659750041
 20
7499.3347929509528
 30
0.0
 11
11445.75526223107
 21
7499.3347929509528
 31
0.0
  0
LINE
  5
5417
  8
KL
 10
11800.701659750041
 20
7517.3347929509528
 30
0.0
 11
11464.30514582362
 21
7517.3347929509528
 31
0.0
  0
LINE
  5
5418
  8
FUTO
 10
13185.17696066086
 20
7499.3347929509528
 30
0.0
 11
13185.17696066086
 21
7517.3347929509528
 31
0.0
  0
LINE
  5
5419
  8
CT
 10
13160.17696066086
 20
7478.3347929509528
 30
0.0
 11
13160.17696066086
 21
7538.3347929509519
 31
0.0
  0
ARC
  5
541E
  8
FUTO
 10
12097.701659750041
 20
7411.3347929509519
 30
0.0
 40
1060.0
 50
0.000000000000007
 51
4.7621116560844801
  0
LINE
  5
541F
  8
FUTO
 10
12940.701659750041
 20
7499.3347929509528
 30
0.0
 11
12940.701659750041
 21
6258.3347929509528
 31
0.0
  0
LINE
  5
5420
  8
FUTO
 10
12931.701659750041
 20
7499.3347929509528
 30
0.0
 11
12931.701659750041
 21
6258.3347929509528
 31
0.0
  0
LINE
  5
5421
  8
FUTO
 10
10352.23311033659
 20
7517.3347929509528
 30
0.0
 11
10352.23311033659
 21
7499.3347929509528
 31
0.0
  0
LINE
  5
5422
  8
FUTO
 10
10377.23311033659
 20
7538.3347929509519
 30
0.0
 11
10377.23311033659
 21
7478.3347929509528
 31
0.0
  0
LINE
  5
5425
  8
FUTO
 10
11060.701659750041
 20
7499.3347929509528
 30
0.0
 11
11060.701659750041
 21
7125.6955293902429
 31
0.0
  0
LINE
  5
5426
  8
FUTO
 10
11069.701659750041
 20
7499.3347929509528
 30
0.0
 11
11069.701659750041
 21
7134.428737832859
 31
0.0
  0
ARC
  5
543E
  8
FUTO
 10
11884.701659750041
 20
7624.3347929509528
 30
0.0
 40
1505.0
 50
184.7642740459097
 51
215.88754955206849
  0
CIRCLE
  5
544F
  8
SL
 10
12000.701659750041
 20
7508.3347929509528
 30
0.0
 40
315.0
  0
ARC
  5
5451
  8
FUTO
 10
12000.701659750041
 20
7508.3347929509528
 30
0.0
 40
380.0
 50
302.62038306565529
 51
134.1380647697145
  0
CIRCLE
  5
5453
  8
SL
 10
10750.701659750041
 20
6518.3347929509519
 30
0.0
 40
132.49999999999989
  0
ARC
  5
5454
  8
FUTO
 10
10750.701659750041
 20
6518.3347929509519
 30
0.0
 40
220.0
 50
134.1380647697145
 51
302.62038306565529
  0
LINE
  5
5455
  8
SL
 10
11778.152624132459
 20
7731.2628682256664
 30
0.0
 11
10657.08976381566
 21
6612.1061262014282
 31
0.0
  0
LINE
  5
5456
  8
SL
 10
12166.726369874021
 20
7240.6394518853176
 30
0.0
 11
10820.537450516469
 21
6405.7327844074716
 31
0.0
  0
LINE
  5
5457
  8
FUTO
 10
12205.548432536671
 20
7188.2757364021672
 30
0.0
 11
10869.29715978441
 21
6333.0374444227082
 31
0.0
  0
LINE
  5
5458
  8
FUTO
 10
11736.07356076187
 20
7781.0470391481313
 30
0.0
 11
10597.49591823057
 21
6676.2208302230028
 31
0.0
  0
LINE
  5
5459
  8
CT
 10
14127.90845036576
 20
7508.3347929509528
 30
0.0
 11
16777.686362182631
 21
7508.3347929509528
 31
0.0
  0
LINE
  5
545A
  8
CT
 10
16007.90845036576
 20
8876.5661746287697
 30
0.0
 11
16007.90845036576
 21
6108.3347929509528
 31
0.0
  0
LINE
  5
545B
  8
FUTO
 10
16601.908450365761
 20
6258.3347929509528
 30
0.0
 11
14451.90845036576
 21
6258.3347929509528
 31
0.0
  0
LINE
  5
545C
  8
FUTO
 10
16601.908450365761
 20
6108.3347929509528
 30
0.0
 11
14451.90845036576
 21
6108.3347929509528
 31
0.0
  0
LINE
  5
5505
  8
FUTO
 10
16601.908450365761
 20
6108.3347929509528
 30
0.0
 11
16676.908450365761
 21
6108.3347929509528
 31
0.0
  0
LINE
  5
5506
  8
FUTO
 10
16612.059827394769
 20
6121.0118255804182
 30
0.0
 11
16673.25707333675
 21
6115.6577603214864
 31
0.0
  0
LINE
  5
5507
  8
FUTO
 10
16601.908450365761
 20
6258.3347929509528
 30
0.0
 11
16676.908450365761
 21
6258.3347929509528
 31
0.0
  0
LINE
  5
5508
  8
FUTO
 10
16612.059827394769
 20
6245.6577603214873
 30
0.0
 11
16673.25707333675
 21
6251.0118255804182
 31
0.0
  0
LINE
  5
5509
  8
FUTO
 10
16608.408450365761
 20
6241.6729815291201
 30
0.0
 11
16608.408450365761
 21
6124.9966043727854
 31
0.0
  0
ARC
  5
550A
  8
FUTO
 10
16612.408450365761
 20
6124.9966043727854
 30
0.0
 40
4.0
 50
180.0
 51
264.99999999999989
  0
LINE
  5
550B
  8
FUTO
 10
16601.908450365761
 20
6258.3347929509528
 30
0.0
 11
16601.908450365761
 21
6108.3347929509528
 31
0.0
  0
ARC
  5
550C
  8
FUTO
 10
16612.408450365761
 20
6241.6729815291201
 30
0.0
 40
4.0
 50
95.000000000000057
 51
180.0
  0
LINE
  5
550D
  8
FUTO
 10
16676.908450365761
 20
6108.3347929509519
 30
0.0
 11
16676.908450365761
 21
6111.6729815291201
 31
0.0
  0
LINE
  5
550E
  8
FUTO
 10
16676.908450365761
 20
6258.3347929509528
 30
0.0
 11
16676.908450365761
 21
6254.9966043727854
 31
0.0
  0
ARC
  5
550F
  8
FUTO
 10
16672.908450365761
 20
6254.9966043727854
 30
0.0
 40
4.0
 50
275.00000000000051
 51
359.9999999999921
  0
ARC
  5
5510
  8
FUTO
 10
16672.908450365761
 20
6111.6729815291201
 30
0.0
 40
4.0
 50
0.0000000000078369
 51
84.999999999999503
  0
LINE
  5
5511
  8
FUTO
 10
14451.90845036576
 20
6258.3347929509528
 30
0.0
 11
14376.90845036576
 21
6258.3347929509528
 31
0.0
  0
LINE
  5
5512
  8
FUTO
 10
14441.75707333675
 20
6245.6577603214873
 30
0.0
 11
14380.559827394771
 21
6251.0118255804182
 31
0.0
  0
LINE
  5
5513
  8
FUTO
 10
14451.90845036576
 20
6108.3347929509528
 30
0.0
 11
14376.90845036576
 21
6108.3347929509519
 31
0.0
  0
LINE
  5
5514
  8
FUTO
 10
14441.75707333675
 20
6121.0118255804182
 30
0.0
 11
14380.559827394771
 21
6115.6577603214864
 31
0.0
  0
LINE
  5
5515
  8
FUTO
 10
14445.40845036576
 20
6124.9966043727854
 30
0.0
 11
14445.40845036576
 21
6241.6729815291201
 31
0.0
  0
ARC
  5
5516
  8
FUTO
 10
14441.40845036576
 20
6241.6729815291201
 30
0.0
 40
4.0
 50
0.0
 51
84.999999999999943
  0
LINE
  5
5517
  8
FUTO
 10
14451.90845036576
 20
6108.3347929509528
 30
0.0
 11
14451.90845036576
 21
6258.3347929509528
 31
0.0
  0
ARC
  5
5518
  8
FUTO
 10
14441.40845036576
 20
6124.9966043727854
 30
0.0
 40
4.0
 50
275.0
 51
0.0
  0
LINE
  5
5519
  8
FUTO
 10
14376.90845036576
 20
6258.3347929509528
 30
0.0
 11
14376.90845036576
 21
6254.9966043727836
 31
0.0
  0
LINE
  5
551A
  8
FUTO
 10
14376.90845036576
 20
6108.3347929509519
 30
0.0
 11
14376.90845036576
 21
6111.6729815291201
 31
0.0
  0
ARC
  5
551B
  8
FUTO
 10
14380.90845036576
 20
6111.6729815291201
 30
0.0
 40
4.0
 50
95.000000000000554
 51
179.9999999999921
  0
ARC
  5
551C
  8
FUTO
 10
14380.90845036576
 20
6254.9966043727854
 30
0.0
 40
4.0
 50
180.00000000000779
 51
264.99999999999949
  0
LINE
  5
551D
  8
FUTO
 10
16601.908450365761
 20
6121.331292950952
 30
0.0
 11
14451.90845036576
 21
6121.331292950952
 31
0.0
  0
LINE
  5
551E
  8
FUTO
 10
16601.908450365761
 20
6245.3382929509544
 30
0.0
 11
14451.90845036576
 21
6245.3382929509544
 31
0.0
  0
LINE
  5
551F
  8
FUTO
 10
10450.701659750041
 20
6121.331292950952
 30
0.0
 11
12950.701659750041
 21
6121.331292950952
 31
0.0
  0
LINE
  5
5520
  8
FUTO
 10
10450.701659750041
 20
6245.3382929509544
 30
0.0
 11
12950.701659750041
 21
6245.3382929509544
 31
0.0
  0
LINE
  5
5521
  8
FUTO
 10
15348.90845036576
 20
8553.3347929509546
 30
0.0
 11
16666.908450365761
 21
8553.3347929509546
 31
0.0
  0
LINE
  5
5522
  8
FUTO
 10
15417.90845036576
 20
8553.3347929509546
 30
0.0
 11
15417.90845036576
 21
7517.3347929509528
 31
0.0
  0
LINE
  5
5523
  8
FUTO
 10
16597.908450365761
 20
8553.3347929509546
 30
0.0
 11
16597.908450365761
 21
7517.3347929509528
 31
0.0
  0
LINE
  5
5524
  8
FUTO
 10
16601.108450365758
 20
8553.3347929509546
 30
0.0
 11
16601.108450365758
 21
7517.3347929509528
 31
0.0
  0
LINE
  5
5525
  8
FUTO
 10
15414.708450365761
 20
8553.3347929509546
 30
0.0
 11
15414.708450365761
 21
7517.3347929509528
 31
0.0
  0
LINE
  5
5526
  8
FUTO
 10
15339.708450365761
 20
8488.3347929509528
 30
0.0
 11
16676.108450365758
 21
8488.3347929509564
 31
0.0
  0
LINE
  5
5527
  8
FUTO
 10
15348.90845036576
 20
8547.3347929509528
 30
0.0
 11
16666.908450365761
 21
8547.3347929509528
 31
0.0
  0
LINE
  5
5528
  8
FUTO
 10
15348.90845036576
 20
8553.3347929509546
 30
0.0
 11
15348.90845036576
 21
8488.3347929509528
 31
0.0
  0
LINE
  5
5529
  8
FUTO
 10
16666.908450365761
 20
8553.3347929509546
 30
0.0
 11
16666.908450365761
 21
8488.3347929509528
 31
0.0
  0
LINE
  5
552A
  8
FUTO
 10
16676.108450365758
 20
8488.3347929509564
 30
0.0
 11
16676.108450365758
 21
7527.3347929509564
 31
0.0
  0
LINE
  5
552B
  8
FUTO
 10
15339.708450365761
 20
8488.3347929509528
 30
0.0
 11
15339.708450365761
 21
7527.3347929509519
 31
0.0
  0
LINE
  5
552C
  8
KL
 10
15417.90845036576
 20
6137.3347929509519
 30
0.0
 11
16597.908450365761
 21
6137.3347929509519
 31
0.0
  0
LINE
  5
552D
  8
KL
 10
15414.708450365761
 20
6119.3347929509528
 30
0.0
 11
15417.90845036576
 21
6119.3347929509528
 31
0.0
  0
LINE
  5
552E
  8
KL
 10
16597.908450365761
 20
6119.3347929509528
 30
0.0
 11
16601.108450365758
 21
6119.3347929509528
 31
0.0
  0
LINE
  5
552F
  8
KL
 10
15417.90845036576
 20
6258.3347929509537
 30
0.0
 11
15417.90845036576
 21
6119.3347929509528
 31
0.0
  0
LINE
  5
5530
  8
KL
 10
15414.708450365761
 20
6258.3347929509537
 30
0.0
 11
15414.708450365761
 21
6119.3347929509528
 31
0.0
  0
LINE
  5
5531
  8
KL
 10
16597.908450365761
 20
6258.3347929509528
 30
0.0
 11
16597.908450365761
 21
6119.3347929509528
 31
0.0
  0
LINE
  5
5532
  8
KL
 10
16601.108450365758
 20
6258.3347929509528
 30
0.0
 11
16601.108450365758
 21
6119.3347929509528
 31
0.0
  0
LINE
  5
5533
  8
CT
 10
15206.90845036576
 20
7668.7017509869156
 30
0.0
 11
15206.90845036576
 21
7336.6557022134193
 31
0.0
  0
LINE
  5
5534
  8
CT
 10
14526.90845036576
 20
7668.7017509869156
 30
0.0
 11
14526.90845036576
 21
7336.6557022134193
 31
0.0
  0
LINE
  5
5537
  8
CT
 10
15161.90845036576
 20
7440.2776497302229
 30
0.0
 11
15161.90845036576
 21
7350.277649730222
 31
0.0
  0
LINE
  5
5538
  8
CT
 10
15251.90845036576
 20
7440.2776497302229
 30
0.0
 11
15251.90845036576
 21
7350.277649730222
 31
0.0
  0
LINE
  5
5548
  8
FUTO
 10
15234.40845036576
 20
7628.3347929509528
 30
0.0
 11
15270.90845036576
 21
7628.3347929509528
 31
0.0
  0
LINE
  5
5549
  8
FUTO
 10
15234.40845036576
 20
7641.3347929509528
 30
0.0
 11
15234.40845036576
 21
7428.3347929509528
 31
0.0
  0
LINE
  5
554A
  8
FUTO
 10
15179.40845036576
 20
7641.3347929509528
 30
0.0
 11
15179.40845036576
 21
7428.3347929509528
 31
0.0
  0
ARC
  5
554B
  8
FUTO
 10
15273.90845036576
 20
7425.3347929509528
 30
0.0
 40
3.0
 50
0.0
 51
90.0
  0
ARC
  5
554C
  8
FUTO
 10
15139.90845036576
 20
7425.3347929509528
 30
0.0
 40
3.0
 50
90.000000000000028
 51
180.0
  0
LINE
  5
554D
  8
FUTO
 10
15284.90845036576
 20
7628.3347929509528
 30
0.0
 11
15270.90845036576
 21
7628.3347929509528
 31
0.0
  0
LINE
  5
554E
  8
FUTO
 10
15260.90845036576
 20
7641.3347929509528
 30
0.0
 11
15260.90845036576
 21
7628.3347929509528
 31
0.0
  0
LINE
  5
554F
  8
FUTO
 10
15142.90845036576
 20
7628.3347929509528
 30
0.0
 11
15179.40845036576
 21
7628.3347929509528
 31
0.0
  0
LINE
  5
5550
  8
FUTO
 10
15152.90845036576
 20
7641.3347929509528
 30
0.0
 11
15152.90845036576
 21
7628.3347929509528
 31
0.0
  0
LINE
  5
5551
  8
FUTO
 10
15128.90845036576
 20
7628.3347929509528
 30
0.0
 11
15142.90845036576
 21
7628.3347929509528
 31
0.0
  0
LINE
  5
5552
  8
FUTO
 10
15152.90845036576
 20
7641.3347929509528
 30
0.0
 11
15260.90845036576
 21
7641.3347929509528
 31
0.0
  0
LINE
  5
5553
  8
FUTO
 10
15284.90845036576
 20
7388.3347929509528
 30
0.0
 11
15276.90845036576
 21
7388.3347929509528
 31
0.0
  0
LINE
  5
5554
  8
FUTO
 10
15292.90845036576
 20
7428.3347929509528
 30
0.0
 11
15284.90845036576
 21
7408.3347929509519
 31
0.0
  0
LINE
  5
5555
  8
FUTO
 10
15276.90845036576
 20
7425.3347929509528
 30
0.0
 11
15276.90845036576
 21
7378.3347929509528
 31
0.0
  0
LINE
  5
5556
  8
FUTO
 10
15292.90845036576
 20
7588.3347929509519
 30
0.0
 11
15292.90845036576
 21
7428.3347929509528
 31
0.0
  0
LINE
  5
5557
  8
FUTO
 10
15128.90845036576
 20
7388.3347929509528
 30
0.0
 11
15136.90845036576
 21
7388.3347929509528
 31
0.0
  0
LINE
  5
5558
  8
FUTO
 10
15120.90845036576
 20
7428.3347929509528
 30
0.0
 11
15128.90845036576
 21
7408.3347929509519
 31
0.0
  0
LINE
  5
5559
  8
FUTO
 10
15136.90845036576
 20
7425.3347929509528
 30
0.0
 11
15136.90845036576
 21
7378.3347929509528
 31
0.0
  0
LINE
  5
555A
  8
FUTO
 10
15120.90845036576
 20
7588.3347929509519
 30
0.0
 11
15120.90845036576
 21
7428.3347929509528
 31
0.0
  0
LINE
  5
555B
  8
FUTO
 10
15139.90845036576
 20
7428.3347929509528
 30
0.0
 11
15273.90845036576
 21
7428.3347929509528
 31
0.0
  0
LINE
  5
555C
  8
FUTO
 10
15126.90845036576
 20
7378.3347929509528
 30
0.0
 11
15286.90845036576
 21
7378.3347929509528
 31
0.0
  0
LINE
  5
555D
  8
FUTO
 10
15270.90845036576
 20
7628.3347929509528
 30
0.0
 11
15270.90845036576
 21
7428.3347929509528
 31
0.0
  0
LINE
  5
555E
  8
FUTO
 10
15284.90845036576
 20
7628.3347929509528
 30
0.0
 11
15284.90845036576
 21
7388.3347929509528
 31
0.0
  0
LINE
  5
555F
  8
FUTO
 10
15292.90845036576
 20
7588.3347929509519
 30
0.0
 11
15284.90845036576
 21
7608.3347929509528
 31
0.0
  0
LINE
  5
5560
  8
FUTO
 10
15120.90845036576
 20
7588.3347929509519
 30
0.0
 11
15128.90845036576
 21
7608.3347929509528
 31
0.0
  0
LINE
  5
5561
  8
FUTO
 10
15128.90845036576
 20
7628.3347929509528
 30
0.0
 11
15128.90845036576
 21
7388.3347929509528
 31
0.0
  0
LINE
  5
5562
  8
FUTO
 10
15270.90845036576
 20
7628.3347929509528
 30
0.0
 11
15270.90845036576
 21
7428.3347929509528
 31
0.0
  0
LINE
  5
5563
  8
FUTO
 10
15142.90845036576
 20
7628.3347929509528
 30
0.0
 11
15142.90845036576
 21
7428.3347929509528
 31
0.0
  0
LINE
  5
55BF
  8
FUTO
 10
14601.90845036576
 20
7400.3347929509528
 30
0.0
 11
14451.90845036576
 21
7400.3347929509537
 31
0.0
  0
LINE
  5
55C1
  8
FUTO
 10
14601.90845036576
 20
7400.3347929509528
 30
0.0
 11
14601.90845036576
 21
7360.3347929509519
 31
0.0
  0
LINE
  5
55C6
  8
FUTO
 10
14451.90845036576
 20
7400.3347929509537
 30
0.0
 11
14451.90845036576
 21
6258.3347929509528
 31
0.0
  0
LINE
  5
55CC
  8
FUTO
 10
14471.90845036576
 20
7408.3347929509537
 30
0.0
 11
14471.90845036576
 21
7400.3347929509537
 31
0.0
  0
LINE
  5
55CD
  8
FUTO
 10
14581.90845036576
 20
7408.3347929509537
 30
0.0
 11
14581.90845036576
 21
7400.3347929509528
 31
0.0
  0
LINE
  5
55DF
  8
FUTO
 10
15116.90845036576
 20
7370.3347929509528
 30
0.0
 11
15296.90845036576
 21
7370.3347929509528
 31
0.0
  0
LINE
  5
55E0
  8
FUTO
 10
15296.90845036576
 20
7370.3347929509528
 30
0.0
 11
15296.90845036576
 21
6258.3347929509537
 31
0.0
  0
LINE
  5
55E6
  8
FUTO
 10
15116.90845036576
 20
7370.3347929509528
 30
0.0
 11
15116.90845036576
 21
7360.3347929509519
 31
0.0
  0
LINE
  5
55ED
  8
FUTO
 10
15126.90845036576
 20
7378.3347929509528
 30
0.0
 11
15126.90845036576
 21
7370.3347929509528
 31
0.0
  0
LINE
  5
55EE
  8
FUTO
 10
15286.90845036576
 20
7378.3347929509528
 30
0.0
 11
15286.90845036576
 21
7370.3347929509528
 31
0.0
  0
LINE
  5
55F3
  8
FUTO
 10
15116.90845036576
 20
7360.3347929509519
 30
0.0
 11
14601.90845036576
 21
7360.3347929509519
 31
0.0
  0
LINE
  5
5600
  8
FUTO
 10
15349.708450365761
 20
7517.3347929509528
 30
0.0
 11
16666.108450365758
 21
7517.3347929509528
 31
0.0
  0
LINE
  5
5601
  8
FUTO
 10
15349.708450365761
 20
7499.3347929509528
 30
0.0
 11
16666.108450365758
 21
7499.3347929509528
 31
0.0
  0
LINE
  5
5602
  8
FUTO
 10
15349.708450365761
 20
7517.3347929509528
 30
0.0
 11
15349.708450365761
 21
7499.3347929509528
 31
0.0
  0
LINE
  5
5603
  8
FUTO
 10
15417.90845036576
 20
7499.3347929509528
 30
0.0
 11
15417.90845036576
 21
6258.3347929509528
 31
0.0
  0
LINE
  5
5604
  8
FUTO
 10
15414.708450365761
 20
7499.3347929509528
 30
0.0
 11
15414.708450365761
 21
6258.3347929509528
 31
0.0
  0
LINE
  5
5605
  8
FUTO
 10
16601.108450365758
 20
7499.3347929509528
 30
0.0
 11
16601.108450365758
 21
6258.3347929509528
 31
0.0
  0
LINE
  5
5606
  8
FUTO
 10
16597.908450365761
 20
7499.3347929509528
 30
0.0
 11
16597.908450365761
 21
6258.3347929509528
 31
0.0
  0
LINE
  5
5608
  8
FUTO
 10
16666.108450365758
 20
7517.3347929509537
 30
0.0
 11
16676.108450365758
 21
7527.3347929509564
 31
0.0
  0
LINE
  5
5609
  8
FUTO
 10
16666.108450365758
 20
7499.3347929509528
 30
0.0
 11
16676.108450365758
 21
7489.3347929509519
 31
0.0
  0
LINE
  5
560A
  8
FUTO
 10
16676.108450365758
 20
7489.3347929509519
 30
0.0
 11
16676.108450365758
 21
6258.3347929509528
 31
0.0
  0
LINE
  5
560B
  8
FUTO
 10
15349.708450365761
 20
7517.3347929509528
 30
0.0
 11
15339.708450365761
 21
7527.3347929509519
 31
0.0
  0
LINE
  5
560C
  8
FUTO
 10
15349.708450365761
 20
7499.3347929509528
 30
0.0
 11
15339.708450365761
 21
7489.3347929509546
 31
0.0
  0
LINE
  5
560D
  8
FUTO
 10
15339.708450365761
 20
7489.3347929509546
 30
0.0
 11
15339.708450365761
 21
6258.3347929509528
 31
0.0
  0
LINE
  5
560E
  8
SL
 10
14266.90845036576
 20
7823.3347929509528
 30
0.0
 11
14266.90845036576
 21
6385.8347929509519
 31
0.0
  0
LINE
  5
560F
  8
SL
 10
14266.90845036576
 20
7823.3347929509528
 30
0.0
 11
14344.808450365759
 21
7823.3347929509528
 31
0.0
  0
LINE
  5
5610
  8
SL
 10
14266.90845036576
 20
7193.3347929509528
 30
0.0
 11
14344.808450365759
 21
7193.3347929509528
 31
0.0
  0
LINE
  5
5611
  8
SL
 10
14344.808450365759
 20
7823.3347929509528
 30
0.0
 11
14344.808450365759
 21
7588.3347929509519
 31
0.0
  0
LINE
  5
5613
  8
SL
 10
14366.90845036577
 20
7588.3347929509519
 30
0.0
 11
14366.90845036577
 21
7428.3347929509528
 31
0.0
  0
LINE
  5
5614
  8
SL
 10
14344.808450365759
 20
7588.3347929509519
 30
0.0
 11
14366.90845036576
 21
7588.3347929509519
 31
0.0
  0
LINE
  5
5615
  8
SL
 10
14344.808450365759
 20
7428.3347929509528
 30
0.0
 11
14366.90845036576
 21
7428.3347929509528
 31
0.0
  0
LINE
  5
5616
  8
SL
 10
14344.808450365759
 20
7428.3347929509528
 30
0.0
 11
14344.808450365759
 21
7193.3347929509528
 31
0.0
  0
LINE
  5
5617
  8
CT
 10
14127.90845036576
 20
6518.3347929509519
 30
0.0
 11
14443.90845036576
 21
6518.3347929509519
 31
0.0
  0
LINE
  5
5618
  8
SL
 10
14266.90845036576
 20
6650.8347929509519
 30
0.0
 11
14344.808450365759
 21
6650.8347929509519
 31
0.0
  0
LINE
  5
5619
  8
SL
 10
14266.90845036576
 20
6385.8347929509519
 30
0.0
 11
14344.808450365759
 21
6385.8347929509519
 31
0.0
  0
LINE
  5
561A
  8
SL
 10
14344.808450365759
 20
7823.3347929509528
 30
0.0
 11
14344.808450365759
 21
6588.3347929509519
 31
0.0
  0
LINE
  5
561B
  8
SL
 10
14364.90845036576
 20
6588.3347929509519
 30
0.0
 11
14364.90845036576
 21
6448.3347929509528
 31
0.0
  0
LINE
  5
561C
  8
SL
 10
14344.808450365759
 20
6588.3347929509519
 30
0.0
 11
14364.90845036576
 21
6588.3347929509519
 31
0.0
  0
LINE
  5
561D
  8
SL
 10
14344.808450365759
 20
6448.3347929509528
 30
0.0
 11
14364.90845036576
 21
6448.3347929509528
 31
0.0
  0
LINE
  5
561E
  8
SL
 10
14344.808450365759
 20
6448.3347929509528
 30
0.0
 11
14344.808450365759
 21
6385.8347929509519
 31
0.0
  0
LINE
  5
561F
  8
FUTO
 10
14127.90845036576
 20
7888.3347929509528
 30
0.0
 11
14416.90845036576
 21
7888.3347929509528
 31
0.0
  0
LINE
  5
5620
  8
FUTO
 10
14127.90845036576
 20
6298.3347929509537
 30
0.0
 11
14416.90845036576
 21
6298.3347929509528
 31
0.0
  0
LINE
  5
5621
  8
FUTO
 10
14127.90845036576
 20
7888.3347929509528
 30
0.0
 11
14127.90845036576
 21
6298.3347929509528
 31
0.0
  0
LINE
  5
5622
  8
FUTO
 10
14416.90845036576
 20
7888.3347929509528
 30
0.0
 11
14416.90845036576
 21
6298.3347929509528
 31
0.0
  0
LINE
  5
5623
  8
FUTO
 10
14596.90845036576
 20
7558.3347929509528
 30
0.0
 11
15120.90845036576
 21
7558.3347929509528
 31
0.0
  0
LINE
  5
5624
  8
FUTO
 10
14596.90845036576
 20
7458.3347929509528
 30
0.0
 11
15120.90845036576
 21
7458.3347929509528
 31
0.0
  0
LINE
  5
5625
  8
KL
 10
15292.90845036576
 20
7558.3347929509528
 30
0.0
 11
15414.708450365761
 21
7558.3347929509528
 31
0.0
  0
LINE
  5
5626
  8
KL
 10
15292.90845036576
 20
7458.3347929509528
 30
0.0
 11
15414.708450365761
 21
7458.3347929509528
 31
0.0
  0
LINE
  5
5627
  8
FUTO
 10
14366.90845036576
 20
7550.8347929509519
 30
0.0
 11
14456.90845036576
 21
7550.8347929509519
 31
0.0
  0
LINE
  5
5628
  8
FUTO
 10
14366.90845036576
 20
7465.8347929509528
 30
0.0
 11
14456.90845036576
 21
7465.8347929509528
 31
0.0
  0
LINE
  5
5694
  8
FUTO
 10
10450.701659750041
 20
9889.6719303844038
 30
0.0
 11
12625.701659750041
 21
9889.6719303844038
 31
0.0
  0
LINE
  5
5695
  8
FUTO
 10
11050.701659750041
 20
12189.6719303844
 30
0.0
 11
12950.701659750041
 21
12189.6719303844
 31
0.0
  0
LINE
  5
5696
  8
FUTO
 10
12950.701659750041
 20
12189.6719303844
 30
0.0
 11
12950.701659750041
 21
12164.6719303844
 31
0.0
  0
LINE
  5
5699
  8
FUTO
 10
10302.701659750041
 20
10926.6719303844
 30
0.0
 11
11958.701659750041
 21
10926.6719303844
 31
0.0
  0
LINE
  5
569A
  8
FUTO
 10
10450.701659750041
 20
10851.6719303844
 30
0.0
 11
12950.701659750041
 21
10851.6719303844
 31
0.0
  0
LINE
  5
569B
  8
FUTO
 10
10450.701659750041
 20
9964.6719303844056
 30
0.0
 11
12625.701659750041
 21
9964.6719303844056
 31
0.0
  0
LINE
  5
569C
  8
FUTO
 10
10302.701659750041
 20
12114.6719303844
 30
0.0
 11
11958.701659750041
 21
12114.6719303844
 31
0.0
  0
LINE
  5
56A0
  8
FUTO
 10
12625.701659750041
 20
10851.6719303844
 30
0.0
 11
12625.701659750041
 21
9889.6719303844038
 31
0.0
  0
LINE
  5
56A2
  8
FUTO
 10
12550.701659750041
 20
10851.6719303844
 30
0.0
 11
12550.701659750041
 21
9964.6719303844056
 31
0.0
  0
LINE
  5
56A4
  8
FUTO
 10
11375.701659750041
 20
10851.6719303844
 30
0.0
 11
11375.701659750041
 21
9964.6719303844056
 31
0.0
  0
LINE
  5
56A6
  8
FUTO
 10
11050.701659750041
 20
12189.6719303844
 30
0.0
 11
11050.701659750041
 21
12179.6719303844
 31
0.0
  0
LINE
  5
56A7
  8
FUTO
 10
11450.701659750041
 20
10851.6719303844
 30
0.0
 11
11450.701659750041
 21
9964.6719303844056
 31
0.0
  0
LINE
  5
56A8
  8
FUTO
 10
10450.701659750041
 20
10861.6719303844
 30
0.0
 11
10450.701659750041
 21
10851.6719303844
 31
0.0
  0
LINE
  5
56A9
  8
FUTO
 10
10450.701659750041
 20
9964.6719303844056
 30
0.0
 11
10450.701659750041
 21
9889.6719303844038
 31
0.0
  0
LINE
  5
56AA
  8
CT
 10
10750.701659750041
 20
10801.6719303844
 30
0.0
 11
10750.701659750041
 21
9384.2151025097846
 31
0.0
  0
LINE
  5
56AC
  8
FUTO
 10
10560.701659750041
 20
10851.6719303844
 30
0.0
 11
10560.701659750041
 21
10527.21048801255
 31
0.0
  0
LINE
  5
56AD
  8
FUTO
 10
10625.701659750041
 20
10851.6719303844
 30
0.0
 11
10625.701659750041
 21
10579.1719303844
 31
0.0
  0
LINE
  5
56AE
  8
FUTO
 10
10875.701659750041
 20
10851.6719303844
 30
0.0
 11
10875.701659750041
 21
10579.1719303844
 31
0.0
  0
LINE
  5
56AF
  8
FUTO
 10
10940.701659750041
 20
10851.6719303844
 30
0.0
 11
10940.701659750041
 21
10520.0718933844
 31
0.0
  0
LINE
  5
56B0
  8
CT
 10
10226.11519947062
 20
11520.6719303844
 30
0.0
 11
13351.217661680101
 21
11520.6719303844
 31
0.0
  0
LINE
  5
69CC
  8
CT
 10
16577.908450365761
 20
8348.3347929509546
 30
0.0
 11
16621.108450365758
 21
8348.3347929509546
 31
0.0
  0
DIMENSION
  5
6A61
  8
SP
  2
*D3
 10
12000.701659750041
 20
5857.8224827678496
 30
0.0
 11
12475.701659750041
 21
5945.3224827678487
 31
0.0
 70
     0
 13
12950.701659750041
 23
6108.3347929509528
 33
0.0
 14
12000.701659750041
 24
6108.3347929509528
 34
0.0
 50
180.0
1001
ACAD
1000
DSTYLE
1002
{
1070
    40
1040
35.0
1070
   147
1040
1.0
1070
    41
1040
2.5
1002
}
  0
DIMENSION
  5
6A6E
  8
SP
  2
*D4
 10
10450.701659750041
 20
5857.8224827678496
 30
0.0
 11
11225.701659750041
 21
5945.3224827678487
 31
0.0
 70
     0
 13
12000.701659750041
 23
6108.3347929509528
 33
0.0
 14
10450.701659750041
 24
6108.3347929509528
 34
0.0
 50
180.0
1001
ACAD
1000
DSTYLE
1002
{
1070
    40
1040
35.0
1070
   147
1040
1.0
1070
    41
1040
2.5
1002
}
  0
DIMENSION
  5
6A7B
  8
SP
  2
*D5
 10
10450.701659750041
 20
5607.7347387701921
 30
0.0
 11
11700.701659750041
 21
5695.2347387701921
 31
0.0
 70
     0
 13
12950.701659750041
 23
6108.3347929509528
 33
0.0
 14
10450.701659750041
 24
6108.3347929509528
 34
0.0
 50
180.0
1001
ACAD
1000
DSTYLE
1002
{
1070
    40
1040
35.0
1070
   147
1040
1.0
1070
    41
1040
2.5
1002
}
  0
DIMENSION
  5
6A88
  8
SP
  2
*D6
 10
16007.90845036576
 20
5857.8224593800114
 30
0.0
 11
15192.40845036576
 21
5945.3224593800123
 31
0.0
 70
     0
 13
14376.90845036576
 23
6108.3347929509519
 33
0.0
 14
16007.90845036576
 24
6108.3347929509528
 34
0.0
1001
ACAD
1000
DSTYLE
1002
{
1070
    40
1040
35.0
1070
   147
1040
1.0
1070
    41
1040
2.5
1002
}
  0
DIMENSION
  5
6A95
  8
SP
  2
*D7
 10
16676.908450365761
 20
5857.8224593800114
 30
0.0
 11
16342.40845036576
 21
5945.3224593800123
 31
0.0
 70
     0
 13
16007.90845036576
 23
6108.3347929509528
 33
0.0
 14
16676.908450365761
 24
6108.3347929509519
 34
0.0
1001
ACAD
1000
DSTYLE
1002
{
1070
    40
1040
35.0
1070
   147
1040
1.0
1070
    41
1040
2.5
1002
}
  0
DIMENSION
  5
6AA2
  8
SP
  2
*D8
 10
16676.908450365761
 20
5607.7347153823539
 30
0.0
 11
15526.90845036576
 21
5695.2347153823539
 31
0.0
 70
     0
 13
14376.90845036576
 23
6108.3347929509519
 33
0.0
 14
16676.908450365761
 24
6108.3347929509519
 34
0.0
1001
ACAD
1000
DSTYLE
1002
{
1070
    40
1040
35.0
1070
   147
1040
1.0
1070
    41
1040
2.5
1002
}
  0
LINE
  5
6AB0
  8
SP
 10
16007.90845036576
 20
8830.5937950797997
 30
0.0
 11
16007.90845036576
 21
8865.5937950798016
 31
0.0
  0
LINE
  5
6ADF
  8
FUTO
 10
16732.908450365761
 20
8373.3347929509546
 30
0.0
 11
16732.908450365761
 21
6643.3347929509519
 31
0.0
  0
LINE
  5
6AE1
  8
KL
 10
16601.108450365758
 20
8308.3347929509528
 30
0.0
 11
16732.908450365761
 21
8308.3347929509528
 31
0.0
  0
LINE
  5
6AE5
  8
KL
 10
16601.108450365758
 20
8373.3347929509546
 30
0.0
 11
16607.108450365758
 21
8373.3347929509546
 31
0.0
  0
LINE
  5
6AE7
  8
FUTO
 10
16726.908450365761
 20
8373.3347929509546
 30
0.0
 11
16726.908450365761
 21
6643.3347929509519
 31
0.0
  0
LINE
  5
6AE8
  8
FUTO
 10
16676.108450365758
 20
8314.3347929509528
 30
0.0
 11
16726.908450365761
 21
8314.3347929509528
 31
0.0
  0
LINE
  5
6AEA
  8
KL
 10
16607.108450365758
 20
8373.3347929509546
 30
0.0
 11
16607.108450365758
 21
7517.3347929509528
 31
0.0
  0
LINE
  5
6AEB
  8
FUTO
 10
16726.908450365761
 20
8373.3347929509546
 30
0.0
 11
16732.908450365761
 21
8373.3347929509546
 31
0.0
  0
LINE
  5
6AEC
  8
CT
 10
16707.908450365761
 20
8348.3347929509546
 30
0.0
 11
16751.108450365758
 21
8348.3347929509546
 31
0.0
  0
LINE
  5
6AED
  8
KL
 10
16601.108450365758
 20
6708.3347929509528
 30
0.0
 11
16732.908450365761
 21
6708.3347929509528
 31
0.0
  0
LINE
  5
6AEE
  8
CT
 10
16577.908450365761
 20
6668.3347929509519
 30
0.0
 11
16621.108450365758
 21
6668.3347929509519
 31
0.0
  0
LINE
  5
6AEF
  8
KL
 10
16601.108450365758
 20
6643.3347929509519
 30
0.0
 11
16607.108450365758
 21
6643.3347929509519
 31
0.0
  0
LINE
  5
6AF0
  8
CT
 10
16707.908450365761
 20
6668.3347929509519
 30
0.0
 11
16751.108450365758
 21
6668.3347929509519
 31
0.0
  0
LINE
  5
6AF1
  8
FUTO
 10
16676.108450365758
 20
6702.3347929509528
 30
0.0
 11
16726.908450365761
 21
6702.3347929509528
 31
0.0
  0
LINE
  5
6AF2
  8
FUTO
 10
16726.908450365761
 20
6643.3347929509519
 30
0.0
 11
16732.908450365761
 21
6643.3347929509519
 31
0.0
  0
LINE
  5
6AF3
  8
KL
 10
16607.108450365758
 20
7499.3347929509528
 30
0.0
 11
16607.108450365758
 21
6643.3347929509519
 31
0.0
  0
DIMENSION
  5
6B00
  8
SP
  2
*D9
 10
16732.908450365761
 20
8876.5661746287697
 30
0.0
 11
16370.40845036576
 21
8964.0661746287697
 31
0.0
 70
     0
 13
16007.90845036576
 23
8830.5937950798016
 33
0.0
 14
16732.908450365761
 24
8373.3347929509546
 34
0.0
1001
ACAD
1000
DSTYLE
1002
{
1070
    40
1040
35.0
1070
   147
1040
1.0
1070
    41
1040
2.5
1002
}
  0
LINE
  5
6E16
  8
SL
 10
14618.12843642018
 20
7360.3347929509519
 30
0.0
 11
14618.12843642018
 21
7665.1521515545428
 31
0.0
  0
LINE
  5
6E17
  8
SL
 10
14618.12843642018
 20
7665.1521515545428
 30
0.0
 11
15104.08380884894
 21
7665.1521515545428
 31
0.0
  0
LINE
  5
6E18
  8
SL
 10
15104.08380884894
 20
7665.1521515545428
 30
0.0
 11
15104.08380884894
 21
7360.3347929509519
 31
0.0
  0
INSERT
  5
6E51
  8
FUTO
  2
右回転矢印
 10
12211.207359521321
 20
8121.1361171981916
 30
0.0
 41
35.0
 42
35.0
 43
35.0
  0
INSERT
  5
6EE2
  8
FUTO
  2
まっすぐの矢印
 10
11603.78415907944
 20
8784.221316694784
 30
0.0
 41
-35.0
 42
35.0
 43
35.0
  0
INSERT
  5
6EEC
  8
FUTO
  2
まっすぐの矢印
 10
16779.376429936921
 20
8036.0364932945167
 30
0.0
 41
35.0
 42
35.0
 43
35.0
 50
90.0
  0
DIMENSION
  5
6F64
  8
SP
  2
*D10
 10
17012.101851567641
 20
6708.3347929509528
 30
0.0
 11
16924.601851567641
 21
7508.3347929509564
 31
0.0
 70
     0
 13
16732.908450365761
 23
8308.3347929509528
 33
0.0
 14
16732.908450365761
 24
6708.3347929509528
 34
0.0
 50
90.0
1001
ACAD
1000
DSTYLE
1002
{
1070
    40
1040
35.0
1070
     3
1000
φ<>
1070
   147
1040
1.0
1070
    41
1040
2.5
1002
}
  0
DIMENSION
  5
6FB2
  8
SP
  2
*D11
 10
16007.90845036576
 20
8876.5661746287697
 30
0.0
 11
15067.90845036577
 21
8964.0661746287697
 31
0.0
 70
     0
 13
14127.90845036576
 23
7888.3347929509528
 33
0.0
 14
16007.90845036576
 24
8876.5661746287697
 34
0.0
1001
ACAD
1000
DSTYLE
1002
{
1070
    40
1040
35.0
1070
    41
1040
2.5
1070
   147
1040
1.0
1002
}
  0
LINE
  5
6FD7
  8
CT
 10
12000.701659750041
 20
9640.6719303844056
 30
0.0
 11
12000.701659750041
 21
12290.44984220126
 31
0.0
  0
LINE
  5
6FDA
  8
FUTO
 10
12380.701659750041
 20
9640.6719303844075
 30
0.0
 11
10547.201659750041
 21
9640.6719303844038
 31
0.0
  0
LINE
  5
6FDB
  8
FUTO
 10
12380.701659750041
 20
9929.6719303844056
 30
0.0
 11
10547.201659750041
 21
9929.6719303844075
 31
0.0
  0
LINE
  5
6FDC
  8
SL
 10
12315.701659750041
 20
9857.5719303844071
 30
0.0
 11
10883.201659750041
 21
9857.5719303844016
 31
0.0
  0
LINE
  5
6FDD
  8
SL
 10
12315.701659750041
 20
9779.6719303844075
 30
0.0
 11
10618.201659750041
 21
9779.671930384402
 31
0.0
  0
LINE
  5
6FE5
  8
SL
 10
10883.20165975003
 20
9877.6719303844002
 30
0.0
 11
10618.201659750041
 21
9877.6719303844002
 31
0.0
  0
LINE
  5
6FE8
  8
FUTO
 10
12380.701659750041
 20
9640.6719303844075
 30
0.0
 11
12380.701659750041
 21
9929.6719303844056
 31
0.0
  0
LINE
  5
6FE9
  8
SL
 10
11920.701659750041
 20
9857.5719303844053
 30
0.0
 11
11920.701659750041
 21
9879.6719303844056
 31
0.0
  0
LINE
  5
6FEA
  8
SL
 10
12080.701659750041
 20
9857.5719303844053
 30
0.0
 11
12080.701659750041
 21
9879.6719303844056
 31
0.0
  0
LINE
  5
6FEB
  8
SL
 10
12315.701659750041
 20
9857.5719303844071
 30
0.0
 11
12080.701659750041
 21
9857.5719303844053
 31
0.0
  0
LINE
  5
6FEC
  8
SL
 10
11920.701659750041
 20
9857.5719303844053
 30
0.0
 11
11685.701659750041
 21
9857.5719303844053
 31
0.0
  0
LINE
  5
6FED
  8
SL
 10
11685.701659750041
 20
9779.6719303844056
 30
0.0
 11
11685.701659750041
 21
9857.5719303844053
 31
0.0
  0
LINE
  5
6FEE
  8
SL
 10
12315.701659750041
 20
9779.6719303844075
 30
0.0
 11
12315.701659750041
 21
9857.5719303844071
 31
0.0
  0
LINE
  5
6FF1
  8
FUTO
 10
11950.701659750041
 20
10109.6719303844
 30
0.0
 11
11950.701659750041
 21
10633.6719303844
 31
0.0
  0
LINE
  5
6FF2
  8
FUTO
 10
12050.701659750041
 20
10109.6719303844
 30
0.0
 11
12050.701659750041
 21
10633.6719303844
 31
0.0
  0
LINE
  5
6FF5
  8
CT
 10
12161.068617786001
 20
10039.6719303844
 30
0.0
 11
11829.022569012501
 21
10039.6719303844
 31
0.0
  0
LINE
  5
6FF6
  8
FUTO
 10
12100.701659750041
 20
9989.6719303844075
 30
0.0
 11
11900.701659750041
 21
9989.6719303844075
 31
0.0
  0
ARC
  5
6FF7
  8
FUTO
 10
11911.701659750041
 20
9980.6719303844056
 30
0.0
 40
6.0
 50
180.0
 51
270.0
  0
LINE
  5
6FF8
  8
FUTO
 10
11900.701659750041
 20
10089.6719303844
 30
0.0
 11
12100.701659750041
 21
10089.6719303844
 31
0.0
  0
ARC
  5
6FF9
  8
FUTO
 10
11911.701659750041
 20
10098.6719303844
 30
0.0
 40
6.0
 50
90.0
 51
180.0
  0
LINE
  5
6FFD
  8
FUTO
 10
11905.701659750041
 20
9980.6719303844038
 30
0.0
 11
11905.701659750041
 21
9989.6719303844075
 31
0.0
  0
LINE
  5
7000
  8
FUTO
 10
11905.701659750041
 20
10098.6719303844
 30
0.0
 11
11905.701659750041
 21
10089.6719303844
 31
0.0
  0
ARC
  5
7001
  8
FUTO
 10
12089.701659750041
 20
9980.6719303844056
 30
0.0
 40
6.0
 50
270.0
 51
0.000000000000007
  0
ARC
  5
7002
  8
FUTO
 10
12089.701659750041
 20
10098.6719303844
 30
0.0
 40
6.0
 50
0.000000000000007
 51
90.0
  0
LINE
  5
7004
  8
FUTO
 10
11958.201659750041
 20
9879.6719303844056
 30
0.0
 11
11958.201659750041
 21
9969.6719303844075
 31
0.0
  0
LINE
  5
7005
  8
FUTO
 10
12043.201659750041
 20
9879.6719303844056
 30
0.0
 11
12043.201659750041
 21
9969.6719303844075
 31
0.0
  0
LINE
  5
7006
  8
SL
 10
12080.701659750041
 20
9879.6719303844056
 30
0.0
 11
11920.701659750041
 21
9879.6719303844056
 31
0.0
  0
LINE
  5
7007
  8
FUTO
 10
12080.701659750041
 20
9969.6719303844075
 30
0.0
 11
11920.701659750041
 21
9969.6719303844075
 31
0.0
  0
LINE
  5
7008
  8
FUTO
 10
12089.701659750041
 20
9974.6719303844038
 30
0.0
 11
11911.701659750041
 21
9974.6719303844038
 31
0.0
  0
LINE
  5
7009
  8
FUTO
 10
11920.701659750041
 20
9969.6719303844075
 30
0.0
 11
11920.701659750041
 21
9974.6719303844056
 31
0.0
  0
LINE
  5
700B
  8
FUTO
 10
12080.701659750041
 20
9974.6719303844056
 30
0.0
 11
12080.701659750041
 21
9969.6719303844075
 31
0.0
  0
LINE
  5
700C
  8
FUTO
 10
12089.701659750041
 20
10104.6719303844
 30
0.0
 11
11911.701659750041
 21
10104.6719303844
 31
0.0
  0
LINE
  5
700D
  8
FUTO
 10
12080.701659750041
 20
10109.6719303844
 30
0.0
 11
11920.701659750041
 21
10109.6719303844
 31
0.0
  0
LINE
  5
700F
  8
FUTO
 10
11920.701659750041
 20
10109.6719303844
 30
0.0
 11
11920.701659750041
 21
10104.6719303844
 31
0.0
  0
LINE
  5
7010
  8
FUTO
 10
12080.701659750041
 20
10104.6719303844
 30
0.0
 11
12080.701659750041
 21
10109.6719303844
 31
0.0
  0
LINE
  5
7011
  8
FUTO
 10
12100.701659750041
 20
10089.6719303844
 30
0.0
 11
12100.701659750041
 21
9989.6719303844075
 31
0.0
  0
LINE
  5
7012
  8
FUTO
 10
12095.701659750041
 20
9989.6719303844075
 30
0.0
 11
12095.701659750041
 21
9980.6719303844038
 31
0.0
  0
LINE
  5
7013
  8
FUTO
 10
12095.701659750041
 20
10089.6719303844
 30
0.0
 11
12095.701659750041
 21
10098.6719303844
 31
0.0
  0
LINE
  5
7015
  8
FUTO
 10
12120.701659750041
 20
10641.6719303844
 30
0.0
 11
11880.701659750041
 21
10641.6719303844
 31
0.0
  0
LINE
  5
7016
  8
FUTO
 10
12120.701659750041
 20
10797.6719303844
 30
0.0
 11
11880.701659750041
 21
10797.6719303844
 31
0.0
  0
LINE
  5
7018
  8
FUTO
 10
11920.701659750041
 20
10633.6719303844
 30
0.0
 11
11900.701659750041
 21
10641.6719303844
 31
0.0
  0
LINE
  5
701A
  8
FUTO
 10
11920.701659750041
 20
10805.6719303844
 30
0.0
 11
11900.701659750041
 21
10797.6719303844
 31
0.0
  0
LINE
  5
701D
  8
CT
 10
12161.068617786001
 20
10719.6719303844
 30
0.0
 11
11829.022569012501
 21
10719.6719303844
 31
0.0
  0
LINE
  5
7022
  8
FUTO
 10
11880.701659750041
 20
10641.6719303844
 30
0.0
 11
11880.701659750041
 21
10649.6719303844
 31
0.0
  0
LINE
  5
7024
  8
FUTO
 10
11880.701659750041
 20
10797.6719303844
 30
0.0
 11
11880.701659750041
 21
10789.6719303844
 31
0.0
  0
LINE
  5
7026
  8
FUTO
 10
12133.701659750041
 20
10665.6719303844
 30
0.0
 11
12133.701659750041
 21
10773.6719303844
 31
0.0
  0
LINE
  5
7027
  8
FUTO
 10
12120.701659750041
 20
10655.6719303844
 30
0.0
 11
11880.701659750041
 21
10655.6719303844
 31
0.0
  0
LINE
  5
7028
  8
FUTO
 10
12080.701659750041
 20
10633.6719303844
 30
0.0
 11
12100.701659750041
 21
10641.6719303844
 31
0.0
  0
LINE
  5
7029
  8
FUTO
 10
12133.701659750041
 20
10692.1719303844
 30
0.0
 11
11867.701659750041
 21
10692.1719303844
 31
0.0
  0
LINE
  5
702A
  8
FUTO
 10
12080.701659750041
 20
10633.6719303844
 30
0.0
 11
11920.701659750041
 21
10633.6719303844
 31
0.0
  0
LINE
  5
702C
  8
FUTO
 10
12120.701659750041
 20
10641.6719303844
 30
0.0
 11
12120.701659750041
 21
10655.6719303844
 31
0.0
  0
LINE
  5
702D
  8
FUTO
 10
12133.701659750041
 20
10665.6719303844
 30
0.0
 11
12120.701659750041
 21
10665.6719303844
 31
0.0
  0
LINE
  5
702E
  8
FUTO
 10
12120.701659750041
 20
10655.6719303844
 30
0.0
 11
12120.701659750041
 21
10692.1719303844
 31
0.0
  0
LINE
  5
702F
  8
FUTO
 10
12120.701659750041
 20
10783.6719303844
 30
0.0
 11
11920.701659750041
 21
10783.6719303844
 31
0.0
  0
LINE
  5
7030
  8
FUTO
 10
12080.701659750041
 20
10805.6719303844
 30
0.0
 11
12100.701659750041
 21
10797.6719303844
 31
0.0
  0
LINE
  5
7031
  8
FUTO
 10
12120.701659750041
 20
10783.6719303844
 30
0.0
 11
11880.701659750041
 21
10783.6719303844
 31
0.0
  0
LINE
  5
7032
  8
FUTO
 10
12133.701659750041
 20
10747.1719303844
 30
0.0
 11
11867.701659750041
 21
10747.1719303844
 31
0.0
  0
LINE
  5
7033
  8
KL
 10
11950.701659750041
 20
10805.6719303844
 30
0.0
 11
11950.701659750041
 21
10927.471930384399
 31
0.0
  0
LINE
  5
7034
  8
KL
 10
12050.701659750041
 20
10805.6719303844
 30
0.0
 11
12050.701659750041
 21
10927.471930384399
 31
0.0
  0
LINE
  5
7035
  8
FUTO
 10
12080.701659750041
 20
10805.6719303844
 30
0.0
 11
11920.701659750041
 21
10805.6719303844
 31
0.0
  0
LINE
  5
703A
  8
FUTO
 10
12133.701659750041
 20
10773.6719303844
 30
0.0
 11
12120.701659750041
 21
10773.6719303844
 31
0.0
  0
LINE
  5
703B
  8
FUTO
 10
12120.701659750041
 20
10797.6719303844
 30
0.0
 11
12120.701659750041
 21
10783.6719303844
 31
0.0
  0
LINE
  5
703C
  8
FUTO
 10
12120.701659750041
 20
10747.1719303844
 30
0.0
 11
12120.701659750041
 21
10783.6719303844
 31
0.0
  0
LINE
  5
703F
  8
KL
 10
11991.701659750041
 20
12119.871930384399
 30
0.0
 11
11135.701659750041
 21
12119.871930384399
 31
0.0
  0
LINE
  5
7040
  8
FUTO
 10
12865.701659750041
 20
12239.6719303844
 30
0.0
 11
11135.701659750041
 21
12239.6719303844
 31
0.0
  0
LINE
  5
7041
  8
FUTO
 10
12865.701659750041
 20
12245.6719303844
 30
0.0
 11
11135.701659750041
 21
12245.6719303844
 31
0.0
  0
LINE
  5
7045
  8
KL
 10
11135.701659750041
 20
12113.871930384399
 30
0.0
 11
11135.701659750041
 21
12119.871930384399
 31
0.0
  0
LINE
  5
7046
  8
FUTO
 10
11135.701659750041
 20
12239.6719303844
 30
0.0
 11
11135.701659750041
 21
12245.6719303844
 31
0.0
  0
LINE
  5
7047
  8
FUTO
 10
11194.701659750041
 20
12188.871930384399
 30
0.0
 11
11194.701659750041
 21
12239.6719303844
 31
0.0
  0
LINE
  5
7048
  8
KL
 10
11200.701659750041
 20
12113.871930384399
 30
0.0
 11
11200.701659750041
 21
12245.6719303844
 31
0.0
  0
LINE
  5
7049
  8
CT
 10
11160.701659750041
 20
12090.6719303844
 30
0.0
 11
11160.701659750041
 21
12133.871930384399
 31
0.0
  0
LINE
  5
704A
  8
CT
 10
11160.701659750041
 20
12220.6719303844
 30
0.0
 11
11160.701659750041
 21
12263.871930384399
 31
0.0
  0
LINE
  5
704E
  8
KL
 10
12865.701659750041
 20
12119.871930384399
 30
0.0
 11
12009.701659750041
 21
12119.871930384399
 31
0.0
  0
INSERT
  5
7052
  8
FUTO
  2
まっすぐの矢印
 10
12257.56291204101
 20
12292.13990995556
 30
0.0
 41
-35.0
 42
35.0
 43
35.0
 50
180.0
  0
LINE
  5
7053
  8
FUTO
 10
12806.701659750041
 20
12188.871930384399
 30
0.0
 11
12806.701659750041
 21
12239.6719303844
 31
0.0
  0
LINE
  5
7054
  8
KL
 10
12800.701659750041
 20
12113.871930384399
 30
0.0
 11
12800.701659750041
 21
12245.6719303844
 31
0.0
  0
LINE
  5
7055
  8
CT
 10
12840.701659750041
 20
12090.6719303844
 30
0.0
 11
12840.701659750041
 21
12133.871930384399
 31
0.0
  0
LINE
  5
7056
  8
CT
 10
12840.701659750041
 20
12220.6719303844
 30
0.0
 11
12840.701659750041
 21
12263.871930384399
 31
0.0
  0
LINE
  5
7057
  8
KL
 10
12865.701659750041
 20
12113.871930384399
 30
0.0
 11
12865.701659750041
 21
12119.871930384399
 31
0.0
  0
LINE
  5
7058
  8
FUTO
 10
12865.701659750041
 20
12239.6719303844
 30
0.0
 11
12865.701659750041
 21
12245.6719303844
 31
0.0
  0
LINE
  5
7096
  8
FUTO
 10
11900.701659750041
 20
10089.6719303844
 30
0.0
 11
11900.701659750041
 21
9989.6719303844075
 31
0.0
  0
LINE
  5
7097
  8
FUTO
 10
11867.701659750041
 20
10665.6719303844
 30
0.0
 11
11867.701659750041
 21
10773.6719303844
 31
0.0
  0
LINE
  5
7098
  8
FUTO
 10
11880.701659750041
 20
10655.6719303844
 30
0.0
 11
11880.701659750041
 21
10692.1719303844
 31
0.0
  0
LINE
  5
7099
  8
FUTO
 10
11867.701659750041
 20
10665.6719303844
 30
0.0
 11
11880.701659750041
 21
10665.6719303844
 31
0.0
  0
LINE
  5
709A
  8
FUTO
 10
11880.701659750041
 20
10641.6719303844
 30
0.0
 11
11880.701659750041
 21
10655.6719303844
 31
0.0
  0
LINE
  5
709B
  8
FUTO
 10
11880.701659750041
 20
10747.1719303844
 30
0.0
 11
11880.701659750041
 21
10783.6719303844
 31
0.0
  0
LINE
  5
709C
  8
FUTO
 10
11880.701659750041
 20
10797.6719303844
 30
0.0
 11
11880.701659750041
 21
10783.6719303844
 31
0.0
  0
LINE
  5
709D
  8
FUTO
 10
11867.701659750041
 20
10773.6719303844
 30
0.0
 11
11880.701659750041
 21
10773.6719303844
 31
0.0
  0
ARC
  5
7D1A
  8
FUTO
 10
10750.701659750041
 20
9880.6719303844002
 30
0.0
 40
9.0
 50
0.000000000000007
 51
180.0
  0
LINE
  5
7D1B
  8
FUTO
 10
10741.701659750041
 20
9779.671930384402
 30
0.0
 11
10741.701659750041
 21
9880.6719303844002
 31
0.0
  0
LINE
  5
7D1C
  8
FUTO
 10
10759.701659750041
 20
9779.671930384402
 30
0.0
 11
10759.701659750041
 21
9880.6719303844002
 31
0.0
  0
LINE
  5
7D1D
  8
FUTO
 10
10493.70172075003
 20
10294.1718693844
 30
0.0
 11
10493.70172075003
 21
10330.1719303844
 31
0.0
  0
LINE
  5
7D1E
  8
FUTO
 10
10490.70172075003
 20
10294.1718693844
 30
0.0
 11
10490.70172075003
 21
10330.1719303844
 31
0.0
  0
LINE
  5
7D1F
  8
FUTO
 10
10498.70172075003
 20
10294.1718693844
 30
0.0
 11
10498.70172075003
 21
10341.1719303844
 31
0.0
  0
LINE
  5
7D20
  8
FUTO
 10
10540.701659750041
 20
9955.171930384402
 30
0.0
 11
10540.701659750041
 21
10002.0469303844
 31
0.0
  0
LINE
  5
7D21
  8
FUTO
 10
10593.010024754511
 20
9950.1719303844038
 30
0.0
 11
10545.701659750041
 21
9950.1719303844038
 31
0.0
  0
ARC
  5
7D22
  8
FUTO
 10
10545.701659750041
 20
9955.171930384402
 30
0.0
 40
5.0
 50
180.0
 51
270.0
  0
LINE
  5
7D23
  8
FUTO
 10
10561.02031453161
 20
10002.0469303844
 30
0.0
 11
10540.701659750041
 21
10002.0469303844
 31
0.0
  0
LINE
  5
7D24
  8
FUTO
 10
10540.701659750041
 20
10000.1719303844
 30
0.0
 11
10493.70172075003
 21
10000.1719303844
 31
0.0
  0
LINE
  5
7D25
  8
FUTO
 10
10540.701659750041
 20
9997.1719303844038
 30
0.0
 11
10490.70172075003
 21
9997.1719303844038
 31
0.0
  0
LINE
  5
7D26
  8
FUTO
 10
10560.911186181749
 20
10005.1719303844
 30
0.0
 11
10498.70172075003
 21
10005.1719303844
 31
0.0
  0
LINE
  5
7D27
  8
FUTO
 10
10498.70172075003
 20
10005.1719303844
 30
0.0
 11
10493.70172075003
 21
10000.1719303844
 31
0.0
  0
LINE
  5
7D28
  8
FUTO
 10
10465.701720750039
 20
10040.1719303844
 30
0.0
 11
10465.701720750039
 21
10080.1719303844
 31
0.0
  0
LINE
  5
7D29
  8
FUTO
 10
10495.70172075003
 20
10040.1719303844
 30
0.0
 11
10495.70172075003
 21
10080.1719303844
 31
0.0
  0
LINE
  5
7D2A
  8
FUTO
 10
10465.701720750039
 20
10080.1719303844
 30
0.0
 11
10495.70172075003
 21
10080.1719303844
 31
0.0
  0
LINE
  5
7D2B
  8
FUTO
 10
10495.70172075003
 20
10040.1719303844
 30
0.0
 11
10465.701720750039
 21
10040.1719303844
 31
0.0
  0
LINE
  5
7D2C
  8
CT
 10
10547.201659750041
 20
10060.1719303844
 30
0.0
 11
10379.64727775004
 21
10060.1719303844
 31
0.0
  0
LINE
  5
7D2D
  8
FUTO
 10
10391.24725275003
 20
10077.7617743844
 30
0.0
 11
10403.347228750041
 21
10077.7617743844
 31
0.0
  0
LINE
  5
7D2E
  8
FUTO
 10
10391.24725275003
 20
10042.5820873844
 30
0.0
 11
10403.347228750041
 21
10042.5820873844
 31
0.0
  0
LINE
  5
7D2F
  8
FUTO
 10
10391.24725275003
 20
10069.877008384399
 30
0.0
 11
10403.347228750041
 21
10069.877008384399
 31
0.0
  0
LINE
  5
7D30
  8
FUTO
 10
10391.24725275003
 20
10050.466852384399
 30
0.0
 11
10403.347228750041
 21
10050.466852384399
 31
0.0
  0
LINE
  5
7D31
  8
FUTO
 10
10389.64727775004
 20
10076.162165384399
 30
0.0
 11
10389.64727775004
 21
10044.182672384401
 31
0.0
  0
LINE
  5
7D32
  8
FUTO
 10
10391.24725275003
 20
10042.5820873844
 30
0.0
 11
10389.64727775004
 21
10044.182672384401
 31
0.0
  0
LINE
  5
7D33
  8
FUTO
 10
10391.24725275003
 20
10050.466852384399
 30
0.0
 11
10389.64727775004
 21
10048.8672433844
 31
0.0
  0
LINE
  5
7D34
  8
FUTO
 10
10391.24725275003
 20
10050.466852384399
 30
0.0
 11
10389.64727775004
 21
10052.0674383844
 31
0.0
  0
LINE
  5
7D35
  8
FUTO
 10
10389.64727775004
 20
10076.162165384399
 30
0.0
 11
10391.24725275003
 21
10077.7617743844
 31
0.0
  0
LINE
  5
7D36
  8
FUTO
 10
10391.24725275003
 20
10069.877008384399
 30
0.0
 11
10389.64727775004
 21
10071.4775943844
 31
0.0
  0
LINE
  5
7D37
  8
FUTO
 10
10391.24725275003
 20
10069.877008384399
 30
0.0
 11
10389.64727775004
 21
10068.2773993844
 31
0.0
  0
LINE
  5
7D38
  8
FUTO
 10
10403.347228750041
 20
10077.7617743844
 30
0.0
 11
10403.347228750041
 21
10042.5820873844
 31
0.0
  0
LINE
  5
7D39
  8
FUTO
 10
10403.347228750041
 20
10051.1719303844
 30
0.0
 11
10465.701720750039
 21
10051.1719303844
 31
0.0
  0
LINE
  5
7D3A
  8
HOSO
 10
10465.701720750039
 20
10053.1719303844
 30
0.0
 11
10403.34716775004
 21
10053.1719303844
 31
0.0
  0
LINE
  5
7D3B
  8
HOSO
 10
10403.347228750041
 20
10067.1719303844
 30
0.0
 11
10465.701720750039
 21
10067.1719303844
 31
0.0
  0
LINE
  5
7D3C
  8
FUTO
 10
10465.701720750039
 20
10069.1719303844
 30
0.0
 11
10403.34716775004
 21
10069.1719303844
 31
0.0
  0
LINE
  5
7D3D
  8
FUTO
 10
10495.70172075003
 20
10051.1719303844
 30
0.0
 11
10547.201659750041
 21
10051.1719303844
 31
0.0
  0
LINE
  5
7D3E
  8
HOSO
 10
10547.201659750041
 20
10053.1719303844
 30
0.0
 11
10495.70172075003
 21
10053.1719303844
 31
0.0
  0
LINE
  5
7D3F
  8
FUTO
 10
10547.201659750041
 20
10069.1719303844
 30
0.0
 11
10495.70172075003
 21
10069.1719303844
 31
0.0
  0
LINE
  5
7D40
  8
HOSO
 10
10495.70172075003
 20
10067.1719303844
 30
0.0
 11
10547.201659750041
 21
10067.1719303844
 31
0.0
  0
LINE
  5
7D41
  8
FUTO
 10
10490.70172075003
 20
9997.1719303844038
 30
0.0
 11
10490.70172075003
 21
10040.1719303844
 31
0.0
  0
LINE
  5
7D42
  8
FUTO
 10
10493.70172075003
 20
10000.1719303844
 30
0.0
 11
10493.70172075003
 21
10040.1719303844
 31
0.0
  0
LINE
  5
7D43
  8
FUTO
 10
10498.70172075003
 20
10005.1719303844
 30
0.0
 11
10498.70172075003
 21
10051.1719303844
 31
0.0
  0
LINE
  5
7D44
  8
FUTO
 10
10490.70172075003
 20
10080.1719303844
 30
0.0
 11
10490.70172075003
 21
10116.1719303844
 31
0.0
  0
LINE
  5
7D45
  8
FUTO
 10
10493.70172075003
 20
10080.1719303844
 30
0.0
 11
10493.70172075003
 21
10116.1719303844
 31
0.0
  0
LINE
  5
7D46
  8
FUTO
 10
10498.70172075003
 20
10069.1719303844
 30
0.0
 11
10498.70172075003
 21
10116.1719303844
 31
0.0
  0
LINE
  5
7D47
  8
FUTO
 10
10465.701720750039
 20
10341.1719303844
 30
0.0
 11
10403.34716775004
 21
10341.1719303844
 31
0.0
  0
LINE
  5
7D48
  8
HOSO
 10
10403.347228750041
 20
10343.1719303844
 30
0.0
 11
10465.701720750039
 21
10343.1719303844
 31
0.0
  0
LINE
  5
7D49
  8
HOSO
 10
10465.701720750039
 20
10357.1719303844
 30
0.0
 11
10403.34716775004
 21
10357.1719303844
 31
0.0
  0
LINE
  5
7D4A
  8
FUTO
 10
10403.347228750041
 20
10359.1719303844
 30
0.0
 11
10465.701720750039
 21
10359.1719303844
 31
0.0
  0
LINE
  5
7D4B
  8
FUTO
 10
10403.347228750041
 20
10332.5820863844
 30
0.0
 11
10403.347228750041
 21
10367.7617733844
 31
0.0
  0
LINE
  5
7D4C
  8
FUTO
 10
10391.24725275003
 20
10340.466852384399
 30
0.0
 11
10389.64727775004
 21
10342.0664613844
 31
0.0
  0
LINE
  5
7D4D
  8
FUTO
 10
10391.24725275003
 20
10340.466852384399
 30
0.0
 11
10389.64727775004
 21
10338.866266384401
 31
0.0
  0
LINE
  5
7D4E
  8
FUTO
 10
10389.64727775004
 20
10334.181695384401
 30
0.0
 11
10391.24725275003
 21
10332.5820863844
 31
0.0
  0
LINE
  5
7D4F
  8
FUTO
 10
10391.24725275003
 20
10359.877008384399
 30
0.0
 11
10389.64727775004
 21
10358.276422384401
 31
0.0
  0
LINE
  5
7D50
  8
FUTO
 10
10391.24725275003
 20
10359.877008384399
 30
0.0
 11
10389.64727775004
 21
10361.4766173844
 31
0.0
  0
LINE
  5
7D51
  8
FUTO
 10
10391.24725275003
 20
10367.7617733844
 30
0.0
 11
10389.64727775004
 21
10366.1611883844
 31
0.0
  0
LINE
  5
7D52
  8
FUTO
 10
10389.64727775004
 20
10334.181695384401
 30
0.0
 11
10389.64727775004
 21
10366.1611883844
 31
0.0
  0
LINE
  5
7D53
  8
FUTO
 10
10391.24725275003
 20
10359.877008384399
 30
0.0
 11
10403.347228750041
 21
10359.877008384399
 31
0.0
  0
LINE
  5
7D54
  8
FUTO
 10
10391.24725275003
 20
10340.466852384399
 30
0.0
 11
10403.347228750041
 21
10340.466852384399
 31
0.0
  0
LINE
  5
7D55
  8
FUTO
 10
10391.24725275003
 20
10367.7617733844
 30
0.0
 11
10403.347228750041
 21
10367.7617733844
 31
0.0
  0
LINE
  5
7D56
  8
FUTO
 10
10391.24725275003
 20
10332.5820863844
 30
0.0
 11
10403.347228750041
 21
10332.5820863844
 31
0.0
  0
LINE
  5
7D57
  8
FUTO
 10
10495.70172075003
 20
10370.1719303844
 30
0.0
 11
10465.701720750039
 21
10370.1719303844
 31
0.0
  0
LINE
  5
7D58
  8
FUTO
 10
10465.701720750039
 20
10330.1719303844
 30
0.0
 11
10495.70172075003
 21
10330.1719303844
 31
0.0
  0
LINE
  5
7D59
  8
FUTO
 10
10495.70172075003
 20
10370.1719303844
 30
0.0
 11
10495.70172075003
 21
10330.1719303844
 31
0.0
  0
LINE
  5
7D5A
  8
FUTO
 10
10465.701720750039
 20
10370.1719303844
 30
0.0
 11
10465.701720750039
 21
10330.1719303844
 31
0.0
  0
LINE
  5
7D5B
  8
HOSO
 10
10495.70172075003
 20
10343.1719303844
 30
0.0
 11
10547.201659750041
 21
10343.1719303844
 31
0.0
  0
LINE
  5
7D5C
  8
FUTO
 10
10547.201659750041
 20
10341.1719303844
 30
0.0
 11
10495.70172075003
 21
10341.1719303844
 31
0.0
  0
LINE
  5
7D5D
  8
HOSO
 10
10547.201659750041
 20
10357.1719303844
 30
0.0
 11
10495.70172075003
 21
10357.1719303844
 31
0.0
  0
LINE
  5
7D5E
  8
FUTO
 10
10495.70172075003
 20
10359.1719303844
 30
0.0
 11
10547.201659750041
 21
10359.1719303844
 31
0.0
  0
LINE
  5
7D5F
  8
CT
 10
10547.201659750041
 20
10350.1719303844
 30
0.0
 11
10379.64727775004
 21
10350.1719303844
 31
0.0
  0
LINE
  5
7D60
  8
FUTO
 10
10498.70172075003
 20
10405.1719303844
 30
0.0
 11
10493.70172075003
 21
10410.1719303844
 31
0.0
  0
LINE
  5
7D61
  8
FUTO
 10
10540.701659750041
 20
10413.1719303844
 30
0.0
 11
10490.70172075003
 21
10413.1719303844
 31
0.0
  0
LINE
  5
7D62
  8
FUTO
 10
10540.701659750041
 20
10410.1719303844
 30
0.0
 11
10493.70172075003
 21
10410.1719303844
 31
0.0
  0
LINE
  5
7D63
  8
FUTO
 10
10547.201659750041
 20
10408.2969303844
 30
0.0
 11
10540.701659750041
 21
10408.2969303844
 31
0.0
  0
LINE
  5
7D64
  8
FUTO
 10
10547.201659750041
 20
10405.1719303844
 30
0.0
 11
10498.70172075003
 21
10405.1719303844
 31
0.0
  0
LINE
  5
7D65
  8
FUTO
 10
10498.70172075003
 20
10405.1719303844
 30
0.0
 11
10498.70172075003
 21
10359.1719303844
 31
0.0
  0
LINE
  5
7D66
  8
FUTO
 10
10493.70172075003
 20
10410.1719303844
 30
0.0
 11
10493.70172075003
 21
10370.1719303844
 31
0.0
  0
LINE
  5
7D67
  8
FUTO
 10
10490.70172075003
 20
10413.1719303844
 30
0.0
 11
10490.70172075003
 21
10370.1719303844
 31
0.0
  0
ARC
  5
7D68
  8
FUTO
 10
10545.701659750041
 20
10455.1719303844
 30
0.0
 40
5.0
 50
89.999999999999986
 51
180.0
  0
LINE
  5
7D69
  8
FUTO
 10
10540.701659750041
 20
10455.1719303844
 30
0.0
 11
10540.701659750041
 21
10408.2969303844
 31
0.0
  0
LINE
  5
7D6A
  8
FUTO
 10
10558.201659750041
 20
10460.1719303844
 30
0.0
 11
10545.701659750041
 21
10460.1719303844
 31
0.0
  0
LINE
  5
7D6B
  8
CT
 10
10954.201659750041
 20
10350.1719303844
 30
0.0
 11
11121.75604175003
 21
10350.1719303844
 31
0.0
  0
LINE
  5
7D6C
  8
FUTO
 10
11005.70159875004
 20
10359.1719303844
 30
0.0
 11
10954.201659750041
 21
10359.1719303844
 31
0.0
  0
LINE
  5
7D6D
  8
HOSO
 10
10954.201659750041
 20
10357.1719303844
 30
0.0
 11
11005.70159875004
 21
10357.1719303844
 31
0.0
  0
LINE
  5
7D6E
  8
FUTO
 10
10954.201659750041
 20
10341.1719303844
 30
0.0
 11
11005.70159875004
 21
10341.1719303844
 31
0.0
  0
LINE
  5
7D6F
  8
HOSO
 10
11005.70159875004
 20
10343.1719303844
 30
0.0
 11
10954.201659750041
 21
10343.1719303844
 31
0.0
  0
LINE
  5
7D70
  8
FUTO
 10
11035.70159875004
 20
10370.1719303844
 30
0.0
 11
11035.70159875004
 21
10330.1719303844
 31
0.0
  0
LINE
  5
7D71
  8
FUTO
 10
11005.70159875004
 20
10370.1719303844
 30
0.0
 11
11005.70159875004
 21
10330.1719303844
 31
0.0
  0
LINE
  5
7D72
  8
FUTO
 10
11035.70159875004
 20
10330.1719303844
 30
0.0
 11
11005.70159875004
 21
10330.1719303844
 31
0.0
  0
LINE
  5
7D73
  8
FUTO
 10
11005.70159875004
 20
10370.1719303844
 30
0.0
 11
11035.70159875004
 21
10370.1719303844
 31
0.0
  0
LINE
  5
7D74
  8
FUTO
 10
11110.15606675004
 20
10332.5820863844
 30
0.0
 11
11098.05609075004
 21
10332.5820863844
 31
0.0
  0
LINE
  5
7D75
  8
FUTO
 10
11110.15606675004
 20
10367.7617733844
 30
0.0
 11
11098.05609075004
 21
10367.7617733844
 31
0.0
  0
LINE
  5
7D76
  8
FUTO
 10
11110.15606675004
 20
10340.466852384399
 30
0.0
 11
11098.05609075004
 21
10340.466852384399
 31
0.0
  0
LINE
  5
7D77
  8
FUTO
 10
11110.15606675004
 20
10359.877008384399
 30
0.0
 11
11098.05609075004
 21
10359.877008384399
 31
0.0
  0
LINE
  5
7D78
  8
FUTO
 10
11111.756041750041
 20
10334.181695384401
 30
0.0
 11
11111.756041750041
 21
10366.1611883844
 31
0.0
  0
LINE
  5
7D79
  8
FUTO
 10
11110.15606675004
 20
10367.7617733844
 30
0.0
 11
11111.756041750041
 21
10366.1611883844
 31
0.0
  0
LINE
  5
7D7A
  8
FUTO
 10
11110.15606675004
 20
10359.877008384399
 30
0.0
 11
11111.756041750041
 21
10361.4766173844
 31
0.0
  0
LINE
  5
7D7B
  8
FUTO
 10
11110.15606675004
 20
10359.877008384399
 30
0.0
 11
11111.756041750041
 21
10358.276422384401
 31
0.0
  0
LINE
  5
7D7C
  8
FUTO
 10
11111.756041750041
 20
10334.181695384401
 30
0.0
 11
11110.15606675004
 21
10332.5820863844
 31
0.0
  0
LINE
  5
7D7D
  8
FUTO
 10
11110.15606675004
 20
10340.466852384399
 30
0.0
 11
11111.756041750041
 21
10338.866266384401
 31
0.0
  0
LINE
  5
7D7E
  8
FUTO
 10
11110.15606675004
 20
10340.466852384399
 30
0.0
 11
11111.756041750041
 21
10342.0664613844
 31
0.0
  0
LINE
  5
7D7F
  8
FUTO
 10
11098.05609075004
 20
10332.5820863844
 30
0.0
 11
11098.05609075004
 21
10367.7617733844
 31
0.0
  0
LINE
  5
7D80
  8
FUTO
 10
11098.05609075004
 20
10359.1719303844
 30
0.0
 11
11035.70159875004
 21
10359.1719303844
 31
0.0
  0
LINE
  5
7D81
  8
HOSO
 10
11035.70159875004
 20
10357.1719303844
 30
0.0
 11
11098.05615175003
 21
10357.1719303844
 31
0.0
  0
LINE
  5
7D82
  8
HOSO
 10
11098.05609075004
 20
10343.1719303844
 30
0.0
 11
11035.70159875004
 21
10343.1719303844
 31
0.0
  0
LINE
  5
7D83
  8
FUTO
 10
11035.70159875004
 20
10341.1719303844
 30
0.0
 11
11098.05615175003
 21
10341.1719303844
 31
0.0
  0
LINE
  5
7D84
  8
FUTO
 10
11010.70159875004
 20
10413.1719303844
 30
0.0
 11
11010.70159875004
 21
10370.1719303844
 31
0.0
  0
LINE
  5
7D85
  8
FUTO
 10
11007.70159875004
 20
10410.1719303844
 30
0.0
 11
11007.70159875004
 21
10370.1719303844
 31
0.0
  0
LINE
  5
7D86
  8
FUTO
 10
11002.70159875004
 20
10405.1719303844
 30
0.0
 11
11002.70159875004
 21
10359.1719303844
 31
0.0
  0
LINE
  5
7D87
  8
FUTO
 10
10943.201659750041
 20
10460.1719303844
 30
0.0
 11
10955.701659750041
 21
10460.1719303844
 31
0.0
  0
LINE
  5
7D88
  8
FUTO
 10
10954.201659750041
 20
10405.1719303844
 30
0.0
 11
11002.70159875004
 21
10405.1719303844
 31
0.0
  0
LINE
  5
7D89
  8
FUTO
 10
10954.201659750041
 20
10408.2969303844
 30
0.0
 11
10960.701659750041
 21
10408.2969303844
 31
0.0
  0
LINE
  5
7D8A
  8
FUTO
 10
10960.701659750041
 20
10455.1719303844
 30
0.0
 11
10960.701659750041
 21
10408.2969303844
 31
0.0
  0
LINE
  5
7D8B
  8
FUTO
 10
10960.701659750041
 20
10410.1719303844
 30
0.0
 11
11007.70159875004
 21
10410.1719303844
 31
0.0
  0
LINE
  5
7D8C
  8
FUTO
 10
10960.701659750041
 20
10413.1719303844
 30
0.0
 11
11010.70159875004
 21
10413.1719303844
 31
0.0
  0
ARC
  5
7D8D
  8
FUTO
 10
10955.701659750041
 20
10455.1719303844
 30
0.0
 40
5.0
 50
0.000000000000007
 51
89.999999999999986
  0
LINE
  5
7D8E
  8
FUTO
 10
11002.70159875004
 20
10405.1719303844
 30
0.0
 11
11007.70159875004
 21
10410.1719303844
 31
0.0
  0
LINE
  5
7D8F
  8
FUTO
 10
10940.383004968469
 20
10002.0469303844
 30
0.0
 11
10960.701659750041
 21
10002.0469303844
 31
0.0
  0
LINE
  5
7D90
  8
FUTO
 10
11002.70159875004
 20
10069.1719303844
 30
0.0
 11
11002.70159875004
 21
10341.1719303844
 31
0.0
  0
LINE
  5
7D91
  8
FUTO
 10
11002.70159875004
 20
10005.1719303844
 30
0.0
 11
11007.70159875004
 21
10000.1719303844
 31
0.0
  0
LINE
  5
7D92
  8
FUTO
 10
11002.70159875004
 20
10005.1719303844
 30
0.0
 11
11002.70159875004
 21
10051.1719303844
 31
0.0
  0
LINE
  5
7D93
  8
FUTO
 10
10940.492133318319
 20
10005.1719303844
 30
0.0
 11
11002.70159875004
 21
10005.1719303844
 31
0.0
  0
ARC
  5
7D94
  8
FUTO
 10
10955.701659750041
 20
9955.171930384402
 30
0.0
 40
5.0
 50
270.0
 51
0.000000000000007
  0
LINE
  5
7D95
  8
FUTO
 10
10960.701659750041
 20
9997.1719303844038
 30
0.0
 11
11010.70159875004
 21
9997.1719303844038
 31
0.0
  0
LINE
  5
7D96
  8
FUTO
 10
10960.701659750041
 20
10000.1719303844
 30
0.0
 11
11007.70159875004
 21
10000.1719303844
 31
0.0
  0
LINE
  5
7D97
  8
FUTO
 10
10908.39329474556
 20
9950.1719303844038
 30
0.0
 11
10955.701659750041
 21
9950.1719303844038
 31
0.0
  0
LINE
  5
7D98
  8
FUTO
 10
10960.701659750041
 20
9955.171930384402
 30
0.0
 11
10960.701659750041
 21
10002.0469303844
 31
0.0
  0
LINE
  5
7D99
  8
FUTO
 10
11007.70159875004
 20
10080.1719303844
 30
0.0
 11
11007.70159875004
 21
10330.1719303844
 31
0.0
  0
LINE
  5
7D9A
  8
FUTO
 10
11010.70159875004
 20
10080.1719303844
 30
0.0
 11
11010.70159875004
 21
10330.1719303844
 31
0.0
  0
LINE
  5
7D9B
  8
FUTO
 10
11007.70159875004
 20
10000.1719303844
 30
0.0
 11
11007.70159875004
 21
10040.1719303844
 31
0.0
  0
LINE
  5
7D9C
  8
FUTO
 10
11010.70159875004
 20
9997.1719303844038
 30
0.0
 11
11010.70159875004
 21
10040.1719303844
 31
0.0
  0
LINE
  5
7D9D
  8
HOSO
 10
11005.70159875004
 20
10067.1719303844
 30
0.0
 11
10954.201659750041
 21
10067.1719303844
 31
0.0
  0
LINE
  5
7D9E
  8
FUTO
 10
10954.201659750041
 20
10069.1719303844
 30
0.0
 11
11005.70159875004
 21
10069.1719303844
 31
0.0
  0
LINE
  5
7D9F
  8
HOSO
 10
10954.201659750041
 20
10053.1719303844
 30
0.0
 11
11005.70159875004
 21
10053.1719303844
 31
0.0
  0
LINE
  5
7DA0
  8
FUTO
 10
11005.70159875004
 20
10051.1719303844
 30
0.0
 11
10954.201659750041
 21
10051.1719303844
 31
0.0
  0
LINE
  5
7DA1
  8
FUTO
 10
11035.70159875004
 20
10069.1719303844
 30
0.0
 11
11098.05615175003
 21
10069.1719303844
 31
0.0
  0
LINE
  5
7DA2
  8
HOSO
 10
11098.05609075004
 20
10067.1719303844
 30
0.0
 11
11035.70159875004
 21
10067.1719303844
 31
0.0
  0
LINE
  5
7DA3
  8
HOSO
 10
11035.70159875004
 20
10053.1719303844
 30
0.0
 11
11098.05615175003
 21
10053.1719303844
 31
0.0
  0
LINE
  5
7DA4
  8
FUTO
 10
11098.05609075004
 20
10051.1719303844
 30
0.0
 11
11035.70159875004
 21
10051.1719303844
 31
0.0
  0
LINE
  5
7DA5
  8
FUTO
 10
11098.05609075004
 20
10077.7617743844
 30
0.0
 11
11098.05609075004
 21
10042.5820873844
 31
0.0
  0
LINE
  5
7DA6
  8
FUTO
 10
11110.15606675004
 20
10069.877008384399
 30
0.0
 11
11111.756041750041
 21
10068.2773993844
 31
0.0
  0
LINE
  5
7DA7
  8
FUTO
 10
11110.15606675004
 20
10069.877008384399
 30
0.0
 11
11111.756041750041
 21
10071.4775943844
 31
0.0
  0
LINE
  5
7DA8
  8
FUTO
 10
11111.756041750041
 20
10076.162165384399
 30
0.0
 11
11110.15606675004
 21
10077.7617743844
 31
0.0
  0
LINE
  5
7DA9
  8
FUTO
 10
11110.15606675004
 20
10050.466852384399
 30
0.0
 11
11111.756041750041
 21
10052.0674383844
 31
0.0
  0
LINE
  5
7DAA
  8
FUTO
 10
11110.15606675004
 20
10050.466852384399
 30
0.0
 11
11111.756041750041
 21
10048.8672433844
 31
0.0
  0
LINE
  5
7DAB
  8
FUTO
 10
11110.15606675004
 20
10042.5820873844
 30
0.0
 11
11111.756041750041
 21
10044.182672384401
 31
0.0
  0
LINE
  5
7DAC
  8
FUTO
 10
11111.756041750041
 20
10076.162165384399
 30
0.0
 11
11111.756041750041
 21
10044.182672384401
 31
0.0
  0
LINE
  5
7DAD
  8
FUTO
 10
11110.15606675004
 20
10050.466852384399
 30
0.0
 11
11098.05609075004
 21
10050.466852384399
 31
0.0
  0
LINE
  5
7DAE
  8
FUTO
 10
11110.15606675004
 20
10069.877008384399
 30
0.0
 11
11098.05609075004
 21
10069.877008384399
 31
0.0
  0
LINE
  5
7DAF
  8
FUTO
 10
11110.15606675004
 20
10042.5820873844
 30
0.0
 11
11098.05609075004
 21
10042.5820873844
 31
0.0
  0
LINE
  5
7DB0
  8
FUTO
 10
11110.15606675004
 20
10077.7617743844
 30
0.0
 11
11098.05609075004
 21
10077.7617743844
 31
0.0
  0
LINE
  5
7DB1
  8
CT
 10
10954.201659750041
 20
10060.1719303844
 30
0.0
 11
11121.75604175003
 21
10060.1719303844
 31
0.0
  0
LINE
  5
7DB2
  8
FUTO
 10
11005.70159875004
 20
10040.1719303844
 30
0.0
 11
11035.70159875004
 21
10040.1719303844
 31
0.0
  0
LINE
  5
7DB3
  8
FUTO
 10
11035.70159875004
 20
10080.1719303844
 30
0.0
 11
11005.70159875004
 21
10080.1719303844
 31
0.0
  0
LINE
  5
7DB4
  8
FUTO
 10
11005.70159875004
 20
10040.1719303844
 30
0.0
 11
11005.70159875004
 21
10080.1719303844
 31
0.0
  0
LINE
  5
7DB5
  8
FUTO
 10
11035.70159875004
 20
10040.1719303844
 30
0.0
 11
11035.70159875004
 21
10080.1719303844
 31
0.0
  0
ARC
  5
7DB6
  8
FUTO
 10
10419.07250975004
 20
10267.1718693844
 30
0.0
 40
20.0
 50
89.999999999999986
 51
180.0
  0
ARC
  5
7DB7
  8
FUTO
 10
10419.07250975004
 20
10143.1719303844
 30
0.0
 40
20.0
 50
180.0
 51
270.0
  0
ARC
  5
7DB8
  8
FUTO
 10
10409.07250975004
 20
10126.1719303844
 30
0.0
 40
10.0
 50
180.0
 51
270.0
  0
ARC
  5
7DB9
  8
FUTO
 10
10409.07250975004
 20
10284.1718693844
 30
0.0
 40
10.0
 50
89.999999999999986
 51
180.0
  0
ARC
  5
7DBA
  8
FUTO
 10
10511.929234648929
 20
10126.1719303844
 30
0.0
 40
10.0
 50
270.0
 51
0.000000000000007
  0
ARC
  5
7DBB
  8
FUTO
 10
10508.76211911059
 20
10126.1719303844
 30
0.0
 40
10.0
 50
270.0
 51
0.000000000000007
  0
ARC
  5
7DBC
  8
FUTO
 10
10511.929234648929
 20
10284.1718693844
 30
0.0
 40
10.0
 50
0.000000000000007
 51
89.999999999999986
  0
ARC
  5
7DBD
  8
FUTO
 10
10508.76211911059
 20
10284.1718693844
 30
0.0
 40
10.0
 50
0.000000000000007
 51
89.999999999999986
  0
LINE
  5
7DBE
  8
FUTO
 10
10511.56551583114
 20
10123.1719303844
 30
0.0
 11
10419.07250975004
 21
10123.1719303844
 31
0.0
  0
LINE
  5
7DBF
  8
FUTO
 10
10511.56551583114
 20
10287.1718693844
 30
0.0
 11
10419.07250975004
 21
10287.1718693844
 31
0.0
  0
ARC
  5
7DC0
  8
FUTO
 10
10525.701659750041
 20
10128.1719303844
 30
0.0
 40
5.0
 50
270.0
 51
0.000000000000007
  0
ARC
  5
7DC1
  8
FUTO
 10
10525.701659750041
 20
10282.1718693844
 30
0.0
 40
5.0
 50
0.000000000000007
 51
89.999999999999986
  0
ARC
  5
7DC2
  8
FUTO
 10
10511.56551583114
 20
10128.1719303844
 30
0.0
 40
5.0
 50
270.0
 51
0.000000000000007
  0
ARC
  5
7DC3
  8
FUTO
 10
10511.56551583114
 20
10282.1718693844
 30
0.0
 40
5.0
 50
0.000000000000007
 51
89.999999999999986
  0
LINE
  5
7DC4
  8
FUTO
 10
10511.929234648929
 20
10116.1719303844
 30
0.0
 11
10409.07250975004
 21
10116.1719303844
 31
0.0
  0
LINE
  5
7DC5
  8
FUTO
 10
10525.701659750041
 20
10123.1719303844
 30
0.0
 11
10521.929234648929
 21
10123.1719303844
 31
0.0
  0
LINE
  5
7DC6
  8
FUTO
 10
10511.929234648929
 20
10294.1718693844
 30
0.0
 11
10409.07250975004
 21
10294.1718693844
 31
0.0
  0
LINE
  5
7DC7
  8
FUTO
 10
10525.701659750041
 20
10287.1718693844
 30
0.0
 11
10521.929234648929
 21
10287.1718693844
 31
0.0
  0
LINE
  5
7DC8
  8
FUTO
 10
10547.201659750041
 20
10265.1719303844
 30
0.0
 11
10547.201659750041
 21
10371.982701133429
 31
0.0
  0
LINE
  5
7DC9
  8
FUTO
 10
10530.701659750041
 20
10145.1719303844
 30
0.0
 11
10598.428057310221
 21
10145.1719303844
 31
0.0
  0
LINE
  5
7DCA
  8
FUTO
 10
10530.701659750041
 20
10265.1719303844
 30
0.0
 11
10598.428057310221
 21
10265.1719303844
 31
0.0
  0
LINE
  5
7DCB
  8
FUTO
 10
10440.38232375004
 20
10143.1719303844
 30
0.0
 11
10440.38232375004
 21
10267.1718693844
 31
0.0
  0
LINE
  5
7DCC
  8
FUTO
 10
10516.56551583114
 20
10128.1719303844
 30
0.0
 11
10516.56551583114
 21
10282.1718693844
 31
0.0
  0
LINE
  5
7DCD
  8
FUTO
 10
10518.762119110601
 20
10126.1719303844
 30
0.0
 11
10518.762119110601
 21
10284.1718693844
 31
0.0
  0
LINE
  5
7DCE
  8
FUTO
 10
10521.929234648929
 20
10126.1719303844
 30
0.0
 11
10521.929234648929
 21
10284.1718693844
 31
0.0
  0
LINE
  5
7DCF
  8
FUTO
 10
10530.701659750041
 20
10128.1719303844
 30
0.0
 11
10530.701659750041
 21
10282.1718693844
 31
0.0
  0
LINE
  5
7DD0
  8
FUTO
 10
10540.701659750041
 20
10145.1719303844
 30
0.0
 11
10540.701659750041
 21
10265.1719303844
 31
0.0
  0
LINE
  5
7DD1
  8
FUTO
 10
10598.428057310221
 20
10145.1719303844
 30
0.0
 11
10598.428057310221
 21
10265.1719303844
 31
0.0
  0
LINE
  5
7DD2
  8
FUTO
 10
10399.07250975004
 20
10126.1719303844
 30
0.0
 11
10399.07250975004
 21
10284.1718693844
 31
0.0
  0
LINE
  5
7DD3
  8
FUTO
 10
10744.451659750041
 20
10181.4219303844
 30
0.0
 11
10744.451659750041
 21
10228.9219303844
 31
0.0
  0
ARC
  5
7DD4
  8
FUTO
 10
10750.701659750041
 20
10181.4219303844
 30
0.0
 40
6.25
 50
180.0
 51
0.000000000000007
  0
ARC
  5
7DD5
  8
FUTO
 10
10750.701659750041
 20
10228.9219303844
 30
0.0
 40
6.25
 50
0.000000000000007
 51
180.0
  0
LINE
  5
7DD6
  8
CT
 10
10379.07250975004
 20
10205.1719303844
 30
0.0
 11
11030.70159875004
 21
10205.1719303844
 31
0.0
  0
LINE
  5
7DD7
  8
FUTO
 10
10756.951659750041
 20
10181.4219303844
 30
0.0
 11
10756.951659750041
 21
10228.9219303844
 31
0.0
  0
LINE
  5
7DD8
  8
FUTO
 10
10547.201659750041
 20
10371.982701133429
 30
0.0
 11
10549.02343675004
 21
10374.1718693844
 31
0.0
  0
LINE
  5
7DD9
  8
FUTO
 10
10547.201659750041
 20
10038.361017384401
 30
0.0
 11
10553.701659750041
 21
10030.5501043844
 31
0.0
  0
LINE
  5
7DDA
  8
FUTO
 10
10547.201659750041
 20
10038.361017384401
 30
0.0
 11
10547.201659750041
 21
10145.1719303844
 31
0.0
  0
LINE
  5
7DDB
  8
FUTO
 10
10954.201659750041
 20
10038.361017384401
 30
0.0
 11
10954.201659750041
 21
10371.982701133429
 31
0.0
  0
ARC
  5
7DDC
  8
FUTO
 10
10672.701659750041
 20
9931.6719303844038
 30
0.0
 40
2.0
 50
180.0
 51
270.0
  0
ARC
  5
7DDD
  8
FUTO
 10
10667.701659750041
 20
9941.8250063844025
 30
0.0
 40
2.9999599999999988
 50
0.000000000000007
 51
87.000442999964605
  0
LINE
  5
7DDE
  8
FUTO
 10
10670.701659750041
 20
9941.8250063844025
 30
0.0
 11
10670.701659750041
 21
9931.6719303844038
 31
0.0
  0
ARC
  5
7DDF
  8
FUTO
 10
10571.60571175003
 20
9985.4575753844001
 30
0.0
 40
9.9999679999999991
 50
181.99932900002389
 51
225.0
  0
ARC
  5
7DE0
  8
FUTO
 10
10598.59887575004
 20
9958.4644103844039
 30
0.0
 40
10.000024
 50
225.0
 51
267.00096100001281
  0
LINE
  5
7DE1
  8
FUTO
 10
10564.53466675004
 20
9978.3865303844013
 30
0.0
 11
10591.52783175004
 21
9951.3933663844018
 31
0.0
  0
LINE
  5
7DE2
  8
FUTO
 10
10560.701659750041
 20
10011.1719303844
 30
0.0
 11
10561.61181575004
 21
9985.1086983844016
 31
0.0
  0
LINE
  5
7DE3
  8
FUTO
 10
10598.075682750041
 20
9948.4780823844048
 30
0.0
 11
10686.66699175004
 21
9943.8352603844014
 31
0.0
  0
LINE
  5
7DE4
  8
FUTO
 10
10588.701659750041
 20
10021.1719303844
 30
0.0
 11
10912.701659750041
 21
10021.1719303844
 31
0.0
  0
LINE
  5
7DE5
  8
FUTO
 10
10588.701659750041
 20
10011.1719303844
 30
0.0
 11
10588.701659750041
 21
10016.1719303844
 31
0.0
  0
LINE
  5
7DE6
  8
FUTO
 10
10588.701659750041
 20
10016.1719303844
 30
0.0
 11
10588.701659750041
 21
10021.1719303844
 31
0.0
  0
LINE
  5
7DE7
  8
FUTO
 10
10553.701659750041
 20
10030.5501043844
 30
0.0
 11
10588.701659750041
 21
10021.1719303844
 31
0.0
  0
ARC
  5
7DE8
  8
FUTO
 10
10567.201659750041
 20
10420.6452583844
 30
0.0
 40
20.0
 50
159.99995399998471
 51
180.0
  0
ARC
  5
7DE9
  8
FUTO
 10
10538.201659750041
 20
10457.920648384399
 30
0.0
 40
20.0
 50
340.0002749999901
 51
0.000000000000007
  0
LINE
  5
7DEA
  8
FUTO
 10
10603.052733750041
 20
10402.6718693844
 30
0.0
 11
10599.299803750029
 21
10409.1718693844
 31
0.0
  0
LINE
  5
7DEB
  8
FUTO
 10
10599.299803750029
 20
10409.1718693844
 30
0.0
 11
10603.052733750041
 21
10415.6718693844
 31
0.0
  0
LINE
  5
7DEC
  8
FUTO
 10
10548.407713750041
 20
10427.485712384399
 30
0.0
 11
10556.99560475004
 21
10451.080316384399
 31
0.0
  0
LINE
  5
7DED
  8
FUTO
 10
10547.201659750041
 20
10374.1718693844
 30
0.0
 11
10547.201659750041
 21
10420.6452583844
 31
0.0
  0
LINE
  5
7DEE
  8
FUTO
 10
10614.311034750041
 20
10409.1718693844
 30
0.0
 11
10610.55810475004
 21
10415.6718693844
 31
0.0
  0
LINE
  5
7DEF
  8
FUTO
 10
10610.55810475004
 20
10402.6718693844
 30
0.0
 11
10614.311034750041
 21
10409.1718693844
 31
0.0
  0
LINE
  5
7DF0
  8
CT
 10
10606.80541875004
 20
10401.729730384401
 30
0.0
 11
10606.80541875004
 21
10416.185785384399
 31
0.0
  0
LINE
  5
7DF1
  8
CT
 10
10615.19604375004
 20
10409.1718693844
 30
0.0
 11
10598.374510750031
 21
10409.1718693844
 31
0.0
  0
LINE
  5
7DF2
  8
FUTO
 10
10610.55810475004
 20
10415.6718693844
 30
0.0
 11
10603.052733750041
 21
10415.6718693844
 31
0.0
  0
LINE
  5
7DF3
  8
FUTO
 10
10610.55810475004
 20
10402.6718693844
 30
0.0
 11
10603.052733750041
 21
10402.6718693844
 31
0.0
  0
CIRCLE
  5
7DF4
  8
FUTO
 10
10606.80541875004
 20
10409.1718693844
 30
0.0
 40
6.5
  0
ARC
  5
7DF5
  8
FUTO
 10
10573.201659750041
 20
10518.8609563844
 30
0.0
 40
15.0
 50
150.00018299999559
 51
180.0
  0
ARC
  5
7DF6
  8
FUTO
 10
10593.58837775004
 20
10574.1718693844
 30
0.0
 40
4.9999580000000003
 50
89.999999999999986
 51
149.99971800000111
  0
LINE
  5
7DF7
  8
FUTO
 10
10589.25829975003
 20
10576.6718693844
 30
0.0
 11
10560.211180750041
 21
10526.3609563844
 31
0.0
  0
LINE
  5
7DF8
  8
FUTO
 10
10558.201659750041
 20
10457.920648384399
 30
0.0
 11
10558.201659750041
 21
10518.8609563844
 31
0.0
  0
LINE
  5
7DF9
  8
FUTO
 10
10943.201659750041
 20
10457.920648384399
 30
0.0
 11
10943.201659750041
 21
10518.8609563844
 31
0.0
  0
LINE
  5
7DFA
  8
CT
 10
10750.701659750041
 20
9759.6719303844038
 30
0.0
 11
10750.701659750041
 21
10599.1719303844
 31
0.0
  0
LINE
  5
7DFB
  8
FUTO
 10
10908.351623750041
 20
10579.1719303844
 30
0.0
 11
10593.561309750041
 21
10579.1719303844
 31
0.0
  0
LINE
  5
7DFC
  8
FUTO
 10
10558.201659750041
 20
10520.0718933844
 30
0.0
 11
10943.152587750041
 21
10520.0718933844
 31
0.0
  0
LINE
  5
7DFD
  8
FUTO
 10
10912.14501975004
 20
10576.6718693844
 30
0.0
 11
10941.192138750041
 21
10526.3609563844
 31
0.0
  0
ARC
  5
7DFE
  8
FUTO
 10
10907.814941750041
 20
10574.1718693844
 30
0.0
 40
4.9999580000000003
 50
30.000281999998819
 51
89.999999999999986
  0
ARC
  5
7DFF
  8
FUTO
 10
10928.201659750041
 20
10518.8609563844
 30
0.0
 40
15.0
 50
0.000000000000007
 51
29.999817000004359
  0
LINE
  5
7E00
  8
FUTO
 10
10672.701659750041
 20
9929.6719303844038
 30
0.0
 11
10750.701659750041
 21
9929.6719303844038
 31
0.0
  0
LINE
  5
7E01
  8
FUTO
 10
10560.701659750041
 20
10011.1719303844
 30
0.0
 11
10750.701659750041
 21
10011.1719303844
 31
0.0
  0
LINE
  5
7E02
  8
FUTO
 10
10588.701659750041
 20
10016.1719303844
 30
0.0
 11
10750.701659750041
 21
10016.1719303844
 31
0.0
  0
LINE
  5
7E03
  8
FUTO
 10
10943.519042750029
 20
10454.3718203844
 30
0.0
 11
10558.201659750041
 21
10454.3718203844
 31
0.0
  0
LINE
  5
7E04
  8
FUTO
 10
10953.888183750039
 20
10424.1718693844
 30
0.0
 11
10547.515039551159
 21
10424.1718693844
 31
0.0
  0
LINE
  5
7E05
  8
FUTO
 10
10954.201659750041
 20
10374.1718693844
 30
0.0
 11
10549.02343675004
 21
10374.1718693844
 31
0.0
  0
LINE
  5
7E06
  8
FUTO
 10
10588.701659750041
 20
10016.1719303844
 30
0.0
 11
10750.701659750041
 21
10016.1719303844
 31
0.0
  0
CIRCLE
  5
7E07
  8
FUTO
 10
10894.597900750039
 20
10409.1718693844
 30
0.0
 40
6.5
  0
LINE
  5
7E08
  8
FUTO
 10
10890.845214750039
 20
10402.6718693844
 30
0.0
 11
10898.35058575004
 21
10402.6718693844
 31
0.0
  0
LINE
  5
7E09
  8
FUTO
 10
10890.845214750039
 20
10415.6718693844
 30
0.0
 11
10898.35058575004
 21
10415.6718693844
 31
0.0
  0
LINE
  5
7E0A
  8
CT
 10
10886.207275750039
 20
10409.1718693844
 30
0.0
 11
10903.028808750039
 21
10409.1718693844
 31
0.0
  0
LINE
  5
7E0B
  8
CT
 10
10894.597900750039
 20
10401.729730384401
 30
0.0
 11
10894.597900750039
 21
10416.185785384399
 31
0.0
  0
LINE
  5
7E0C
  8
FUTO
 10
10890.845214750039
 20
10402.6718693844
 30
0.0
 11
10887.092284750041
 21
10409.1718693844
 31
0.0
  0
LINE
  5
7E0D
  8
FUTO
 10
10887.092284750041
 20
10409.1718693844
 30
0.0
 11
10890.845214750039
 21
10415.6718693844
 31
0.0
  0
LINE
  5
7E0E
  8
FUTO
 10
10954.201659750041
 20
10374.1718693844
 30
0.0
 11
10954.201659750041
 21
10420.6452583844
 31
0.0
  0
LINE
  5
7E0F
  8
FUTO
 10
10952.995605750029
 20
10427.485712384399
 30
0.0
 11
10944.40771475003
 21
10451.080316384399
 31
0.0
  0
LINE
  5
7E10
  8
FUTO
 10
10902.103515750039
 20
10409.1718693844
 30
0.0
 11
10898.35058575004
 21
10415.6718693844
 31
0.0
  0
LINE
  5
7E11
  8
FUTO
 10
10898.35058575004
 20
10402.6718693844
 30
0.0
 11
10902.103515750039
 21
10409.1718693844
 31
0.0
  0
ARC
  5
7E12
  8
FUTO
 10
10963.201659750041
 20
10457.920648384399
 30
0.0
 40
20.0
 50
180.0
 51
199.9997250000097
  0
ARC
  5
7E13
  8
FUTO
 10
10934.201659750041
 20
10420.6452583844
 30
0.0
 40
20.0
 50
0.000000000000007
 51
20.000046000015249
  0
LINE
  5
7E14
  8
FUTO
 10
10954.201659750041
 20
10371.982701133429
 30
0.0
 11
10952.37988275004
 21
10374.1718693844
 31
0.0
  0
LINE
  5
7E15
  8
FUTO
 10
10912.701659750041
 20
10016.1719303844
 30
0.0
 11
10750.701659750041
 21
10016.1719303844
 31
0.0
  0
LINE
  5
7E16
  8
FUTO
 10
10903.327636750029
 20
9948.4780823844048
 30
0.0
 11
10814.736327750041
 21
9943.8352603844014
 31
0.0
  0
LINE
  5
7E17
  8
FUTO
 10
10940.701659750041
 20
10011.1719303844
 30
0.0
 11
10750.701659750041
 21
10011.1719303844
 31
0.0
  0
LINE
  5
7E18
  8
FUTO
 10
10912.701659750041
 20
10016.1719303844
 30
0.0
 11
10750.701659750041
 21
10016.1719303844
 31
0.0
  0
LINE
  5
7E19
  8
FUTO
 10
10720.701659750041
 20
9919.6719303844038
 30
0.0
 11
10720.701659750041
 21
9779.671930384402
 31
0.0
  0
LINE
  5
7E1A
  8
FUTO
 10
10780.701659750041
 20
9919.6719303844038
 30
0.0
 11
10780.701659750041
 21
9779.671930384402
 31
0.0
  0
LINE
  5
7E1B
  8
FUTO
 10
10828.701659750041
 20
9929.6719303844038
 30
0.0
 11
10750.701659750041
 21
9929.6719303844038
 31
0.0
  0
LINE
  5
7E1C
  8
FUTO
 10
10718.201659750041
 20
9919.6719303844038
 30
0.0
 11
10783.201659750041
 21
9919.6719303844038
 31
0.0
  0
LINE
  5
7E1D
  8
FUTO
 10
10718.201659750041
 20
9919.6719303844038
 30
0.0
 11
10718.201659750041
 21
9929.6719303844038
 31
0.0
  0
LINE
  5
7E1E
  8
FUTO
 10
10783.201659750041
 20
9919.6719303844038
 30
0.0
 11
10783.201659750041
 21
9929.6719303844038
 31
0.0
  0
LINE
  5
7E1F
  8
FUTO
 10
10830.701659750041
 20
9941.8250063844025
 30
0.0
 11
10830.701659750041
 21
9931.6719303844038
 31
0.0
  0
ARC
  5
7E20
  8
FUTO
 10
10833.701659750041
 20
9941.8250063844025
 30
0.0
 40
2.9999599999999988
 50
92.999556999983326
 51
180.0
  0
ARC
  5
7E21
  8
FUTO
 10
10828.701659750041
 20
9931.6719303844038
 30
0.0
 40
2.0
 50
270.0
 51
0.000000000000007
  0
LINE
  5
7E22
  8
FUTO
 10
10780.701659750041
 20
9779.671930384402
 30
0.0
 11
10720.701659750041
 21
9779.671930384402
 31
0.0
  0
LINE
  5
7E23
  8
FUTO
 10
10954.201659750041
 20
10038.361017384401
 30
0.0
 11
10947.701659750041
 21
10030.5501043844
 31
0.0
  0
LINE
  5
7E24
  8
FUTO
 10
10940.701659750041
 20
10011.1719303844
 30
0.0
 11
10939.791503750041
 21
9985.1086983844016
 31
0.0
  0
LINE
  5
7E25
  8
FUTO
 10
10947.701659750041
 20
10030.5501043844
 30
0.0
 11
10912.701659750041
 21
10021.1719303844
 31
0.0
  0
LINE
  5
7E26
  8
FUTO
 10
10912.701659750041
 20
10016.1719303844
 30
0.0
 11
10912.701659750041
 21
10021.1719303844
 31
0.0
  0
LINE
  5
7E27
  8
FUTO
 10
10912.701659750041
 20
10011.1719303844
 30
0.0
 11
10912.701659750041
 21
10016.1719303844
 31
0.0
  0
LINE
  5
7E28
  8
FUTO
 10
10936.868652750039
 20
9978.3865303844013
 30
0.0
 11
10909.87548775004
 21
9951.3933663844018
 31
0.0
  0
ARC
  5
7E29
  8
FUTO
 10
10902.804443750039
 20
9958.4644103844039
 30
0.0
 40
10.000024
 50
272.99903899998708
 51
314.99999999999989
  0
ARC
  5
7E2A
  8
FUTO
 10
10929.797607750041
 20
9985.4575753844001
 30
0.0
 40
9.9999679999999991
 50
314.99999999999989
 51
358.00067099997602
  0
CIRCLE
  5
7E2B
  8
FUTO
 10
10750.701659750041
 20
6518.3347929509519
 30
0.0
 40
30.0
  0
LINE
  5
7E2C
  8
KL
 10
14854.72895844145
 20
6338.3347929509519
 30
0.0
 11
14869.408389365761
 21
6338.3347929509519
 31
0.0
  0
LINE
  5
7E2D
  8
KL
 10
14857.40845036576
 20
6318.3347929509528
 30
0.0
 11
14892.40845036576
 21
6318.3347929509528
 31
0.0
  0
LINE
  5
7E2E
  8
KL
 10
14530.087942290071
 20
6338.3347929509519
 30
0.0
 11
14515.40845036576
 21
6338.3347929509519
 31
0.0
  0
LINE
  5
7E2F
  8
KL
 10
14527.40845036576
 20
6318.3347929509528
 30
0.0
 11
14492.40845036576
 21
6318.3347929509528
 31
0.0
  0
LINE
  5
7E30
  8
CT
 10
10590.701659750041
 20
6308.3347929509528
 30
0.0
 11
10590.701659750041
 21
6238.3347929509519
 31
0.0
  0
LINE
  5
7E31
  8
KL
 10
14592.40845036576
 20
6313.3347929509528
 30
0.0
 11
14592.40845036576
 21
6318.3347929509528
 31
0.0
  0
LINE
  5
7E32
  8
KL
 10
14792.40845036576
 20
6318.3347929509528
 30
0.0
 11
14792.40845036576
 21
6313.3347929509528
 31
0.0
  0
LINE
  5
7E3B
  8
FUTO
 10
10818.701659750041
 20
6318.3347929509528
 30
0.0
 11
10818.701659750041
 21
6313.3347929509528
 31
0.0
  0
LINE
  5
7E3C
  8
FUTO
 10
10682.701537750039
 20
6313.3347929509528
 30
0.0
 11
10682.701537750039
 21
6318.3347929509528
 31
0.0
  0
LINE
  5
7E3D
  8
KL
 10
14547.40845036576
 20
6346.8103789509532
 30
0.0
 11
14531.40845036576
 21
6337.5730749509521
 31
0.0
  0
LINE
  5
7E3E
  8
KL
 10
14563.40845036576
 20
6337.5730749509521
 30
0.0
 11
14547.40845036576
 21
6346.8103789509532
 31
0.0
  0
LINE
  5
7E3F
  8
KL
 10
14547.40845036576
 20
6309.860183950952
 30
0.0
 11
14531.40845036576
 21
6319.0974889509516
 31
0.0
  0
LINE
  5
7E40
  8
KL
 10
14563.40845036576
 20
6319.0974889509516
 30
0.0
 11
14547.40845036576
 21
6309.860183950952
 31
0.0
  0
LINE
  5
7E41
  8
KL
 10
14517.40845036576
 20
6328.3347929509528
 30
0.0
 11
14577.40845036576
 21
6328.3347929509528
 31
0.0
  0
CIRCLE
  5
7E42
  8
KL
 10
14547.40845036576
 20
6328.3347929509528
 30
0.0
 40
16.0
  0
LINE
  5
7E43
  8
KL
 10
14563.40845036576
 20
6319.0974889509516
 30
0.0
 11
14563.40845036576
 21
6337.5730749509521
 31
0.0
  0
LINE
  5
7E44
  8
KL
 10
14531.40845036576
 20
6319.0974889509516
 30
0.0
 11
14531.40845036576
 21
6337.5730749509521
 31
0.0
  0
ARC
  5
7E45
  8
KL
 10
14547.40845036576
 20
6328.3347929509528
 30
0.0
 40
20.0
 50
0.000000000000007
 51
180.0
  0
ARC
  5
7E46
  8
KL
 10
14440.40845036576
 20
6285.3347929509528
 30
0.0
 40
3.0
 50
90.0
 51
180.0
  0
LINE
  5
7E47
  8
KL
 10
14489.28345036576
 20
6288.3347929509519
 30
0.0
 11
14440.40845036576
 21
6288.3347929509519
 31
0.0
  0
LINE
  5
7E48
  8
KL
 10
14494.40845036576
 20
6258.3347929509528
 30
0.0
 11
14494.40845036576
 21
6263.3347929509528
 31
0.0
  0
LINE
  5
7E49
  8
KL
 10
14484.40845036576
 20
6270.3347929509519
 30
0.0
 11
14484.40845036576
 21
6263.3347929509528
 31
0.0
  0
LINE
  5
7E4A
  8
KL
 10
14494.40845036576
 20
6258.3347929509528
 30
0.0
 11
14437.40845036576
 21
6258.3347929509528
 31
0.0
  0
LINE
  5
7E4B
  8
KL
 10
14437.40845036576
 20
6258.3347929509528
 30
0.0
 11
14437.40845036576
 21
6285.3347929509528
 31
0.0
  0
LINE
  5
7E4C
  8
CT
 10
14462.40845036576
 20
6308.3347929509528
 30
0.0
 11
14462.40845036576
 21
6238.3347929509519
 31
0.0
  0
LINE
  5
7E4D
  8
KL
 10
14484.40845036576
 20
6270.3347929509519
 30
0.0
 11
14527.40845036576
 21
6270.3347929509519
 31
0.0
  0
LINE
  5
7E4E
  8
KL
 10
14492.40845036576
 20
6318.3347929509528
 30
0.0
 11
14487.40845036576
 21
6270.3347929509519
 31
0.0
  0
LINE
  5
7E4F
  8
KL
 10
14567.40845036576
 20
6328.3347929509528
 30
0.0
 11
14567.40845036576
 21
6263.3347929509528
 31
0.0
  0
LINE
  5
7E50
  8
KL
 10
14527.40845036576
 20
6263.3347929509528
 30
0.0
 11
14527.40845036576
 21
6328.3347929509528
 31
0.0
  0
LINE
  5
7E51
  8
CT
 10
14547.40845036576
 20
6253.3347929509528
 30
0.0
 11
14547.40845036576
 21
6358.3347929509528
 31
0.0
  0
LINE
  5
7E52
  8
KL
 10
14821.40845036576
 20
6337.5730749509521
 30
0.0
 11
14837.40845036576
 21
6346.8103789509532
 31
0.0
  0
LINE
  5
7E53
  8
KL
 10
14821.40845036576
 20
6319.0974889509516
 30
0.0
 11
14837.40845036576
 21
6309.860183950952
 31
0.0
  0
LINE
  5
7E54
  8
KL
 10
14821.40845036576
 20
6319.0974889509516
 30
0.0
 11
14821.40845036576
 21
6337.5730749509521
 31
0.0
  0
LINE
  5
7E55
  8
KL
 10
14853.40845036576
 20
6319.0974889509516
 30
0.0
 11
14853.40845036576
 21
6337.5730749509521
 31
0.0
  0
CIRCLE
  5
7E56
  8
KL
 10
14837.40845036576
 20
6328.3347929509528
 30
0.0
 40
16.0
  0
LINE
  5
7E57
  8
KL
 10
14837.40845036576
 20
6346.8103789509532
 30
0.0
 11
14853.40845036576
 21
6337.5730749509521
 31
0.0
  0
LINE
  5
7E58
  8
KL
 10
14837.40845036576
 20
6309.860183950952
 30
0.0
 11
14853.40845036576
 21
6319.0974889509516
 31
0.0
  0
ARC
  5
7E59
  8
KL
 10
14837.40845036576
 20
6328.3347929509528
 30
0.0
 40
20.0
 50
0.000000000000007
 51
180.0
  0
LINE
  5
7E5A
  8
KL
 10
14867.40845036576
 20
6328.3347929509528
 30
0.0
 11
14807.40845036576
 21
6328.3347929509528
 31
0.0
  0
LINE
  5
7E5B
  8
KL
 10
14592.40845036576
 20
6313.3347929509528
 30
0.0
 11
14792.40845036576
 21
6313.3347929509528
 31
0.0
  0
LINE
  5
7E5C
  8
KL
 10
14890.40845036576
 20
6258.3347929509528
 30
0.0
 11
14890.40845036576
 21
6263.3347929509528
 31
0.0
  0
LINE
  5
7E5D
  8
KL
 10
14900.40845036576
 20
6270.3347929509519
 30
0.0
 11
14900.40845036576
 21
6263.3347929509528
 31
0.0
  0
LINE
  5
7E5E
  8
KL
 10
14900.40845036576
 20
6270.3347929509519
 30
0.0
 11
14857.40845036576
 21
6270.3347929509519
 31
0.0
  0
LINE
  5
7E5F
  8
CT
 10
14922.40845036576
 20
6308.3347929509528
 30
0.0
 11
14922.40845036576
 21
6238.3347929509519
 31
0.0
  0
ARC
  5
7E60
  8
KL
 10
14944.40845036576
 20
6285.3347929509528
 30
0.0
 40
3.0
 50
0.000000000000007
 51
90.0
  0
LINE
  5
7E61
  8
KL
 10
14947.40845036576
 20
6258.3347929509528
 30
0.0
 11
14947.40845036576
 21
6285.3347929509528
 31
0.0
  0
LINE
  5
7E62
  8
KL
 10
14895.53345036576
 20
6288.3347929509519
 30
0.0
 11
14944.40845036576
 21
6288.3347929509519
 31
0.0
  0
LINE
  5
7E63
  8
KL
 10
14890.40845036576
 20
6258.3347929509528
 30
0.0
 11
14947.40845036576
 21
6258.3347929509528
 31
0.0
  0
LINE
  5
7E64
  8
KL
 10
14892.40845036576
 20
6318.3347929509528
 30
0.0
 11
14897.40845036576
 21
6270.3347929509519
 31
0.0
  0
LINE
  5
7E65
  8
KL
 10
14817.40845036576
 20
6328.3347929509528
 30
0.0
 11
14817.40845036576
 21
6263.3347929509528
 31
0.0
  0
LINE
  5
7E66
  8
KL
 10
14857.40845036576
 20
6263.3347929509528
 30
0.0
 11
14857.40845036576
 21
6328.3347929509528
 31
0.0
  0
LINE
  5
7E67
  8
CT
 10
14837.40845036576
 20
6253.3347929509528
 30
0.0
 11
14837.40845036576
 21
6358.3347929509528
 31
0.0
  0
LINE
  5
7E68
  8
FUTO
 10
10391.247069750039
 20
6338.0398709509536
 30
0.0
 11
10389.64709375004
 21
6336.4402619509528
 31
0.0
  0
LINE
  5
7E69
  8
FUTO
 10
10391.247069750039
 20
6338.0398709509536
 30
0.0
 11
10389.64709375004
 21
6339.6404569509541
 31
0.0
  0
LINE
  5
7E6A
  8
FUTO
 10
10391.247069750039
 20
6338.0398709509536
 30
0.0
 11
10403.347044750029
 21
6338.0398709509536
 31
0.0
  0
LINE
  5
7E6B
  8
FUTO
 10
10389.647215750039
 20
6344.3250279509539
 30
0.0
 11
10391.247191750041
 21
6345.9246369509528
 31
0.0
  0
LINE
  5
7E6C
  8
FUTO
 10
10391.247069750039
 20
6345.9246369509528
 30
0.0
 11
10403.347044750029
 21
6345.9246369509528
 31
0.0
  0
LINE
  5
7E6D
  8
FUTO
 10
10391.247069750039
 20
6318.6297149509537
 30
0.0
 11
10389.64709375004
 21
6320.2303009509533
 31
0.0
  0
LINE
  5
7E6E
  8
FUTO
 10
10391.247069750039
 20
6318.6297149509537
 30
0.0
 11
10389.64709375004
 21
6317.0301059509529
 31
0.0
  0
LINE
  5
7E6F
  8
FUTO
 10
10391.247069750039
 20
6318.6297149509537
 30
0.0
 11
10403.347044750029
 21
6318.6297149509537
 31
0.0
  0
LINE
  5
7E70
  8
FUTO
 10
10391.247069750039
 20
6310.7449499509539
 30
0.0
 11
10403.347044750029
 21
6310.7449499509539
 31
0.0
  0
LINE
  5
7E71
  8
FUTO
 10
10391.247069750039
 20
6310.7449499509539
 30
0.0
 11
10389.64709375004
 21
6312.3455349509532
 31
0.0
  0
LINE
  5
7E72
  8
FUTO
 10
10389.647215750039
 20
6344.3250279509539
 30
0.0
 11
10389.647215750039
 21
6312.3455349509532
 31
0.0
  0
LINE
  5
7E73
  8
FUTO
 10
10403.34716675004
 20
6345.9246369509528
 30
0.0
 11
10403.34716675004
 21
6310.7449499509539
 31
0.0
  0
LINE
  5
7E74
  8
HOSO
 10
10465.701537750039
 20
6321.3347929509528
 30
0.0
 11
10403.347410750041
 21
6321.3347929509528
 31
0.0
  0
LINE
  5
7E75
  8
FUTO
 10
10465.701537750039
 20
6337.3347929509528
 30
0.0
 11
10403.347410750041
 21
6337.3347929509528
 31
0.0
  0
LINE
  5
7E76
  8
HOSO
 10
10403.34716675004
 20
6335.3347929509528
 30
0.0
 11
10465.701537750039
 21
6335.3347929509528
 31
0.0
  0
LINE
  5
7E77
  8
FUTO
 10
10403.34716675004
 20
6319.3347929509528
 30
0.0
 11
10465.701537750039
 21
6319.3347929509528
 31
0.0
  0
LINE
  5
7E78
  8
FUTO
 10
10561.701659750041
 20
6335.3347929509528
 30
0.0
 11
10559.701659750041
 21
6337.3347929509528
 31
0.0
  0
LINE
  5
7E79
  8
HOSO
 10
10497.8682044167
 20
6335.3347929509528
 30
0.0
 11
10561.701536750041
 21
6335.3347929509528
 31
0.0
  0
LINE
  5
7E7A
  8
FUTO
 10
10559.701659750041
 20
6337.3347929509528
 30
0.0
 11
10497.53487108337
 21
6337.3347929509528
 31
0.0
  0
LINE
  5
7E7B
  8
FUTO
 10
10559.701659750041
 20
6319.3347929509528
 30
0.0
 11
10561.701659750041
 21
6321.3347929509528
 31
0.0
  0
LINE
  5
7E7C
  8
FUTO
 10
10500.53487108337
 20
6319.3347929509528
 30
0.0
 11
10559.701659750041
 21
6319.3347929509528
 31
0.0
  0
LINE
  5
7E7D
  8
HOSO
 10
10561.701659750041
 20
6321.3347929509528
 30
0.0
 11
10500.201537750039
 21
6321.3347929509528
 31
0.0
  0
LINE
  5
7E7E
  8
FUTO
 10
10559.701659750041
 20
6337.3347929509528
 30
0.0
 11
10559.701659750041
 21
6319.3347929509528
 31
0.0
  0
LINE
  5
7E7F
  8
FUTO
 10
10495.701537750039
 20
6348.3347929509528
 30
0.0
 11
10500.701537750039
 21
6318.3347929509528
 31
0.0
  0
LINE
  5
7E80
  8
FUTO
 10
10818.701659750041
 20
6313.3347929509528
 30
0.0
 11
10682.701537750039
 21
6313.3347929509528
 31
0.0
  0
LINE
  5
7E81
  8
FUTO
 10
10498.701537750039
 20
6318.3347929509528
 30
0.0
 11
10682.701537750039
 21
6318.3347929509528
 31
0.0
  0
LINE
  5
7E82
  8
FUTO
 10
10495.701537750039
 20
6348.3347929509528
 30
0.0
 11
10465.701537750039
 21
6348.3347929509528
 31
0.0
  0
LINE
  5
7E83
  8
CT
 10
10561.701659750041
 20
6328.3347929509528
 30
0.0
 11
10379.647215750039
 21
6328.3347929509528
 31
0.0
  0
LINE
  5
7E84
  8
FUTO
 10
10490.701537750039
 20
6263.3347929509528
 30
0.0
 11
10465.701537750039
 21
6263.3347929509528
 31
0.0
  0
LINE
  5
7E85
  8
FUTO
 10
10493.701537750039
 20
6270.3347929509519
 30
0.0
 11
10490.701537750039
 21
6270.3347929509519
 31
0.0
  0
LINE
  5
7E86
  8
FUTO
 10
10490.701537750039
 20
6270.3347929509519
 30
0.0
 11
10490.701537750039
 21
6263.3347929509528
 31
0.0
  0
ARC
  5
7E87
  8
FUTO
 10
10543.70129375004
 20
6285.3347929509528
 30
0.0
 40
3.0
 50
89.997664999998861
 51
180.0
  0
LINE
  5
7E88
  8
FUTO
 10
10540.701537750039
 20
6258.3347929509528
 30
0.0
 11
10540.701537750039
 21
6285.3347929509528
 31
0.0
  0
ARC
  5
7E89
  8
FUTO
 10
10637.701537750039
 20
6285.3347929509528
 30
0.0
 40
3.0
 50
0.000000000000007
 51
90.002335000001125
  0
LINE
  5
7E8A
  8
FUTO
 10
10640.701537750039
 20
6258.3347929509528
 30
0.0
 11
10640.701537750039
 21
6285.3347929509528
 31
0.0
  0
LINE
  5
7E8B
  8
FUTO
 10
10637.701537750039
 20
6288.3347929509519
 30
0.0
 11
10543.701537750039
 21
6288.3347929509519
 31
0.0
  0
LINE
  5
7E8C
  8
FUTO
 10
10640.701537750039
 20
6258.3347929509528
 30
0.0
 11
10540.701537750039
 21
6258.3347929509528
 31
0.0
  0
LINE
  5
7E8D
  8
FUTO
 10
10490.701537750039
 20
6263.3347929509528
 30
0.0
 11
10540.701537750039
 21
6263.3347929509528
 31
0.0
  0
LINE
  5
7E8E
  8
FUTO
 10
10498.701537750039
 20
6318.3347929509528
 30
0.0
 11
10493.701537750039
 21
6270.3347929509519
 31
0.0
  0
LINE
  5
7E8F
  8
FUTO
 10
10465.701537750039
 20
6348.3347929509528
 30
0.0
 11
10465.701537750039
 21
6263.3347929509528
 31
0.0
  0
LINE
  5
7E90
  8
FUTO
 10
10939.701659750041
 20
6335.3347929509528
 30
0.0
 11
10941.701659750041
 21
6337.3347929509528
 31
0.0
  0
LINE
  5
7E91
  8
HOSO
 10
11003.53493208337
 20
6335.3347929509546
 30
0.0
 11
10939.701659750041
 21
6335.3347929509528
 31
0.0
  0
LINE
  5
7E92
  8
FUTO
 10
10941.701659750041
 20
6337.3347929509528
 30
0.0
 11
11003.868265416701
 21
6337.3347929509528
 31
0.0
  0
LINE
  5
7E93
  8
FUTO
 10
10941.701659750041
 20
6319.3347929509528
 30
0.0
 11
10939.701659750041
 21
6321.3347929509528
 31
0.0
  0
LINE
  5
7E94
  8
FUTO
 10
11000.868265416701
 20
6319.3347929509528
 30
0.0
 11
10941.701659750041
 21
6319.3347929509528
 31
0.0
  0
LINE
  5
7E95
  8
HOSO
 10
10939.701659750041
 20
6321.3347929509528
 30
0.0
 11
11001.20159875004
 21
6321.3347929509528
 31
0.0
  0
LINE
  5
7E96
  8
FUTO
 10
10941.701659750041
 20
6337.3347929509528
 30
0.0
 11
10941.701659750041
 21
6319.3347929509528
 31
0.0
  0
LINE
  5
7E97
  8
FUTO
 10
11005.70159875004
 20
6348.3347929509528
 30
0.0
 11
11000.70159875004
 21
6318.3347929509528
 31
0.0
  0
LINE
  5
7E98
  8
FUTO
 10
11035.70159875004
 20
6337.3347929509528
 30
0.0
 11
11098.056151750039
 21
6337.3347929509528
 31
0.0
  0
LINE
  5
7E99
  8
HOSO
 10
11098.05609075004
 20
6335.3347929509528
 30
0.0
 11
11035.70159875004
 21
6335.3347929509528
 31
0.0
  0
LINE
  5
7E9A
  8
HOSO
 10
11035.70159875004
 20
6321.3347929509537
 30
0.0
 11
11098.056151750039
 21
6321.3347929509528
 31
0.0
  0
LINE
  5
7E9B
  8
FUTO
 10
11098.05609075004
 20
6319.3347929509528
 30
0.0
 11
11035.70159875004
 21
6319.3347929509528
 31
0.0
  0
LINE
  5
7E9C
  8
FUTO
 10
11098.05609075004
 20
6345.9246369509528
 30
0.0
 11
11098.05609075004
 21
6310.7449499509539
 31
0.0
  0
LINE
  5
7E9D
  8
FUTO
 10
11110.15606675004
 20
6338.0398709509536
 30
0.0
 11
11111.756041750041
 21
6336.4402619509528
 31
0.0
  0
LINE
  5
7E9E
  8
FUTO
 10
11110.15606675004
 20
6338.0398709509536
 30
0.0
 11
11111.756041750041
 21
6339.6404569509541
 31
0.0
  0
LINE
  5
7E9F
  8
FUTO
 10
11111.756041750041
 20
6344.3250279509539
 30
0.0
 11
11110.15606675004
 21
6345.9246369509528
 31
0.0
  0
LINE
  5
7EA0
  8
FUTO
 10
11110.15606675004
 20
6318.6297149509537
 30
0.0
 11
11111.756041750041
 21
6320.2303009509533
 31
0.0
  0
LINE
  5
7EA1
  8
FUTO
 10
11110.15606675004
 20
6318.6297149509537
 30
0.0
 11
11111.756041750041
 21
6317.0301059509529
 31
0.0
  0
LINE
  5
7EA2
  8
FUTO
 10
11110.15606675004
 20
6310.7449499509539
 30
0.0
 11
11111.756041750041
 21
6312.3455349509532
 31
0.0
  0
LINE
  5
7EA3
  8
FUTO
 10
11111.756041750041
 20
6344.3250279509539
 30
0.0
 11
11111.756041750041
 21
6312.3455349509532
 31
0.0
  0
LINE
  5
7EA4
  8
FUTO
 10
11110.15606675004
 20
6318.6297149509537
 30
0.0
 11
11098.05609075004
 21
6318.6297149509537
 31
0.0
  0
LINE
  5
7EA5
  8
FUTO
 10
11110.15606675004
 20
6338.0398709509536
 30
0.0
 11
11098.05609075004
 21
6338.0398709509536
 31
0.0
  0
LINE
  5
7EA6
  8
FUTO
 10
11110.15606675004
 20
6310.7449499509539
 30
0.0
 11
11098.05609075004
 21
6310.7449499509539
 31
0.0
  0
LINE
  5
7EA7
  8
FUTO
 10
11110.15606675004
 20
6345.9246369509528
 30
0.0
 11
11098.05609075004
 21
6345.9246369509528
 31
0.0
  0
LINE
  5
7EA8
  8
FUTO
 10
11005.70159875004
 20
6348.3347929509528
 30
0.0
 11
11035.70159875004
 21
6348.3347929509528
 31
0.0
  0
LINE
  5
7EA9
  8
CT
 10
10939.701659750041
 20
6328.3347929509528
 30
0.0
 11
11121.756041750041
 21
6328.3347929509528
 31
0.0
  0
ARC
  5
7EAA
  8
FUTO
 10
10863.701537750039
 20
6285.3347929509528
 30
0.0
 40
2.999938999999999
 50
89.998833000023183
 51
180.0
  0
LINE
  5
7EAB
  8
FUTO
 10
10860.701659750041
 20
6258.3347929509528
 30
0.0
 11
10860.701659750041
 21
6285.3347929509528
 31
0.0
  0
ARC
  5
7EAC
  8
FUTO
 10
10957.701659750041
 20
6285.3347929509528
 30
0.0
 40
3.0
 50
0.000000000000007
 51
90.001167000028914
  0
LINE
  5
7EAD
  8
FUTO
 10
11007.70159875004
 20
6270.3347929509519
 30
0.0
 11
11010.70159875004
 21
6270.3347929509519
 31
0.0
  0
LINE
  5
7EAE
  8
FUTO
 10
11010.70159875004
 20
6270.3347929509519
 30
0.0
 11
11010.70159875004
 21
6263.3347929509528
 31
0.0
  0
LINE
  5
7EAF
  8
FUTO
 10
11010.70159875004
 20
6263.3347929509528
 30
0.0
 11
10960.701659750041
 21
6263.3347929509528
 31
0.0
  0
LINE
  5
7EB0
  8
FUTO
 10
10960.701659750041
 20
6258.3347929509528
 30
0.0
 11
10960.701659750041
 21
6285.3347929509528
 31
0.0
  0
LINE
  5
7EB1
  8
FUTO
 10
10863.701659750041
 20
6288.3347929509519
 30
0.0
 11
10957.701659750041
 21
6288.3347929509519
 31
0.0
  0
LINE
  5
7EB2
  8
FUTO
 10
10860.701659750041
 20
6258.3347929509528
 30
0.0
 11
10960.701659750041
 21
6258.3347929509528
 31
0.0
  0
LINE
  5
7EB3
  8
FUTO
 10
11010.70159875004
 20
6263.3347929509528
 30
0.0
 11
11035.70159875004
 21
6263.3347929509528
 31
0.0
  0
LINE
  5
7EB4
  8
FUTO
 10
11002.70159875004
 20
6318.3347929509528
 30
0.0
 11
11007.70159875004
 21
6270.3347929509519
 31
0.0
  0
LINE
  5
7EB5
  8
FUTO
 10
11035.70159875004
 20
6348.3347929509528
 30
0.0
 11
11035.70159875004
 21
6263.3347929509528
 31
0.0
  0
LINE
  5
7EB6
  8
CT
 10
10910.701659750041
 20
6308.3347929509528
 30
0.0
 11
10910.701659750041
 21
6238.3347929509519
 31
0.0
  0
LINE
  5
7EB7
  8
FUTO
 10
11002.70159875004
 20
6318.3347929509528
 30
0.0
 11
10818.701659750041
 21
6318.3347929509528
 31
0.0
  0
LINE
  5
7EB8
  8
FUTO
 10
10860.701659750041
 20
6263.3347929509528
 30
0.0
 11
10640.701659750041
 21
6263.3347929509528
 31
0.0
  0
LINE
  5
7EB9
  8
KL
 10
14567.40845036576
 20
6270.3347929509519
 30
0.0
 11
14817.40845036576
 21
6270.3347929509519
 31
0.0
  0
LINE
  5
7EBA
  8
KL
 10
14484.40845036576
 20
6263.3347929509528
 30
0.0
 11
14900.40845036576
 21
6263.3347929509528
 31
0.0
  0
LINE
  5
7EBB
  8
KL
 10
14508.40845036576
 20
6680.3347929509528
 30
0.0
 11
14508.40845036576
 21
6643.3347929509519
 31
0.0
  0
ARC
  5
7EBC
  8
KL
 10
14472.694095365759
 20
6697.4307409509529
 30
0.0
 40
9.9999679999999991
 50
91.999329000023934
 51
135.0
  0
ARC
  5
7EBD
  8
FUTO
 10
14445.70093036576
 20
6670.4375769509516
 30
0.0
 40
10.000024
 50
135.0
 51
177.00096100001281
  0
LINE
  5
7EBE
  8
KL
 10
14465.623050365761
 20
6704.5017859509517
 30
0.0
 11
14438.629886365759
 21
6677.5086209509518
 31
0.0
  0
LINE
  5
7EBF
  8
KL
 10
14498.40845036576
 20
6680.3347929509528
 30
0.0
 11
14503.40845036576
 21
6680.3347929509528
 31
0.0
  0
LINE
  5
7EC0
  8
KL
 10
14503.40845036576
 20
6680.3347929509528
 30
0.0
 11
14508.40845036576
 21
6680.3347929509528
 31
0.0
  0
LINE
  5
7EC1
  8
KL
 10
14517.786624365761
 20
6715.3347929509519
 30
0.0
 11
14508.40845036576
 21
6680.3347929509528
 31
0.0
  0
LINE
  5
7EC2
  8
KL
 10
14498.40845036576
 20
6708.3347929509528
 30
0.0
 11
14472.345218365759
 21
6707.4246369509519
 31
0.0
  0
LINE
  5
7EC4
  8
KL
 10
14533.40845036576
 20
6728.3347929509528
 30
0.0
 11
14517.786624365761
 21
6715.3347929509519
 31
0.0
  0
LINE
  5
7EC5
  8
FUTO
 10
14266.90845036576
 20
6552.3347929509528
 30
0.0
 11
14266.90845036576
 21
6488.3347929509519
 31
0.0
  0
ARC
  5
7EC6
  8
FUTO
 10
14418.90845036576
 20
6596.3347929509519
 30
0.0
 40
2.0
 50
90.0
 51
180.0
  0
ARC
  5
7ED5
  8
KL
 10
14518.40845036576
 20
6643.3347929509519
 30
0.0
 40
10.0
 50
90.0
 51
180.0
  0
ARC
  5
7ED8
  8
FUTO
 10
14429.06152636576
 20
6601.3347929509537
 30
0.0
 40
2.9999599999999988
 50
270.0
 51
357.00044300001662
  0
LINE
  5
7ED9
  8
FUTO
 10
14429.06152636576
 20
6598.3347929509537
 30
0.0
 11
14418.90845036576
 21
6598.3347929509537
 31
0.0
  0
LINE
  5
7EDA
  8
FUTO
 10
14376.90845036576
 20
6552.3347929509528
 30
0.0
 11
14376.90845036576
 21
6548.3347929509528
 31
0.0
  0
LINE
  5
7EDB
  8
FUTO
 10
14406.90845036576
 20
6550.8347929509519
 30
0.0
 11
14416.90845036576
 21
6550.8347929509519
 31
0.0
  0
LINE
  5
7EDC
  8
FUTO
 10
14406.90845036576
 20
6485.8347929509528
 30
0.0
 11
14416.90845036576
 21
6485.8347929509528
 31
0.0
  0
LINE
  5
7EDD
  8
FUTO
 10
14406.90845036576
 20
6485.8347929509528
 30
0.0
 11
14406.90845036576
 21
6550.8347929509519
 31
0.0
  0
ARC
  5
7EDE
  8
KL
 10
14518.40845036576
 20
6543.3347929509519
 30
0.0
 40
10.0
 50
180.0
 51
270.0
  0
LINE
  5
7EDF
  8
FUTO
 10
14416.90845036576
 20
6596.3347929509519
 30
0.0
 11
14416.90845036576
 21
6518.3347929509519
 31
0.0
  0
LINE
  5
7EE0
  8
KL
 10
14508.40845036576
 20
6543.3347929509519
 30
0.0
 11
14508.40845036576
 21
6643.3347929509519
 31
0.0
  0
LINE
  5
7EE1
  8
FUTO
 10
14406.90845036576
 20
6548.3347929509528
 30
0.0
 11
14266.90845036576
 21
6548.3347929509528
 31
0.0
  0
LINE
  5
7EE2
  8
FUTO
 10
14406.90845036576
 20
6488.3347929509519
 30
0.0
 11
14266.90845036576
 21
6488.3347929509519
 31
0.0
  0
LINE
  5
7EE3
  8
FUTO
 10
14376.90845036576
 20
6552.3347929509528
 30
0.0
 11
14266.90845036576
 21
6552.3347929509528
 31
0.0
  0
LINE
  5
7EE4
  8
KL
 10
14503.40845036576
 20
6680.3347929509528
 30
0.0
 11
14503.40845036576
 21
6518.3347929509519
 31
0.0
  0
LINE
  5
7EE5
  8
KL
 10
14498.40845036576
 20
6708.3347929509528
 30
0.0
 11
14498.40845036576
 21
6518.3347929509519
 31
0.0
  0
LINE
  5
7EE6
  8
FUTO
 10
14435.714602365761
 20
6670.9607699509506
 30
0.0
 11
14431.071780365761
 21
6582.369460950953
 31
0.0
  0
LINE
  5
7EE8
  8
KL
 10
14503.40845036576
 20
6680.3347929509528
 30
0.0
 11
14503.40845036576
 21
6518.3347929509519
 31
0.0
  0
ARC
  5
7EE9
  8
KL
 10
14681.17346536576
 20
6736.6139069509527
 30
0.0
 40
2.9999909999999992
 50
96.115172999988943
 51
174.80557099997009
  0
LINE
  5
7EEA
  8
KL
 10
14678.18579436576
 20
6736.8855139509524
 30
0.0
 11
14677.40845036576
 21
6728.3347929509528
 31
0.0
  0
ARC
  5
7EEB
  8
KL
 10
14671.45007636576
 20
6729.064590950954
 30
0.0
 40
5.9999760000000002
 50
354.80557299999322
 51
54.396263000016731
  0
ARC
  5
7EEC
  8
KL
 10
14703.643435365761
 20
6736.6139069509527
 30
0.0
 40
2.999981
 50
5.194427000006832
 51
83.884827000011072
  0
ARC
  5
7EED
  8
KL
 10
14692.40845036576
 20
6758.3347929509528
 30
0.0
 40
30.0
 50
305.19004800002568
 51
305.60386699999998
  0
LINE
  5
7EEE
  8
KL
 10
14692.40845036576
 20
6740.8347929509528
 30
0.0
 11
14703.96301536576
 21
6739.5968169509533
 31
0.0
  0
LINE
  5
7EEF
  8
KL
 10
14706.631106365759
 20
6736.8855139509524
 30
0.0
 11
14707.40845036576
 21
6728.3347929509528
 31
0.0
  0
ARC
  5
7EF0
  8
KL
 10
14713.366824365759
 20
6729.064590950954
 30
0.0
 40
5.9999820000000001
 50
125.6037369999832
 51
185.19442700000681
  0
LINE
  5
7EF1
  8
KL
 10
14692.40845036576
 20
6740.8347929509528
 30
0.0
 11
14680.853885365759
 21
6739.5968169509533
 31
0.0
  0
LINE
  5
7EF2
  8
KL
 10
14680.853885365759
 20
6739.5968169509533
 30
0.0
 11
14703.96301536576
 21
6739.5968169509533
 31
0.0
  0
LINE
  5
7EF3
  8
KL
 10
14732.40845036576
 20
6758.3347929509528
 30
0.0
 11
14652.40845036576
 21
6758.3347929509528
 31
0.0
  0
LINE
  5
7EF4
  8
KL
 10
14633.40845036576
 20
6667.3347929509528
 30
0.0
 11
14751.40845036576
 21
6667.3347929509528
 31
0.0
  0
CIRCLE
  5
7EF5
  8
KL
 10
14692.40845036576
 20
6758.3347929509528
 30
0.0
 40
17.5
  0
ARC
  5
7EF6
  8
KL
 10
14692.40845036576
 20
6758.3347929509528
 30
0.0
 40
30.0
 50
305.60386699999998
 51
234.39614899998969
  0
LINE
  5
7EF7
  8
KL
 10
14851.408389365761
 20
6728.3347929509528
 30
0.0
 11
14861.408389365761
 21
6720.0130159509526
 31
0.0
  0
ARC
  5
7EF8
  8
KL
 10
14907.88177836576
 20
6701.8347929509528
 30
0.0
 40
20.0
 50
69.99995399998474
 51
90.0
  0
ARC
  5
7EF9
  8
KL
 10
14945.15716836576
 20
6730.8347929509519
 30
0.0
 40
20.0
 50
250.00027499999021
 51
270.0
  0
LINE
  5
7EFC
  8
KL
 10
14914.722232365761
 20
6720.6287389509534
 30
0.0
 11
14938.316836365761
 21
6712.0408479509524
 31
0.0
  0
LINE
  5
7EFD
  8
KL
 10
14861.408389365761
 20
6721.8347929509537
 30
0.0
 11
14907.88177836576
 21
6721.8347929509537
 31
0.0
  0
LINE
  5
7EFE
  8
KL
 10
14851.408389365761
 20
6728.3347929509528
 30
0.0
 11
14692.40845036576
 21
6728.3347929509528
 31
0.0
  0
LINE
  5
7EFF
  8
KL
 10
14754.408389365761
 20
6660.3347929509519
 30
0.0
 11
14630.40845036576
 21
6660.3347929509519
 31
0.0
  0
ARC
  5
7F00
  8
KL
 10
14630.40845036576
 20
6485.6370389509539
 30
0.0
 40
20.0
 50
180.0
 51
270.0
  0
CIRCLE
  5
7F01
  8
KL
 10
14692.40845036576
 20
6452.637038950953
 30
0.0
 40
3.5
  0
LINE
  5
7F02
  8
KL
 10
14698.861331365761
 20
6452.637038950953
 30
0.0
 11
14684.272220365759
 21
6452.637038950953
 31
0.0
  0
LINE
  5
7F03
  8
KL
 10
14630.40845036576
 20
6465.637038950953
 30
0.0
 11
14754.40845036576
 21
6465.637038950953
 31
0.0
  0
LINE
  5
7F04
  8
KL
 10
14751.408389365761
 20
6445.637038950953
 30
0.0
 11
14633.40845036576
 21
6445.637038950953
 31
0.0
  0
LINE
  5
7F05
  8
KL
 10
14610.40845036576
 20
6640.3347929509519
 30
0.0
 11
14610.40845036576
 21
6485.6370389509539
 31
0.0
  0
LINE
  5
7F06
  8
KL
 10
14603.40845036576
 20
6637.3347929509528
 30
0.0
 11
14603.40845036576
 21
6475.637038950953
 31
0.0
  0
LINE
  5
7F07
  8
KL
 10
14861.408389365761
 20
6653.3347929509528
 30
0.0
 11
14776.785586365761
 21
6653.3347929509528
 31
0.0
  0
LINE
  5
7F0B
  8
KL
 10
14861.408389365761
 20
6533.3347929509519
 30
0.0
 11
14781.408389365761
 21
6533.3347929509519
 31
0.0
  0
LINE
  5
7F0C
  8
KL
 10
14774.408389365761
 20
6640.3347929509519
 30
0.0
 11
14774.408389365761
 21
6485.6370389509539
 31
0.0
  0
LINE
  5
7F0D
  8
KL
 10
14781.408389365761
 20
6637.3347929509528
 30
0.0
 11
14781.408389365761
 21
6475.637038950953
 31
0.0
  0
ARC
  5
7F0E
  8
KL
 10
14754.408389365761
 20
6485.6370389509539
 30
0.0
 40
20.0
 50
270.0
 51
0.000000000000007
  0
LINE
  5
7F0F
  8
KL
 10
14801.408389365761
 20
6593.3347929509519
 30
0.0
 11
14583.40845036576
 21
6593.3347929509519
 31
0.0
  0
ARC
  5
7F10
  8
KL
 10
14754.408389365761
 20
6640.3347929509519
 30
0.0
 40
20.0
 50
0.000000000000007
 51
90.0
  0
ARC
  5
7F11
  8
KL
 10
14630.40845036576
 20
6640.3347929509519
 30
0.0
 40
20.0
 50
90.0
 51
180.0
  0
ARC
  5
7F12
  8
KL
 10
14633.40845036576
 20
6637.3347929509528
 30
0.0
 40
30.0
 50
90.0
 51
180.0
  0
ARC
  5
7F13
  8
KL
 10
14751.408389365761
 20
6637.3347929509528
 30
0.0
 40
30.0
 50
0.000000000000007
 51
90.0
  0
LINE
  5
7F18
  8
KL
 10
14533.40845036576
 20
6728.3347929509528
 30
0.0
 11
14692.40845036576
 21
6728.3347929509528
 31
0.0
  0
LINE
  5
7F19
  8
KL
 10
14518.40845036576
 20
6653.3347929509528
 30
0.0
 11
14608.03125336576
 21
6653.3347929509528
 31
0.0
  0
LINE
  5
7F1A
  8
KL
 10
14518.40845036576
 20
6533.3347929509519
 30
0.0
 11
14603.40845036576
 21
6533.3347929509519
 31
0.0
  0
ARC
  5
7F1B
  8
FUTO
 10
14418.90845036576
 20
6440.3347929509519
 30
0.0
 40
2.0
 50
180.0
 51
270.0
  0
ARC
  5
7F1C
  8
FUTO
 10
14429.06152636576
 20
6435.3347929509528
 30
0.0
 40
3.0
 50
2.9995570000354208
 51
90.0
  0
ARC
  5
7F1D
  8
FUTO
 10
14443.75805936576
 20
6403.3030549509531
 30
0.0
 40
10.000139999999989
 50
183.00042699998181
 51
225.00097699998821
  0
ARC
  5
7F2C
  8
FUTO
 10
14445.70093036576
 20
6366.2320099509534
 30
0.0
 40
9.9999679999999991
 50
182.9990540000266
 51
225.0
  0
LINE
  5
7F2D
  8
KL
 10
14508.40845036576
 20
6366.5740509509524
 30
0.0
 11
14527.497073365759
 21
6366.5740509509524
 31
0.0
  0
LINE
  5
7F2E
  8
KL
 10
14509.44433936576
 20
6356.3347929509528
 30
0.0
 11
14503.40845036576
 21
6356.3347929509528
 31
0.0
  0
LINE
  5
7F2F
  8
KL
 10
14498.40845036576
 20
6356.3347929509528
 30
0.0
 11
14503.40845036576
 21
6356.3347929509528
 31
0.0
  0
ARC
  5
7F30
  8
KL
 10
14515.40845036576
 20
6335.3347929509528
 30
0.0
 40
3.0
 50
90.0
 51
180.0
  0
ARC
  5
7F31
  8
KL
 10
14522.497073365759
 20
6343.3347929509528
 30
0.0
 40
5.0
 50
270.0
 51
0.000000000000007
  0
LINE
  5
7F32
  8
KL
 10
14508.40845036576
 20
6359.461257950953
 30
0.0
 11
14510.96704436576
 21
6359.461257950953
 31
0.0
  0
LINE
  5
7F33
  8
KL
 10
14515.40845036576
 20
6338.3347929509519
 30
0.0
 11
14508.40845036576
 21
6359.461257950953
 31
0.0
  0
LINE
  5
7F34
  8
KL
 10
14527.497073365759
 20
6343.3347929509528
 30
0.0
 11
14527.497073365759
 21
6366.5740509509524
 31
0.0
  0
LINE
  5
7F35
  8
KL
 10
14518.56665336576
 20
6338.3347929509519
 30
0.0
 11
14508.40845036576
 21
6366.5740509509524
 31
0.0
  0
LINE
  5
7F38
  8
FUTO
 10
14432.03979836576
 20
6435.830032950953
 30
0.0
 11
14435.714602365761
 21
6365.7088169509516
 31
0.0
  0
LINE
  5
7F3A
  8
KL
 10
14465.47949536576
 20
6367.4395299509533
 30
0.0
 11
14436.68701436576
 21
6396.2317659509526
 31
0.0
  0
LINE
  5
7F3D
  8
FUTO
 10
14429.06152636576
 20
6438.3347929509528
 30
0.0
 11
14418.90845036576
 21
6438.3347929509528
 31
0.0
  0
ARC
  5
7F3E
  8
KL
 10
14472.694095365759
 20
6339.238845950953
 30
0.0
 40
9.9999839999999995
 50
225.0
 51
268.00067099997602
  0
LINE
  5
7F3F
  8
KL
 10
14498.40845036576
 20
6328.3347929509528
 30
0.0
 11
14472.345218365759
 21
6329.244949950953
 31
0.0
  0
LINE
  5
7F40
  8
KL
 10
14512.40845036576
 20
6318.3347929509528
 30
0.0
 11
14512.40845036576
 21
6335.3347929509528
 31
0.0
  0
LINE
  5
7F41
  8
KL
 10
14465.623050365761
 20
6332.1678009509524
 30
0.0
 11
14438.629886365759
 21
6359.1609649509528
 31
0.0
  0
LINE
  5
7F42
  8
KL
 10
14652.808352365761
 20
6339.9427039509528
 30
0.0
 11
14572.40845036576
 21
6338.3347929509519
 31
0.0
  0
ARC
  5
7F43
  8
KL
 10
14667.40845036576
 20
6400.8308869509528
 30
0.0
 40
5.0
 50
0.000000000000007
 51
90.0
  0
ARC
  5
7F44
  8
KL
 10
14717.40845036576
 20
6400.8308869509528
 30
0.0
 40
5.0
 50
90.0
 51
180.0
  0
ARC
  5
7F45
  8
KL
 10
14732.408389365761
 20
6359.9387969509517
 30
0.0
 40
20.000091999999999
 50
180.0
 51
268.85427899999053
  0
LINE
  5
7F46
  8
KL
 10
14712.40845036576
 20
6400.8308869509528
 30
0.0
 11
14712.40845036576
 21
6359.9387969509517
 31
0.0
  0
LINE
  5
7F47
  8
KL
 10
14672.40845036576
 20
6400.8308869509528
 30
0.0
 11
14672.40845036576
 21
6359.9387969509517
 31
0.0
  0
ARC
  5
7F48
  8
KL
 10
14652.40845036576
 20
6359.9387969509517
 30
0.0
 40
20.0
 50
271.14572100000942
 51
0.000000000000007
  0
LINE
  5
7F49
  8
KL
 10
14592.40845036576
 20
6318.3347929509528
 30
0.0
 11
14592.40845036576
 21
6319.3347929509528
 31
0.0
  0
ARC
  5
7F4A
  8
KL
 10
14597.40845036576
 20
6319.3347929509528
 30
0.0
 40
5.0
 50
90.0
 51
180.0
  0
LINE
  5
7F4B
  8
KL
 10
14597.40845036576
 20
6324.3347929509528
 30
0.0
 11
14692.40845036576
 21
6324.3347929509528
 31
0.0
  0
ARC
  5
7F4C
  8
KL
 10
14869.408389365761
 20
6335.3347929509528
 30
0.0
 40
3.0
 50
0.000000000000007
 51
90.0
  0
LINE
  5
7F4D
  8
KL
 10
14812.408389365761
 20
6338.3347929509519
 30
0.0
 11
14820.087942290071
 21
6338.3347929509519
 31
0.0
  0
ARC
  5
7F57
  8
KL
 10
14787.408389365761
 20
6319.3347929509528
 30
0.0
 40
5.0
 50
0.000000000000007
 51
90.0
  0
LINE
  5
7F58
  8
KL
 10
14792.408389365761
 20
6318.3347929509528
 30
0.0
 11
14792.408389365761
 21
6319.3347929509528
 31
0.0
  0
LINE
  5
7F59
  8
KL
 10
14792.408389365761
 20
6318.3347929509528
 30
0.0
 11
14817.40845036576
 21
6318.3347929509528
 31
0.0
  0
LINE
  5
7F5A
  8
KL
 10
14932.01446836576
 20
6322.3347929509528
 30
0.0
 11
14941.63043536576
 21
6325.8347929509528
 31
0.0
  0
LINE
  5
7F5B
  8
KL
 10
14932.01446836576
 20
6322.3347929509528
 30
0.0
 11
14872.408389365761
 21
6322.3347929509528
 31
0.0
  0
LINE
  5
7F5C
  8
KL
 10
14872.408389365761
 20
6318.3347929509528
 30
0.0
 11
14872.408389365761
 21
6335.3347929509528
 31
0.0
  0
LINE
  5
7F5D
  8
KL
 10
14732.00848736576
 20
6339.9427039509528
 30
0.0
 11
14812.408389365761
 21
6338.3347929509519
 31
0.0
  0
LINE
  5
7F5E
  8
KL
 10
14787.408389365761
 20
6324.3347929509528
 30
0.0
 11
14692.40845036576
 21
6324.3347929509528
 31
0.0
  0
LINE
  5
7F5F
  8
KL
 10
14572.40845036576
 20
6338.3347929509519
 30
0.0
 11
14564.72895844145
 21
6338.3347929509519
 31
0.0
  0
LINE
  5
7F60
  8
KL
 10
14592.40845036576
 20
6318.3347929509528
 30
0.0
 11
14567.40845036576
 21
6318.3347929509528
 31
0.0
  0
ARC
  5
7F61
  8
KL
 10
14751.408389365761
 20
6475.637038950953
 30
0.0
 40
30.0
 50
270.0
 51
0.000000000000007
  0
ARC
  5
7F62
  8
KL
 10
14633.40845036576
 20
6475.637038950953
 30
0.0
 40
30.0
 50
180.0
 51
270.0
  0
LINE
  5
7F63
  8
CT
 10
14692.40845036576
 20
6808.3347929509528
 30
0.0
 11
14692.40845036576
 21
6238.3347929509519
 31
0.0
  0
LINE
  5
7F64
  8
KL
 10
14503.40845036576
 20
6356.3347929509528
 30
0.0
 11
14503.40845036576
 21
6518.3347929509519
 31
0.0
  0
LINE
  5
7F65
  8
KL
 10
14861.408389365761
 20
6721.8347929509537
 30
0.0
 11
14861.408389365761
 21
6338.3347929509519
 31
0.0
  0
LINE
  5
7F66
  8
KL
 10
14911.408389365761
 20
6721.5213169509516
 30
0.0
 11
14911.408389365761
 21
6322.3347929509528
 31
0.0
  0
LINE
  5
7F67
  8
KL
 10
14941.608340365759
 20
6711.1521759509533
 30
0.0
 11
14941.608340365759
 21
6325.8347929509528
 31
0.0
  0
LINE
  5
7F68
  8
KL
 10
14503.40845036576
 20
6356.3347929509528
 30
0.0
 11
14503.40845036576
 21
6518.3347929509519
 31
0.0
  0
LINE
  5
7F69
  8
KL
 10
14498.40845036576
 20
6328.3347929509528
 30
0.0
 11
14498.40845036576
 21
6518.3347929509519
 31
0.0
  0
LINE
  5
7F6A
  8
FUTO
 10
14416.90845036576
 20
6440.3347929509519
 30
0.0
 11
14416.90845036576
 21
6518.3347929509519
 31
0.0
  0
ARC
  5
7F6B
  8
KL
 10
15006.09747636576
 20
6695.8347929509528
 30
0.0
 40
15.0
 50
60.00018299999563
 51
90.0
  0
ARC
  5
7F6C
  8
KL
 10
15061.408389365761
 20
6675.448074950953
 30
0.0
 40
4.9999580000000003
 50
0.000000000000007
 51
59.999718000001181
  0
LINE
  5
7F6D
  8
KL
 10
15063.908389365761
 20
6679.778152950953
 30
0.0
 11
15013.59747636576
 21
6708.8252719509528
 31
0.0
  0
LINE
  5
7F6E
  8
FUTO
 10
10519.64184575004
 20
6664.5637969509544
 30
0.0
 11
10521.04943875004
 21
6663.8030549509531
 31
0.0
  0
ARC
  5
7F6F
  8
FUTO
 10
10519.166381750039
 20
6663.683913950953
 30
0.0
 40
1.000079999999999
 50
61.614464000024142
 51
151.6049860000241
  0
ARC
  5
7F70
  8
FUTO
 10
10520.573974750039
 20
6662.9231719509544
 30
0.0
 40
1.0001299999999991
 50
331.6139680000237
 51
61.614464000024142
  0
LINE
  5
7F71
  8
FUTO
 10
10600.480224750039
 20
6663.0899199509531
 30
0.0
 11
10599.63159175004
 21
6663.0899199509531
 31
0.0
  0
LINE
  5
7F72
  8
FUTO
 10
10600.480224750039
 20
6663.0899199509531
 30
0.0
 11
10600.480224750039
 21
6663.9385529509518
 31
0.0
  0
LINE
  5
7F73
  8
FUTO
 10
10608.233764750041
 20
6670.8435819509541
 30
0.0
 11
10611.82592775004
 21
6667.2515409509533
 31
0.0
  0
LINE
  5
7F74
  8
FUTO
 10
10607.385253750041
 20
6670.8435819509541
 30
0.0
 11
10608.233764750041
 21
6670.8435819509541
 31
0.0
  0
LINE
  5
7F75
  8
FUTO
 10
10605.946410750041
 20
6668.5562289509526
 30
0.0
 11
10605.946410750041
 21
6669.4048619509549
 31
0.0
  0
LINE
  5
7F76
  8
FUTO
 10
10605.946410750041
 20
6668.5562289509526
 30
0.0
 11
10609.53857375004
 21
6664.9641879509527
 31
0.0
  0
LINE
  5
7F77
  8
FUTO
 10
10605.946410750041
 20
6668.5562289509526
 30
0.0
 11
10605.097900750039
 21
6668.5562289509526
 31
0.0
  0
LINE
  5
7F78
  8
FUTO
 10
10404.645995750039
 20
6453.9053499509537
 30
0.0
 11
10401.84765575004
 21
6455.4178009509533
 31
0.0
  0
ARC
  5
7F79
  8
FUTO
 10
10400.295287750039
 20
6443.7530059509536
 30
0.0
 40
1.0001299999999991
 50
151.61727900002231
 51
241.61447099997949
  0
ARC
  5
7F7A
  8
FUTO
 10
11399.07250975004
 20
6529.8660429509528
 30
0.0
 40
1000.0
 50
174.84371900001099
 51
184.2695309999898
  0
LINE
  5
7F7B
  8
FUTO
 10
10519.732543750029
 20
6659.2635039509532
 30
0.0
 11
10528.078979750029
 21
6654.7522739509532
 31
0.0
  0
ARC
  5
7F7C
  8
FUTO
 10
10525.701659750041
 20
6650.3535919509541
 30
0.0
 40
5.000062999999999
 50
0.000000000000007
 51
61.609245000013807
  0
LINE
  5
7F7D
  8
CT
 10
10548.146484750039
 20
6593.3347929509519
 30
0.0
 11
10511.71313475004
 21
6593.3347929509519
 31
0.0
  0
LINE
  5
7F7E
  8
FUTO
 10
10598.192870750039
 20
6660.8025669509534
 30
0.0
 11
10601.784911750039
 21
6657.2105259509544
 31
0.0
  0
LINE
  5
7F7F
  8
FUTO
 10
10598.192870750039
 20
6660.8025669509534
 30
0.0
 11
10598.192870750039
 21
6661.6511999509521
 31
0.0
  0
LINE
  5
7F80
  8
FUTO
 10
10529.715758750041
 20
6653.3347929509528
 30
0.0
 11
10598.42797875004
 21
6653.3347929509528
 31
0.0
  0
LINE
  5
7F81
  8
FUTO
 10
10530.701659750041
 20
6533.3347929509519
 30
0.0
 11
10547.75512675004
 21
6533.3347929509519
 31
0.0
  0
ARC
  5
7F82
  8
FUTO
 10
10511.87377975004
 20
6463.3347929509519
 30
0.0
 40
10.000057999999999
 50
270.0
 51
352.87567099997028
  0
LINE
  5
7F83
  8
FUTO
 10
10530.701659750041
 20
6533.3347929509519
 30
0.0
 11
10521.796630750039
 21
6462.0945589509547
 31
0.0
  0
LINE
  5
7F84
  8
FUTO
 10
10540.701659750041
 20
6533.3347929509519
 30
0.0
 11
10540.701659750041
 21
6653.3347929509528
 31
0.0
  0
LINE
  5
7F85
  8
FUTO
 10
10530.701659750041
 20
6533.3347929509519
 30
0.0
 11
10530.701659750041
 21
6650.3535919509541
 31
0.0
  0
LINE
  5
7F86
  8
FUTO
 10
10408.429626750039
 20
6453.3347929509528
 30
0.0
 11
10511.87377975004
 21
6453.3347929509528
 31
0.0
  0
LINE
  5
7F87
  8
FUTO
 10
10516.56555175004
 20
6660.9751739509529
 30
0.0
 11
10440.38232375004
 21
6656.060622950954
 31
0.0
  0
ARC
  5
7F88
  8
FUTO
 10
10442.957275750039
 20
6616.1436309509536
 30
0.0
 40
40.000011000000001
 50
93.690902999999693
 51
174.8436270000314
  0
LINE
  5
7F89
  8
FUTO
 10
10518.286620750039
 20
6664.1594999509516
 30
0.0
 11
10399.415527750039
 21
6444.2283479509542
 31
0.0
  0
LINE
  5
7F8A
  8
FUTO
 10
10611.82592775004
 20
6667.2515409509533
 30
0.0
 11
10601.784911750039
 21
6657.2105259509544
 31
0.0
  0
LINE
  5
7F8B
  8
CT
 10
10602.260619750041
 20
6666.7757109509539
 30
0.0
 11
10607.508788750039
 21
6661.5276639509548
 31
0.0
  0
LINE
  5
7F8C
  8
FUTO
 10
10607.385253750041
 20
6670.8435819509541
 30
0.0
 11
10598.192870750039
 21
6661.6511999509521
 31
0.0
  0
LINE
  5
7F8D
  8
FUTO
 10
10600.480224750039
 20
6663.0899199509531
 30
0.0
 11
10604.072265750039
 21
6659.4978789509541
 31
0.0
  0
ARC
  5
7F8E
  8
FUTO
 10
10750.701659750041
 20
6782.0847929509528
 30
0.0
 40
6.25
 50
0.000000000000007
 51
180.0
  0
LINE
  5
7F8F
  8
FUTO
 10
10734.10490375004
 20
6724.7536169509531
 30
0.0
 11
10734.26496875004
 21
6721.1698149509539
 31
0.0
  0
LINE
  5
7F90
  8
FUTO
 10
10744.451659750041
 20
6740.1651769509544
 30
0.0
 11
10739.14709475004
 21
6739.5968169509533
 31
0.0
  0
ARC
  5
7F91
  8
FUTO
 10
10739.466689750039
 20
6736.6139069509536
 30
0.0
 40
3.0000059999999991
 50
96.115463000033785
 51
174.8055969999956
  0
LINE
  5
7F92
  8
FUTO
 10
10756.951659750041
 20
6740.1651769509544
 30
0.0
 11
10762.256225750039
 21
6739.5968169509533
 31
0.0
  0
ARC
  5
7F93
  8
FUTO
 10
10737.701659750041
 20
6725.3347929509528
 30
0.0
 40
3.0
 50
90.0
 51
133.8690379999866
  0
ARC
  5
7F94
  8
FUTO
 10
10750.701659750041
 20
6518.3347929509519
 30
0.0
 40
209.99987799999991
 50
93.733024999983584
 51
93.766990999962644
  0
ARC
  5
7F95
  8
FUTO
 10
10737.22445675004
 20
6724.8955229509529
 30
0.0
 40
3.0001099999999989
 50
4.9449460000082901
 51
93.734192000008321
  0
ARC
  5
7F96
  8
FUTO
 10
10737.701659750041
 20
6725.3347929509528
 30
0.0
 40
3.0
 50
90.0
 51
132.5596429999928
  0
LINE
  5
7F97
  8
FUTO
 10
10740.21322675004
 20
6725.1540679509526
 30
0.0
 11
10740.52230875004
 21
6721.5799719509514
 31
0.0
  0
LINE
  5
7F98
  8
FUTO
 10
10761.18997175004
 20
6725.1540679509526
 30
0.0
 11
10760.88088975004
 21
6721.5799719509514
 31
0.0
  0
ARC
  5
7F99
  8
FUTO
 10
10759.95165975003
 20
6733.7674109509526
 30
0.0
 40
3.0
 50
180.0
 51
270.0
  0
ARC
  5
7F9A
  8
FUTO
 10
10741.451659750041
 20
6734.0556189509543
 30
0.0
 40
3.0
 50
270.0
 51
0.000000000000007
  0
LINE
  5
7F9B
  8
FUTO
 10
10736.479003750041
 20
6736.8855139509524
 30
0.0
 11
10735.701659750041
 21
6728.3347929509528
 31
0.0
  0
ARC
  5
7F9C
  8
FUTO
 10
10737.101882750039
 20
6724.887527950953
 30
0.0
 40
3.000081999999999
 50
93.765747000020752
 51
182.55828900003789
  0
ARC
  5
7F9D
  8
FUTO
 10
10750.701659750041
 20
6518.3347929509519
 30
0.0
 40
209.99998500000001
 50
86.233009000037313
 51
86.267005999973264
  0
ARC
  5
7F9E
  8
FUTO
 10
10764.301315750041
 20
6724.8874669509532
 30
0.0
 40
2.9999649999999991
 50
357.44277999999088
 51
86.232139999971935
  0
LINE
  5
7F9F
  8
FUTO
 10
10767.29829375004
 20
6724.7536169509531
 30
0.0
 11
10767.13822975004
 21
6721.1698149509539
 31
0.0
  0
LINE
  5
7FA0
  8
FUTO
 10
10764.924316750041
 20
6736.8855139509524
 30
0.0
 11
10765.701659750041
 21
6728.3347929509528
 31
0.0
  0
ARC
  5
7FA1
  8
FUTO
 10
10763.701659750041
 20
6725.3347929509528
 30
0.0
 40
3.0
 50
46.112625000024657
 51
90.0
  0
LINE
  5
7FA2
  8
FUTO
 10
10735.701659750041
 20
6728.3347929509528
 30
0.0
 11
10765.701659750041
 21
6728.3347929509528
 31
0.0
  0
ARC
  5
7FA3
  8
FUTO
 10
10763.701659750041
 20
6725.3347929509528
 30
0.0
 40
3.0
 50
46.168487999999194
 51
90.0
  0
ARC
  5
7FA4
  8
FUTO
 10
10761.936629750029
 20
6736.6139069509536
 30
0.0
 40
2.9999820000000001
 50
5.1943969999919046
 51
83.884536999966215
  0
ARC
  5
7FA5
  8
FUTO
 10
10764.178863750039
 20
6724.8955229509529
 30
0.0
 40
3.0000490000000002
 50
86.268058999992206
 51
175.0561099999934
  0
LINE
  5
7FA6
  8
FUTO
 10
10893.169433750039
 20
6670.8435819509541
 30
0.0
 11
10889.57739275004
 21
6667.2515409509533
 31
0.0
  0
LINE
  5
7FA7
  8
FUTO
 10
10893.169433750039
 20
6670.8435819509541
 30
0.0
 11
10894.018066750041
 21
6670.8435819509541
 31
0.0
  0
LINE
  5
7FA8
  8
FUTO
 10
10900.92309575004
 20
6663.0901639509539
 30
0.0
 11
10901.77172875004
 21
6663.0901639509539
 31
0.0
  0
LINE
  5
7FA9
  8
FUTO
 10
10900.92309575004
 20
6663.0901639509539
 30
0.0
 11
10900.92309575004
 21
6663.9385529509518
 31
0.0
  0
LINE
  5
7FAA
  8
FUTO
 10
10895.456786750039
 20
6668.5562289509526
 30
0.0
 11
10895.456786750039
 21
6669.4048619509549
 31
0.0
  0
LINE
  5
7FAB
  8
FUTO
 10
10895.456786750039
 20
6668.5562289509526
 30
0.0
 11
10896.305419750041
 21
6668.5562289509526
 31
0.0
  0
LINE
  5
7FAC
  8
FUTO
 10
10895.456786750039
 20
6668.5562289509526
 30
0.0
 11
10891.864745750039
 21
6664.9641879509527
 31
0.0
  0
LINE
  5
7FAD
  8
FUTO
 10
10756.951659750041
 20
6782.0847929509528
 30
0.0
 11
10756.951659750041
 21
6733.7674109509526
 31
0.0
  0
LINE
  5
7FAE
  8
FUTO
 10
10744.451659750041
 20
6782.0847929509528
 30
0.0
 11
10744.451659750041
 21
6734.0556189509543
 31
0.0
  0
LINE
  5
7FAF
  8
FUTO
 10
10903.21044875004
 20
6660.8025669509534
 30
0.0
 11
10899.61840775004
 21
6657.2105259509544
 31
0.0
  0
LINE
  5
7FB0
  8
FUTO
 10
10903.21044875004
 20
6661.6511999509521
 30
0.0
 11
10903.21044875004
 21
6660.8025669509534
 31
0.0
  0
LINE
  5
7FB1
  8
FUTO
 10
10899.61840775004
 20
6657.2105259509544
 30
0.0
 11
10889.57739275004
 21
6667.2515409509533
 31
0.0
  0
LINE
  5
7FB2
  8
CT
 10
10899.142577750041
 20
6666.7757109509539
 30
0.0
 11
10893.89453075004
 21
6661.5276639509548
 31
0.0
  0
LINE
  5
7FB3
  8
FUTO
 10
10903.21044875004
 20
6661.6511999509521
 30
0.0
 11
10894.018066750041
 21
6670.8435819509541
 31
0.0
  0
LINE
  5
7FB4
  8
FUTO
 10
10900.92309575004
 20
6663.0901639509539
 30
0.0
 11
10897.33105475004
 21
6659.4978789509541
 31
0.0
  0
LINE
  5
7FB5
  8
CT
 10
10974.201659750041
 20
6518.3347929509519
 30
0.0
 11
10527.201659750041
 21
6518.3347929509519
 31
0.0
  0
ARC
  5
7FB6
  8
KL
 10
15061.408389365761
 20
6361.2215119509528
 30
0.0
 40
5.0
 50
300.00027499997202
 51
0.000000000000007
  0
ARC
  5
7FB7
  8
FUTO
 10
10401.702880750039
 20
6442.9922639509523
 30
0.0
 40
1.000079999999999
 50
241.61447099997949
 51
331.60498000002087
  0
ARC
  5
7FB8
  8
KL
 10
15006.09747636576
 20
6340.8347929509528
 30
0.0
 40
15.000085
 50
270.0
 51
299.99981700000433
  0
LINE
  5
7FB9
  8
KL
 10
15063.908389365761
 20
6356.8914339509529
 30
0.0
 11
15013.59747636576
 21
6327.844314950954
 31
0.0
  0
ARC
  5
7FBA
  8
FUTO
 10
10566.701659750041
 20
6392.6614539509528
 30
0.0
 40
5.0
 50
124.94366100000759
 51
180.0
  0
LINE
  5
7FBB
  8
FUTO
 10
10563.83776875004
 20
6396.760085950953
 30
0.0
 11
10579.77563475004
 21
6407.8965609509523
 31
0.0
  0
ARC
  5
7FBC
  8
FUTO
 10
10564.701659750041
 20
6335.3347929509528
 30
0.0
 40
3.0
 50
90.0
 51
180.0
  0
LINE
  5
7FBD
  8
FUTO
 10
10598.192870750039
 20
6375.8670199509525
 30
0.0
 11
10601.784911750039
 21
6379.4590609509532
 31
0.0
  0
LINE
  5
7FBE
  8
FUTO
 10
10598.192870750039
 20
6375.0183869509519
 30
0.0
 11
10598.192870750039
 21
6375.8670199509525
 31
0.0
  0
LINE
  5
7FBF
  8
FUTO
 10
10600.480224750039
 20
6373.5794219509526
 30
0.0
 11
10599.63159175004
 21
6373.5794219509526
 31
0.0
  0
LINE
  5
7FC0
  8
FUTO
 10
10600.480224750039
 20
6373.5794219509526
 30
0.0
 11
10600.480224750039
 21
6372.7310339509531
 31
0.0
  0
LINE
  5
7FC1
  8
FUTO
 10
10608.23388675004
 20
6365.8260039509532
 30
0.0
 11
10611.82592775004
 21
6369.4180449509531
 31
0.0
  0
LINE
  5
7FC2
  8
FUTO
 10
10608.23388675004
 20
6365.8260039509532
 30
0.0
 11
10607.385253750041
 21
6365.8260039509532
 31
0.0
  0
LINE
  5
7FC3
  8
FUTO
 10
10605.94653275004
 20
6368.1133579509533
 30
0.0
 11
10605.94653275004
 21
6367.2647249509528
 31
0.0
  0
LINE
  5
7FC4
  8
FUTO
 10
10605.94653275004
 20
6368.1133579509533
 30
0.0
 11
10609.53857375004
 21
6371.7053989509532
 31
0.0
  0
LINE
  5
7FC5
  8
FUTO
 10
10605.94653275004
 20
6368.1133579509533
 30
0.0
 11
10605.097900750039
 21
6368.1133579509533
 31
0.0
  0
LINE
  5
7FC6
  8
FUTO
 10
10601.784911750039
 20
6379.4590609509532
 30
0.0
 11
10611.82592775004
 21
6369.4180449509531
 31
0.0
  0
LINE
  5
7FC7
  8
CT
 10
10602.26074175004
 20
6369.8938749509534
 30
0.0
 11
10607.508788750039
 21
6375.1419219509526
 31
0.0
  0
LINE
  5
7FC8
  8
FUTO
 10
10598.192870750039
 20
6375.0183869509519
 30
0.0
 11
10607.385253750041
 21
6365.8260039509532
 31
0.0
  0
LINE
  5
7FC9
  8
FUTO
 10
10600.480224750039
 20
6373.5794219509526
 30
0.0
 11
10604.072265750039
 21
6377.1717069509541
 31
0.0
  0
ARC
  5
7FCA
  8
FUTO
 10
10638.201659750041
 20
6335.3347929509528
 30
0.0
 40
3.0
 50
0.000000000000007
 51
90.0
  0
LINE
  5
7FCB
  8
FUTO
 10
10638.201659750041
 20
6338.3347929509519
 30
0.0
 11
10564.701659750041
 21
6338.3347929509519
 31
0.0
  0
LINE
  5
7FCC
  8
FUTO
 10
10561.701659750041
 20
6318.3347929509528
 30
0.0
 11
10641.201659750041
 21
6318.3347929509528
 31
0.0
  0
LINE
  5
7FCD
  8
FUTO
 10
10641.201659750041
 20
6335.3347929509528
 30
0.0
 11
10641.201659750041
 21
6318.3347929509528
 31
0.0
  0
LINE
  5
7FCE
  8
FUTO
 10
10646.59887675004
 20
6343.4781039509517
 30
0.0
 11
10641.201659750041
 21
6323.3347929509519
 31
0.0
  0
LINE
  5
7FCF
  8
CT
 10
10591.701659750041
 20
6348.3347929509528
 30
0.0
 11
10591.701659750041
 21
6308.3347929509528
 31
0.0
  0
LINE
  5
7FD0
  8
FUTO
 10
10561.701659750041
 20
6392.6614539509528
 30
0.0
 11
10561.701659750041
 21
6318.3347929509528
 31
0.0
  0
LINE
  5
7FD1
  8
FUTO
 10
10937.56542975004
 20
6396.760085950953
 30
0.0
 11
10921.62756375004
 21
6407.8965609509523
 31
0.0
  0
ARC
  5
7FD2
  8
FUTO
 10
10863.201659750041
 20
6335.3347929509528
 30
0.0
 40
3.0
 50
90.0
 51
180.0
  0
LINE
  5
7FD3
  8
FUTO
 10
10903.21044875004
 20
6375.8670199509525
 30
0.0
 11
10899.61840775004
 21
6379.4590609509532
 31
0.0
  0
LINE
  5
7FD4
  8
FUTO
 10
10903.21044875004
 20
6375.8670199509525
 30
0.0
 11
10903.21044875004
 21
6375.0183869509519
 31
0.0
  0
LINE
  5
7FD5
  8
FUTO
 10
10893.169433750039
 20
6365.8260039509532
 30
0.0
 11
10889.57739275004
 21
6369.4180449509531
 31
0.0
  0
LINE
  5
7FD6
  8
FUTO
 10
10894.018066750041
 20
6365.8260039509532
 30
0.0
 11
10893.169433750039
 21
6365.8260039509532
 31
0.0
  0
LINE
  5
7FD7
  8
FUTO
 10
10895.45703075004
 20
6368.1133579509533
 30
0.0
 11
10895.45703075004
 21
6367.2647249509528
 31
0.0
  0
LINE
  5
7FD8
  8
FUTO
 10
10895.45703075004
 20
6368.1133579509533
 30
0.0
 11
10896.305419750041
 21
6368.1133579509533
 31
0.0
  0
LINE
  5
7FD9
  8
FUTO
 10
10900.92309575004
 20
6373.5796659509524
 30
0.0
 11
10901.77172875004
 21
6373.5796659509524
 31
0.0
  0
LINE
  5
7FDA
  8
FUTO
 10
10900.92309575004
 20
6373.5796659509524
 30
0.0
 11
10900.92309575004
 21
6372.7310339509531
 31
0.0
  0
LINE
  5
7FDB
  8
FUTO
 10
10895.45703075004
 20
6368.1133579509533
 30
0.0
 11
10891.864745750039
 21
6371.7053989509532
 31
0.0
  0
LINE
  5
7FDC
  8
FUTO
 10
10889.57739275004
 20
6369.4180449509531
 30
0.0
 11
10899.61840775004
 21
6379.4590609509532
 31
0.0
  0
LINE
  5
7FDD
  8
CT
 10
10899.142577750041
 20
6369.8938749509534
 30
0.0
 11
10893.89453075004
 21
6375.1419219509526
 31
0.0
  0
LINE
  5
7FDE
  8
FUTO
 10
10894.018066750041
 20
6365.8260039509532
 30
0.0
 11
10903.21044875004
 21
6375.0183869509519
 31
0.0
  0
LINE
  5
7FDF
  8
FUTO
 10
10900.92309575004
 20
6373.5796659509524
 30
0.0
 11
10897.33105475004
 21
6377.1717069509541
 31
0.0
  0
LINE
  5
7FE0
  8
FUTO
 10
10863.201659750041
 20
6338.3347929509519
 30
0.0
 11
10936.701659750041
 21
6338.3347929509519
 31
0.0
  0
LINE
  5
7FE1
  8
FUTO
 10
10860.201659750041
 20
6335.3347929509528
 30
0.0
 11
10860.201659750041
 21
6318.3347929509528
 31
0.0
  0
LINE
  5
7FE2
  8
FUTO
 10
10854.80422975004
 20
6343.4779819509531
 30
0.0
 11
10860.201659750041
 21
6323.3347929509519
 31
0.0
  0
LINE
  5
7FE3
  8
CT
 10
10909.701659750041
 20
6348.3347929509528
 30
0.0
 11
10909.701659750041
 21
6308.3347929509528
 31
0.0
  0
LINE
  5
7FE4
  8
FUTO
 10
10939.701659750041
 20
6392.6614539509528
 30
0.0
 11
10939.701659750041
 21
6318.3347929509528
 31
0.0
  0
LINE
  5
7FE5
  8
FUTO
 10
10939.701659750041
 20
6318.3347929509528
 30
0.0
 11
10860.201659750041
 21
6318.3347929509528
 31
0.0
  0
ARC
  5
7FE6
  8
FUTO
 10
10934.701659750041
 20
6392.6614539509528
 30
0.0
 40
5.0000669999999987
 50
0.000000000000007
 51
55.056335000025037
  0
ARC
  5
7FE7
  8
FUTO
 10
10936.701659750041
 20
6335.3347929509528
 30
0.0
 40
3.0
 50
0.000000000000007
 51
90.0
  0
LINE
  5
7FE8
  8
FUTO
 10
10695.96362275004
 20
6322.3347929509528
 30
0.0
 11
10805.43969675004
 21
6322.3347929509528
 31
0.0
  0
LINE
  5
7FE9
  8
CT
 10
10750.701659750041
 20
6808.3347929509528
 30
0.0
 11
10750.701659750041
 21
6238.3347929509519
 31
0.0
  0
ARC
  5
7FEA
  8
FUTO
 10
10750.701659750041
 20
6518.3347929509519
 30
0.0
 40
203.5
 50
285.6036990000095
 51
254.3962400000253
  0
LINE
  5
7FEB
  8
KL
 10
15007.308413365759
 20
6325.8347929509528
 30
0.0
 11
15007.308413365759
 21
6710.785720950953
 31
0.0
  0
LINE
  5
7FEC
  8
CT
 10
10460.701659750041
 20
6470.7290799509528
 30
0.0
 11
10460.701659750041
 21
6431.7351839509538
 31
0.0
  0
LINE
  5
7FED
  8
FUTO
 10
10521.45361275004
 20
6662.447585950953
 30
0.0
 11
10402.58251975004
 21
6442.5166779509518
 31
0.0
  0
LINE
  5
7FEE
  8
FUTO
 10
10401.22741675004
 20
6442.1123809509536
 30
0.0
 11
10399.81982375004
 21
6442.8731229509531
 31
0.0
  0
LINE
  5
7FEF
  8
KL
 10
15066.40845036576
 20
6675.9847569509529
 30
0.0
 11
15066.40845036576
 21
6361.1944429509531
 31
0.0
  0
LINE
  5
7FF0
  8
CT
 10
14246.90845036576
 20
6518.3347929509519
 30
0.0
 11
15086.40845036576
 21
6518.3347929509519
 31
0.0
  0
LINE
  5
7FF1
  8
KL
 10
14945.15716836576
 20
6710.8347929509528
 30
0.0
 11
15006.09747636576
 21
6710.8347929509528
 31
0.0
  0
LINE
  5
7FF2
  8
KL
 10
14941.608340365759
 20
6325.8347929509528
 30
0.0
 11
15006.09747636576
 21
6325.8347929509528
 31
0.0
  0
LINE
  5
7FF3
  8
FUTO
 10
10741.701659750041
 20
6552.3347929509528
 30
0.0
 11
10759.701659750041
 21
6552.3347929509528
 31
0.0
  0
LINE
  5
7FF4
  8
FUTO
 10
10741.701659750041
 20
6541.3347929509519
 30
0.0
 11
10759.701659750041
 21
6541.3347929509537
 31
0.0
  0
LINE
  5
7FF5
  8
FUTO
 10
10741.701659750041
 20
6552.3347929509537
 30
0.0
 11
10741.701659750041
 21
6541.3347929509519
 31
0.0
  0
LINE
  5
7FF6
  8
FUTO
 10
10759.701659750041
 20
6552.3347929509537
 30
0.0
 11
10759.701659750041
 21
6541.3347929509519
 31
0.0
  0
LINE
  5
7FF7
  8
CT
 10
10885.701659750041
 20
9975.1719303844038
 30
0.0
 11
10935.701659750041
 21
9975.1719303844038
 31
0.0
  0
LINE
  5
7FF8
  8
CT
 10
10910.701659750041
 20
9950.1719303844038
 30
0.0
 11
10910.701659750041
 21
10000.1719303844
 31
0.0
  0
LINE
  5
7FF9
  8
CT
 10
10590.701659750041
 20
9950.1719303844038
 30
0.0
 11
10590.701659750041
 21
10000.1719303844
 31
0.0
  0
LINE
  5
7FFA
  8
CT
 10
10615.701659750041
 20
9975.1719303844038
 30
0.0
 11
10565.701659750041
 21
9975.1719303844038
 31
0.0
  0
LINE
  5
7FFB
  8
CT
 10
10615.701659750041
 20
10435.1719303844
 30
0.0
 11
10565.701659750041
 21
10435.1719303844
 31
0.0
  0
LINE
  5
7FFC
  8
CT
 10
10590.701659750041
 20
10460.1719303844
 30
0.0
 11
10590.701659750041
 21
10410.1719303844
 31
0.0
  0
LINE
  5
7FFD
  8
CT
 10
10910.701659750041
 20
10460.1719303844
 30
0.0
 11
10910.701659750041
 21
10410.1719303844
 31
0.0
  0
LINE
  5
7FFE
  8
CT
 10
10885.701659750041
 20
10435.1719303844
 30
0.0
 11
10935.701659750041
 21
10435.1719303844
 31
0.0
  0
LINE
  5
8000
  8
SL
 10
10618.201659750041
 20
9779.671930384402
 30
0.0
 11
10618.201659750041
 21
9877.6719303844002
 31
0.0
  0
LINE
  5
8001
  8
FUTO
 10
10547.201659750041
 20
9640.6719303844038
 30
0.0
 11
10547.201659750041
 21
9929.6719303844075
 31
0.0
  0
LINE
  5
8002
  8
SL
 10
10883.201659750041
 20
9779.671930384402
 30
0.0
 11
10883.201659750041
 21
9877.6719303844002
 31
0.0
  0
LINE
  5
8003
  8
SL
 10
10560.701659750041
 20
10527.21048801255
 30
0.0
 11
10560.701659750041
 21
9964.6719303844056
 31
0.0
  0
LINE
  5
8004
  8
SL
 10
10625.701659750041
 20
10579.1719303844
 30
0.0
 11
10625.701659750041
 21
9964.6719303844056
 31
0.0
  0
LINE
  5
8005
  8
SL
 10
10875.701659750041
 20
10579.1719303844
 30
0.0
 11
10875.701659750041
 21
9964.6719303844056
 31
0.0
  0
LINE
  5
8006
  8
SL
 10
10940.701659750041
 20
10520.0718933844
 30
0.0
 11
10940.701659750041
 21
9964.6719303844056
 31
0.0
  0
LINE
  5
8007
  8
FUTO
 10
10237.701659750041
 20
10861.6719303844
 30
0.0
 11
10237.701659750041
 21
12179.6719303844
 31
0.0
  0
LINE
  5
8008
  8
FUTO
 10
10302.701659750041
 20
10926.6719303844
 30
0.0
 11
10302.701659750041
 21
12114.6719303844
 31
0.0
  0
LINE
  5
8009
  8
FUTO
 10
12023.701659750041
 20
10861.6719303844
 30
0.0
 11
12023.701659750041
 21
12179.6719303844
 31
0.0
  0
LINE
  5
8017
  8
FUTO
 10
11958.701659750041
 20
10926.6719303844
 30
0.0
 11
11958.701659750041
 21
12114.6719303844
 31
0.0
  0
LINE
  5
8018
  8
FUTO
 10
10237.701659750041
 20
12179.6719303844
 30
0.0
 11
12023.701659750041
 21
12179.6719303844
 31
0.0
  0
LINE
  5
8019
  8
FUTO
 10
10237.701659750041
 20
10861.6719303844
 30
0.0
 11
12023.701659750041
 21
10861.6719303844
 31
0.0
  0
LINE
  5
801A
  8
FUTO
 10
11050.701659750041
 20
10861.6719303844
 30
0.0
 11
11050.701659750041
 21
10851.6719303844
 31
0.0
  0
LINE
  5
801C
  8
FUTO
 10
12023.701659750041
 20
10926.6719303844
 30
0.0
 11
13139.701659750041
 21
10926.6719303844
 31
0.0
  0
LINE
  5
801D
  8
FUTO
 10
12023.701659750041
 20
12114.6719303844
 30
0.0
 11
13139.701659750041
 21
12114.6719303844
 31
0.0
  0
LINE
  5
801E
  8
FUTO
 10
13139.701659750041
 20
10926.6719303844
 30
0.0
 11
13139.701659750041
 21
12114.6719303844
 31
0.0
  0
LINE
  5
801F
  8
FUTO
 10
13189.701659750041
 20
10876.6719303844
 30
0.0
 11
13189.701659750041
 21
12164.6719303844
 31
0.0
  0
LINE
  5
8020
  8
FUTO
 10
12023.701659750041
 20
10876.6719303844
 30
0.0
 11
13189.701659750041
 21
10876.6719303844
 31
0.0
  0
LINE
  5
8021
  8
FUTO
 10
12023.701659750041
 20
12164.6719303844
 30
0.0
 11
13189.701659750041
 21
12164.6719303844
 31
0.0
  0
LINE
  5
8022
  8
FUTO
 10
12950.701659750041
 20
10876.6719303844
 30
0.0
 11
12950.701659750041
 21
10851.6719303844
 31
0.0
  0
LINE
  5
8023
  8
SL
 10
10302.701659750041
 20
12114.6719303844
 30
0.0
 11
11958.701659750041
 21
10926.6719303844
 31
0.0
  0
LINE
  5
8024
  8
SL
 10
11958.701659750041
 20
12114.6719303844
 30
0.0
 11
10302.701659750041
 21
10926.6719303844
 31
0.0
  0
LINE
  5
8025
  8
FUTO
 10
11615.04978685931
 20
9964.6719303844056
 30
0.0
 11
11615.04978685931
 21
10851.6719303844
 31
0.0
  0
LINE
  5
8027
  8
FUTO
 10
12386.35353264076
 20
9964.6719303844056
 30
0.0
 11
12386.35353264076
 21
10851.6719303844
 31
0.0
  0
DIMENSION
  5
8028
  8
SP
  2
*D12
 10
10237.701659750041
 20
8903.5011840328298
 30
0.0
 11
11119.201659750041
 21
8991.0011840328298
 31
0.0
 70
     0
 13
12000.701659750041
 23
8660.9666534643184
 33
0.0
 14
10237.701659750041
 24
8553.3347929509546
 34
0.0
 50
180.0
1001
ACAD
1000
DSTYLE
1002
{
1070
    40
1040
35.0
1070
    41
1040
2.5
1070
   147
1040
1.0
1002
}
  0
DIMENSION
  5
8046
  8
SP
  2
*D13
 10
9984.5064935022947
 20
7508.3347929509528
 30
0.0
 11
9897.0064935022929
 21
6808.3347929509546
 31
0.0
 70
     0
 13
10450.701659750041
 23
6108.3347929509528
 33
0.0
 14
10167.343537780191
 24
7508.3347929509528
 34
0.0
 50
90.0
1001
ACAD
1000
DSTYLE
1002
{
1070
    40
1040
35.0
1070
    41
1040
2.5
1070
   147
1040
1.0
1002
}
  0
DIMENSION
  5
8053
  8
SP
  2
*D14
 10
9984.5064935022947
 20
8553.3347929509546
 30
0.0
 11
9897.0064935022929
 21
8030.8347929509528
 31
0.0
 70
     0
 13
10167.343537780191
 23
7508.3347929509528
 33
0.0
 14
10237.701659750041
 24
8553.3347929509546
 34
0.0
 50
90.0
1001
ACAD
1000
DSTYLE
1002
{
1070
    40
1040
35.0
1070
    41
1040
2.5
1070
   147
1040
1.0
1002
}
  0
DIMENSION
  5
807B
  8
SP
  2
*D15
 10
10237.701659750041
 20
12565.82259784011
 30
0.0
 11
11119.201659750041
 21
12653.32259784011
 31
0.0
 70
     0
 13
12000.701659750041
 23
12290.44984220126
 33
0.0
 14
10237.701659750041
 24
12179.6719303844
 34
0.0
 50
180.0
1001
ACAD
1000
DSTYLE
1002
{
1070
    40
1040
35.0
1070
    41
1040
2.5
1070
   147
1040
1.0
1002
}
  0
DIMENSION
  5
8088
  8
SP
  2
*D16
 10
13189.701659750041
 20
12565.82259784011
 30
0.0
 11
12595.201659750041
 21
12653.32259784011
 31
0.0
 70
     0
 13
12000.701659750041
 23
12325.449842201269
 33
0.0
 14
13189.701659750041
 24
12164.6719303844
 34
0.0
 50
180.0
1001
ACAD
1000
DSTYLE
1002
{
1070
    40
1040
35.0
1070
    41
1040
2.5
1070
   147
1040
1.0
1002
}
  0
DIMENSION
  5
8095
  8
SP
  2
*D17
 10
9895.0818994364417
 20
12245.6719303844
 30
0.0
 11
9807.5818994364399
 21
11883.1719303844
 31
0.0
 70
     0
 13
10237.701659750041
 23
11520.6719303844
 33
0.0
 14
11135.701659750041
 24
12245.6719303844
 34
0.0
 50
90.0
1001
ACAD
1000
DSTYLE
1002
{
1070
    40
1040
35.0
1070
    41
1040
2.5
1070
   147
1040
1.0
1002
}
  0
DIMENSION
  5
80A2
  8
SP
  2
*D18
 10
9895.0818994364417
 20
9640.6719303844038
 30
0.0
 11
9807.5818994364399
 21
10580.6719303844
 31
0.0
 70
     0
 13
10237.701659750041
 23
11520.6719303844
 33
0.0
 14
10547.201659750041
 24
9640.6719303844038
 34
0.0
 50
90.0
1001
ACAD
1000
DSTYLE
1002
{
1070
    40
1040
35.0
1070
    41
1040
2.5
1070
   147
1040
1.0
1002
}
  0
LINE
  5
80D3
  8
FUTO
 10
11471.09811026621
 20
6718.20693125252
 30
0.0
 11
11375.701659750041
 21
6266.1623400098952
 31
0.0
  0
LINE
  5
80D4
  8
FUTO
 10
11060.701659750041
 20
6455.5416926623548
 30
0.0
 11
11060.701659750041
 21
6258.3347929509528
 31
0.0
  0
LINE
  5
80D5
  8
FUTO
 10
11069.701659750041
 20
6461.3019450825159
 30
0.0
 11
11069.701659750041
 21
6258.3347929509528
 31
0.0
  0
LINE
  5
80D6
  8
KL
 10
11060.701659750041
 20
7125.6955293902429
 30
0.0
 11
11060.701659750041
 21
6455.5416926623548
 31
0.0
  0
LINE
  5
80D7
  8
KL
 10
11069.701659750041
 20
7134.428737832859
 30
0.0
 11
11069.701659750041
 21
6461.3019450825159
 31
0.0
  0
LINE
  5
80D8
  8
FUTO
 10
11464.30514582362
 20
7517.3347929509528
 30
0.0
 11
10352.23311033659
 21
7517.3347929509528
 31
0.0
  0
LINE
  5
80D9
  8
FUTO
 10
11445.75526223107
 20
7499.3347929509528
 30
0.0
 11
10352.23311033659
 21
7499.3347929509528
 31
0.0
  0
LINE
  5
80DA
  8
KL
 10
12380.595065852331
 20
7517.3347929509528
 30
0.0
 11
12200.701659750041
 21
7517.3347929509528
 31
0.0
  0
LINE
  5
80DB
  8
KL
 10
12380.595065852331
 20
7499.3347929509528
 30
0.0
 11
12200.701659750041
 21
7499.3347929509528
 31
0.0
  0
TEXT
  5
8B4F
  8
SP
 10
18245.609121360369
 20
7776.1490676926278
 30
0.0
 40
100.0
  1
 
  0
LINE
  5
8B50
  8
4
 10
17346.859552387199
 20
4175.0958404040903
 30
0.0
 11
17346.859552387199
 21
3175.0958404040898
 31
0.0
  0
LINE
  5
8B51
  8
4
 10
13846.859552387201
 20
4175.0958404040903
 30
0.0
 11
13846.859552387201
 21
3175.0958404040898
 31
0.0
  0
LINE
  5
8B52
  8
4
 10
11346.859552387201
 20
4175.0958404040903
 30
0.0
 11
11346.859552387201
 21
3175.0958404040898
 31
0.0
  0
LINE
  5
8B55
  8
4
 10
11346.859552387201
 20
3175.0958404040898
 30
0.0
 11
17346.859552387199
 21
3175.0958404040898
 31
0.0
  0
LINE
  5
8B56
  8
4
 10
11346.859552387201
 20
3675.0958404040898
 30
0.0
 11
17346.859552387199
 21
3675.0958404040898
 31
0.0
  0
TEXT
  5
8B57
  8
4
 10
11539.36995662172
 20
3832.8109697371578
 30
0.0
 40
250.0
  1
機器名称
  0
TEXT
  5
8B58
  8
4
 10
11528.1500825112
 20
3283.321624064145
 30
0.0
 40
250.0
  1
機器型番
  0
TEXT
  5
8B59
  8
4
 10
13870.82486089241
 20
3786.0323521888272
 30
0.0
 40
225.0
  1
ミツヤリミットロードファン
  0
TEXT
  5
8B5A
  8
4
 10
14030.13203031462
 20
3260.8937618038058
 30
0.0
 40
250.0
  1
LL#10-1
  0
TEXT
  5
8B5C
  8
4
 10
12109.95834393632
 20
13592.240047066671
 30
0.0
 40
270.0
  1
床置ベット
  0
TEXT
  5
8B5D
  8
4
 10
9677.6975190344383
 20
14344.50072140058
 30
0.0
 40
360.0
  1
遠心式片吸込片持リミットロードファン
  0
LINE
  5
8B5E
  8
4
 10
9346.8595523872063
 20
14022.139611728109
 30
0.0
 11
17346.859552387199
 21
14022.139611728109
 31
0.0
  0
LINE
  5
8B5F
  8
4
 10
9346.8595523872063
 20
15022.139611728109
 30
0.0
 11
17346.859552387199
 21
15022.139611728109
 31
0.0
  0
LINE
  5
8B60
  8
4
 10
11346.859552387201
 20
4175.0958404040903
 30
0.0
 11
17346.859552387199
 21
4175.0958404040903
 31
0.0
  0
LINE
  5
8B61
  8
4
 10
9346.8595523872063
 20
15022.139611728109
 30
0.0
 11
9346.8595523872063
 21
14022.139611728109
 31
0.0
  0
TEXT
  5
8B62
  8
4
 10
9792.7271331425727
 20
13586.693228135809
 30
0.0
 40
270.0
  1
右回転上向
  0
TEXT
  5
8B63
  8
4
 10
15441.70734863365
 20
15205.401247880631
 30
0.0
 40
280.0
  1
No.
  0
TEXT
  5
8B64
  8
4
 10
15508.63877564398
 20
13095.975204056471
 30
0.0
 40
270.0
  1
縮尺：1/50
  0
LINE
  5
8B65
  8
4
 10
17346.859552387199
 20
15022.139611728109
 30
0.0
 11
17346.859552387199
 21
14022.139611728109
 31
0.0
  0
LINE
  5
8B66
  8
4
 10
18596.859552387199
 20
16425.09584040409
 30
0.0
 11
18596.859552387199
 21
16425.09584040409
 31
0.0
  0
LINE
  5
8B67
  8
4
 10
15299.946664186529
 20
15081.41375603109
 30
0.0
 11
15299.946664186529
 21
15608.357148152851
 31
0.0
  0
LINE
  5
8B68
  8
4
 10
15299.946664186529
 20
15608.357148152851
 30
0.0
 11
17346.859552387199
 21
15608.357148152851
 31
0.0
  0
LINE
  5
8B69
  8
4
 10
17346.859552387199
 20
15608.357148152851
 30
0.0
 11
17346.859552387199
 21
15081.41375603109
 31
0.0
  0
LINE
  5
8B6A
  8
4
 10
17346.859552387199
 20
15081.41375603109
 30
0.0
 11
15299.946664186529
 21
15081.41375603109
 31
0.0
  0
LINE
  5
8B6B
  8
4
 10
8096.8595523872063
 20
1675.09584040409
 30
0.0
 11
8096.8595523872063
 21
16425.09584040409
 31
0.0
  0
LINE
  5
8B6C
  8
4
 10
8096.8595523872063
 20
16425.09584040409
 30
0.0
 11
18596.859552387199
 21
16425.09584040409
 31
0.0
  0
LINE
  5
8B6D
  8
4
 10
18596.859552387199
 20
16425.09584040409
 30
0.0
 11
18596.859552387199
 21
1675.09584040409
 31
0.0
  0
LINE
  5
8B6E
  8
4
 10
18596.859552387199
 20
1675.09584040409
 30
0.0
 11
8096.8595523872063
 21
1675.09584040409
 31
0.0
  0
ENDSEC
  0
EOF
