  0
SECTION
  2
HEADER
  9
$ACADVER
  1
AC1009
  9
$INSBASE
 10
0.0
 20
0.0
 30
0.0
  9
$EXTMIN
 10
6115.5838421080989
 20
-997.84402726467295
 30
0.0
  9
$EXTMAX
 10
16615.583842108092
 20
13752.15597273532
 30
0.0
  9
$LIMMIN
 10
0.0
 20
0.0
  9
$LIMMAX
 10
297.0
 20
210.0
  9
$ORTHOMODE
 70
     0
  9
$REGENMODE
 70
     1
  9
$FILLMODE
 70
     1
  9
$QTEXTMODE
 70
     0
  9
$MIRRTEXT
 70
     0
  9
$DRAGMODE
 70
     2
  9
$LTSCALE
 40
175.0
  9
$OSMODE
 70
    37
  9
$ATTMODE
 70
     1
  9
$TEXTSIZE
 40
150.0
  9
$TRACEWID
 40
0.05
  9
$TEXTSTYLE
  7
STANDARD
  9
$CLAYER
  8
FUTO
  9
$CELTYPE
  6
BYLAYER
  9
$CECOLOR
 62
   256
  9
$DIMSCALE
 40
35.0
  9
$DIMASZ
 40
2.5
  9
$DIMEXO
 40
1.0
  9
$DIMDLI
 40
10.0
  9
$DIMRND
 40
0.0
  9
$DIMDLE
 40
0.0
  9
$DIMEXE
 40
1.0
  9
$DIMTP
 40
0.0
  9
$DIMTM
 40
0.0
  9
$DIMTXT
 40
3.0
  9
$DIMCEN
 40
0.0
  9
$DIMTSZ
 40
0.0
  9
$DIMTOL
 70
     0
  9
$DIMLIM
 70
     0
  9
$DIMTIH
 70
     0
  9
$DIMTOH
 70
     0
  9
$DIMSE1
 70
     0
  9
$DIMSE2
 70
     0
  9
$DIMTAD
 70
     1
  9
$DIMZIN
 70
     8
  9
$DIMBLK
  1

  9
$DIMASO
 70
     1
  9
$DIMSHO
 70
     1
  9
$DIMPOST
  1

  9
$DIMAPOST
  1

  9
$DIMALT
 70
     0
  9
$DIMALTD
 70
     2
  9
$DIMALTF
 40
0.03937
  9
$DIMLFAC
 40
1.0
  9
$DIMTOFL
 70
     1
  9
$DIMTVP
 40
0.0
  9
$DIMTIX
 70
     0
  9
$DIMSOXD
 70
     0
  9
$DIMSAH
 70
     1
  9
$DIMBLK1
  1
OPEN
  9
$DIMBLK2
  1
OPEN
  9
$DIMSTYLE
  2
MATSU
  9
$DIMCLRD
 70
   256
  9
$DIMCLRE
 70
   256
  9
$DIMCLRT
 70
   256
  9
$DIMTFAC
 40
1.0
  9
$DIMGAP
 40
1.0
  9
$LUNITS
 70
     2
  9
$LUPREC
 70
     4
  9
$SKETCHINC
 40
0.1
  9
$FILLETRAD
 40
30.0
  9
$AUNITS
 70
     0
  9
$AUPREC
 70
     2
  9
$MENU
  1
acad
  9
$ELEVATION
 40
0.0
  9
$PELEVATION
 40
0.0
  9
$THICKNESS
 40
0.0
  9
$LIMCHECK
 70
     0
  9
$BLIPMODE
 70
     0
  9
$CHAMFERA
 40
8.0
  9
$CHAMFERB
 40
8.0
  9
$SKPOLY
 70
     0
  9
$TDCREATE
 40
2453957.375965347
  9
$TDUPDATE
 40
2454953.6494060992
  9
$TDINDWG
 40
0.1733349537
  9
$TDUSRTIMER
 40
0.1733349537
  9
$USRTIMER
 70
     1
  9
$ANGBASE
 50
0.0
  9
$ANGDIR
 70
     0
  9
$PDMODE
 70
     0
  9
$PDSIZE
 40
1.0
  9
$PLINEWID
 40
0.0
  9
$COORDS
 70
     1
  9
$SPLFRAME
 70
     0
  9
$SPLINETYPE
 70
     6
  9
$SPLINESEGS
 70
     8
  9
$ATTDIA
 70
     0
  9
$ATTREQ
 70
     1
  9
$HANDLING
 70
 10241
  9
$HANDSEED
  5
8EDC
  9
$SURFTAB1
 70
     6
  9
$SURFTAB2
 70
     6
  9
$SURFTYPE
 70
     6
  9
$SURFU
 70
     6
  9
$SURFV
 70
     6
  9
$UCSNAME
  2

  9
$UCSORG
 10
0.0
 20
-0.0000000000000142
 30
0.0
  9
$UCSXDIR
 10
1.0
 20
0.0
 30
0.0
  9
$UCSYDIR
 10
0.0
 20
1.0
 30
0.0
  9
$PUCSNAME
  2

  9
$PUCSORG
 10
0.0
 20
0.0
 30
0.0
  9
$PUCSXDIR
 10
1.0
 20
0.0
 30
0.0
  9
$PUCSYDIR
 10
0.0
 20
1.0
 30
0.0
  9
$USERI1
 70
     0
  9
$USERI2
 70
     0
  9
$USERI3
 70
     0
  9
$USERI4
 70
     0
  9
$USERI5
 70
     0
  9
$USERR1
 40
0.0
  9
$USERR2
 40
0.0
  9
$USERR3
 40
0.0
  9
$USERR4
 40
0.0
  9
$USERR5
 40
0.0
  9
$WORLDVIEW
 70
     1
  9
$SHADEDGE
 70
     3
  9
$SHADEDIF
 70
    70
  9
$TILEMODE
 70
     1
  9
$MAXACTVP
 70
    16
  9
$PLIMCHECK
 70
     0
  9
$PEXTMIN
 10
1.0000000000000000E+020
 20
1.0000000000000000E+020
 30
1.0000000000000000E+020
  9
$PEXTMAX
 10
-1.0000000000000000E+020
 20
-1.0000000000000000E+020
 30
-1.0000000000000000E+020
  9
$PLIMMIN
 10
0.0
 20
0.0
  9
$PLIMMAX
 10
12.0
 20
9.0
  9
$UNITMODE
 70
     0
  9
$VISRETAIN
 70
     0
  9
$PLINEGEN
 70
     0
  9
$PSLTSCALE
 70
     0
  0
ENDSEC
  0
SECTION
  2
TABLES
  0
TABLE
  2
VPORT
 70
     2
  0
VPORT
  2
*ACTIVE
 70
     0
 10
0.0
 20
0.0
 11
1.0
 21
1.0
 12
15968.99747485347
 22
799.96146465945628
 13
0.0
 23
0.0
 14
5.0
 24
5.0
 15
0.0
 25
0.0
 16
0.0
 26
0.0
 36
1.0
 17
0.0
 27
0.0
 37
0.0
 40
4469.4937655869398
 41
3.1666666666666661
 42
50.0
 43
0.0
 44
0.0
 50
0.0
 51
0.0
 71
     0
 72
   100
 73
     1
 74
     0
 75
     0
 76
     0
 77
     0
 78
     0
  0
ENDTAB
  0
TABLE
  2
LTYPE
 70
     4
  0
LTYPE
  2
CONTINUOUS
 70
     0
  3
Solid line
 72
    65
 73
     0
 40
0.0
  0
LTYPE
  2
CENTER
 70
     0
  3
____ _ ____ _ ____ _ ____ _ ____ _ ____ _ ____ 
 72
    65
 73
     4
 40
2.0
 49
1.25
 49
-0.25
 49
0.25
 49
-0.25
  0
LTYPE
  2
HIDDEN
 70
     0
  3
__ __ __ __ __ __ __ __ __ __ __ __ __ __ __ __
 72
    65
 73
     2
 40
0.375
 49
0.25
 49
-0.125
  0
LTYPE
  2
PHANTOM
 70
     0
  3
______  __  __  ______  __  __  ______  __  __ 
 72
    65
 73
     6
 40
2.5
 49
1.25
 49
-0.25
 49
0.25
 49
-0.25
 49
0.25
 49
-0.25
  0
ENDTAB
  0
TABLE
  2
LAYER
 70
     9
  0
LAYER
  2
0
 70
     0
 62
     7
  6
CONTINUOUS
  0
LAYER
  2
CT
 70
     0
 62
     3
  6
CENTER
  0
LAYER
  2
FUTO
 70
     0
 62
     4
  6
CONTINUOUS
  0
LAYER
  2
HOSO
 70
     0
 62
     7
  6
CONTINUOUS
  0
LAYER
  2
KL
 70
     0
 62
     7
  6
HIDDEN
  0
LAYER
  2
SL
 70
     0
 62
     1
  6
PHANTOM
  0
LAYER
  2
SP
 70
     0
 62
     2
  6
CONTINUOUS
  0
LAYER
  2
DEFPOINTS
 70
     0
 62
     7
  6
CONTINUOUS
  0
LAYER
  2
4
 70
     0
 62
     7
  6
CONTINUOUS
  0
ENDTAB
  0
TABLE
  2
STYLE
 70
     1
  0
STYLE
  2
STANDARD
 70
     0
 40
0.0
 41
1.0
 50
15.0
 71
     0
 42
150.0
  3
C:\Program Files\AutoCAD LT\simplex.shx
  4
extfont.shx
  0
ENDTAB
  0
TABLE
  2
VIEW
 70
     0
  0
ENDTAB
  0
TABLE
  2
UCS
 70
     0
  0
ENDTAB
  0
TABLE
  2
APPID
 70
     1
  0
APPID
  2
ACAD
 70
     0
  0
ENDTAB
  0
TABLE
  2
DIMSTYLE
 70
     2
  0
DIMSTYLE
  2
STANDARD
 70
     0
  3

  4

  5

  6

  7

 40
1.0
 41
0.18
 42
0.0625
 43
0.38
 44
0.18
 45
0.0
 46
0.0
 47
0.0
 48
0.0
140
0.18
141
0.09
142
0.0
143
25.399999999999999
144
1.0
145
0.0
146
1.0
147
0.09
 71
     0
 72
     0
 73
     1
 74
     1
 75
     0
 76
     0
 77
     0
 78
     0
170
     0
171
     2
172
     0
173
     0
174
     0
175
     0
176
     0
177
     0
178
     0
  0
DIMSTYLE
  2
MATSU
 70
     0
  3

  4

  5

  6
OPEN
  7
OPEN
 40
1.0
 41
2.0
 42
1.0
 43
10.0
 44
1.0
 45
0.0
 46
0.0
 47
0.0
 48
0.0
140
3.0
141
0.0
142
0.0
143
0.03937
144
1.0
145
0.0
146
1.0
147
0.5
 71
     0
 72
     0
 73
     0
 74
     0
 75
     0
 76
     0
 77
     1
 78
     8
170
     0
171
     2
172
     1
173
     1
174
     0
175
     0
176
   256
177
   256
178
   256
  0
ENDTAB
  0
ENDSEC
  0
SECTION
  2
BLOCKS
  0
BLOCK
  8
0
  2
$MODEL_SPACE
 70
     0
 10
0.0
 20
0.0
 30
0.0
  3
$MODEL_SPACE
  1

  0
ENDBLK
  5
1B
  8
0
  0
BLOCK
 67
     1
  8
0
  2
$PAPER_SPACE
 70
     0
 10
0.0
 20
0.0
 30
0.0
  3
$PAPER_SPACE
  1

  0
ENDBLK
  5
18
 67
     1
  8
0
  0
BLOCK
  8
0
  2
_OPEN
 70
     0
 10
0.0
 20
0.0
 30
0.0
  3
_OPEN
  1

  0
LINE
  5
28
  8
0
  6
BYBLOCK
 62
     0
 10
-1.0
 20
0.1666666666666666
 30
0.0
 11
0.0
 21
0.0
 31
0.0
  0
LINE
  5
29
  8
0
  6
BYBLOCK
 62
     0
 10
0.0
 20
0.0
 30
0.0
 11
-1.0
 21
-0.1666666666666666
 31
0.0
  0
LINE
  5
2A
  8
0
  6
BYBLOCK
 62
     0
 10
0.0
 20
0.0
 30
0.0
 11
-1.0
 21
0.0
 31
0.0
  0
ENDBLK
  5
2B
  8
0
  0
BLOCK
  8
0
  2
まっすぐの矢印
 70
     0
 10
0.0
 20
0.0
 30
0.0
  3
まっすぐの矢印
  1

  0
LINE
  5
56E2
  8
SP
 10
0.6962157491662495
 20
-2.216890595009601
 30
0.0
 11
0.6962157491662495
 21
-5.0
 31
0.0
  0
LINE
  5
56E3
  8
SP
 10
0.6962157491662495
 20
-5.0
 30
0.0
 11
-0.6962157491662495
 21
-5.0
 31
0.0
  0
LINE
  5
56E4
  8
SP
 10
-0.6962157491662495
 20
-5.0
 30
0.0
 11
-0.6962157491662495
 21
-2.216890595009601
 31
0.0
  0
LINE
  5
56E5
  8
SP
 10
-0.6962157491662495
 20
-2.216890595009601
 30
0.0
 11
-1.7145256852758151
 21
-2.216890595009601
 31
0.0
  0
LINE
  5
56E6
  8
SP
 10
-1.7145256852758151
 20
-2.216890595009601
 30
0.0
 11
0.0
 21
0.0
 31
0.0
  0
LINE
  5
56E7
  8
SP
 10
0.0
 20
0.0
 30
0.0
 11
1.7145256852758151
 21
-2.216890595009601
 31
0.0
  0
LINE
  5
56E8
  8
SP
 10
1.7145256852758151
 20
-2.216890595009601
 30
0.0
 11
0.6962157491662495
 21
-2.216890595009601
 31
0.0
  0
ENDBLK
  5
56EA
  8
0
  0
BLOCK
  8
0
  2
右回転矢印
 70
     0
 10
0.0
 20
0.0
 30
0.0
  3
右回転矢印
  1

  0
LINE
  5
56EC
  8
SP
 10
-2.7705290305565882
 20
1.567794835092901
 30
0.0
 11
-2.4288000558398148
 21
2.8051227455822878
 31
0.0
  0
LINE
  5
56ED
  8
SP
 10
-2.4288000558398148
 20
2.8051227455822878
 30
0.0
 11
0.0
 21
0.0
 31
0.0
  0
LINE
  5
56EE
  8
SP
 10
0.0
 20
0.0
 30
0.0
 11
-3.3160037613098718
 21
-0.4072531086382499
 31
0.0
  0
LINE
  5
56EF
  8
SP
 10
-3.3160037613098718
 20
-0.4072531086382499
 30
0.0
 11
-3.0391574735299112
 21
0.5951483970269315
 31
0.0
  0
ARC
  5
56F0
  8
SP
 10
-5.9215210782018062
 20
-9.8412769578768184
 30
0.0
 40
10.82714154973578
 50
74.560750721316467
 51
112.11861101078711
  0
LINE
  5
56F1
  8
SP
 10
-9.9982127316752951
 20
0.1890560027239694
 30
0.0
 11
-10.37814929817227
 21
1.1238557349100611
 31
0.0
  0
ARC
  5
56F2
  8
SP
 10
-5.9215210782018062
 20
-9.8412769578768291
 30
0.0
 40
11.83620167374065
 50
74.560750721316396
 51
112.11861101078701
  0
ENDBLK
  5
56F4
  8
0
  0
BLOCK
  8
0
  2
*D3
 70
     1
 10
0.0
 20
0.0
 30
0.0
  3
*D3
  1

  0
LINE
  5
8E66
  8
SP
 10
10986.206737596131
 20
3465.2080357334289
 30
0.0
 11
10986.206737596131
 21
3214.6957255503262
 31
0.0
  0
LINE
  5
8E67
  8
SP
 10
10036.206737596131
 20
3465.2080357334289
 30
0.0
 11
10036.206737596131
 21
3214.6957255503262
 31
0.0
  0
LINE
  5
8E68
  8
SP
 10
10898.706737596131
 20
3249.6957255503262
 30
0.0
 11
10123.706737596131
 21
3249.6957255503262
 31
0.0
  0
INSERT
  5
8E69
  8
SP
  2
_OPEN
 10
10986.206737596131
 20
3249.6957255503262
 30
0.0
 41
87.5
 42
87.5
 43
87.5
  0
INSERT
  5
8E6A
  8
SP
  2
_OPEN
 10
10036.206737596131
 20
3249.6957255503262
 30
0.0
 41
87.5
 42
87.5
 43
87.5
 50
180.0
  0
TEXT
  5
8E6B
  8
FUTO
 10
10362.809277974569
 20
3284.6957255503248
 30
0.0
 40
105.0
  1
950
 51
15.0
  0
POINT
  5
8E6C
  8
DEFPOINTS
 62
     0
 10
10986.206737596131
 20
3500.2080357334289
 30
0.0
  0
POINT
  5
8E6D
  8
DEFPOINTS
 62
     0
 10
10036.206737596131
 20
3500.2080357334289
 30
0.0
  0
POINT
  5
8E6E
  8
DEFPOINTS
 62
     0
 10
10036.206737596131
 20
3249.6957255503262
 30
0.0
  0
ENDBLK
  5
6A60
  8
0
  0
BLOCK
  8
0
  2
*D4
 70
     1
 10
0.0
 20
0.0
 30
0.0
  3
*D4
  1

  0
LINE
  5
8E5D
  8
SP
 10
10036.206737596131
 20
3465.2080357334289
 30
0.0
 11
10036.206737596131
 21
3214.6957255503262
 31
0.0
  0
LINE
  5
8E5E
  8
SP
 10
8486.2067375961342
 20
3465.2080357334289
 30
0.0
 11
8486.2067375961342
 21
3214.6957255503262
 31
0.0
  0
LINE
  5
8E5F
  8
SP
 10
9948.7067375961342
 20
3249.6957255503262
 30
0.0
 11
8573.7067375961342
 21
3249.6957255503262
 31
0.0
  0
INSERT
  5
8E60
  8
SP
  2
_OPEN
 10
10036.206737596131
 20
3249.6957255503262
 30
0.0
 41
87.5
 42
87.5
 43
87.5
  0
INSERT
  5
8E61
  8
SP
  2
_OPEN
 10
8486.2067375961342
 20
3249.6957255503262
 30
0.0
 41
87.5
 42
87.5
 43
87.5
 50
180.0
  0
TEXT
  5
8E62
  8
FUTO
 10
9065.9310562394894
 20
3284.6957255503248
 30
0.0
 40
105.0
  1
1550
 51
15.0
  0
POINT
  5
8E63
  8
DEFPOINTS
 62
     0
 10
10036.206737596131
 20
3500.2080357334289
 30
0.0
  0
POINT
  5
8E64
  8
DEFPOINTS
 62
     0
 10
8486.2067375961342
 20
3500.2080357334289
 30
0.0
  0
POINT
  5
8E65
  8
DEFPOINTS
 62
     0
 10
8486.2067375961342
 20
3249.6957255503262
 30
0.0
  0
ENDBLK
  5
6A6D
  8
0
  0
BLOCK
  8
0
  2
*D5
 70
     1
 10
0.0
 20
0.0
 30
0.0
  3
*D5
  1

  0
LINE
  5
8E54
  8
SP
 10
10986.206737596131
 20
3465.2080357334289
 30
0.0
 11
10986.206737596131
 21
2964.6079815526682
 31
0.0
  0
LINE
  5
8E55
  8
SP
 10
8486.2067375961342
 20
3465.2080357334289
 30
0.0
 11
8486.2067375961342
 21
2964.6079815526682
 31
0.0
  0
LINE
  5
8E56
  8
SP
 10
10898.706737596131
 20
2999.6079815526682
 30
0.0
 11
8573.7067375961342
 21
2999.6079815526682
 31
0.0
  0
INSERT
  5
8E57
  8
SP
  2
_OPEN
 10
10986.206737596131
 20
2999.6079815526682
 30
0.0
 41
87.5
 42
87.5
 43
87.5
  0
INSERT
  5
8E58
  8
SP
  2
_OPEN
 10
8486.2067375961342
 20
2999.6079815526682
 30
0.0
 41
87.5
 42
87.5
 43
87.5
 50
180.0
  0
TEXT
  5
8E59
  8
FUTO
 10
9542.31889691781
 20
3034.6079815526682
 30
0.0
 40
105.0
  1
2500
 51
15.0
  0
POINT
  5
8E5A
  8
DEFPOINTS
 62
     0
 10
10986.206737596131
 20
3500.2080357334289
 30
0.0
  0
POINT
  5
8E5B
  8
DEFPOINTS
 62
     0
 10
8486.2067375961342
 20
3500.2080357334289
 30
0.0
  0
POINT
  5
8E5C
  8
DEFPOINTS
 62
     0
 10
8486.2067375961342
 20
2999.6079815526682
 30
0.0
  0
ENDBLK
  5
6A7A
  8
0
  0
BLOCK
  8
0
  2
*D6
 70
     1
 10
0.0
 20
0.0
 30
0.0
  3
*D6
  1

  0
LINE
  5
8EAD
  8
SP
 10
12412.41352821186
 20
3465.2080357334271
 30
0.0
 11
12412.41352821186
 21
3214.695702162488
 31
0.0
  0
LINE
  5
8EAE
  8
SP
 10
14043.41352821186
 20
3465.2080357334289
 30
0.0
 11
14043.41352821186
 21
3214.695702162488
 31
0.0
  0
LINE
  5
8EAF
  8
SP
 10
12499.91352821186
 20
3249.695702162488
 30
0.0
 11
13955.91352821186
 21
3249.695702162488
 31
0.0
  0
INSERT
  5
8EB0
  8
SP
  2
_OPEN
 10
12412.41352821186
 20
3249.695702162488
 30
0.0
 41
87.5
 42
87.5
 43
87.5
 50
180.0
  0
INSERT
  5
8EB1
  8
SP
  2
_OPEN
 10
14043.41352821186
 20
3249.695702162488
 30
0.0
 41
87.5
 42
87.5
 43
87.5
  0
TEXT
  5
8EB2
  8
FUTO
 10
13049.958354930901
 20
3284.6957021624871
 30
0.0
 40
105.0
  1
1631
 51
15.0
  0
POINT
  5
8EB3
  8
DEFPOINTS
 62
     0
 10
12412.41352821186
 20
3500.2080357334271
 30
0.0
  0
POINT
  5
8EB4
  8
DEFPOINTS
 62
     0
 10
14043.41352821186
 20
3500.2080357334289
 30
0.0
  0
POINT
  5
8EB5
  8
DEFPOINTS
 62
     0
 10
14043.41352821186
 20
3249.695702162488
 30
0.0
  0
ENDBLK
  5
6A87
  8
0
  0
BLOCK
  8
0
  2
*D7
 70
     1
 10
0.0
 20
0.0
 30
0.0
  3
*D7
  1

  0
LINE
  5
8EBF
  8
SP
 10
14043.41352821186
 20
3465.2080357334289
 30
0.0
 11
14043.41352821186
 21
3214.695702162488
 31
0.0
  0
LINE
  5
8EC0
  8
SP
 10
14712.41352821186
 20
3465.2080357334271
 30
0.0
 11
14712.41352821186
 21
3214.695702162488
 31
0.0
  0
LINE
  5
8EC1
  8
SP
 10
14130.91352821186
 20
3249.695702162488
 30
0.0
 11
14624.91352821186
 21
3249.695702162488
 31
0.0
  0
INSERT
  5
8EC2
  8
SP
  2
_OPEN
 10
14043.41352821186
 20
3249.695702162488
 30
0.0
 41
87.5
 42
87.5
 43
87.5
 50
180.0
  0
INSERT
  5
8EC3
  8
SP
  2
_OPEN
 10
14712.41352821186
 20
3249.695702162488
 30
0.0
 41
87.5
 42
87.5
 43
87.5
  0
TEXT
  5
8EC4
  8
FUTO
 10
14231.34619560922
 20
3284.6957021624871
 30
0.0
 40
105.0
  1
669
 51
15.0
  0
POINT
  5
8EC5
  8
DEFPOINTS
 62
     0
 10
14043.41352821186
 20
3500.2080357334289
 30
0.0
  0
POINT
  5
8EC6
  8
DEFPOINTS
 62
     0
 10
14712.41352821186
 20
3500.2080357334271
 30
0.0
  0
POINT
  5
8EC7
  8
DEFPOINTS
 62
     0
 10
14712.41352821186
 20
3249.695702162488
 30
0.0
  0
ENDBLK
  5
6A94
  8
0
  0
BLOCK
  8
0
  2
*D8
 70
     1
 10
0.0
 20
0.0
 30
0.0
  3
*D8
  1

  0
LINE
  5
8EA4
  8
SP
 10
12412.41352821186
 20
3465.2080357334271
 30
0.0
 11
12412.41352821186
 21
2964.6079581648301
 31
0.0
  0
LINE
  5
8EA5
  8
SP
 10
14712.41352821186
 20
3465.2080357334271
 30
0.0
 11
14712.41352821186
 21
2964.6079581648301
 31
0.0
  0
LINE
  5
8EA6
  8
SP
 10
12499.91352821186
 20
2999.6079581648301
 30
0.0
 11
14624.91352821186
 21
2999.6079581648301
 31
0.0
  0
INSERT
  5
8EA7
  8
SP
  2
_OPEN
 10
12412.41352821186
 20
2999.6079581648301
 30
0.0
 41
87.5
 42
87.5
 43
87.5
 50
180.0
  0
INSERT
  5
8EA8
  8
SP
  2
_OPEN
 10
14712.41352821186
 20
2999.6079581648301
 30
0.0
 41
87.5
 42
87.5
 43
87.5
  0
TEXT
  5
8EA9
  8
FUTO
 10
13368.525687533531
 20
3034.6079581648301
 30
0.0
 40
105.0
  1
2300
 51
15.0
  0
POINT
  5
8EAA
  8
DEFPOINTS
 62
     0
 10
12412.41352821186
 20
3500.2080357334271
 30
0.0
  0
POINT
  5
8EAB
  8
DEFPOINTS
 62
     0
 10
14712.41352821186
 20
3500.2080357334271
 30
0.0
  0
POINT
  5
8EAC
  8
DEFPOINTS
 62
     0
 10
14712.41352821186
 20
2999.6079581648301
 30
0.0
  0
ENDBLK
  5
6AA1
  8
0
  0
BLOCK
  8
0
  2
*D9
 70
     1
 10
0.0
 20
0.0
 30
0.0
  3
*D9
  1

  0
LINE
  5
8E9B
  8
SP
 10
14043.41352821186
 20
6665.7674141238522
 30
0.0
 11
14043.41352821186
 21
6711.7397936728194
 31
0.0
  0
LINE
  5
8E9C
  8
SP
 10
14768.41352821186
 20
5555.7449093406531
 30
0.0
 11
14768.41352821186
 21
6711.7397936728194
 31
0.0
  0
LINE
  5
8E9D
  8
SP
 10
14130.91352821186
 20
6676.7397936728203
 30
0.0
 11
14680.91352821186
 21
6676.7397936728203
 31
0.0
  0
INSERT
  5
8E9E
  8
SP
  2
_OPEN
 10
14043.41352821186
 20
6676.7397936728203
 30
0.0
 41
87.5
 42
87.5
 43
87.5
 50
180.0
  0
INSERT
  5
8E9F
  8
SP
  2
_OPEN
 10
14768.41352821186
 20
6676.7397936728203
 30
0.0
 41
87.5
 42
87.5
 43
87.5
  0
TEXT
  5
8EA0
  8
FUTO
 10
14251.84619560922
 20
6711.7397936728194
 30
0.0
 40
105.0
  1
725
 51
15.0
  0
POINT
  5
8EA1
  8
DEFPOINTS
 62
     0
 10
14043.41352821186
 20
6630.7674141238513
 30
0.0
  0
POINT
  5
8EA2
  8
DEFPOINTS
 62
     0
 10
14768.41352821186
 20
5520.7449093406531
 30
0.0
  0
POINT
  5
8EA3
  8
DEFPOINTS
 62
     0
 10
14768.41352821186
 20
6676.7397936728203
 30
0.0
  0
ENDBLK
  5
6AFF
  8
0
  0
BLOCK
  8
0
  2
*D10
 70
     1
 10
0.0
 20
0.0
 30
0.0
  3
*D10
  1

  0
LINE
  5
8EB6
  8
SP
 10
14803.41352821186
 20
5470.2080357334289
 30
0.0
 11
15082.606929413731
 21
5470.2080357334289
 31
0.0
  0
LINE
  5
8EB7
  8
SP
 10
14803.41352821186
 20
3870.2080357334289
 30
0.0
 11
15082.606929413731
 21
3870.2080357334289
 31
0.0
  0
LINE
  5
8EB8
  8
SP
 10
15047.606929413731
 20
5382.7080357334289
 30
0.0
 11
15047.606929413731
 21
3957.7080357334289
 31
0.0
  0
INSERT
  5
8EB9
  8
SP
  2
_OPEN
 10
15047.606929413731
 20
5470.2080357334289
 30
0.0
 41
87.5
 42
87.5
 43
87.5
 50
90.0
  0
INSERT
  5
8EBA
  8
SP
  2
_OPEN
 10
15047.606929413731
 20
3870.2080357334289
 30
0.0
 41
87.5
 42
87.5
 43
87.5
 50
270.0
  0
TEXT
  5
8EBB
  8
FUTO
 10
15012.606929413731
 20
4438.5093059226538
 30
0.0
 40
105.0
  1
φ1600
 50
90.0
 51
15.0
  0
POINT
  5
8EBC
  8
DEFPOINTS
 62
     0
 10
14768.41352821186
 20
5470.2080357334289
 30
0.0
  0
POINT
  5
8EBD
  8
DEFPOINTS
 62
     0
 10
14768.41352821186
 20
3870.2080357334289
 30
0.0
  0
POINT
  5
8EBE
  8
DEFPOINTS
 62
     0
 10
15047.606929413731
 20
3870.2080357334289
 30
0.0
  0
ENDBLK
  5
6F63
  8
0
  0
BLOCK
  8
0
  2
*D11
 70
     1
 10
0.0
 20
0.0
 30
0.0
  3
*D11
  1

  0
LINE
  5
8E93
  8
SP
 10
12163.41352821186
 20
5070.4766270463033
 30
0.0
 11
12163.41352821186
 21
6711.7397936728194
 31
0.0
  0
LINE
  5
8E94
  8
SP
 10
12250.91352821186
 20
6676.7397936728203
 30
0.0
 11
13955.91352821186
 21
6676.7397936728203
 31
0.0
  0
INSERT
  5
8E95
  8
SP
  2
_OPEN
 10
12163.41352821186
 20
6676.7397936728203
 30
0.0
 41
87.5
 42
87.5
 43
87.5
 50
180.0
  0
INSERT
  5
8E96
  8
SP
  2
_OPEN
 10
14043.41352821186
 20
6676.7397936728203
 30
0.0
 41
87.5
 42
87.5
 43
87.5
  0
TEXT
  5
8E97
  8
FUTO
 10
12908.13784685521
 20
6711.7397936728194
 30
0.0
 40
105.0
  1
1880
 51
15.0
  0
POINT
  5
8E98
  8
DEFPOINTS
 62
     0
 10
12163.41352821186
 20
5035.4766270463024
 30
0.0
  0
POINT
  5
8E99
  8
DEFPOINTS
 62
     0
 10
14043.41352821186
 20
6676.7397936728203
 30
0.0
  0
POINT
  5
8E9A
  8
DEFPOINTS
 62
     0
 10
14043.41352821186
 20
6676.7397936728203
 30
0.0
  0
ENDBLK
  5
6FBD
  8
0
  0
BLOCK
  8
0
  2
*D12
 70
     1
 10
0.0
 20
0.0
 30
0.0
  3
*D12
  1

  0
LINE
  5
8E42
  8
SP
 10
11223.8385981095
 20
4670.2080357334289
 30
0.0
 11
11466.373128678009
 21
4670.2080357334289
 31
0.0
  0
LINE
  5
8E43
  8
SP
 10
11116.206737596131
 20
6433.2080357334289
 30
0.0
 11
11466.373128678009
 21
6433.2080357334289
 31
0.0
  0
LINE
  5
8E44
  8
SP
 10
11431.373128678009
 20
4757.708035733428
 30
0.0
 11
11431.373128678009
 21
6345.7080357334289
 31
0.0
  0
INSERT
  5
8E45
  8
SP
  2
_OPEN
 10
11431.373128678009
 20
4670.2080357334289
 30
0.0
 41
87.5
 42
87.5
 43
87.5
 50
270.0
  0
INSERT
  5
8E46
  8
SP
  2
_OPEN
 10
11431.373128678009
 20
6433.2080357334289
 30
0.0
 41
87.5
 42
87.5
 43
87.5
 50
90.0
  0
TEXT
  5
8E47
  8
FUTO
 10
11396.373128678009
 20
5353.752862452473
 30
0.0
 40
105.0
  1
1763
 50
90.0
 51
15.0
  0
POINT
  5
8E48
  8
DEFPOINTS
 62
     0
 10
11188.8385981095
 20
4670.2080357334289
 30
0.0
  0
POINT
  5
8E49
  8
DEFPOINTS
 62
     0
 10
11081.206737596131
 20
6433.2080357334289
 30
0.0
  0
POINT
  5
8E4A
  8
DEFPOINTS
 62
     0
 10
11431.373128678009
 20
6433.2080357334289
 30
0.0
  0
ENDBLK
  5
8034
  8
0
  0
BLOCK
  8
0
  2
*D13
 70
     1
 10
0.0
 20
0.0
 30
0.0
  3
*D13
  1

  0
LINE
  5
8E4B
  8
SP
 10
10036.206737596131
 20
6538.5661577032788
 30
0.0
 11
10036.206737596131
 21
6721.4032019811784
 31
0.0
  0
LINE
  5
8E4C
  8
SP
 10
11081.206737596131
 20
6468.2080357334289
 30
0.0
 11
11081.206737596131
 21
6721.4032019811784
 31
0.0
  0
LINE
  5
8E4D
  8
SP
 10
10123.706737596131
 20
6686.4032019811766
 30
0.0
 11
10993.706737596131
 21
6686.4032019811766
 31
0.0
  0
INSERT
  5
8E4E
  8
SP
  2
_OPEN
 10
10036.206737596131
 20
6686.4032019811766
 30
0.0
 41
87.5
 42
87.5
 43
87.5
 50
180.0
  0
INSERT
  5
8E4F
  8
SP
  2
_OPEN
 10
11081.206737596131
 20
6686.4032019811766
 30
0.0
 41
87.5
 42
87.5
 43
87.5
  0
TEXT
  5
8E50
  8
FUTO
 10
10363.251564315169
 20
6721.4032019811784
 30
0.0
 40
105.0
  1
1045
 51
15.0
  0
POINT
  5
8E51
  8
DEFPOINTS
 62
     0
 10
10036.206737596131
 20
6503.5661577032788
 30
0.0
  0
POINT
  5
8E52
  8
DEFPOINTS
 62
     0
 10
11081.206737596131
 20
6433.2080357334289
 30
0.0
  0
POINT
  5
8E53
  8
DEFPOINTS
 62
     0
 10
11081.206737596131
 20
6686.4032019811766
 30
0.0
  0
ENDBLK
  5
805F
  8
0
  0
BLOCK
  8
0
  2
*D14
 70
     1
 10
0.0
 20
0.0
 30
0.0
  3
*D14
  1

  0
LINE
  5
8E78
  8
SP
 10
8238.2067375961342
 20
9044.5725297649115
 30
0.0
 11
7895.5869772825354
 21
9044.5725297649115
 31
0.0
  0
LINE
  5
8E79
  8
SP
 10
9136.2067375961342
 20
9769.5725297649115
 30
0.0
 11
7895.5869772825354
 21
9769.5725297649115
 31
0.0
  0
LINE
  5
8E7A
  8
SP
 10
7930.5869772825363
 20
9132.0725297649096
 30
0.0
 11
7930.5869772825363
 21
9682.0725297649096
 31
0.0
  0
INSERT
  5
8E7B
  8
SP
  2
_OPEN
 10
7930.5869772825363
 20
9044.5725297649115
 30
0.0
 41
87.5
 42
87.5
 43
87.5
 50
270.0
  0
INSERT
  5
8E7C
  8
SP
  2
_OPEN
 10
7930.5869772825363
 20
9769.5725297649115
 30
0.0
 41
87.5
 42
87.5
 43
87.5
 50
90.0
  0
TEXT
  5
8E7D
  8
FUTO
 10
7895.5869772825354
 20
9253.0051971622797
 30
0.0
 40
105.0
  1
725
 50
90.0
 51
15.0
  0
POINT
  5
8E7E
  8
DEFPOINTS
 62
     0
 10
8273.2067375961342
 20
9044.5725297649115
 30
0.0
  0
POINT
  5
8E7F
  8
DEFPOINTS
 62
     0
 10
9171.2067375961342
 20
9769.5725297649115
 30
0.0
  0
POINT
  5
8E80
  8
DEFPOINTS
 62
     0
 10
7930.5869772825363
 20
9769.5725297649115
 30
0.0
  0
ENDBLK
  5
80A1
  8
0
  0
BLOCK
  8
0
  2
*D15
 70
     1
 10
0.0
 20
0.0
 30
0.0
  3
*D15
  1

  0
LINE
  5
8E81
  8
SP
 10
8238.2067375961342
 20
9044.5725297649115
 30
0.0
 11
7895.5869772825354
 21
9044.5725297649115
 31
0.0
  0
LINE
  5
8E82
  8
SP
 10
8547.7067375961342
 20
7164.5725297649069
 30
0.0
 11
7895.5869772825354
 21
7164.5725297649069
 31
0.0
  0
LINE
  5
8E83
  8
SP
 10
7930.5869772825363
 20
8957.0725297649115
 30
0.0
 11
7930.5869772825363
 21
7252.072529764906
 31
0.0
  0
INSERT
  5
8E84
  8
SP
  2
_OPEN
 10
7930.5869772825363
 20
9044.5725297649115
 30
0.0
 41
87.5
 42
87.5
 43
87.5
 50
90.0
  0
INSERT
  5
8E85
  8
SP
  2
_OPEN
 10
7930.5869772825363
 20
7164.5725297649069
 30
0.0
 41
87.5
 42
87.5
 43
87.5
 50
270.0
  0
TEXT
  5
8E86
  8
FUTO
 10
7895.5869772825354
 20
7909.296848408263
 30
0.0
 40
105.0
  1
1880
 50
90.0
 51
15.0
  0
POINT
  5
8E87
  8
DEFPOINTS
 62
     0
 10
8273.2067375961342
 20
9044.5725297649115
 30
0.0
  0
POINT
  5
8E88
  8
DEFPOINTS
 62
     0
 10
8582.7067375961342
 20
7164.5725297649069
 30
0.0
  0
POINT
  5
8E89
  8
DEFPOINTS
 62
     0
 10
7930.5869772825363
 20
7164.5725297649069
 30
0.0
  0
ENDBLK
  5
80AE
  8
0
  0
BLOCK
  8
0
  2
*D16
 70
     1
 10
0.0
 20
0.0
 30
0.0
  3
*D16
  1

  0
LINE
  5
8E6F
  8
SP
 10
10036.206737596131
 20
9849.3504415817733
 30
0.0
 11
10036.206737596131
 21
10115.50341874343
 31
0.0
  0
LINE
  5
8E70
  8
SP
 10
8486.2067375961306
 20
8485.572529764906
 30
0.0
 11
8486.2067375961306
 21
10115.50341874343
 31
0.0
  0
LINE
  5
8E71
  8
SP
 10
9948.7067375961342
 20
10080.503418743419
 30
0.0
 11
8573.7067375961306
 21
10080.503418743419
 31
0.0
  0
INSERT
  5
8E72
  8
SP
  2
_OPEN
 10
10036.206737596131
 20
10080.503418743419
 30
0.0
 41
87.5
 42
87.5
 43
87.5
  0
INSERT
  5
8E73
  8
SP
  2
_OPEN
 10
8486.2067375961306
 20
10080.503418743419
 30
0.0
 41
87.5
 42
87.5
 43
87.5
 50
180.0
  0
TEXT
  5
8E74
  8
FUTO
 10
9065.9310562394876
 20
10115.50341874343
 30
0.0
 40
105.0
  1
1550
 51
15.0
  0
POINT
  5
8E75
  8
DEFPOINTS
 62
     0
 10
10036.206737596131
 20
9814.3504415817733
 30
0.0
  0
POINT
  5
8E76
  8
DEFPOINTS
 62
     0
 10
8486.2067375961306
 20
8450.5725297649078
 30
0.0
  0
POINT
  5
8E77
  8
DEFPOINTS
 62
     0
 10
8486.2067375961306
 20
10080.503418743419
 30
0.0
  0
ENDBLK
  5
8221
  8
0
  0
BLOCK
  8
0
  2
*D17
 70
     1
 10
0.0
 20
0.0
 30
0.0
  3
*D17
  1

  0
LINE
  5
8E8A
  8
SP
 10
10036.206737596131
 20
9849.3504415817733
 30
0.0
 11
10036.206737596131
 21
10115.50341874343
 31
0.0
  0
LINE
  5
8E8B
  8
SP
 10
11081.206737596131
 20
9723.5725297649078
 30
0.0
 11
11081.206737596131
 21
10115.50341874343
 31
0.0
  0
LINE
  5
8E8C
  8
SP
 10
10123.706737596131
 20
10080.503418743419
 30
0.0
 11
10993.706737596131
 21
10080.503418743419
 31
0.0
  0
INSERT
  5
8E8D
  8
SP
  2
_OPEN
 10
10036.206737596131
 20
10080.503418743419
 30
0.0
 41
87.5
 42
87.5
 43
87.5
 50
180.0
  0
INSERT
  5
8E8E
  8
SP
  2
_OPEN
 10
11081.206737596131
 20
10080.503418743419
 30
0.0
 41
87.5
 42
87.5
 43
87.5
  0
TEXT
  5
8E8F
  8
FUTO
 10
10363.251564315169
 20
10115.50341874343
 30
0.0
 40
105.0
  1
1045
 51
15.0
  0
POINT
  5
8E90
  8
DEFPOINTS
 62
     0
 10
10036.206737596131
 20
9814.3504415817733
 30
0.0
  0
POINT
  5
8E91
  8
DEFPOINTS
 62
     0
 10
11081.206737596131
 20
9688.5725297649078
 30
0.0
  0
POINT
  5
8E92
  8
DEFPOINTS
 62
     0
 10
11081.206737596131
 20
10080.503418743419
 30
0.0
  0
ENDBLK
  5
822E
  8
0
  0
BLOCK
  8
0
  2
*D18
 70
     1
 10
0.0
 20
0.0
 30
0.0
  3
*D18
  1

  0
LINE
  5
8E39
  8
SP
 10
11380.8695738635
 20
4670.2080357334289
 30
0.0
 11
11466.373128678009
 21
4670.2080357334289
 31
0.0
  0
LINE
  5
8E3A
  8
SP
 10
11021.206737596131
 20
3500.2080357334289
 30
0.0
 11
11466.373128678009
 21
3500.2080357334289
 31
0.0
  0
LINE
  5
8E3B
  8
SP
 10
11431.373128678009
 20
4582.708035733428
 30
0.0
 11
11431.373128678009
 21
3587.7080357334289
 31
0.0
  0
INSERT
  5
8E3C
  8
SP
  2
_OPEN
 10
11431.373128678009
 20
4670.2080357334289
 30
0.0
 41
87.5
 42
87.5
 43
87.5
 50
90.0
  0
INSERT
  5
8E3D
  8
SP
  2
_OPEN
 10
11431.373128678009
 20
3500.2080357334289
 30
0.0
 41
87.5
 42
87.5
 43
87.5
 50
270.0
  0
TEXT
  5
8E3E
  8
FUTO
 10
11396.373128678009
 20
3899.932354376785
 30
0.0
 40
105.0
  1
1170
 50
90.0
 51
15.0
  0
POINT
  5
8E3F
  8
DEFPOINTS
 62
     0
 10
11345.8695738635
 20
4670.2080357334289
 30
0.0
  0
POINT
  5
8E40
  8
DEFPOINTS
 62
     0
 10
10986.206737596131
 20
3500.2080357334289
 30
0.0
  0
POINT
  5
8E41
  8
DEFPOINTS
 62
     0
 10
11431.373128678009
 20
3500.2080357334289
 30
0.0
  0
ENDBLK
  5
829D
  8
0
  0
ENDSEC
  0
SECTION
  2
ENTITIES
  0
LINE
  5
522D
  8
CT
 10
11345.8695738635
 20
4670.2080357334289
 30
0.0
 11
8543.2872474554242
 21
4670.2080357334289
 31
0.0
  0
LINE
  5
522E
  8
CT
 10
10036.206737596131
 20
6509.9009249665723
 30
0.0
 11
10036.206737596131
 21
3270.2080357334289
 31
0.0
  0
ARC
  5
5232
  8
KL
 10
10152.206737596131
 20
4786.2080357334289
 30
0.0
 40
1487.0
 50
94.474155976056096
 51
180.0
  0
ARC
  5
5234
  8
KL
 10
9920.2067375961342
 20
4786.2080357334289
 30
0.0
 40
1255.0
 50
180.0
 51
270.0
  0
ARC
  5
5238
  8
KL
 10
9939.2067375961342
 20
4573.2080357334289
 30
0.0
 40
1042.0
 50
270.0
 51
0.0
  0
ARC
  5
5239
  8
KL
 10
10133.206737596131
 20
4573.208035733428
 30
0.0
 40
848.0
 50
0.0
 51
33.704742950728878
  0
LINE
  5
523A
  8
FUTO
 10
11081.206737596131
 20
4712.2080357334289
 30
0.0
 11
11081.206737596131
 21
6368.2080357334289
 31
0.0
  0
LINE
  5
523C
  8
KL
 10
11081.206737596131
 20
4715.2080357334289
 30
0.0
 11
10969.233052971431
 21
4715.2080357334289
 31
0.0
  0
LINE
  5
523D
  8
KL
 10
10036.206737596131
 20
6268.6765851468735
 30
0.0
 11
11081.206737596131
 21
6365.2080357334289
 31
0.0
  0
LINE
  5
523F
  8
FUTO
 10
11016.206737596131
 20
4697.2080357334289
 30
0.0
 11
11016.206737596131
 21
6377.2803215882341
 31
0.0
  0
LINE
  5
5251
  8
FUTO
 10
11081.206737596131
 20
4712.2080357334289
 30
0.0
 11
11081.206737596131
 21
4647.2080357334289
 31
0.0
  0
LINE
  5
5252
  8
FUTO
 10
11081.206737596131
 20
4712.2080357334289
 30
0.0
 11
11016.206737596131
 21
4712.2080357334289
 31
0.0
  0
LINE
  5
5253
  8
FUTO
 10
11081.206737596131
 20
4647.2080357334289
 30
0.0
 11
11079.206737596131
 21
4647.2080357334289
 31
0.0
  0
LINE
  5
5254
  8
FUTO
 10
11016.206737596131
 20
4712.2080357334289
 30
0.0
 11
11016.206737596131
 21
4710.2080357334289
 31
0.0
  0
LINE
  5
5255
  8
FUTO
 10
11066.706737596131
 20
4706.208035733428
 30
0.0
 11
11020.206737596131
 21
4706.208035733428
 31
0.0
  0
LINE
  5
5256
  8
FUTO
 10
11075.206737596131
 20
4697.7080357334289
 30
0.0
 11
11075.206737596131
 21
4651.2080357334289
 31
0.0
  0
ARC
  5
5257
  8
FUTO
 10
11079.206737596131
 20
4651.2080357334289
 30
0.0
 40
4.0
 50
180.0
 51
270.0
  0
ARC
  5
5258
  8
FUTO
 10
11020.206737596131
 20
4710.2080357334289
 30
0.0
 40
4.0
 50
180.00000000000071
 51
270.0
  0
ARC
  5
5259
  8
FUTO
 10
11066.706737596131
 20
4697.7080357334289
 30
0.0
 40
8.5
 50
0.0
 51
89.999999999999986
  0
LINE
  5
525A
  8
FUTO
 10
11081.206737596131
 20
6368.2080357334289
 30
0.0
 11
11016.206737596131
 21
6368.2080357334289
 31
0.0
  0
LINE
  5
525B
  8
FUTO
 10
11081.206737596131
 20
6368.2080357334289
 30
0.0
 11
11081.206737596131
 21
6433.2080357334289
 31
0.0
  0
LINE
  5
525C
  8
FUTO
 10
11016.206737596131
 20
6368.2080357334289
 30
0.0
 11
11016.206737596131
 21
6370.2080357334289
 31
0.0
  0
LINE
  5
525D
  8
FUTO
 10
11081.206737596131
 20
6433.2080357334289
 30
0.0
 11
11079.206737596131
 21
6433.2080357334289
 31
0.0
  0
LINE
  5
525E
  8
FUTO
 10
11075.206737596131
 20
6382.7080357334289
 30
0.0
 11
11075.206737596131
 21
6429.208035733428
 31
0.0
  0
LINE
  5
525F
  8
FUTO
 10
11066.706737596131
 20
6374.208035733428
 30
0.0
 11
11020.206737596131
 21
6374.208035733428
 31
0.0
  0
ARC
  5
5260
  8
FUTO
 10
11020.206737596131
 20
6370.2080357334289
 30
0.0
 40
4.0
 50
89.999999999999986
 51
180.0
  0
ARC
  5
5261
  8
FUTO
 10
11079.206737596131
 20
6429.208035733428
 30
0.0
 40
4.0
 50
90.00000000000081
 51
180.0
  0
ARC
  5
5262
  8
FUTO
 10
11066.706737596131
 20
6382.7080357334289
 30
0.0
 40
8.5
 50
270.0
 51
0.0
  0
LINE
  5
5263
  8
FUTO
 10
11075.206737596131
 20
4712.2080357334289
 30
0.0
 11
11075.206737596131
 21
6368.2080357334289
 31
0.0
  0
ARC
  5
5264
  8
FUTO
 10
10133.206737596131
 20
4573.208035733428
 30
0.0
 40
866.0
 50
0.0
 51
8.2323103150028185
  0
LINE
  5
5265
  8
FUTO
 10
11016.206737596131
 20
4697.2080357334289
 30
0.0
 11
10990.283163593251
 21
4697.2080357334289
 31
0.0
  0
ARC
  5
5266
  8
FUTO
 10
9939.2067375961342
 20
4573.2080357334289
 30
0.0
 40
1060.0
 50
310.66777205427832
 51
0.0
  0
LINE
  5
5267
  8
KL
 10
9920.2067375961342
 20
3531.2080357334289
 30
0.0
 11
9939.2067375961342
 21
3531.2080357334289
 31
0.0
  0
LINE
  5
5268
  8
FUTO
 10
9920.2067375961342
 20
3513.2080357334289
 30
0.0
 11
9939.2067375961342
 21
3513.2080357334289
 31
0.0
  0
ARC
  5
5269
  8
FUTO
 10
9920.2067375961342
 20
4786.2080357334289
 30
0.0
 40
1273.0
 50
185.22823476813249
 51
207.74903739821491
  0
LINE
  5
526B
  8
FUTO
 10
10045.206737596131
 20
6287.5845909475202
 30
0.0
 11
11016.206737596131
 21
6377.2803215882341
 31
0.0
  0
CIRCLE
  5
526C
  8
KL
 10
10852.80732125348
 20
5053.2080357334289
 30
0.0
 40
17.0
  0
LINE
  5
526D
  8
FUTO
 10
8486.2067375961342
 20
3500.2080357334289
 30
0.0
 11
10986.206737596131
 21
3500.2080357334289
 31
0.0
  0
LINE
  5
526E
  8
FUTO
 10
8486.2067375961342
 20
3650.2080357334289
 30
0.0
 11
10986.206737596131
 21
3650.2080357334289
 31
0.0
  0
LINE
  5
526F
  8
FUTO
 10
10986.206737596131
 20
3650.2080357334289
 30
0.0
 11
10986.206737596131
 21
3500.2080357334289
 31
0.0
  0
LINE
  5
5270
  8
FUTO
 10
8486.2067375961342
 20
3650.2080357334289
 30
0.0
 11
8486.2067375961342
 21
3500.2080357334298
 31
0.0
  0
LINE
  5
5273
  8
FUTO
 10
10976.206737596131
 20
6373.5853378337242
 30
0.0
 11
10976.206737596131
 21
4679.2080357334289
 31
0.0
  0
LINE
  5
5274
  8
FUTO
 10
9096.2067375961324
 20
5858.5368099440257
 30
0.0
 11
9096.2067375961324
 21
4679.2080357334289
 31
0.0
  0
LINE
  5
5275
  8
FUTO
 10
9105.2067375961342
 20
5867.3259756456291
 30
0.0
 11
9105.2067375961342
 21
4679.2080357334289
 31
0.0
  0
LINE
  5
5276
  8
FUTO
 10
10967.206737596131
 20
6372.7539664889591
 30
0.0
 11
10967.206737596131
 21
4679.2080357334289
 31
0.0
  0
LINE
  5
52EB
  8
CT
 10
9022.6630948812799
 20
3680.2080357334289
 30
0.0
 11
8393.8700171354394
 21
3680.2080357334289
 31
0.0
  0
LINE
  5
52F4
  8
CT
 10
8786.2067375961342
 20
3270.2080357334289
 30
0.0
 11
8786.2067375961342
 21
3910.30604993003
 31
0.0
  0
LINE
  5
5391
  8
CT
 10
10181.206737596131
 20
4550.2080357334298
 30
0.0
 11
10181.206737596131
 21
4624.208035733428
 31
0.0
  0
LINE
  5
5393
  8
CT
 10
9891.2067375961342
 20
4550.2080357334298
 30
0.0
 11
9891.2067375961342
 21
4624.208035733428
 31
0.0
  0
ARC
  5
53C8
  8
FUTO
 10
9859.2067375961342
 20
4601.2080357334289
 30
0.0
 40
3.0
 50
90.0
 51
180.0
  0
LINE
  5
53C9
  8
FUTO
 10
9856.2067375961342
 20
4601.2080357334289
 30
0.0
 11
9856.2067375961342
 21
4570.2080357334289
 31
0.0
  0
ARC
  5
53CA
  8
FUTO
 10
9988.7067375961342
 20
4752.48044909295
 30
0.0
 40
15.00000000000038
 50
25.471936986187181
 51
214.5280630138071
  0
LINE
  5
53CB
  8
FUTO
 10
10020.525074898331
 20
4763.9048097175537
 30
0.0
 11
10020.525074898331
 21
4770.208035733428
 31
0.0
  0
LINE
  5
53CC
  8
FUTO
 10
10051.88840029393
 20
4763.9048097175537
 30
0.0
 11
10051.88840029393
 21
4770.208035733428
 31
0.0
  0
LINE
  5
53CD
  8
FUTO
 10
10051.88840029393
 20
4770.2080357334289
 30
0.0
 11
10020.525074898331
 21
4770.208035733428
 31
0.0
  0
ARC
  5
53CE
  8
FUTO
 10
10036.206737596131
 20
4670.2080357334289
 30
0.0
 40
95.000000000000057
 50
129.05612602761761
 51
170.94387397238259
  0
LINE
  5
53CF
  8
FUTO
 10
9941.2067375961342
 20
4655.2080357334289
 30
0.0
 11
9941.2067375961342
 21
4620.2080357334289
 31
0.0
  0
LINE
  5
53D0
  8
FUTO
 10
9946.2067375961342
 20
4570.2080357334289
 30
0.0
 11
9946.2067375961342
 21
4573.2080357334289
 31
0.0
  0
ARC
  5
53D1
  8
FUTO
 10
9925.2067375961342
 20
4620.2080357334289
 30
0.0
 40
16.0
 50
270.0
 51
0.000000000000007
  0
ARC
  5
53D2
  8
FUTO
 10
9988.7067375961342
 20
4587.9356223739069
 30
0.0
 40
14.999999999999909
 50
145.47193698619051
 51
334.5280630138152
  0
ARC
  5
53D3
  8
FUTO
 10
10036.206737596131
 20
4670.2080357334307
 30
0.0
 40
95.000000000000966
 50
189.05612602761769
 51
230.9438739723827
  0
ARC
  5
53D4
  8
FUTO
 10
9941.2067375961342
 20
4670.2080357334289
 30
0.0
 40
15.00000000000011
 50
85.471936986191736
 51
274.52806301380838
  0
LINE
  5
53D5
  8
FUTO
 10
9925.2067375961342
 20
4604.2080357334289
 30
0.0
 11
9859.2067375961342
 21
4604.2080357334289
 31
0.0
  0
ARC
  5
53D7
  8
FUTO
 10
10083.706737596131
 20
4752.4804490929509
 30
0.0
 40
15.00000000000006
 50
325.47193698619043
 51
154.52806301381389
  0
ARC
  5
53D8
  8
FUTO
 10
10036.206737596131
 20
4670.2080357334289
 30
0.0
 40
94.999999999999375
 50
9.0561260276173208
 51
50.943873972383258
  0
LINE
  5
53D9
  8
FUTO
 10
10131.206737596131
 20
4655.2080357334289
 30
0.0
 11
10131.206737596131
 21
4620.2080357334289
 31
0.0
  0
ARC
  5
53DA
  8
FUTO
 10
10083.706737596131
 20
4587.9356223739069
 30
0.0
 40
14.99999999999978
 50
205.47193698618639
 51
34.528063013808868
  0
LINE
  5
53DB
  8
FUTO
 10
10126.206737596131
 20
4570.2080357334289
 30
0.0
 11
10126.206737596131
 21
4573.2080357334289
 31
0.0
  0
ARC
  5
53DC
  8
FUTO
 10
10036.206737596131
 20
4670.2080357334289
 30
0.0
 40
95.000000000000057
 50
309.05612602761761
 51
350.94387397238319
  0
ARC
  5
53DD
  8
FUTO
 10
10213.206737596131
 20
4601.2080357334289
 30
0.0
 40
3.0
 50
0.000000000000007
 51
90.0
  0
LINE
  5
53DE
  8
FUTO
 10
10216.206737596131
 20
4601.2080357334289
 30
0.0
 11
10216.206737596131
 21
4570.2080357334289
 31
0.0
  0
LINE
  5
53DF
  8
FUTO
 10
10147.206737596131
 20
4604.2080357334289
 30
0.0
 11
10213.206737596131
 21
4604.2080357334289
 31
0.0
  0
ARC
  5
53E0
  8
FUTO
 10
10147.206737596131
 20
4620.2080357334289
 30
0.0
 40
16.0
 50
180.0
 51
270.0
  0
LINE
  5
53E1
  8
FUTO
 10
10231.206737596131
 20
4570.2080357334289
 30
0.0
 11
9841.2067375961342
 21
4570.2080357334289
 31
0.0
  0
ARC
  5
53E2
  8
FUTO
 10
10131.206737596131
 20
4670.2080357334289
 30
0.0
 40
14.999999999999879
 50
265.47193698619083
 51
94.528063013808975
  0
CIRCLE
  5
53E3
  8
FUTO
 10
10036.206737596131
 20
4670.2080357334289
 30
0.0
 40
36.5
  0
LINE
  5
53E4
  8
FUTO
 10
10126.206737596131
 20
4573.2080357334289
 30
0.0
 11
9946.2067375961342
 21
4573.2080357334289
 31
0.0
  0
ARC
  5
53E5
  8
FUTO
 10
10036.206737596131
 20
4670.208035733428
 30
0.0
 40
94.999999999998266
 50
249.0561260276169
 51
290.9438739723837
  0
ARC
  5
53E6
  8
FUTO
 10
10036.206737596131
 20
4670.2080357334307
 30
0.0
 40
94.999999999998053
 50
69.056126027617694
 51
110.9438739723836
  0
LINE
  5
53E7
  8
FUTO
 10
12627.41352821186
 20
4750.2080357334289
 30
0.0
 11
12632.41352821186
 21
4750.2080357334289
 31
0.0
  0
ARC
  5
53E8
  8
FUTO
 10
12621.41352821186
 20
4759.2080357334289
 30
0.0
 40
6.0
 50
0.0
 51
90.0
  0
LINE
  5
53E9
  8
FUTO
 10
12612.41352821186
 20
4765.208035733428
 30
0.0
 11
12621.41352821186
 21
4765.2080357334289
 31
0.0
  0
LINE
  5
53EA
  8
FUTO
 10
12632.41352821186
 20
4590.2080357334289
 30
0.0
 11
12627.41352821186
 21
4590.2080357334289
 31
0.0
  0
ARC
  5
53EB
  8
FUTO
 10
12621.41352821186
 20
4581.2080357334298
 30
0.0
 40
6.0
 50
270.0
 51
0.0
  0
ARC
  5
53EC
  8
FUTO
 10
12606.41352821186
 20
4598.2080357334289
 30
0.0
 40
6.0
 50
0.0
 51
90.0
  0
LINE
  5
53ED
  8
FUTO
 10
12621.41352821186
 20
4575.2080357334298
 30
0.0
 11
12612.41352821186
 21
4575.2080357334298
 31
0.0
  0
LINE
  5
53EE
  8
FUTO
 10
12632.41352821186
 20
4750.2080357334289
 30
0.0
 11
12632.41352821186
 21
4590.2080357334289
 31
0.0
  0
LINE
  5
53EF
  8
FUTO
 10
12627.41352821186
 20
4759.2080357334289
 30
0.0
 11
12627.41352821186
 21
4581.2080357334298
 31
0.0
  0
LINE
  5
53F0
  8
FUTO
 10
12612.41352821186
 20
4570.2080357334289
 30
0.0
 11
12612.41352821186
 21
4770.208035733428
 31
0.0
  0
LINE
  5
53F1
  8
FUTO
 10
12512.41352821186
 20
4765.208035733428
 30
0.0
 11
12503.41352821186
 21
4765.2080357334289
 31
0.0
  0
ARC
  5
53F2
  8
FUTO
 10
12503.41352821186
 20
4759.2080357334289
 30
0.0
 40
6.0
 50
90.0
 51
180.0
  0
LINE
  5
53F3
  8
FUTO
 10
12497.41352821186
 20
4750.2080357334289
 30
0.0
 11
12492.41352821186
 21
4750.2080357334289
 31
0.0
  0
ARC
  5
53F4
  8
FUTO
 10
12518.41352821186
 20
4598.2080357334289
 30
0.0
 40
6.0
 50
90.0
 51
180.0
  0
ARC
  5
53F5
  8
FUTO
 10
12503.41352821186
 20
4581.2080357334298
 30
0.0
 40
6.0
 50
180.0
 51
270.0
  0
LINE
  5
53F6
  8
FUTO
 10
12503.41352821186
 20
4575.2080357334298
 30
0.0
 11
12512.41352821186
 21
4575.2080357334298
 31
0.0
  0
LINE
  5
53F7
  8
FUTO
 10
12492.41352821186
 20
4590.2080357334289
 30
0.0
 11
12497.41352821186
 21
4590.2080357334289
 31
0.0
  0
LINE
  5
53F8
  8
FUTO
 10
12497.41352821186
 20
4759.2080357334289
 30
0.0
 11
12497.41352821186
 21
4581.2080357334298
 31
0.0
  0
LINE
  5
53F9
  8
FUTO
 10
12492.41352821186
 20
4750.2080357334289
 30
0.0
 11
12492.41352821186
 21
4590.2080357334289
 31
0.0
  0
LINE
  5
53FA
  8
FUTO
 10
12512.41352821186
 20
4770.208035733428
 30
0.0
 11
12512.41352821186
 21
4570.2080357334289
 31
0.0
  0
LINE
  5
53FB
  8
FUTO
 10
12612.41352821186
 20
4770.208035733428
 30
0.0
 11
12512.41352821186
 21
4770.208035733428
 31
0.0
  0
LINE
  5
53FC
  8
FUTO
 10
12507.41352821186
 20
4570.2080357334289
 30
0.0
 11
12617.41352821186
 21
4570.2080357334289
 31
0.0
  0
LINE
  5
53FD
  8
FUTO
 10
12606.41352821186
 20
4604.2080357334289
 30
0.0
 11
12518.41352821186
 21
4604.2080357334289
 31
0.0
  0
LINE
  5
53FE
  8
KL
 10
9650.5548647054111
 20
4562.2080357334289
 30
0.0
 11
10421.85861048685
 21
4562.2080357334289
 31
0.0
  0
LINE
  5
53FF
  8
FUTO
 10
10231.206737596131
 20
4570.2080357334289
 30
0.0
 11
10231.206737596131
 21
4562.2080357334289
 31
0.0
  0
LINE
  5
5400
  8
FUTO
 10
9841.2067375961342
 20
4570.2080357334289
 30
0.0
 11
9841.2067375961342
 21
4562.2080357334289
 31
0.0
  0
LINE
  5
5405
  8
FUTO
 10
10661.206737596131
 20
3658.03558279237
 30
0.0
 11
10661.206737596131
 21
3650.2080357334289
 31
0.0
  0
LINE
  5
540E
  8
FUTO
 10
9411.2067375961342
 20
3658.03558279237
 30
0.0
 11
9411.2067375961342
 21
3650.2080357334289
 31
0.0
  0
LINE
  5
5411
  8
FUTO
 10
10661.206737596131
 20
3650.2080357334289
 30
0.0
 11
10661.206737596131
 21
3500.2080357334289
 31
0.0
  0
LINE
  5
5412
  8
KL
 10
10235.86108593513
 20
4655.4046175697249
 30
0.0
 11
10233.724504766489
 21
4637.5318723718037
 31
0.0
  0
LINE
  5
5413
  8
KL
 10
9836.2067375961342
 20
4679.2080357334289
 30
0.0
 11
9836.2067375961342
 21
4661.2080357334289
 31
0.0
  0
LINE
  5
5414
  8
FUTO
 10
11039.6164118345
 20
4559.5949679559571
 30
0.0
 11
10414.48269760471
 21
4634.0514584674665
 31
0.0
  0
LINE
  5
5415
  8
FUTO
 10
11037.479830665859
 20
4541.722222758036
 30
0.0
 11
10412.346116436071
 21
4616.1787132695454
 31
0.0
  0
LINE
  5
5416
  8
KL
 10
9836.2067375961342
 20
4661.2080357334289
 30
0.0
 11
9401.4071288520554
 21
4661.2080357334289
 31
0.0
  0
LINE
  5
5417
  8
KL
 10
9836.2067375961342
 20
4679.2080357334289
 30
0.0
 11
9424.7986138423694
 21
4679.2080357334289
 31
0.0
  0
ARC
  5
541E
  8
FUTO
 10
9939.2067375961342
 20
4573.2080357334289
 30
0.0
 40
1060.0
 50
270.0
 51
274.76211165608441
  0
LINE
  5
541F
  8
FUTO
 10
10976.206737596131
 20
4661.2080357334289
 30
0.0
 11
10976.206737596131
 21
3650.2080357334289
 31
0.0
  0
LINE
  5
5420
  8
FUTO
 10
10967.206737596131
 20
4661.2080357334289
 30
0.0
 11
10967.206737596131
 21
3650.2080357334289
 31
0.0
  0
LINE
  5
5425
  8
FUTO
 10
9096.2067375961324
 20
4661.2080357334289
 30
0.0
 11
9096.2067375961324
 21
4426.3530427784708
 31
0.0
  0
LINE
  5
5426
  8
FUTO
 10
9105.2067375961342
 20
4661.2080357334289
 30
0.0
 11
9105.2067375961342
 21
4433.2786398522376
 31
0.0
  0
ARC
  5
543E
  8
FUTO
 10
10152.206737596131
 20
4786.2080357334289
 30
0.0
 40
1505.0
 50
94.764274045909744
 51
184.42053739693571
  0
CIRCLE
  5
544F
  8
SL
 10
10036.206737596131
 20
4670.2080357334289
 30
0.0
 40
315.0
  0
ARC
  5
5451
  8
FUTO
 10
10036.206737596131
 20
4670.2080357334289
 30
0.0
 40
380.0
 50
295.0205324563529
 51
127.5786702129041
  0
CIRCLE
  5
5453
  8
SL
 10
8786.2067375961342
 20
3910.2080357334289
 30
0.0
 40
132.49999999999989
  0
ARC
  5
5454
  8
FUTO
 10
8786.2067375961342
 20
3910.2080357334289
 30
0.0
 40
220.0
 50
127.5786702129041
 51
295.0205324563529
  0
LINE
  5
5459
  8
CT
 10
12127.048167106959
 20
4670.2080357334289
 30
0.0
 11
14813.191440028721
 21
4670.2080357334289
 31
0.0
  0
LINE
  5
545A
  8
CT
 10
14043.41352821186
 20
6676.7397936728203
 30
0.0
 11
14043.41352821186
 21
3270.2080357334289
 31
0.0
  0
LINE
  5
545B
  8
FUTO
 10
14637.41352821186
 20
3650.2080357334289
 30
0.0
 11
12487.41352821186
 21
3650.2080357334289
 31
0.0
  0
LINE
  5
545C
  8
FUTO
 10
14637.41352821186
 20
3500.2080357334289
 30
0.0
 11
12487.41352821186
 21
3500.2080357334289
 31
0.0
  0
LINE
  5
5505
  8
FUTO
 10
14637.41352821186
 20
3500.2080357334289
 30
0.0
 11
14712.41352821186
 21
3500.2080357334289
 31
0.0
  0
LINE
  5
5506
  8
FUTO
 10
14647.56490524087
 20
3512.8850683628939
 30
0.0
 11
14708.762151182849
 21
3507.531003103963
 31
0.0
  0
LINE
  5
5507
  8
FUTO
 10
14637.41352821186
 20
3650.2080357334289
 30
0.0
 11
14712.41352821186
 21
3650.2080357334289
 31
0.0
  0
LINE
  5
5508
  8
FUTO
 10
14647.56490524087
 20
3637.5310031039621
 30
0.0
 11
14708.762151182849
 21
3642.8850683628939
 31
0.0
  0
LINE
  5
5509
  8
FUTO
 10
14643.91352821186
 20
3633.5462243115958
 30
0.0
 11
14643.91352821186
 21
3516.8698471552611
 31
0.0
  0
ARC
  5
550A
  8
FUTO
 10
14647.91352821186
 20
3516.8698471552611
 30
0.0
 40
4.0
 50
180.0
 51
264.99999999999989
  0
LINE
  5
550B
  8
FUTO
 10
14637.41352821186
 20
3650.2080357334289
 30
0.0
 11
14637.41352821186
 21
3500.2080357334289
 31
0.0
  0
ARC
  5
550C
  8
FUTO
 10
14647.91352821186
 20
3633.5462243115958
 30
0.0
 40
4.0
 50
95.000000000000057
 51
180.0
  0
LINE
  5
550D
  8
FUTO
 10
14712.41352821186
 20
3500.2080357334271
 30
0.0
 11
14712.41352821186
 21
3503.5462243115958
 31
0.0
  0
LINE
  5
550E
  8
FUTO
 10
14712.41352821186
 20
3650.2080357334289
 30
0.0
 11
14712.41352821186
 21
3646.8698471552611
 31
0.0
  0
ARC
  5
550F
  8
FUTO
 10
14708.41352821186
 20
3646.8698471552611
 30
0.0
 40
4.0
 50
275.00000000000051
 51
359.9999999999921
  0
ARC
  5
5510
  8
FUTO
 10
14708.41352821186
 20
3503.5462243115958
 30
0.0
 40
4.0
 50
0.0000000000078369
 51
84.999999999999503
  0
LINE
  5
5511
  8
FUTO
 10
12487.41352821186
 20
3650.2080357334289
 30
0.0
 11
12412.41352821186
 21
3650.2080357334289
 31
0.0
  0
LINE
  5
5512
  8
FUTO
 10
12477.262151182849
 20
3637.5310031039621
 30
0.0
 11
12416.06490524087
 21
3642.8850683628939
 31
0.0
  0
LINE
  5
5513
  8
FUTO
 10
12487.41352821186
 20
3500.2080357334289
 30
0.0
 11
12412.41352821186
 21
3500.2080357334271
 31
0.0
  0
LINE
  5
5514
  8
FUTO
 10
12477.262151182849
 20
3512.8850683628939
 30
0.0
 11
12416.06490524087
 21
3507.531003103963
 31
0.0
  0
LINE
  5
5515
  8
FUTO
 10
12480.91352821186
 20
3516.8698471552611
 30
0.0
 11
12480.91352821186
 21
3633.5462243115958
 31
0.0
  0
ARC
  5
5516
  8
FUTO
 10
12476.91352821186
 20
3633.5462243115958
 30
0.0
 40
4.0
 50
0.0
 51
84.999999999999943
  0
LINE
  5
5517
  8
FUTO
 10
12487.41352821186
 20
3500.2080357334289
 30
0.0
 11
12487.41352821186
 21
3650.2080357334289
 31
0.0
  0
ARC
  5
5518
  8
FUTO
 10
12476.91352821186
 20
3516.8698471552611
 30
0.0
 40
4.0
 50
275.0
 51
0.0
  0
LINE
  5
5519
  8
FUTO
 10
12412.41352821186
 20
3650.2080357334289
 30
0.0
 11
12412.41352821186
 21
3646.8698471552598
 31
0.0
  0
LINE
  5
551A
  8
FUTO
 10
12412.41352821186
 20
3500.2080357334271
 30
0.0
 11
12412.41352821186
 21
3503.5462243115958
 31
0.0
  0
ARC
  5
551B
  8
FUTO
 10
12416.41352821186
 20
3503.5462243115958
 30
0.0
 40
4.0
 50
95.000000000000554
 51
179.9999999999921
  0
ARC
  5
551C
  8
FUTO
 10
12416.41352821186
 20
3646.8698471552611
 30
0.0
 40
4.0
 50
180.00000000000779
 51
264.99999999999949
  0
LINE
  5
551D
  8
FUTO
 10
14637.41352821186
 20
3513.2045357334291
 30
0.0
 11
12487.41352821186
 21
3513.2045357334291
 31
0.0
  0
LINE
  5
551E
  8
FUTO
 10
14637.41352821186
 20
3637.2115357334292
 30
0.0
 11
12487.41352821186
 21
3637.2115357334292
 31
0.0
  0
LINE
  5
551F
  8
FUTO
 10
8486.2067375961342
 20
3513.2045357334291
 30
0.0
 11
10986.206737596131
 21
3513.2045357334291
 31
0.0
  0
LINE
  5
5520
  8
FUTO
 10
8486.2067375961342
 20
3637.2115357334292
 30
0.0
 11
10986.206737596131
 21
3637.2115357334292
 31
0.0
  0
LINE
  5
5522
  8
FUTO
 10
13453.41352821186
 20
6368.2080357334289
 30
0.0
 11
13453.41352821185
 21
4712.2080357334289
 31
0.0
  0
LINE
  5
5523
  8
FUTO
 10
14633.41352821186
 20
6368.2080357334289
 30
0.0
 11
14633.41352821185
 21
4712.2080357334289
 31
0.0
  0
LINE
  5
5524
  8
FUTO
 10
14636.61352821185
 20
6368.2080357334289
 30
0.0
 11
14636.61352821185
 21
4712.2080357334289
 31
0.0
  0
LINE
  5
5525
  8
FUTO
 10
13450.21352821186
 20
6368.2080357334289
 30
0.0
 11
13450.21352821186
 21
4712.2080357334289
 31
0.0
  0
LINE
  5
5528
  8
FUTO
 10
13384.41352821187
 20
6433.2080357334289
 30
0.0
 11
13384.41352821184
 21
4647.2080357334289
 31
0.0
  0
LINE
  5
5529
  8
FUTO
 10
14702.41352821186
 20
6433.2080357334289
 30
0.0
 11
14702.41352821186
 21
4647.2080357334289
 31
0.0
  0
LINE
  5
552A
  8
FUTO
 10
14711.613528211859
 20
6368.2080357334289
 30
0.0
 11
14711.61352821185
 21
4670.2080357334289
 31
0.0
  0
LINE
  5
552B
  8
FUTO
 10
13375.21352821186
 20
6368.2080357334289
 30
0.0
 11
13375.21352821186
 21
4670.2080357334289
 31
0.0
  0
LINE
  5
552C
  8
KL
 10
13453.41352821186
 20
3529.2080357334289
 30
0.0
 11
14633.41352821185
 21
3529.2080357334289
 31
0.0
  0
LINE
  5
552D
  8
KL
 10
13450.21352821186
 20
3511.2080357334289
 30
0.0
 11
13453.41352821186
 21
3511.2080357334289
 31
0.0
  0
LINE
  5
552E
  8
KL
 10
14633.41352821185
 20
3511.2080357334289
 30
0.0
 11
14636.61352821185
 21
3511.2080357334289
 31
0.0
  0
LINE
  5
552F
  8
KL
 10
13453.41352821185
 20
3650.2080357334298
 30
0.0
 11
13453.41352821186
 21
3511.2080357334289
 31
0.0
  0
LINE
  5
5530
  8
KL
 10
13450.21352821186
 20
3650.2080357334298
 30
0.0
 11
13450.21352821186
 21
3511.2080357334289
 31
0.0
  0
LINE
  5
5531
  8
KL
 10
14633.41352821185
 20
3650.2080357334289
 30
0.0
 11
14633.41352821185
 21
3511.2080357334289
 31
0.0
  0
LINE
  5
5532
  8
KL
 10
14636.61352821185
 20
3650.2080357334289
 30
0.0
 11
14636.61352821185
 21
3511.2080357334289
 31
0.0
  0
LINE
  5
5533
  8
CT
 10
13242.41352821186
 20
4830.5749937693918
 30
0.0
 11
13242.41352821186
 21
4498.5289449958964
 31
0.0
  0
LINE
  5
5534
  8
CT
 10
12562.41352821186
 20
4830.5749937693918
 30
0.0
 11
12562.41352821186
 21
4498.5289449958964
 31
0.0
  0
LINE
  5
5537
  8
CT
 10
13197.41352821186
 20
4602.1508925126982
 30
0.0
 11
13197.41352821186
 21
4512.1508925126982
 31
0.0
  0
LINE
  5
5538
  8
CT
 10
13287.41352821186
 20
4602.1508925126982
 30
0.0
 11
13287.41352821186
 21
4512.1508925126982
 31
0.0
  0
LINE
  5
5548
  8
FUTO
 10
13269.91352821186
 20
4790.2080357334289
 30
0.0
 11
13306.41352821186
 21
4790.2080357334289
 31
0.0
  0
LINE
  5
5549
  8
FUTO
 10
13269.91352821186
 20
4803.2080357334289
 30
0.0
 11
13269.91352821186
 21
4590.2080357334289
 31
0.0
  0
LINE
  5
554A
  8
FUTO
 10
13214.91352821186
 20
4803.2080357334289
 30
0.0
 11
13214.91352821186
 21
4590.2080357334289
 31
0.0
  0
ARC
  5
554B
  8
FUTO
 10
13309.41352821186
 20
4587.2080357334289
 30
0.0
 40
3.0
 50
0.0
 51
90.0
  0
ARC
  5
554C
  8
FUTO
 10
13175.41352821186
 20
4587.2080357334289
 30
0.0
 40
3.0
 50
90.000000000000028
 51
180.0
  0
LINE
  5
554D
  8
FUTO
 10
13320.41352821186
 20
4790.2080357334289
 30
0.0
 11
13306.41352821186
 21
4790.2080357334289
 31
0.0
  0
LINE
  5
554E
  8
FUTO
 10
13296.41352821186
 20
4803.2080357334289
 30
0.0
 11
13296.41352821186
 21
4790.2080357334289
 31
0.0
  0
LINE
  5
554F
  8
FUTO
 10
13178.41352821186
 20
4790.2080357334289
 30
0.0
 11
13214.91352821186
 21
4790.2080357334289
 31
0.0
  0
LINE
  5
5550
  8
FUTO
 10
13188.41352821186
 20
4803.2080357334289
 30
0.0
 11
13188.41352821186
 21
4790.2080357334289
 31
0.0
  0
LINE
  5
5551
  8
FUTO
 10
13164.41352821186
 20
4790.2080357334289
 30
0.0
 11
13178.41352821186
 21
4790.2080357334289
 31
0.0
  0
LINE
  5
5552
  8
FUTO
 10
13188.41352821186
 20
4803.2080357334289
 30
0.0
 11
13296.41352821186
 21
4803.2080357334289
 31
0.0
  0
LINE
  5
5553
  8
FUTO
 10
13320.41352821186
 20
4550.2080357334289
 30
0.0
 11
13312.41352821186
 21
4550.2080357334289
 31
0.0
  0
LINE
  5
5554
  8
FUTO
 10
13328.41352821186
 20
4590.2080357334289
 30
0.0
 11
13320.41352821186
 21
4570.208035733428
 31
0.0
  0
LINE
  5
5555
  8
FUTO
 10
13312.41352821186
 20
4587.2080357334289
 30
0.0
 11
13312.41352821186
 21
4540.2080357334289
 31
0.0
  0
LINE
  5
5556
  8
FUTO
 10
13328.41352821186
 20
4750.2080357334289
 30
0.0
 11
13328.41352821186
 21
4590.2080357334289
 31
0.0
  0
LINE
  5
5557
  8
FUTO
 10
13164.41352821186
 20
4550.2080357334289
 30
0.0
 11
13172.41352821186
 21
4550.2080357334289
 31
0.0
  0
LINE
  5
5558
  8
FUTO
 10
13156.41352821186
 20
4590.2080357334289
 30
0.0
 11
13164.41352821186
 21
4570.208035733428
 31
0.0
  0
LINE
  5
5559
  8
FUTO
 10
13172.41352821186
 20
4587.2080357334289
 30
0.0
 11
13172.41352821186
 21
4540.2080357334289
 31
0.0
  0
LINE
  5
555A
  8
FUTO
 10
13156.41352821186
 20
4750.2080357334289
 30
0.0
 11
13156.41352821186
 21
4590.2080357334289
 31
0.0
  0
LINE
  5
555B
  8
FUTO
 10
13175.41352821186
 20
4590.2080357334289
 30
0.0
 11
13309.41352821186
 21
4590.2080357334289
 31
0.0
  0
LINE
  5
555C
  8
FUTO
 10
13162.41352821186
 20
4540.2080357334289
 30
0.0
 11
13322.41352821186
 21
4540.2080357334289
 31
0.0
  0
LINE
  5
555D
  8
FUTO
 10
13306.41352821186
 20
4790.2080357334289
 30
0.0
 11
13306.41352821186
 21
4590.2080357334289
 31
0.0
  0
LINE
  5
555E
  8
FUTO
 10
13320.41352821186
 20
4790.2080357334289
 30
0.0
 11
13320.41352821186
 21
4550.2080357334289
 31
0.0
  0
LINE
  5
555F
  8
FUTO
 10
13328.41352821186
 20
4750.2080357334289
 30
0.0
 11
13320.41352821186
 21
4770.208035733428
 31
0.0
  0
LINE
  5
5560
  8
FUTO
 10
13156.41352821186
 20
4750.2080357334289
 30
0.0
 11
13164.41352821186
 21
4770.208035733428
 31
0.0
  0
LINE
  5
5561
  8
FUTO
 10
13164.41352821186
 20
4790.2080357334289
 30
0.0
 11
13164.41352821186
 21
4550.2080357334289
 31
0.0
  0
LINE
  5
5562
  8
FUTO
 10
13306.41352821186
 20
4790.2080357334289
 30
0.0
 11
13306.41352821186
 21
4590.2080357334289
 31
0.0
  0
LINE
  5
5563
  8
FUTO
 10
13178.41352821186
 20
4790.2080357334289
 30
0.0
 11
13178.41352821186
 21
4590.2080357334289
 31
0.0
  0
LINE
  5
55BF
  8
FUTO
 10
12637.41352821186
 20
4562.2080357334289
 30
0.0
 11
12487.41352821186
 21
4562.2080357334289
 31
0.0
  0
LINE
  5
55C1
  8
FUTO
 10
12637.41352821186
 20
4562.2080357334289
 30
0.0
 11
12637.41352821186
 21
4522.2080357334289
 31
0.0
  0
LINE
  5
55C6
  8
FUTO
 10
12487.41352821186
 20
4562.2080357334289
 30
0.0
 11
12487.41352821186
 21
3650.2080357334289
 31
0.0
  0
LINE
  5
55CC
  8
FUTO
 10
12507.41352821186
 20
4570.2080357334289
 30
0.0
 11
12507.41352821186
 21
4562.2080357334289
 31
0.0
  0
LINE
  5
55CD
  8
FUTO
 10
12617.41352821186
 20
4570.2080357334289
 30
0.0
 11
12617.41352821186
 21
4562.2080357334289
 31
0.0
  0
LINE
  5
55DF
  8
FUTO
 10
13152.41352821186
 20
4532.2080357334289
 30
0.0
 11
13332.41352821186
 21
4532.2080357334289
 31
0.0
  0
LINE
  5
55E0
  8
FUTO
 10
13332.41352821186
 20
4532.2080357334289
 30
0.0
 11
13332.41352821186
 21
3650.2080357334289
 31
0.0
  0
LINE
  5
55E6
  8
FUTO
 10
13152.41352821186
 20
4532.2080357334289
 30
0.0
 11
13152.41352821186
 21
4522.2080357334289
 31
0.0
  0
LINE
  5
55ED
  8
FUTO
 10
13162.41352821186
 20
4540.2080357334289
 30
0.0
 11
13162.41352821186
 21
4532.2080357334289
 31
0.0
  0
LINE
  5
55EE
  8
FUTO
 10
13322.41352821186
 20
4540.2080357334289
 30
0.0
 11
13322.41352821186
 21
4532.2080357334289
 31
0.0
  0
LINE
  5
55F3
  8
FUTO
 10
13152.41352821186
 20
4522.2080357334289
 30
0.0
 11
12637.41352821186
 21
4522.2080357334289
 31
0.0
  0
LINE
  5
5600
  8
FUTO
 10
13385.21352821186
 20
4559.6585953569956
 30
0.0
 11
14701.613528211859
 21
4559.6585953569956
 31
0.0
  0
LINE
  5
5601
  8
FUTO
 10
13385.21352821186
 20
4541.6585953569956
 30
0.0
 11
14701.613528211859
 21
4541.6585953569956
 31
0.0
  0
LINE
  5
5602
  8
FUTO
 10
13385.21352821186
 20
4559.6585953569956
 30
0.0
 11
13385.21352821186
 21
4541.6585953569956
 31
0.0
  0
LINE
  5
5603
  8
FUTO
 10
13453.41352821185
 20
4647.2080357334289
 30
0.0
 11
13453.41352821185
 21
3650.2080357334289
 31
0.0
  0
LINE
  5
5604
  8
FUTO
 10
13450.21352821186
 20
4647.2080357334289
 30
0.0
 11
13450.21352821186
 21
3650.2080357334289
 31
0.0
  0
LINE
  5
5605
  8
FUTO
 10
14636.61352821185
 20
4647.2080357334289
 30
0.0
 11
14636.61352821185
 21
3650.2080357334289
 31
0.0
  0
LINE
  5
5606
  8
FUTO
 10
14633.41352821185
 20
4647.2080357334289
 30
0.0
 11
14633.41352821185
 21
3650.2080357334289
 31
0.0
  0
LINE
  5
5608
  8
FUTO
 10
14701.613528211859
 20
4559.6585953569984
 30
0.0
 11
14711.61352821185
 21
4569.6585953569993
 31
0.0
  0
LINE
  5
5609
  8
FUTO
 10
14701.613528211859
 20
4541.6585953569956
 30
0.0
 11
14711.613528211859
 21
4531.6585953569947
 31
0.0
  0
LINE
  5
560A
  8
FUTO
 10
14711.613528211859
 20
4670.2080357334289
 30
0.0
 11
14711.613528211859
 21
4569.6585953570002
 31
0.0
  0
LINE
  5
560B
  8
FUTO
 10
13385.21352821186
 20
4559.6585953569956
 30
0.0
 11
13375.21352821186
 21
4569.6585953569966
 31
0.0
  0
LINE
  5
560C
  8
FUTO
 10
13385.21352821186
 20
4541.6585953569956
 30
0.0
 11
13375.21352821186
 21
4531.6585953569966
 31
0.0
  0
LINE
  5
560D
  8
FUTO
 10
13375.21352821186
 20
4670.2080357334289
 30
0.0
 11
13375.21352821186
 21
4569.6585953569966
 31
0.0
  0
LINE
  5
560E
  8
SL
 10
12302.41352821186
 20
4985.208035733428
 30
0.0
 11
12302.41352821185
 21
3777.7080357334289
 31
0.0
  0
LINE
  5
560F
  8
SL
 10
12302.41352821186
 20
4985.208035733428
 30
0.0
 11
12380.31352821186
 21
4985.208035733428
 31
0.0
  0
LINE
  5
5610
  8
SL
 10
12302.41352821186
 20
4355.208035733428
 30
0.0
 11
12380.31352821186
 21
4355.208035733428
 31
0.0
  0
LINE
  5
5611
  8
SL
 10
12380.31352821186
 20
4985.208035733428
 30
0.0
 11
12380.31352821186
 21
4750.2080357334289
 31
0.0
  0
LINE
  5
5613
  8
SL
 10
12402.41352821186
 20
4750.2080357334289
 30
0.0
 11
12402.41352821186
 21
4590.2080357334289
 31
0.0
  0
LINE
  5
5614
  8
SL
 10
12380.31352821186
 20
4750.2080357334289
 30
0.0
 11
12402.41352821186
 21
4750.2080357334289
 31
0.0
  0
LINE
  5
5615
  8
SL
 10
12380.31352821186
 20
4590.2080357334289
 30
0.0
 11
12402.41352821186
 21
4590.2080357334289
 31
0.0
  0
LINE
  5
5616
  8
SL
 10
12380.31352821186
 20
4590.2080357334289
 30
0.0
 11
12380.31352821186
 21
4355.208035733428
 31
0.0
  0
LINE
  5
5617
  8
CT
 10
12140.82928423816
 20
3910.2080357334289
 30
0.0
 11
12479.41352821186
 21
3910.2080357334289
 31
0.0
  0
LINE
  5
5618
  8
SL
 10
12302.41352821185
 20
4042.7080357334289
 30
0.0
 11
12380.313528211849
 21
4042.7080357334289
 31
0.0
  0
LINE
  5
5619
  8
SL
 10
12302.41352821185
 20
3777.7080357334289
 30
0.0
 11
12380.313528211849
 21
3777.7080357334289
 31
0.0
  0
LINE
  5
561A
  8
SL
 10
12380.31352821186
 20
4985.208035733428
 30
0.0
 11
12380.313528211849
 21
3777.7080357334289
 31
0.0
  0
LINE
  5
561B
  8
SL
 10
12400.41352821185
 20
3980.2080357334289
 30
0.0
 11
12400.41352821185
 21
3840.2080357334289
 31
0.0
  0
LINE
  5
561C
  8
SL
 10
12380.313528211849
 20
3980.2080357334289
 30
0.0
 11
12400.41352821185
 21
3980.2080357334289
 31
0.0
  0
LINE
  5
561D
  8
SL
 10
12380.313528211849
 20
3840.2080357334289
 30
0.0
 11
12400.41352821185
 21
3840.2080357334289
 31
0.0
  0
LINE
  5
561E
  8
SL
 10
12380.313528211849
 20
3840.2080357334289
 30
0.0
 11
12380.313528211849
 21
3777.7080357334289
 31
0.0
  0
LINE
  5
561F
  8
FUTO
 10
12163.41352821186
 20
5050.2080357334298
 30
0.0
 11
12452.41352821186
 21
5050.2080357334298
 31
0.0
  0
LINE
  5
5620
  8
FUTO
 10
12163.41352821185
 20
3690.2080357334298
 30
0.0
 11
12452.41352821186
 21
3690.2080357334289
 31
0.0
  0
LINE
  5
5621
  8
FUTO
 10
12163.41352821186
 20
5050.2080357334298
 30
0.0
 11
12163.41352821185
 21
3690.2080357334298
 31
0.0
  0
LINE
  5
5622
  8
FUTO
 10
12452.41352821186
 20
5050.2080357334298
 30
0.0
 11
12452.41352821186
 21
3690.2080357334289
 31
0.0
  0
LINE
  5
5623
  8
FUTO
 10
12632.41352821186
 20
4720.2080357334289
 30
0.0
 11
13156.41352821185
 21
4720.2080357334289
 31
0.0
  0
LINE
  5
5624
  8
FUTO
 10
12632.41352821186
 20
4620.2080357334289
 30
0.0
 11
13156.41352821185
 21
4620.2080357334289
 31
0.0
  0
LINE
  5
5625
  8
KL
 10
13328.41352821186
 20
4720.2080357334289
 30
0.0
 11
13450.21352821186
 21
4720.2080357334289
 31
0.0
  0
LINE
  5
5626
  8
KL
 10
13328.41352821186
 20
4620.2080357334289
 30
0.0
 11
13450.21352821186
 21
4620.2080357334289
 31
0.0
  0
LINE
  5
5627
  8
FUTO
 10
12402.41352821186
 20
4712.7080357334289
 30
0.0
 11
12492.41352821186
 21
4712.7080357334289
 31
0.0
  0
LINE
  5
5628
  8
FUTO
 10
12402.41352821186
 20
4627.7080357334289
 30
0.0
 11
12492.41352821186
 21
4627.7080357334289
 31
0.0
  0
LINE
  5
5694
  8
FUTO
 10
8486.2067375961342
 20
7413.5725297649087
 30
0.0
 11
10661.206737596131
 21
7413.5725297649087
 31
0.0
  0
LINE
  5
5695
  8
FUTO
 10
9086.2067375961342
 20
9713.5725297649096
 30
0.0
 11
10986.206737596131
 21
9713.5725297649078
 31
0.0
  0
LINE
  5
5696
  8
FUTO
 10
10986.206737596131
 20
9713.5725297649078
 30
0.0
 11
10986.206737596131
 21
9688.5725297649078
 31
0.0
  0
LINE
  5
5699
  8
FUTO
 10
8665.2067375961342
 20
8450.5725297649078
 30
0.0
 11
10036.206737596131
 21
8450.5725297649078
 31
0.0
  0
LINE
  5
569A
  8
FUTO
 10
8486.2067375961342
 20
8375.5725297649078
 30
0.0
 11
10986.206737596131
 21
8375.5725297649078
 31
0.0
  0
LINE
  5
569B
  8
FUTO
 10
8486.2067375961342
 20
7488.5725297649078
 30
0.0
 11
10661.206737596131
 21
7488.5725297649078
 31
0.0
  0
LINE
  5
569C
  8
FUTO
 10
8665.2067375961342
 20
9638.5725297649115
 30
0.0
 11
10036.206737596131
 21
9638.5725297649078
 31
0.0
  0
LINE
  5
56A0
  8
FUTO
 10
10661.206737596131
 20
8375.5725297649078
 30
0.0
 11
10661.206737596131
 21
7413.5725297649087
 31
0.0
  0
LINE
  5
56A2
  8
FUTO
 10
10586.206737596131
 20
8375.5725297649078
 30
0.0
 11
10586.206737596131
 21
7488.5725297649078
 31
0.0
  0
LINE
  5
56A4
  8
FUTO
 10
9411.2067375961342
 20
8375.5725297649078
 30
0.0
 11
9411.2067375961342
 21
7488.5725297649078
 31
0.0
  0
LINE
  5
56A6
  8
FUTO
 10
9086.2067375961342
 20
9713.5725297649078
 30
0.0
 11
9086.2067375961342
 21
9688.5725297649078
 31
0.0
  0
LINE
  5
56A7
  8
FUTO
 10
9486.2067375961342
 20
8375.5725297649078
 30
0.0
 11
9486.2067375961342
 21
7488.5725297649078
 31
0.0
  0
LINE
  5
56A8
  8
FUTO
 10
8486.2067375961306
 20
8450.5725297649078
 30
0.0
 11
8486.2067375961342
 21
8375.5725297649078
 31
0.0
  0
LINE
  5
56A9
  8
FUTO
 10
8486.2067375961342
 20
7488.5725297649078
 30
0.0
 11
8486.2067375961342
 21
7413.5725297649087
 31
0.0
  0
LINE
  5
56AC
  8
FUTO
 10
8596.2067375961324
 20
8375.5725297649078
 30
0.0
 11
8596.2067375961324
 21
8051.1110873930638
 31
0.0
  0
LINE
  5
56AD
  8
FUTO
 10
8661.2067375961342
 20
8375.5725297649078
 30
0.0
 11
8661.2067375961342
 21
8103.072529764906
 31
0.0
  0
LINE
  5
56AE
  8
FUTO
 10
8911.2067375961342
 20
8375.5725297649078
 30
0.0
 11
8911.2067375961342
 21
8103.072529764906
 31
0.0
  0
LINE
  5
56AF
  8
FUTO
 10
8976.2067375961342
 20
8375.5725297649078
 30
0.0
 11
8976.2067375961342
 21
8043.9724927649058
 31
0.0
  0
LINE
  5
56B0
  8
CT
 10
8261.6202773167133
 20
9044.5725297649115
 30
0.0
 11
11386.722739526191
 21
9044.5725297649115
 31
0.0
  0
LINE
  5
69CC
  8
CT
 10
14613.41352821186
 20
5510.2080357334298
 30
0.0
 11
14656.61352821185
 21
5510.2080357334298
 31
0.0
  0
DIMENSION
  5
6A61
  8
SP
  2
*D3
 10
10036.206737596131
 20
3249.6957255503262
 30
0.0
 11
10511.206737596131
 21
3337.1957255503262
 31
0.0
 70
     0
 13
10986.206737596131
 23
3500.2080357334289
 33
0.0
 14
10036.206737596131
 24
3500.2080357334289
 34
0.0
 50
180.0
1001
ACAD
1000
DSTYLE
1002
{
1070
    40
1040
35.0
1070
   147
1040
1.0
1070
    41
1040
2.5
1002
}
  0
DIMENSION
  5
6A6E
  8
SP
  2
*D4
 10
8486.2067375961342
 20
3249.6957255503262
 30
0.0
 11
9261.2067375961342
 21
3337.1957255503262
 31
0.0
 70
     0
 13
10036.206737596131
 23
3500.2080357334289
 33
0.0
 14
8486.2067375961342
 24
3500.2080357334289
 34
0.0
 50
180.0
1001
ACAD
1000
DSTYLE
1002
{
1070
    40
1040
35.0
1070
   147
1040
1.0
1070
    41
1040
2.5
1002
}
  0
DIMENSION
  5
6A7B
  8
SP
  2
*D5
 10
8486.2067375961342
 20
2999.6079815526682
 30
0.0
 11
9736.2067375961342
 21
3087.1079815526682
 31
0.0
 70
     0
 13
10986.206737596131
 23
3500.2080357334289
 33
0.0
 14
8486.2067375961342
 24
3500.2080357334289
 34
0.0
 50
180.0
1001
ACAD
1000
DSTYLE
1002
{
1070
    40
1040
35.0
1070
   147
1040
1.0
1070
    41
1040
2.5
1002
}
  0
DIMENSION
  5
6A88
  8
SP
  2
*D6
 10
14043.41352821186
 20
3249.695702162488
 30
0.0
 11
13227.91352821186
 21
3337.195702162488
 31
0.0
 70
     0
 13
12412.41352821186
 23
3500.2080357334271
 33
0.0
 14
14043.41352821186
 24
3500.2080357334289
 34
0.0
1001
ACAD
1000
DSTYLE
1002
{
1070
    40
1040
35.0
1070
   147
1040
1.0
1070
    41
1040
2.5
1002
}
  0
DIMENSION
  5
6A95
  8
SP
  2
*D7
 10
14712.41352821186
 20
3249.695702162488
 30
0.0
 11
14377.91352821186
 21
3337.195702162488
 31
0.0
 70
     0
 13
14043.41352821186
 23
3500.2080357334289
 33
0.0
 14
14712.41352821186
 24
3500.2080357334271
 34
0.0
1001
ACAD
1000
DSTYLE
1002
{
1070
    40
1040
35.0
1070
   147
1040
1.0
1070
    41
1040
2.5
1002
}
  0
DIMENSION
  5
6AA2
  8
SP
  2
*D8
 10
14712.41352821186
 20
2999.6079581648301
 30
0.0
 11
13562.41352821186
 21
3087.1079581648301
 31
0.0
 70
     0
 13
12412.41352821186
 23
3500.2080357334271
 33
0.0
 14
14712.41352821186
 24
3500.2080357334271
 34
0.0
1001
ACAD
1000
DSTYLE
1002
{
1070
    40
1040
35.0
1070
   147
1040
1.0
1070
    41
1040
2.5
1002
}
  0
LINE
  5
6AB0
  8
SP
 10
14043.41352821186
 20
5992.4670378622768
 30
0.0
 11
14043.41352821186
 21
6027.4670378622768
 31
0.0
  0
LINE
  5
6ADF
  8
FUTO
 10
14768.41352821186
 20
5535.2080357334289
 30
0.0
 11
14768.41352821186
 21
3805.2080357334289
 31
0.0
  0
LINE
  5
6AE1
  8
KL
 10
14636.61352821185
 20
5470.2080357334289
 30
0.0
 11
14768.41352821186
 21
5470.2080357334289
 31
0.0
  0
LINE
  5
6AE5
  8
KL
 10
14636.61352821185
 20
5535.2080357334289
 30
0.0
 11
14642.613528211859
 21
5535.2080357334289
 31
0.0
  0
LINE
  5
6AE7
  8
FUTO
 10
14762.41352821186
 20
5535.2080357334289
 30
0.0
 11
14762.41352821186
 21
3805.2080357334289
 31
0.0
  0
LINE
  5
6AE8
  8
FUTO
 10
14711.61352821185
 20
5476.2080357334289
 30
0.0
 11
14762.41352821186
 21
5476.2080357334289
 31
0.0
  0
LINE
  5
6AEA
  8
KL
 10
14642.613528211859
 20
5535.2080357334289
 30
0.0
 11
14642.613528211859
 21
4679.2080357334289
 31
0.0
  0
LINE
  5
6AEB
  8
FUTO
 10
14762.41352821186
 20
5535.2080357334289
 30
0.0
 11
14768.41352821186
 21
5535.2080357334289
 31
0.0
  0
LINE
  5
6AEC
  8
CT
 10
14743.41352821186
 20
5510.2080357334298
 30
0.0
 11
14786.613528211859
 21
5510.2080357334298
 31
0.0
  0
LINE
  5
6AED
  8
KL
 10
14636.61352821185
 20
3870.2080357334289
 30
0.0
 11
14768.41352821186
 21
3870.2080357334289
 31
0.0
  0
LINE
  5
6AEE
  8
CT
 10
14613.41352821186
 20
3830.2080357334289
 30
0.0
 11
14656.61352821185
 21
3830.2080357334289
 31
0.0
  0
LINE
  5
6AEF
  8
KL
 10
14636.61352821185
 20
3805.2080357334289
 30
0.0
 11
14642.613528211859
 21
3805.2080357334289
 31
0.0
  0
LINE
  5
6AF0
  8
CT
 10
14743.41352821186
 20
3830.2080357334289
 30
0.0
 11
14786.613528211859
 21
3830.2080357334289
 31
0.0
  0
LINE
  5
6AF1
  8
FUTO
 10
14711.61352821185
 20
3864.2080357334289
 30
0.0
 11
14762.41352821186
 21
3864.2080357334289
 31
0.0
  0
LINE
  5
6AF2
  8
FUTO
 10
14762.41352821186
 20
3805.2080357334289
 30
0.0
 11
14768.41352821186
 21
3805.2080357334289
 31
0.0
  0
LINE
  5
6AF3
  8
KL
 10
14642.613528211859
 20
4661.2080357334289
 30
0.0
 11
14642.613528211859
 21
3805.2080357334289
 31
0.0
  0
DIMENSION
  5
6B00
  8
SP
  2
*D9
 10
14768.41352821186
 20
6676.7397936728203
 30
0.0
 11
14405.91352821186
 21
6764.2397936728203
 31
0.0
 70
     0
 13
14043.41352821186
 23
6630.7674141238513
 33
0.0
 14
14768.41352821186
 24
5520.7449093406531
 34
0.0
1001
ACAD
1000
DSTYLE
1002
{
1070
    40
1040
35.0
1070
   147
1040
1.0
1070
    41
1040
2.5
1002
}
  0
LINE
  5
6E16
  8
SL
 10
12653.63351426627
 20
4522.2080357334289
 30
0.0
 11
12653.63351426627
 21
4827.025394337019
 31
0.0
  0
LINE
  5
6E17
  8
SL
 10
12653.63351426627
 20
4827.025394337019
 30
0.0
 11
13139.58888669503
 21
4827.025394337019
 31
0.0
  0
LINE
  5
6E18
  8
SL
 10
13139.58888669503
 20
4827.025394337019
 30
0.0
 11
13139.58888669503
 21
4522.2080357334289
 31
0.0
  0
INSERT
  5
6E51
  8
FUTO
  2
右回転矢印
 10
10246.712437367411
 20
5283.0093599806678
 30
0.0
 41
35.0
 42
35.0
 43
35.0
  0
INSERT
  5
6EE2
  8
FUTO
  2
まっすぐの矢印
 10
11312.09326133996
 20
5067.1255364040253
 30
0.0
 41
-35.0
 42
35.0
 43
35.0
 50
270.0
  0
INSERT
  5
6EEC
  8
FUTO
  2
まっすぐの矢印
 10
14814.88150778301
 20
5197.9097360769929
 30
0.0
 41
35.0
 42
35.0
 43
35.0
 50
90.0
  0
DIMENSION
  5
6F64
  8
SP
  2
*D10
 10
15047.606929413731
 20
3870.2080357334289
 30
0.0
 11
14960.106929413731
 21
4670.2080357334307
 31
0.0
 70
     0
 13
14768.41352821186
 23
5470.2080357334289
 33
0.0
 14
14768.41352821186
 24
3870.2080357334289
 34
0.0
 50
90.0
1001
ACAD
1000
DSTYLE
1002
{
1070
    40
1040
35.0
1070
     3
1000
φ<>
1070
   147
1040
1.0
1070
    41
1040
2.5
1002
}
  0
DIMENSION
  5
6FB2
  8
SP
  2
*D11
 10
14043.41352821186
 20
6676.7397936728203
 30
0.0
 11
13103.41352821186
 21
6764.2397936728203
 31
0.0
 70
     0
 13
12163.41352821186
 23
5035.4766270463024
 33
0.0
 14
14043.41352821186
 24
6676.7397936728203
 34
0.0
1001
ACAD
1000
DSTYLE
1002
{
1070
    40
1040
35.0
1070
    41
1040
2.5
1070
   147
1040
1.0
1002
}
  0
LINE
  5
6FD7
  8
CT
 10
10036.206737596131
 20
7050.7093329792006
 30
0.0
 11
10036.206737596131
 21
9814.3504415817733
 31
0.0
  0
LINE
  5
6FDA
  8
FUTO
 10
10416.206737596131
 20
7164.5725297649096
 30
0.0
 11
8582.7067375961342
 21
7164.5725297649069
 31
0.0
  0
LINE
  5
6FDB
  8
FUTO
 10
10416.206737596131
 20
7453.5725297649087
 30
0.0
 11
8582.7067375961342
 21
7453.5725297649124
 31
0.0
  0
LINE
  5
6FDC
  8
SL
 10
10351.206737596131
 20
7381.472529764912
 30
0.0
 11
8918.7067375961342
 21
7381.4725297649056
 31
0.0
  0
LINE
  5
6FDD
  8
SL
 10
10351.206737596131
 20
7303.5725297649115
 30
0.0
 11
8653.7067375961342
 21
7303.572529764906
 31
0.0
  0
LINE
  5
6FE5
  8
SL
 10
8918.7067375961306
 20
7401.5725297649051
 30
0.0
 11
8653.7067375961342
 21
7401.5725297649051
 31
0.0
  0
LINE
  5
6FE8
  8
FUTO
 10
10416.206737596131
 20
7164.5725297649087
 30
0.0
 11
10416.206737596131
 21
7453.5725297649087
 31
0.0
  0
LINE
  5
6FE9
  8
SL
 10
9956.2067375961342
 20
7381.4725297649093
 30
0.0
 11
9956.2067375961342
 21
7403.5725297649087
 31
0.0
  0
LINE
  5
6FEA
  8
SL
 10
10116.206737596131
 20
7381.4725297649102
 30
0.0
 11
10116.206737596131
 21
7403.5725297649087
 31
0.0
  0
LINE
  5
6FEB
  8
SL
 10
10351.206737596131
 20
7381.472529764912
 30
0.0
 11
10116.206737596131
 21
7381.4725297649102
 31
0.0
  0
LINE
  5
6FEC
  8
SL
 10
9956.2067375961342
 20
7381.4725297649102
 30
0.0
 11
9721.2067375961324
 21
7381.4725297649093
 31
0.0
  0
LINE
  5
6FED
  8
SL
 10
9721.2067375961324
 20
7303.5725297649096
 30
0.0
 11
9721.2067375961324
 21
7381.4725297649093
 31
0.0
  0
LINE
  5
6FEE
  8
SL
 10
10351.206737596131
 20
7303.5725297649115
 30
0.0
 11
10351.206737596131
 21
7381.472529764912
 31
0.0
  0
LINE
  5
6FF1
  8
FUTO
 10
9986.2067375961342
 20
7633.5725297649087
 30
0.0
 11
9986.2067375961342
 21
8157.5725297649087
 31
0.0
  0
LINE
  5
6FF2
  8
FUTO
 10
10086.206737596131
 20
7633.5725297649087
 30
0.0
 11
10086.206737596131
 21
8157.5725297649087
 31
0.0
  0
LINE
  5
6FF5
  8
CT
 10
10196.573695632091
 20
7563.5725297649096
 30
0.0
 11
9864.5276468586017
 21
7563.5725297649096
 31
0.0
  0
LINE
  5
6FF6
  8
FUTO
 10
10136.206737596131
 20
7513.5725297649096
 30
0.0
 11
9936.2067375961342
 21
7513.5725297649096
 31
0.0
  0
ARC
  5
6FF7
  8
FUTO
 10
9947.2067375961342
 20
7504.5725297649096
 30
0.0
 40
6.0
 50
180.0
 51
270.0
  0
LINE
  5
6FF8
  8
FUTO
 10
9936.2067375961342
 20
7613.5725297649096
 30
0.0
 11
10136.206737596131
 21
7613.5725297649096
 31
0.0
  0
ARC
  5
6FF9
  8
FUTO
 10
9947.2067375961342
 20
7622.5725297649087
 30
0.0
 40
6.0
 50
90.0
 51
180.0
  0
LINE
  5
6FFD
  8
FUTO
 10
9941.2067375961342
 20
7504.5725297649078
 30
0.0
 11
9941.2067375961342
 21
7513.5725297649096
 31
0.0
  0
LINE
  5
7000
  8
FUTO
 10
9941.2067375961342
 20
7622.5725297649087
 30
0.0
 11
9941.2067375961342
 21
7613.5725297649096
 31
0.0
  0
ARC
  5
7001
  8
FUTO
 10
10125.206737596131
 20
7504.5725297649096
 30
0.0
 40
6.0
 50
270.0
 51
0.000000000000007
  0
ARC
  5
7002
  8
FUTO
 10
10125.206737596131
 20
7622.5725297649087
 30
0.0
 40
6.0
 50
0.000000000000007
 51
90.0
  0
LINE
  5
7004
  8
FUTO
 10
9993.7067375961342
 20
7403.5725297649087
 30
0.0
 11
9993.7067375961342
 21
7493.5725297649096
 31
0.0
  0
LINE
  5
7005
  8
FUTO
 10
10078.706737596131
 20
7403.5725297649087
 30
0.0
 11
10078.706737596131
 21
7493.5725297649096
 31
0.0
  0
LINE
  5
7006
  8
SL
 10
10116.206737596131
 20
7403.5725297649087
 30
0.0
 11
9956.2067375961342
 21
7403.5725297649087
 31
0.0
  0
LINE
  5
7007
  8
FUTO
 10
10116.206737596131
 20
7493.5725297649096
 30
0.0
 11
9956.2067375961342
 21
7493.5725297649096
 31
0.0
  0
LINE
  5
7008
  8
FUTO
 10
10125.206737596131
 20
7498.5725297649078
 30
0.0
 11
9947.2067375961342
 21
7498.5725297649078
 31
0.0
  0
LINE
  5
7009
  8
FUTO
 10
9956.2067375961342
 20
7493.5725297649096
 30
0.0
 11
9956.2067375961342
 21
7498.5725297649096
 31
0.0
  0
LINE
  5
700B
  8
FUTO
 10
10116.206737596131
 20
7498.5725297649096
 30
0.0
 11
10116.206737596131
 21
7493.5725297649096
 31
0.0
  0
LINE
  5
700C
  8
FUTO
 10
10125.206737596131
 20
7628.5725297649087
 30
0.0
 11
9947.2067375961342
 21
7628.5725297649087
 31
0.0
  0
LINE
  5
700D
  8
FUTO
 10
10116.206737596131
 20
7633.5725297649087
 30
0.0
 11
9956.2067375961342
 21
7633.5725297649087
 31
0.0
  0
LINE
  5
700F
  8
FUTO
 10
9956.2067375961342
 20
7633.5725297649087
 30
0.0
 11
9956.2067375961342
 21
7628.5725297649087
 31
0.0
  0
LINE
  5
7010
  8
FUTO
 10
10116.206737596131
 20
7628.5725297649087
 30
0.0
 11
10116.206737596131
 21
7633.5725297649087
 31
0.0
  0
LINE
  5
7011
  8
FUTO
 10
10136.206737596131
 20
7613.5725297649096
 30
0.0
 11
10136.206737596131
 21
7513.5725297649096
 31
0.0
  0
LINE
  5
7012
  8
FUTO
 10
10131.206737596131
 20
7513.5725297649096
 30
0.0
 11
10131.206737596131
 21
7504.5725297649078
 31
0.0
  0
LINE
  5
7013
  8
FUTO
 10
10131.206737596131
 20
7613.5725297649096
 30
0.0
 11
10131.206737596131
 21
7622.5725297649087
 31
0.0
  0
LINE
  5
7015
  8
FUTO
 10
10156.206737596131
 20
8165.5725297649096
 30
0.0
 11
9916.2067375961342
 21
8165.5725297649096
 31
0.0
  0
LINE
  5
7016
  8
FUTO
 10
10156.206737596131
 20
8321.5725297649096
 30
0.0
 11
9916.2067375961342
 21
8321.5725297649096
 31
0.0
  0
LINE
  5
7018
  8
FUTO
 10
9956.2067375961342
 20
8157.5725297649115
 30
0.0
 11
9936.2067375961342
 21
8165.5725297649096
 31
0.0
  0
LINE
  5
701A
  8
FUTO
 10
9956.2067375961342
 20
8329.5725297649096
 30
0.0
 11
9936.2067375961342
 21
8321.5725297649096
 31
0.0
  0
LINE
  5
701D
  8
CT
 10
10196.573695632091
 20
8243.5725297649096
 30
0.0
 11
9864.5276468586017
 21
8243.5725297649096
 31
0.0
  0
LINE
  5
7022
  8
FUTO
 10
9916.2067375961342
 20
8165.5725297649096
 30
0.0
 11
9916.2067375961342
 21
8173.5725297649087
 31
0.0
  0
LINE
  5
7024
  8
FUTO
 10
9916.2067375961342
 20
8321.5725297649096
 30
0.0
 11
9916.2067375961342
 21
8313.5725297649096
 31
0.0
  0
LINE
  5
7026
  8
FUTO
 10
10169.206737596131
 20
8189.5725297649087
 30
0.0
 11
10169.206737596131
 21
8297.5725297649096
 31
0.0
  0
LINE
  5
7027
  8
FUTO
 10
10156.206737596131
 20
8179.5725297649087
 30
0.0
 11
9916.2067375961342
 21
8179.5725297649087
 31
0.0
  0
LINE
  5
7028
  8
FUTO
 10
10116.206737596131
 20
8157.5725297649115
 30
0.0
 11
10136.206737596131
 21
8165.5725297649096
 31
0.0
  0
LINE
  5
7029
  8
FUTO
 10
10169.206737596131
 20
8216.0725297649096
 30
0.0
 11
9903.206737596136
 21
8216.0725297649096
 31
0.0
  0
LINE
  5
702A
  8
FUTO
 10
10116.206737596131
 20
8157.5725297649115
 30
0.0
 11
9956.2067375961342
 21
8157.5725297649115
 31
0.0
  0
LINE
  5
702C
  8
FUTO
 10
10156.206737596131
 20
8165.5725297649096
 30
0.0
 11
10156.206737596131
 21
8179.5725297649087
 31
0.0
  0
LINE
  5
702D
  8
FUTO
 10
10169.206737596131
 20
8189.5725297649087
 30
0.0
 11
10156.206737596131
 21
8189.5725297649087
 31
0.0
  0
LINE
  5
702E
  8
FUTO
 10
10156.206737596131
 20
8179.5725297649087
 30
0.0
 11
10156.206737596131
 21
8216.0725297649096
 31
0.0
  0
LINE
  5
702F
  8
FUTO
 10
10156.206737596131
 20
8307.5725297649096
 30
0.0
 11
9956.2067375961342
 21
8307.5725297649096
 31
0.0
  0
LINE
  5
7030
  8
FUTO
 10
10116.206737596131
 20
8329.5725297649096
 30
0.0
 11
10136.206737596131
 21
8321.5725297649096
 31
0.0
  0
LINE
  5
7031
  8
FUTO
 10
10156.206737596131
 20
8307.5725297649096
 30
0.0
 11
9916.2067375961342
 21
8307.5725297649096
 31
0.0
  0
LINE
  5
7032
  8
FUTO
 10
10169.206737596131
 20
8271.0725297649096
 30
0.0
 11
9903.206737596136
 21
8271.0725297649096
 31
0.0
  0
LINE
  5
7033
  8
KL
 10
9986.2067375961342
 20
8329.5725297649096
 30
0.0
 11
9986.2067375961342
 21
8451.3725297649107
 31
0.0
  0
LINE
  5
7034
  8
KL
 10
10086.206737596131
 20
8329.5725297649096
 30
0.0
 11
10086.206737596131
 21
8451.3725297649089
 31
0.0
  0
LINE
  5
7035
  8
FUTO
 10
10116.206737596131
 20
8329.5725297649096
 30
0.0
 11
9956.2067375961342
 21
8329.5725297649096
 31
0.0
  0
LINE
  5
703A
  8
FUTO
 10
10169.206737596131
 20
8297.5725297649096
 30
0.0
 11
10156.206737596131
 21
8297.5725297649096
 31
0.0
  0
LINE
  5
703B
  8
FUTO
 10
10156.206737596131
 20
8321.5725297649096
 30
0.0
 11
10156.206737596131
 21
8307.5725297649096
 31
0.0
  0
LINE
  5
703C
  8
FUTO
 10
10156.206737596131
 20
8271.0725297649096
 30
0.0
 11
10156.206737596131
 21
8307.5725297649096
 31
0.0
  0
LINE
  5
703F
  8
KL
 10
10027.206737596131
 20
9643.7725297649085
 30
0.0
 11
9171.2067375961342
 21
9643.7725297649085
 31
0.0
  0
LINE
  5
7040
  8
FUTO
 10
10901.206737596131
 20
9763.5725297649096
 30
0.0
 11
9171.2067375961342
 21
9763.5725297649096
 31
0.0
  0
LINE
  5
7041
  8
FUTO
 10
10901.206737596131
 20
9769.5725297649115
 30
0.0
 11
9171.2067375961342
 21
9769.5725297649115
 31
0.0
  0
LINE
  5
7045
  8
KL
 10
9171.2067375961342
 20
9637.7725297649085
 30
0.0
 11
9171.2067375961342
 21
9643.7725297649085
 31
0.0
  0
LINE
  5
7046
  8
FUTO
 10
9171.2067375961342
 20
9763.5725297649096
 30
0.0
 11
9171.2067375961342
 21
9769.5725297649115
 31
0.0
  0
LINE
  5
7047
  8
FUTO
 10
9230.2067375961342
 20
9712.7725297649104
 30
0.0
 11
9230.2067375961342
 21
9763.5725297649096
 31
0.0
  0
LINE
  5
7048
  8
KL
 10
9236.2067375961342
 20
9637.7725297649085
 30
0.0
 11
9236.2067375961342
 21
9769.5725297649115
 31
0.0
  0
LINE
  5
7049
  8
CT
 10
9196.2067375961324
 20
9614.5725297649096
 30
0.0
 11
9196.2067375961324
 21
9657.7725297649085
 31
0.0
  0
LINE
  5
704A
  8
CT
 10
9196.2067375961324
 20
9744.5725297649096
 30
0.0
 11
9196.2067375961324
 21
9787.7725297649085
 31
0.0
  0
LINE
  5
704E
  8
KL
 10
10901.206737596131
 20
9643.7725297649085
 30
0.0
 11
10045.206737596131
 21
9643.7725297649085
 31
0.0
  0
INSERT
  5
7052
  8
FUTO
  2
まっすぐの矢印
 10
10293.0679898871
 20
9816.0405093360696
 30
0.0
 41
-35.0
 42
35.0
 43
35.0
 50
180.0
  0
LINE
  5
7053
  8
FUTO
 10
10842.206737596131
 20
9712.7725297649104
 30
0.0
 11
10842.206737596131
 21
9763.5725297649096
 31
0.0
  0
LINE
  5
7054
  8
KL
 10
10836.206737596131
 20
9637.7725297649085
 30
0.0
 11
10836.206737596131
 21
9769.5725297649115
 31
0.0
  0
LINE
  5
7055
  8
CT
 10
10876.206737596131
 20
9614.5725297649096
 30
0.0
 11
10876.206737596131
 21
9657.7725297649085
 31
0.0
  0
LINE
  5
7056
  8
CT
 10
10876.206737596131
 20
9744.5725297649096
 30
0.0
 11
10876.206737596131
 21
9787.7725297649085
 31
0.0
  0
LINE
  5
7057
  8
KL
 10
10901.206737596131
 20
9637.7725297649085
 30
0.0
 11
10901.206737596131
 21
9643.7725297649085
 31
0.0
  0
LINE
  5
7058
  8
FUTO
 10
10901.206737596131
 20
9763.5725297649096
 30
0.0
 11
10901.206737596131
 21
9769.5725297649115
 31
0.0
  0
LINE
  5
7096
  8
FUTO
 10
9936.2067375961342
 20
7613.5725297649096
 30
0.0
 11
9936.2067375961342
 21
7513.5725297649096
 31
0.0
  0
LINE
  5
7097
  8
FUTO
 10
9903.206737596136
 20
8189.5725297649087
 30
0.0
 11
9903.206737596136
 21
8297.5725297649096
 31
0.0
  0
LINE
  5
7098
  8
FUTO
 10
9916.2067375961342
 20
8179.5725297649087
 30
0.0
 11
9916.2067375961342
 21
8216.0725297649096
 31
0.0
  0
LINE
  5
7099
  8
FUTO
 10
9903.206737596136
 20
8189.5725297649087
 30
0.0
 11
9916.2067375961342
 21
8189.5725297649087
 31
0.0
  0
LINE
  5
709A
  8
FUTO
 10
9916.2067375961342
 20
8165.5725297649096
 30
0.0
 11
9916.2067375961342
 21
8179.5725297649087
 31
0.0
  0
LINE
  5
709B
  8
FUTO
 10
9916.2067375961342
 20
8271.0725297649096
 30
0.0
 11
9916.2067375961342
 21
8307.5725297649096
 31
0.0
  0
LINE
  5
709C
  8
FUTO
 10
9916.2067375961342
 20
8321.5725297649096
 30
0.0
 11
9916.2067375961342
 21
8307.5725297649096
 31
0.0
  0
LINE
  5
709D
  8
FUTO
 10
9903.206737596136
 20
8297.5725297649096
 30
0.0
 11
9916.2067375961342
 21
8297.5725297649096
 31
0.0
  0
ARC
  5
7D1A
  8
FUTO
 10
8786.2067375961342
 20
7404.5725297649051
 30
0.0
 40
9.0
 50
0.000000000000007
 51
180.0
  0
LINE
  5
7D1B
  8
FUTO
 10
8777.2067375961342
 20
7303.572529764906
 30
0.0
 11
8777.2067375961342
 21
7404.5725297649051
 31
0.0
  0
LINE
  5
7D1C
  8
FUTO
 10
8795.2067375961342
 20
7303.572529764906
 30
0.0
 11
8795.2067375961342
 21
7404.5725297649051
 31
0.0
  0
LINE
  5
7D1D
  8
FUTO
 10
8529.206798596133
 20
7818.0724687649063
 30
0.0
 11
8529.206798596133
 21
7854.0725297649069
 31
0.0
  0
LINE
  5
7D1E
  8
FUTO
 10
8526.206798596133
 20
7818.0724687649063
 30
0.0
 11
8526.206798596133
 21
7854.0725297649069
 31
0.0
  0
LINE
  5
7D1F
  8
FUTO
 10
8534.2067985961348
 20
7818.0724687649063
 30
0.0
 11
8534.2067985961348
 21
7865.0725297649078
 31
0.0
  0
LINE
  5
7D20
  8
FUTO
 10
8576.2067375961342
 20
7479.072529764906
 30
0.0
 11
8576.2067375961342
 21
7525.9475297649069
 31
0.0
  0
LINE
  5
7D21
  8
FUTO
 10
8628.5151026006097
 20
7474.0725297649069
 30
0.0
 11
8581.2067375961342
 21
7474.0725297649069
 31
0.0
  0
ARC
  5
7D22
  8
FUTO
 10
8581.2067375961342
 20
7479.072529764906
 30
0.0
 40
5.0
 50
180.0
 51
270.0
  0
LINE
  5
7D23
  8
FUTO
 10
8596.5253923777054
 20
7525.9475297649069
 30
0.0
 11
8576.2067375961342
 21
7525.947529764906
 31
0.0
  0
LINE
  5
7D24
  8
FUTO
 10
8576.2067375961342
 20
7524.072529764906
 30
0.0
 11
8529.206798596133
 21
7524.072529764906
 31
0.0
  0
LINE
  5
7D25
  8
FUTO
 10
8576.2067375961342
 20
7521.072529764906
 30
0.0
 11
8526.206798596133
 21
7521.0725297649069
 31
0.0
  0
LINE
  5
7D26
  8
FUTO
 10
8596.4162640278519
 20
7529.0725297649069
 30
0.0
 11
8534.2067985961348
 21
7529.0725297649069
 31
0.0
  0
LINE
  5
7D27
  8
FUTO
 10
8534.2067985961348
 20
7529.0725297649069
 30
0.0
 11
8529.206798596133
 21
7524.072529764906
 31
0.0
  0
LINE
  5
7D28
  8
FUTO
 10
8501.2067985961348
 20
7564.072529764906
 30
0.0
 11
8501.2067985961348
 21
7604.0725297649069
 31
0.0
  0
LINE
  5
7D29
  8
FUTO
 10
8531.2067985961348
 20
7564.072529764906
 30
0.0
 11
8531.2067985961348
 21
7604.0725297649069
 31
0.0
  0
LINE
  5
7D2A
  8
FUTO
 10
8501.2067985961348
 20
7604.072529764906
 30
0.0
 11
8531.2067985961348
 21
7604.0725297649069
 31
0.0
  0
LINE
  5
7D2B
  8
FUTO
 10
8531.2067985961348
 20
7564.072529764906
 30
0.0
 11
8501.2067985961348
 21
7564.072529764906
 31
0.0
  0
LINE
  5
7D2C
  8
CT
 10
8582.7067375961342
 20
7584.072529764906
 30
0.0
 11
8415.1523555961339
 21
7584.0725297649069
 31
0.0
  0
LINE
  5
7D2D
  8
FUTO
 10
8426.7523305961331
 20
7601.662373764907
 30
0.0
 11
8438.8523065961344
 21
7601.662373764907
 31
0.0
  0
LINE
  5
7D2E
  8
FUTO
 10
8426.7523305961331
 20
7566.4826867649062
 30
0.0
 11
8438.8523065961344
 21
7566.4826867649062
 31
0.0
  0
LINE
  5
7D2F
  8
FUTO
 10
8426.7523305961331
 20
7593.7776077649069
 30
0.0
 11
8438.8523065961344
 21
7593.7776077649069
 31
0.0
  0
LINE
  5
7D30
  8
FUTO
 10
8426.7523305961331
 20
7574.367451764906
 30
0.0
 11
8438.8523065961344
 21
7574.367451764906
 31
0.0
  0
LINE
  5
7D31
  8
FUTO
 10
8425.1523555961339
 20
7600.0627647649062
 30
0.0
 11
8425.1523555961339
 21
7568.0832717649073
 31
0.0
  0
LINE
  5
7D32
  8
FUTO
 10
8426.7523305961331
 20
7566.4826867649062
 30
0.0
 11
8425.1523555961339
 21
7568.0832717649073
 31
0.0
  0
LINE
  5
7D33
  8
FUTO
 10
8426.7523305961331
 20
7574.367451764906
 30
0.0
 11
8425.1523555961339
 21
7572.7678427649071
 31
0.0
  0
LINE
  5
7D34
  8
FUTO
 10
8426.7523305961331
 20
7574.367451764906
 30
0.0
 11
8425.1523555961339
 21
7575.9680377649056
 31
0.0
  0
LINE
  5
7D35
  8
FUTO
 10
8425.1523555961339
 20
7600.0627647649062
 30
0.0
 11
8426.7523305961331
 21
7601.662373764907
 31
0.0
  0
LINE
  5
7D36
  8
FUTO
 10
8426.7523305961331
 20
7593.7776077649069
 30
0.0
 11
8425.1523555961339
 21
7595.3781937649073
 31
0.0
  0
LINE
  5
7D37
  8
FUTO
 10
8426.7523305961331
 20
7593.7776077649069
 30
0.0
 11
8425.1523555961339
 21
7592.177998764907
 31
0.0
  0
LINE
  5
7D38
  8
FUTO
 10
8438.8523065961344
 20
7601.662373764907
 30
0.0
 11
8438.8523065961344
 21
7566.4826867649062
 31
0.0
  0
LINE
  5
7D39
  8
FUTO
 10
8438.8523065961344
 20
7575.0725297649069
 30
0.0
 11
8501.2067985961348
 21
7575.0725297649069
 31
0.0
  0
LINE
  5
7D3A
  8
HOSO
 10
8501.2067985961348
 20
7577.0725297649078
 30
0.0
 11
8438.8522455961338
 21
7577.072529764906
 31
0.0
  0
LINE
  5
7D3B
  8
HOSO
 10
8438.8523065961344
 20
7591.0725297649069
 30
0.0
 11
8501.2067985961348
 21
7591.0725297649069
 31
0.0
  0
LINE
  5
7D3C
  8
FUTO
 10
8501.2067985961348
 20
7593.0725297649069
 30
0.0
 11
8438.8522455961338
 21
7593.0725297649069
 31
0.0
  0
LINE
  5
7D3D
  8
FUTO
 10
8531.2067985961348
 20
7575.072529764906
 30
0.0
 11
8582.7067375961342
 21
7575.0725297649069
 31
0.0
  0
LINE
  5
7D3E
  8
HOSO
 10
8582.7067375961342
 20
7577.072529764906
 30
0.0
 11
8531.2067985961348
 21
7577.072529764906
 31
0.0
  0
LINE
  5
7D3F
  8
FUTO
 10
8582.7067375961342
 20
7593.072529764906
 30
0.0
 11
8531.2067985961348
 21
7593.0725297649069
 31
0.0
  0
LINE
  5
7D40
  8
HOSO
 10
8531.2067985961348
 20
7591.0725297649069
 30
0.0
 11
8582.7067375961342
 21
7591.0725297649069
 31
0.0
  0
LINE
  5
7D41
  8
FUTO
 10
8526.206798596133
 20
7521.0725297649069
 30
0.0
 11
8526.206798596133
 21
7564.072529764906
 31
0.0
  0
LINE
  5
7D42
  8
FUTO
 10
8529.206798596133
 20
7524.072529764906
 30
0.0
 11
8529.206798596133
 21
7564.072529764906
 31
0.0
  0
LINE
  5
7D43
  8
FUTO
 10
8534.2067985961348
 20
7529.0725297649069
 30
0.0
 11
8534.2067985961348
 21
7575.072529764906
 31
0.0
  0
LINE
  5
7D44
  8
FUTO
 10
8526.206798596133
 20
7604.0725297649069
 30
0.0
 11
8526.206798596133
 21
7640.072529764906
 31
0.0
  0
LINE
  5
7D45
  8
FUTO
 10
8529.206798596133
 20
7604.0725297649069
 30
0.0
 11
8529.206798596133
 21
7640.072529764906
 31
0.0
  0
LINE
  5
7D46
  8
FUTO
 10
8534.2067985961348
 20
7593.0725297649069
 30
0.0
 11
8534.2067985961348
 21
7640.072529764906
 31
0.0
  0
LINE
  5
7D47
  8
FUTO
 10
8501.2067985961348
 20
7865.0725297649078
 30
0.0
 11
8438.8522455961338
 21
7865.0725297649078
 31
0.0
  0
LINE
  5
7D48
  8
HOSO
 10
8438.8523065961344
 20
7867.0725297649069
 30
0.0
 11
8501.2067985961348
 21
7867.0725297649069
 31
0.0
  0
LINE
  5
7D49
  8
HOSO
 10
8501.2067985961348
 20
7881.072529764906
 30
0.0
 11
8438.8522455961338
 21
7881.0725297649069
 31
0.0
  0
LINE
  5
7D4A
  8
FUTO
 10
8438.8523065961344
 20
7883.072529764906
 30
0.0
 11
8501.2067985961348
 21
7883.072529764906
 31
0.0
  0
LINE
  5
7D4B
  8
FUTO
 10
8438.8523065961344
 20
7856.4826857649059
 30
0.0
 11
8438.8523065961344
 21
7891.6623727649066
 31
0.0
  0
LINE
  5
7D4C
  8
FUTO
 10
8426.7523305961331
 20
7864.3674517649069
 30
0.0
 11
8425.1523555961339
 21
7865.9670607649077
 31
0.0
  0
LINE
  5
7D4D
  8
FUTO
 10
8426.7523305961331
 20
7864.3674517649069
 30
0.0
 11
8425.1523555961339
 21
7862.7668657649074
 31
0.0
  0
LINE
  5
7D4E
  8
FUTO
 10
8425.1523555961339
 20
7858.0822947649067
 30
0.0
 11
8426.7523305961331
 21
7856.4826857649059
 31
0.0
  0
LINE
  5
7D4F
  8
FUTO
 10
8426.7523305961331
 20
7883.7776077649069
 30
0.0
 11
8425.1523555961339
 21
7882.1770217649073
 31
0.0
  0
LINE
  5
7D50
  8
FUTO
 10
8426.7523305961331
 20
7883.7776077649069
 30
0.0
 11
8425.1523555961339
 21
7885.3772167649067
 31
0.0
  0
LINE
  5
7D51
  8
FUTO
 10
8426.7523305961331
 20
7891.6623727649066
 30
0.0
 11
8425.1523555961339
 21
7890.0617877649056
 31
0.0
  0
LINE
  5
7D52
  8
FUTO
 10
8425.1523555961339
 20
7858.0822947649067
 30
0.0
 11
8425.1523555961339
 21
7890.0617877649056
 31
0.0
  0
LINE
  5
7D53
  8
FUTO
 10
8426.7523305961331
 20
7883.7776077649069
 30
0.0
 11
8438.8523065961344
 21
7883.7776077649069
 31
0.0
  0
LINE
  5
7D54
  8
FUTO
 10
8426.7523305961331
 20
7864.3674517649069
 30
0.0
 11
8438.8523065961344
 21
7864.3674517649069
 31
0.0
  0
LINE
  5
7D55
  8
FUTO
 10
8426.7523305961331
 20
7891.6623727649066
 30
0.0
 11
8438.8523065961344
 21
7891.6623727649066
 31
0.0
  0
LINE
  5
7D56
  8
FUTO
 10
8426.7523305961331
 20
7856.4826857649059
 30
0.0
 11
8438.8523065961344
 21
7856.4826857649059
 31
0.0
  0
LINE
  5
7D57
  8
FUTO
 10
8531.2067985961348
 20
7894.0725297649069
 30
0.0
 11
8501.2067985961348
 21
7894.0725297649069
 31
0.0
  0
LINE
  5
7D58
  8
FUTO
 10
8501.2067985961348
 20
7854.0725297649069
 30
0.0
 11
8531.2067985961348
 21
7854.0725297649069
 31
0.0
  0
LINE
  5
7D59
  8
FUTO
 10
8531.2067985961348
 20
7894.0725297649069
 30
0.0
 11
8531.2067985961348
 21
7854.0725297649069
 31
0.0
  0
LINE
  5
7D5A
  8
FUTO
 10
8501.2067985961348
 20
7894.0725297649078
 30
0.0
 11
8501.2067985961348
 21
7854.0725297649069
 31
0.0
  0
LINE
  5
7D5B
  8
HOSO
 10
8531.2067985961348
 20
7867.0725297649069
 30
0.0
 11
8582.7067375961342
 21
7867.072529764906
 31
0.0
  0
LINE
  5
7D5C
  8
FUTO
 10
8582.7067375961342
 20
7865.072529764906
 30
0.0
 11
8531.2067985961348
 21
7865.0725297649078
 31
0.0
  0
LINE
  5
7D5D
  8
HOSO
 10
8582.7067375961342
 20
7881.072529764906
 30
0.0
 11
8531.2067985961348
 21
7881.0725297649069
 31
0.0
  0
LINE
  5
7D5E
  8
FUTO
 10
8531.2067985961348
 20
7883.072529764906
 30
0.0
 11
8582.7067375961342
 21
7883.072529764906
 31
0.0
  0
LINE
  5
7D5F
  8
CT
 10
8582.7067375961342
 20
7874.072529764906
 30
0.0
 11
8415.1523555961339
 21
7874.072529764906
 31
0.0
  0
LINE
  5
7D60
  8
FUTO
 10
8534.2067985961348
 20
7929.0725297649078
 30
0.0
 11
8529.206798596133
 21
7934.0725297649069
 31
0.0
  0
LINE
  5
7D61
  8
FUTO
 10
8576.2067375961342
 20
7937.072529764906
 30
0.0
 11
8526.206798596133
 21
7937.0725297649078
 31
0.0
  0
LINE
  5
7D62
  8
FUTO
 10
8576.2067375961342
 20
7934.072529764906
 30
0.0
 11
8529.206798596133
 21
7934.0725297649069
 31
0.0
  0
LINE
  5
7D63
  8
FUTO
 10
8582.7067375961342
 20
7932.197529764906
 30
0.0
 11
8576.2067375961342
 21
7932.197529764906
 31
0.0
  0
LINE
  5
7D64
  8
FUTO
 10
8582.7067375961342
 20
7929.072529764906
 30
0.0
 11
8534.2067985961348
 21
7929.0725297649078
 31
0.0
  0
LINE
  5
7D65
  8
FUTO
 10
8534.2067985961348
 20
7929.0725297649078
 30
0.0
 11
8534.2067985961348
 21
7883.072529764906
 31
0.0
  0
LINE
  5
7D66
  8
FUTO
 10
8529.206798596133
 20
7934.0725297649069
 30
0.0
 11
8529.206798596133
 21
7894.0725297649069
 31
0.0
  0
LINE
  5
7D67
  8
FUTO
 10
8526.206798596133
 20
7937.0725297649078
 30
0.0
 11
8526.206798596133
 21
7894.0725297649069
 31
0.0
  0
ARC
  5
7D68
  8
FUTO
 10
8581.2067375961342
 20
7979.072529764906
 30
0.0
 40
5.0
 50
89.999999999999986
 51
180.0
  0
LINE
  5
7D69
  8
FUTO
 10
8576.2067375961342
 20
7979.072529764906
 30
0.0
 11
8576.2067375961342
 21
7932.197529764906
 31
0.0
  0
LINE
  5
7D6A
  8
FUTO
 10
8593.7067375961342
 20
7984.072529764906
 30
0.0
 11
8581.2067375961342
 21
7984.072529764906
 31
0.0
  0
LINE
  5
7D6B
  8
CT
 10
8989.7067375961342
 20
7874.072529764906
 30
0.0
 11
9157.2611195961326
 21
7874.072529764906
 31
0.0
  0
LINE
  5
7D6C
  8
FUTO
 10
9041.2066765961354
 20
7883.072529764906
 30
0.0
 11
8989.7067375961342
 21
7883.072529764906
 31
0.0
  0
LINE
  5
7D6D
  8
HOSO
 10
8989.7067375961342
 20
7881.072529764906
 30
0.0
 11
9041.2066765961354
 21
7881.072529764906
 31
0.0
  0
LINE
  5
7D6E
  8
FUTO
 10
8989.7067375961342
 20
7865.072529764906
 30
0.0
 11
9041.2066765961354
 21
7865.072529764906
 31
0.0
  0
LINE
  5
7D6F
  8
HOSO
 10
9041.2066765961354
 20
7867.072529764906
 30
0.0
 11
8989.7067375961342
 21
7867.072529764906
 31
0.0
  0
LINE
  5
7D70
  8
FUTO
 10
9071.2066765961354
 20
7894.0725297649078
 30
0.0
 11
9071.2066765961354
 21
7854.072529764906
 31
0.0
  0
LINE
  5
7D71
  8
FUTO
 10
9041.2066765961354
 20
7894.0725297649069
 30
0.0
 11
9041.2066765961354
 21
7854.072529764906
 31
0.0
  0
LINE
  5
7D72
  8
FUTO
 10
9071.2066765961354
 20
7854.072529764906
 30
0.0
 11
9041.2066765961354
 21
7854.072529764906
 31
0.0
  0
LINE
  5
7D73
  8
FUTO
 10
9041.2066765961354
 20
7894.0725297649069
 30
0.0
 11
9071.2066765961354
 21
7894.0725297649069
 31
0.0
  0
LINE
  5
7D74
  8
FUTO
 10
9145.6611445961353
 20
7856.4826857649059
 30
0.0
 11
9133.5611685961339
 21
7856.4826857649059
 31
0.0
  0
LINE
  5
7D75
  8
FUTO
 10
9145.6611445961353
 20
7891.6623727649048
 30
0.0
 11
9133.5611685961339
 21
7891.6623727649048
 31
0.0
  0
LINE
  5
7D76
  8
FUTO
 10
9145.6611445961353
 20
7864.3674517649069
 30
0.0
 11
9133.5611685961339
 21
7864.3674517649069
 31
0.0
  0
LINE
  5
7D77
  8
FUTO
 10
9145.6611445961353
 20
7883.7776077649069
 30
0.0
 11
9133.5611685961339
 21
7883.7776077649069
 31
0.0
  0
LINE
  5
7D78
  8
FUTO
 10
9147.2611195961344
 20
7858.0822947649067
 30
0.0
 11
9147.2611195961344
 21
7890.0617877649047
 31
0.0
  0
LINE
  5
7D79
  8
FUTO
 10
9145.6611445961353
 20
7891.6623727649048
 30
0.0
 11
9147.2611195961344
 21
7890.0617877649047
 31
0.0
  0
LINE
  5
7D7A
  8
FUTO
 10
9145.6611445961353
 20
7883.7776077649069
 30
0.0
 11
9147.2611195961344
 21
7885.3772167649049
 31
0.0
  0
LINE
  5
7D7B
  8
FUTO
 10
9145.6611445961353
 20
7883.7776077649069
 30
0.0
 11
9147.2611195961344
 21
7882.1770217649064
 31
0.0
  0
LINE
  5
7D7C
  8
FUTO
 10
9147.2611195961344
 20
7858.0822947649067
 30
0.0
 11
9145.6611445961353
 21
7856.4826857649059
 31
0.0
  0
LINE
  5
7D7D
  8
FUTO
 10
9145.6611445961353
 20
7864.3674517649069
 30
0.0
 11
9147.2611195961344
 21
7862.7668657649074
 31
0.0
  0
LINE
  5
7D7E
  8
FUTO
 10
9145.6611445961353
 20
7864.3674517649069
 30
0.0
 11
9147.2611195961344
 21
7865.9670607649059
 31
0.0
  0
LINE
  5
7D7F
  8
FUTO
 10
9133.5611685961339
 20
7856.4826857649059
 30
0.0
 11
9133.5611685961339
 21
7891.6623727649048
 31
0.0
  0
LINE
  5
7D80
  8
FUTO
 10
9133.5611685961339
 20
7883.072529764906
 30
0.0
 11
9071.2066765961354
 21
7883.072529764906
 31
0.0
  0
LINE
  5
7D81
  8
HOSO
 10
9071.2066765961354
 20
7881.072529764906
 30
0.0
 11
9133.5612295961328
 21
7881.072529764906
 31
0.0
  0
LINE
  5
7D82
  8
HOSO
 10
9133.5611685961339
 20
7867.072529764906
 30
0.0
 11
9071.2066765961354
 21
7867.072529764906
 31
0.0
  0
LINE
  5
7D83
  8
FUTO
 10
9071.2066765961354
 20
7865.072529764906
 30
0.0
 11
9133.5612295961328
 21
7865.072529764906
 31
0.0
  0
LINE
  5
7D84
  8
FUTO
 10
9046.2066765961354
 20
7937.072529764906
 30
0.0
 11
9046.2066765961354
 21
7894.0725297649069
 31
0.0
  0
LINE
  5
7D85
  8
FUTO
 10
9043.2066765961354
 20
7934.072529764906
 30
0.0
 11
9043.2066765961354
 21
7894.0725297649069
 31
0.0
  0
LINE
  5
7D86
  8
FUTO
 10
9038.2066765961354
 20
7929.072529764906
 30
0.0
 11
9038.2066765961354
 21
7883.072529764906
 31
0.0
  0
LINE
  5
7D87
  8
FUTO
 10
8978.7067375961342
 20
7984.072529764906
 30
0.0
 11
8991.2067375961342
 21
7984.072529764906
 31
0.0
  0
LINE
  5
7D88
  8
FUTO
 10
8989.7067375961342
 20
7929.072529764906
 30
0.0
 11
9038.2066765961354
 21
7929.072529764906
 31
0.0
  0
LINE
  5
7D89
  8
FUTO
 10
8989.7067375961342
 20
7932.197529764906
 30
0.0
 11
8996.2067375961342
 21
7932.197529764906
 31
0.0
  0
LINE
  5
7D8A
  8
FUTO
 10
8996.2067375961342
 20
7979.072529764906
 30
0.0
 11
8996.2067375961342
 21
7932.197529764906
 31
0.0
  0
LINE
  5
7D8B
  8
FUTO
 10
8996.2067375961342
 20
7934.072529764906
 30
0.0
 11
9043.2066765961354
 21
7934.072529764906
 31
0.0
  0
LINE
  5
7D8C
  8
FUTO
 10
8996.2067375961342
 20
7937.072529764906
 30
0.0
 11
9046.2066765961354
 21
7937.072529764906
 31
0.0
  0
ARC
  5
7D8D
  8
FUTO
 10
8991.2067375961342
 20
7979.072529764906
 30
0.0
 40
5.0
 50
0.000000000000007
 51
89.999999999999986
  0
LINE
  5
7D8E
  8
FUTO
 10
9038.2066765961354
 20
7929.072529764906
 30
0.0
 11
9043.2066765961354
 21
7934.072529764906
 31
0.0
  0
LINE
  5
7D8F
  8
FUTO
 10
8975.8880828145629
 20
7525.9475297649069
 30
0.0
 11
8996.2067375961342
 21
7525.947529764906
 31
0.0
  0
LINE
  5
7D90
  8
FUTO
 10
9038.2066765961354
 20
7593.072529764906
 30
0.0
 11
9038.2066765961354
 21
7865.072529764906
 31
0.0
  0
LINE
  5
7D91
  8
FUTO
 10
9038.2066765961354
 20
7529.072529764906
 30
0.0
 11
9043.2066765961354
 21
7524.072529764906
 31
0.0
  0
LINE
  5
7D92
  8
FUTO
 10
9038.2066765961354
 20
7529.072529764906
 30
0.0
 11
9038.2066765961354
 21
7575.072529764906
 31
0.0
  0
LINE
  5
7D93
  8
FUTO
 10
8975.9972111644165
 20
7529.0725297649069
 30
0.0
 11
9038.2066765961354
 21
7529.072529764906
 31
0.0
  0
ARC
  5
7D94
  8
FUTO
 10
8991.2067375961342
 20
7479.072529764906
 30
0.0
 40
5.0
 50
270.0
 51
0.000000000000007
  0
LINE
  5
7D95
  8
FUTO
 10
8996.2067375961342
 20
7521.072529764906
 30
0.0
 11
9046.2066765961354
 21
7521.072529764906
 31
0.0
  0
LINE
  5
7D96
  8
FUTO
 10
8996.2067375961342
 20
7524.072529764906
 30
0.0
 11
9043.2066765961354
 21
7524.072529764906
 31
0.0
  0
LINE
  5
7D97
  8
FUTO
 10
8943.8983725916587
 20
7474.0725297649069
 30
0.0
 11
8991.2067375961342
 21
7474.0725297649069
 31
0.0
  0
LINE
  5
7D98
  8
FUTO
 10
8996.2067375961342
 20
7479.072529764906
 30
0.0
 11
8996.2067375961342
 21
7525.9475297649069
 31
0.0
  0
LINE
  5
7D99
  8
FUTO
 10
9043.2066765961354
 20
7604.072529764906
 30
0.0
 11
9043.2066765961354
 21
7854.072529764906
 31
0.0
  0
LINE
  5
7D9A
  8
FUTO
 10
9046.2066765961354
 20
7604.0725297649069
 30
0.0
 11
9046.2066765961354
 21
7854.072529764906
 31
0.0
  0
LINE
  5
7D9B
  8
FUTO
 10
9043.2066765961354
 20
7524.072529764906
 30
0.0
 11
9043.2066765961354
 21
7564.072529764906
 31
0.0
  0
LINE
  5
7D9C
  8
FUTO
 10
9046.2066765961354
 20
7521.072529764906
 30
0.0
 11
9046.2066765961354
 21
7564.072529764906
 31
0.0
  0
LINE
  5
7D9D
  8
HOSO
 10
9041.2066765961354
 20
7591.0725297649069
 30
0.0
 11
8989.7067375961342
 21
7591.0725297649069
 31
0.0
  0
LINE
  5
7D9E
  8
FUTO
 10
8989.7067375961342
 20
7593.072529764906
 30
0.0
 11
9041.2066765961354
 21
7593.072529764906
 31
0.0
  0
LINE
  5
7D9F
  8
HOSO
 10
8989.7067375961342
 20
7577.072529764906
 30
0.0
 11
9041.2066765961354
 21
7577.072529764906
 31
0.0
  0
LINE
  5
7DA0
  8
FUTO
 10
9041.2066765961354
 20
7575.072529764906
 30
0.0
 11
8989.7067375961342
 21
7575.0725297649069
 31
0.0
  0
LINE
  5
7DA1
  8
FUTO
 10
9071.2066765961354
 20
7593.072529764906
 30
0.0
 11
9133.5612295961328
 21
7593.072529764906
 31
0.0
  0
LINE
  5
7DA2
  8
HOSO
 10
9133.5611685961339
 20
7591.0725297649069
 30
0.0
 11
9071.2066765961354
 21
7591.0725297649069
 31
0.0
  0
LINE
  5
7DA3
  8
HOSO
 10
9071.2066765961354
 20
7577.0725297649078
 30
0.0
 11
9133.5612295961328
 21
7577.072529764906
 31
0.0
  0
LINE
  5
7DA4
  8
FUTO
 10
9133.5611685961339
 20
7575.072529764906
 30
0.0
 11
9071.2066765961354
 21
7575.072529764906
 31
0.0
  0
LINE
  5
7DA5
  8
FUTO
 10
9133.5611685961339
 20
7601.6623737649061
 30
0.0
 11
9133.5611685961339
 21
7566.4826867649062
 31
0.0
  0
LINE
  5
7DA6
  8
FUTO
 10
9145.6611445961353
 20
7593.7776077649069
 30
0.0
 11
9147.2611195961344
 21
7592.1779987649061
 31
0.0
  0
LINE
  5
7DA7
  8
FUTO
 10
9145.6611445961353
 20
7593.7776077649069
 30
0.0
 11
9147.2611195961344
 21
7595.3781937649073
 31
0.0
  0
LINE
  5
7DA8
  8
FUTO
 10
9147.2611195961344
 20
7600.0627647649062
 30
0.0
 11
9145.6611445961353
 21
7601.6623737649061
 31
0.0
  0
LINE
  5
7DA9
  8
FUTO
 10
9145.6611445961353
 20
7574.367451764906
 30
0.0
 11
9147.2611195961344
 21
7575.9680377649056
 31
0.0
  0
LINE
  5
7DAA
  8
FUTO
 10
9145.6611445961353
 20
7574.367451764906
 30
0.0
 11
9147.2611195961344
 21
7572.7678427649071
 31
0.0
  0
LINE
  5
7DAB
  8
FUTO
 10
9145.6611445961353
 20
7566.4826867649062
 30
0.0
 11
9147.2611195961344
 21
7568.0832717649073
 31
0.0
  0
LINE
  5
7DAC
  8
FUTO
 10
9147.2611195961344
 20
7600.0627647649062
 30
0.0
 11
9147.2611195961344
 21
7568.0832717649073
 31
0.0
  0
LINE
  5
7DAD
  8
FUTO
 10
9145.6611445961353
 20
7574.367451764906
 30
0.0
 11
9133.5611685961339
 21
7574.367451764906
 31
0.0
  0
LINE
  5
7DAE
  8
FUTO
 10
9145.6611445961353
 20
7593.7776077649069
 30
0.0
 11
9133.5611685961339
 21
7593.7776077649069
 31
0.0
  0
LINE
  5
7DAF
  8
FUTO
 10
9145.6611445961353
 20
7566.4826867649062
 30
0.0
 11
9133.5611685961339
 21
7566.4826867649062
 31
0.0
  0
LINE
  5
7DB0
  8
FUTO
 10
9145.6611445961353
 20
7601.6623737649061
 30
0.0
 11
9133.5611685961339
 21
7601.6623737649061
 31
0.0
  0
LINE
  5
7DB1
  8
CT
 10
8989.7067375961342
 20
7584.072529764906
 30
0.0
 11
9157.2611195961326
 21
7584.072529764906
 31
0.0
  0
LINE
  5
7DB2
  8
FUTO
 10
9041.2066765961354
 20
7564.072529764906
 30
0.0
 11
9071.2066765961354
 21
7564.072529764906
 31
0.0
  0
LINE
  5
7DB3
  8
FUTO
 10
9071.2066765961354
 20
7604.072529764906
 30
0.0
 11
9041.2066765961354
 21
7604.072529764906
 31
0.0
  0
LINE
  5
7DB4
  8
FUTO
 10
9041.2066765961354
 20
7564.072529764906
 30
0.0
 11
9041.2066765961354
 21
7604.072529764906
 31
0.0
  0
LINE
  5
7DB5
  8
FUTO
 10
9071.2066765961354
 20
7564.072529764906
 30
0.0
 11
9071.2066765961354
 21
7604.072529764906
 31
0.0
  0
ARC
  5
7DB6
  8
FUTO
 10
8454.5775875961335
 20
7791.0724687649054
 30
0.0
 40
20.0
 50
89.999999999999986
 51
180.0
  0
ARC
  5
7DB7
  8
FUTO
 10
8454.5775875961335
 20
7667.0725297649051
 30
0.0
 40
20.0
 50
180.0
 51
270.0
  0
ARC
  5
7DB8
  8
FUTO
 10
8444.5775875961335
 20
7650.0725297649051
 30
0.0
 40
10.0
 50
180.0
 51
270.0
  0
ARC
  5
7DB9
  8
FUTO
 10
8444.5775875961335
 20
7808.0724687649054
 30
0.0
 40
10.0
 50
89.999999999999986
 51
180.0
  0
ARC
  5
7DBA
  8
FUTO
 10
8547.4343124950265
 20
7650.0725297649051
 30
0.0
 40
10.0
 50
270.0
 51
0.000000000000007
  0
ARC
  5
7DBB
  8
FUTO
 10
8544.2671969566927
 20
7650.0725297649051
 30
0.0
 40
10.0
 50
270.0
 51
0.000000000000007
  0
ARC
  5
7DBC
  8
FUTO
 10
8547.4343124950265
 20
7808.0724687649054
 30
0.0
 40
10.0
 50
0.000000000000007
 51
89.999999999999986
  0
ARC
  5
7DBD
  8
FUTO
 10
8544.2671969566927
 20
7808.0724687649054
 30
0.0
 40
10.0
 50
0.000000000000007
 51
89.999999999999986
  0
LINE
  5
7DBE
  8
FUTO
 10
8547.0705936772356
 20
7647.0725297649069
 30
0.0
 11
8454.5775875961335
 21
7647.0725297649069
 31
0.0
  0
LINE
  5
7DBF
  8
FUTO
 10
8547.0705936772356
 20
7811.0724687649072
 30
0.0
 11
8454.5775875961335
 21
7811.0724687649072
 31
0.0
  0
ARC
  5
7DC0
  8
FUTO
 10
8561.2067375961342
 20
7652.0725297649069
 30
0.0
 40
5.0
 50
270.0
 51
0.000000000000007
  0
ARC
  5
7DC1
  8
FUTO
 10
8561.2067375961342
 20
7806.0724687649063
 30
0.0
 40
5.0
 50
0.000000000000007
 51
89.999999999999986
  0
ARC
  5
7DC2
  8
FUTO
 10
8547.0705936772356
 20
7652.0725297649069
 30
0.0
 40
5.0
 50
270.0
 51
0.000000000000007
  0
ARC
  5
7DC3
  8
FUTO
 10
8547.0705936772356
 20
7806.0724687649063
 30
0.0
 40
5.0
 50
0.000000000000007
 51
89.999999999999986
  0
LINE
  5
7DC4
  8
FUTO
 10
8547.4343124950265
 20
7640.072529764906
 30
0.0
 11
8444.5775875961335
 21
7640.072529764906
 31
0.0
  0
LINE
  5
7DC5
  8
FUTO
 10
8561.2067375961342
 20
7647.0725297649069
 30
0.0
 11
8557.4343124950246
 21
7647.0725297649069
 31
0.0
  0
LINE
  5
7DC6
  8
FUTO
 10
8547.4343124950265
 20
7818.0724687649063
 30
0.0
 11
8444.5775875961335
 21
7818.0724687649063
 31
0.0
  0
LINE
  5
7DC7
  8
FUTO
 10
8561.2067375961342
 20
7811.0724687649072
 30
0.0
 11
8557.4343124950246
 21
7811.0724687649072
 31
0.0
  0
LINE
  5
7DC8
  8
FUTO
 10
8582.7067375961342
 20
7789.0725297649078
 30
0.0
 11
8582.7067375961342
 21
7895.8833005139413
 31
0.0
  0
LINE
  5
7DC9
  8
FUTO
 10
8566.2067375961342
 20
7669.0725297649078
 30
0.0
 11
8633.9331351563178
 21
7669.0725297649069
 31
0.0
  0
LINE
  5
7DCA
  8
FUTO
 10
8566.2067375961342
 20
7789.0725297649069
 30
0.0
 11
8633.9331351563178
 21
7789.0725297649051
 31
0.0
  0
LINE
  5
7DCB
  8
FUTO
 10
8475.8874015961337
 20
7667.0725297649069
 30
0.0
 11
8475.8874015961337
 21
7791.0724687649063
 31
0.0
  0
LINE
  5
7DCC
  8
FUTO
 10
8552.0705936772356
 20
7652.0725297649069
 30
0.0
 11
8552.0705936772356
 21
7806.0724687649072
 31
0.0
  0
LINE
  5
7DCD
  8
FUTO
 10
8554.2671969566927
 20
7650.0725297649069
 30
0.0
 11
8554.2671969566927
 21
7808.0724687649072
 31
0.0
  0
LINE
  5
7DCE
  8
FUTO
 10
8557.4343124950246
 20
7650.0725297649051
 30
0.0
 11
8557.4343124950246
 21
7808.0724687649072
 31
0.0
  0
LINE
  5
7DCF
  8
FUTO
 10
8566.2067375961342
 20
7652.0725297649069
 30
0.0
 11
8566.2067375961342
 21
7806.0724687649072
 31
0.0
  0
LINE
  5
7DD0
  8
FUTO
 10
8576.2067375961342
 20
7669.0725297649069
 30
0.0
 11
8576.2067375961342
 21
7789.0725297649051
 31
0.0
  0
LINE
  5
7DD1
  8
FUTO
 10
8633.9331351563178
 20
7669.0725297649069
 30
0.0
 11
8633.9331351563178
 21
7789.0725297649078
 31
0.0
  0
LINE
  5
7DD2
  8
FUTO
 10
8434.5775875961335
 20
7650.0725297649051
 30
0.0
 11
8434.5775875961335
 21
7808.0724687649072
 31
0.0
  0
LINE
  5
7DD3
  8
FUTO
 10
8779.9567375961342
 20
7705.322529764906
 30
0.0
 11
8779.9567375961342
 21
7752.8225297649051
 31
0.0
  0
ARC
  5
7DD4
  8
FUTO
 10
8786.2067375961342
 20
7705.322529764906
 30
0.0
 40
6.25
 50
180.0
 51
0.000000000000007
  0
ARC
  5
7DD5
  8
FUTO
 10
8786.2067375961342
 20
7752.8225297649051
 30
0.0
 40
6.25
 50
0.000000000000007
 51
180.0
  0
LINE
  5
7DD6
  8
CT
 10
8414.5775875961335
 20
7729.0725297649069
 30
0.0
 11
9066.2066765961354
 21
7729.072529764906
 31
0.0
  0
LINE
  5
7DD7
  8
FUTO
 10
8792.4567375961342
 20
7705.322529764906
 30
0.0
 11
8792.4567375961342
 21
7752.8225297649051
 31
0.0
  0
LINE
  5
7DD8
  8
FUTO
 10
8582.7067375961342
 20
7895.8833005139431
 30
0.0
 11
8584.5285145961352
 21
7898.0724687649054
 31
0.0
  0
LINE
  5
7DD9
  8
FUTO
 10
8582.7067375961342
 20
7562.2616167649066
 30
0.0
 11
8589.2067375961342
 21
7554.4507037649064
 31
0.0
  0
LINE
  5
7DDA
  8
FUTO
 10
8582.7067375961342
 20
7562.2616167649066
 30
0.0
 11
8582.7067375961342
 21
7669.0725297649078
 31
0.0
  0
LINE
  5
7DDB
  8
FUTO
 10
8989.7067375961342
 20
7562.2616167649066
 30
0.0
 11
8989.7067375961342
 21
7895.8833005139413
 31
0.0
  0
ARC
  5
7DDC
  8
FUTO
 10
8708.2067375961342
 20
7455.572529764906
 30
0.0
 40
2.0
 50
180.0
 51
270.0
  0
ARC
  5
7DDD
  8
FUTO
 10
8703.2067375961342
 20
7465.7256057649056
 30
0.0
 40
2.9999599999999988
 50
0.000000000000007
 51
87.000442999964605
  0
LINE
  5
7DDE
  8
FUTO
 10
8706.2067375961342
 20
7465.7256057649056
 30
0.0
 11
8706.2067375961342
 21
7455.572529764906
 31
0.0
  0
ARC
  5
7DDF
  8
FUTO
 10
8607.1107895961322
 20
7509.358174764905
 30
0.0
 40
9.9999679999999991
 50
181.99932900002389
 51
225.0
  0
ARC
  5
7DE0
  8
FUTO
 10
8634.1039535961354
 20
7482.3650097649061
 30
0.0
 40
10.000024
 50
225.0
 51
267.00096100001281
  0
LINE
  5
7DE1
  8
FUTO
 10
8600.0397445961353
 20
7502.2871297649062
 30
0.0
 11
8627.0329095961351
 21
7475.2939657649058
 31
0.0
  0
LINE
  5
7DE2
  8
FUTO
 10
8596.2067375961324
 20
7535.0725297649069
 30
0.0
 11
8597.1168935961341
 21
7509.0092977649056
 31
0.0
  0
LINE
  5
7DE3
  8
FUTO
 10
8633.5807605961345
 20
7472.378681764907
 30
0.0
 11
8722.1720695961321
 21
7467.7358597649063
 31
0.0
  0
LINE
  5
7DE4
  8
FUTO
 10
8624.2067375961342
 20
7545.0725297649051
 30
0.0
 11
8948.206737596136
 21
7545.0725297649051
 31
0.0
  0
LINE
  5
7DE5
  8
FUTO
 10
8624.2067375961342
 20
7535.0725297649069
 30
0.0
 11
8624.2067375961342
 21
7540.072529764906
 31
0.0
  0
LINE
  5
7DE6
  8
FUTO
 10
8624.2067375961342
 20
7540.072529764906
 30
0.0
 11
8624.2067375961342
 21
7545.0725297649051
 31
0.0
  0
LINE
  5
7DE7
  8
FUTO
 10
8589.2067375961342
 20
7554.4507037649064
 30
0.0
 11
8624.2067375961342
 21
7545.0725297649051
 31
0.0
  0
ARC
  5
7DE8
  8
FUTO
 10
8602.7067375961342
 20
7944.545857764906
 30
0.0
 40
20.0
 50
159.99995399998471
 51
180.0
  0
ARC
  5
7DE9
  8
FUTO
 10
8573.7067375961342
 20
7981.8212477649067
 30
0.0
 40
20.0
 50
340.0002749999901
 51
0.000000000000007
  0
LINE
  5
7DEA
  8
FUTO
 10
8638.5578115961343
 20
7926.5724687649063
 30
0.0
 11
8634.8048815961338
 21
7933.0724687649054
 31
0.0
  0
LINE
  5
7DEB
  8
FUTO
 10
8634.8048815961338
 20
7933.0724687649054
 30
0.0
 11
8638.5578115961343
 21
7939.5724687649054
 31
0.0
  0
LINE
  5
7DEC
  8
FUTO
 10
8583.9127915961344
 20
7951.3863117649062
 30
0.0
 11
8592.5006825961373
 21
7974.9809157649061
 31
0.0
  0
LINE
  5
7DED
  8
FUTO
 10
8582.7067375961342
 20
7898.0724687649054
 30
0.0
 11
8582.7067375961342
 21
7944.545857764906
 31
0.0
  0
LINE
  5
7DEE
  8
FUTO
 10
8649.8161125961342
 20
7933.0724687649054
 30
0.0
 11
8646.0631825961354
 21
7939.5724687649054
 31
0.0
  0
LINE
  5
7DEF
  8
FUTO
 10
8646.0631825961354
 20
7926.5724687649063
 30
0.0
 11
8649.8161125961342
 21
7933.0724687649054
 31
0.0
  0
LINE
  5
7DF0
  8
CT
 10
8642.3104965961356
 20
7925.6303297649056
 30
0.0
 11
8642.3104965961356
 21
7940.0863847649071
 31
0.0
  0
LINE
  5
7DF1
  8
CT
 10
8650.7011215961338
 20
7933.0724687649054
 30
0.0
 11
8633.8795885961335
 21
7933.0724687649054
 31
0.0
  0
LINE
  5
7DF2
  8
FUTO
 10
8646.0631825961354
 20
7939.5724687649054
 30
0.0
 11
8638.5578115961343
 21
7939.5724687649054
 31
0.0
  0
LINE
  5
7DF3
  8
FUTO
 10
8646.0631825961354
 20
7926.5724687649063
 30
0.0
 11
8638.5578115961343
 21
7926.5724687649063
 31
0.0
  0
CIRCLE
  5
7DF4
  8
FUTO
 10
8642.3104965961356
 20
7933.0724687649054
 30
0.0
 40
6.5
  0
ARC
  5
7DF5
  8
FUTO
 10
8608.7067375961342
 20
8042.761555764906
 30
0.0
 40
15.0
 50
150.00018299999559
 51
180.0
  0
ARC
  5
7DF6
  8
FUTO
 10
8629.0934555961339
 20
8098.0724687649063
 30
0.0
 40
4.9999580000000003
 50
89.999999999999986
 51
149.99971800000111
  0
LINE
  5
7DF7
  8
FUTO
 10
8624.7633775961331
 20
8100.5724687649054
 30
0.0
 11
8595.7162585961341
 21
8050.261555764906
 31
0.0
  0
LINE
  5
7DF8
  8
FUTO
 10
8593.7067375961342
 20
7981.8212477649067
 30
0.0
 11
8593.7067375961342
 21
8042.761555764906
 31
0.0
  0
LINE
  5
7DF9
  8
FUTO
 10
8978.7067375961342
 20
7981.8212477649067
 30
0.0
 11
8978.7067375961342
 21
8042.761555764906
 31
0.0
  0
LINE
  5
7DFA
  8
CT
 10
8786.2067375961342
 20
7121.2834387989533
 30
0.0
 11
8786.2067375961342
 21
8123.072529764906
 31
0.0
  0
LINE
  5
7DFB
  8
FUTO
 10
8943.8567015961344
 20
8103.072529764906
 30
0.0
 11
8629.0663875961345
 21
8103.072529764906
 31
0.0
  0
LINE
  5
7DFC
  8
FUTO
 10
8593.7067375961342
 20
8043.9724927649058
 30
0.0
 11
8978.6576655961326
 21
8043.9724927649058
 31
0.0
  0
LINE
  5
7DFD
  8
FUTO
 10
8947.6500975961353
 20
8100.5724687649054
 30
0.0
 11
8976.6972165961342
 21
8050.261555764906
 31
0.0
  0
ARC
  5
7DFE
  8
FUTO
 10
8943.3200195961344
 20
8098.0724687649063
 30
0.0
 40
4.9999580000000003
 50
30.000281999998819
 51
89.999999999999986
  0
ARC
  5
7DFF
  8
FUTO
 10
8963.7067375961324
 20
8042.761555764906
 30
0.0
 40
15.0
 50
0.000000000000007
 51
29.999817000004359
  0
LINE
  5
7E00
  8
FUTO
 10
8708.2067375961342
 20
7453.572529764906
 30
0.0
 11
8786.2067375961342
 21
7453.572529764906
 31
0.0
  0
LINE
  5
7E01
  8
FUTO
 10
8596.2067375961324
 20
7535.0725297649069
 30
0.0
 11
8786.2067375961342
 21
7535.0725297649069
 31
0.0
  0
LINE
  5
7E02
  8
FUTO
 10
8624.2067375961342
 20
7540.072529764906
 30
0.0
 11
8786.2067375961342
 21
7540.072529764906
 31
0.0
  0
LINE
  5
7E03
  8
FUTO
 10
8979.024120596132
 20
7978.272419764905
 30
0.0
 11
8593.7067375961342
 21
7978.272419764905
 31
0.0
  0
LINE
  5
7E04
  8
FUTO
 10
8989.3932615961348
 20
7948.0724687649054
 30
0.0
 11
8583.0201173972582
 21
7948.0724687649054
 31
0.0
  0
LINE
  5
7E05
  8
FUTO
 10
8989.7067375961342
 20
7898.0724687649054
 30
0.0
 11
8584.5285145961352
 21
7898.0724687649054
 31
0.0
  0
LINE
  5
7E06
  8
FUTO
 10
8624.2067375961342
 20
7540.072529764906
 30
0.0
 11
8786.2067375961342
 21
7540.072529764906
 31
0.0
  0
CIRCLE
  5
7E07
  8
FUTO
 10
8930.1029785961346
 20
7933.0724687649054
 30
0.0
 40
6.5
  0
LINE
  5
7E08
  8
FUTO
 10
8926.3502925961329
 20
7926.5724687649063
 30
0.0
 11
8933.8556635961322
 21
7926.5724687649063
 31
0.0
  0
LINE
  5
7E09
  8
FUTO
 10
8926.3502925961329
 20
7939.5724687649054
 30
0.0
 11
8933.8556635961322
 21
7939.5724687649054
 31
0.0
  0
LINE
  5
7E0A
  8
CT
 10
8921.7123535961346
 20
7933.0724687649054
 30
0.0
 11
8938.5338865961348
 21
7933.0724687649054
 31
0.0
  0
LINE
  5
7E0B
  8
CT
 10
8930.1029785961346
 20
7925.6303297649056
 30
0.0
 11
8930.1029785961346
 21
7940.0863847649071
 31
0.0
  0
LINE
  5
7E0C
  8
FUTO
 10
8926.3502925961329
 20
7926.5724687649063
 30
0.0
 11
8922.5973625961342
 21
7933.0724687649054
 31
0.0
  0
LINE
  5
7E0D
  8
FUTO
 10
8922.5973625961342
 20
7933.0724687649054
 30
0.0
 11
8926.3502925961329
 21
7939.5724687649054
 31
0.0
  0
LINE
  5
7E0E
  8
FUTO
 10
8989.7067375961342
 20
7898.0724687649054
 30
0.0
 11
8989.7067375961342
 21
7944.545857764906
 31
0.0
  0
LINE
  5
7E0F
  8
FUTO
 10
8988.5006835961321
 20
7951.3863117649062
 30
0.0
 11
8979.9127925961329
 21
7974.9809157649061
 31
0.0
  0
LINE
  5
7E10
  8
FUTO
 10
8937.6085935961346
 20
7933.0724687649054
 30
0.0
 11
8933.8556635961322
 21
7939.5724687649054
 31
0.0
  0
LINE
  5
7E11
  8
FUTO
 10
8933.8556635961322
 20
7926.5724687649063
 30
0.0
 11
8937.6085935961346
 21
7933.0724687649054
 31
0.0
  0
ARC
  5
7E12
  8
FUTO
 10
8998.7067375961342
 20
7981.8212477649067
 30
0.0
 40
20.0
 50
180.0
 51
199.9997250000097
  0
ARC
  5
7E13
  8
FUTO
 10
8969.7067375961324
 20
7944.545857764906
 30
0.0
 40
20.0
 50
0.000000000000007
 51
20.000046000015249
  0
LINE
  5
7E14
  8
FUTO
 10
8989.7067375961342
 20
7895.8833005139431
 30
0.0
 11
8987.8849605961332
 21
7898.0724687649054
 31
0.0
  0
LINE
  5
7E15
  8
FUTO
 10
8948.206737596136
 20
7540.072529764906
 30
0.0
 11
8786.2067375961342
 21
7540.072529764906
 31
0.0
  0
LINE
  5
7E16
  8
FUTO
 10
8938.8327145961339
 20
7472.378681764907
 30
0.0
 11
8850.2414055961344
 21
7467.7358597649063
 31
0.0
  0
LINE
  5
7E17
  8
FUTO
 10
8976.2067375961342
 20
7535.0725297649069
 30
0.0
 11
8786.2067375961342
 21
7535.0725297649069
 31
0.0
  0
LINE
  5
7E18
  8
FUTO
 10
8948.206737596136
 20
7540.072529764906
 30
0.0
 11
8786.2067375961342
 21
7540.072529764906
 31
0.0
  0
LINE
  5
7E19
  8
FUTO
 10
8756.2067375961342
 20
7443.572529764906
 30
0.0
 11
8756.2067375961342
 21
7303.572529764906
 31
0.0
  0
LINE
  5
7E1A
  8
FUTO
 10
8816.2067375961342
 20
7443.572529764906
 30
0.0
 11
8816.2067375961342
 21
7303.572529764906
 31
0.0
  0
LINE
  5
7E1B
  8
FUTO
 10
8864.2067375961342
 20
7453.572529764906
 30
0.0
 11
8786.2067375961342
 21
7453.572529764906
 31
0.0
  0
LINE
  5
7E1C
  8
FUTO
 10
8753.7067375961342
 20
7443.572529764906
 30
0.0
 11
8818.7067375961342
 21
7443.572529764906
 31
0.0
  0
LINE
  5
7E1D
  8
FUTO
 10
8753.7067375961342
 20
7443.572529764906
 30
0.0
 11
8753.7067375961342
 21
7453.572529764906
 31
0.0
  0
LINE
  5
7E1E
  8
FUTO
 10
8818.7067375961342
 20
7443.572529764906
 30
0.0
 11
8818.7067375961342
 21
7453.572529764906
 31
0.0
  0
LINE
  5
7E1F
  8
FUTO
 10
8866.2067375961342
 20
7465.7256057649056
 30
0.0
 11
8866.2067375961342
 21
7455.572529764906
 31
0.0
  0
ARC
  5
7E20
  8
FUTO
 10
8869.2067375961342
 20
7465.7256057649056
 30
0.0
 40
2.9999599999999988
 50
92.999556999983326
 51
180.0
  0
ARC
  5
7E21
  8
FUTO
 10
8864.2067375961342
 20
7455.572529764906
 30
0.0
 40
2.0
 50
270.0
 51
0.000000000000007
  0
LINE
  5
7E22
  8
FUTO
 10
8816.2067375961342
 20
7303.572529764906
 30
0.0
 11
8756.2067375961342
 21
7303.572529764906
 31
0.0
  0
LINE
  5
7E23
  8
FUTO
 10
8989.7067375961342
 20
7562.2616167649066
 30
0.0
 11
8983.2067375961342
 21
7554.4507037649064
 31
0.0
  0
LINE
  5
7E24
  8
FUTO
 10
8976.2067375961342
 20
7535.0725297649069
 30
0.0
 11
8975.2965815961325
 21
7509.0092977649056
 31
0.0
  0
LINE
  5
7E25
  8
FUTO
 10
8983.2067375961342
 20
7554.4507037649064
 30
0.0
 11
8948.206737596136
 21
7545.0725297649051
 31
0.0
  0
LINE
  5
7E26
  8
FUTO
 10
8948.206737596136
 20
7540.072529764906
 30
0.0
 11
8948.206737596136
 21
7545.0725297649051
 31
0.0
  0
LINE
  5
7E27
  8
FUTO
 10
8948.206737596136
 20
7535.0725297649069
 30
0.0
 11
8948.206737596136
 21
7540.072529764906
 31
0.0
  0
LINE
  5
7E28
  8
FUTO
 10
8972.3737305961331
 20
7502.2871297649062
 30
0.0
 11
8945.3805655961332
 21
7475.2939657649058
 31
0.0
  0
ARC
  5
7E29
  8
FUTO
 10
8938.309521596133
 20
7482.3650097649061
 30
0.0
 40
10.000024
 50
272.99903899998708
 51
314.99999999999989
  0
ARC
  5
7E2A
  8
FUTO
 10
8965.3026855961325
 20
7509.358174764905
 30
0.0
 40
9.9999679999999991
 50
314.99999999999989
 51
358.00067099997602
  0
CIRCLE
  5
7E2B
  8
FUTO
 10
8786.2067375961342
 20
3910.2080357334289
 30
0.0
 40
30.0
  0
LINE
  5
7E2C
  8
KL
 10
12890.23403628754
 20
3730.2080357334289
 30
0.0
 11
12904.913467211851
 21
3730.2080357334289
 31
0.0
  0
LINE
  5
7E2D
  8
KL
 10
12892.91352821186
 20
3710.208035733428
 30
0.0
 11
12927.91352821185
 21
3710.208035733428
 31
0.0
  0
LINE
  5
7E2E
  8
KL
 10
12565.593020136161
 20
3730.2080357334289
 30
0.0
 11
12550.91352821186
 21
3730.2080357334289
 31
0.0
  0
LINE
  5
7E2F
  8
KL
 10
12562.91352821185
 20
3710.208035733428
 30
0.0
 11
12527.91352821186
 21
3710.208035733428
 31
0.0
  0
LINE
  5
7E30
  8
CT
 10
8626.2067375961324
 20
3700.2080357334289
 30
0.0
 11
8626.2067375961324
 21
3630.2080357334298
 31
0.0
  0
LINE
  5
7E31
  8
KL
 10
12627.91352821185
 20
3705.2080357334289
 30
0.0
 11
12627.91352821185
 21
3710.208035733428
 31
0.0
  0
LINE
  5
7E32
  8
KL
 10
12827.91352821185
 20
3710.208035733428
 30
0.0
 11
12827.91352821185
 21
3705.2080357334289
 31
0.0
  0
LINE
  5
7E3B
  8
FUTO
 10
8854.2067375961342
 20
3710.2080357334289
 30
0.0
 11
8854.2067375961342
 21
3705.2080357334289
 31
0.0
  0
LINE
  5
7E3C
  8
FUTO
 10
8718.2066155961365
 20
3705.2080357334289
 30
0.0
 11
8718.2066155961365
 21
3710.2080357334289
 31
0.0
  0
LINE
  5
7E3D
  8
KL
 10
12582.91352821185
 20
3738.6836217334289
 30
0.0
 11
12566.91352821185
 21
3729.4463177334292
 31
0.0
  0
LINE
  5
7E3E
  8
KL
 10
12598.91352821185
 20
3729.4463177334292
 30
0.0
 11
12582.91352821185
 21
3738.6836217334289
 31
0.0
  0
LINE
  5
7E3F
  8
KL
 10
12582.91352821185
 20
3701.733426733429
 30
0.0
 11
12566.91352821185
 21
3710.9707317334291
 31
0.0
  0
LINE
  5
7E40
  8
KL
 10
12598.91352821185
 20
3710.9707317334291
 30
0.0
 11
12582.91352821185
 21
3701.733426733429
 31
0.0
  0
LINE
  5
7E41
  8
KL
 10
12552.91352821185
 20
3720.2080357334289
 30
0.0
 11
12612.91352821185
 21
3720.2080357334289
 31
0.0
  0
CIRCLE
  5
7E42
  8
KL
 10
12582.91352821185
 20
3720.2080357334289
 30
0.0
 40
16.0
  0
LINE
  5
7E43
  8
KL
 10
12598.91352821185
 20
3710.9707317334291
 30
0.0
 11
12598.91352821185
 21
3729.4463177334292
 31
0.0
  0
LINE
  5
7E44
  8
KL
 10
12566.91352821185
 20
3710.9707317334291
 30
0.0
 11
12566.91352821185
 21
3729.4463177334292
 31
0.0
  0
ARC
  5
7E45
  8
KL
 10
12582.91352821185
 20
3720.2080357334289
 30
0.0
 40
20.0
 50
0.000000000000007
 51
180.0
  0
ARC
  5
7E46
  8
KL
 10
12475.91352821185
 20
3677.208035733428
 30
0.0
 40
3.0
 50
90.0
 51
180.0
  0
LINE
  5
7E47
  8
KL
 10
12524.78852821185
 20
3680.2080357334289
 30
0.0
 11
12475.91352821185
 21
3680.2080357334289
 31
0.0
  0
LINE
  5
7E48
  8
KL
 10
12529.91352821186
 20
3650.2080357334289
 30
0.0
 11
12529.91352821186
 21
3655.2080357334289
 31
0.0
  0
LINE
  5
7E49
  8
KL
 10
12519.91352821185
 20
3662.2080357334289
 30
0.0
 11
12519.91352821185
 21
3655.2080357334289
 31
0.0
  0
LINE
  5
7E4A
  8
KL
 10
12529.91352821186
 20
3650.2080357334289
 30
0.0
 11
12472.91352821185
 21
3650.2080357334289
 31
0.0
  0
LINE
  5
7E4B
  8
KL
 10
12472.91352821185
 20
3650.2080357334289
 30
0.0
 11
12472.91352821185
 21
3677.208035733428
 31
0.0
  0
LINE
  5
7E4C
  8
CT
 10
12497.91352821185
 20
3700.2080357334289
 30
0.0
 11
12497.91352821185
 21
3630.2080357334289
 31
0.0
  0
LINE
  5
7E4D
  8
KL
 10
12519.91352821185
 20
3662.2080357334289
 30
0.0
 11
12562.91352821185
 21
3662.2080357334289
 31
0.0
  0
LINE
  5
7E4E
  8
KL
 10
12527.91352821186
 20
3710.208035733428
 30
0.0
 11
12522.91352821185
 21
3662.2080357334289
 31
0.0
  0
LINE
  5
7E4F
  8
KL
 10
12602.91352821185
 20
3720.2080357334289
 30
0.0
 11
12602.91352821185
 21
3655.2080357334289
 31
0.0
  0
LINE
  5
7E50
  8
KL
 10
12562.91352821185
 20
3655.2080357334289
 30
0.0
 11
12562.91352821185
 21
3720.2080357334289
 31
0.0
  0
LINE
  5
7E51
  8
CT
 10
12582.91352821185
 20
3645.208035733428
 30
0.0
 11
12582.91352821185
 21
3750.2080357334289
 31
0.0
  0
LINE
  5
7E52
  8
KL
 10
12856.91352821185
 20
3729.4463177334292
 30
0.0
 11
12872.91352821186
 21
3738.6836217334289
 31
0.0
  0
LINE
  5
7E53
  8
KL
 10
12856.91352821185
 20
3710.9707317334291
 30
0.0
 11
12872.91352821186
 21
3701.733426733429
 31
0.0
  0
LINE
  5
7E54
  8
KL
 10
12856.91352821185
 20
3710.9707317334291
 30
0.0
 11
12856.91352821185
 21
3729.4463177334292
 31
0.0
  0
LINE
  5
7E55
  8
KL
 10
12888.91352821185
 20
3710.9707317334291
 30
0.0
 11
12888.91352821185
 21
3729.4463177334292
 31
0.0
  0
CIRCLE
  5
7E56
  8
KL
 10
12872.91352821186
 20
3720.2080357334289
 30
0.0
 40
16.0
  0
LINE
  5
7E57
  8
KL
 10
12872.91352821186
 20
3738.6836217334289
 30
0.0
 11
12888.91352821185
 21
3729.4463177334292
 31
0.0
  0
LINE
  5
7E58
  8
KL
 10
12872.91352821186
 20
3701.733426733429
 30
0.0
 11
12888.91352821185
 21
3710.9707317334291
 31
0.0
  0
ARC
  5
7E59
  8
KL
 10
12872.91352821186
 20
3720.2080357334289
 30
0.0
 40
20.0
 50
0.000000000000007
 51
180.0
  0
LINE
  5
7E5A
  8
KL
 10
12902.91352821185
 20
3720.2080357334289
 30
0.0
 11
12842.91352821185
 21
3720.2080357334289
 31
0.0
  0
LINE
  5
7E5B
  8
KL
 10
12627.91352821185
 20
3705.2080357334289
 30
0.0
 11
12827.91352821185
 21
3705.2080357334289
 31
0.0
  0
LINE
  5
7E5C
  8
KL
 10
12925.91352821185
 20
3650.2080357334289
 30
0.0
 11
12925.91352821185
 21
3655.2080357334289
 31
0.0
  0
LINE
  5
7E5D
  8
KL
 10
12935.91352821185
 20
3662.2080357334289
 30
0.0
 11
12935.91352821185
 21
3655.2080357334289
 31
0.0
  0
LINE
  5
7E5E
  8
KL
 10
12935.91352821185
 20
3662.2080357334289
 30
0.0
 11
12892.91352821186
 21
3662.2080357334289
 31
0.0
  0
LINE
  5
7E5F
  8
CT
 10
12957.91352821185
 20
3700.2080357334289
 30
0.0
 11
12957.91352821185
 21
3630.2080357334289
 31
0.0
  0
ARC
  5
7E60
  8
KL
 10
12979.91352821185
 20
3677.208035733428
 30
0.0
 40
3.0
 50
0.000000000000007
 51
90.0
  0
LINE
  5
7E61
  8
KL
 10
12982.91352821185
 20
3650.2080357334289
 30
0.0
 11
12982.91352821185
 21
3677.208035733428
 31
0.0
  0
LINE
  5
7E62
  8
KL
 10
12931.03852821186
 20
3680.2080357334289
 30
0.0
 11
12979.91352821185
 21
3680.2080357334289
 31
0.0
  0
LINE
  5
7E63
  8
KL
 10
12925.91352821185
 20
3650.2080357334289
 30
0.0
 11
12982.91352821185
 21
3650.2080357334289
 31
0.0
  0
LINE
  5
7E64
  8
KL
 10
12927.91352821185
 20
3710.208035733428
 30
0.0
 11
12932.91352821186
 21
3662.2080357334289
 31
0.0
  0
LINE
  5
7E65
  8
KL
 10
12852.91352821186
 20
3720.2080357334289
 30
0.0
 11
12852.91352821186
 21
3655.2080357334289
 31
0.0
  0
LINE
  5
7E66
  8
KL
 10
12892.91352821186
 20
3655.2080357334289
 30
0.0
 11
12892.91352821186
 21
3720.2080357334289
 31
0.0
  0
LINE
  5
7E67
  8
CT
 10
12872.91352821186
 20
3645.208035733428
 30
0.0
 11
12872.91352821186
 21
3750.2080357334289
 31
0.0
  0
LINE
  5
7E68
  8
FUTO
 10
8426.7521475961348
 20
3729.9131137334289
 30
0.0
 11
8425.1521715961371
 21
3728.3135047334299
 31
0.0
  0
LINE
  5
7E69
  8
FUTO
 10
8426.7521475961348
 20
3729.9131137334289
 30
0.0
 11
8425.1521715961371
 21
3731.5136997334289
 31
0.0
  0
LINE
  5
7E6A
  8
FUTO
 10
8426.7521475961348
 20
3729.9131137334289
 30
0.0
 11
8438.852122596134
 21
3729.9131137334289
 31
0.0
  0
LINE
  5
7E6B
  8
FUTO
 10
8425.1522935961348
 20
3736.19827073343
 30
0.0
 11
8426.7522695961343
 21
3737.797879733429
 31
0.0
  0
LINE
  5
7E6C
  8
FUTO
 10
8426.7521475961348
 20
3737.797879733429
 30
0.0
 11
8438.852122596134
 21
3737.797879733429
 31
0.0
  0
LINE
  5
7E6D
  8
FUTO
 10
8426.7521475961348
 20
3710.502957733429
 30
0.0
 11
8425.1521715961371
 21
3712.103543733429
 31
0.0
  0
LINE
  5
7E6E
  8
FUTO
 10
8426.7521475961348
 20
3710.502957733429
 30
0.0
 11
8425.1521715961371
 21
3708.9033487334291
 31
0.0
  0
LINE
  5
7E6F
  8
FUTO
 10
8426.7521475961348
 20
3710.502957733429
 30
0.0
 11
8438.852122596134
 21
3710.502957733429
 31
0.0
  0
LINE
  5
7E70
  8
FUTO
 10
8426.7521475961348
 20
3702.6181927334301
 30
0.0
 11
8438.852122596134
 21
3702.6181927334301
 31
0.0
  0
LINE
  5
7E71
  8
FUTO
 10
8426.7521475961348
 20
3702.6181927334301
 30
0.0
 11
8425.1521715961371
 21
3704.2187777334302
 31
0.0
  0
LINE
  5
7E72
  8
FUTO
 10
8425.1522935961348
 20
3736.19827073343
 30
0.0
 11
8425.1522935961348
 21
3704.2187777334302
 31
0.0
  0
LINE
  5
7E73
  8
FUTO
 10
8438.8522445961353
 20
3737.797879733429
 30
0.0
 11
8438.8522445961353
 21
3702.6181927334301
 31
0.0
  0
LINE
  5
7E74
  8
HOSO
 10
8501.2066155961347
 20
3713.2080357334289
 30
0.0
 11
8438.8524885961342
 21
3713.2080357334289
 31
0.0
  0
LINE
  5
7E75
  8
FUTO
 10
8501.2066155961347
 20
3729.2080357334289
 30
0.0
 11
8438.8524885961342
 21
3729.2080357334289
 31
0.0
  0
LINE
  5
7E76
  8
HOSO
 10
8438.8522445961353
 20
3727.2080357334289
 30
0.0
 11
8501.2066155961347
 21
3727.2080357334289
 31
0.0
  0
LINE
  5
7E77
  8
FUTO
 10
8438.8522445961353
 20
3711.2080357334289
 30
0.0
 11
8501.2066155961347
 21
3711.208035733428
 31
0.0
  0
LINE
  5
7E78
  8
FUTO
 10
8597.2067375961342
 20
3727.2080357334289
 30
0.0
 11
8595.2067375961342
 21
3729.2080357334289
 31
0.0
  0
LINE
  5
7E79
  8
HOSO
 10
8533.3732822628008
 20
3727.2080357334289
 30
0.0
 11
8597.2066145961344
 21
3727.2080357334289
 31
0.0
  0
LINE
  5
7E7A
  8
FUTO
 10
8595.2067375961342
 20
3729.2080357334289
 30
0.0
 11
8533.0399489294687
 21
3729.2080357334289
 31
0.0
  0
LINE
  5
7E7B
  8
FUTO
 10
8595.2067375961342
 20
3711.2080357334289
 30
0.0
 11
8597.2067375961342
 21
3713.2080357334289
 31
0.0
  0
LINE
  5
7E7C
  8
FUTO
 10
8536.0399489294687
 20
3711.208035733428
 30
0.0
 11
8595.2067375961342
 21
3711.2080357334289
 31
0.0
  0
LINE
  5
7E7D
  8
HOSO
 10
8597.2067375961342
 20
3713.2080357334289
 30
0.0
 11
8535.7066155961347
 21
3713.2080357334289
 31
0.0
  0
LINE
  5
7E7E
  8
FUTO
 10
8595.2067375961342
 20
3729.2080357334289
 30
0.0
 11
8595.2067375961342
 21
3711.2080357334289
 31
0.0
  0
LINE
  5
7E7F
  8
FUTO
 10
8531.2066155961347
 20
3740.2080357334289
 30
0.0
 11
8536.2066155961347
 21
3710.2080357334289
 31
0.0
  0
LINE
  5
7E80
  8
FUTO
 10
8854.2067375961342
 20
3705.2080357334289
 30
0.0
 11
8718.2066155961365
 21
3705.2080357334289
 31
0.0
  0
LINE
  5
7E81
  8
FUTO
 10
8534.2066155961347
 20
3710.2080357334289
 30
0.0
 11
8718.2066155961365
 21
3710.2080357334289
 31
0.0
  0
LINE
  5
7E82
  8
FUTO
 10
8531.2066155961347
 20
3740.2080357334289
 30
0.0
 11
8501.2066155961347
 21
3740.2080357334289
 31
0.0
  0
LINE
  5
7E83
  8
CT
 10
8597.2067375961342
 20
3720.2080357334289
 30
0.0
 11
8415.1522935961348
 21
3720.2080357334289
 31
0.0
  0
LINE
  5
7E84
  8
FUTO
 10
8526.2066155961365
 20
3655.2080357334298
 30
0.0
 11
8501.2066155961347
 21
3655.2080357334298
 31
0.0
  0
LINE
  5
7E85
  8
FUTO
 10
8529.2066155961365
 20
3662.2080357334298
 30
0.0
 11
8526.2066155961365
 21
3662.2080357334298
 31
0.0
  0
LINE
  5
7E86
  8
FUTO
 10
8526.2066155961365
 20
3662.2080357334298
 30
0.0
 11
8526.2066155961365
 21
3655.2080357334298
 31
0.0
  0
ARC
  5
7E87
  8
FUTO
 10
8579.206371596134
 20
3677.2080357334289
 30
0.0
 40
3.0
 50
89.997664999998861
 51
180.0
  0
LINE
  5
7E88
  8
FUTO
 10
8576.2066155961347
 20
3650.2080357334289
 30
0.0
 11
8576.2066155961347
 21
3677.2080357334289
 31
0.0
  0
ARC
  5
7E89
  8
FUTO
 10
8673.2066155961347
 20
3677.2080357334289
 30
0.0
 40
3.0
 50
0.000000000000007
 51
90.002335000001125
  0
LINE
  5
7E8A
  8
FUTO
 10
8676.2066155961347
 20
3650.2080357334289
 30
0.0
 11
8676.2066155961347
 21
3677.2080357334289
 31
0.0
  0
LINE
  5
7E8B
  8
FUTO
 10
8673.2066155961347
 20
3680.2080357334289
 30
0.0
 11
8579.2066155961347
 21
3680.2080357334289
 31
0.0
  0
LINE
  5
7E8C
  8
FUTO
 10
8676.2066155961347
 20
3650.2080357334289
 30
0.0
 11
8576.2066155961347
 21
3650.2080357334289
 31
0.0
  0
LINE
  5
7E8D
  8
FUTO
 10
8526.2066155961365
 20
3655.2080357334298
 30
0.0
 11
8576.2066155961347
 21
3655.2080357334298
 31
0.0
  0
LINE
  5
7E8E
  8
FUTO
 10
8534.2066155961347
 20
3710.2080357334289
 30
0.0
 11
8529.2066155961365
 21
3662.2080357334298
 31
0.0
  0
LINE
  5
7E8F
  8
FUTO
 10
8501.2066155961347
 20
3740.2080357334289
 30
0.0
 11
8501.2066155961347
 21
3655.2080357334298
 31
0.0
  0
LINE
  5
7E90
  8
FUTO
 10
8975.2067375961342
 20
3727.2080357334289
 30
0.0
 11
8977.2067375961342
 21
3729.2080357334289
 31
0.0
  0
LINE
  5
7E91
  8
HOSO
 10
9039.0400099294675
 20
3727.2080357334298
 30
0.0
 11
8975.2067375961342
 21
3727.2080357334289
 31
0.0
  0
LINE
  5
7E92
  8
FUTO
 10
8977.2067375961342
 20
3729.2080357334289
 30
0.0
 11
9039.3733432627996
 21
3729.2080357334289
 31
0.0
  0
LINE
  5
7E93
  8
FUTO
 10
8977.2067375961342
 20
3711.2080357334289
 30
0.0
 11
8975.2067375961342
 21
3713.2080357334289
 31
0.0
  0
LINE
  5
7E94
  8
FUTO
 10
9036.3733432627996
 20
3711.2080357334289
 30
0.0
 11
8977.2067375961342
 21
3711.2080357334289
 31
0.0
  0
LINE
  5
7E95
  8
HOSO
 10
8975.2067375961342
 20
3713.2080357334289
 30
0.0
 11
9036.7066765961354
 21
3713.2080357334289
 31
0.0
  0
LINE
  5
7E96
  8
FUTO
 10
8977.2067375961342
 20
3729.2080357334289
 30
0.0
 11
8977.2067375961342
 21
3711.2080357334289
 31
0.0
  0
LINE
  5
7E97
  8
FUTO
 10
9041.2066765961354
 20
3740.2080357334289
 30
0.0
 11
9036.2066765961354
 21
3710.2080357334289
 31
0.0
  0
LINE
  5
7E98
  8
FUTO
 10
9071.2066765961354
 20
3729.2080357334289
 30
0.0
 11
9133.5612295961364
 21
3729.2080357334289
 31
0.0
  0
LINE
  5
7E99
  8
HOSO
 10
9133.5611685961339
 20
3727.2080357334289
 30
0.0
 11
9071.2066765961354
 21
3727.2080357334289
 31
0.0
  0
LINE
  5
7E9A
  8
HOSO
 10
9071.2066765961354
 20
3713.2080357334298
 30
0.0
 11
9133.5612295961364
 21
3713.2080357334289
 31
0.0
  0
LINE
  5
7E9B
  8
FUTO
 10
9133.5611685961339
 20
3711.2080357334289
 30
0.0
 11
9071.2066765961354
 21
3711.2080357334289
 31
0.0
  0
LINE
  5
7E9C
  8
FUTO
 10
9133.5611685961339
 20
3737.797879733429
 30
0.0
 11
9133.5611685961339
 21
3702.6181927334301
 31
0.0
  0
LINE
  5
7E9D
  8
FUTO
 10
9145.6611445961353
 20
3729.9131137334289
 30
0.0
 11
9147.2611195961344
 21
3728.3135047334299
 31
0.0
  0
LINE
  5
7E9E
  8
FUTO
 10
9145.6611445961353
 20
3729.9131137334289
 30
0.0
 11
9147.2611195961344
 21
3731.5136997334289
 31
0.0
  0
LINE
  5
7E9F
  8
FUTO
 10
9147.2611195961344
 20
3736.19827073343
 30
0.0
 11
9145.6611445961353
 21
3737.797879733429
 31
0.0
  0
LINE
  5
7EA0
  8
FUTO
 10
9145.6611445961353
 20
3710.502957733429
 30
0.0
 11
9147.2611195961344
 21
3712.103543733429
 31
0.0
  0
LINE
  5
7EA1
  8
FUTO
 10
9145.6611445961353
 20
3710.502957733429
 30
0.0
 11
9147.2611195961344
 21
3708.9033487334291
 31
0.0
  0
LINE
  5
7EA2
  8
FUTO
 10
9145.6611445961353
 20
3702.6181927334301
 30
0.0
 11
9147.2611195961344
 21
3704.2187777334302
 31
0.0
  0
LINE
  5
7EA3
  8
FUTO
 10
9147.2611195961344
 20
3736.19827073343
 30
0.0
 11
9147.2611195961344
 21
3704.2187777334302
 31
0.0
  0
LINE
  5
7EA4
  8
FUTO
 10
9145.6611445961353
 20
3710.502957733429
 30
0.0
 11
9133.5611685961339
 21
3710.502957733429
 31
0.0
  0
LINE
  5
7EA5
  8
FUTO
 10
9145.6611445961353
 20
3729.9131137334289
 30
0.0
 11
9133.5611685961339
 21
3729.9131137334289
 31
0.0
  0
LINE
  5
7EA6
  8
FUTO
 10
9145.6611445961353
 20
3702.6181927334301
 30
0.0
 11
9133.5611685961339
 21
3702.6181927334301
 31
0.0
  0
LINE
  5
7EA7
  8
FUTO
 10
9145.6611445961353
 20
3737.797879733429
 30
0.0
 11
9133.5611685961339
 21
3737.797879733429
 31
0.0
  0
LINE
  5
7EA8
  8
FUTO
 10
9041.2066765961354
 20
3740.2080357334289
 30
0.0
 11
9071.2066765961354
 21
3740.2080357334289
 31
0.0
  0
LINE
  5
7EA9
  8
CT
 10
8975.2067375961342
 20
3720.2080357334289
 30
0.0
 11
9157.2611195961326
 21
3720.2080357334289
 31
0.0
  0
ARC
  5
7EAA
  8
FUTO
 10
8899.2066155961347
 20
3677.2080357334289
 30
0.0
 40
2.999938999999999
 50
89.998833000023183
 51
180.0
  0
LINE
  5
7EAB
  8
FUTO
 10
8896.2067375961342
 20
3650.2080357334289
 30
0.0
 11
8896.2067375961342
 21
3677.2080357334289
 31
0.0
  0
ARC
  5
7EAC
  8
FUTO
 10
8993.2067375961342
 20
3677.2080357334289
 30
0.0
 40
3.0
 50
0.000000000000007
 51
90.001167000028914
  0
LINE
  5
7EAD
  8
FUTO
 10
9043.2066765961354
 20
3662.2080357334298
 30
0.0
 11
9046.2066765961354
 21
3662.2080357334298
 31
0.0
  0
LINE
  5
7EAE
  8
FUTO
 10
9046.2066765961354
 20
3662.2080357334298
 30
0.0
 11
9046.2066765961354
 21
3655.2080357334298
 31
0.0
  0
LINE
  5
7EAF
  8
FUTO
 10
9046.2066765961354
 20
3655.2080357334298
 30
0.0
 11
8996.2067375961342
 21
3655.2080357334298
 31
0.0
  0
LINE
  5
7EB0
  8
FUTO
 10
8996.2067375961342
 20
3650.2080357334289
 30
0.0
 11
8996.2067375961342
 21
3677.2080357334289
 31
0.0
  0
LINE
  5
7EB1
  8
FUTO
 10
8899.2067375961342
 20
3680.2080357334289
 30
0.0
 11
8993.2067375961342
 21
3680.2080357334289
 31
0.0
  0
LINE
  5
7EB2
  8
FUTO
 10
8896.2067375961342
 20
3650.2080357334289
 30
0.0
 11
8996.2067375961342
 21
3650.2080357334289
 31
0.0
  0
LINE
  5
7EB3
  8
FUTO
 10
9046.2066765961354
 20
3655.2080357334298
 30
0.0
 11
9071.2066765961354
 21
3655.2080357334298
 31
0.0
  0
LINE
  5
7EB4
  8
FUTO
 10
9038.2066765961354
 20
3710.2080357334289
 30
0.0
 11
9043.2066765961354
 21
3662.2080357334298
 31
0.0
  0
LINE
  5
7EB5
  8
FUTO
 10
9071.2066765961354
 20
3740.2080357334289
 30
0.0
 11
9071.2066765961354
 21
3655.2080357334298
 31
0.0
  0
LINE
  5
7EB6
  8
CT
 10
8946.2067375961324
 20
3700.2080357334289
 30
0.0
 11
8946.2067375961324
 21
3630.2080357334298
 31
0.0
  0
LINE
  5
7EB7
  8
FUTO
 10
9038.2066765961354
 20
3710.2080357334289
 30
0.0
 11
8854.2067375961342
 21
3710.2080357334289
 31
0.0
  0
LINE
  5
7EB8
  8
FUTO
 10
8896.2067375961342
 20
3655.2080357334298
 30
0.0
 11
8676.2067375961342
 21
3655.2080357334298
 31
0.0
  0
LINE
  5
7EB9
  8
KL
 10
12602.91352821185
 20
3662.2080357334289
 30
0.0
 11
12852.91352821186
 21
3662.2080357334289
 31
0.0
  0
LINE
  5
7EBA
  8
KL
 10
12519.91352821185
 20
3655.2080357334289
 30
0.0
 11
12935.91352821185
 21
3655.2080357334289
 31
0.0
  0
LINE
  5
7EBB
  8
KL
 10
12543.91352821185
 20
4072.2080357334289
 30
0.0
 11
12543.91352821185
 21
4035.208035733428
 31
0.0
  0
ARC
  5
7EBC
  8
KL
 10
12508.19917321186
 20
4089.303983733429
 30
0.0
 40
9.9999679999999991
 50
91.999329000023934
 51
135.0
  0
ARC
  5
7EBD
  8
FUTO
 10
12481.206008211861
 20
4062.3108197334282
 30
0.0
 40
10.000024
 50
135.0
 51
177.00096100001281
  0
LINE
  5
7EBE
  8
KL
 10
12501.128128211851
 20
4096.3750287334287
 30
0.0
 11
12474.134964211849
 21
4069.381863733428
 31
0.0
  0
LINE
  5
7EBF
  8
KL
 10
12533.91352821185
 20
4072.2080357334289
 30
0.0
 11
12538.91352821185
 21
4072.2080357334289
 31
0.0
  0
LINE
  5
7EC0
  8
KL
 10
12538.91352821185
 20
4072.2080357334289
 30
0.0
 11
12543.91352821185
 21
4072.2080357334289
 31
0.0
  0
LINE
  5
7EC1
  8
KL
 10
12553.291702211851
 20
4107.2080357334289
 30
0.0
 11
12543.91352821185
 21
4072.2080357334289
 31
0.0
  0
LINE
  5
7EC2
  8
KL
 10
12533.91352821185
 20
4100.2080357334289
 30
0.0
 11
12507.850296211849
 21
4099.297879733429
 31
0.0
  0
LINE
  5
7EC4
  8
KL
 10
12568.91352821186
 20
4120.2080357334289
 30
0.0
 11
12553.291702211851
 21
4107.2080357334289
 31
0.0
  0
LINE
  5
7EC5
  8
FUTO
 10
12302.41352821185
 20
3944.2080357334289
 30
0.0
 11
12302.41352821185
 21
3880.2080357334289
 31
0.0
  0
ARC
  5
7EC6
  8
FUTO
 10
12454.41352821185
 20
3988.208035733428
 30
0.0
 40
2.0
 50
90.0
 51
180.0
  0
ARC
  5
7ED5
  8
KL
 10
12553.91352821185
 20
4035.208035733428
 30
0.0
 40
10.0
 50
90.0
 51
180.0
  0
ARC
  5
7ED8
  8
FUTO
 10
12464.56660421185
 20
3993.2080357334289
 30
0.0
 40
2.9999599999999988
 50
270.0
 51
357.00044300001662
  0
LINE
  5
7ED9
  8
FUTO
 10
12464.56660421185
 20
3990.2080357334289
 30
0.0
 11
12454.41352821185
 21
3990.2080357334289
 31
0.0
  0
LINE
  5
7EDA
  8
FUTO
 10
12412.41352821185
 20
3944.2080357334289
 30
0.0
 11
12412.41352821185
 21
3940.2080357334289
 31
0.0
  0
LINE
  5
7EDB
  8
FUTO
 10
12442.41352821185
 20
3942.7080357334289
 30
0.0
 11
12452.41352821185
 21
3942.7080357334289
 31
0.0
  0
LINE
  5
7EDC
  8
FUTO
 10
12442.41352821185
 20
3877.7080357334289
 30
0.0
 11
12452.41352821185
 21
3877.7080357334289
 31
0.0
  0
LINE
  5
7EDD
  8
FUTO
 10
12442.41352821185
 20
3877.7080357334289
 30
0.0
 11
12442.41352821185
 21
3942.7080357334289
 31
0.0
  0
ARC
  5
7EDE
  8
KL
 10
12553.91352821185
 20
3935.208035733428
 30
0.0
 40
10.0
 50
180.0
 51
270.0
  0
LINE
  5
7EDF
  8
FUTO
 10
12452.41352821185
 20
3988.208035733428
 30
0.0
 11
12452.41352821185
 21
3910.2080357334289
 31
0.0
  0
LINE
  5
7EE0
  8
KL
 10
12543.91352821185
 20
3935.208035733428
 30
0.0
 11
12543.91352821185
 21
4035.208035733428
 31
0.0
  0
LINE
  5
7EE1
  8
FUTO
 10
12442.41352821185
 20
3940.2080357334289
 30
0.0
 11
12302.41352821185
 21
3940.2080357334289
 31
0.0
  0
LINE
  5
7EE2
  8
FUTO
 10
12442.41352821185
 20
3880.2080357334289
 30
0.0
 11
12302.41352821185
 21
3880.2080357334289
 31
0.0
  0
LINE
  5
7EE3
  8
FUTO
 10
12412.41352821185
 20
3944.2080357334289
 30
0.0
 11
12302.41352821185
 21
3944.2080357334289
 31
0.0
  0
LINE
  5
7EE4
  8
KL
 10
12538.91352821185
 20
4072.2080357334289
 30
0.0
 11
12538.91352821185
 21
3910.2080357334289
 31
0.0
  0
LINE
  5
7EE5
  8
KL
 10
12533.91352821185
 20
4100.2080357334289
 30
0.0
 11
12533.91352821185
 21
3910.2080357334289
 31
0.0
  0
LINE
  5
7EE6
  8
FUTO
 10
12471.21968021186
 20
4062.8340127334291
 30
0.0
 11
12466.576858211851
 21
3974.2427037334292
 31
0.0
  0
LINE
  5
7EE8
  8
KL
 10
12538.91352821185
 20
4072.2080357334289
 30
0.0
 11
12538.91352821185
 21
3910.2080357334289
 31
0.0
  0
ARC
  5
7EE9
  8
KL
 10
12716.67854321186
 20
4128.4871497334289
 30
0.0
 40
2.9999909999999992
 50
96.115172999988943
 51
174.80557099997009
  0
LINE
  5
7EEA
  8
KL
 10
12713.690872211861
 20
4128.7587567334276
 30
0.0
 11
12712.91352821185
 21
4120.2080357334289
 31
0.0
  0
ARC
  5
7EEB
  8
KL
 10
12706.95515421185
 20
4120.9378337334292
 30
0.0
 40
5.9999760000000002
 50
354.80557299999322
 51
54.396263000016731
  0
ARC
  5
7EEC
  8
KL
 10
12739.148513211851
 20
4128.4871497334289
 30
0.0
 40
2.999981
 50
5.194427000006832
 51
83.884827000011072
  0
ARC
  5
7EED
  8
KL
 10
12727.91352821185
 20
4150.2080357334289
 30
0.0
 40
30.0
 50
305.19004800002568
 51
305.60386699999998
  0
LINE
  5
7EEE
  8
KL
 10
12727.91352821185
 20
4132.708035733428
 30
0.0
 11
12739.46809321185
 21
4131.4700597334286
 31
0.0
  0
LINE
  5
7EEF
  8
KL
 10
12742.136184211849
 20
4128.7587567334276
 30
0.0
 11
12742.91352821185
 21
4120.2080357334289
 31
0.0
  0
ARC
  5
7EF0
  8
KL
 10
12748.87190221186
 20
4120.9378337334292
 30
0.0
 40
5.9999820000000001
 50
125.6037369999832
 51
185.19442700000681
  0
LINE
  5
7EF1
  8
KL
 10
12727.91352821185
 20
4132.708035733428
 30
0.0
 11
12716.358963211849
 21
4131.4700597334286
 31
0.0
  0
LINE
  5
7EF2
  8
KL
 10
12716.358963211849
 20
4131.4700597334286
 30
0.0
 11
12739.46809321185
 21
4131.4700597334286
 31
0.0
  0
LINE
  5
7EF3
  8
KL
 10
12767.91352821185
 20
4150.2080357334289
 30
0.0
 11
12687.91352821185
 21
4150.2080357334289
 31
0.0
  0
LINE
  5
7EF4
  8
KL
 10
12668.91352821186
 20
4059.2080357334289
 30
0.0
 11
12786.91352821185
 21
4059.2080357334289
 31
0.0
  0
CIRCLE
  5
7EF5
  8
KL
 10
12727.91352821185
 20
4150.2080357334289
 30
0.0
 40
17.5
  0
ARC
  5
7EF6
  8
KL
 10
12727.91352821185
 20
4150.2080357334289
 30
0.0
 40
30.0
 50
305.60386699999998
 51
234.39614899998969
  0
LINE
  5
7EF7
  8
KL
 10
12886.913467211851
 20
4120.2080357334289
 30
0.0
 11
12896.913467211851
 21
4111.8862587334288
 31
0.0
  0
ARC
  5
7EF8
  8
KL
 10
12943.386856211861
 20
4093.7080357334289
 30
0.0
 40
20.0
 50
69.99995399998474
 51
90.0
  0
ARC
  5
7EF9
  8
KL
 10
12980.66224621185
 20
4122.708035733428
 30
0.0
 40
20.0
 50
250.00027499999021
 51
270.0
  0
LINE
  5
7EFC
  8
KL
 10
12950.227310211851
 20
4112.5019817334287
 30
0.0
 11
12973.821914211851
 21
4103.9140907334277
 31
0.0
  0
LINE
  5
7EFD
  8
KL
 10
12896.913467211851
 20
4113.7080357334289
 30
0.0
 11
12943.386856211861
 21
4113.7080357334289
 31
0.0
  0
LINE
  5
7EFE
  8
KL
 10
12886.913467211851
 20
4120.2080357334289
 30
0.0
 11
12727.91352821185
 21
4120.2080357334289
 31
0.0
  0
LINE
  5
7EFF
  8
KL
 10
12789.913467211851
 20
4052.208035733428
 30
0.0
 11
12665.91352821185
 21
4052.208035733428
 31
0.0
  0
ARC
  5
7F00
  8
KL
 10
12665.91352821185
 20
3877.5102817334291
 30
0.0
 40
20.0
 50
180.0
 51
270.0
  0
CIRCLE
  5
7F01
  8
KL
 10
12727.91352821185
 20
3844.5102817334291
 30
0.0
 40
3.5
  0
LINE
  5
7F02
  8
KL
 10
12734.36640921186
 20
3844.5102817334291
 30
0.0
 11
12719.777298211849
 21
3844.5102817334291
 31
0.0
  0
LINE
  5
7F03
  8
KL
 10
12665.91352821185
 20
3857.5102817334291
 30
0.0
 11
12789.91352821186
 21
3857.5102817334291
 31
0.0
  0
LINE
  5
7F04
  8
KL
 10
12786.913467211851
 20
3837.5102817334291
 30
0.0
 11
12668.91352821186
 21
3837.5102817334291
 31
0.0
  0
LINE
  5
7F05
  8
KL
 10
12645.91352821185
 20
4032.2080357334289
 30
0.0
 11
12645.91352821185
 21
3877.5102817334291
 31
0.0
  0
LINE
  5
7F06
  8
KL
 10
12638.91352821185
 20
4029.2080357334289
 30
0.0
 11
12638.91352821185
 21
3867.5102817334291
 31
0.0
  0
LINE
  5
7F07
  8
KL
 10
12896.913467211851
 20
4045.2080357334289
 30
0.0
 11
12812.290664211851
 21
4045.2080357334289
 31
0.0
  0
LINE
  5
7F0B
  8
KL
 10
12896.913467211851
 20
3925.2080357334289
 30
0.0
 11
12816.913467211851
 21
3925.2080357334289
 31
0.0
  0
LINE
  5
7F0C
  8
KL
 10
12809.913467211851
 20
4032.2080357334289
 30
0.0
 11
12809.913467211851
 21
3877.5102817334291
 31
0.0
  0
LINE
  5
7F0D
  8
KL
 10
12816.913467211851
 20
4029.2080357334289
 30
0.0
 11
12816.913467211851
 21
3867.5102817334291
 31
0.0
  0
ARC
  5
7F0E
  8
KL
 10
12789.913467211851
 20
3877.5102817334291
 30
0.0
 40
20.0
 50
270.0
 51
0.000000000000007
  0
LINE
  5
7F0F
  8
KL
 10
12836.913467211851
 20
3985.208035733428
 30
0.0
 11
12618.91352821185
 21
3985.208035733428
 31
0.0
  0
ARC
  5
7F10
  8
KL
 10
12789.913467211851
 20
4032.2080357334289
 30
0.0
 40
20.0
 50
0.000000000000007
 51
90.0
  0
ARC
  5
7F11
  8
KL
 10
12665.91352821185
 20
4032.2080357334289
 30
0.0
 40
20.0
 50
90.0
 51
180.0
  0
ARC
  5
7F12
  8
KL
 10
12668.91352821186
 20
4029.2080357334289
 30
0.0
 40
30.0
 50
90.0
 51
180.0
  0
ARC
  5
7F13
  8
KL
 10
12786.913467211851
 20
4029.2080357334289
 30
0.0
 40
30.0
 50
0.000000000000007
 51
90.0
  0
LINE
  5
7F18
  8
KL
 10
12568.91352821186
 20
4120.2080357334289
 30
0.0
 11
12727.91352821185
 21
4120.2080357334289
 31
0.0
  0
LINE
  5
7F19
  8
KL
 10
12553.91352821185
 20
4045.2080357334289
 30
0.0
 11
12643.53633121185
 21
4045.2080357334289
 31
0.0
  0
LINE
  5
7F1A
  8
KL
 10
12553.91352821185
 20
3925.2080357334289
 30
0.0
 11
12638.91352821185
 21
3925.2080357334289
 31
0.0
  0
ARC
  5
7F1B
  8
FUTO
 10
12454.41352821185
 20
3832.2080357334289
 30
0.0
 40
2.0
 50
180.0
 51
270.0
  0
ARC
  5
7F1C
  8
FUTO
 10
12464.56660421185
 20
3827.2080357334289
 30
0.0
 40
3.0
 50
2.9995570000354208
 51
90.0
  0
ARC
  5
7F1D
  8
FUTO
 10
12479.263137211859
 20
3795.1762977334288
 30
0.0
 40
10.000139999999989
 50
183.00042699998181
 51
225.00097699998821
  0
ARC
  5
7F2C
  8
FUTO
 10
12481.206008211861
 20
3758.1052527334282
 30
0.0
 40
9.9999679999999991
 50
182.9990540000266
 51
225.0
  0
LINE
  5
7F2D
  8
KL
 10
12543.91352821185
 20
3758.4472937334281
 30
0.0
 11
12563.002151211849
 21
3758.4472937334281
 31
0.0
  0
LINE
  5
7F2E
  8
KL
 10
12544.94941721185
 20
3748.2080357334289
 30
0.0
 11
12538.91352821185
 21
3748.2080357334289
 31
0.0
  0
LINE
  5
7F2F
  8
KL
 10
12533.91352821185
 20
3748.2080357334289
 30
0.0
 11
12538.91352821185
 21
3748.2080357334289
 31
0.0
  0
ARC
  5
7F30
  8
KL
 10
12550.91352821186
 20
3727.2080357334289
 30
0.0
 40
3.0
 50
90.0
 51
180.0
  0
ARC
  5
7F31
  8
KL
 10
12558.002151211849
 20
3735.208035733428
 30
0.0
 40
5.0
 50
270.0
 51
0.000000000000007
  0
LINE
  5
7F32
  8
KL
 10
12543.91352821185
 20
3751.3345007334292
 30
0.0
 11
12546.472122211861
 21
3751.3345007334292
 31
0.0
  0
LINE
  5
7F33
  8
KL
 10
12550.91352821186
 20
3730.2080357334289
 30
0.0
 11
12543.91352821185
 21
3751.3345007334292
 31
0.0
  0
LINE
  5
7F34
  8
KL
 10
12563.002151211849
 20
3735.208035733428
 30
0.0
 11
12563.002151211849
 21
3758.4472937334281
 31
0.0
  0
LINE
  5
7F35
  8
KL
 10
12554.07173121185
 20
3730.2080357334289
 30
0.0
 11
12543.91352821185
 21
3758.4472937334281
 31
0.0
  0
LINE
  5
7F38
  8
FUTO
 10
12467.54487621185
 20
3827.7032757334282
 30
0.0
 11
12471.21968021186
 21
3757.5820597334282
 31
0.0
  0
LINE
  5
7F3A
  8
KL
 10
12500.98457321185
 20
3759.3127727334281
 30
0.0
 11
12472.192092211861
 21
3788.1050087334279
 31
0.0
  0
LINE
  5
7F3D
  8
FUTO
 10
12464.56660421185
 20
3830.2080357334289
 30
0.0
 11
12454.41352821185
 21
3830.2080357334289
 31
0.0
  0
ARC
  5
7F3E
  8
KL
 10
12508.19917321186
 20
3731.1120887334291
 30
0.0
 40
9.9999839999999995
 50
225.0
 51
268.00067099997602
  0
LINE
  5
7F3F
  8
KL
 10
12533.91352821185
 20
3720.2080357334289
 30
0.0
 11
12507.850296211849
 21
3721.1181927334292
 31
0.0
  0
LINE
  5
7F40
  8
KL
 10
12547.91352821186
 20
3710.208035733428
 30
0.0
 11
12547.91352821186
 21
3727.2080357334289
 31
0.0
  0
LINE
  5
7F41
  8
KL
 10
12501.128128211851
 20
3724.0410437334281
 30
0.0
 11
12474.134964211849
 21
3751.034207733429
 31
0.0
  0
LINE
  5
7F42
  8
KL
 10
12688.313430211851
 20
3731.815946733429
 30
0.0
 11
12607.91352821185
 21
3730.2080357334289
 31
0.0
  0
ARC
  5
7F43
  8
KL
 10
12702.91352821185
 20
3792.704129733429
 30
0.0
 40
5.0
 50
0.000000000000007
 51
90.0
  0
ARC
  5
7F44
  8
KL
 10
12752.91352821185
 20
3792.704129733429
 30
0.0
 40
5.0
 50
90.0
 51
180.0
  0
ARC
  5
7F45
  8
KL
 10
12767.913467211851
 20
3751.8120397334278
 30
0.0
 40
20.000091999999999
 50
180.0
 51
268.85427899999053
  0
LINE
  5
7F46
  8
KL
 10
12747.91352821185
 20
3792.704129733429
 30
0.0
 11
12747.91352821185
 21
3751.8120397334278
 31
0.0
  0
LINE
  5
7F47
  8
KL
 10
12707.91352821185
 20
3792.704129733429
 30
0.0
 11
12707.91352821185
 21
3751.8120397334278
 31
0.0
  0
ARC
  5
7F48
  8
KL
 10
12687.91352821185
 20
3751.8120397334278
 30
0.0
 40
20.0
 50
271.14572100000942
 51
0.000000000000007
  0
LINE
  5
7F49
  8
KL
 10
12627.91352821185
 20
3710.208035733428
 30
0.0
 11
12627.91352821185
 21
3711.2080357334289
 31
0.0
  0
ARC
  5
7F4A
  8
KL
 10
12632.91352821185
 20
3711.2080357334289
 30
0.0
 40
5.0
 50
90.0
 51
180.0
  0
LINE
  5
7F4B
  8
KL
 10
12632.91352821185
 20
3716.2080357334289
 30
0.0
 11
12727.91352821185
 21
3716.2080357334289
 31
0.0
  0
ARC
  5
7F4C
  8
KL
 10
12904.913467211851
 20
3727.2080357334289
 30
0.0
 40
3.0
 50
0.000000000000007
 51
90.0
  0
LINE
  5
7F4D
  8
KL
 10
12847.913467211851
 20
3730.2080357334289
 30
0.0
 11
12855.59302013617
 21
3730.2080357334289
 31
0.0
  0
ARC
  5
7F57
  8
KL
 10
12822.913467211851
 20
3711.2080357334289
 30
0.0
 40
5.0
 50
0.000000000000007
 51
90.0
  0
LINE
  5
7F58
  8
KL
 10
12827.913467211851
 20
3710.208035733428
 30
0.0
 11
12827.913467211851
 21
3711.2080357334289
 31
0.0
  0
LINE
  5
7F59
  8
KL
 10
12827.913467211851
 20
3710.208035733428
 30
0.0
 11
12852.91352821186
 21
3710.208035733428
 31
0.0
  0
LINE
  5
7F5A
  8
KL
 10
12967.51954621185
 20
3714.208035733428
 30
0.0
 11
12977.13551321185
 21
3717.7080357334289
 31
0.0
  0
LINE
  5
7F5B
  8
KL
 10
12967.51954621185
 20
3714.208035733428
 30
0.0
 11
12907.913467211851
 21
3714.208035733428
 31
0.0
  0
LINE
  5
7F5C
  8
KL
 10
12907.913467211851
 20
3710.208035733428
 30
0.0
 11
12907.913467211851
 21
3727.2080357334289
 31
0.0
  0
LINE
  5
7F5D
  8
KL
 10
12767.51356521185
 20
3731.815946733429
 30
0.0
 11
12847.913467211851
 21
3730.2080357334289
 31
0.0
  0
LINE
  5
7F5E
  8
KL
 10
12822.913467211851
 20
3716.2080357334289
 30
0.0
 11
12727.91352821185
 21
3716.2080357334289
 31
0.0
  0
LINE
  5
7F5F
  8
KL
 10
12607.91352821185
 20
3730.2080357334289
 30
0.0
 11
12600.23403628754
 21
3730.2080357334289
 31
0.0
  0
LINE
  5
7F60
  8
KL
 10
12627.91352821185
 20
3710.208035733428
 30
0.0
 11
12602.91352821185
 21
3710.208035733428
 31
0.0
  0
ARC
  5
7F61
  8
KL
 10
12786.913467211851
 20
3867.5102817334291
 30
0.0
 40
30.0
 50
270.0
 51
0.000000000000007
  0
ARC
  5
7F62
  8
KL
 10
12668.91352821186
 20
3867.5102817334291
 30
0.0
 40
30.0
 50
180.0
 51
270.0
  0
LINE
  5
7F63
  8
CT
 10
12727.91352821185
 20
4200.2080357334289
 30
0.0
 11
12727.91352821185
 21
3630.2080357334289
 31
0.0
  0
LINE
  5
7F64
  8
KL
 10
12538.91352821185
 20
3748.2080357334289
 30
0.0
 11
12538.91352821185
 21
3910.2080357334289
 31
0.0
  0
LINE
  5
7F65
  8
KL
 10
12896.913467211851
 20
4113.7080357334289
 30
0.0
 11
12896.913467211851
 21
3730.2080357334289
 31
0.0
  0
LINE
  5
7F66
  8
KL
 10
12946.913467211851
 20
4113.3945597334277
 30
0.0
 11
12946.913467211851
 21
3714.208035733428
 31
0.0
  0
LINE
  5
7F67
  8
KL
 10
12977.113418211849
 20
4103.0254187334276
 30
0.0
 11
12977.113418211849
 21
3717.7080357334289
 31
0.0
  0
LINE
  5
7F68
  8
KL
 10
12538.91352821185
 20
3748.2080357334289
 30
0.0
 11
12538.91352821185
 21
3910.2080357334289
 31
0.0
  0
LINE
  5
7F69
  8
KL
 10
12533.91352821185
 20
3720.2080357334289
 30
0.0
 11
12533.91352821185
 21
3910.2080357334289
 31
0.0
  0
LINE
  5
7F6A
  8
FUTO
 10
12452.41352821185
 20
3832.2080357334289
 30
0.0
 11
12452.41352821185
 21
3910.2080357334289
 31
0.0
  0
ARC
  5
7F6B
  8
KL
 10
13041.60255421185
 20
4087.7080357334289
 30
0.0
 40
15.0
 50
60.00018299999563
 51
90.0
  0
ARC
  5
7F6C
  8
KL
 10
13096.913467211851
 20
4067.3213177334292
 30
0.0
 40
4.9999580000000003
 50
0.000000000000007
 51
59.999718000001181
  0
LINE
  5
7F6D
  8
KL
 10
13099.413467211851
 20
4071.6513957334291
 30
0.0
 11
13049.10255421185
 21
4100.698514733429
 31
0.0
  0
LINE
  5
7F6E
  8
FUTO
 10
8555.1469235961322
 20
4056.4370397334292
 30
0.0
 11
8556.5545165961339
 21
4055.6762977334288
 31
0.0
  0
ARC
  5
7F6F
  8
FUTO
 10
8554.6714595961348
 20
4055.55715673343
 30
0.0
 40
1.000079999999999
 50
61.614464000024142
 51
151.6049860000241
  0
ARC
  5
7F70
  8
FUTO
 10
8556.0790525961347
 20
4054.7964147334292
 30
0.0
 40
1.0001299999999991
 50
331.6139680000237
 51
61.614464000024142
  0
LINE
  5
7F71
  8
FUTO
 10
8635.9853025961347
 20
4054.9631627334302
 30
0.0
 11
8635.1366695961333
 21
4054.9631627334302
 31
0.0
  0
LINE
  5
7F72
  8
FUTO
 10
8635.9853025961347
 20
4054.9631627334302
 30
0.0
 11
8635.9853025961347
 21
4055.8117957334289
 31
0.0
  0
LINE
  5
7F73
  8
FUTO
 10
8643.7388425961344
 20
4062.7168247334289
 30
0.0
 11
8647.3310055961338
 21
4059.124783733429
 31
0.0
  0
LINE
  5
7F74
  8
FUTO
 10
8642.8903315961343
 20
4062.7168247334289
 30
0.0
 11
8643.7388425961344
 21
4062.7168247334289
 31
0.0
  0
LINE
  5
7F75
  8
FUTO
 10
8641.4514885961344
 20
4060.4294717334292
 30
0.0
 11
8641.4514885961344
 21
4061.2781047334288
 31
0.0
  0
LINE
  5
7F76
  8
FUTO
 10
8641.4514885961344
 20
4060.4294717334292
 30
0.0
 11
8645.0436515961337
 21
4056.8374307334302
 31
0.0
  0
LINE
  5
7F77
  8
FUTO
 10
8641.4514885961344
 20
4060.4294717334292
 30
0.0
 11
8640.6029785961346
 21
4060.4294717334292
 31
0.0
  0
LINE
  5
7F78
  8
FUTO
 10
8440.1510735961347
 20
3845.7785927334289
 30
0.0
 11
8437.3527335961353
 21
3847.291043733429
 31
0.0
  0
ARC
  5
7F79
  8
FUTO
 10
8435.8003655961347
 20
3835.6262487334288
 30
0.0
 40
1.0001299999999991
 50
151.61727900002231
 51
241.61447099997949
  0
ARC
  5
7F7A
  8
FUTO
 10
9434.5775875961353
 20
3921.7392857334289
 30
0.0
 40
1000.0
 50
174.84371900001099
 51
184.2695309999898
  0
LINE
  5
7F7B
  8
FUTO
 10
8555.237621596134
 20
4051.1367467334289
 30
0.0
 11
8563.5840575961338
 21
4046.6255167334289
 31
0.0
  0
ARC
  5
7F7C
  8
FUTO
 10
8561.2067375961342
 20
4042.2268347334289
 30
0.0
 40
5.000062999999999
 50
0.000000000000007
 51
61.609245000013807
  0
LINE
  5
7F7D
  8
CT
 10
8583.6515625961365
 20
3985.2080357334289
 30
0.0
 11
8547.2182125961353
 21
3985.2080357334289
 31
0.0
  0
LINE
  5
7F7E
  8
FUTO
 10
8633.6979485961347
 20
4052.6758097334291
 30
0.0
 11
8637.2899895961345
 21
4049.0837687334292
 31
0.0
  0
LINE
  5
7F7F
  8
FUTO
 10
8633.6979485961347
 20
4052.6758097334291
 30
0.0
 11
8633.6979485961347
 21
4053.5244427334292
 31
0.0
  0
LINE
  5
7F80
  8
FUTO
 10
8565.2208365961342
 20
4045.2080357334298
 30
0.0
 11
8633.9330565961318
 21
4045.2080357334298
 31
0.0
  0
LINE
  5
7F81
  8
FUTO
 10
8566.2067375961342
 20
3925.2080357334289
 30
0.0
 11
8583.2602045961339
 21
3925.2080357334289
 31
0.0
  0
ARC
  5
7F82
  8
FUTO
 10
8547.3788575961335
 20
3855.2080357334289
 30
0.0
 40
10.000057999999999
 50
270.0
 51
352.87567099997028
  0
LINE
  5
7F83
  8
FUTO
 10
8566.2067375961342
 20
3925.2080357334289
 30
0.0
 11
8557.3017085961346
 21
3853.967801733429
 31
0.0
  0
LINE
  5
7F84
  8
FUTO
 10
8576.2067375961342
 20
3925.2080357334289
 30
0.0
 11
8576.2067375961342
 21
4045.2080357334298
 31
0.0
  0
LINE
  5
7F85
  8
FUTO
 10
8566.2067375961342
 20
3925.2080357334289
 30
0.0
 11
8566.2067375961342
 21
4042.2268347334289
 31
0.0
  0
LINE
  5
7F86
  8
FUTO
 10
8443.9347045961367
 20
3845.2080357334289
 30
0.0
 11
8547.3788575961335
 21
3845.2080357334289
 31
0.0
  0
LINE
  5
7F87
  8
FUTO
 10
8552.0706295961336
 20
4052.8484167334291
 30
0.0
 11
8475.8874015961337
 21
4047.9338657334288
 31
0.0
  0
ARC
  5
7F88
  8
FUTO
 10
8478.4623535961346
 20
4008.0168737334302
 30
0.0
 40
40.000011000000001
 50
93.690902999999693
 51
174.8436270000314
  0
LINE
  5
7F89
  8
FUTO
 10
8553.7916985961347
 20
4056.0327427334291
 30
0.0
 11
8434.9206055961331
 21
3836.101590733429
 31
0.0
  0
LINE
  5
7F8A
  8
FUTO
 10
8647.3310055961338
 20
4059.124783733429
 30
0.0
 11
8637.2899895961345
 21
4049.0837687334292
 31
0.0
  0
LINE
  5
7F8B
  8
CT
 10
8637.7656975961345
 20
4058.6489537334292
 30
0.0
 11
8643.0138665961349
 21
4053.4009067334291
 31
0.0
  0
LINE
  5
7F8C
  8
FUTO
 10
8642.8903315961343
 20
4062.7168247334289
 30
0.0
 11
8633.6979485961347
 21
4053.5244427334292
 31
0.0
  0
LINE
  5
7F8D
  8
FUTO
 10
8635.9853025961347
 20
4054.9631627334302
 30
0.0
 11
8639.5773435961346
 21
4051.3711217334289
 31
0.0
  0
ARC
  5
7F8E
  8
FUTO
 10
8786.2067375961342
 20
4173.9580357334289
 30
0.0
 40
6.25
 50
0.000000000000007
 51
180.0
  0
LINE
  5
7F8F
  8
FUTO
 10
8769.6099815961352
 20
4116.6268597334292
 30
0.0
 11
8769.7700465961334
 21
4113.04305773343
 31
0.0
  0
LINE
  5
7F90
  8
FUTO
 10
8779.9567375961342
 20
4132.0384197334288
 30
0.0
 11
8774.6521725961338
 21
4131.4700597334286
 31
0.0
  0
ARC
  5
7F91
  8
FUTO
 10
8774.9717675961347
 20
4128.4871497334289
 30
0.0
 40
3.0000059999999991
 50
96.115463000033785
 51
174.8055969999956
  0
LINE
  5
7F92
  8
FUTO
 10
8792.4567375961342
 20
4132.0384197334288
 30
0.0
 11
8797.7613035961367
 21
4131.4700597334286
 31
0.0
  0
ARC
  5
7F93
  8
FUTO
 10
8773.2067375961342
 20
4117.2080357334289
 30
0.0
 40
3.0
 50
90.0
 51
133.8690379999866
  0
ARC
  5
7F94
  8
FUTO
 10
8786.2067375961342
 20
3910.2080357334289
 30
0.0
 40
209.99987799999991
 50
93.733024999983584
 51
93.766990999962644
  0
ARC
  5
7F95
  8
FUTO
 10
8772.7295345961338
 20
4116.7687657334291
 30
0.0
 40
3.0001099999999989
 50
4.9449460000082901
 51
93.734192000008321
  0
ARC
  5
7F96
  8
FUTO
 10
8773.2067375961342
 20
4117.2080357334289
 30
0.0
 40
3.0
 50
90.0
 51
132.5596429999928
  0
LINE
  5
7F97
  8
FUTO
 10
8775.7183045961337
 20
4117.0273107334287
 30
0.0
 11
8776.0273865961353
 21
4113.4532147334276
 31
0.0
  0
LINE
  5
7F98
  8
FUTO
 10
8796.6950495961337
 20
4117.0273107334287
 30
0.0
 11
8796.3859675961357
 21
4113.4532147334276
 31
0.0
  0
ARC
  5
7F99
  8
FUTO
 10
8795.4567375961342
 20
4125.6406537334287
 30
0.0
 40
3.0
 50
180.0
 51
270.0
  0
ARC
  5
7F9A
  8
FUTO
 10
8776.9567375961342
 20
4125.9288617334296
 30
0.0
 40
3.0
 50
270.0
 51
0.000000000000007
  0
LINE
  5
7F9B
  8
FUTO
 10
8771.9840815961343
 20
4128.7587567334276
 30
0.0
 11
8771.2067375961342
 21
4120.2080357334289
 31
0.0
  0
ARC
  5
7F9C
  8
FUTO
 10
8772.6069605961329
 20
4116.76077073343
 30
0.0
 40
3.000081999999999
 50
93.765747000020752
 51
182.55828900003789
  0
ARC
  5
7F9D
  8
FUTO
 10
8786.2067375961342
 20
3910.2080357334289
 30
0.0
 40
209.99998500000001
 50
86.233009000037313
 51
86.267005999973264
  0
ARC
  5
7F9E
  8
FUTO
 10
8799.8063935961327
 20
4116.7607097334294
 30
0.0
 40
2.9999649999999991
 50
357.44277999999088
 51
86.232139999971935
  0
LINE
  5
7F9F
  8
FUTO
 10
8802.8033715961337
 20
4116.6268597334292
 30
0.0
 11
8802.6433075961322
 21
4113.04305773343
 31
0.0
  0
LINE
  5
7FA0
  8
FUTO
 10
8800.4293945961344
 20
4128.7587567334276
 30
0.0
 11
8801.2067375961342
 21
4120.2080357334289
 31
0.0
  0
ARC
  5
7FA1
  8
FUTO
 10
8799.2067375961342
 20
4117.2080357334289
 30
0.0
 40
3.0
 50
46.112625000024657
 51
90.0
  0
LINE
  5
7FA2
  8
FUTO
 10
8771.2067375961342
 20
4120.2080357334289
 30
0.0
 11
8801.2067375961342
 21
4120.2080357334289
 31
0.0
  0
ARC
  5
7FA3
  8
FUTO
 10
8799.2067375961342
 20
4117.2080357334289
 30
0.0
 40
3.0
 50
46.168487999999194
 51
90.0
  0
ARC
  5
7FA4
  8
FUTO
 10
8797.4417075961337
 20
4128.4871497334289
 30
0.0
 40
2.9999820000000001
 50
5.1943969999919046
 51
83.884536999966215
  0
ARC
  5
7FA5
  8
FUTO
 10
8799.6839415961349
 20
4116.7687657334291
 30
0.0
 40
3.0000490000000002
 50
86.268058999992206
 51
175.0561099999934
  0
LINE
  5
7FA6
  8
FUTO
 10
8928.6745115961348
 20
4062.7168247334289
 30
0.0
 11
8925.0824705961368
 21
4059.124783733429
 31
0.0
  0
LINE
  5
7FA7
  8
FUTO
 10
8928.6745115961348
 20
4062.7168247334289
 30
0.0
 11
8929.5231445961344
 21
4062.7168247334289
 31
0.0
  0
LINE
  5
7FA8
  8
FUTO
 10
8936.428173596134
 20
4054.9634067334291
 30
0.0
 11
8937.2768065961336
 21
4054.9634067334291
 31
0.0
  0
LINE
  5
7FA9
  8
FUTO
 10
8936.428173596134
 20
4054.9634067334291
 30
0.0
 11
8936.428173596134
 21
4055.8117957334289
 31
0.0
  0
LINE
  5
7FAA
  8
FUTO
 10
8930.9618645961345
 20
4060.4294717334292
 30
0.0
 11
8930.9618645961345
 21
4061.2781047334288
 31
0.0
  0
LINE
  5
7FAB
  8
FUTO
 10
8930.9618645961345
 20
4060.4294717334292
 30
0.0
 11
8931.8104975961342
 21
4060.4294717334292
 31
0.0
  0
LINE
  5
7FAC
  8
FUTO
 10
8930.9618645961345
 20
4060.4294717334292
 30
0.0
 11
8927.3698235961347
 21
4056.8374307334302
 31
0.0
  0
LINE
  5
7FAD
  8
FUTO
 10
8792.4567375961342
 20
4173.9580357334289
 30
0.0
 11
8792.4567375961342
 21
4125.6406537334287
 31
0.0
  0
LINE
  5
7FAE
  8
FUTO
 10
8779.9567375961342
 20
4173.9580357334289
 30
0.0
 11
8779.9567375961342
 21
4125.9288617334296
 31
0.0
  0
LINE
  5
7FAF
  8
FUTO
 10
8938.7155265961337
 20
4052.6758097334291
 30
0.0
 11
8935.1234855961338
 21
4049.0837687334292
 31
0.0
  0
LINE
  5
7FB0
  8
FUTO
 10
8938.7155265961337
 20
4053.5244427334292
 30
0.0
 11
8938.7155265961337
 21
4052.6758097334291
 31
0.0
  0
LINE
  5
7FB1
  8
FUTO
 10
8935.1234855961338
 20
4049.0837687334292
 30
0.0
 11
8925.0824705961368
 21
4059.124783733429
 31
0.0
  0
LINE
  5
7FB2
  8
CT
 10
8934.6476555961344
 20
4058.6489537334292
 30
0.0
 11
8929.3996085961353
 21
4053.4009067334291
 31
0.0
  0
LINE
  5
7FB3
  8
FUTO
 10
8938.7155265961337
 20
4053.5244427334292
 30
0.0
 11
8929.5231445961344
 21
4062.7168247334289
 31
0.0
  0
LINE
  5
7FB4
  8
FUTO
 10
8936.428173596134
 20
4054.9634067334291
 30
0.0
 11
8932.8361325961341
 21
4051.3711217334289
 31
0.0
  0
LINE
  5
7FB5
  8
CT
 10
9009.7067375961342
 20
3680.2080357334289
 30
0.0
 11
8562.7067375961342
 21
3680.2080357334289
 31
0.0
  0
ARC
  5
7FB6
  8
KL
 10
13096.913467211851
 20
3753.094754733429
 30
0.0
 40
5.0
 50
300.00027499997202
 51
0.000000000000007
  0
ARC
  5
7FB7
  8
FUTO
 10
8437.2079585961346
 20
3834.8655067334289
 30
0.0
 40
1.000079999999999
 50
241.61447099997949
 51
331.60498000002087
  0
ARC
  5
7FB8
  8
KL
 10
13041.60255421185
 20
3732.7080357334289
 30
0.0
 40
15.000085
 50
270.0
 51
299.99981700000433
  0
LINE
  5
7FB9
  8
KL
 10
13099.413467211851
 20
3748.764676733429
 30
0.0
 11
13049.10255421185
 21
3719.7175577334292
 31
0.0
  0
ARC
  5
7FBA
  8
FUTO
 10
8602.2067375961342
 20
3784.534696733429
 30
0.0
 40
5.0
 50
124.94366100000759
 51
180.0
  0
LINE
  5
7FBB
  8
FUTO
 10
8599.3428465961351
 20
3788.6333287334292
 30
0.0
 11
8615.2807125961372
 21
3799.7698037334289
 31
0.0
  0
ARC
  5
7FBC
  8
FUTO
 10
8600.2067375961342
 20
3727.2080357334289
 30
0.0
 40
3.0
 50
90.0
 51
180.0
  0
LINE
  5
7FBD
  8
FUTO
 10
8633.6979485961347
 20
3767.7402627334291
 30
0.0
 11
8637.2899895961345
 21
3771.3323037334289
 31
0.0
  0
LINE
  5
7FBE
  8
FUTO
 10
8633.6979485961347
 20
3766.8916297334299
 30
0.0
 11
8633.6979485961347
 21
3767.7402627334291
 31
0.0
  0
LINE
  5
7FBF
  8
FUTO
 10
8635.9853025961347
 20
3765.4526647334292
 30
0.0
 11
8635.1366695961333
 21
3765.4526647334292
 31
0.0
  0
LINE
  5
7FC0
  8
FUTO
 10
8635.9853025961347
 20
3765.4526647334292
 30
0.0
 11
8635.9853025961347
 21
3764.6042767334302
 31
0.0
  0
LINE
  5
7FC1
  8
FUTO
 10
8643.7389645961357
 20
3757.6992467334289
 30
0.0
 11
8647.3310055961338
 21
3761.2912877334288
 31
0.0
  0
LINE
  5
7FC2
  8
FUTO
 10
8643.7389645961357
 20
3757.6992467334289
 30
0.0
 11
8642.8903315961343
 21
3757.6992467334289
 31
0.0
  0
LINE
  5
7FC3
  8
FUTO
 10
8641.4516105961338
 20
3759.986600733429
 30
0.0
 11
8641.4516105961338
 21
3759.1379677334289
 31
0.0
  0
LINE
  5
7FC4
  8
FUTO
 10
8641.4516105961338
 20
3759.986600733429
 30
0.0
 11
8645.0436515961337
 21
3763.5786417334298
 31
0.0
  0
LINE
  5
7FC5
  8
FUTO
 10
8641.4516105961338
 20
3759.986600733429
 30
0.0
 11
8640.6029785961346
 21
3759.986600733429
 31
0.0
  0
LINE
  5
7FC6
  8
FUTO
 10
8637.2899895961345
 20
3771.3323037334289
 30
0.0
 11
8647.3310055961338
 21
3761.2912877334288
 31
0.0
  0
LINE
  5
7FC7
  8
CT
 10
8637.765819596134
 20
3761.7671177334291
 30
0.0
 11
8643.0138665961349
 21
3767.0151647334292
 31
0.0
  0
LINE
  5
7FC8
  8
FUTO
 10
8633.6979485961347
 20
3766.8916297334299
 30
0.0
 11
8642.8903315961343
 21
3757.6992467334289
 31
0.0
  0
LINE
  5
7FC9
  8
FUTO
 10
8635.9853025961347
 20
3765.4526647334292
 30
0.0
 11
8639.5773435961346
 21
3769.0449497334298
 31
0.0
  0
ARC
  5
7FCA
  8
FUTO
 10
8673.7067375961342
 20
3727.2080357334289
 30
0.0
 40
3.0
 50
0.000000000000007
 51
90.0
  0
LINE
  5
7FCB
  8
FUTO
 10
8673.7067375961342
 20
3730.2080357334289
 30
0.0
 11
8600.2067375961342
 21
3730.2080357334289
 31
0.0
  0
LINE
  5
7FCC
  8
FUTO
 10
8597.2067375961342
 20
3710.2080357334289
 30
0.0
 11
8676.7067375961342
 21
3710.2080357334289
 31
0.0
  0
LINE
  5
7FCD
  8
FUTO
 10
8676.7067375961342
 20
3727.2080357334289
 30
0.0
 11
8676.7067375961342
 21
3710.2080357334289
 31
0.0
  0
LINE
  5
7FCE
  8
FUTO
 10
8682.1039545961357
 20
3735.3513467334292
 30
0.0
 11
8676.7067375961342
 21
3715.2080357334289
 31
0.0
  0
LINE
  5
7FCF
  8
CT
 10
8627.2067375961342
 20
3740.2080357334289
 30
0.0
 11
8627.2067375961342
 21
3700.2080357334289
 31
0.0
  0
LINE
  5
7FD0
  8
FUTO
 10
8597.2067375961342
 20
3784.534696733429
 30
0.0
 11
8597.2067375961342
 21
3710.2080357334289
 31
0.0
  0
LINE
  5
7FD1
  8
FUTO
 10
8973.0705075961323
 20
3788.6333287334292
 30
0.0
 11
8957.1326415961339
 21
3799.7698037334289
 31
0.0
  0
ARC
  5
7FD2
  8
FUTO
 10
8898.7067375961342
 20
3727.2080357334289
 30
0.0
 40
3.0
 50
90.0
 51
180.0
  0
LINE
  5
7FD3
  8
FUTO
 10
8938.7155265961337
 20
3767.7402627334291
 30
0.0
 11
8935.1234855961338
 21
3771.3323037334289
 31
0.0
  0
LINE
  5
7FD4
  8
FUTO
 10
8938.7155265961337
 20
3767.7402627334291
 30
0.0
 11
8938.7155265961337
 21
3766.8916297334299
 31
0.0
  0
LINE
  5
7FD5
  8
FUTO
 10
8928.6745115961348
 20
3757.6992467334289
 30
0.0
 11
8925.0824705961368
 21
3761.2912877334288
 31
0.0
  0
LINE
  5
7FD6
  8
FUTO
 10
8929.5231445961344
 20
3757.6992467334289
 30
0.0
 11
8928.6745115961348
 21
3757.6992467334289
 31
0.0
  0
LINE
  5
7FD7
  8
FUTO
 10
8930.9621085961353
 20
3759.986600733429
 30
0.0
 11
8930.9621085961353
 21
3759.1379677334289
 31
0.0
  0
LINE
  5
7FD8
  8
FUTO
 10
8930.9621085961353
 20
3759.986600733429
 30
0.0
 11
8931.8104975961342
 21
3759.986600733429
 31
0.0
  0
LINE
  5
7FD9
  8
FUTO
 10
8936.428173596134
 20
3765.452908733429
 30
0.0
 11
8937.2768065961336
 21
3765.452908733429
 31
0.0
  0
LINE
  5
7FDA
  8
FUTO
 10
8936.428173596134
 20
3765.452908733429
 30
0.0
 11
8936.428173596134
 21
3764.6042767334302
 31
0.0
  0
LINE
  5
7FDB
  8
FUTO
 10
8930.9621085961353
 20
3759.986600733429
 30
0.0
 11
8927.3698235961347
 21
3763.5786417334298
 31
0.0
  0
LINE
  5
7FDC
  8
FUTO
 10
8925.0824705961368
 20
3761.2912877334288
 30
0.0
 11
8935.1234855961338
 21
3771.3323037334289
 31
0.0
  0
LINE
  5
7FDD
  8
CT
 10
8934.6476555961344
 20
3761.7671177334291
 30
0.0
 11
8929.3996085961353
 21
3767.0151647334292
 31
0.0
  0
LINE
  5
7FDE
  8
FUTO
 10
8929.5231445961344
 20
3757.6992467334289
 30
0.0
 11
8938.7155265961337
 21
3766.8916297334299
 31
0.0
  0
LINE
  5
7FDF
  8
FUTO
 10
8936.428173596134
 20
3765.452908733429
 30
0.0
 11
8932.8361325961341
 21
3769.0449497334298
 31
0.0
  0
LINE
  5
7FE0
  8
FUTO
 10
8898.7067375961342
 20
3730.2080357334289
 30
0.0
 11
8972.2067375961342
 21
3730.2080357334289
 31
0.0
  0
LINE
  5
7FE1
  8
FUTO
 10
8895.7067375961342
 20
3727.2080357334289
 30
0.0
 11
8895.7067375961342
 21
3710.2080357334289
 31
0.0
  0
LINE
  5
7FE2
  8
FUTO
 10
8890.3093075961351
 20
3735.3512247334302
 30
0.0
 11
8895.7067375961342
 21
3715.2080357334289
 31
0.0
  0
LINE
  5
7FE3
  8
CT
 10
8945.2067375961342
 20
3740.2080357334289
 30
0.0
 11
8945.2067375961342
 21
3700.2080357334289
 31
0.0
  0
LINE
  5
7FE4
  8
FUTO
 10
8975.2067375961342
 20
3784.534696733429
 30
0.0
 11
8975.2067375961342
 21
3710.2080357334289
 31
0.0
  0
LINE
  5
7FE5
  8
FUTO
 10
8975.2067375961342
 20
3710.2080357334289
 30
0.0
 11
8895.7067375961342
 21
3710.2080357334289
 31
0.0
  0
ARC
  5
7FE6
  8
FUTO
 10
8970.2067375961342
 20
3784.534696733429
 30
0.0
 40
5.0000669999999987
 50
0.000000000000007
 51
55.056335000025037
  0
ARC
  5
7FE7
  8
FUTO
 10
8972.2067375961342
 20
3727.2080357334289
 30
0.0
 40
3.0
 50
0.000000000000007
 51
90.0
  0
LINE
  5
7FE8
  8
FUTO
 10
8731.468700596135
 20
3714.2080357334289
 30
0.0
 11
8840.9447745961352
 21
3714.2080357334289
 31
0.0
  0
LINE
  5
7FE9
  8
CT
 10
8786.2067375961342
 20
4200.2080357334289
 30
0.0
 11
8786.2067375961342
 21
3630.2080357334298
 31
0.0
  0
ARC
  5
7FEA
  8
FUTO
 10
8786.2067375961342
 20
3910.2080357334289
 30
0.0
 40
203.5
 50
285.6036990000095
 51
254.3962400000253
  0
LINE
  5
7FEB
  8
KL
 10
13042.813491211849
 20
3717.7080357334289
 30
0.0
 11
13042.813491211849
 21
4102.6589637334282
 31
0.0
  0
LINE
  5
7FEC
  8
CT
 10
8496.2067375961342
 20
3862.602322733429
 30
0.0
 11
8496.2067375961342
 21
3823.60842673343
 31
0.0
  0
LINE
  5
7FED
  8
FUTO
 10
8556.9586905961369
 20
4054.3208287334301
 30
0.0
 11
8438.0875975961353
 21
3834.3899207334289
 31
0.0
  0
LINE
  5
7FEE
  8
FUTO
 10
8436.7324945961336
 20
3833.9856237334288
 30
0.0
 11
8435.3249015961337
 21
3834.7463657334288
 31
0.0
  0
LINE
  5
7FEF
  8
KL
 10
13101.91352821185
 20
4067.8579997334291
 30
0.0
 11
13101.91352821185
 21
3753.0676857334288
 31
0.0
  0
LINE
  5
7FF0
  8
CT
 10
12282.41352821185
 20
3910.2080357334289
 30
0.0
 11
13121.91352821185
 21
3910.2080357334289
 31
0.0
  0
LINE
  5
7FF1
  8
KL
 10
12980.66224621185
 20
4102.7080357334289
 30
0.0
 11
13041.60255421185
 21
4102.7080357334289
 31
0.0
  0
LINE
  5
7FF2
  8
KL
 10
12977.113418211849
 20
3717.7080357334289
 30
0.0
 11
13041.60255421185
 21
3717.7080357334289
 31
0.0
  0
LINE
  5
7FF3
  8
FUTO
 10
8777.2067375961342
 20
3944.2080357334298
 30
0.0
 11
8795.2067375961342
 21
3944.2080357334298
 31
0.0
  0
LINE
  5
7FF4
  8
FUTO
 10
8777.2067375961342
 20
3933.2080357334289
 30
0.0
 11
8795.2067375961342
 21
3933.2080357334298
 31
0.0
  0
LINE
  5
7FF5
  8
FUTO
 10
8777.2067375961342
 20
3944.2080357334298
 30
0.0
 11
8777.2067375961342
 21
3933.2080357334289
 31
0.0
  0
LINE
  5
7FF6
  8
FUTO
 10
8795.2067375961342
 20
3944.2080357334298
 30
0.0
 11
8795.2067375961342
 21
3933.2080357334289
 31
0.0
  0
LINE
  5
7FF7
  8
CT
 10
8921.2067375961342
 20
7499.072529764906
 30
0.0
 11
8971.2067375961324
 21
7499.072529764906
 31
0.0
  0
LINE
  5
7FF8
  8
CT
 10
8946.2067375961324
 20
7474.0725297649069
 30
0.0
 11
8946.2067375961324
 21
7524.072529764906
 31
0.0
  0
LINE
  5
7FF9
  8
CT
 10
8626.2067375961324
 20
7474.0725297649069
 30
0.0
 11
8626.2067375961324
 21
7524.072529764906
 31
0.0
  0
LINE
  5
7FFA
  8
CT
 10
8651.2067375961324
 20
7499.072529764906
 30
0.0
 11
8601.2067375961342
 21
7499.072529764906
 31
0.0
  0
LINE
  5
7FFB
  8
CT
 10
8651.2067375961324
 20
7959.072529764906
 30
0.0
 11
8601.2067375961342
 21
7959.072529764906
 31
0.0
  0
LINE
  5
7FFC
  8
CT
 10
8626.2067375961324
 20
7984.072529764906
 30
0.0
 11
8626.2067375961324
 21
7934.072529764906
 31
0.0
  0
LINE
  5
7FFD
  8
CT
 10
8946.2067375961324
 20
7984.072529764906
 30
0.0
 11
8946.2067375961324
 21
7934.072529764906
 31
0.0
  0
LINE
  5
7FFE
  8
CT
 10
8921.2067375961342
 20
7959.072529764906
 30
0.0
 11
8971.2067375961324
 21
7959.072529764906
 31
0.0
  0
LINE
  5
8000
  8
SL
 10
8653.7067375961342
 20
7303.572529764906
 30
0.0
 11
8653.7067375961342
 21
7401.5725297649042
 31
0.0
  0
LINE
  5
8001
  8
FUTO
 10
8582.7067375961342
 20
7164.5725297649069
 30
0.0
 11
8582.7067375961342
 21
7453.5725297649124
 31
0.0
  0
LINE
  5
8002
  8
SL
 10
8918.7067375961342
 20
7303.572529764906
 30
0.0
 11
8918.7067375961342
 21
7401.5725297649042
 31
0.0
  0
LINE
  5
8003
  8
SL
 10
8596.2067375961324
 20
8051.1110873930638
 30
0.0
 11
8596.2067375961324
 21
7488.5725297649078
 31
0.0
  0
LINE
  5
8004
  8
SL
 10
8661.2067375961342
 20
8103.072529764906
 30
0.0
 11
8661.2067375961342
 21
7488.5725297649078
 31
0.0
  0
LINE
  5
8005
  8
SL
 10
8911.2067375961342
 20
8103.072529764906
 30
0.0
 11
8911.2067375961342
 21
7488.5725297649078
 31
0.0
  0
LINE
  5
8006
  8
SL
 10
8976.2067375961342
 20
8043.9724927649058
 30
0.0
 11
8976.2067375961342
 21
7488.5725297649078
 31
0.0
  0
LINE
  5
8007
  8
FUTO
 10
8615.2067375961342
 20
8400.5725297649078
 30
0.0
 11
8615.2067375961342
 21
9688.5725297649115
 31
0.0
  0
LINE
  5
8008
  8
FUTO
 10
8665.2067375961342
 20
8450.5725297649078
 30
0.0
 11
8665.2067375961342
 21
9638.5725297649096
 31
0.0
  0
LINE
  5
8018
  8
FUTO
 10
8615.2067375961342
 20
9688.5725297649115
 30
0.0
 11
11016.206737596131
 21
9688.5725297649078
 31
0.0
  0
LINE
  5
8019
  8
FUTO
 10
8615.2067375961342
 20
8400.5725297649078
 30
0.0
 11
11016.206737596131
 21
8400.572529764906
 31
0.0
  0
LINE
  5
801A
  8
FUTO
 10
9086.2067375961342
 20
8400.5725297649078
 30
0.0
 11
9086.2067375961342
 21
8375.5725297649078
 31
0.0
  0
LINE
  5
801C
  8
FUTO
 10
10036.206737596131
 20
8450.5725297649078
 30
0.0
 11
11081.206737596131
 21
8450.5725297649078
 31
0.0
  0
LINE
  5
801D
  8
FUTO
 10
10036.206737596131
 20
9638.5725297649096
 30
0.0
 11
11081.206737596131
 21
9638.5725297649078
 31
0.0
  0
LINE
  5
8021
  8
FUTO
 10
11016.206737596131
 20
9703.5725297649078
 30
0.0
 11
11081.206737596131
 21
9703.5725297649078
 31
0.0
  0
LINE
  5
8022
  8
FUTO
 10
10986.206737596131
 20
8400.5725297649078
 30
0.0
 11
10986.206737596131
 21
8375.5725297649078
 31
0.0
  0
LINE
  5
8025
  8
FUTO
 10
9650.5548647054111
 20
7488.5725297649096
 30
0.0
 11
9650.5548647054111
 21
8375.5725297649078
 31
0.0
  0
LINE
  5
8027
  8
FUTO
 10
10421.85861048685
 20
7488.5725297649096
 30
0.0
 11
10421.85861048685
 21
8375.5725297649078
 31
0.0
  0
DIMENSION
  5
8028
  8
SP
  2
*D12
 10
11431.373128678009
 20
6433.2080357334289
 30
0.0
 11
11343.873128678009
 21
5551.7080357334298
 31
0.0
 70
     0
 13
11188.8385981095
 23
4670.2080357334289
 33
0.0
 14
11081.206737596131
 24
6433.2080357334289
 34
0.0
 50
90.0
1001
ACAD
1000
DSTYLE
1002
{
1070
    40
1040
35.0
1070
    41
1040
2.5
1070
   147
1040
1.0
1002
}
  0
DIMENSION
  5
8053
  8
SP
  2
*D13
 10
11081.206737596131
 20
6686.4032019811766
 30
0.0
 11
10558.706737596131
 21
6773.9032019811766
 31
0.0
 70
     0
 13
10036.206737596131
 23
6503.5661577032788
 33
0.0
 14
11081.206737596131
 24
6433.2080357334289
 34
0.0
1001
ACAD
1000
DSTYLE
1002
{
1070
    40
1040
35.0
1070
    41
1040
2.5
1070
   147
1040
1.0
1002
}
  0
DIMENSION
  5
8095
  8
SP
  2
*D14
 10
7930.5869772825363
 20
9769.5725297649115
 30
0.0
 11
7843.0869772825354
 21
9407.0725297649115
 31
0.0
 70
     0
 13
8273.2067375961342
 23
9044.5725297649115
 33
0.0
 14
9171.2067375961342
 24
9769.5725297649115
 34
0.0
 50
90.0
1001
ACAD
1000
DSTYLE
1002
{
1070
    40
1040
35.0
1070
    41
1040
2.5
1070
   147
1040
1.0
1002
}
  0
DIMENSION
  5
80A2
  8
SP
  2
*D15
 10
7930.5869772825363
 20
7164.5725297649069
 30
0.0
 11
7843.0869772825354
 21
8104.5725297649078
 31
0.0
 70
     0
 13
8273.2067375961342
 23
9044.5725297649115
 33
0.0
 14
8582.7067375961342
 24
7164.5725297649069
 34
0.0
 50
90.0
1001
ACAD
1000
DSTYLE
1002
{
1070
    40
1040
35.0
1070
    41
1040
2.5
1070
   147
1040
1.0
1002
}
  0
LINE
  5
80D6
  8
KL
 10
9096.2067375961324
 20
4426.3530427784708
 30
0.0
 11
9096.2067375961324
 21
3650.2080357334289
 31
0.0
  0
LINE
  5
80D7
  8
KL
 10
9105.2067375961342
 20
4433.2786398522376
 30
0.0
 11
9105.2067375961342
 21
3650.2080357334289
 31
0.0
  0
LINE
  5
80D8
  8
FUTO
 10
9424.7986138423712
 20
4679.2080357334289
 30
0.0
 11
8620.5791930853702
 21
4679.2080357334289
 31
0.0
  0
LINE
  5
80D9
  8
FUTO
 10
9401.4071288520554
 20
4661.2080357334289
 30
0.0
 11
8620.5791930853702
 21
4661.2080357334289
 31
0.0
  0
LINE
  5
80DA
  8
KL
 10
10414.48269760471
 20
4634.0514584674665
 30
0.0
 11
10235.86108593513
 21
4655.4046175697249
 31
0.0
  0
LINE
  5
80DB
  8
KL
 10
10412.346116436071
 20
4616.1787132695454
 30
0.0
 11
10233.724504766489
 21
4637.5318723718037
 31
0.0
  0
LINE
  5
81A6
  8
FUTO
 10
11039.6164118345
 20
4559.5949679559571
 30
0.0
 11
11037.479830665859
 21
4541.722222758036
 31
0.0
  0
LINE
  5
81A7
  8
CT
 10
11038.54812125018
 20
4550.6585953569956
 30
0.0
 11
10234.79279535081
 21
4646.4682449707643
 31
0.0
  0
LINE
  5
81A9
  8
FUTO
 10
8620.5791930853702
 20
4661.2080357334289
 30
0.0
 11
8620.5791930853702
 21
4679.2080357334289
 31
0.0
  0
LINE
  5
81E0
  8
FUTO
 10
13385.21352821186
 20
4550.6585953569956
 30
0.0
 11
14711.613528211859
 21
4550.6585953569956
 31
0.0
  0
LINE
  5
81E1
  8
FUTO
 10
14711.613528211859
 20
4531.6585953569956
 30
0.0
 11
14711.61352821185
 21
3650.2080357334289
 31
0.0
  0
LINE
  5
81E2
  8
FUTO
 10
14701.613528211859
 20
4559.6585953569956
 30
0.0
 11
14701.613528211859
 21
4541.6585953569956
 31
0.0
  0
LINE
  5
81E3
  8
FUTO
 10
13375.21352821186
 20
4531.6585953569966
 30
0.0
 11
13375.21352821186
 21
3650.2080357334289
 31
0.0
  0
LINE
  5
81E4
  8
FUTO
 10
13384.41352821187
 20
6433.2080357334298
 30
0.0
 11
14702.41352821186
 21
6433.2080357334289
 31
0.0
  0
LINE
  5
81F6
  8
FUTO
 10
13375.21352821186
 20
6368.2080357334289
 30
0.0
 11
13384.41352821186
 21
6368.2080357334289
 31
0.0
  0
LINE
  5
81F8
  8
FUTO
 10
13450.21352821186
 20
4712.2080357334289
 30
0.0
 11
14636.61352821185
 21
4712.2080357334289
 31
0.0
  0
LINE
  5
81F9
  8
FUTO
 10
13384.41352821184
 20
4647.2080357334289
 30
0.0
 11
14702.41352821186
 21
4647.2080357334289
 31
0.0
  0
LINE
  5
81FA
  8
FUTO
 10
14702.41352821185
 20
6368.2080357334289
 30
0.0
 11
14711.61352821185
 21
6368.2080357334289
 31
0.0
  0
LINE
  5
81FB
  8
FUTO
 10
13450.21352821186
 20
6368.2080357334289
 30
0.0
 11
14636.61352821185
 21
6368.2080357334289
 31
0.0
  0
LINE
  5
8200
  8
FUTO
 10
11081.206737596131
 20
8385.5725297649078
 30
0.0
 11
11081.206737596131
 21
9703.5725297649078
 31
0.0
  0
LINE
  5
8201
  8
FUTO
 10
11075.206737596131
 20
8385.5725297649078
 30
0.0
 11
11075.206737596131
 21
9703.5725297649078
 31
0.0
  0
LINE
  5
8202
  8
FUTO
 10
11016.206737596131
 20
8385.5725297649078
 30
0.0
 11
11016.206737596131
 21
9703.5725297649078
 31
0.0
  0
LINE
  5
8213
  8
FUTO
 10
8486.2067375961342
 20
8450.5725297649078
 30
0.0
 11
8615.2067375961342
 21
8450.5725297649078
 31
0.0
  0
DIMENSION
  5
8215
  8
SP
  2
*D16
 10
8486.2067375961306
 20
10080.503418743419
 30
0.0
 11
9261.2067375961324
 21
10168.003418743419
 31
0.0
 70
     0
 13
10036.206737596131
 23
9814.3504415817733
 33
0.0
 14
8486.2067375961306
 24
8450.5725297649078
 34
0.0
1001
ACAD
1000
DSTYLE
1002
{
1070
    40
1040
35.0
1070
    41
1040
2.5
1070
   147
1040
1.0
1002
}
  0
DIMENSION
  5
8222
  8
SP
  2
*D17
 10
11081.206737596131
 20
10080.503418743419
 30
0.0
 11
10558.706737596131
 21
10168.003418743419
 31
0.0
 70
     0
 13
10036.206737596131
 23
9814.3504415817733
 33
0.0
 14
11081.206737596131
 24
9688.5725297649078
 34
0.0
1001
ACAD
1000
DSTYLE
1002
{
1070
    40
1040
35.0
1070
    41
1040
2.5
1070
   147
1040
1.0
1002
}
  0
LINE
  5
8288
  8
FUTO
 10
10421.85861048685
 20
4562.2080357334289
 30
0.0
 11
10661.206737596131
 21
3650.2080357334289
 31
0.0
  0
LINE
  5
8289
  8
KL
 10
9650.5548647054111
 20
4562.2080357334289
 30
0.0
 11
9503.6013957462492
 21
4002.2639688656468
 31
0.0
  0
LINE
  5
828A
  8
SL
 10
8703.7850828963165
 20
4013.9525335949729
 30
0.0
 11
9840.2609169890184
 21
4916.8458985740808
 31
0.0
  0
LINE
  5
828B
  8
SL
 10
8840.3805884550093
 20
3789.2888731365929
 30
0.0
 11
10164.997401902139
 21
4382.7398378617054
 31
0.0
  0
LINE
  5
828C
  8
FUTO
 10
8652.0396997581738
 20
4084.5617163879729
 30
0.0
 11
9804.4636722396535
 21
4971.3643932276409
 31
0.0
  0
LINE
  5
828D
  8
FUTO
 10
8879.2542015824074
 20
3710.8536541770582
 30
0.0
 11
10196.925084481511
 21
4325.8686494087879
 31
0.0
  0
LINE
  5
828E
  8
FUTO
 10
9503.6013957462492
 20
4002.2639688656468
 30
0.0
 11
9411.2067375961342
 21
3650.2080357334289
 31
0.0
  0
ARC
  5
828F
  8
FUTO
 10
9920.2067375961342
 20
4786.2080357334289
 30
0.0
 40
1273.0
 50
229.83109452099561
 51
243.17388312170061
  0
DIMENSION
  5
8291
  8
SP
  2
*D18
 10
11431.373128678009
 20
3500.2080357334289
 30
0.0
 11
11343.873128678009
 21
4085.2080357334312
 31
0.0
 70
     0
 13
11345.8695738635
 23
4670.2080357334289
 33
0.0
 14
10986.206737596131
 24
3500.2080357334289
 34
0.0
 50
90.0
1001
ACAD
1000
DSTYLE
1002
{
1070
    40
1040
35.0
1070
    41
1040
2.5
1070
   147
1040
1.0
1002
}
  0
LINE
  5
82B5
  8
FUTO
 10
11016.206737596131
 20
8385.5725297649078
 30
0.0
 11
11081.206737596131
 21
8385.5725297649078
 31
0.0
  0
TEXT
  5
89F5
  8
SP
 10
16264.333411081259
 20
5103.2092000238654
 30
0.0
 40
100.0
  1
 
  0
LINE
  5
8CAD
  8
4
 10
15365.58384210809
 20
1502.1559727353269
 30
0.0
 11
15365.58384210809
 21
502.15597273532688
 31
0.0
  0
LINE
  5
8CAE
  8
4
 10
11865.583842108101
 20
1502.1559727353269
 30
0.0
 11
11865.583842108101
 21
502.15597273532688
 31
0.0
  0
LINE
  5
8CAF
  8
4
 10
9365.5838421080989
 20
1502.1559727353269
 30
0.0
 11
9365.5838421081007
 21
502.15597273532688
 31
0.0
  0
LINE
  5
8CB2
  8
4
 10
9365.5838421080989
 20
502.15597273532688
 30
0.0
 11
15365.58384210809
 21
502.15597273532688
 31
0.0
  0
LINE
  5
8CB3
  8
4
 10
9365.5838421080989
 20
1002.155972735326
 30
0.0
 11
15365.58384210809
 21
1002.155972735326
 31
0.0
  0
TEXT
  5
8CB4
  8
4
 10
9558.0942463426163
 20
1159.871102068395
 30
0.0
 40
250.0
  1
機器名称
  0
TEXT
  5
8CB5
  8
4
 10
9546.8743722320942
 20
610.38175639538167
 30
0.0
 40
250.0
  1
機器型番
  0
TEXT
  5
8CB6
  8
4
 10
11889.549150613309
 20
1113.0924845200641
 30
0.0
 40
225.0
  1
ミツヤリミットロードファン
  0
TEXT
  5
8CB7
  8
4
 10
12048.856320035509
 20
587.95389413504381
 30
0.0
 40
250.0
  1
LL#10-1
  0
TEXT
  5
8CB9
  8
4
 10
10128.68263365721
 20
10919.3001793979
 30
0.0
 40
270.0
  1
床置ベット
  0
TEXT
  5
8CBA
  8
4
 10
7696.4218087553309
 20
11671.560853731809
 30
0.0
 40
360.0
  1
遠心式片吸込片持リミットロードファン
  0
LINE
  5
8CBB
  8
4
 10
7365.583842108098
 20
11349.19974405935
 30
0.0
 11
15365.58384210809
 21
11349.19974405935
 31
0.0
  0
LINE
  5
8CBC
  8
4
 10
7365.583842108098
 20
12349.19974405935
 30
0.0
 11
15365.58384210809
 21
12349.19974405935
 31
0.0
  0
LINE
  5
8CBD
  8
4
 10
9365.5838421080989
 20
1502.1559727353269
 30
0.0
 11
15365.58384210809
 21
1502.1559727353269
 31
0.0
  0
LINE
  5
8CBE
  8
4
 10
7365.583842108098
 20
12349.19974405935
 30
0.0
 11
7365.583842108098
 21
11349.19974405935
 31
0.0
  0
TEXT
  5
8CBF
  8
4
 10
7811.4514228634662
 20
10913.753360467041
 30
0.0
 40
270.0
  1
右回転右横向
  0
TEXT
  5
8CC0
  8
4
 10
13460.43163835455
 20
12532.461380211869
 30
0.0
 40
280.0
  1
No.
  0
TEXT
  5
8CC1
  8
4
 10
13527.363065364871
 20
10423.0353363877
 30
0.0
 40
270.0
  1
縮尺：1/50
  0
LINE
  5
8CC2
  8
4
 10
15365.58384210809
 20
12349.19974405935
 30
0.0
 11
15365.58384210809
 21
11349.19974405935
 31
0.0
  0
LINE
  5
8CC3
  8
4
 10
16615.583842108092
 20
13752.15597273532
 30
0.0
 11
16615.583842108092
 21
13752.15597273532
 31
0.0
  0
LINE
  5
8CC4
  8
4
 10
13318.67095390742
 20
12408.47388836233
 30
0.0
 11
13318.67095390742
 21
12935.417280484089
 31
0.0
  0
LINE
  5
8CC5
  8
4
 10
13318.67095390742
 20
12935.417280484089
 30
0.0
 11
15365.58384210809
 21
12935.417280484089
 31
0.0
  0
LINE
  5
8CC6
  8
4
 10
15365.58384210809
 20
12935.417280484089
 30
0.0
 11
15365.58384210809
 21
12408.47388836233
 31
0.0
  0
LINE
  5
8CC7
  8
4
 10
15365.58384210809
 20
12408.47388836233
 30
0.0
 11
13318.67095390742
 21
12408.47388836233
 31
0.0
  0
LINE
  5
8CC8
  8
4
 10
6115.5838421080989
 20
-997.84402726467295
 30
0.0
 11
6115.5838421080989
 21
13752.15597273532
 31
0.0
  0
LINE
  5
8CC9
  8
4
 10
6115.5838421080989
 20
13752.15597273532
 30
0.0
 11
16615.583842108092
 21
13752.15597273532
 31
0.0
  0
LINE
  5
8CCA
  8
4
 10
16615.583842108092
 20
13752.15597273532
 30
0.0
 11
16615.583842108092
 21
-997.84402726467295
 31
0.0
  0
LINE
  5
8CCB
  8
4
 10
16615.583842108092
 20
-997.84402726467295
 30
0.0
 11
6115.5838421080989
 21
-997.84402726467295
 31
0.0
  0
ENDSEC
  0
EOF
