  0
SECTION
  2
HEADER
  9
$ACADVER
  1
AC1009
  9
$INSBASE
 10
0.0
 20
0.0
 30
0.0
  9
$EXTMIN
 10
5780.6976341737864
 20
3603.69267005863
 30
0.0
  9
$EXTMAX
 10
16280.697634173781
 20
18353.692670058619
 30
0.0
  9
$LIMMIN
 10
0.0
 20
0.0
  9
$LIMMAX
 10
297.0
 20
210.0
  9
$ORTHOMODE
 70
     0
  9
$REGENMODE
 70
     1
  9
$FILLMODE
 70
     1
  9
$QTEXTMODE
 70
     0
  9
$MIRRTEXT
 70
     0
  9
$DRAGMODE
 70
     2
  9
$LTSCALE
 40
175.0
  9
$OSMODE
 70
    37
  9
$ATTMODE
 70
     1
  9
$TEXTSIZE
 40
150.0
  9
$TRACEWID
 40
0.05
  9
$TEXTSTYLE
  7
STANDARD
  9
$CLAYER
  8
FUTO
  9
$CELTYPE
  6
BYLAYER
  9
$CECOLOR
 62
   256
  9
$DIMSCALE
 40
35.0
  9
$DIMASZ
 40
2.5
  9
$DIMEXO
 40
1.0
  9
$DIMDLI
 40
10.0
  9
$DIMRND
 40
0.0
  9
$DIMDLE
 40
0.0
  9
$DIMEXE
 40
1.0
  9
$DIMTP
 40
0.0
  9
$DIMTM
 40
0.0
  9
$DIMTXT
 40
3.0
  9
$DIMCEN
 40
0.0
  9
$DIMTSZ
 40
0.0
  9
$DIMTOL
 70
     0
  9
$DIMLIM
 70
     0
  9
$DIMTIH
 70
     0
  9
$DIMTOH
 70
     0
  9
$DIMSE1
 70
     0
  9
$DIMSE2
 70
     0
  9
$DIMTAD
 70
     1
  9
$DIMZIN
 70
     8
  9
$DIMBLK
  1

  9
$DIMASO
 70
     1
  9
$DIMSHO
 70
     1
  9
$DIMPOST
  1

  9
$DIMAPOST
  1

  9
$DIMALT
 70
     0
  9
$DIMALTD
 70
     2
  9
$DIMALTF
 40
0.03937
  9
$DIMLFAC
 40
1.0
  9
$DIMTOFL
 70
     1
  9
$DIMTVP
 40
0.0
  9
$DIMTIX
 70
     0
  9
$DIMSOXD
 70
     0
  9
$DIMSAH
 70
     1
  9
$DIMBLK1
  1
OPEN
  9
$DIMBLK2
  1
OPEN
  9
$DIMSTYLE
  2
MATSU
  9
$DIMCLRD
 70
   256
  9
$DIMCLRE
 70
   256
  9
$DIMCLRT
 70
   256
  9
$DIMTFAC
 40
1.0
  9
$DIMGAP
 40
1.0
  9
$LUNITS
 70
     2
  9
$LUPREC
 70
     4
  9
$SKETCHINC
 40
0.1
  9
$FILLETRAD
 40
30.0
  9
$AUNITS
 70
     0
  9
$AUPREC
 70
     2
  9
$MENU
  1
acad
  9
$ELEVATION
 40
0.0
  9
$PELEVATION
 40
0.0
  9
$THICKNESS
 40
0.0
  9
$LIMCHECK
 70
     0
  9
$BLIPMODE
 70
     0
  9
$CHAMFERA
 40
8.0
  9
$CHAMFERB
 40
8.0
  9
$SKPOLY
 70
     0
  9
$TDCREATE
 40
2453957.375965347
  9
$TDUPDATE
 40
2454953.649350578
  9
$TDINDWG
 40
0.1985550347
  9
$TDUSRTIMER
 40
0.1985550347
  9
$USRTIMER
 70
     1
  9
$ANGBASE
 50
0.0
  9
$ANGDIR
 70
     0
  9
$PDMODE
 70
     0
  9
$PDSIZE
 40
1.0
  9
$PLINEWID
 40
0.0
  9
$COORDS
 70
     1
  9
$SPLFRAME
 70
     0
  9
$SPLINETYPE
 70
     6
  9
$SPLINESEGS
 70
     8
  9
$ATTDIA
 70
     0
  9
$ATTREQ
 70
     1
  9
$HANDLING
 70
 10241
  9
$HANDSEED
  5
9125
  9
$SURFTAB1
 70
     6
  9
$SURFTAB2
 70
     6
  9
$SURFTYPE
 70
     6
  9
$SURFU
 70
     6
  9
$SURFV
 70
     6
  9
$UCSNAME
  2

  9
$UCSORG
 10
0.0
 20
-0.0000000000000142
 30
0.0
  9
$UCSXDIR
 10
1.0
 20
0.0
 30
0.0
  9
$UCSYDIR
 10
0.0
 20
1.0
 30
0.0
  9
$PUCSNAME
  2

  9
$PUCSORG
 10
0.0
 20
0.0
 30
0.0
  9
$PUCSXDIR
 10
1.0
 20
0.0
 30
0.0
  9
$PUCSYDIR
 10
0.0
 20
1.0
 30
0.0
  9
$USERI1
 70
     0
  9
$USERI2
 70
     0
  9
$USERI3
 70
     0
  9
$USERI4
 70
     0
  9
$USERI5
 70
     0
  9
$USERR1
 40
0.0
  9
$USERR2
 40
0.0
  9
$USERR3
 40
0.0
  9
$USERR4
 40
0.0
  9
$USERR5
 40
0.0
  9
$WORLDVIEW
 70
     1
  9
$SHADEDGE
 70
     3
  9
$SHADEDIF
 70
    70
  9
$TILEMODE
 70
     1
  9
$MAXACTVP
 70
    16
  9
$PLIMCHECK
 70
     0
  9
$PEXTMIN
 10
1.0000000000000000E+020
 20
1.0000000000000000E+020
 30
1.0000000000000000E+020
  9
$PEXTMAX
 10
-1.0000000000000000E+020
 20
-1.0000000000000000E+020
 30
-1.0000000000000000E+020
  9
$PLIMMIN
 10
0.0
 20
0.0
  9
$PLIMMAX
 10
12.0
 20
9.0
  9
$UNITMODE
 70
     0
  9
$VISRETAIN
 70
     0
  9
$PLINEGEN
 70
     0
  9
$PSLTSCALE
 70
     0
  0
ENDSEC
  0
SECTION
  2
TABLES
  0
TABLE
  2
VPORT
 70
     2
  0
VPORT
  2
*ACTIVE
 70
     0
 10
0.0
 20
0.0
 11
1.0
 21
1.0
 12
15580.18499319072
 22
5323.39469970344
 13
0.0
 23
0.0
 14
5.0
 24
5.0
 15
0.0
 25
0.0
 16
0.0
 26
0.0
 36
1.0
 17
0.0
 27
0.0
 37
0.0
 40
4294.8750958756809
 41
3.1666666666666661
 42
50.0
 43
0.0
 44
0.0
 50
0.0
 51
0.0
 71
     0
 72
   100
 73
     1
 74
     0
 75
     0
 76
     0
 77
     0
 78
     0
  0
ENDTAB
  0
TABLE
  2
LTYPE
 70
     4
  0
LTYPE
  2
CONTINUOUS
 70
     0
  3
Solid line
 72
    65
 73
     0
 40
0.0
  0
LTYPE
  2
CENTER
 70
     0
  3
____ _ ____ _ ____ _ ____ _ ____ _ ____ _ ____ 
 72
    65
 73
     4
 40
2.0
 49
1.25
 49
-0.25
 49
0.25
 49
-0.25
  0
LTYPE
  2
HIDDEN
 70
     0
  3
__ __ __ __ __ __ __ __ __ __ __ __ __ __ __ __
 72
    65
 73
     2
 40
0.375
 49
0.25
 49
-0.125
  0
LTYPE
  2
PHANTOM
 70
     0
  3
______  __  __  ______  __  __  ______  __  __ 
 72
    65
 73
     6
 40
2.5
 49
1.25
 49
-0.25
 49
0.25
 49
-0.25
 49
0.25
 49
-0.25
  0
ENDTAB
  0
TABLE
  2
LAYER
 70
     9
  0
LAYER
  2
0
 70
     0
 62
     7
  6
CONTINUOUS
  0
LAYER
  2
CT
 70
     0
 62
     3
  6
CENTER
  0
LAYER
  2
FUTO
 70
     0
 62
     4
  6
CONTINUOUS
  0
LAYER
  2
HOSO
 70
     0
 62
     7
  6
CONTINUOUS
  0
LAYER
  2
KL
 70
     0
 62
     7
  6
HIDDEN
  0
LAYER
  2
SL
 70
     0
 62
     1
  6
PHANTOM
  0
LAYER
  2
SP
 70
     0
 62
     2
  6
CONTINUOUS
  0
LAYER
  2
DEFPOINTS
 70
     0
 62
     7
  6
CONTINUOUS
  0
LAYER
  2
4
 70
     0
 62
     7
  6
CONTINUOUS
  0
ENDTAB
  0
TABLE
  2
STYLE
 70
     1
  0
STYLE
  2
STANDARD
 70
     0
 40
0.0
 41
1.0
 50
15.0
 71
     0
 42
150.0
  3
C:\Program Files\AutoCAD LT\simplex.shx
  4
extfont.shx
  0
ENDTAB
  0
TABLE
  2
VIEW
 70
     0
  0
ENDTAB
  0
TABLE
  2
UCS
 70
     0
  0
ENDTAB
  0
TABLE
  2
APPID
 70
     1
  0
APPID
  2
ACAD
 70
     0
  0
ENDTAB
  0
TABLE
  2
DIMSTYLE
 70
     2
  0
DIMSTYLE
  2
STANDARD
 70
     0
  3

  4

  5

  6

  7

 40
1.0
 41
0.18
 42
0.0625
 43
0.38
 44
0.18
 45
0.0
 46
0.0
 47
0.0
 48
0.0
140
0.18
141
0.09
142
0.0
143
25.399999999999999
144
1.0
145
0.0
146
1.0
147
0.09
 71
     0
 72
     0
 73
     1
 74
     1
 75
     0
 76
     0
 77
     0
 78
     0
170
     0
171
     2
172
     0
173
     0
174
     0
175
     0
176
     0
177
     0
178
     0
  0
DIMSTYLE
  2
MATSU
 70
     0
  3

  4

  5

  6
OPEN
  7
OPEN
 40
1.0
 41
2.0
 42
1.0
 43
10.0
 44
1.0
 45
0.0
 46
0.0
 47
0.0
 48
0.0
140
3.0
141
0.0
142
0.0
143
0.03937
144
1.0
145
0.0
146
1.0
147
0.5
 71
     0
 72
     0
 73
     0
 74
     0
 75
     0
 76
     0
 77
     1
 78
     8
170
     0
171
     2
172
     1
173
     1
174
     0
175
     0
176
   256
177
   256
178
   256
  0
ENDTAB
  0
ENDSEC
  0
SECTION
  2
BLOCKS
  0
BLOCK
  8
0
  2
$MODEL_SPACE
 70
     0
 10
0.0
 20
0.0
 30
0.0
  3
$MODEL_SPACE
  1

  0
ENDBLK
  5
1B
  8
0
  0
BLOCK
 67
     1
  8
0
  2
$PAPER_SPACE
 70
     0
 10
0.0
 20
0.0
 30
0.0
  3
$PAPER_SPACE
  1

  0
ENDBLK
  5
18
 67
     1
  8
0
  0
BLOCK
  8
0
  2
_OPEN
 70
     0
 10
0.0
 20
0.0
 30
0.0
  3
_OPEN
  1

  0
LINE
  5
28
  8
0
  6
BYBLOCK
 62
     0
 10
-1.0
 20
0.1666666666666666
 30
0.0
 11
0.0
 21
0.0
 31
0.0
  0
LINE
  5
29
  8
0
  6
BYBLOCK
 62
     0
 10
0.0
 20
0.0
 30
0.0
 11
-1.0
 21
-0.1666666666666666
 31
0.0
  0
LINE
  5
2A
  8
0
  6
BYBLOCK
 62
     0
 10
0.0
 20
0.0
 30
0.0
 11
-1.0
 21
0.0
 31
0.0
  0
ENDBLK
  5
2B
  8
0
  0
BLOCK
  8
0
  2
まっすぐの矢印
 70
     0
 10
0.0
 20
0.0
 30
0.0
  3
まっすぐの矢印
  1

  0
LINE
  5
56E2
  8
SP
 10
0.6962157491662495
 20
-2.216890595009601
 30
0.0
 11
0.6962157491662495
 21
-5.0
 31
0.0
  0
LINE
  5
56E3
  8
SP
 10
0.6962157491662495
 20
-5.0
 30
0.0
 11
-0.6962157491662495
 21
-5.0
 31
0.0
  0
LINE
  5
56E4
  8
SP
 10
-0.6962157491662495
 20
-5.0
 30
0.0
 11
-0.6962157491662495
 21
-2.216890595009601
 31
0.0
  0
LINE
  5
56E5
  8
SP
 10
-0.6962157491662495
 20
-2.216890595009601
 30
0.0
 11
-1.7145256852758151
 21
-2.216890595009601
 31
0.0
  0
LINE
  5
56E6
  8
SP
 10
-1.7145256852758151
 20
-2.216890595009601
 30
0.0
 11
0.0
 21
0.0
 31
0.0
  0
LINE
  5
56E7
  8
SP
 10
0.0
 20
0.0
 30
0.0
 11
1.7145256852758151
 21
-2.216890595009601
 31
0.0
  0
LINE
  5
56E8
  8
SP
 10
1.7145256852758151
 20
-2.216890595009601
 30
0.0
 11
0.6962157491662495
 21
-2.216890595009601
 31
0.0
  0
ENDBLK
  5
56EA
  8
0
  0
BLOCK
  8
0
  2
右回転矢印
 70
     0
 10
0.0
 20
0.0
 30
0.0
  3
右回転矢印
  1

  0
LINE
  5
56EC
  8
SP
 10
-2.7705290305565882
 20
1.567794835092901
 30
0.0
 11
-2.4288000558398148
 21
2.8051227455822878
 31
0.0
  0
LINE
  5
56ED
  8
SP
 10
-2.4288000558398148
 20
2.8051227455822878
 30
0.0
 11
0.0
 21
0.0
 31
0.0
  0
LINE
  5
56EE
  8
SP
 10
0.0
 20
0.0
 30
0.0
 11
-3.3160037613098718
 21
-0.4072531086382499
 31
0.0
  0
LINE
  5
56EF
  8
SP
 10
-3.3160037613098718
 20
-0.4072531086382499
 30
0.0
 11
-3.0391574735299112
 21
0.5951483970269315
 31
0.0
  0
ARC
  5
56F0
  8
SP
 10
-5.9215210782018062
 20
-9.8412769578768184
 30
0.0
 40
10.82714154973578
 50
74.560750721316467
 51
112.11861101078711
  0
LINE
  5
56F1
  8
SP
 10
-9.9982127316752951
 20
0.1890560027239694
 30
0.0
 11
-10.37814929817227
 21
1.1238557349100611
 31
0.0
  0
ARC
  5
56F2
  8
SP
 10
-5.9215210782018062
 20
-9.8412769578768291
 30
0.0
 40
11.83620167374065
 50
74.560750721316396
 51
112.11861101078701
  0
ENDBLK
  5
56F4
  8
0
  0
BLOCK
  8
0
  2
*D3
 70
     1
 10
0.0
 20
0.0
 30
0.0
  3
*D3
  1

  0
LINE
  5
90A5
  8
SP
 10
10544.38022613447
 20
8031.0310601054671
 30
0.0
 11
10544.38022613447
 21
7780.5187499223639
 31
0.0
  0
LINE
  5
90A6
  8
SP
 10
9594.3802261344736
 20
8031.0310601054671
 30
0.0
 11
9594.3802261344736
 21
7780.5187499223639
 31
0.0
  0
LINE
  5
90A7
  8
SP
 10
10456.88022613447
 20
7815.518749922363
 30
0.0
 11
9681.8802261344736
 21
7815.518749922363
 31
0.0
  0
INSERT
  5
90A8
  8
SP
  2
_OPEN
 10
10544.38022613447
 20
7815.518749922363
 30
0.0
 41
87.5
 42
87.5
 43
87.5
  0
INSERT
  5
90A9
  8
SP
  2
_OPEN
 10
9594.3802261344736
 20
7815.518749922363
 30
0.0
 41
87.5
 42
87.5
 43
87.5
 50
180.0
  0
TEXT
  5
90AA
  8
FUTO
 10
9920.9827665129196
 20
7850.5187499223639
 30
0.0
 40
105.0
  1
950
 51
15.0
  0
POINT
  5
90AB
  8
DEFPOINTS
 62
     0
 10
10544.38022613447
 20
8066.0310601054662
 30
0.0
  0
POINT
  5
90AC
  8
DEFPOINTS
 62
     0
 10
9594.3802261344736
 20
8066.0310601054662
 30
0.0
  0
POINT
  5
90AD
  8
DEFPOINTS
 62
     0
 10
9594.3802261344736
 20
7815.518749922363
 30
0.0
  0
ENDBLK
  5
6A60
  8
0
  0
BLOCK
  8
0
  2
*D4
 70
     1
 10
0.0
 20
0.0
 30
0.0
  3
*D4
  1

  0
LINE
  5
9093
  8
SP
 10
9594.3802261344736
 20
8031.0310601054671
 30
0.0
 11
9594.3802261344736
 21
7780.5187499223639
 31
0.0
  0
LINE
  5
9094
  8
SP
 10
8044.3802261344754
 20
8031.0310601054671
 30
0.0
 11
8044.3802261344754
 21
7780.5187499223639
 31
0.0
  0
LINE
  5
9095
  8
SP
 10
9506.8802261344754
 20
7815.518749922363
 30
0.0
 11
8131.8802261344754
 21
7815.518749922363
 31
0.0
  0
INSERT
  5
9096
  8
SP
  2
_OPEN
 10
9594.3802261344736
 20
7815.518749922363
 30
0.0
 41
87.5
 42
87.5
 43
87.5
  0
INSERT
  5
9097
  8
SP
  2
_OPEN
 10
8044.3802261344754
 20
7815.518749922363
 30
0.0
 41
87.5
 42
87.5
 43
87.5
 50
180.0
  0
TEXT
  5
9098
  8
FUTO
 10
8624.1045447778288
 20
7850.5187499223639
 30
0.0
 40
105.0
  1
1550
 51
15.0
  0
POINT
  5
9099
  8
DEFPOINTS
 62
     0
 10
9594.3802261344736
 20
8066.0310601054662
 30
0.0
  0
POINT
  5
909A
  8
DEFPOINTS
 62
     0
 10
8044.3802261344754
 20
8066.0310601054662
 30
0.0
  0
POINT
  5
909B
  8
DEFPOINTS
 62
     0
 10
8044.3802261344754
 20
7815.518749922363
 30
0.0
  0
ENDBLK
  5
6A6D
  8
0
  0
BLOCK
  8
0
  2
*D5
 70
     1
 10
0.0
 20
0.0
 30
0.0
  3
*D5
  1

  0
LINE
  5
908A
  8
SP
 10
10544.38022613447
 20
8031.0310601054671
 30
0.0
 11
10544.38022613447
 21
7530.4310059247064
 31
0.0
  0
LINE
  5
908B
  8
SP
 10
8044.3802261344754
 20
8031.0310601054671
 30
0.0
 11
8044.3802261344754
 21
7530.4310059247064
 31
0.0
  0
LINE
  5
908C
  8
SP
 10
10456.88022613447
 20
7565.4310059247046
 30
0.0
 11
8131.8802261344754
 21
7565.4310059247046
 31
0.0
  0
INSERT
  5
908D
  8
SP
  2
_OPEN
 10
10544.38022613447
 20
7565.4310059247046
 30
0.0
 41
87.5
 42
87.5
 43
87.5
  0
INSERT
  5
908E
  8
SP
  2
_OPEN
 10
8044.3802261344754
 20
7565.4310059247046
 30
0.0
 41
87.5
 42
87.5
 43
87.5
 50
180.0
  0
TEXT
  5
908F
  8
FUTO
 10
9100.4923854561512
 20
7600.4310059247064
 30
0.0
 40
105.0
  1
2500
 51
15.0
  0
POINT
  5
9090
  8
DEFPOINTS
 62
     0
 10
10544.38022613447
 20
8066.0310601054662
 30
0.0
  0
POINT
  5
9091
  8
DEFPOINTS
 62
     0
 10
8044.3802261344754
 20
8066.0310601054662
 30
0.0
  0
POINT
  5
9092
  8
DEFPOINTS
 62
     0
 10
8044.3802261344754
 20
7565.4310059247046
 30
0.0
  0
ENDBLK
  5
6A7A
  8
0
  0
BLOCK
  8
0
  2
*D6
 70
     1
 10
0.0
 20
0.0
 30
0.0
  3
*D6
  1

  0
LINE
  5
90F5
  8
SP
 10
12119.5377424783
 20
8031.0310601054653
 30
0.0
 11
12119.5377424783
 21
7780.5187265345248
 31
0.0
  0
LINE
  5
90F6
  8
SP
 10
13750.5377424783
 20
8031.0310601054671
 30
0.0
 11
13750.5377424783
 21
7780.5187265345248
 31
0.0
  0
LINE
  5
90F7
  8
SP
 10
12207.0377424783
 20
7815.5187265345239
 30
0.0
 11
13663.0377424783
 21
7815.5187265345239
 31
0.0
  0
INSERT
  5
90F8
  8
SP
  2
_OPEN
 10
12119.5377424783
 20
7815.5187265345239
 30
0.0
 41
87.5
 42
87.5
 43
87.5
 50
180.0
  0
INSERT
  5
90F9
  8
SP
  2
_OPEN
 10
13750.5377424783
 20
7815.5187265345239
 30
0.0
 41
87.5
 42
87.5
 43
87.5
  0
TEXT
  5
90FA
  8
FUTO
 10
12757.08256919734
 20
7850.5187265345248
 30
0.0
 40
105.0
  1
1631
 51
15.0
  0
POINT
  5
90FB
  8
DEFPOINTS
 62
     0
 10
12119.5377424783
 20
8066.0310601054662
 30
0.0
  0
POINT
  5
90FC
  8
DEFPOINTS
 62
     0
 10
13750.5377424783
 20
8066.0310601054662
 30
0.0
  0
POINT
  5
90FD
  8
DEFPOINTS
 62
     0
 10
13750.5377424783
 20
7815.5187265345239
 30
0.0
  0
ENDBLK
  5
6A87
  8
0
  0
BLOCK
  8
0
  2
*D7
 70
     1
 10
0.0
 20
0.0
 30
0.0
  3
*D7
  1

  0
LINE
  5
90FE
  8
SP
 10
13750.5377424783
 20
8031.0310601054671
 30
0.0
 11
13750.5377424783
 21
7780.5187265345248
 31
0.0
  0
LINE
  5
90FF
  8
SP
 10
14419.5377424783
 20
8031.0310601054653
 30
0.0
 11
14419.5377424783
 21
7780.5187265345248
 31
0.0
  0
LINE
  5
9100
  8
SP
 10
13838.0377424783
 20
7815.5187265345239
 30
0.0
 11
14332.0377424783
 21
7815.5187265345239
 31
0.0
  0
INSERT
  5
9101
  8
SP
  2
_OPEN
 10
13750.5377424783
 20
7815.5187265345239
 30
0.0
 41
87.5
 42
87.5
 43
87.5
 50
180.0
  0
INSERT
  5
9102
  8
SP
  2
_OPEN
 10
14419.5377424783
 20
7815.5187265345239
 30
0.0
 41
87.5
 42
87.5
 43
87.5
  0
TEXT
  5
9103
  8
FUTO
 10
13938.47040987567
 20
7850.5187265345248
 30
0.0
 40
105.0
  1
669
 51
15.0
  0
POINT
  5
9104
  8
DEFPOINTS
 62
     0
 10
13750.5377424783
 20
8066.0310601054662
 30
0.0
  0
POINT
  5
9105
  8
DEFPOINTS
 62
     0
 10
14419.5377424783
 20
8066.0310601054662
 30
0.0
  0
POINT
  5
9106
  8
DEFPOINTS
 62
     0
 10
14419.5377424783
 20
7815.5187265345239
 30
0.0
  0
ENDBLK
  5
6A94
  8
0
  0
BLOCK
  8
0
  2
*D8
 70
     1
 10
0.0
 20
0.0
 30
0.0
  3
*D8
  1

  0
LINE
  5
90EC
  8
SP
 10
12119.5377424783
 20
8031.0310601054653
 30
0.0
 11
12119.5377424783
 21
7530.4309825368673
 31
0.0
  0
LINE
  5
90ED
  8
SP
 10
14419.5377424783
 20
8031.0310601054653
 30
0.0
 11
14419.5377424783
 21
7530.4309825368673
 31
0.0
  0
LINE
  5
90EE
  8
SP
 10
12207.0377424783
 20
7565.4309825368673
 30
0.0
 11
14332.0377424783
 21
7565.4309825368673
 31
0.0
  0
INSERT
  5
90EF
  8
SP
  2
_OPEN
 10
12119.5377424783
 20
7565.4309825368673
 30
0.0
 41
87.5
 42
87.5
 43
87.5
 50
180.0
  0
INSERT
  5
90F0
  8
SP
  2
_OPEN
 10
14419.5377424783
 20
7565.4309825368673
 30
0.0
 41
87.5
 42
87.5
 43
87.5
  0
TEXT
  5
90F1
  8
FUTO
 10
13075.649901799979
 20
7600.4309825368682
 30
0.0
 40
105.0
  1
2300
 51
15.0
  0
POINT
  5
90F2
  8
DEFPOINTS
 62
     0
 10
12119.5377424783
 20
8066.0310601054662
 30
0.0
  0
POINT
  5
90F3
  8
DEFPOINTS
 62
     0
 10
14419.5377424783
 20
8066.0310601054662
 30
0.0
  0
POINT
  5
90F4
  8
DEFPOINTS
 62
     0
 10
14419.5377424783
 20
7565.4309825368673
 30
0.0
  0
ENDBLK
  5
6AA1
  8
0
  0
BLOCK
  8
0
  2
*D9
 70
     1
 10
0.0
 20
0.0
 30
0.0
  3
*D9
  1

  0
LINE
  5
90E3
  8
SP
 10
13750.5377424783
 20
11414.632702173471
 30
0.0
 11
13750.5377424783
 21
11460.60508172244
 31
0.0
  0
LINE
  5
90E4
  8
SP
 10
14475.5377424783
 20
10851.56793371268
 30
0.0
 11
14475.5377424783
 21
11460.60508172244
 31
0.0
  0
LINE
  5
90E5
  8
SP
 10
13838.0377424783
 20
11425.60508172244
 30
0.0
 11
14388.0377424783
 21
11425.60508172244
 31
0.0
  0
INSERT
  5
90E6
  8
SP
  2
_OPEN
 10
13750.5377424783
 20
11425.60508172244
 30
0.0
 41
87.5
 42
87.5
 43
87.5
 50
180.0
  0
INSERT
  5
90E7
  8
SP
  2
_OPEN
 10
14475.5377424783
 20
11425.60508172244
 30
0.0
 41
87.5
 42
87.5
 43
87.5
  0
TEXT
  5
90E8
  8
FUTO
 10
13958.97040987567
 20
11460.60508172244
 30
0.0
 40
105.0
  1
725
 51
15.0
  0
POINT
  5
90E9
  8
DEFPOINTS
 62
     0
 10
13750.5377424783
 20
11379.632702173471
 30
0.0
  0
POINT
  5
90EA
  8
DEFPOINTS
 62
     0
 10
14475.5377424783
 20
10816.567933712689
 30
0.0
  0
POINT
  5
90EB
  8
DEFPOINTS
 62
     0
 10
14475.5377424783
 20
11425.60508172244
 30
0.0
  0
ENDBLK
  5
6AFF
  8
0
  0
BLOCK
  8
0
  2
*D10
 70
     1
 10
0.0
 20
0.0
 30
0.0
  3
*D10
  1

  0
LINE
  5
9107
  8
SP
 10
14510.5377424783
 20
10766.031060105461
 30
0.0
 11
14789.731143680179
 21
10766.031060105461
 31
0.0
  0
LINE
  5
9108
  8
SP
 10
14510.5377424783
 20
9166.0310601054643
 30
0.0
 11
14789.731143680179
 21
9166.0310601054643
 31
0.0
  0
LINE
  5
9109
  8
SP
 10
14754.731143680179
 20
10678.531060105461
 30
0.0
 11
14754.731143680179
 21
9253.5310601054662
 31
0.0
  0
INSERT
  5
910A
  8
SP
  2
_OPEN
 10
14754.731143680179
 20
10766.031060105461
 30
0.0
 41
87.5
 42
87.5
 43
87.5
 50
90.0
  0
INSERT
  5
910B
  8
SP
  2
_OPEN
 10
14754.731143680179
 20
9166.0310601054643
 30
0.0
 41
87.5
 42
87.5
 43
87.5
 50
270.0
  0
TEXT
  5
910C
  8
FUTO
 10
14719.73114368017
 20
9734.3323302946937
 30
0.0
 40
105.0
  1
φ1600
 50
90.0
 51
15.0
  0
POINT
  5
910D
  8
DEFPOINTS
 62
     0
 10
14475.5377424783
 20
10766.031060105461
 30
0.0
  0
POINT
  5
910E
  8
DEFPOINTS
 62
     0
 10
14475.5377424783
 20
9166.0310601054643
 30
0.0
  0
POINT
  5
910F
  8
DEFPOINTS
 62
     0
 10
14754.731143680179
 20
9166.0310601054643
 30
0.0
  0
ENDBLK
  5
6F63
  8
0
  0
BLOCK
  8
0
  2
*D11
 70
     1
 10
0.0
 20
0.0
 30
0.0
  3
*D11
  1

  0
LINE
  5
90DB
  8
SP
 10
11870.5377424783
 20
10366.29965141834
 30
0.0
 11
11870.5377424783
 21
11460.60508172244
 31
0.0
  0
LINE
  5
90DC
  8
SP
 10
11958.0377424783
 20
11425.60508172244
 30
0.0
 11
13663.0377424783
 21
11425.60508172244
 31
0.0
  0
INSERT
  5
90DD
  8
SP
  2
_OPEN
 10
11870.5377424783
 20
11425.60508172244
 30
0.0
 41
87.5
 42
87.5
 43
87.5
 50
180.0
  0
INSERT
  5
90DE
  8
SP
  2
_OPEN
 10
13750.5377424783
 20
11425.60508172244
 30
0.0
 41
87.5
 42
87.5
 43
87.5
  0
TEXT
  5
90DF
  8
FUTO
 10
12615.26206112165
 20
11460.60508172244
 30
0.0
 40
105.0
  1
1880
 51
15.0
  0
POINT
  5
90E0
  8
DEFPOINTS
 62
     0
 10
11870.5377424783
 20
10331.299651418331
 30
0.0
  0
POINT
  5
90E1
  8
DEFPOINTS
 62
     0
 10
13750.5377424783
 20
11425.60508172244
 30
0.0
  0
POINT
  5
90E2
  8
DEFPOINTS
 62
     0
 10
13750.5377424783
 20
11425.60508172244
 30
0.0
  0
ENDBLK
  5
6FBD
  8
0
  0
BLOCK
  8
0
  2
*D12
 70
     1
 10
0.0
 20
0.0
 30
0.0
  3
*D12
  1

  0
LINE
  5
90C9
  8
SP
 10
7796.3802261344727
 20
13791.26960041307
 30
0.0
 11
7453.7604658208738
 21
13791.26960041307
 31
0.0
  0
LINE
  5
90CA
  8
SP
 10
8694.3802261344754
 20
14516.26960041307
 30
0.0
 11
7453.7604658208747
 21
14516.26960041307
 31
0.0
  0
LINE
  5
90CB
  8
SP
 10
7488.7604658208738
 20
13878.76960041307
 30
0.0
 11
7488.7604658208738
 21
14428.76960041307
 31
0.0
  0
INSERT
  5
90CC
  8
SP
  2
_OPEN
 10
7488.7604658208738
 20
13791.26960041307
 30
0.0
 41
87.5
 42
87.5
 43
87.5
 50
270.0
  0
INSERT
  5
90CD
  8
SP
  2
_OPEN
 10
7488.7604658208738
 20
14516.26960041307
 30
0.0
 41
87.5
 42
87.5
 43
87.5
 50
90.0
  0
TEXT
  5
90CE
  8
FUTO
 10
7453.760465820872
 20
13999.702267810429
 30
0.0
 40
105.0
  1
725
 50
90.0
 51
15.0
  0
POINT
  5
90CF
  8
DEFPOINTS
 62
     0
 10
7831.3802261344736
 20
13791.26960041307
 30
0.0
  0
POINT
  5
90D0
  8
DEFPOINTS
 62
     0
 10
8729.3802261344736
 20
14516.26960041307
 30
0.0
  0
POINT
  5
90D1
  8
DEFPOINTS
 62
     0
 10
7488.7604658208738
 20
14516.26960041307
 30
0.0
  0
ENDBLK
  5
80A1
  8
0
  0
BLOCK
  8
0
  2
*D13
 70
     1
 10
0.0
 20
0.0
 30
0.0
  3
*D13
  1

  0
LINE
  5
90C0
  8
SP
 10
7796.3802261344727
 20
13791.26960041307
 30
0.0
 11
7453.7604658208747
 21
13791.26960041307
 31
0.0
  0
LINE
  5
90C1
  8
SP
 10
8105.8802261344727
 20
11911.269600413059
 30
0.0
 11
7453.7604658208747
 21
11911.269600413059
 31
0.0
  0
LINE
  5
90C2
  8
SP
 10
7488.7604658208738
 20
13703.76960041307
 30
0.0
 11
7488.7604658208738
 21
11998.769600413059
 31
0.0
  0
INSERT
  5
90C3
  8
SP
  2
_OPEN
 10
7488.7604658208738
 20
13791.26960041307
 30
0.0
 41
87.5
 42
87.5
 43
87.5
 50
90.0
  0
INSERT
  5
90C4
  8
SP
  2
_OPEN
 10
7488.7604658208738
 20
11911.269600413059
 30
0.0
 41
87.5
 42
87.5
 43
87.5
 50
270.0
  0
TEXT
  5
90C5
  8
FUTO
 10
7453.7604658208738
 20
12655.99391905642
 30
0.0
 40
105.0
  1
1880
 50
90.0
 51
15.0
  0
POINT
  5
90C6
  8
DEFPOINTS
 62
     0
 10
7831.3802261344736
 20
13791.26960041307
 30
0.0
  0
POINT
  5
90C7
  8
DEFPOINTS
 62
     0
 10
8140.8802261344727
 20
11911.269600413059
 30
0.0
  0
POINT
  5
90C8
  8
DEFPOINTS
 62
     0
 10
7488.7604658208738
 20
11911.269600413059
 30
0.0
  0
ENDBLK
  5
80AE
  8
0
  0
BLOCK
  8
0
  2
*D14
 70
     1
 10
0.0
 20
0.0
 30
0.0
  3
*D14
  1

  0
LINE
  5
90B7
  8
SP
 10
9594.3802261344736
 20
14596.04751222993
 30
0.0
 11
9594.3802261344736
 21
14862.20048939158
 31
0.0
  0
LINE
  5
90B8
  8
SP
 10
8044.3802261344708
 20
13232.269600413059
 30
0.0
 11
8044.3802261344708
 21
14862.20048939158
 31
0.0
  0
LINE
  5
90B9
  8
SP
 10
9506.8802261344754
 20
14827.20048939158
 30
0.0
 11
8131.8802261344708
 21
14827.20048939158
 31
0.0
  0
INSERT
  5
90BA
  8
SP
  2
_OPEN
 10
9594.3802261344736
 20
14827.20048939158
 30
0.0
 41
87.5
 42
87.5
 43
87.5
  0
INSERT
  5
90BB
  8
SP
  2
_OPEN
 10
8044.3802261344708
 20
14827.20048939158
 30
0.0
 41
87.5
 42
87.5
 43
87.5
 50
180.0
  0
TEXT
  5
90BC
  8
FUTO
 10
8624.104544777827
 20
14862.20048939158
 30
0.0
 40
105.0
  1
1550
 51
15.0
  0
POINT
  5
90BD
  8
DEFPOINTS
 62
     0
 10
9594.3802261344736
 20
14561.04751222993
 30
0.0
  0
POINT
  5
90BE
  8
DEFPOINTS
 62
     0
 10
8044.3802261344708
 20
13197.269600413059
 30
0.0
  0
POINT
  5
90BF
  8
DEFPOINTS
 62
     0
 10
8044.3802261344708
 20
14827.20048939158
 30
0.0
  0
ENDBLK
  5
8221
  8
0
  0
BLOCK
  8
0
  2
*D15
 70
     1
 10
0.0
 20
0.0
 30
0.0
  3
*D15
  1

  0
LINE
  5
90D2
  8
SP
 10
9594.3802261344736
 20
14596.04751222993
 30
0.0
 11
9594.3802261344736
 21
14862.20048939158
 31
0.0
  0
LINE
  5
90D3
  8
SP
 10
10639.38022613447
 20
14470.269600413059
 30
0.0
 11
10639.38022613447
 21
14862.20048939158
 31
0.0
  0
LINE
  5
90D4
  8
SP
 10
9681.8802261344736
 20
14827.20048939158
 30
0.0
 11
10551.88022613447
 21
14827.20048939158
 31
0.0
  0
INSERT
  5
90D5
  8
SP
  2
_OPEN
 10
9594.3802261344736
 20
14827.20048939158
 30
0.0
 41
87.5
 42
87.5
 43
87.5
 50
180.0
  0
INSERT
  5
90D6
  8
SP
  2
_OPEN
 10
10639.38022613447
 20
14827.20048939158
 30
0.0
 41
87.5
 42
87.5
 43
87.5
  0
TEXT
  5
90D7
  8
FUTO
 10
9921.4250528535176
 20
14862.20048939158
 30
0.0
 40
105.0
  1
1045
 51
15.0
  0
POINT
  5
90D8
  8
DEFPOINTS
 62
     0
 10
9594.3802261344736
 20
14561.04751222993
 30
0.0
  0
POINT
  5
90D9
  8
DEFPOINTS
 62
     0
 10
10639.38022613447
 20
14435.26960041307
 30
0.0
  0
POINT
  5
90DA
  8
DEFPOINTS
 62
     0
 10
10639.38022613447
 20
14827.20048939158
 30
0.0
  0
ENDBLK
  5
822E
  8
0
  0
BLOCK
  8
0
  2
*D16
 70
     1
 10
0.0
 20
0.0
 30
0.0
  3
*D16
  1

  0
LINE
  5
90AE
  8
SP
 10
9726.8950070638402
 20
11105.031060105461
 30
0.0
 11
11036.999277869751
 21
11105.031060105461
 31
0.0
  0
LINE
  5
90AF
  8
SP
 10
10939.043062401841
 20
9966.0310601054662
 30
0.0
 11
11036.999277869751
 21
9966.0310601054662
 31
0.0
  0
LINE
  5
90B0
  8
SP
 10
11001.999277869751
 20
11017.531060105461
 30
0.0
 11
11001.999277869751
 21
10053.531060105461
 31
0.0
  0
INSERT
  5
90B1
  8
SP
  2
_OPEN
 10
11001.999277869751
 20
11105.031060105461
 30
0.0
 41
87.5
 42
87.5
 43
87.5
 50
90.0
  0
INSERT
  5
90B2
  8
SP
  2
_OPEN
 10
11001.999277869751
 20
9966.0310601054662
 30
0.0
 41
87.5
 42
87.5
 43
87.5
 50
270.0
  0
TEXT
  5
90B3
  8
FUTO
 10
10966.99927786974
 20
10352.08550576774
 30
0.0
 40
105.0
  1
1139
 50
90.0
 51
15.0
  0
POINT
  5
90B4
  8
DEFPOINTS
 62
     0
 10
9691.8950070638402
 20
11105.031060105461
 30
0.0
  0
POINT
  5
90B5
  8
DEFPOINTS
 62
     0
 10
10904.043062401841
 20
9966.0310601054662
 30
0.0
  0
POINT
  5
90B6
  8
DEFPOINTS
 62
     0
 10
11001.999277869751
 20
9966.0310601054662
 30
0.0
  0
ENDBLK
  5
83E3
  8
0
  0
BLOCK
  8
0
  2
*D17
 70
     1
 10
0.0
 20
0.0
 30
0.0
  3
*D17
  1

  0
LINE
  5
909C
  8
SP
 10
10939.043062401841
 20
9966.0310601054662
 30
0.0
 11
11036.999277869751
 21
9966.0310601054662
 31
0.0
  0
LINE
  5
909D
  8
SP
 10
10579.38022613447
 20
8066.0310601054662
 30
0.0
 11
11036.999277869751
 21
8066.0310601054662
 31
0.0
  0
LINE
  5
909E
  8
SP
 10
11001.999277869751
 20
9878.5310601054662
 30
0.0
 11
11001.999277869751
 21
8153.5310601054662
 31
0.0
  0
INSERT
  5
909F
  8
SP
  2
_OPEN
 10
11001.999277869751
 20
9966.0310601054662
 30
0.0
 41
87.5
 42
87.5
 43
87.5
 50
90.0
  0
INSERT
  5
90A0
  8
SP
  2
_OPEN
 10
11001.999277869751
 20
8066.0310601054662
 30
0.0
 41
87.5
 42
87.5
 43
87.5
 50
270.0
  0
TEXT
  5
90A1
  8
FUTO
 10
10966.99927786974
 20
8820.7553787488232
 30
0.0
 40
105.0
  1
1900
 50
90.0
 51
15.0
  0
POINT
  5
90A2
  8
DEFPOINTS
 62
     0
 10
10904.043062401841
 20
9966.0310601054662
 30
0.0
  0
POINT
  5
90A3
  8
DEFPOINTS
 62
     0
 10
10544.38022613447
 20
8066.0310601054662
 30
0.0
  0
POINT
  5
90A4
  8
DEFPOINTS
 62
     0
 10
11001.999277869751
 20
8066.0310601054662
 30
0.0
  0
ENDBLK
  5
83F1
  8
0
  0
BLOCK
  8
0
  2
*D18
 70
     1
 10
0.0
 20
0.0
 30
0.0
  3
*D18
  1

  0
LINE
  5
9081
  8
SP
 10
9594.3802261344736
 20
11396.743283176709
 30
0.0
 11
9594.3802261344736
 21
11460.60508172244
 31
0.0
  0
LINE
  5
9082
  8
SP
 10
10639.38022613447
 20
10024.031060105461
 30
0.0
 11
10639.38022613447
 21
11460.60508172244
 31
0.0
  0
LINE
  5
9083
  8
SP
 10
9681.8802261344736
 20
11425.60508172244
 30
0.0
 11
10551.88022613447
 21
11425.60508172244
 31
0.0
  0
INSERT
  5
9084
  8
SP
  2
_OPEN
 10
9594.3802261344736
 20
11425.60508172244
 30
0.0
 41
87.5
 42
87.5
 43
87.5
 50
180.0
  0
INSERT
  5
9085
  8
SP
  2
_OPEN
 10
10639.38022613447
 20
11425.60508172244
 30
0.0
 41
87.5
 42
87.5
 43
87.5
  0
TEXT
  5
9086
  8
FUTO
 10
9921.4250528535176
 20
11460.60508172244
 30
0.0
 40
105.0
  1
1045
 51
15.0
  0
POINT
  5
9087
  8
DEFPOINTS
 62
     0
 10
9594.3802261344736
 20
11361.743283176709
 30
0.0
  0
POINT
  5
9088
  8
DEFPOINTS
 62
     0
 10
10639.38022613447
 20
9989.0310601054662
 30
0.0
  0
POINT
  5
9089
  8
DEFPOINTS
 62
     0
 10
10639.38022613447
 20
11425.60508172244
 30
0.0
  0
ENDBLK
  5
83FE
  8
0
  0
ENDSEC
  0
SECTION
  2
ENTITIES
  0
LINE
  5
522D
  8
CT
 10
10904.043062401841
 20
9966.0310601054662
 30
0.0
 11
8101.4607359937636
 21
9966.0310601054662
 31
0.0
  0
LINE
  5
522E
  8
CT
 10
9594.3802261344736
 20
11361.743283176709
 30
0.0
 11
9594.3802261344736
 21
8042.4390347534554
 31
0.0
  0
ARC
  5
5232
  8
KL
 10
9710.3802261344754
 20
9850.0310601054662
 30
0.0
 40
1487.0
 50
180.0
 51
265.52584402394388
  0
ARC
  5
5234
  8
KL
 10
9478.3802261344736
 20
9850.0310601054662
 30
0.0
 40
1255.0
 50
89.999999999999986
 51
180.0
  0
ARC
  5
5238
  8
KL
 10
9497.3802261344736
 20
10063.031060105461
 30
0.0
 40
1042.0
 50
0.0
 51
89.999999999999986
  0
ARC
  5
5239
  8
KL
 10
9691.3802261344754
 20
10063.031060105461
 30
0.0
 40
848.0
 50
326.29525704927107
 51
0.0
  0
LINE
  5
523A
  8
FUTO
 10
10639.38022613447
 20
9924.0310601054662
 30
0.0
 11
10639.38022613447
 21
8268.0310601054662
 31
0.0
  0
LINE
  5
523C
  8
KL
 10
10639.38022613447
 20
9921.0310601054662
 30
0.0
 11
10527.40654150977
 21
9921.0310601054662
 31
0.0
  0
LINE
  5
523D
  8
KL
 10
9594.3802261344736
 20
8367.5625106920234
 30
0.0
 11
10639.38022613447
 21
8271.0310601054662
 31
0.0
  0
LINE
  5
523F
  8
FUTO
 10
10574.38022613447
 20
9939.0310601054662
 30
0.0
 11
10574.38022613447
 21
8258.958774250661
 31
0.0
  0
LINE
  5
5251
  8
FUTO
 10
10639.38022613447
 20
9924.0310601054662
 30
0.0
 11
10639.38022613447
 21
9989.0310601054662
 31
0.0
  0
LINE
  5
5252
  8
FUTO
 10
10639.38022613447
 20
9924.0310601054662
 30
0.0
 11
10574.38022613447
 21
9924.0310601054662
 31
0.0
  0
LINE
  5
5253
  8
FUTO
 10
10639.38022613447
 20
9989.0310601054662
 30
0.0
 11
10637.38022613447
 21
9989.0310601054662
 31
0.0
  0
LINE
  5
5254
  8
FUTO
 10
10574.38022613447
 20
9924.0310601054662
 30
0.0
 11
10574.38022613447
 21
9926.0310601054662
 31
0.0
  0
LINE
  5
5255
  8
FUTO
 10
10624.88022613447
 20
9930.0310601054662
 30
0.0
 11
10578.38022613447
 21
9930.0310601054662
 31
0.0
  0
LINE
  5
5256
  8
FUTO
 10
10633.38022613447
 20
9938.531060105468
 30
0.0
 11
10633.38022613447
 21
9985.0310601054662
 31
0.0
  0
ARC
  5
5257
  8
FUTO
 10
10637.38022613447
 20
9985.0310601054662
 30
0.0
 40
4.0
 50
89.999999999999986
 51
180.0
  0
ARC
  5
5258
  8
FUTO
 10
10578.38022613447
 20
9926.0310601054662
 30
0.0
 40
4.0
 50
89.999999999999986
 51
179.9999999999992
  0
ARC
  5
5259
  8
FUTO
 10
10624.88022613447
 20
9938.531060105468
 30
0.0
 40
8.5
 50
270.0
 51
0.0
  0
LINE
  5
525A
  8
FUTO
 10
10639.38022613447
 20
8268.0310601054662
 30
0.0
 11
10574.38022613447
 21
8268.0310601054662
 31
0.0
  0
LINE
  5
525B
  8
FUTO
 10
10639.38022613447
 20
8268.0310601054662
 30
0.0
 11
10639.38022613447
 21
8203.0310601054662
 31
0.0
  0
LINE
  5
525C
  8
FUTO
 10
10574.38022613447
 20
8268.0310601054662
 30
0.0
 11
10574.38022613447
 21
8266.0310601054662
 31
0.0
  0
LINE
  5
525D
  8
FUTO
 10
10639.38022613447
 20
8203.0310601054662
 30
0.0
 11
10637.38022613447
 21
8203.0310601054662
 31
0.0
  0
LINE
  5
525E
  8
FUTO
 10
10633.38022613447
 20
8253.5310601054662
 30
0.0
 11
10633.38022613447
 21
8207.0310601054662
 31
0.0
  0
LINE
  5
525F
  8
FUTO
 10
10624.88022613447
 20
8262.0310601054662
 30
0.0
 11
10578.38022613447
 21
8262.0310601054662
 31
0.0
  0
ARC
  5
5260
  8
FUTO
 10
10578.38022613447
 20
8266.0310601054662
 30
0.0
 40
4.0
 50
180.0
 51
270.0
  0
ARC
  5
5261
  8
FUTO
 10
10637.38022613447
 20
8207.0310601054662
 30
0.0
 40
4.0
 50
180.0
 51
269.9999999999992
  0
ARC
  5
5262
  8
FUTO
 10
10624.88022613447
 20
8253.5310601054662
 30
0.0
 40
8.5
 50
0.0
 51
89.999999999999986
  0
LINE
  5
5263
  8
FUTO
 10
10633.38022613447
 20
9924.0310601054662
 30
0.0
 11
10633.38022613447
 21
8268.0310601054662
 31
0.0
  0
ARC
  5
5264
  8
FUTO
 10
9691.3802261344754
 20
10063.031060105461
 30
0.0
 40
866.0
 50
351.76768968499709
 51
0.0
  0
LINE
  5
5265
  8
FUTO
 10
10574.38022613447
 20
9939.0310601054662
 30
0.0
 11
10548.45665213159
 21
9939.0310601054662
 31
0.0
  0
ARC
  5
5266
  8
FUTO
 10
9497.3802261344736
 20
10063.031060105461
 30
0.0
 40
1060.0
 50
0.0
 51
84.749550329799078
  0
ARC
  5
5269
  8
FUTO
 10
9478.3802261344736
 20
9850.0310601054662
 30
0.0
 40
1273.0
 50
84.771765231867477
 51
174.77176523186739
  0
LINE
  5
526B
  8
FUTO
 10
10208.192057177979
 20
8292.7852576353544
 30
0.0
 11
10574.38022613447
 21
8258.958774250661
 31
0.0
  0
CIRCLE
  5
526C
  8
KL
 10
10410.980809791819
 20
9583.0310601054662
 30
0.0
 40
17.0
  0
LINE
  5
526D
  8
FUTO
 10
8044.3802261344754
 20
8066.0310601054662
 30
0.0
 11
10544.38022613447
 21
8066.0310601054662
 31
0.0
  0
LINE
  5
526E
  8
FUTO
 10
8044.3802261344754
 20
8216.0310601054662
 30
0.0
 11
10544.38022613447
 21
8216.0310601054662
 31
0.0
  0
LINE
  5
526F
  8
FUTO
 10
10544.38022613447
 20
8216.0310601054662
 30
0.0
 11
10544.38022613447
 21
8066.0310601054662
 31
0.0
  0
LINE
  5
5270
  8
FUTO
 10
8044.3802261344754
 20
8216.0310601054662
 30
0.0
 11
8044.3802261344754
 21
8066.0310601054671
 31
0.0
  0
LINE
  5
5273
  8
FUTO
 10
10534.38022613447
 20
8216.0310601054662
 30
0.0
 11
10534.38022613447
 21
10282.646633323749
 31
0.0
  0
LINE
  5
5274
  8
FUTO
 10
8654.3802261344736
 20
10820.367599662741
 30
0.0
 11
8654.3802261344736
 21
9975.0310601054662
 31
0.0
  0
LINE
  5
5275
  8
FUTO
 10
8663.3802261344736
 20
10827.93903123567
 30
0.0
 11
8663.3802261344736
 21
9975.0310601054662
 31
0.0
  0
LINE
  5
5276
  8
FUTO
 10
10525.38022613447
 20
8216.0310601054662
 30
0.0
 11
10525.38022613447
 21
10321.518970847919
 31
0.0
  0
LINE
  5
52EB
  8
CT
 10
8580.8365834196193
 20
8246.0310601054643
 30
0.0
 11
7952.043505673777
 21
8246.0310601054643
 31
0.0
  0
LINE
  5
52F4
  8
CT
 10
8344.3802261344736
 20
8099.0456269533961
 30
0.0
 11
8344.3802261344736
 21
8739.1436411499999
 31
0.0
  0
LINE
  5
5391
  8
CT
 10
9739.3802261344736
 20
9846.0310601054662
 30
0.0
 11
9739.3802261344736
 21
9920.0310601054662
 31
0.0
  0
LINE
  5
5393
  8
CT
 10
9449.3802261344736
 20
9846.0310601054662
 30
0.0
 11
9449.3802261344736
 21
9920.0310601054662
 31
0.0
  0
ARC
  5
53C8
  8
FUTO
 10
9417.3802261344736
 20
9897.0310601054662
 30
0.0
 40
3.0
 50
90.0
 51
180.0
  0
LINE
  5
53C9
  8
FUTO
 10
9414.3802261344736
 20
9897.0310601054662
 30
0.0
 11
9414.3802261344736
 21
9866.0310601054662
 31
0.0
  0
ARC
  5
53CA
  8
FUTO
 10
9546.8802261344736
 20
10048.303473464979
 30
0.0
 40
15.00000000000038
 50
25.471936986187181
 51
214.5280630138071
  0
LINE
  5
53CB
  8
FUTO
 10
9578.698563436672
 20
10059.72783408959
 30
0.0
 11
9578.698563436672
 21
10066.031060105461
 31
0.0
  0
LINE
  5
53CC
  8
FUTO
 10
9610.061888832277
 20
10059.72783408959
 30
0.0
 11
9610.061888832277
 21
10066.031060105461
 31
0.0
  0
LINE
  5
53CD
  8
FUTO
 10
9610.061888832277
 20
10066.031060105461
 30
0.0
 11
9578.698563436672
 21
10066.031060105461
 31
0.0
  0
ARC
  5
53CE
  8
FUTO
 10
9594.3802261344754
 20
9966.0310601054662
 30
0.0
 40
95.000000000000057
 50
129.05612602761761
 51
170.94387397238259
  0
LINE
  5
53CF
  8
FUTO
 10
9499.3802261344754
 20
9951.0310601054662
 30
0.0
 11
9499.3802261344754
 21
9916.0310601054662
 31
0.0
  0
LINE
  5
53D0
  8
FUTO
 10
9504.3802261344736
 20
9866.0310601054662
 30
0.0
 11
9504.3802261344736
 21
9869.0310601054662
 31
0.0
  0
ARC
  5
53D1
  8
FUTO
 10
9483.3802261344754
 20
9916.0310601054662
 30
0.0
 40
16.0
 50
270.0
 51
0.000000000000007
  0
ARC
  5
53D2
  8
FUTO
 10
9546.8802261344736
 20
9883.7586467459441
 30
0.0
 40
14.999999999999909
 50
145.47193698619051
 51
334.5280630138152
  0
ARC
  5
53D3
  8
FUTO
 10
9594.3802261344754
 20
9966.031060105468
 30
0.0
 40
95.000000000000966
 50
189.05612602761769
 51
230.9438739723827
  0
ARC
  5
53D4
  8
FUTO
 10
9499.3802261344754
 20
9966.0310601054662
 30
0.0
 40
15.00000000000011
 50
85.471936986191778
 51
274.52806301380838
  0
LINE
  5
53D5
  8
FUTO
 10
9483.3802261344754
 20
9900.0310601054662
 30
0.0
 11
9417.3802261344736
 21
9900.0310601054662
 31
0.0
  0
ARC
  5
53D7
  8
FUTO
 10
9641.8802261344754
 20
10048.303473464979
 30
0.0
 40
15.00000000000006
 50
325.47193698619043
 51
154.52806301381389
  0
ARC
  5
53D8
  8
FUTO
 10
9594.3802261344754
 20
9966.0310601054662
 30
0.0
 40
94.999999999999375
 50
9.0561260276173208
 51
50.943873972383258
  0
LINE
  5
53D9
  8
FUTO
 10
9689.3802261344736
 20
9951.0310601054662
 30
0.0
 11
9689.3802261344736
 21
9916.0310601054662
 31
0.0
  0
ARC
  5
53DA
  8
FUTO
 10
9641.8802261344754
 20
9883.7586467459441
 30
0.0
 40
14.99999999999978
 50
205.47193698618639
 51
34.528063013808868
  0
LINE
  5
53DB
  8
FUTO
 10
9684.3802261344736
 20
9866.0310601054662
 30
0.0
 11
9684.3802261344736
 21
9869.0310601054662
 31
0.0
  0
ARC
  5
53DC
  8
FUTO
 10
9594.3802261344736
 20
9966.0310601054662
 30
0.0
 40
95.000000000000057
 50
309.05612602761761
 51
350.94387397238319
  0
ARC
  5
53DD
  8
FUTO
 10
9771.3802261344754
 20
9897.0310601054662
 30
0.0
 40
3.0
 50
0.000000000000007
 51
90.0
  0
LINE
  5
53DE
  8
FUTO
 10
9774.3802261344754
 20
9897.0310601054662
 30
0.0
 11
9774.3802261344754
 21
9866.0310601054662
 31
0.0
  0
LINE
  5
53DF
  8
FUTO
 10
9705.3802261344736
 20
9900.0310601054662
 30
0.0
 11
9771.3802261344754
 21
9900.0310601054662
 31
0.0
  0
ARC
  5
53E0
  8
FUTO
 10
9705.3802261344736
 20
9916.0310601054662
 30
0.0
 40
16.0
 50
180.0
 51
270.0
  0
LINE
  5
53E1
  8
FUTO
 10
9789.3802261344736
 20
9866.0310601054662
 30
0.0
 11
9399.3802261344736
 21
9866.0310601054662
 31
0.0
  0
ARC
  5
53E2
  8
FUTO
 10
9689.3802261344736
 20
9966.0310601054662
 30
0.0
 40
14.999999999999879
 50
265.47193698619083
 51
94.528063013808961
  0
CIRCLE
  5
53E3
  8
FUTO
 10
9594.3802261344736
 20
9966.0310601054662
 30
0.0
 40
36.5
  0
LINE
  5
53E4
  8
FUTO
 10
9684.3802261344736
 20
9869.0310601054662
 30
0.0
 11
9504.3802261344736
 21
9869.0310601054662
 31
0.0
  0
ARC
  5
53E5
  8
FUTO
 10
9594.3802261344736
 20
9966.0310601054662
 30
0.0
 40
94.999999999998266
 50
249.0561260276169
 51
290.94387397238359
  0
ARC
  5
53E6
  8
FUTO
 10
9594.3802261344754
 20
9966.031060105468
 30
0.0
 40
94.999999999998053
 50
69.056126027617694
 51
110.9438739723836
  0
LINE
  5
53E7
  8
FUTO
 10
12334.5377424783
 20
10046.031060105461
 30
0.0
 11
12339.5377424783
 21
10046.031060105461
 31
0.0
  0
ARC
  5
53E8
  8
FUTO
 10
12328.5377424783
 20
10055.031060105461
 30
0.0
 40
6.0
 50
0.0
 51
90.0
  0
LINE
  5
53E9
  8
FUTO
 10
12319.5377424783
 20
10061.031060105461
 30
0.0
 11
12328.5377424783
 21
10061.031060105461
 31
0.0
  0
LINE
  5
53EA
  8
FUTO
 10
12339.5377424783
 20
9886.0310601054662
 30
0.0
 11
12334.5377424783
 21
9886.0310601054662
 31
0.0
  0
ARC
  5
53EB
  8
FUTO
 10
12328.5377424783
 20
9877.0310601054662
 30
0.0
 40
6.0
 50
270.0
 51
0.0
  0
ARC
  5
53EC
  8
FUTO
 10
12313.5377424783
 20
9894.0310601054662
 30
0.0
 40
6.0
 50
0.0
 51
90.0
  0
LINE
  5
53ED
  8
FUTO
 10
12328.5377424783
 20
9871.0310601054643
 30
0.0
 11
12319.5377424783
 21
9871.0310601054643
 31
0.0
  0
LINE
  5
53EE
  8
FUTO
 10
12339.5377424783
 20
10046.031060105461
 30
0.0
 11
12339.5377424783
 21
9886.0310601054662
 31
0.0
  0
LINE
  5
53EF
  8
FUTO
 10
12334.5377424783
 20
10055.031060105461
 30
0.0
 11
12334.5377424783
 21
9877.0310601054662
 31
0.0
  0
LINE
  5
53F0
  8
FUTO
 10
12319.5377424783
 20
9866.0310601054662
 30
0.0
 11
12319.5377424783
 21
10066.031060105461
 31
0.0
  0
LINE
  5
53F1
  8
FUTO
 10
12219.5377424783
 20
10061.031060105461
 30
0.0
 11
12210.5377424783
 21
10061.031060105461
 31
0.0
  0
ARC
  5
53F2
  8
FUTO
 10
12210.5377424783
 20
10055.031060105461
 30
0.0
 40
6.0
 50
90.0
 51
180.0
  0
LINE
  5
53F3
  8
FUTO
 10
12204.5377424783
 20
10046.031060105461
 30
0.0
 11
12199.5377424783
 21
10046.031060105461
 31
0.0
  0
ARC
  5
53F4
  8
FUTO
 10
12225.5377424783
 20
9894.0310601054662
 30
0.0
 40
6.0
 50
90.0
 51
180.0
  0
ARC
  5
53F5
  8
FUTO
 10
12210.5377424783
 20
9877.0310601054662
 30
0.0
 40
6.0
 50
180.0
 51
270.0
  0
LINE
  5
53F6
  8
FUTO
 10
12210.5377424783
 20
9871.0310601054643
 30
0.0
 11
12219.5377424783
 21
9871.0310601054643
 31
0.0
  0
LINE
  5
53F7
  8
FUTO
 10
12199.5377424783
 20
9886.0310601054662
 30
0.0
 11
12204.5377424783
 21
9886.0310601054662
 31
0.0
  0
LINE
  5
53F8
  8
FUTO
 10
12204.5377424783
 20
10055.031060105461
 30
0.0
 11
12204.5377424783
 21
9877.0310601054662
 31
0.0
  0
LINE
  5
53F9
  8
FUTO
 10
12199.5377424783
 20
10046.031060105461
 30
0.0
 11
12199.5377424783
 21
9886.0310601054662
 31
0.0
  0
LINE
  5
53FA
  8
FUTO
 10
12219.5377424783
 20
10066.031060105461
 30
0.0
 11
12219.5377424783
 21
9866.0310601054662
 31
0.0
  0
LINE
  5
53FB
  8
FUTO
 10
12319.5377424783
 20
10066.031060105461
 30
0.0
 11
12219.5377424783
 21
10066.031060105461
 31
0.0
  0
LINE
  5
53FC
  8
FUTO
 10
12214.5377424783
 20
9866.0310601054662
 30
0.0
 11
12324.5377424783
 21
9866.0310601054662
 31
0.0
  0
LINE
  5
53FD
  8
FUTO
 10
12313.5377424783
 20
9900.0310601054662
 30
0.0
 11
12225.5377424783
 21
9900.0310601054662
 31
0.0
  0
LINE
  5
53FE
  8
KL
 10
9208.7283532437523
 20
9858.0310601054662
 30
0.0
 11
9980.0320990251985
 21
9858.0310601054662
 31
0.0
  0
LINE
  5
53FF
  8
FUTO
 10
9789.3802261344736
 20
9866.0310601054662
 30
0.0
 11
9789.3802261344736
 21
9858.0310601054662
 31
0.0
  0
LINE
  5
5400
  8
FUTO
 10
9399.3802261344736
 20
9866.0310601054662
 30
0.0
 11
9399.3802261344736
 21
9858.0310601054662
 31
0.0
  0
LINE
  5
5405
  8
FUTO
 10
10219.38022613447
 20
8223.8586071644077
 30
0.0
 11
10219.38022613447
 21
8216.0310601054662
 31
0.0
  0
LINE
  5
540E
  8
FUTO
 10
8969.3802261344736
 20
8223.8586071644077
 30
0.0
 11
8969.3802261344736
 21
8216.0310601054662
 31
0.0
  0
LINE
  5
5411
  8
FUTO
 10
10219.38022613447
 20
8216.0310601054662
 30
0.0
 11
10219.38022613447
 21
8066.0310601054662
 31
0.0
  0
LINE
  5
5412
  8
KL
 10
9794.0345744734732
 20
9951.2276419417631
 30
0.0
 11
9791.8979933048358
 21
9933.3548967438419
 31
0.0
  0
LINE
  5
5413
  8
KL
 10
9394.3802261344736
 20
9975.0310601054662
 30
0.0
 11
9394.3802261344736
 21
9957.0310601054662
 31
0.0
  0
LINE
  5
5414
  8
FUTO
 10
10597.78990037284
 20
10076.64412788293
 30
0.0
 11
9972.6561861430509
 21
10002.18763737142
 31
0.0
  0
LINE
  5
5415
  8
FUTO
 10
10595.653319204201
 20
10094.516873080849
 30
0.0
 11
9970.5196049744136
 21
10020.060382569351
 31
0.0
  0
LINE
  5
5416
  8
KL
 10
9394.3802261344736
 20
9957.0310601054662
 30
0.0
 11
8959.5806173903948
 21
9957.0310601054662
 31
0.0
  0
LINE
  5
5417
  8
KL
 10
9394.3802261344736
 20
9975.0310601054662
 30
0.0
 11
8982.9721023807124
 21
9975.0310601054662
 31
0.0
  0
LINE
  5
541F
  8
FUTO
 10
10534.38022613447
 20
9957.0310601054662
 30
0.0
 11
10534.38022613447
 21
8946.0310601054662
 31
0.0
  0
LINE
  5
5420
  8
FUTO
 10
10525.38022613447
 20
9957.0310601054662
 30
0.0
 11
10525.38022613447
 21
8946.0310601054662
 31
0.0
  0
LINE
  5
5425
  8
FUTO
 10
8654.3802261344736
 20
9957.0310601054662
 30
0.0
 11
8654.3802261344736
 21
9295.2090177332939
 31
0.0
  0
LINE
  5
5426
  8
FUTO
 10
8663.3802261344736
 20
9957.0310601054662
 30
0.0
 11
8663.3802261344736
 21
9307.9318034972584
 31
0.0
  0
ARC
  5
543E
  8
FUTO
 10
9710.3802261344754
 20
9850.0310601054662
 30
0.0
 40
1505.0
 50
175.5794626030642
 51
213.628938787978
  0
CIRCLE
  5
544F
  8
SL
 10
9594.3802261344736
 20
9966.0310601054662
 30
0.0
 40
315.0
  0
ARC
  5
5451
  8
FUTO
 10
9594.3802261344736
 20
9966.0310601054662
 30
0.0
 40
380.0
 50
315.28695728321139
 51
144.7247078226907
  0
CIRCLE
  5
5453
  8
SL
 10
8344.3802261344736
 20
8476.031060105468
 30
0.0
 40
132.49999999999989
  0
ARC
  5
5454
  8
FUTO
 10
8344.3802261344736
 20
8476.031060105468
 30
0.0
 40
220.0
 50
144.7247078226907
 51
315.28695728321139
  0
LINE
  5
5459
  8
CT
 10
11834.172381373401
 20
9966.0310601054662
 30
0.0
 11
14520.31565429516
 21
9966.0310601054662
 31
0.0
  0
LINE
  5
545A
  8
CT
 10
13750.5377424783
 20
11425.60508172244
 30
0.0
 11
13750.5377424783
 21
8052.8900009083391
 31
0.0
  0
LINE
  5
545B
  8
FUTO
 10
14344.5377424783
 20
8216.0310601054662
 30
0.0
 11
12194.5377424783
 21
8216.0310601054662
 31
0.0
  0
LINE
  5
545C
  8
FUTO
 10
14344.5377424783
 20
8066.0310601054662
 30
0.0
 11
12194.5377424783
 21
8066.0310601054662
 31
0.0
  0
LINE
  5
5505
  8
FUTO
 10
14344.5377424783
 20
8066.0310601054662
 30
0.0
 11
14419.5377424783
 21
8066.0310601054662
 31
0.0
  0
LINE
  5
5506
  8
FUTO
 10
14354.689119507309
 20
8078.7080927349334
 30
0.0
 11
14415.886365449291
 21
8073.3540274759998
 31
0.0
  0
LINE
  5
5507
  8
FUTO
 10
14344.5377424783
 20
8216.0310601054662
 30
0.0
 11
14419.5377424783
 21
8216.0310601054662
 31
0.0
  0
LINE
  5
5508
  8
FUTO
 10
14354.689119507309
 20
8203.3540274760016
 30
0.0
 11
14415.886365449291
 21
8208.7080927349307
 31
0.0
  0
LINE
  5
5509
  8
FUTO
 10
14351.0377424783
 20
8199.3692486836335
 30
0.0
 11
14351.0377424783
 21
8082.6928715272979
 31
0.0
  0
ARC
  5
550A
  8
FUTO
 10
14355.0377424783
 20
8082.6928715272979
 30
0.0
 40
4.0
 50
180.0
 51
264.99999999999989
  0
LINE
  5
550B
  8
FUTO
 10
14344.5377424783
 20
8216.0310601054662
 30
0.0
 11
14344.5377424783
 21
8066.0310601054662
 31
0.0
  0
ARC
  5
550C
  8
FUTO
 10
14355.0377424783
 20
8199.3692486836335
 30
0.0
 40
4.0
 50
95.000000000000057
 51
180.0
  0
LINE
  5
550D
  8
FUTO
 10
14419.5377424783
 20
8066.0310601054662
 30
0.0
 11
14419.5377424783
 21
8069.3692486836326
 31
0.0
  0
LINE
  5
550E
  8
FUTO
 10
14419.5377424783
 20
8216.0310601054662
 30
0.0
 11
14419.5377424783
 21
8212.6928715273007
 31
0.0
  0
ARC
  5
550F
  8
FUTO
 10
14415.5377424783
 20
8212.6928715273007
 30
0.0
 40
4.0
 50
275.00000000000051
 51
359.9999999999921
  0
ARC
  5
5510
  8
FUTO
 10
14415.5377424783
 20
8069.3692486836326
 30
0.0
 40
4.0
 50
0.0000000000078369
 51
84.999999999999503
  0
LINE
  5
5511
  8
FUTO
 10
12194.5377424783
 20
8216.0310601054662
 30
0.0
 11
12119.5377424783
 21
8216.0310601054662
 31
0.0
  0
LINE
  5
5512
  8
FUTO
 10
12184.386365449291
 20
8203.3540274760016
 30
0.0
 11
12123.189119507309
 21
8208.7080927349307
 31
0.0
  0
LINE
  5
5513
  8
FUTO
 10
12194.5377424783
 20
8066.0310601054662
 30
0.0
 11
12119.5377424783
 21
8066.0310601054662
 31
0.0
  0
LINE
  5
5514
  8
FUTO
 10
12184.386365449291
 20
8078.7080927349334
 30
0.0
 11
12123.189119507309
 21
8073.3540274759998
 31
0.0
  0
LINE
  5
5515
  8
FUTO
 10
12188.0377424783
 20
8082.6928715272979
 30
0.0
 11
12188.0377424783
 21
8199.3692486836335
 31
0.0
  0
ARC
  5
5516
  8
FUTO
 10
12184.0377424783
 20
8199.3692486836335
 30
0.0
 40
4.0
 50
0.0
 51
84.999999999999943
  0
LINE
  5
5517
  8
FUTO
 10
12194.5377424783
 20
8066.0310601054662
 30
0.0
 11
12194.5377424783
 21
8216.0310601054662
 31
0.0
  0
ARC
  5
5518
  8
FUTO
 10
12184.0377424783
 20
8082.6928715272979
 30
0.0
 40
4.0
 50
275.0
 51
0.0
  0
LINE
  5
5519
  8
FUTO
 10
12119.5377424783
 20
8216.0310601054662
 30
0.0
 11
12119.5377424783
 21
8212.6928715273007
 31
0.0
  0
LINE
  5
551A
  8
FUTO
 10
12119.5377424783
 20
8066.0310601054662
 30
0.0
 11
12119.5377424783
 21
8069.3692486836326
 31
0.0
  0
ARC
  5
551B
  8
FUTO
 10
12123.5377424783
 20
8069.3692486836326
 30
0.0
 40
4.0
 50
95.000000000000554
 51
179.9999999999921
  0
ARC
  5
551C
  8
FUTO
 10
12123.5377424783
 20
8212.6928715273007
 30
0.0
 40
4.0
 50
180.00000000000779
 51
264.99999999999949
  0
LINE
  5
551D
  8
FUTO
 10
14344.5377424783
 20
8079.0275601054655
 30
0.0
 11
12194.5377424783
 21
8079.0275601054655
 31
0.0
  0
LINE
  5
551E
  8
FUTO
 10
14344.5377424783
 20
8203.0345601054687
 30
0.0
 11
12194.5377424783
 21
8203.0345601054687
 31
0.0
  0
LINE
  5
551F
  8
FUTO
 10
8044.3802261344754
 20
8079.0275601054655
 30
0.0
 11
10544.38022613447
 21
8079.0275601054655
 31
0.0
  0
LINE
  5
5520
  8
FUTO
 10
8044.3802261344754
 20
8203.0345601054687
 30
0.0
 11
10544.38022613447
 21
8203.0345601054687
 31
0.0
  0
LINE
  5
5522
  8
FUTO
 10
13160.5377424783
 20
11105.031060105461
 30
0.0
 11
13160.5377424783
 21
9966.0310601054662
 31
0.0
  0
LINE
  5
5523
  8
FUTO
 10
14340.5377424783
 20
11105.031060105461
 30
0.0
 11
14340.5377424783
 21
9989.0310601054662
 31
0.0
  0
LINE
  5
5524
  8
FUTO
 10
14343.737742478301
 20
11105.031060105461
 30
0.0
 11
14343.737742478301
 21
9989.0310601054662
 31
0.0
  0
LINE
  5
5525
  8
FUTO
 10
13157.337742478299
 20
11105.031060105461
 30
0.0
 11
13157.337742478299
 21
9966.0310601054662
 31
0.0
  0
LINE
  5
552A
  8
FUTO
 10
14418.737742478301
 20
11105.031060105461
 30
0.0
 11
14418.737742478301
 21
10104.580500481899
 31
0.0
  0
LINE
  5
552B
  8
FUTO
 10
13082.337742478299
 20
11105.031060105461
 30
0.0
 11
13082.337742478299
 21
10104.58050048189
 31
0.0
  0
LINE
  5
5533
  8
CT
 10
12949.5377424783
 20
10126.39801814143
 30
0.0
 11
12949.5377424783
 21
9794.3519693679336
 31
0.0
  0
LINE
  5
5534
  8
CT
 10
12269.5377424783
 20
10126.39801814143
 30
0.0
 11
12269.5377424783
 21
9794.3519693679336
 31
0.0
  0
LINE
  5
5537
  8
CT
 10
12904.5377424783
 20
9897.9739168847373
 30
0.0
 11
12904.5377424783
 21
9807.9739168847354
 31
0.0
  0
LINE
  5
5538
  8
CT
 10
12994.5377424783
 20
9897.9739168847373
 30
0.0
 11
12994.5377424783
 21
9807.9739168847354
 31
0.0
  0
LINE
  5
5548
  8
FUTO
 10
12977.0377424783
 20
10086.031060105461
 30
0.0
 11
13013.5377424783
 21
10086.031060105461
 31
0.0
  0
LINE
  5
5549
  8
FUTO
 10
12977.0377424783
 20
10099.031060105461
 30
0.0
 11
12977.0377424783
 21
9886.0310601054662
 31
0.0
  0
LINE
  5
554A
  8
FUTO
 10
12922.0377424783
 20
10099.031060105461
 30
0.0
 11
12922.0377424783
 21
9886.0310601054662
 31
0.0
  0
ARC
  5
554B
  8
FUTO
 10
13016.5377424783
 20
9883.0310601054662
 30
0.0
 40
3.0
 50
0.0
 51
90.0
  0
ARC
  5
554C
  8
FUTO
 10
12882.5377424783
 20
9883.0310601054662
 30
0.0
 40
3.0
 50
90.000000000000028
 51
180.0
  0
LINE
  5
554D
  8
FUTO
 10
13027.5377424783
 20
10086.031060105461
 30
0.0
 11
13013.5377424783
 21
10086.031060105461
 31
0.0
  0
LINE
  5
554E
  8
FUTO
 10
13003.5377424783
 20
10099.031060105461
 30
0.0
 11
13003.5377424783
 21
10086.031060105461
 31
0.0
  0
LINE
  5
554F
  8
FUTO
 10
12885.5377424783
 20
10086.031060105461
 30
0.0
 11
12922.0377424783
 21
10086.031060105461
 31
0.0
  0
LINE
  5
5550
  8
FUTO
 10
12895.5377424783
 20
10099.031060105461
 30
0.0
 11
12895.5377424783
 21
10086.031060105461
 31
0.0
  0
LINE
  5
5551
  8
FUTO
 10
12871.5377424783
 20
10086.031060105461
 30
0.0
 11
12885.5377424783
 21
10086.031060105461
 31
0.0
  0
LINE
  5
5552
  8
FUTO
 10
12895.5377424783
 20
10099.031060105461
 30
0.0
 11
13003.5377424783
 21
10099.031060105461
 31
0.0
  0
LINE
  5
5553
  8
FUTO
 10
13027.5377424783
 20
9846.0310601054662
 30
0.0
 11
13019.5377424783
 21
9846.0310601054662
 31
0.0
  0
LINE
  5
5554
  8
FUTO
 10
13035.5377424783
 20
9886.0310601054662
 30
0.0
 11
13027.5377424783
 21
9866.0310601054662
 31
0.0
  0
LINE
  5
5555
  8
FUTO
 10
13019.5377424783
 20
9883.0310601054662
 30
0.0
 11
13019.5377424783
 21
9836.0310601054662
 31
0.0
  0
LINE
  5
5556
  8
FUTO
 10
13035.5377424783
 20
10046.031060105461
 30
0.0
 11
13035.5377424783
 21
9886.0310601054662
 31
0.0
  0
LINE
  5
5557
  8
FUTO
 10
12871.5377424783
 20
9846.0310601054662
 30
0.0
 11
12879.5377424783
 21
9846.0310601054662
 31
0.0
  0
LINE
  5
5558
  8
FUTO
 10
12863.5377424783
 20
9886.0310601054662
 30
0.0
 11
12871.5377424783
 21
9866.0310601054662
 31
0.0
  0
LINE
  5
5559
  8
FUTO
 10
12879.5377424783
 20
9883.0310601054662
 30
0.0
 11
12879.5377424783
 21
9836.0310601054662
 31
0.0
  0
LINE
  5
555A
  8
FUTO
 10
12863.5377424783
 20
10046.031060105461
 30
0.0
 11
12863.5377424783
 21
9886.0310601054662
 31
0.0
  0
LINE
  5
555B
  8
FUTO
 10
12882.5377424783
 20
9886.0310601054662
 30
0.0
 11
13016.5377424783
 21
9886.0310601054662
 31
0.0
  0
LINE
  5
555C
  8
FUTO
 10
12869.5377424783
 20
9836.0310601054662
 30
0.0
 11
13029.5377424783
 21
9836.0310601054662
 31
0.0
  0
LINE
  5
555D
  8
FUTO
 10
13013.5377424783
 20
10086.031060105461
 30
0.0
 11
13013.5377424783
 21
9886.0310601054662
 31
0.0
  0
LINE
  5
555E
  8
FUTO
 10
13027.5377424783
 20
10086.031060105461
 30
0.0
 11
13027.5377424783
 21
9846.0310601054662
 31
0.0
  0
LINE
  5
555F
  8
FUTO
 10
13035.5377424783
 20
10046.031060105461
 30
0.0
 11
13027.5377424783
 21
10066.031060105461
 31
0.0
  0
LINE
  5
5560
  8
FUTO
 10
12863.5377424783
 20
10046.031060105461
 30
0.0
 11
12871.5377424783
 21
10066.031060105461
 31
0.0
  0
LINE
  5
5561
  8
FUTO
 10
12871.5377424783
 20
10086.031060105461
 30
0.0
 11
12871.5377424783
 21
9846.0310601054662
 31
0.0
  0
LINE
  5
5562
  8
FUTO
 10
13013.5377424783
 20
10086.031060105461
 30
0.0
 11
13013.5377424783
 21
9886.0310601054662
 31
0.0
  0
LINE
  5
5563
  8
FUTO
 10
12885.5377424783
 20
10086.031060105461
 30
0.0
 11
12885.5377424783
 21
9886.0310601054662
 31
0.0
  0
LINE
  5
55BF
  8
FUTO
 10
12344.5377424783
 20
9858.0310601054662
 30
0.0
 11
12194.5377424783
 21
9858.0310601054662
 31
0.0
  0
LINE
  5
55C1
  8
FUTO
 10
12344.5377424783
 20
9858.0310601054662
 30
0.0
 11
12344.5377424783
 21
9818.0310601054662
 31
0.0
  0
LINE
  5
55C6
  8
FUTO
 10
12194.5377424783
 20
9858.0310601054662
 30
0.0
 11
12194.5377424783
 21
8216.0310601054662
 31
0.0
  0
LINE
  5
55CC
  8
FUTO
 10
12214.5377424783
 20
9866.0310601054662
 30
0.0
 11
12214.5377424783
 21
9858.0310601054662
 31
0.0
  0
LINE
  5
55CD
  8
FUTO
 10
12324.5377424783
 20
9866.0310601054662
 30
0.0
 11
12324.5377424783
 21
9858.0310601054662
 31
0.0
  0
LINE
  5
55DF
  8
FUTO
 10
12859.5377424783
 20
9828.0310601054662
 30
0.0
 11
13039.5377424783
 21
9828.0310601054662
 31
0.0
  0
LINE
  5
55E0
  8
FUTO
 10
13039.5377424783
 20
9828.0310601054662
 30
0.0
 11
13039.5377424783
 21
8216.0310601054662
 31
0.0
  0
LINE
  5
55E6
  8
FUTO
 10
12859.5377424783
 20
9828.0310601054662
 30
0.0
 11
12859.5377424783
 21
9818.0310601054662
 31
0.0
  0
LINE
  5
55ED
  8
FUTO
 10
12869.5377424783
 20
9836.0310601054662
 30
0.0
 11
12869.5377424783
 21
9828.0310601054662
 31
0.0
  0
LINE
  5
55EE
  8
FUTO
 10
13029.5377424783
 20
9836.0310601054662
 30
0.0
 11
13029.5377424783
 21
9828.0310601054662
 31
0.0
  0
LINE
  5
55F3
  8
FUTO
 10
12859.5377424783
 20
9818.0310601054662
 30
0.0
 11
12344.5377424783
 21
9818.0310601054662
 31
0.0
  0
LINE
  5
5600
  8
FUTO
 10
13092.337742478299
 20
10094.58050048189
 30
0.0
 11
14408.737742478301
 21
10094.58050048189
 31
0.0
  0
LINE
  5
5601
  8
FUTO
 10
13092.337742478299
 20
10076.58050048189
 30
0.0
 11
14408.737742478301
 21
10076.58050048189
 31
0.0
  0
LINE
  5
5602
  8
FUTO
 10
13092.337742478299
 20
10094.58050048189
 30
0.0
 11
13092.337742478299
 21
10076.58050048189
 31
0.0
  0
LINE
  5
5603
  8
FUTO
 10
13160.5377424783
 20
9966.0310601054662
 30
0.0
 11
13160.5377424783
 21
8268.0310601054662
 31
0.0
  0
LINE
  5
5604
  8
FUTO
 10
13157.337742478299
 20
9966.0310601054662
 30
0.0
 11
13157.337742478299
 21
8268.0310601054662
 31
0.0
  0
LINE
  5
5605
  8
FUTO
 10
14343.737742478301
 20
9924.0310601054662
 30
0.0
 11
14343.737742478301
 21
8268.0310601054662
 31
0.0
  0
LINE
  5
5606
  8
FUTO
 10
14340.5377424783
 20
9924.0310601054662
 30
0.0
 11
14340.5377424783
 21
8268.0310601054662
 31
0.0
  0
LINE
  5
5608
  8
FUTO
 10
14408.737742478301
 20
10094.58050048189
 30
0.0
 11
14418.737742478301
 21
10104.58050048189
 31
0.0
  0
LINE
  5
5609
  8
FUTO
 10
14408.737742478301
 20
10076.58050048189
 30
0.0
 11
14418.737742478301
 21
10066.58050048189
 31
0.0
  0
LINE
  5
560A
  8
FUTO
 10
14418.737742478301
 20
9966.0310601054662
 30
0.0
 11
14418.737742478301
 21
9865.4816197290384
 31
0.0
  0
LINE
  5
560B
  8
FUTO
 10
13092.337742478299
 20
10094.58050048189
 30
0.0
 11
13082.337742478299
 21
10104.58050048189
 31
0.0
  0
LINE
  5
560C
  8
FUTO
 10
13092.337742478299
 20
10076.58050048189
 30
0.0
 11
13082.337742478299
 21
10066.580500481899
 31
0.0
  0
LINE
  5
560D
  8
FUTO
 10
13082.337742478299
 20
9966.0310601054662
 30
0.0
 11
13082.337742478299
 21
9865.4816197290347
 31
0.0
  0
LINE
  5
560E
  8
SL
 10
12009.5377424783
 20
10281.031060105461
 30
0.0
 11
12009.5377424783
 21
8343.5310601054662
 31
0.0
  0
LINE
  5
560F
  8
SL
 10
12009.5377424783
 20
10281.031060105461
 30
0.0
 11
12087.4377424783
 21
10281.031060105461
 31
0.0
  0
LINE
  5
5610
  8
SL
 10
12009.5377424783
 20
9651.0310601054662
 30
0.0
 11
12087.4377424783
 21
9651.0310601054662
 31
0.0
  0
LINE
  5
5611
  8
SL
 10
12087.4377424783
 20
10281.031060105461
 30
0.0
 11
12087.4377424783
 21
10046.031060105461
 31
0.0
  0
LINE
  5
5613
  8
SL
 10
12109.5377424783
 20
10046.031060105461
 30
0.0
 11
12109.5377424783
 21
9886.0310601054662
 31
0.0
  0
LINE
  5
5614
  8
SL
 10
12087.4377424783
 20
10046.031060105461
 30
0.0
 11
12109.5377424783
 21
10046.031060105461
 31
0.0
  0
LINE
  5
5615
  8
SL
 10
12087.4377424783
 20
9886.0310601054662
 30
0.0
 11
12109.5377424783
 21
9886.0310601054662
 31
0.0
  0
LINE
  5
5616
  8
SL
 10
12087.4377424783
 20
9886.0310601054662
 30
0.0
 11
12087.4377424783
 21
9651.0310601054662
 31
0.0
  0
LINE
  5
5617
  8
CT
 10
11847.953498504599
 20
8476.031060105468
 30
0.0
 11
12186.5377424783
 21
8476.031060105468
 31
0.0
  0
LINE
  5
5618
  8
SL
 10
12009.5377424783
 20
8608.5310601054662
 30
0.0
 11
12087.4377424783
 21
8608.5310601054662
 31
0.0
  0
LINE
  5
5619
  8
SL
 10
12009.5377424783
 20
8343.5310601054662
 30
0.0
 11
12087.4377424783
 21
8343.5310601054662
 31
0.0
  0
LINE
  5
561A
  8
SL
 10
12087.4377424783
 20
10281.031060105461
 30
0.0
 11
12087.437742478291
 21
8343.5310601054662
 31
0.0
  0
LINE
  5
561B
  8
SL
 10
12107.5377424783
 20
8546.0310601054662
 30
0.0
 11
12107.5377424783
 21
8406.0310601054662
 31
0.0
  0
LINE
  5
561C
  8
SL
 10
12087.4377424783
 20
8546.0310601054662
 30
0.0
 11
12107.5377424783
 21
8546.0310601054662
 31
0.0
  0
LINE
  5
561D
  8
SL
 10
12087.4377424783
 20
8406.0310601054662
 30
0.0
 11
12107.5377424783
 21
8406.0310601054662
 31
0.0
  0
LINE
  5
561E
  8
SL
 10
12087.4377424783
 20
8406.0310601054662
 30
0.0
 11
12087.4377424783
 21
8343.5310601054662
 31
0.0
  0
LINE
  5
561F
  8
FUTO
 10
11870.5377424783
 20
10346.031060105461
 30
0.0
 11
12159.5377424783
 21
10346.031060105461
 31
0.0
  0
LINE
  5
5620
  8
FUTO
 10
11870.537742478289
 20
8256.0310601054662
 30
0.0
 11
12159.5377424783
 21
8256.0310601054662
 31
0.0
  0
LINE
  5
5621
  8
FUTO
 10
11870.5377424783
 20
10346.031060105461
 30
0.0
 11
11870.537742478289
 21
8256.0310601054662
 31
0.0
  0
LINE
  5
5622
  8
FUTO
 10
12159.5377424783
 20
10346.031060105461
 30
0.0
 11
12159.5377424783
 21
8256.0310601054662
 31
0.0
  0
LINE
  5
5623
  8
FUTO
 10
12339.5377424783
 20
10016.031060105461
 30
0.0
 11
12863.5377424783
 21
10016.031060105461
 31
0.0
  0
LINE
  5
5624
  8
FUTO
 10
12339.5377424783
 20
9916.0310601054662
 30
0.0
 11
12863.5377424783
 21
9916.0310601054662
 31
0.0
  0
LINE
  5
5625
  8
KL
 10
13035.5377424783
 20
10016.031060105461
 30
0.0
 11
13157.337742478299
 21
10016.031060105461
 31
0.0
  0
LINE
  5
5626
  8
KL
 10
13035.5377424783
 20
9916.0310601054662
 30
0.0
 11
13157.337742478299
 21
9916.0310601054662
 31
0.0
  0
LINE
  5
5627
  8
FUTO
 10
12109.5377424783
 20
10008.531060105461
 30
0.0
 11
12199.5377424783
 21
10008.531060105461
 31
0.0
  0
LINE
  5
5628
  8
FUTO
 10
12109.5377424783
 20
9923.5310601054662
 30
0.0
 11
12199.5377424783
 21
9923.5310601054662
 31
0.0
  0
LINE
  5
5694
  8
FUTO
 10
8044.3802261344754
 20
12160.26960041307
 30
0.0
 11
10219.38022613447
 21
12160.26960041307
 31
0.0
  0
LINE
  5
5695
  8
FUTO
 10
8644.3802261344736
 20
14460.26960041307
 30
0.0
 11
10544.38022613447
 21
14460.269600413059
 31
0.0
  0
LINE
  5
5696
  8
FUTO
 10
10544.38022613447
 20
14460.269600413059
 30
0.0
 11
10544.38022613447
 21
14435.26960041307
 31
0.0
  0
LINE
  5
5699
  8
FUTO
 10
8223.3802261344736
 20
13197.269600413059
 30
0.0
 11
9594.3802261344736
 21
13197.269600413059
 31
0.0
  0
LINE
  5
569A
  8
FUTO
 10
8044.3802261344754
 20
13122.26960041307
 30
0.0
 11
10544.38022613447
 21
13122.26960041307
 31
0.0
  0
LINE
  5
569B
  8
FUTO
 10
8044.3802261344754
 20
12235.26960041307
 30
0.0
 11
10219.38022613447
 21
12235.26960041307
 31
0.0
  0
LINE
  5
569C
  8
FUTO
 10
8223.3802261344736
 20
14385.26960041307
 30
0.0
 11
9594.3802261344736
 21
14385.26960041307
 31
0.0
  0
LINE
  5
56A0
  8
FUTO
 10
10219.38022613447
 20
13122.26960041307
 30
0.0
 11
10219.38022613447
 21
12160.26960041307
 31
0.0
  0
LINE
  5
56A2
  8
FUTO
 10
10144.38022613447
 20
13122.26960041307
 30
0.0
 11
10144.38022613447
 21
12235.26960041307
 31
0.0
  0
LINE
  5
56A4
  8
FUTO
 10
8969.3802261344736
 20
13122.26960041307
 30
0.0
 11
8969.3802261344736
 21
12235.26960041307
 31
0.0
  0
LINE
  5
56A6
  8
FUTO
 10
8644.3802261344736
 20
14460.269600413059
 30
0.0
 11
8644.3802261344736
 21
14435.26960041307
 31
0.0
  0
LINE
  5
56A7
  8
FUTO
 10
9044.3802261344754
 20
13122.26960041307
 30
0.0
 11
9044.3802261344754
 21
12235.26960041307
 31
0.0
  0
LINE
  5
56A8
  8
FUTO
 10
8044.3802261344708
 20
13197.269600413059
 30
0.0
 11
8044.3802261344754
 21
13122.26960041307
 31
0.0
  0
LINE
  5
56A9
  8
FUTO
 10
8044.3802261344754
 20
12235.26960041307
 30
0.0
 11
8044.3802261344754
 21
12160.26960041307
 31
0.0
  0
LINE
  5
56AC
  8
FUTO
 10
8154.3802261344736
 20
13122.26960041307
 30
0.0
 11
8154.3802261344736
 21
12797.80815804122
 31
0.0
  0
LINE
  5
56AD
  8
FUTO
 10
8219.3802261344736
 20
13122.26960041307
 30
0.0
 11
8219.3802261344736
 21
12849.769600413059
 31
0.0
  0
LINE
  5
56AE
  8
FUTO
 10
8469.3802261344754
 20
13122.26960041307
 30
0.0
 11
8469.3802261344754
 21
12849.769600413059
 31
0.0
  0
LINE
  5
56AF
  8
FUTO
 10
8534.3802261344754
 20
13122.26960041307
 30
0.0
 11
8534.3802261344754
 21
12790.669563413059
 31
0.0
  0
LINE
  5
56B0
  8
CT
 10
7819.7937658550518
 20
13791.26960041307
 30
0.0
 11
10794.420550729599
 21
13791.26960041307
 31
0.0
  0
LINE
  5
69CC
  8
CT
 10
14320.5377424783
 20
10806.031060105461
 30
0.0
 11
14363.737742478301
 21
10806.031060105461
 31
0.0
  0
DIMENSION
  5
6A61
  8
SP
  2
*D3
 10
9594.3802261344736
 20
7815.518749922363
 30
0.0
 11
10069.38022613447
 21
7903.018749922363
 31
0.0
 70
     0
 13
10544.38022613447
 23
8066.0310601054662
 33
0.0
 14
9594.3802261344736
 24
8066.0310601054662
 34
0.0
 50
180.0
1001
ACAD
1000
DSTYLE
1002
{
1070
    40
1040
35.0
1070
   147
1040
1.0
1070
    41
1040
2.5
1002
}
  0
DIMENSION
  5
6A6E
  8
SP
  2
*D4
 10
8044.3802261344754
 20
7815.518749922363
 30
0.0
 11
8819.3802261344754
 21
7903.018749922363
 31
0.0
 70
     0
 13
9594.3802261344736
 23
8066.0310601054662
 33
0.0
 14
8044.3802261344754
 24
8066.0310601054662
 34
0.0
 50
180.0
1001
ACAD
1000
DSTYLE
1002
{
1070
    40
1040
35.0
1070
   147
1040
1.0
1070
    41
1040
2.5
1002
}
  0
DIMENSION
  5
6A7B
  8
SP
  2
*D5
 10
8044.3802261344754
 20
7565.4310059247046
 30
0.0
 11
9294.3802261344754
 21
7652.9310059247046
 31
0.0
 70
     0
 13
10544.38022613447
 23
8066.0310601054662
 33
0.0
 14
8044.3802261344754
 24
8066.0310601054662
 34
0.0
 50
180.0
1001
ACAD
1000
DSTYLE
1002
{
1070
    40
1040
35.0
1070
   147
1040
1.0
1070
    41
1040
2.5
1002
}
  0
DIMENSION
  5
6A88
  8
SP
  2
*D6
 10
13750.5377424783
 20
7815.5187265345239
 30
0.0
 11
12935.0377424783
 21
7903.0187265345248
 31
0.0
 70
     0
 13
12119.5377424783
 23
8066.0310601054662
 33
0.0
 14
13750.5377424783
 24
8066.0310601054662
 34
0.0
1001
ACAD
1000
DSTYLE
1002
{
1070
    40
1040
35.0
1070
   147
1040
1.0
1070
    41
1040
2.5
1002
}
  0
DIMENSION
  5
6A95
  8
SP
  2
*D7
 10
14419.5377424783
 20
7815.5187265345239
 30
0.0
 11
14085.0377424783
 21
7903.0187265345248
 31
0.0
 70
     0
 13
13750.5377424783
 23
8066.0310601054662
 33
0.0
 14
14419.5377424783
 24
8066.0310601054662
 34
0.0
1001
ACAD
1000
DSTYLE
1002
{
1070
    40
1040
35.0
1070
   147
1040
1.0
1070
    41
1040
2.5
1002
}
  0
DIMENSION
  5
6AA2
  8
SP
  2
*D8
 10
14419.5377424783
 20
7565.4309825368673
 30
0.0
 11
13269.5377424783
 21
7652.9309825368673
 31
0.0
 70
     0
 13
12119.5377424783
 23
8066.0310601054662
 33
0.0
 14
14419.5377424783
 24
8066.0310601054662
 34
0.0
1001
ACAD
1000
DSTYLE
1002
{
1070
    40
1040
35.0
1070
   147
1040
1.0
1070
    41
1040
2.5
1002
}
  0
LINE
  5
6ADF
  8
FUTO
 10
14475.5377424783
 20
10831.031060105461
 30
0.0
 11
14475.5377424783
 21
9101.031060105468
 31
0.0
  0
LINE
  5
6AE1
  8
KL
 10
14343.737742478301
 20
10766.031060105461
 30
0.0
 11
14475.5377424783
 21
10766.031060105461
 31
0.0
  0
LINE
  5
6AE5
  8
KL
 10
14343.737742478301
 20
10831.031060105461
 30
0.0
 11
14349.737742478301
 21
10831.031060105461
 31
0.0
  0
LINE
  5
6AE7
  8
FUTO
 10
14469.5377424783
 20
10831.031060105461
 30
0.0
 11
14469.5377424783
 21
9101.031060105468
 31
0.0
  0
LINE
  5
6AE8
  8
FUTO
 10
14418.737742478301
 20
10772.031060105461
 30
0.0
 11
14469.5377424783
 21
10772.031060105461
 31
0.0
  0
LINE
  5
6AEA
  8
KL
 10
14349.737742478301
 20
10831.031060105461
 30
0.0
 11
14349.737742478301
 21
9975.0310601054662
 31
0.0
  0
LINE
  5
6AEB
  8
FUTO
 10
14469.5377424783
 20
10831.031060105461
 30
0.0
 11
14475.5377424783
 21
10831.031060105461
 31
0.0
  0
LINE
  5
6AEC
  8
CT
 10
14450.5377424783
 20
10806.031060105461
 30
0.0
 11
14493.737742478301
 21
10806.031060105461
 31
0.0
  0
LINE
  5
6AED
  8
KL
 10
14343.737742478301
 20
9166.0310601054643
 30
0.0
 11
14475.5377424783
 21
9166.0310601054643
 31
0.0
  0
LINE
  5
6AEE
  8
CT
 10
14320.5377424783
 20
9126.0310601054662
 30
0.0
 11
14363.737742478301
 21
9126.0310601054662
 31
0.0
  0
LINE
  5
6AEF
  8
KL
 10
14343.737742478301
 20
9101.031060105468
 30
0.0
 11
14349.737742478301
 21
9101.031060105468
 31
0.0
  0
LINE
  5
6AF0
  8
CT
 10
14450.5377424783
 20
9126.0310601054662
 30
0.0
 11
14493.737742478301
 21
9126.0310601054662
 31
0.0
  0
LINE
  5
6AF1
  8
FUTO
 10
14418.737742478301
 20
9160.0310601054643
 30
0.0
 11
14469.5377424783
 21
9160.0310601054643
 31
0.0
  0
LINE
  5
6AF2
  8
FUTO
 10
14469.5377424783
 20
9101.031060105468
 30
0.0
 11
14475.5377424783
 21
9101.031060105468
 31
0.0
  0
LINE
  5
6AF3
  8
KL
 10
14349.737742478301
 20
9957.0310601054662
 30
0.0
 11
14349.737742478301
 21
9101.031060105468
 31
0.0
  0
DIMENSION
  5
6B00
  8
SP
  2
*D9
 10
14475.5377424783
 20
11425.60508172244
 30
0.0
 11
14113.0377424783
 21
11513.10508172244
 31
0.0
 70
     0
 13
13750.5377424783
 23
11379.632702173471
 33
0.0
 14
14475.5377424783
 24
10816.567933712689
 34
0.0
1001
ACAD
1000
DSTYLE
1002
{
1070
    40
1040
35.0
1070
   147
1040
1.0
1070
    41
1040
2.5
1002
}
  0
LINE
  5
6E16
  8
SL
 10
12360.75772853271
 20
9818.0310601054662
 30
0.0
 11
12360.75772853271
 21
10122.848418709051
 31
0.0
  0
LINE
  5
6E17
  8
SL
 10
12360.75772853271
 20
10122.848418709051
 30
0.0
 11
12846.71310096148
 21
10122.848418709051
 31
0.0
  0
LINE
  5
6E18
  8
SL
 10
12846.71310096148
 20
10122.848418709051
 30
0.0
 11
12846.71310096148
 21
9818.0310601054662
 31
0.0
  0
INSERT
  5
6E51
  8
FUTO
  2
右回転矢印
 10
9383.8745263631918
 20
10578.8323843527
 30
0.0
 41
-35.0
 42
35.0
 43
35.0
  0
INSERT
  5
6EE2
  8
FUTO
  2
まっすぐの矢印
 10
10870.266749878299
 20
9569.1135594348707
 30
0.0
 41
35.0
 42
35.0
 43
35.0
 50
270.0
  0
INSERT
  5
6EEC
  8
FUTO
  2
まっすぐの矢印
 10
14522.00572204946
 20
10493.732760449029
 30
0.0
 41
35.0
 42
35.0
 43
35.0
 50
90.0
  0
DIMENSION
  5
6F64
  8
SP
  2
*D10
 10
14754.731143680179
 20
9166.0310601054643
 30
0.0
 11
14667.23114368017
 21
9966.0310601054716
 31
0.0
 70
     0
 13
14475.5377424783
 23
10766.031060105461
 33
0.0
 14
14475.5377424783
 24
9166.0310601054643
 34
0.0
 50
90.0
1001
ACAD
1000
DSTYLE
1002
{
1070
    40
1040
35.0
1070
     3
1000
φ<>
1070
   147
1040
1.0
1070
    41
1040
2.5
1002
}
  0
DIMENSION
  5
6FB2
  8
SP
  2
*D11
 10
13750.5377424783
 20
11425.60508172244
 30
0.0
 11
12810.5377424783
 21
11513.10508172244
 31
0.0
 70
     0
 13
11870.5377424783
 23
10331.299651418331
 33
0.0
 14
13750.5377424783
 24
11425.60508172244
 34
0.0
1001
ACAD
1000
DSTYLE
1002
{
1070
    40
1040
35.0
1070
    41
1040
2.5
1070
   147
1040
1.0
1002
}
  0
LINE
  5
6FD7
  8
CT
 10
9594.3802261344736
 20
11797.406403627359
 30
0.0
 11
9594.3802261344736
 21
14561.04751222993
 31
0.0
  0
LINE
  5
6FDA
  8
FUTO
 10
9974.3802261344736
 20
11911.26960041307
 30
0.0
 11
8140.8802261344727
 21
11911.269600413059
 31
0.0
  0
LINE
  5
6FDB
  8
FUTO
 10
9974.3802261344736
 20
12200.26960041307
 30
0.0
 11
8140.8802261344727
 21
12200.26960041307
 31
0.0
  0
LINE
  5
6FDC
  8
SL
 10
9909.3802261344736
 20
12128.16960041307
 30
0.0
 11
8476.8802261344717
 21
12128.169600413061
 31
0.0
  0
LINE
  5
6FDD
  8
SL
 10
9909.3802261344736
 20
12050.26960041307
 30
0.0
 11
8211.8802261344754
 21
12050.269600413059
 31
0.0
  0
LINE
  5
6FE5
  8
SL
 10
8476.8802261344717
 20
12148.269600413059
 30
0.0
 11
8211.8802261344736
 21
12148.269600413059
 31
0.0
  0
LINE
  5
6FE8
  8
FUTO
 10
9974.3802261344736
 20
11911.26960041307
 30
0.0
 11
9974.3802261344736
 21
12200.26960041307
 31
0.0
  0
LINE
  5
6FE9
  8
SL
 10
9514.3802261344736
 20
12128.16960041307
 30
0.0
 11
9514.3802261344736
 21
12150.26960041307
 31
0.0
  0
LINE
  5
6FEA
  8
SL
 10
9674.3802261344736
 20
12128.16960041307
 30
0.0
 11
9674.3802261344736
 21
12150.26960041307
 31
0.0
  0
LINE
  5
6FEB
  8
SL
 10
9909.3802261344736
 20
12128.16960041307
 30
0.0
 11
9674.3802261344736
 21
12128.16960041307
 31
0.0
  0
LINE
  5
6FEC
  8
SL
 10
9514.3802261344736
 20
12128.16960041307
 30
0.0
 11
9279.3802261344736
 21
12128.16960041307
 31
0.0
  0
LINE
  5
6FED
  8
SL
 10
9279.3802261344736
 20
12050.26960041307
 30
0.0
 11
9279.3802261344736
 21
12128.16960041307
 31
0.0
  0
LINE
  5
6FEE
  8
SL
 10
9909.3802261344736
 20
12050.26960041307
 30
0.0
 11
9909.3802261344736
 21
12128.16960041307
 31
0.0
  0
LINE
  5
6FF1
  8
FUTO
 10
9544.3802261344754
 20
12380.26960041307
 30
0.0
 11
9544.3802261344754
 21
12904.26960041307
 31
0.0
  0
LINE
  5
6FF2
  8
FUTO
 10
9644.3802261344736
 20
12380.26960041307
 30
0.0
 11
9644.3802261344736
 21
12904.26960041307
 31
0.0
  0
LINE
  5
6FF5
  8
CT
 10
9754.7471841704373
 20
12310.26960041307
 30
0.0
 11
9422.7011353969392
 21
12310.26960041307
 31
0.0
  0
LINE
  5
6FF6
  8
FUTO
 10
9694.3802261344754
 20
12260.26960041307
 30
0.0
 11
9494.3802261344754
 21
12260.26960041307
 31
0.0
  0
ARC
  5
6FF7
  8
FUTO
 10
9505.3802261344754
 20
12251.26960041307
 30
0.0
 40
6.0
 50
180.0
 51
270.0
  0
LINE
  5
6FF8
  8
FUTO
 10
9494.3802261344754
 20
12360.26960041307
 30
0.0
 11
9694.3802261344754
 21
12360.26960041307
 31
0.0
  0
ARC
  5
6FF9
  8
FUTO
 10
9505.3802261344754
 20
12369.26960041307
 30
0.0
 40
6.0
 50
90.0
 51
180.0
  0
LINE
  5
6FFD
  8
FUTO
 10
9499.3802261344754
 20
12251.26960041307
 30
0.0
 11
9499.3802261344754
 21
12260.26960041307
 31
0.0
  0
LINE
  5
7000
  8
FUTO
 10
9499.3802261344754
 20
12369.26960041307
 30
0.0
 11
9499.3802261344754
 21
12360.26960041307
 31
0.0
  0
ARC
  5
7001
  8
FUTO
 10
9683.3802261344736
 20
12251.26960041307
 30
0.0
 40
6.0
 50
270.0
 51
0.000000000000007
  0
ARC
  5
7002
  8
FUTO
 10
9683.3802261344736
 20
12369.26960041307
 30
0.0
 40
6.0
 50
0.000000000000007
 51
90.0
  0
LINE
  5
7004
  8
FUTO
 10
9551.8802261344736
 20
12150.26960041307
 30
0.0
 11
9551.8802261344736
 21
12240.26960041307
 31
0.0
  0
LINE
  5
7005
  8
FUTO
 10
9636.8802261344736
 20
12150.26960041307
 30
0.0
 11
9636.8802261344736
 21
12240.26960041307
 31
0.0
  0
LINE
  5
7006
  8
SL
 10
9674.3802261344736
 20
12150.26960041307
 30
0.0
 11
9514.3802261344736
 21
12150.26960041307
 31
0.0
  0
LINE
  5
7007
  8
FUTO
 10
9674.3802261344736
 20
12240.26960041307
 30
0.0
 11
9514.3802261344736
 21
12240.26960041307
 31
0.0
  0
LINE
  5
7008
  8
FUTO
 10
9683.3802261344754
 20
12245.26960041307
 30
0.0
 11
9505.3802261344754
 21
12245.26960041307
 31
0.0
  0
LINE
  5
7009
  8
FUTO
 10
9514.3802261344736
 20
12240.26960041307
 30
0.0
 11
9514.3802261344736
 21
12245.26960041307
 31
0.0
  0
LINE
  5
700B
  8
FUTO
 10
9674.3802261344736
 20
12245.26960041307
 30
0.0
 11
9674.3802261344736
 21
12240.26960041307
 31
0.0
  0
LINE
  5
700C
  8
FUTO
 10
9683.3802261344754
 20
12375.26960041307
 30
0.0
 11
9505.3802261344754
 21
12375.26960041307
 31
0.0
  0
LINE
  5
700D
  8
FUTO
 10
9674.3802261344736
 20
12380.26960041307
 30
0.0
 11
9514.3802261344736
 21
12380.26960041307
 31
0.0
  0
LINE
  5
700F
  8
FUTO
 10
9514.3802261344736
 20
12380.26960041307
 30
0.0
 11
9514.3802261344736
 21
12375.26960041307
 31
0.0
  0
LINE
  5
7010
  8
FUTO
 10
9674.3802261344736
 20
12375.26960041307
 30
0.0
 11
9674.3802261344736
 21
12380.26960041307
 31
0.0
  0
LINE
  5
7011
  8
FUTO
 10
9694.3802261344754
 20
12360.26960041307
 30
0.0
 11
9694.3802261344754
 21
12260.26960041307
 31
0.0
  0
LINE
  5
7012
  8
FUTO
 10
9689.3802261344736
 20
12260.26960041307
 30
0.0
 11
9689.3802261344754
 21
12251.26960041307
 31
0.0
  0
LINE
  5
7013
  8
FUTO
 10
9689.3802261344736
 20
12360.26960041307
 30
0.0
 11
9689.3802261344754
 21
12369.26960041307
 31
0.0
  0
LINE
  5
7015
  8
FUTO
 10
9714.3802261344736
 20
12912.26960041307
 30
0.0
 11
9474.3802261344736
 21
12912.26960041307
 31
0.0
  0
LINE
  5
7016
  8
FUTO
 10
9714.3802261344736
 20
13068.26960041307
 30
0.0
 11
9474.3802261344736
 21
13068.26960041307
 31
0.0
  0
LINE
  5
7018
  8
FUTO
 10
9514.3802261344736
 20
12904.26960041307
 30
0.0
 11
9494.3802261344736
 21
12912.26960041307
 31
0.0
  0
LINE
  5
701A
  8
FUTO
 10
9514.3802261344736
 20
13076.26960041307
 30
0.0
 11
9494.3802261344736
 21
13068.26960041307
 31
0.0
  0
LINE
  5
701D
  8
CT
 10
9754.7471841704373
 20
12990.26960041307
 30
0.0
 11
9422.7011353969392
 21
12990.26960041307
 31
0.0
  0
LINE
  5
7022
  8
FUTO
 10
9474.3802261344736
 20
12912.26960041307
 30
0.0
 11
9474.3802261344736
 21
12920.26960041307
 31
0.0
  0
LINE
  5
7024
  8
FUTO
 10
9474.3802261344736
 20
13068.26960041307
 30
0.0
 11
9474.3802261344736
 21
13060.26960041307
 31
0.0
  0
LINE
  5
7026
  8
FUTO
 10
9727.3802261344736
 20
12936.26960041307
 30
0.0
 11
9727.3802261344736
 21
13044.269600413059
 31
0.0
  0
LINE
  5
7027
  8
FUTO
 10
9714.3802261344736
 20
12926.26960041307
 30
0.0
 11
9474.3802261344736
 21
12926.26960041307
 31
0.0
  0
LINE
  5
7028
  8
FUTO
 10
9674.3802261344736
 20
12904.26960041307
 30
0.0
 11
9694.3802261344754
 21
12912.26960041307
 31
0.0
  0
LINE
  5
7029
  8
FUTO
 10
9727.3802261344736
 20
12962.76960041307
 30
0.0
 11
9461.3802261344736
 21
12962.76960041307
 31
0.0
  0
LINE
  5
702A
  8
FUTO
 10
9674.3802261344736
 20
12904.26960041307
 30
0.0
 11
9514.3802261344736
 21
12904.26960041307
 31
0.0
  0
LINE
  5
702C
  8
FUTO
 10
9714.3802261344736
 20
12912.26960041307
 30
0.0
 11
9714.3802261344736
 21
12926.26960041307
 31
0.0
  0
LINE
  5
702D
  8
FUTO
 10
9727.3802261344736
 20
12936.26960041307
 30
0.0
 11
9714.3802261344736
 21
12936.26960041307
 31
0.0
  0
LINE
  5
702E
  8
FUTO
 10
9714.3802261344736
 20
12926.26960041307
 30
0.0
 11
9714.3802261344736
 21
12962.76960041307
 31
0.0
  0
LINE
  5
702F
  8
FUTO
 10
9714.3802261344736
 20
13054.26960041307
 30
0.0
 11
9514.3802261344736
 21
13054.26960041307
 31
0.0
  0
LINE
  5
7030
  8
FUTO
 10
9674.3802261344736
 20
13076.26960041307
 30
0.0
 11
9694.3802261344754
 21
13068.26960041307
 31
0.0
  0
LINE
  5
7031
  8
FUTO
 10
9714.3802261344736
 20
13054.26960041307
 30
0.0
 11
9474.3802261344736
 21
13054.26960041307
 31
0.0
  0
LINE
  5
7032
  8
FUTO
 10
9727.3802261344736
 20
13017.76960041307
 30
0.0
 11
9461.3802261344736
 21
13017.76960041307
 31
0.0
  0
LINE
  5
7033
  8
KL
 10
9544.3802261344754
 20
13076.26960041307
 30
0.0
 11
9544.3802261344754
 21
13198.06960041306
 31
0.0
  0
LINE
  5
7034
  8
KL
 10
9644.3802261344736
 20
13076.26960041307
 30
0.0
 11
9644.3802261344736
 21
13198.06960041306
 31
0.0
  0
LINE
  5
7035
  8
FUTO
 10
9674.3802261344736
 20
13076.26960041307
 30
0.0
 11
9514.3802261344736
 21
13076.26960041307
 31
0.0
  0
LINE
  5
703A
  8
FUTO
 10
9727.3802261344736
 20
13044.269600413059
 30
0.0
 11
9714.3802261344736
 21
13044.269600413059
 31
0.0
  0
LINE
  5
703B
  8
FUTO
 10
9714.3802261344736
 20
13068.26960041307
 30
0.0
 11
9714.3802261344736
 21
13054.26960041307
 31
0.0
  0
LINE
  5
703C
  8
FUTO
 10
9714.3802261344736
 20
13017.76960041307
 30
0.0
 11
9714.3802261344736
 21
13054.26960041307
 31
0.0
  0
LINE
  5
703F
  8
KL
 10
9585.3802261344736
 20
14390.46960041306
 30
0.0
 11
8729.3802261344736
 21
14390.46960041306
 31
0.0
  0
LINE
  5
7040
  8
FUTO
 10
10459.38022613447
 20
14510.26960041307
 30
0.0
 11
8729.3802261344736
 21
14510.26960041307
 31
0.0
  0
LINE
  5
7041
  8
FUTO
 10
10459.38022613447
 20
14516.26960041307
 30
0.0
 11
8729.3802261344736
 21
14516.26960041307
 31
0.0
  0
LINE
  5
7045
  8
KL
 10
8729.3802261344736
 20
14384.469600413069
 30
0.0
 11
8729.3802261344736
 21
14390.469600413069
 31
0.0
  0
LINE
  5
7046
  8
FUTO
 10
8729.3802261344736
 20
14510.26960041307
 30
0.0
 11
8729.3802261344736
 21
14516.26960041307
 31
0.0
  0
LINE
  5
7047
  8
FUTO
 10
8788.3802261344736
 20
14459.469600413069
 30
0.0
 11
8788.3802261344736
 21
14510.26960041307
 31
0.0
  0
LINE
  5
7048
  8
KL
 10
8794.3802261344754
 20
14384.469600413069
 30
0.0
 11
8794.3802261344754
 21
14516.26960041307
 31
0.0
  0
LINE
  5
7049
  8
CT
 10
8754.3802261344736
 20
14361.26960041307
 30
0.0
 11
8754.3802261344736
 21
14404.469600413069
 31
0.0
  0
LINE
  5
704A
  8
CT
 10
8754.3802261344736
 20
14491.26960041307
 30
0.0
 11
8754.3802261344736
 21
14534.469600413069
 31
0.0
  0
LINE
  5
704E
  8
KL
 10
10459.38022613447
 20
14390.469600413069
 30
0.0
 11
9603.3802261344736
 21
14390.46960041306
 31
0.0
  0
INSERT
  5
7052
  8
FUTO
  2
まっすぐの矢印
 10
9851.2414784254433
 20
14562.737579984219
 30
0.0
 41
-35.0
 42
35.0
 43
35.0
 50
180.0
  0
LINE
  5
7053
  8
FUTO
 10
10400.38022613447
 20
14459.469600413069
 30
0.0
 11
10400.38022613447
 21
14510.26960041307
 31
0.0
  0
LINE
  5
7054
  8
KL
 10
10394.38022613447
 20
14384.469600413069
 30
0.0
 11
10394.38022613447
 21
14516.26960041307
 31
0.0
  0
LINE
  5
7055
  8
CT
 10
10434.38022613447
 20
14361.26960041307
 30
0.0
 11
10434.38022613447
 21
14404.469600413069
 31
0.0
  0
LINE
  5
7056
  8
CT
 10
10434.38022613447
 20
14491.26960041307
 30
0.0
 11
10434.38022613447
 21
14534.469600413069
 31
0.0
  0
LINE
  5
7057
  8
KL
 10
10459.38022613447
 20
14384.469600413069
 30
0.0
 11
10459.38022613447
 21
14390.469600413069
 31
0.0
  0
LINE
  5
7058
  8
FUTO
 10
10459.38022613447
 20
14510.26960041307
 30
0.0
 11
10459.38022613447
 21
14516.26960041307
 31
0.0
  0
LINE
  5
7096
  8
FUTO
 10
9494.3802261344736
 20
12360.26960041307
 30
0.0
 11
9494.3802261344736
 21
12260.26960041307
 31
0.0
  0
LINE
  5
7097
  8
FUTO
 10
9461.3802261344736
 20
12936.26960041307
 30
0.0
 11
9461.3802261344736
 21
13044.269600413059
 31
0.0
  0
LINE
  5
7098
  8
FUTO
 10
9474.3802261344736
 20
12926.26960041307
 30
0.0
 11
9474.3802261344736
 21
12962.76960041307
 31
0.0
  0
LINE
  5
7099
  8
FUTO
 10
9461.3802261344736
 20
12936.26960041307
 30
0.0
 11
9474.3802261344736
 21
12936.26960041307
 31
0.0
  0
LINE
  5
709A
  8
FUTO
 10
9474.3802261344736
 20
12912.26960041307
 30
0.0
 11
9474.3802261344736
 21
12926.26960041307
 31
0.0
  0
LINE
  5
709B
  8
FUTO
 10
9474.3802261344736
 20
13017.76960041307
 30
0.0
 11
9474.3802261344736
 21
13054.26960041307
 31
0.0
  0
LINE
  5
709C
  8
FUTO
 10
9474.3802261344736
 20
13068.26960041307
 30
0.0
 11
9474.3802261344736
 21
13054.26960041307
 31
0.0
  0
LINE
  5
709D
  8
FUTO
 10
9461.3802261344736
 20
13044.269600413059
 30
0.0
 11
9474.3802261344736
 21
13044.269600413059
 31
0.0
  0
ARC
  5
7D1A
  8
FUTO
 10
8344.3802261344736
 20
12151.269600413059
 30
0.0
 40
9.0
 50
0.000000000000007
 51
180.0
  0
LINE
  5
7D1B
  8
FUTO
 10
8335.3802261344736
 20
12050.269600413059
 30
0.0
 11
8335.3802261344736
 21
12151.269600413059
 31
0.0
  0
LINE
  5
7D1C
  8
FUTO
 10
8353.3802261344717
 20
12050.269600413059
 30
0.0
 11
8353.3802261344736
 21
12151.269600413059
 31
0.0
  0
LINE
  5
7D1D
  8
FUTO
 10
8087.3802871344733
 20
12564.769539413061
 30
0.0
 11
8087.3802871344733
 21
12600.769600413059
 31
0.0
  0
LINE
  5
7D1E
  8
FUTO
 10
8084.3802871344733
 20
12564.769539413061
 30
0.0
 11
8084.3802871344733
 21
12600.769600413059
 31
0.0
  0
LINE
  5
7D1F
  8
FUTO
 10
8092.3802871344724
 20
12564.769539413061
 30
0.0
 11
8092.3802871344724
 21
12611.769600413059
 31
0.0
  0
LINE
  5
7D20
  8
FUTO
 10
8134.3802261344727
 20
12225.769600413059
 30
0.0
 11
8134.3802261344736
 21
12272.644600413059
 31
0.0
  0
LINE
  5
7D21
  8
FUTO
 10
8186.6885911389509
 20
12220.769600413059
 30
0.0
 11
8139.3802261344727
 21
12220.769600413059
 31
0.0
  0
ARC
  5
7D22
  8
FUTO
 10
8139.3802261344727
 20
12225.769600413059
 30
0.0
 40
5.0
 50
180.0
 51
270.0
  0
LINE
  5
7D23
  8
FUTO
 10
8154.6988809160448
 20
12272.644600413059
 30
0.0
 11
8134.3802261344736
 21
12272.644600413059
 31
0.0
  0
LINE
  5
7D24
  8
FUTO
 10
8134.3802261344736
 20
12270.769600413059
 30
0.0
 11
8087.3802871344733
 21
12270.769600413059
 31
0.0
  0
LINE
  5
7D25
  8
FUTO
 10
8134.3802261344736
 20
12267.769600413059
 30
0.0
 11
8084.3802871344733
 21
12267.769600413059
 31
0.0
  0
LINE
  5
7D26
  8
FUTO
 10
8154.5897525661931
 20
12275.769600413059
 30
0.0
 11
8092.3802871344724
 21
12275.769600413059
 31
0.0
  0
LINE
  5
7D27
  8
FUTO
 10
8092.3802871344724
 20
12275.769600413059
 30
0.0
 11
8087.3802871344733
 21
12270.769600413059
 31
0.0
  0
LINE
  5
7D28
  8
FUTO
 10
8059.3802871344733
 20
12310.769600413059
 30
0.0
 11
8059.3802871344733
 21
12350.769600413059
 31
0.0
  0
LINE
  5
7D29
  8
FUTO
 10
8089.3802871344724
 20
12310.769600413059
 30
0.0
 11
8089.3802871344724
 21
12350.769600413059
 31
0.0
  0
LINE
  5
7D2A
  8
FUTO
 10
8059.3802871344733
 20
12350.769600413059
 30
0.0
 11
8089.3802871344724
 21
12350.769600413059
 31
0.0
  0
LINE
  5
7D2B
  8
FUTO
 10
8089.3802871344724
 20
12310.769600413059
 30
0.0
 11
8059.3802871344733
 21
12310.769600413059
 31
0.0
  0
LINE
  5
7D2C
  8
CT
 10
8140.8802261344727
 20
12330.769600413059
 30
0.0
 11
7973.3258441344733
 21
12330.769600413059
 31
0.0
  0
LINE
  5
7D2D
  8
FUTO
 10
7984.9258191344734
 20
12348.359444413059
 30
0.0
 11
7997.0257951344729
 21
12348.359444413059
 31
0.0
  0
LINE
  5
7D2E
  8
FUTO
 10
7984.9258191344734
 20
12313.17975741306
 30
0.0
 11
7997.0257951344729
 21
12313.17975741306
 31
0.0
  0
LINE
  5
7D2F
  8
FUTO
 10
7984.9258191344734
 20
12340.47467841306
 30
0.0
 11
7997.0257951344729
 21
12340.47467841306
 31
0.0
  0
LINE
  5
7D30
  8
FUTO
 10
7984.9258191344734
 20
12321.06452241306
 30
0.0
 11
7997.0257951344729
 21
12321.06452241306
 31
0.0
  0
LINE
  5
7D31
  8
FUTO
 10
7983.3258441344742
 20
12346.759835413061
 30
0.0
 11
7983.3258441344742
 21
12314.78034241306
 31
0.0
  0
LINE
  5
7D32
  8
FUTO
 10
7984.9258191344734
 20
12313.17975741306
 30
0.0
 11
7983.3258441344742
 21
12314.78034241306
 31
0.0
  0
LINE
  5
7D33
  8
FUTO
 10
7984.9258191344734
 20
12321.06452241306
 30
0.0
 11
7983.3258441344742
 21
12319.46491341306
 31
0.0
  0
LINE
  5
7D34
  8
FUTO
 10
7984.9258191344734
 20
12321.06452241306
 30
0.0
 11
7983.3258441344742
 21
12322.665108413061
 31
0.0
  0
LINE
  5
7D35
  8
FUTO
 10
7983.3258441344742
 20
12346.759835413061
 30
0.0
 11
7984.9258191344734
 21
12348.359444413059
 31
0.0
  0
LINE
  5
7D36
  8
FUTO
 10
7984.9258191344734
 20
12340.47467841306
 30
0.0
 11
7983.3258441344742
 21
12342.075264413061
 31
0.0
  0
LINE
  5
7D37
  8
FUTO
 10
7984.9258191344734
 20
12340.47467841306
 30
0.0
 11
7983.3258441344742
 21
12338.875069413059
 31
0.0
  0
LINE
  5
7D38
  8
FUTO
 10
7997.0257951344729
 20
12348.359444413059
 30
0.0
 11
7997.0257951344729
 21
12313.17975741306
 31
0.0
  0
LINE
  5
7D39
  8
FUTO
 10
7997.0257951344729
 20
12321.769600413059
 30
0.0
 11
8059.3802871344733
 21
12321.769600413059
 31
0.0
  0
LINE
  5
7D3A
  8
HOSO
 10
8059.3802871344733
 20
12323.769600413059
 30
0.0
 11
7997.0257341344732
 21
12323.769600413059
 31
0.0
  0
LINE
  5
7D3B
  8
HOSO
 10
7997.0257951344729
 20
12337.769600413059
 30
0.0
 11
8059.3802871344733
 21
12337.769600413059
 31
0.0
  0
LINE
  5
7D3C
  8
FUTO
 10
8059.3802871344733
 20
12339.769600413059
 30
0.0
 11
7997.0257341344732
 21
12339.769600413059
 31
0.0
  0
LINE
  5
7D3D
  8
FUTO
 10
8089.3802871344724
 20
12321.769600413059
 30
0.0
 11
8140.8802261344727
 21
12321.769600413059
 31
0.0
  0
LINE
  5
7D3E
  8
HOSO
 10
8140.8802261344727
 20
12323.769600413059
 30
0.0
 11
8089.3802871344724
 21
12323.769600413059
 31
0.0
  0
LINE
  5
7D3F
  8
FUTO
 10
8140.8802261344727
 20
12339.769600413059
 30
0.0
 11
8089.3802871344724
 21
12339.769600413059
 31
0.0
  0
LINE
  5
7D40
  8
HOSO
 10
8089.3802871344724
 20
12337.769600413059
 30
0.0
 11
8140.8802261344727
 21
12337.769600413059
 31
0.0
  0
LINE
  5
7D41
  8
FUTO
 10
8084.3802871344733
 20
12267.769600413059
 30
0.0
 11
8084.3802871344733
 21
12310.769600413059
 31
0.0
  0
LINE
  5
7D42
  8
FUTO
 10
8087.3802871344733
 20
12270.769600413059
 30
0.0
 11
8087.3802871344733
 21
12310.769600413059
 31
0.0
  0
LINE
  5
7D43
  8
FUTO
 10
8092.3802871344724
 20
12275.769600413059
 30
0.0
 11
8092.3802871344724
 21
12321.769600413059
 31
0.0
  0
LINE
  5
7D44
  8
FUTO
 10
8084.3802871344733
 20
12350.769600413059
 30
0.0
 11
8084.3802871344733
 21
12386.769600413059
 31
0.0
  0
LINE
  5
7D45
  8
FUTO
 10
8087.3802871344733
 20
12350.769600413059
 30
0.0
 11
8087.3802871344733
 21
12386.769600413059
 31
0.0
  0
LINE
  5
7D46
  8
FUTO
 10
8092.3802871344724
 20
12339.769600413059
 30
0.0
 11
8092.3802871344724
 21
12386.769600413059
 31
0.0
  0
LINE
  5
7D47
  8
FUTO
 10
8059.3802871344733
 20
12611.769600413059
 30
0.0
 11
7997.0257341344732
 21
12611.769600413059
 31
0.0
  0
LINE
  5
7D48
  8
HOSO
 10
7997.0257951344729
 20
12613.769600413059
 30
0.0
 11
8059.3802871344733
 21
12613.769600413059
 31
0.0
  0
LINE
  5
7D49
  8
HOSO
 10
8059.3802871344733
 20
12627.769600413059
 30
0.0
 11
7997.0257341344732
 21
12627.769600413059
 31
0.0
  0
LINE
  5
7D4A
  8
FUTO
 10
7997.0257951344729
 20
12629.769600413059
 30
0.0
 11
8059.3802871344733
 21
12629.769600413059
 31
0.0
  0
LINE
  5
7D4B
  8
FUTO
 10
7997.0257951344729
 20
12603.179756413059
 30
0.0
 11
7997.0257951344729
 21
12638.359443413059
 31
0.0
  0
LINE
  5
7D4C
  8
FUTO
 10
7984.9258191344734
 20
12611.06452241306
 30
0.0
 11
7983.3258441344742
 21
12612.664131413059
 31
0.0
  0
LINE
  5
7D4D
  8
FUTO
 10
7984.9258191344734
 20
12611.06452241306
 30
0.0
 11
7983.3258441344742
 21
12609.46393641306
 31
0.0
  0
LINE
  5
7D4E
  8
FUTO
 10
7983.3258441344742
 20
12604.77936541306
 30
0.0
 11
7984.9258191344734
 21
12603.179756413059
 31
0.0
  0
LINE
  5
7D4F
  8
FUTO
 10
7984.9258191344734
 20
12630.47467841306
 30
0.0
 11
7983.3258441344742
 21
12628.87409241306
 31
0.0
  0
LINE
  5
7D50
  8
FUTO
 10
7984.9258191344734
 20
12630.47467841306
 30
0.0
 11
7983.3258441344742
 21
12632.074287413059
 31
0.0
  0
LINE
  5
7D51
  8
FUTO
 10
7984.9258191344734
 20
12638.359443413059
 30
0.0
 11
7983.3258441344742
 21
12636.758858413061
 31
0.0
  0
LINE
  5
7D52
  8
FUTO
 10
7983.3258441344742
 20
12604.77936541306
 30
0.0
 11
7983.3258441344742
 21
12636.758858413061
 31
0.0
  0
LINE
  5
7D53
  8
FUTO
 10
7984.9258191344734
 20
12630.47467841306
 30
0.0
 11
7997.0257951344729
 21
12630.47467841306
 31
0.0
  0
LINE
  5
7D54
  8
FUTO
 10
7984.9258191344734
 20
12611.06452241306
 30
0.0
 11
7997.0257951344729
 21
12611.06452241306
 31
0.0
  0
LINE
  5
7D55
  8
FUTO
 10
7984.9258191344734
 20
12638.359443413059
 30
0.0
 11
7997.0257951344729
 21
12638.359443413059
 31
0.0
  0
LINE
  5
7D56
  8
FUTO
 10
7984.9258191344734
 20
12603.179756413059
 30
0.0
 11
7997.0257951344729
 21
12603.179756413059
 31
0.0
  0
LINE
  5
7D57
  8
FUTO
 10
8089.3802871344724
 20
12640.769600413059
 30
0.0
 11
8059.3802871344733
 21
12640.769600413059
 31
0.0
  0
LINE
  5
7D58
  8
FUTO
 10
8059.3802871344733
 20
12600.769600413059
 30
0.0
 11
8089.3802871344724
 21
12600.769600413059
 31
0.0
  0
LINE
  5
7D59
  8
FUTO
 10
8089.3802871344724
 20
12640.769600413059
 30
0.0
 11
8089.3802871344724
 21
12600.769600413059
 31
0.0
  0
LINE
  5
7D5A
  8
FUTO
 10
8059.3802871344733
 20
12640.769600413059
 30
0.0
 11
8059.3802871344733
 21
12600.769600413059
 31
0.0
  0
LINE
  5
7D5B
  8
HOSO
 10
8089.3802871344724
 20
12613.769600413059
 30
0.0
 11
8140.8802261344727
 21
12613.769600413059
 31
0.0
  0
LINE
  5
7D5C
  8
FUTO
 10
8140.8802261344727
 20
12611.769600413059
 30
0.0
 11
8089.3802871344724
 21
12611.769600413059
 31
0.0
  0
LINE
  5
7D5D
  8
HOSO
 10
8140.8802261344727
 20
12627.769600413059
 30
0.0
 11
8089.3802871344724
 21
12627.769600413059
 31
0.0
  0
LINE
  5
7D5E
  8
FUTO
 10
8089.3802871344724
 20
12629.769600413059
 30
0.0
 11
8140.8802261344727
 21
12629.769600413059
 31
0.0
  0
LINE
  5
7D5F
  8
CT
 10
8140.8802261344727
 20
12620.769600413059
 30
0.0
 11
7973.3258441344733
 21
12620.769600413059
 31
0.0
  0
LINE
  5
7D60
  8
FUTO
 10
8092.3802871344724
 20
12675.769600413059
 30
0.0
 11
8087.3802871344733
 21
12680.769600413059
 31
0.0
  0
LINE
  5
7D61
  8
FUTO
 10
8134.3802261344736
 20
12683.769600413059
 30
0.0
 11
8084.3802871344733
 21
12683.769600413059
 31
0.0
  0
LINE
  5
7D62
  8
FUTO
 10
8134.3802261344736
 20
12680.769600413059
 30
0.0
 11
8087.3802871344733
 21
12680.769600413059
 31
0.0
  0
LINE
  5
7D63
  8
FUTO
 10
8140.8802261344754
 20
12678.894600413059
 30
0.0
 11
8134.3802261344736
 21
12678.894600413059
 31
0.0
  0
LINE
  5
7D64
  8
FUTO
 10
8140.8802261344727
 20
12675.769600413059
 30
0.0
 11
8092.3802871344724
 21
12675.769600413059
 31
0.0
  0
LINE
  5
7D65
  8
FUTO
 10
8092.3802871344724
 20
12675.769600413059
 30
0.0
 11
8092.3802871344724
 21
12629.769600413059
 31
0.0
  0
LINE
  5
7D66
  8
FUTO
 10
8087.3802871344733
 20
12680.769600413059
 30
0.0
 11
8087.3802871344733
 21
12640.769600413059
 31
0.0
  0
LINE
  5
7D67
  8
FUTO
 10
8084.3802871344733
 20
12683.769600413059
 30
0.0
 11
8084.3802871344733
 21
12640.769600413059
 31
0.0
  0
ARC
  5
7D68
  8
FUTO
 10
8139.3802261344727
 20
12725.769600413059
 30
0.0
 40
5.0
 50
89.999999999999986
 51
180.0
  0
LINE
  5
7D69
  8
FUTO
 10
8134.3802261344727
 20
12725.769600413059
 30
0.0
 11
8134.3802261344736
 21
12678.894600413059
 31
0.0
  0
LINE
  5
7D6A
  8
FUTO
 10
8151.8802261344727
 20
12730.769600413059
 30
0.0
 11
8139.3802261344727
 21
12730.769600413059
 31
0.0
  0
LINE
  5
7D6B
  8
CT
 10
8547.8802261344754
 20
12620.769600413059
 30
0.0
 11
8715.4346081344738
 21
12620.769600413059
 31
0.0
  0
LINE
  5
7D6C
  8
FUTO
 10
8599.3801651344729
 20
12629.769600413059
 30
0.0
 11
8547.8802261344717
 21
12629.769600413059
 31
0.0
  0
LINE
  5
7D6D
  8
HOSO
 10
8547.8802261344717
 20
12627.769600413059
 30
0.0
 11
8599.3801651344729
 21
12627.769600413059
 31
0.0
  0
LINE
  5
7D6E
  8
FUTO
 10
8547.8802261344717
 20
12611.769600413059
 30
0.0
 11
8599.3801651344729
 21
12611.769600413059
 31
0.0
  0
LINE
  5
7D6F
  8
HOSO
 10
8599.3801651344729
 20
12613.769600413059
 30
0.0
 11
8547.8802261344717
 21
12613.769600413059
 31
0.0
  0
LINE
  5
7D70
  8
FUTO
 10
8629.3801651344747
 20
12640.769600413059
 30
0.0
 11
8629.3801651344747
 21
12600.769600413059
 31
0.0
  0
LINE
  5
7D71
  8
FUTO
 10
8599.3801651344729
 20
12640.769600413059
 30
0.0
 11
8599.3801651344729
 21
12600.769600413059
 31
0.0
  0
LINE
  5
7D72
  8
FUTO
 10
8629.3801651344747
 20
12600.769600413059
 30
0.0
 11
8599.3801651344729
 21
12600.769600413059
 31
0.0
  0
LINE
  5
7D73
  8
FUTO
 10
8599.3801651344729
 20
12640.769600413059
 30
0.0
 11
8629.3801651344747
 21
12640.769600413059
 31
0.0
  0
LINE
  5
7D74
  8
FUTO
 10
8703.8346331344728
 20
12603.179756413059
 30
0.0
 11
8691.7346571344733
 21
12603.179756413059
 31
0.0
  0
LINE
  5
7D75
  8
FUTO
 10
8703.8346331344728
 20
12638.359443413059
 30
0.0
 11
8691.7346571344733
 21
12638.359443413059
 31
0.0
  0
LINE
  5
7D76
  8
FUTO
 10
8703.8346331344728
 20
12611.06452241306
 30
0.0
 11
8691.7346571344733
 21
12611.06452241306
 31
0.0
  0
LINE
  5
7D77
  8
FUTO
 10
8703.8346331344728
 20
12630.47467841306
 30
0.0
 11
8691.7346571344733
 21
12630.47467841306
 31
0.0
  0
LINE
  5
7D78
  8
FUTO
 10
8705.4346081344738
 20
12604.77936541306
 30
0.0
 11
8705.4346081344738
 21
12636.758858413061
 31
0.0
  0
LINE
  5
7D79
  8
FUTO
 10
8703.8346331344728
 20
12638.359443413059
 30
0.0
 11
8705.4346081344738
 21
12636.758858413061
 31
0.0
  0
LINE
  5
7D7A
  8
FUTO
 10
8703.8346331344728
 20
12630.47467841306
 30
0.0
 11
8705.4346081344738
 21
12632.074287413059
 31
0.0
  0
LINE
  5
7D7B
  8
FUTO
 10
8703.8346331344728
 20
12630.47467841306
 30
0.0
 11
8705.4346081344738
 21
12628.87409241306
 31
0.0
  0
LINE
  5
7D7C
  8
FUTO
 10
8705.4346081344738
 20
12604.77936541306
 30
0.0
 11
8703.8346331344728
 21
12603.179756413059
 31
0.0
  0
LINE
  5
7D7D
  8
FUTO
 10
8703.8346331344728
 20
12611.06452241306
 30
0.0
 11
8705.4346081344738
 21
12609.46393641306
 31
0.0
  0
LINE
  5
7D7E
  8
FUTO
 10
8703.8346331344728
 20
12611.06452241306
 30
0.0
 11
8705.4346081344738
 21
12612.664131413059
 31
0.0
  0
LINE
  5
7D7F
  8
FUTO
 10
8691.7346571344733
 20
12603.179756413059
 30
0.0
 11
8691.7346571344733
 21
12638.359443413059
 31
0.0
  0
LINE
  5
7D80
  8
FUTO
 10
8691.7346571344733
 20
12629.769600413059
 30
0.0
 11
8629.3801651344747
 21
12629.769600413059
 31
0.0
  0
LINE
  5
7D81
  8
HOSO
 10
8629.3801651344747
 20
12627.769600413059
 30
0.0
 11
8691.734718134474
 21
12627.769600413059
 31
0.0
  0
LINE
  5
7D82
  8
HOSO
 10
8691.7346571344733
 20
12613.769600413059
 30
0.0
 11
8629.3801651344747
 21
12613.769600413059
 31
0.0
  0
LINE
  5
7D83
  8
FUTO
 10
8629.3801651344747
 20
12611.769600413059
 30
0.0
 11
8691.734718134474
 21
12611.769600413059
 31
0.0
  0
LINE
  5
7D84
  8
FUTO
 10
8604.3801651344747
 20
12683.769600413059
 30
0.0
 11
8604.3801651344747
 21
12640.769600413059
 31
0.0
  0
LINE
  5
7D85
  8
FUTO
 10
8601.3801651344729
 20
12680.769600413059
 30
0.0
 11
8601.3801651344729
 21
12640.769600413059
 31
0.0
  0
LINE
  5
7D86
  8
FUTO
 10
8596.3801651344729
 20
12675.769600413059
 30
0.0
 11
8596.3801651344729
 21
12629.769600413059
 31
0.0
  0
LINE
  5
7D87
  8
FUTO
 10
8536.8802261344717
 20
12730.769600413059
 30
0.0
 11
8549.3802261344717
 21
12730.769600413059
 31
0.0
  0
LINE
  5
7D88
  8
FUTO
 10
8547.8802261344717
 20
12675.769600413059
 30
0.0
 11
8596.3801651344729
 21
12675.769600413059
 31
0.0
  0
LINE
  5
7D89
  8
FUTO
 10
8547.8802261344717
 20
12678.894600413059
 30
0.0
 11
8554.3802261344736
 21
12678.894600413059
 31
0.0
  0
LINE
  5
7D8A
  8
FUTO
 10
8554.3802261344736
 20
12725.769600413059
 30
0.0
 11
8554.3802261344736
 21
12678.894600413059
 31
0.0
  0
LINE
  5
7D8B
  8
FUTO
 10
8554.3802261344736
 20
12680.769600413059
 30
0.0
 11
8601.3801651344729
 21
12680.769600413059
 31
0.0
  0
LINE
  5
7D8C
  8
FUTO
 10
8554.3802261344736
 20
12683.769600413059
 30
0.0
 11
8604.3801651344747
 21
12683.769600413059
 31
0.0
  0
ARC
  5
7D8D
  8
FUTO
 10
8549.3802261344736
 20
12725.769600413059
 30
0.0
 40
5.0
 50
0.000000000000007
 51
89.999999999999986
  0
LINE
  5
7D8E
  8
FUTO
 10
8596.3801651344729
 20
12675.769600413059
 30
0.0
 11
8601.3801651344729
 21
12680.769600413059
 31
0.0
  0
LINE
  5
7D8F
  8
FUTO
 10
8534.0615713529005
 20
12272.644600413059
 30
0.0
 11
8554.3802261344736
 21
12272.644600413059
 31
0.0
  0
LINE
  5
7D90
  8
FUTO
 10
8596.3801651344729
 20
12339.769600413059
 30
0.0
 11
8596.3801651344729
 21
12611.769600413059
 31
0.0
  0
LINE
  5
7D91
  8
FUTO
 10
8596.3801651344729
 20
12275.769600413059
 30
0.0
 11
8601.3801651344729
 21
12270.769600413059
 31
0.0
  0
LINE
  5
7D92
  8
FUTO
 10
8596.3801651344729
 20
12275.769600413059
 30
0.0
 11
8596.3801651344729
 21
12321.769600413059
 31
0.0
  0
LINE
  5
7D93
  8
FUTO
 10
8534.1706997027522
 20
12275.769600413059
 30
0.0
 11
8596.3801651344729
 21
12275.769600413059
 31
0.0
  0
ARC
  5
7D94
  8
FUTO
 10
8549.3802261344736
 20
12225.769600413059
 30
0.0
 40
5.0
 50
270.0
 51
0.000000000000007
  0
LINE
  5
7D95
  8
FUTO
 10
8554.3802261344736
 20
12267.769600413059
 30
0.0
 11
8604.3801651344747
 21
12267.769600413059
 31
0.0
  0
LINE
  5
7D96
  8
FUTO
 10
8554.3802261344736
 20
12270.769600413059
 30
0.0
 11
8601.3801651344729
 21
12270.769600413059
 31
0.0
  0
LINE
  5
7D97
  8
FUTO
 10
8502.0718611299963
 20
12220.769600413059
 30
0.0
 11
8549.3802261344717
 21
12220.769600413059
 31
0.0
  0
LINE
  5
7D98
  8
FUTO
 10
8554.3802261344736
 20
12225.769600413059
 30
0.0
 11
8554.3802261344736
 21
12272.644600413059
 31
0.0
  0
LINE
  5
7D99
  8
FUTO
 10
8601.3801651344729
 20
12350.769600413059
 30
0.0
 11
8601.3801651344729
 21
12600.769600413059
 31
0.0
  0
LINE
  5
7D9A
  8
FUTO
 10
8604.3801651344747
 20
12350.769600413059
 30
0.0
 11
8604.3801651344747
 21
12600.769600413059
 31
0.0
  0
LINE
  5
7D9B
  8
FUTO
 10
8601.3801651344729
 20
12270.769600413059
 30
0.0
 11
8601.3801651344729
 21
12310.769600413059
 31
0.0
  0
LINE
  5
7D9C
  8
FUTO
 10
8604.3801651344747
 20
12267.769600413059
 30
0.0
 11
8604.3801651344747
 21
12310.769600413059
 31
0.0
  0
LINE
  5
7D9D
  8
HOSO
 10
8599.3801651344729
 20
12337.769600413059
 30
0.0
 11
8547.8802261344717
 21
12337.769600413059
 31
0.0
  0
LINE
  5
7D9E
  8
FUTO
 10
8547.8802261344717
 20
12339.769600413059
 30
0.0
 11
8599.3801651344729
 21
12339.769600413059
 31
0.0
  0
LINE
  5
7D9F
  8
HOSO
 10
8547.8802261344717
 20
12323.769600413059
 30
0.0
 11
8599.3801651344729
 21
12323.769600413059
 31
0.0
  0
LINE
  5
7DA0
  8
FUTO
 10
8599.3801651344729
 20
12321.769600413059
 30
0.0
 11
8547.8802261344717
 21
12321.769600413059
 31
0.0
  0
LINE
  5
7DA1
  8
FUTO
 10
8629.3801651344747
 20
12339.769600413059
 30
0.0
 11
8691.734718134474
 21
12339.769600413059
 31
0.0
  0
LINE
  5
7DA2
  8
HOSO
 10
8691.7346571344733
 20
12337.769600413059
 30
0.0
 11
8629.3801651344747
 21
12337.769600413059
 31
0.0
  0
LINE
  5
7DA3
  8
HOSO
 10
8629.3801651344747
 20
12323.769600413059
 30
0.0
 11
8691.734718134474
 21
12323.769600413059
 31
0.0
  0
LINE
  5
7DA4
  8
FUTO
 10
8691.7346571344733
 20
12321.769600413059
 30
0.0
 11
8629.3801651344747
 21
12321.769600413059
 31
0.0
  0
LINE
  5
7DA5
  8
FUTO
 10
8691.7346571344733
 20
12348.359444413059
 30
0.0
 11
8691.7346571344733
 21
12313.17975741306
 31
0.0
  0
LINE
  5
7DA6
  8
FUTO
 10
8703.8346331344728
 20
12340.47467841306
 30
0.0
 11
8705.4346081344738
 21
12338.875069413059
 31
0.0
  0
LINE
  5
7DA7
  8
FUTO
 10
8703.8346331344728
 20
12340.47467841306
 30
0.0
 11
8705.4346081344738
 21
12342.075264413061
 31
0.0
  0
LINE
  5
7DA8
  8
FUTO
 10
8705.4346081344738
 20
12346.759835413061
 30
0.0
 11
8703.8346331344728
 21
12348.359444413059
 31
0.0
  0
LINE
  5
7DA9
  8
FUTO
 10
8703.8346331344728
 20
12321.06452241306
 30
0.0
 11
8705.4346081344738
 21
12322.665108413061
 31
0.0
  0
LINE
  5
7DAA
  8
FUTO
 10
8703.8346331344728
 20
12321.06452241306
 30
0.0
 11
8705.4346081344738
 21
12319.46491341306
 31
0.0
  0
LINE
  5
7DAB
  8
FUTO
 10
8703.8346331344728
 20
12313.17975741306
 30
0.0
 11
8705.4346081344738
 21
12314.78034241306
 31
0.0
  0
LINE
  5
7DAC
  8
FUTO
 10
8705.4346081344738
 20
12346.759835413061
 30
0.0
 11
8705.4346081344738
 21
12314.78034241306
 31
0.0
  0
LINE
  5
7DAD
  8
FUTO
 10
8703.8346331344728
 20
12321.06452241306
 30
0.0
 11
8691.7346571344733
 21
12321.06452241306
 31
0.0
  0
LINE
  5
7DAE
  8
FUTO
 10
8703.8346331344728
 20
12340.47467841306
 30
0.0
 11
8691.7346571344733
 21
12340.47467841306
 31
0.0
  0
LINE
  5
7DAF
  8
FUTO
 10
8703.8346331344728
 20
12313.17975741306
 30
0.0
 11
8691.7346571344733
 21
12313.17975741306
 31
0.0
  0
LINE
  5
7DB0
  8
FUTO
 10
8703.8346331344728
 20
12348.359444413059
 30
0.0
 11
8691.7346571344733
 21
12348.359444413059
 31
0.0
  0
LINE
  5
7DB1
  8
CT
 10
8547.8802261344754
 20
12330.769600413059
 30
0.0
 11
8715.4346081344738
 21
12330.769600413059
 31
0.0
  0
LINE
  5
7DB2
  8
FUTO
 10
8599.3801651344729
 20
12310.769600413059
 30
0.0
 11
8629.3801651344747
 21
12310.769600413059
 31
0.0
  0
LINE
  5
7DB3
  8
FUTO
 10
8629.3801651344747
 20
12350.769600413059
 30
0.0
 11
8599.3801651344729
 21
12350.769600413059
 31
0.0
  0
LINE
  5
7DB4
  8
FUTO
 10
8599.3801651344729
 20
12310.769600413059
 30
0.0
 11
8599.3801651344729
 21
12350.769600413059
 31
0.0
  0
LINE
  5
7DB5
  8
FUTO
 10
8629.3801651344747
 20
12310.769600413059
 30
0.0
 11
8629.3801651344747
 21
12350.769600413059
 31
0.0
  0
ARC
  5
7DB6
  8
FUTO
 10
8012.7510761344738
 20
12537.769539413061
 30
0.0
 40
20.0
 50
89.999999999999986
 51
180.0
  0
ARC
  5
7DB7
  8
FUTO
 10
8012.7510761344738
 20
12413.769600413059
 30
0.0
 40
20.0
 50
180.0
 51
270.0
  0
ARC
  5
7DB8
  8
FUTO
 10
8002.7510761344738
 20
12396.769600413059
 30
0.0
 40
10.0
 50
180.0
 51
270.0
  0
ARC
  5
7DB9
  8
FUTO
 10
8002.7510761344738
 20
12554.769539413061
 30
0.0
 40
10.0
 50
89.999999999999986
 51
180.0
  0
ARC
  5
7DBA
  8
FUTO
 10
8105.607801033364
 20
12396.769600413059
 30
0.0
 40
10.0
 50
270.0
 51
0.000000000000007
  0
ARC
  5
7DBB
  8
FUTO
 10
8102.4406854950312
 20
12396.769600413059
 30
0.0
 40
10.0
 50
270.0
 51
0.000000000000007
  0
ARC
  5
7DBC
  8
FUTO
 10
8105.607801033364
 20
12554.769539413061
 30
0.0
 40
10.0
 50
0.000000000000007
 51
89.999999999999986
  0
ARC
  5
7DBD
  8
FUTO
 10
8102.4406854950312
 20
12554.769539413061
 30
0.0
 40
10.0
 50
0.000000000000007
 51
89.999999999999986
  0
LINE
  5
7DBE
  8
FUTO
 10
8105.244082215575
 20
12393.769600413059
 30
0.0
 11
8012.7510761344738
 21
12393.769600413059
 31
0.0
  0
LINE
  5
7DBF
  8
FUTO
 10
8105.244082215575
 20
12557.769539413061
 30
0.0
 11
8012.7510761344738
 21
12557.769539413061
 31
0.0
  0
ARC
  5
7DC0
  8
FUTO
 10
8119.3802261344717
 20
12398.769600413059
 30
0.0
 40
5.0
 50
270.0
 51
0.000000000000007
  0
ARC
  5
7DC1
  8
FUTO
 10
8119.3802261344717
 20
12552.769539413061
 30
0.0
 40
5.0
 50
0.000000000000007
 51
89.999999999999986
  0
ARC
  5
7DC2
  8
FUTO
 10
8105.244082215575
 20
12398.769600413059
 30
0.0
 40
5.0
 50
270.0
 51
0.000000000000007
  0
ARC
  5
7DC3
  8
FUTO
 10
8105.244082215575
 20
12552.769539413061
 30
0.0
 40
5.0
 50
0.000000000000007
 51
89.999999999999986
  0
LINE
  5
7DC4
  8
FUTO
 10
8105.607801033364
 20
12386.769600413059
 30
0.0
 11
8002.7510761344738
 21
12386.769600413059
 31
0.0
  0
LINE
  5
7DC5
  8
FUTO
 10
8119.3802261344736
 20
12393.769600413059
 30
0.0
 11
8115.607801033364
 21
12393.769600413059
 31
0.0
  0
LINE
  5
7DC6
  8
FUTO
 10
8105.607801033364
 20
12564.769539413061
 30
0.0
 11
8002.7510761344738
 21
12564.769539413061
 31
0.0
  0
LINE
  5
7DC7
  8
FUTO
 10
8119.3802261344736
 20
12557.769539413061
 30
0.0
 11
8115.607801033364
 21
12557.769539413061
 31
0.0
  0
LINE
  5
7DC8
  8
FUTO
 10
8140.8802261344727
 20
12535.769600413059
 30
0.0
 11
8140.8802261344727
 21
12642.580371162099
 31
0.0
  0
LINE
  5
7DC9
  8
FUTO
 10
8124.3802261344754
 20
12415.769600413059
 30
0.0
 11
8192.1066236946554
 21
12415.769600413059
 31
0.0
  0
LINE
  5
7DCA
  8
FUTO
 10
8124.3802261344754
 20
12535.769600413059
 30
0.0
 11
8192.1066236946535
 21
12535.769600413059
 31
0.0
  0
LINE
  5
7DCB
  8
FUTO
 10
8034.0608901344722
 20
12413.769600413059
 30
0.0
 11
8034.060890134474
 21
12537.769539413061
 31
0.0
  0
LINE
  5
7DCC
  8
FUTO
 10
8110.2440822155759
 20
12398.769600413059
 30
0.0
 11
8110.2440822155759
 21
12552.769539413061
 31
0.0
  0
LINE
  5
7DCD
  8
FUTO
 10
8112.4406854950321
 20
12396.769600413059
 30
0.0
 11
8112.4406854950321
 21
12554.769539413061
 31
0.0
  0
LINE
  5
7DCE
  8
FUTO
 10
8115.607801033364
 20
12396.769600413059
 30
0.0
 11
8115.607801033364
 21
12554.769539413061
 31
0.0
  0
LINE
  5
7DCF
  8
FUTO
 10
8124.3802261344754
 20
12398.769600413059
 30
0.0
 11
8124.3802261344754
 21
12552.769539413061
 31
0.0
  0
LINE
  5
7DD0
  8
FUTO
 10
8134.3802261344727
 20
12415.769600413059
 30
0.0
 11
8134.3802261344727
 21
12535.769600413059
 31
0.0
  0
LINE
  5
7DD1
  8
FUTO
 10
8192.1066236946535
 20
12415.769600413059
 30
0.0
 11
8192.1066236946554
 21
12535.769600413059
 31
0.0
  0
LINE
  5
7DD2
  8
FUTO
 10
7992.7510761344729
 20
12396.769600413059
 30
0.0
 11
7992.7510761344729
 21
12554.769539413061
 31
0.0
  0
LINE
  5
7DD3
  8
FUTO
 10
8338.1302261344736
 20
12452.019600413059
 30
0.0
 11
8338.1302261344736
 21
12499.519600413059
 31
0.0
  0
ARC
  5
7DD4
  8
FUTO
 10
8344.3802261344736
 20
12452.019600413059
 30
0.0
 40
6.25
 50
180.0
 51
0.000000000000007
  0
ARC
  5
7DD5
  8
FUTO
 10
8344.3802261344736
 20
12499.519600413059
 30
0.0
 40
6.25
 50
0.000000000000007
 51
180.0
  0
LINE
  5
7DD6
  8
CT
 10
7972.7510761344747
 20
12475.769600413059
 30
0.0
 11
8624.3801651344729
 21
12475.769600413059
 31
0.0
  0
LINE
  5
7DD7
  8
FUTO
 10
8350.6302261344754
 20
12452.019600413059
 30
0.0
 11
8350.6302261344754
 21
12499.519600413059
 31
0.0
  0
LINE
  5
7DD8
  8
FUTO
 10
8140.8802261344754
 20
12642.580371162099
 30
0.0
 11
8142.7020031344728
 21
12644.769539413061
 31
0.0
  0
LINE
  5
7DD9
  8
FUTO
 10
8140.8802261344727
 20
12308.95868741306
 30
0.0
 11
8147.3802261344736
 21
12301.147774413061
 31
0.0
  0
LINE
  5
7DDA
  8
FUTO
 10
8140.8802261344727
 20
12308.95868741306
 30
0.0
 11
8140.8802261344727
 21
12415.769600413059
 31
0.0
  0
LINE
  5
7DDB
  8
FUTO
 10
8547.8802261344717
 20
12308.95868741306
 30
0.0
 11
8547.8802261344754
 21
12642.580371162099
 31
0.0
  0
ARC
  5
7DDC
  8
FUTO
 10
8266.3802261344736
 20
12202.269600413059
 30
0.0
 40
2.0
 50
180.0
 51
270.0
  0
ARC
  5
7DDD
  8
FUTO
 10
8261.3802261344736
 20
12212.42267641306
 30
0.0
 40
2.9999599999999988
 50
0.000000000000007
 51
87.000442999964605
  0
LINE
  5
7DDE
  8
FUTO
 10
8264.3802261344736
 20
12212.42267641306
 30
0.0
 11
8264.3802261344736
 21
12202.269600413059
 31
0.0
  0
ARC
  5
7DDF
  8
FUTO
 10
8165.2842781344734
 20
12256.055245413059
 30
0.0
 40
9.9999679999999991
 50
181.99932900002389
 51
225.0
  0
ARC
  5
7DE0
  8
FUTO
 10
8192.2774421344729
 20
12229.062080413059
 30
0.0
 40
10.000024
 50
225.0
 51
267.00096100001281
  0
LINE
  5
7DE1
  8
FUTO
 10
8158.2132331344728
 20
12248.984200413061
 30
0.0
 11
8185.2063981344727
 21
12221.991036413059
 31
0.0
  0
LINE
  5
7DE2
  8
FUTO
 10
8154.3802261344736
 20
12281.769600413059
 30
0.0
 11
8155.2903821344744
 21
12255.706368413061
 31
0.0
  0
LINE
  5
7DE3
  8
FUTO
 10
8191.7542491344739
 20
12219.07575241306
 30
0.0
 11
8280.3455581344733
 21
12214.432930413061
 31
0.0
  0
LINE
  5
7DE4
  8
FUTO
 10
8182.3802261344736
 20
12291.769600413059
 30
0.0
 11
8506.3802261344717
 21
12291.769600413059
 31
0.0
  0
LINE
  5
7DE5
  8
FUTO
 10
8182.3802261344736
 20
12281.769600413059
 30
0.0
 11
8182.3802261344736
 21
12286.769600413059
 31
0.0
  0
LINE
  5
7DE6
  8
FUTO
 10
8182.3802261344736
 20
12286.769600413059
 30
0.0
 11
8182.3802261344736
 21
12291.769600413059
 31
0.0
  0
LINE
  5
7DE7
  8
FUTO
 10
8147.3802261344736
 20
12301.147774413061
 30
0.0
 11
8182.3802261344736
 21
12291.769600413059
 31
0.0
  0
ARC
  5
7DE8
  8
FUTO
 10
8160.8802261344727
 20
12691.242928413059
 30
0.0
 40
20.0
 50
159.99995399998471
 51
180.0
  0
ARC
  5
7DE9
  8
FUTO
 10
8131.8802261344754
 20
12728.51831841306
 30
0.0
 40
20.0
 50
340.0002749999901
 51
0.000000000000007
  0
LINE
  5
7DEA
  8
FUTO
 10
8196.7313001344737
 20
12673.269539413061
 30
0.0
 11
8192.9783701344732
 21
12679.769539413061
 31
0.0
  0
LINE
  5
7DEB
  8
FUTO
 10
8192.9783701344732
 20
12679.769539413061
 30
0.0
 11
8196.7313001344737
 21
12686.269539413061
 31
0.0
  0
LINE
  5
7DEC
  8
FUTO
 10
8142.0862801344738
 20
12698.08338241306
 30
0.0
 11
8150.6741711344739
 21
12721.67798641306
 31
0.0
  0
LINE
  5
7DED
  8
FUTO
 10
8140.8802261344727
 20
12644.769539413061
 30
0.0
 11
8140.8802261344727
 21
12691.242928413059
 31
0.0
  0
LINE
  5
7DEE
  8
FUTO
 10
8207.9896011344754
 20
12679.769539413061
 30
0.0
 11
8204.2366711344712
 21
12686.269539413061
 31
0.0
  0
LINE
  5
7DEF
  8
FUTO
 10
8204.2366711344712
 20
12673.269539413061
 30
0.0
 11
8207.9896011344754
 21
12679.769539413061
 31
0.0
  0
LINE
  5
7DF0
  8
CT
 10
8200.4839851344732
 20
12672.32740041306
 30
0.0
 11
8200.4839851344732
 21
12686.78345541306
 31
0.0
  0
LINE
  5
7DF1
  8
CT
 10
8208.8746101344732
 20
12679.769539413061
 30
0.0
 11
8192.0530771344747
 21
12679.769539413061
 31
0.0
  0
LINE
  5
7DF2
  8
FUTO
 10
8204.2366711344712
 20
12686.269539413061
 30
0.0
 11
8196.7313001344737
 21
12686.269539413061
 31
0.0
  0
LINE
  5
7DF3
  8
FUTO
 10
8204.2366711344712
 20
12673.269539413061
 30
0.0
 11
8196.7313001344737
 21
12673.269539413061
 31
0.0
  0
CIRCLE
  5
7DF4
  8
FUTO
 10
8200.4839851344732
 20
12679.769539413061
 30
0.0
 40
6.5
  0
ARC
  5
7DF5
  8
FUTO
 10
8166.8802261344727
 20
12789.458626413059
 30
0.0
 40
15.0
 50
150.00018299999559
 51
180.0
  0
ARC
  5
7DF6
  8
FUTO
 10
8187.2669441344742
 20
12844.769539413061
 30
0.0
 40
4.9999580000000003
 50
89.999999999999986
 51
149.99971800000111
  0
LINE
  5
7DF7
  8
FUTO
 10
8182.9368661344743
 20
12847.269539413061
 30
0.0
 11
8153.8897471344744
 21
12796.958626413059
 31
0.0
  0
LINE
  5
7DF8
  8
FUTO
 10
8151.8802261344727
 20
12728.51831841306
 30
0.0
 11
8151.8802261344727
 21
12789.458626413059
 31
0.0
  0
LINE
  5
7DF9
  8
FUTO
 10
8536.8802261344717
 20
12728.51831841306
 30
0.0
 11
8536.8802261344717
 21
12789.458626413059
 31
0.0
  0
LINE
  5
7DFA
  8
CT
 10
8344.3802261344736
 20
11867.98050944711
 30
0.0
 11
8344.3802261344736
 21
12869.769600413059
 31
0.0
  0
LINE
  5
7DFB
  8
FUTO
 10
8502.0301901344737
 20
12849.769600413059
 30
0.0
 11
8187.2398761344748
 21
12849.769600413059
 31
0.0
  0
LINE
  5
7DFC
  8
FUTO
 10
8151.8802261344727
 20
12790.669563413059
 30
0.0
 11
8536.8311541344738
 21
12790.669563413059
 31
0.0
  0
LINE
  5
7DFD
  8
FUTO
 10
8505.8235861344729
 20
12847.269539413061
 30
0.0
 11
8534.8707051344718
 21
12796.958626413059
 31
0.0
  0
ARC
  5
7DFE
  8
FUTO
 10
8501.4935081344738
 20
12844.769539413061
 30
0.0
 40
4.9999580000000003
 50
30.000281999998819
 51
89.999999999999986
  0
ARC
  5
7DFF
  8
FUTO
 10
8521.8802261344736
 20
12789.458626413059
 30
0.0
 40
15.0
 50
0.000000000000007
 51
29.999817000004359
  0
LINE
  5
7E00
  8
FUTO
 10
8266.3802261344736
 20
12200.269600413059
 30
0.0
 11
8344.3802261344736
 21
12200.269600413059
 31
0.0
  0
LINE
  5
7E01
  8
FUTO
 10
8154.3802261344736
 20
12281.769600413059
 30
0.0
 11
8344.3802261344736
 21
12281.769600413059
 31
0.0
  0
LINE
  5
7E02
  8
FUTO
 10
8182.3802261344736
 20
12286.769600413059
 30
0.0
 11
8344.3802261344736
 21
12286.769600413059
 31
0.0
  0
LINE
  5
7E03
  8
FUTO
 10
8537.1976091344732
 20
12724.969490413059
 30
0.0
 11
8151.8802261344727
 21
12724.969490413059
 31
0.0
  0
LINE
  5
7E04
  8
FUTO
 10
8547.5667501344724
 20
12694.769539413061
 30
0.0
 11
8141.1936059356012
 21
12694.769539413061
 31
0.0
  0
LINE
  5
7E05
  8
FUTO
 10
8547.8802261344717
 20
12644.769539413061
 30
0.0
 11
8142.7020031344728
 21
12644.769539413061
 31
0.0
  0
LINE
  5
7E06
  8
FUTO
 10
8182.3802261344736
 20
12286.769600413059
 30
0.0
 11
8344.3802261344736
 21
12286.769600413059
 31
0.0
  0
CIRCLE
  5
7E07
  8
FUTO
 10
8488.2764671344739
 20
12679.769539413061
 30
0.0
 40
6.5
  0
LINE
  5
7E08
  8
FUTO
 10
8484.5237811344741
 20
12673.269539413061
 30
0.0
 11
8492.0291521344734
 21
12673.269539413061
 31
0.0
  0
LINE
  5
7E09
  8
FUTO
 10
8484.5237811344741
 20
12686.269539413061
 30
0.0
 11
8492.0291521344734
 21
12686.269539413061
 31
0.0
  0
LINE
  5
7E0A
  8
CT
 10
8479.8858421344758
 20
12679.769539413061
 30
0.0
 11
8496.7073751344724
 21
12679.769539413061
 31
0.0
  0
LINE
  5
7E0B
  8
CT
 10
8488.2764671344739
 20
12672.32740041306
 30
0.0
 11
8488.2764671344739
 21
12686.78345541306
 31
0.0
  0
LINE
  5
7E0C
  8
FUTO
 10
8484.5237811344741
 20
12673.269539413061
 30
0.0
 11
8480.7708511344736
 21
12679.769539413061
 31
0.0
  0
LINE
  5
7E0D
  8
FUTO
 10
8480.7708511344736
 20
12679.769539413061
 30
0.0
 11
8484.5237811344741
 21
12686.269539413061
 31
0.0
  0
LINE
  5
7E0E
  8
FUTO
 10
8547.8802261344717
 20
12644.769539413061
 30
0.0
 11
8547.8802261344717
 21
12691.242928413059
 31
0.0
  0
LINE
  5
7E0F
  8
FUTO
 10
8546.6741721344733
 20
12698.08338241306
 30
0.0
 11
8538.0862811344723
 21
12721.67798641306
 31
0.0
  0
LINE
  5
7E10
  8
FUTO
 10
8495.7820821344721
 20
12679.769539413061
 30
0.0
 11
8492.0291521344734
 21
12686.269539413061
 31
0.0
  0
LINE
  5
7E11
  8
FUTO
 10
8492.0291521344734
 20
12673.269539413061
 30
0.0
 11
8495.7820821344721
 21
12679.769539413061
 31
0.0
  0
ARC
  5
7E12
  8
FUTO
 10
8556.8802261344736
 20
12728.51831841306
 30
0.0
 40
20.0
 50
180.0
 51
199.9997250000097
  0
ARC
  5
7E13
  8
FUTO
 10
8527.8802261344736
 20
12691.242928413059
 30
0.0
 40
20.0
 50
0.000000000000007
 51
20.000046000015249
  0
LINE
  5
7E14
  8
FUTO
 10
8547.8802261344717
 20
12642.580371162099
 30
0.0
 11
8546.0584491344744
 21
12644.769539413061
 31
0.0
  0
LINE
  5
7E15
  8
FUTO
 10
8506.3802261344717
 20
12286.769600413059
 30
0.0
 11
8344.3802261344736
 21
12286.769600413059
 31
0.0
  0
LINE
  5
7E16
  8
FUTO
 10
8497.0062031344733
 20
12219.07575241306
 30
0.0
 11
8408.4148941344738
 21
12214.432930413061
 31
0.0
  0
LINE
  5
7E17
  8
FUTO
 10
8534.3802261344717
 20
12281.769600413059
 30
0.0
 11
8344.3802261344736
 21
12281.769600413059
 31
0.0
  0
LINE
  5
7E18
  8
FUTO
 10
8506.3802261344717
 20
12286.769600413059
 30
0.0
 11
8344.3802261344736
 21
12286.769600413059
 31
0.0
  0
LINE
  5
7E19
  8
FUTO
 10
8314.3802261344717
 20
12190.269600413059
 30
0.0
 11
8314.3802261344717
 21
12050.269600413059
 31
0.0
  0
LINE
  5
7E1A
  8
FUTO
 10
8374.3802261344754
 20
12190.269600413059
 30
0.0
 11
8374.3802261344754
 21
12050.269600413059
 31
0.0
  0
LINE
  5
7E1B
  8
FUTO
 10
8422.3802261344754
 20
12200.269600413059
 30
0.0
 11
8344.3802261344736
 21
12200.269600413059
 31
0.0
  0
LINE
  5
7E1C
  8
FUTO
 10
8311.8802261344754
 20
12190.269600413059
 30
0.0
 11
8376.8802261344717
 21
12190.269600413059
 31
0.0
  0
LINE
  5
7E1D
  8
FUTO
 10
8311.8802261344754
 20
12190.269600413059
 30
0.0
 11
8311.8802261344754
 21
12200.269600413059
 31
0.0
  0
LINE
  5
7E1E
  8
FUTO
 10
8376.8802261344717
 20
12190.269600413059
 30
0.0
 11
8376.8802261344717
 21
12200.269600413059
 31
0.0
  0
LINE
  5
7E1F
  8
FUTO
 10
8424.3802261344736
 20
12212.42267641306
 30
0.0
 11
8424.3802261344736
 21
12202.269600413059
 31
0.0
  0
ARC
  5
7E20
  8
FUTO
 10
8427.3802261344736
 20
12212.42267641306
 30
0.0
 40
2.9999599999999988
 50
92.999556999983326
 51
180.0
  0
ARC
  5
7E21
  8
FUTO
 10
8422.3802261344754
 20
12202.269600413059
 30
0.0
 40
2.0
 50
270.0
 51
0.000000000000007
  0
LINE
  5
7E22
  8
FUTO
 10
8374.3802261344754
 20
12050.269600413059
 30
0.0
 11
8314.3802261344717
 21
12050.269600413059
 31
0.0
  0
LINE
  5
7E23
  8
FUTO
 10
8547.8802261344717
 20
12308.95868741306
 30
0.0
 11
8541.3802261344717
 21
12301.147774413061
 31
0.0
  0
LINE
  5
7E24
  8
FUTO
 10
8534.3802261344717
 20
12281.769600413059
 30
0.0
 11
8533.4700701344755
 21
12255.706368413061
 31
0.0
  0
LINE
  5
7E25
  8
FUTO
 10
8541.3802261344717
 20
12301.147774413061
 30
0.0
 11
8506.3802261344717
 21
12291.769600413059
 31
0.0
  0
LINE
  5
7E26
  8
FUTO
 10
8506.3802261344717
 20
12286.769600413059
 30
0.0
 11
8506.3802261344717
 21
12291.769600413059
 31
0.0
  0
LINE
  5
7E27
  8
FUTO
 10
8506.3802261344717
 20
12281.769600413059
 30
0.0
 11
8506.3802261344717
 21
12286.769600413059
 31
0.0
  0
LINE
  5
7E28
  8
FUTO
 10
8530.5472191344743
 20
12248.984200413061
 30
0.0
 11
8503.5540541344744
 21
12221.991036413059
 31
0.0
  0
ARC
  5
7E29
  8
FUTO
 10
8496.4830101344742
 20
12229.062080413059
 30
0.0
 40
10.000024
 50
272.99903899998708
 51
314.99999999999989
  0
ARC
  5
7E2A
  8
FUTO
 10
8523.4761741344737
 20
12256.055245413059
 30
0.0
 40
9.9999679999999991
 50
314.99999999999989
 51
358.00067099997602
  0
CIRCLE
  5
7E2B
  8
FUTO
 10
8344.3802261344736
 20
8476.031060105468
 30
0.0
 40
30.0
  0
LINE
  5
7E2C
  8
KL
 10
12597.358250553991
 20
8296.0310601054662
 30
0.0
 11
12612.037681478299
 21
8296.0310601054662
 31
0.0
  0
LINE
  5
7E2D
  8
KL
 10
12600.0377424783
 20
8276.0310601054662
 30
0.0
 11
12635.0377424783
 21
8276.0310601054662
 31
0.0
  0
LINE
  5
7E2E
  8
KL
 10
12272.717234402609
 20
8296.0310601054662
 30
0.0
 11
12258.0377424783
 21
8296.0310601054662
 31
0.0
  0
LINE
  5
7E2F
  8
KL
 10
12270.0377424783
 20
8276.0310601054662
 30
0.0
 11
12235.0377424783
 21
8276.0310601054662
 31
0.0
  0
LINE
  5
7E30
  8
CT
 10
8184.3802261344727
 20
8266.0310601054662
 30
0.0
 11
8184.3802261344727
 21
8196.0310601054662
 31
0.0
  0
LINE
  5
7E31
  8
KL
 10
12335.0377424783
 20
8271.0310601054662
 30
0.0
 11
12335.0377424783
 21
8276.0310601054662
 31
0.0
  0
LINE
  5
7E32
  8
KL
 10
12535.0377424783
 20
8276.0310601054662
 30
0.0
 11
12535.0377424783
 21
8271.0310601054662
 31
0.0
  0
LINE
  5
7E3B
  8
FUTO
 10
8412.3802261344736
 20
8276.0310601054662
 30
0.0
 11
8412.3802261344736
 21
8271.0310601054662
 31
0.0
  0
LINE
  5
7E3C
  8
FUTO
 10
8276.3801041344741
 20
8271.0310601054662
 30
0.0
 11
8276.3801041344741
 21
8276.0310601054662
 31
0.0
  0
LINE
  5
7E3D
  8
KL
 10
12290.0377424783
 20
8304.5066461054666
 30
0.0
 11
12274.0377424783
 21
8295.2693421054664
 31
0.0
  0
LINE
  5
7E3E
  8
KL
 10
12306.0377424783
 20
8295.2693421054664
 30
0.0
 11
12290.0377424783
 21
8304.5066461054666
 31
0.0
  0
LINE
  5
7E3F
  8
KL
 10
12290.0377424783
 20
8267.5564511054654
 30
0.0
 11
12274.0377424783
 21
8276.7937561054678
 31
0.0
  0
LINE
  5
7E40
  8
KL
 10
12306.0377424783
 20
8276.7937561054678
 30
0.0
 11
12290.0377424783
 21
8267.5564511054654
 31
0.0
  0
LINE
  5
7E41
  8
KL
 10
12260.0377424783
 20
8286.0310601054662
 30
0.0
 11
12320.0377424783
 21
8286.0310601054662
 31
0.0
  0
CIRCLE
  5
7E42
  8
CT
 10
12290.0377424783
 20
8286.0310601054662
 30
0.0
 40
16.0
  0
LINE
  5
7E43
  8
KL
 10
12306.0377424783
 20
8276.7937561054678
 30
0.0
 11
12306.0377424783
 21
8295.2693421054664
 31
0.0
  0
LINE
  5
7E44
  8
KL
 10
12274.0377424783
 20
8276.7937561054678
 30
0.0
 11
12274.0377424783
 21
8295.2693421054664
 31
0.0
  0
ARC
  5
7E45
  8
KL
 10
12290.0377424783
 20
8286.0310601054662
 30
0.0
 40
20.0
 50
0.000000000000007
 51
180.0
  0
ARC
  5
7E46
  8
FUTO
 10
12183.0377424783
 20
8243.0310601054643
 30
0.0
 40
3.0
 50
90.0
 51
180.0
  0
LINE
  5
7E47
  8
KL
 10
12231.9127424783
 20
8246.0310601054643
 30
0.0
 11
12183.0377424783
 21
8246.0310601054643
 31
0.0
  0
LINE
  5
7E48
  8
KL
 10
12237.0377424783
 20
8216.0310601054662
 30
0.0
 11
12237.0377424783
 21
8221.0310601054643
 31
0.0
  0
LINE
  5
7E49
  8
KL
 10
12227.0377424783
 20
8228.0310601054662
 30
0.0
 11
12227.0377424783
 21
8221.0310601054643
 31
0.0
  0
LINE
  5
7E4A
  8
FUTO
 10
12237.0377424783
 20
8216.0310601054662
 30
0.0
 11
12180.0377424783
 21
8216.0310601054662
 31
0.0
  0
LINE
  5
7E4B
  8
FUTO
 10
12180.0377424783
 20
8216.0310601054662
 30
0.0
 11
12180.0377424783
 21
8243.0310601054643
 31
0.0
  0
LINE
  5
7E4C
  8
CT
 10
12205.0377424783
 20
8266.0310601054662
 30
0.0
 11
12205.0377424783
 21
8196.0310601054662
 31
0.0
  0
LINE
  5
7E4D
  8
KL
 10
12227.0377424783
 20
8228.0310601054662
 30
0.0
 11
12270.0377424783
 21
8228.0310601054662
 31
0.0
  0
LINE
  5
7E4E
  8
KL
 10
12235.0377424783
 20
8276.0310601054662
 30
0.0
 11
12230.0377424783
 21
8228.0310601054662
 31
0.0
  0
LINE
  5
7E4F
  8
KL
 10
12310.0377424783
 20
8286.0310601054662
 30
0.0
 11
12310.0377424783
 21
8221.0310601054643
 31
0.0
  0
LINE
  5
7E50
  8
KL
 10
12270.0377424783
 20
8221.0310601054643
 30
0.0
 11
12270.0377424783
 21
8286.0310601054662
 31
0.0
  0
LINE
  5
7E51
  8
CT
 10
12290.0377424783
 20
8211.0310601054662
 30
0.0
 11
12290.0377424783
 21
8316.0310601054662
 31
0.0
  0
LINE
  5
7E52
  8
KL
 10
12564.0377424783
 20
8295.2693421054664
 30
0.0
 11
12580.0377424783
 21
8304.5066461054666
 31
0.0
  0
LINE
  5
7E53
  8
KL
 10
12564.0377424783
 20
8276.7937561054678
 30
0.0
 11
12580.0377424783
 21
8267.5564511054654
 31
0.0
  0
LINE
  5
7E54
  8
KL
 10
12564.0377424783
 20
8276.7937561054678
 30
0.0
 11
12564.0377424783
 21
8295.2693421054664
 31
0.0
  0
LINE
  5
7E55
  8
KL
 10
12596.0377424783
 20
8276.7937561054678
 30
0.0
 11
12596.0377424783
 21
8295.2693421054664
 31
0.0
  0
CIRCLE
  5
7E56
  8
KL
 10
12580.0377424783
 20
8286.0310601054662
 30
0.0
 40
16.0
  0
LINE
  5
7E57
  8
KL
 10
12580.0377424783
 20
8304.5066461054666
 30
0.0
 11
12596.0377424783
 21
8295.2693421054664
 31
0.0
  0
LINE
  5
7E58
  8
KL
 10
12580.0377424783
 20
8267.5564511054654
 30
0.0
 11
12596.0377424783
 21
8276.7937561054678
 31
0.0
  0
ARC
  5
7E59
  8
KL
 10
12580.0377424783
 20
8286.0310601054662
 30
0.0
 40
20.0
 50
0.000000000000007
 51
180.0
  0
LINE
  5
7E5A
  8
CT
 10
12610.0377424783
 20
8286.0310601054662
 30
0.0
 11
12550.0377424783
 21
8286.0310601054662
 31
0.0
  0
LINE
  5
7E5B
  8
KL
 10
12335.0377424783
 20
8271.0310601054662
 30
0.0
 11
12535.0377424783
 21
8271.0310601054662
 31
0.0
  0
LINE
  5
7E5C
  8
KL
 10
12633.0377424783
 20
8216.0310601054662
 30
0.0
 11
12633.0377424783
 21
8221.0310601054643
 31
0.0
  0
LINE
  5
7E5D
  8
KL
 10
12643.0377424783
 20
8228.0310601054662
 30
0.0
 11
12643.0377424783
 21
8221.0310601054643
 31
0.0
  0
LINE
  5
7E5E
  8
KL
 10
12643.0377424783
 20
8228.0310601054662
 30
0.0
 11
12600.0377424783
 21
8228.0310601054662
 31
0.0
  0
LINE
  5
7E5F
  8
CT
 10
12665.0377424783
 20
8266.0310601054662
 30
0.0
 11
12665.0377424783
 21
8196.0310601054662
 31
0.0
  0
ARC
  5
7E60
  8
KL
 10
12687.0377424783
 20
8243.0310601054643
 30
0.0
 40
3.0
 50
0.000000000000007
 51
90.0
  0
LINE
  5
7E61
  8
KL
 10
12690.0377424783
 20
8216.0310601054662
 30
0.0
 11
12690.0377424783
 21
8243.0310601054643
 31
0.0
  0
LINE
  5
7E62
  8
KL
 10
12638.1627424783
 20
8246.0310601054643
 30
0.0
 11
12687.0377424783
 21
8246.0310601054643
 31
0.0
  0
LINE
  5
7E63
  8
KL
 10
12633.0377424783
 20
8216.0310601054662
 30
0.0
 11
12690.0377424783
 21
8216.0310601054662
 31
0.0
  0
LINE
  5
7E64
  8
KL
 10
12635.0377424783
 20
8276.0310601054662
 30
0.0
 11
12640.0377424783
 21
8228.0310601054662
 31
0.0
  0
LINE
  5
7E65
  8
KL
 10
12560.0377424783
 20
8286.0310601054662
 30
0.0
 11
12560.0377424783
 21
8221.0310601054643
 31
0.0
  0
LINE
  5
7E66
  8
KL
 10
12600.0377424783
 20
8221.0310601054643
 30
0.0
 11
12600.0377424783
 21
8286.0310601054662
 31
0.0
  0
LINE
  5
7E67
  8
CT
 10
12580.0377424783
 20
8211.0310601054662
 30
0.0
 11
12580.0377424783
 21
8316.0310601054662
 31
0.0
  0
LINE
  5
7E68
  8
FUTO
 10
7984.9256361344742
 20
8295.7361381054652
 30
0.0
 11
7983.3256601344738
 21
8294.1365291054663
 31
0.0
  0
LINE
  5
7E69
  8
FUTO
 10
7984.9256361344742
 20
8295.7361381054652
 30
0.0
 11
7983.3256601344738
 21
8297.3367241054675
 31
0.0
  0
LINE
  5
7E6A
  8
FUTO
 10
7984.9256361344742
 20
8295.7361381054652
 30
0.0
 11
7997.0256111344743
 21
8295.7361381054652
 31
0.0
  0
LINE
  5
7E6B
  8
FUTO
 10
7983.325782134475
 20
8302.0212951054673
 30
0.0
 11
7984.9257581344737
 21
8303.6209041054663
 31
0.0
  0
LINE
  5
7E6C
  8
FUTO
 10
7984.9256361344742
 20
8303.6209041054663
 30
0.0
 11
7997.0256111344743
 21
8303.6209041054663
 31
0.0
  0
LINE
  5
7E6D
  8
FUTO
 10
7984.9256361344742
 20
8276.3259821054671
 30
0.0
 11
7983.3256601344738
 21
8277.9265681054658
 31
0.0
  0
LINE
  5
7E6E
  8
FUTO
 10
7984.9256361344742
 20
8276.3259821054671
 30
0.0
 11
7983.3256601344738
 21
8274.7263731054645
 31
0.0
  0
LINE
  5
7E6F
  8
FUTO
 10
7984.9256361344742
 20
8276.3259821054671
 30
0.0
 11
7997.0256111344743
 21
8276.3259821054671
 31
0.0
  0
LINE
  5
7E70
  8
FUTO
 10
7984.9256361344742
 20
8268.4412171054664
 30
0.0
 11
7997.0256111344743
 21
8268.4412171054664
 31
0.0
  0
LINE
  5
7E71
  8
FUTO
 10
7984.9256361344742
 20
8268.4412171054664
 30
0.0
 11
7983.3256601344738
 21
8270.0418021054666
 31
0.0
  0
LINE
  5
7E72
  8
FUTO
 10
7983.325782134475
 20
8302.0212951054673
 30
0.0
 11
7983.325782134475
 21
8270.0418021054666
 31
0.0
  0
LINE
  5
7E73
  8
FUTO
 10
7997.0257331344746
 20
8303.6209041054663
 30
0.0
 11
7997.0257331344746
 21
8268.4412171054664
 31
0.0
  0
LINE
  5
7E74
  8
HOSO
 10
8059.3801041344741
 20
8279.0310601054643
 30
0.0
 11
7997.0259771344736
 21
8279.0310601054643
 31
0.0
  0
LINE
  5
7E75
  8
FUTO
 10
8059.3801041344741
 20
8295.0310601054662
 30
0.0
 11
7997.0259771344736
 21
8295.0310601054662
 31
0.0
  0
LINE
  5
7E76
  8
HOSO
 10
7997.0257331344746
 20
8293.0310601054662
 30
0.0
 11
8059.3801041344741
 21
8293.0310601054662
 31
0.0
  0
LINE
  5
7E77
  8
FUTO
 10
7997.0257331344746
 20
8277.0310601054662
 30
0.0
 11
8059.3801041344741
 21
8277.0310601054662
 31
0.0
  0
LINE
  5
7E78
  8
FUTO
 10
8155.3802261344727
 20
8293.0310601054662
 30
0.0
 11
8153.3802261344727
 21
8295.0310601054662
 31
0.0
  0
LINE
  5
7E79
  8
HOSO
 10
8091.5467708011411
 20
8293.0310601054662
 30
0.0
 11
8155.3801031344738
 21
8293.0310601054662
 31
0.0
  0
LINE
  5
7E7A
  8
FUTO
 10
8153.3802261344727
 20
8295.0310601054662
 30
0.0
 11
8091.2134374678071
 21
8295.0310601054662
 31
0.0
  0
LINE
  5
7E7B
  8
FUTO
 10
8153.3802261344727
 20
8277.0310601054662
 30
0.0
 11
8155.3802261344727
 21
8279.0310601054643
 31
0.0
  0
LINE
  5
7E7C
  8
FUTO
 10
8094.2134374678071
 20
8277.0310601054662
 30
0.0
 11
8153.3802261344727
 21
8277.0310601054662
 31
0.0
  0
LINE
  5
7E7D
  8
HOSO
 10
8155.3802261344727
 20
8279.0310601054643
 30
0.0
 11
8093.880104134475
 21
8279.0310601054643
 31
0.0
  0
LINE
  5
7E7E
  8
FUTO
 10
8153.3802261344727
 20
8295.0310601054662
 30
0.0
 11
8153.3802261344727
 21
8277.0310601054662
 31
0.0
  0
LINE
  5
7E7F
  8
FUTO
 10
8089.380104134475
 20
8306.0310601054662
 30
0.0
 11
8094.3801041344741
 21
8276.0310601054662
 31
0.0
  0
LINE
  5
7E80
  8
FUTO
 10
8412.3802261344736
 20
8271.0310601054662
 30
0.0
 11
8276.3801041344741
 21
8271.0310601054662
 31
0.0
  0
LINE
  5
7E81
  8
FUTO
 10
8092.380104134475
 20
8276.0310601054662
 30
0.0
 11
8276.3801041344741
 21
8276.0310601054662
 31
0.0
  0
LINE
  5
7E82
  8
FUTO
 10
8089.380104134475
 20
8306.0310601054662
 30
0.0
 11
8059.3801041344741
 21
8306.0310601054662
 31
0.0
  0
LINE
  5
7E83
  8
CT
 10
8155.3802261344727
 20
8286.0310601054662
 30
0.0
 11
7973.3257821344732
 21
8286.0310601054662
 31
0.0
  0
LINE
  5
7E84
  8
FUTO
 10
8084.3801041344741
 20
8221.0310601054643
 30
0.0
 11
8059.3801041344741
 21
8221.0310601054643
 31
0.0
  0
LINE
  5
7E85
  8
FUTO
 10
8087.3801041344741
 20
8228.0310601054662
 30
0.0
 11
8084.3801041344741
 21
8228.0310601054662
 31
0.0
  0
LINE
  5
7E86
  8
FUTO
 10
8084.3801041344741
 20
8228.0310601054662
 30
0.0
 11
8084.3801041344741
 21
8221.0310601054643
 31
0.0
  0
ARC
  5
7E87
  8
FUTO
 10
8137.3798601344733
 20
8243.0310601054643
 30
0.0
 40
3.0
 50
89.997664999998889
 51
180.0
  0
LINE
  5
7E88
  8
FUTO
 10
8134.380104134475
 20
8216.0310601054662
 30
0.0
 11
8134.380104134475
 21
8243.0310601054643
 31
0.0
  0
ARC
  5
7E89
  8
FUTO
 10
8231.3801041344741
 20
8243.0310601054643
 30
0.0
 40
3.0
 50
0.000000000000007
 51
90.002335000001125
  0
LINE
  5
7E8A
  8
FUTO
 10
8234.3801041344741
 20
8216.0310601054662
 30
0.0
 11
8234.3801041344741
 21
8243.0310601054643
 31
0.0
  0
LINE
  5
7E8B
  8
FUTO
 10
8231.3801041344741
 20
8246.0310601054643
 30
0.0
 11
8137.380104134475
 21
8246.0310601054643
 31
0.0
  0
LINE
  5
7E8C
  8
FUTO
 10
8234.3801041344741
 20
8216.0310601054662
 30
0.0
 11
8134.380104134475
 21
8216.0310601054662
 31
0.0
  0
LINE
  5
7E8D
  8
FUTO
 10
8084.3801041344741
 20
8221.0310601054643
 30
0.0
 11
8134.380104134475
 21
8221.0310601054643
 31
0.0
  0
LINE
  5
7E8E
  8
FUTO
 10
8092.380104134475
 20
8276.0310601054662
 30
0.0
 11
8087.3801041344741
 21
8228.0310601054662
 31
0.0
  0
LINE
  5
7E8F
  8
FUTO
 10
8059.3801041344741
 20
8306.0310601054662
 30
0.0
 11
8059.3801041344741
 21
8221.0310601054643
 31
0.0
  0
LINE
  5
7E90
  8
FUTO
 10
8533.3802261344736
 20
8293.0310601054662
 30
0.0
 11
8535.3802261344736
 21
8295.0310601054662
 31
0.0
  0
LINE
  5
7E91
  8
HOSO
 10
8597.2134984678069
 20
8293.031060105468
 30
0.0
 11
8533.3802261344736
 21
8293.0310601054662
 31
0.0
  0
LINE
  5
7E92
  8
FUTO
 10
8535.3802261344736
 20
8295.0310601054662
 30
0.0
 11
8597.5468318011408
 21
8295.0310601054662
 31
0.0
  0
LINE
  5
7E93
  8
FUTO
 10
8535.3802261344736
 20
8277.0310601054662
 30
0.0
 11
8533.3802261344736
 21
8279.0310601054643
 31
0.0
  0
LINE
  5
7E94
  8
FUTO
 10
8594.5468318011408
 20
8277.0310601054662
 30
0.0
 11
8535.3802261344736
 21
8277.0310601054662
 31
0.0
  0
LINE
  5
7E95
  8
HOSO
 10
8533.3802261344736
 20
8279.0310601054643
 30
0.0
 11
8594.8801651344747
 21
8279.0310601054643
 31
0.0
  0
LINE
  5
7E96
  8
FUTO
 10
8535.3802261344736
 20
8295.0310601054662
 30
0.0
 11
8535.3802261344736
 21
8277.0310601054662
 31
0.0
  0
LINE
  5
7E97
  8
FUTO
 10
8599.3801651344747
 20
8306.0310601054662
 30
0.0
 11
8594.3801651344747
 21
8276.0310601054662
 31
0.0
  0
LINE
  5
7E98
  8
FUTO
 10
8629.3801651344766
 20
8295.0310601054662
 30
0.0
 11
8691.734718134474
 21
8295.0310601054662
 31
0.0
  0
LINE
  5
7E99
  8
HOSO
 10
8691.7346571344733
 20
8293.0310601054662
 30
0.0
 11
8629.3801651344766
 21
8293.0310601054662
 31
0.0
  0
LINE
  5
7E9A
  8
HOSO
 10
8629.3801651344766
 20
8279.031060105468
 30
0.0
 11
8691.734718134474
 21
8279.0310601054643
 31
0.0
  0
LINE
  5
7E9B
  8
FUTO
 10
8691.7346571344733
 20
8277.0310601054662
 30
0.0
 11
8629.3801651344766
 21
8277.0310601054662
 31
0.0
  0
LINE
  5
7E9C
  8
FUTO
 10
8691.7346571344733
 20
8303.6209041054663
 30
0.0
 11
8691.7346571344733
 21
8268.4412171054664
 31
0.0
  0
LINE
  5
7E9D
  8
FUTO
 10
8703.8346331344746
 20
8295.7361381054652
 30
0.0
 11
8705.4346081344738
 21
8294.1365291054663
 31
0.0
  0
LINE
  5
7E9E
  8
FUTO
 10
8703.8346331344746
 20
8295.7361381054652
 30
0.0
 11
8705.4346081344738
 21
8297.3367241054675
 31
0.0
  0
LINE
  5
7E9F
  8
FUTO
 10
8705.4346081344738
 20
8302.0212951054673
 30
0.0
 11
8703.8346331344746
 21
8303.6209041054663
 31
0.0
  0
LINE
  5
7EA0
  8
FUTO
 10
8703.8346331344746
 20
8276.3259821054671
 30
0.0
 11
8705.4346081344738
 21
8277.9265681054658
 31
0.0
  0
LINE
  5
7EA1
  8
FUTO
 10
8703.8346331344746
 20
8276.3259821054671
 30
0.0
 11
8705.4346081344738
 21
8274.7263731054645
 31
0.0
  0
LINE
  5
7EA2
  8
FUTO
 10
8703.8346331344746
 20
8268.4412171054664
 30
0.0
 11
8705.4346081344738
 21
8270.0418021054666
 31
0.0
  0
LINE
  5
7EA3
  8
FUTO
 10
8705.4346081344738
 20
8302.0212951054673
 30
0.0
 11
8705.4346081344738
 21
8270.0418021054666
 31
0.0
  0
LINE
  5
7EA4
  8
FUTO
 10
8703.8346331344746
 20
8276.3259821054671
 30
0.0
 11
8691.7346571344733
 21
8276.3259821054671
 31
0.0
  0
LINE
  5
7EA5
  8
FUTO
 10
8703.8346331344746
 20
8295.7361381054652
 30
0.0
 11
8691.7346571344733
 21
8295.7361381054652
 31
0.0
  0
LINE
  5
7EA6
  8
FUTO
 10
8703.8346331344746
 20
8268.4412171054664
 30
0.0
 11
8691.7346571344733
 21
8268.4412171054664
 31
0.0
  0
LINE
  5
7EA7
  8
FUTO
 10
8703.8346331344746
 20
8303.6209041054663
 30
0.0
 11
8691.7346571344733
 21
8303.6209041054663
 31
0.0
  0
LINE
  5
7EA8
  8
FUTO
 10
8599.3801651344747
 20
8306.0310601054662
 30
0.0
 11
8629.3801651344766
 21
8306.0310601054662
 31
0.0
  0
LINE
  5
7EA9
  8
CT
 10
8533.3802261344736
 20
8286.0310601054662
 30
0.0
 11
8715.4346081344738
 21
8286.0310601054662
 31
0.0
  0
ARC
  5
7EAA
  8
FUTO
 10
8457.3801041344741
 20
8243.0310601054643
 30
0.0
 40
2.999938999999999
 50
89.998833000023197
 51
180.0
  0
LINE
  5
7EAB
  8
FUTO
 10
8454.3802261344736
 20
8216.0310601054662
 30
0.0
 11
8454.3802261344736
 21
8243.0310601054643
 31
0.0
  0
ARC
  5
7EAC
  8
FUTO
 10
8551.3802261344736
 20
8243.0310601054643
 30
0.0
 40
3.0
 50
0.000000000000007
 51
90.001167000028886
  0
LINE
  5
7EAD
  8
FUTO
 10
8601.3801651344747
 20
8228.0310601054662
 30
0.0
 11
8604.3801651344747
 21
8228.0310601054662
 31
0.0
  0
LINE
  5
7EAE
  8
FUTO
 10
8604.3801651344747
 20
8228.0310601054662
 30
0.0
 11
8604.3801651344747
 21
8221.0310601054643
 31
0.0
  0
LINE
  5
7EAF
  8
FUTO
 10
8604.3801651344747
 20
8221.0310601054643
 30
0.0
 11
8554.3802261344736
 21
8221.0310601054643
 31
0.0
  0
LINE
  5
7EB0
  8
FUTO
 10
8554.3802261344736
 20
8216.0310601054662
 30
0.0
 11
8554.3802261344736
 21
8243.0310601054643
 31
0.0
  0
LINE
  5
7EB1
  8
FUTO
 10
8457.3802261344736
 20
8246.0310601054643
 30
0.0
 11
8551.3802261344736
 21
8246.0310601054643
 31
0.0
  0
LINE
  5
7EB2
  8
FUTO
 10
8454.3802261344736
 20
8216.0310601054662
 30
0.0
 11
8554.3802261344736
 21
8216.0310601054662
 31
0.0
  0
LINE
  5
7EB3
  8
FUTO
 10
8604.3801651344747
 20
8221.0310601054643
 30
0.0
 11
8629.3801651344766
 21
8221.0310601054643
 31
0.0
  0
LINE
  5
7EB4
  8
FUTO
 10
8596.3801651344747
 20
8276.0310601054662
 30
0.0
 11
8601.3801651344747
 21
8228.0310601054662
 31
0.0
  0
LINE
  5
7EB5
  8
FUTO
 10
8629.3801651344766
 20
8306.0310601054662
 30
0.0
 11
8629.3801651344766
 21
8221.0310601054643
 31
0.0
  0
LINE
  5
7EB6
  8
CT
 10
8504.3802261344736
 20
8266.0310601054662
 30
0.0
 11
8504.3802261344736
 21
8196.0310601054662
 31
0.0
  0
LINE
  5
7EB7
  8
FUTO
 10
8596.3801651344747
 20
8276.0310601054662
 30
0.0
 11
8412.3802261344736
 21
8276.0310601054662
 31
0.0
  0
LINE
  5
7EB8
  8
FUTO
 10
8454.3802261344736
 20
8221.0310601054643
 30
0.0
 11
8234.3802261344736
 21
8221.0310601054643
 31
0.0
  0
LINE
  5
7EB9
  8
KL
 10
12310.0377424783
 20
8228.0310601054662
 30
0.0
 11
12560.0377424783
 21
8228.0310601054662
 31
0.0
  0
LINE
  5
7EBA
  8
KL
 10
12227.0377424783
 20
8221.0310601054643
 30
0.0
 11
12643.0377424783
 21
8221.0310601054643
 31
0.0
  0
LINE
  5
7EBB
  8
KL
 10
12251.0377424783
 20
8638.0310601054662
 30
0.0
 11
12251.0377424783
 21
8601.031060105468
 31
0.0
  0
ARC
  5
7EBC
  8
KL
 10
12215.3233874783
 20
8655.1270081054663
 30
0.0
 40
9.9999679999999991
 50
91.999329000023934
 51
135.0
  0
ARC
  5
7EBD
  8
FUTO
 10
12188.3302224783
 20
8628.1338441054668
 30
0.0
 40
10.000024
 50
135.0
 51
177.00096100001281
  0
LINE
  5
7EBE
  8
KL
 10
12208.252342478299
 20
8662.1980531054633
 30
0.0
 11
12181.2591784783
 21
8635.2048881054652
 31
0.0
  0
LINE
  5
7EBF
  8
KL
 10
12241.0377424783
 20
8638.0310601054662
 30
0.0
 11
12246.0377424783
 21
8638.0310601054662
 31
0.0
  0
LINE
  5
7EC0
  8
KL
 10
12246.0377424783
 20
8638.0310601054662
 30
0.0
 11
12251.0377424783
 21
8638.0310601054662
 31
0.0
  0
LINE
  5
7EC1
  8
KL
 10
12260.4159164783
 20
8673.0310601054662
 30
0.0
 11
12251.0377424783
 21
8638.0310601054662
 31
0.0
  0
LINE
  5
7EC2
  8
KL
 10
12241.0377424783
 20
8666.0310601054643
 30
0.0
 11
12214.9745104783
 21
8665.1209041054663
 31
0.0
  0
LINE
  5
7EC4
  8
KL
 10
12276.0377424783
 20
8686.0310601054662
 30
0.0
 11
12260.4159164783
 21
8673.0310601054662
 31
0.0
  0
LINE
  5
7EC5
  8
FUTO
 10
12009.5377424783
 20
8510.0310601054662
 30
0.0
 11
12009.5377424783
 21
8446.0310601054662
 31
0.0
  0
ARC
  5
7EC6
  8
FUTO
 10
12161.5377424783
 20
8554.0310601054643
 30
0.0
 40
2.0
 50
90.0
 51
180.0
  0
ARC
  5
7ED5
  8
KL
 10
12261.0377424783
 20
8601.031060105468
 30
0.0
 40
10.0
 50
90.0
 51
180.0
  0
ARC
  5
7ED8
  8
FUTO
 10
12171.690818478301
 20
8559.0310601054662
 30
0.0
 40
2.9999599999999988
 50
270.0
 51
357.00044300001662
  0
LINE
  5
7ED9
  8
FUTO
 10
12171.690818478301
 20
8556.0310601054662
 30
0.0
 11
12161.5377424783
 21
8556.0310601054662
 31
0.0
  0
LINE
  5
7EDA
  8
FUTO
 10
12119.5377424783
 20
8510.0310601054662
 30
0.0
 11
12119.5377424783
 21
8506.0310601054662
 31
0.0
  0
LINE
  5
7EDB
  8
FUTO
 10
12149.5377424783
 20
8508.5310601054662
 30
0.0
 11
12159.5377424783
 21
8508.5310601054662
 31
0.0
  0
LINE
  5
7EDC
  8
FUTO
 10
12149.5377424783
 20
8443.5310601054662
 30
0.0
 11
12159.5377424783
 21
8443.5310601054662
 31
0.0
  0
LINE
  5
7EDD
  8
FUTO
 10
12149.5377424783
 20
8443.5310601054662
 30
0.0
 11
12149.5377424783
 21
8508.5310601054662
 31
0.0
  0
ARC
  5
7EDE
  8
KL
 10
12261.0377424783
 20
8501.0310601054662
 30
0.0
 40
10.0
 50
180.0
 51
270.0
  0
LINE
  5
7EDF
  8
FUTO
 10
12159.5377424783
 20
8554.0310601054643
 30
0.0
 11
12159.5377424783
 21
8476.031060105468
 31
0.0
  0
LINE
  5
7EE0
  8
KL
 10
12251.0377424783
 20
8501.0310601054662
 30
0.0
 11
12251.0377424783
 21
8601.031060105468
 31
0.0
  0
LINE
  5
7EE1
  8
FUTO
 10
12149.5377424783
 20
8506.0310601054662
 30
0.0
 11
12009.5377424783
 21
8506.0310601054662
 31
0.0
  0
LINE
  5
7EE2
  8
FUTO
 10
12149.5377424783
 20
8446.0310601054662
 30
0.0
 11
12009.5377424783
 21
8446.0310601054662
 31
0.0
  0
LINE
  5
7EE3
  8
FUTO
 10
12119.5377424783
 20
8510.0310601054662
 30
0.0
 11
12009.5377424783
 21
8510.0310601054662
 31
0.0
  0
LINE
  5
7EE4
  8
KL
 10
12246.0377424783
 20
8638.0310601054662
 30
0.0
 11
12246.0377424783
 21
8476.031060105468
 31
0.0
  0
LINE
  5
7EE5
  8
KL
 10
12241.0377424783
 20
8666.0310601054643
 30
0.0
 11
12241.0377424783
 21
8476.031060105468
 31
0.0
  0
LINE
  5
7EE6
  8
FUTO
 10
12178.343894478299
 20
8628.6570371054677
 30
0.0
 11
12173.701072478299
 21
8540.0657281054646
 31
0.0
  0
LINE
  5
7EE8
  8
KL
 10
12246.0377424783
 20
8638.0310601054662
 30
0.0
 11
12246.0377424783
 21
8476.031060105468
 31
0.0
  0
ARC
  5
7EE9
  8
KL
 10
12423.802757478299
 20
8694.310174105467
 30
0.0
 40
2.9999909999999992
 50
96.115172999988943
 51
174.80557099997009
  0
LINE
  5
7EEA
  8
KL
 10
12420.8150864783
 20
8694.5817811054658
 30
0.0
 11
12420.0377424783
 21
8686.0310601054662
 31
0.0
  0
ARC
  5
7EEB
  8
KL
 10
12414.0793684783
 20
8686.7608581054665
 30
0.0
 40
5.9999760000000002
 50
354.80557299999322
 51
54.396263000016731
  0
ARC
  5
7EEC
  8
KL
 10
12446.272727478299
 20
8694.310174105467
 30
0.0
 40
2.999981
 50
5.194427000006832
 51
83.884827000011072
  0
ARC
  5
7EED
  8
KL
 10
12435.0377424783
 20
8716.0310601054662
 30
0.0
 40
30.0
 50
305.19004800002568
 51
305.60386699999998
  0
LINE
  5
7EEE
  8
KL
 10
12435.0377424783
 20
8698.5310601054662
 30
0.0
 11
12446.5923074783
 21
8697.2930841054658
 31
0.0
  0
LINE
  5
7EEF
  8
KL
 10
12449.2603984783
 20
8694.5817811054658
 30
0.0
 11
12450.0377424783
 21
8686.0310601054662
 31
0.0
  0
ARC
  5
7EF0
  8
KL
 10
12455.9961164783
 20
8686.7608581054665
 30
0.0
 40
5.9999820000000001
 50
125.6037369999832
 51
185.19442700000681
  0
LINE
  5
7EF1
  8
KL
 10
12435.0377424783
 20
8698.5310601054662
 30
0.0
 11
12423.4831774783
 21
8697.2930841054658
 31
0.0
  0
LINE
  5
7EF2
  8
KL
 10
12423.4831774783
 20
8697.2930841054658
 30
0.0
 11
12446.5923074783
 21
8697.2930841054658
 31
0.0
  0
LINE
  5
7EF3
  8
CT
 10
12475.0377424783
 20
8716.0310601054662
 30
0.0
 11
12395.0377424783
 21
8716.0310601054662
 31
0.0
  0
LINE
  5
7EF4
  8
KL
 10
12376.0377424783
 20
8625.0310601054662
 30
0.0
 11
12494.0377424783
 21
8625.0310601054662
 31
0.0
  0
CIRCLE
  5
7EF5
  8
KL
 10
12435.0377424783
 20
8716.0310601054662
 30
0.0
 40
17.5
  0
ARC
  5
7EF6
  8
KL
 10
12435.0377424783
 20
8716.0310601054662
 30
0.0
 40
30.0
 50
305.60386699999998
 51
234.39614899998969
  0
LINE
  5
7EF7
  8
KL
 10
12594.037681478299
 20
8686.0310601054662
 30
0.0
 11
12604.037681478299
 21
8677.7092831054651
 31
0.0
  0
ARC
  5
7EF8
  8
KL
 10
12650.5110704783
 20
8659.5310601054662
 30
0.0
 40
20.0
 50
69.99995399998474
 51
90.0
  0
ARC
  5
7EF9
  8
KL
 10
12687.786460478301
 20
8688.5310601054662
 30
0.0
 40
20.0
 50
250.00027499999021
 51
270.0
  0
LINE
  5
7EFC
  8
KL
 10
12657.351524478299
 20
8678.3250061054641
 30
0.0
 11
12680.946128478299
 21
8669.7371151054667
 31
0.0
  0
LINE
  5
7EFD
  8
KL
 10
12604.037681478299
 20
8679.5310601054662
 30
0.0
 11
12650.5110704783
 21
8679.5310601054662
 31
0.0
  0
LINE
  5
7EFE
  8
KL
 10
12594.037681478299
 20
8686.0310601054662
 30
0.0
 11
12435.0377424783
 21
8686.0310601054662
 31
0.0
  0
LINE
  5
7EFF
  8
KL
 10
12497.037681478299
 20
8618.0310601054643
 30
0.0
 11
12373.0377424783
 21
8618.0310601054643
 31
0.0
  0
ARC
  5
7F00
  8
KL
 10
12373.0377424783
 20
8443.3333061054655
 30
0.0
 40
20.0
 50
180.0
 51
270.0
  0
CIRCLE
  5
7F01
  8
KL
 10
12435.0377424783
 20
8410.3333061054655
 30
0.0
 40
3.5
  0
LINE
  5
7F02
  8
KL
 10
12441.490623478299
 20
8410.3333061054655
 30
0.0
 11
12426.9015124783
 21
8410.3333061054655
 31
0.0
  0
LINE
  5
7F03
  8
KL
 10
12373.0377424783
 20
8423.3333061054655
 30
0.0
 11
12497.0377424783
 21
8423.3333061054655
 31
0.0
  0
LINE
  5
7F04
  8
KL
 10
12494.037681478299
 20
8403.3333061054655
 30
0.0
 11
12376.0377424783
 21
8403.3333061054655
 31
0.0
  0
LINE
  5
7F05
  8
KL
 10
12353.0377424783
 20
8598.0310601054662
 30
0.0
 11
12353.0377424783
 21
8443.3333061054655
 31
0.0
  0
LINE
  5
7F06
  8
KL
 10
12346.0377424783
 20
8595.0310601054662
 30
0.0
 11
12346.0377424783
 21
8433.3333061054655
 31
0.0
  0
LINE
  5
7F07
  8
KL
 10
12604.037681478299
 20
8611.0310601054662
 30
0.0
 11
12519.414878478299
 21
8611.0310601054662
 31
0.0
  0
LINE
  5
7F0B
  8
KL
 10
12604.037681478299
 20
8491.0310601054662
 30
0.0
 11
12524.037681478299
 21
8491.0310601054662
 31
0.0
  0
LINE
  5
7F0C
  8
KL
 10
12517.037681478299
 20
8598.0310601054662
 30
0.0
 11
12517.037681478299
 21
8443.3333061054655
 31
0.0
  0
LINE
  5
7F0D
  8
KL
 10
12524.037681478299
 20
8595.0310601054662
 30
0.0
 11
12524.037681478299
 21
8433.3333061054655
 31
0.0
  0
ARC
  5
7F0E
  8
KL
 10
12497.037681478299
 20
8443.3333061054655
 30
0.0
 40
20.0
 50
270.0
 51
0.000000000000007
  0
LINE
  5
7F0F
  8
CT
 10
12544.037681478299
 20
8551.0310601054662
 30
0.0
 11
12326.0377424783
 21
8551.0310601054662
 31
0.0
  0
ARC
  5
7F10
  8
KL
 10
12497.037681478299
 20
8598.0310601054662
 30
0.0
 40
20.0
 50
0.000000000000007
 51
90.0
  0
ARC
  5
7F11
  8
KL
 10
12373.0377424783
 20
8598.0310601054662
 30
0.0
 40
20.0
 50
90.0
 51
180.0
  0
ARC
  5
7F12
  8
KL
 10
12376.0377424783
 20
8595.0310601054662
 30
0.0
 40
30.0
 50
90.0
 51
180.0
  0
ARC
  5
7F13
  8
KL
 10
12494.037681478299
 20
8595.0310601054662
 30
0.0
 40
30.0
 50
0.000000000000007
 51
90.0
  0
LINE
  5
7F18
  8
KL
 10
12276.0377424783
 20
8686.0310601054662
 30
0.0
 11
12435.0377424783
 21
8686.0310601054662
 31
0.0
  0
LINE
  5
7F19
  8
KL
 10
12261.0377424783
 20
8611.0310601054662
 30
0.0
 11
12350.6605454783
 21
8611.0310601054662
 31
0.0
  0
LINE
  5
7F1A
  8
KL
 10
12261.0377424783
 20
8491.0310601054662
 30
0.0
 11
12346.0377424783
 21
8491.0310601054662
 31
0.0
  0
ARC
  5
7F1B
  8
FUTO
 10
12161.5377424783
 20
8398.0310601054662
 30
0.0
 40
2.0
 50
180.0
 51
270.0
  0
ARC
  5
7F1C
  8
FUTO
 10
12171.690818478301
 20
8393.0310601054662
 30
0.0
 40
3.0
 50
2.9995570000354208
 51
90.0
  0
ARC
  5
7F1D
  8
FUTO
 10
12186.387351478301
 20
8360.9993221054665
 30
0.0
 40
10.000139999999989
 50
183.00042699998181
 51
225.00097699998821
  0
ARC
  5
7F2C
  8
FUTO
 10
12188.3302224783
 20
8323.9282771054659
 30
0.0
 40
9.9999679999999991
 50
182.9990540000266
 51
225.0
  0
LINE
  5
7F2D
  8
KL
 10
12251.0377424783
 20
8324.2703181054676
 30
0.0
 11
12270.1263654783
 21
8324.2703181054676
 31
0.0
  0
LINE
  5
7F2E
  8
KL
 10
12252.073631478301
 20
8314.0310601054662
 30
0.0
 11
12246.0377424783
 21
8314.0310601054662
 31
0.0
  0
LINE
  5
7F2F
  8
KL
 10
12241.0377424783
 20
8314.0310601054662
 30
0.0
 11
12246.0377424783
 21
8314.0310601054662
 31
0.0
  0
ARC
  5
7F30
  8
KL
 10
12258.0377424783
 20
8293.0310601054662
 30
0.0
 40
3.0
 50
90.0
 51
180.0
  0
ARC
  5
7F31
  8
KL
 10
12265.1263654783
 20
8301.0310601054662
 30
0.0
 40
5.0
 50
270.0
 51
0.000000000000007
  0
LINE
  5
7F32
  8
KL
 10
12251.0377424783
 20
8317.1575251054674
 30
0.0
 11
12253.5963364783
 21
8317.1575251054674
 31
0.0
  0
LINE
  5
7F33
  8
KL
 10
12258.0377424783
 20
8296.0310601054662
 30
0.0
 11
12251.0377424783
 21
8317.1575251054674
 31
0.0
  0
LINE
  5
7F34
  8
KL
 10
12270.1263654783
 20
8301.0310601054662
 30
0.0
 11
12270.1263654783
 21
8324.2703181054676
 31
0.0
  0
LINE
  5
7F35
  8
KL
 10
12261.195945478299
 20
8296.0310601054662
 30
0.0
 11
12251.0377424783
 21
8324.2703181054676
 31
0.0
  0
LINE
  5
7F38
  8
FUTO
 10
12174.669090478301
 20
8393.5263001054664
 30
0.0
 11
12178.343894478299
 21
8323.4050841054668
 31
0.0
  0
LINE
  5
7F3A
  8
KL
 10
12208.108787478301
 20
8325.1357971054658
 30
0.0
 11
12179.3163064783
 21
8353.9280331054651
 31
0.0
  0
LINE
  5
7F3D
  8
FUTO
 10
12171.690818478301
 20
8396.0310601054662
 30
0.0
 11
12161.5377424783
 21
8396.0310601054662
 31
0.0
  0
ARC
  5
7F3E
  8
KL
 10
12215.3233874783
 20
8296.9351131054664
 30
0.0
 40
9.9999839999999995
 50
225.0
 51
268.00067099997602
  0
LINE
  5
7F3F
  8
KL
 10
12241.0377424783
 20
8286.0310601054662
 30
0.0
 11
12214.9745104783
 21
8286.9412171054664
 31
0.0
  0
LINE
  5
7F40
  8
KL
 10
12255.0377424783
 20
8276.0310601054662
 30
0.0
 11
12255.0377424783
 21
8293.0310601054662
 31
0.0
  0
LINE
  5
7F41
  8
KL
 10
12208.252342478299
 20
8289.8640681054658
 30
0.0
 11
12181.2591784783
 21
8316.8572321054671
 31
0.0
  0
LINE
  5
7F42
  8
KL
 10
12395.437644478299
 20
8297.6389711054653
 30
0.0
 11
12315.0377424783
 21
8296.0310601054662
 31
0.0
  0
ARC
  5
7F43
  8
KL
 10
12410.0377424783
 20
8358.5271541054663
 30
0.0
 40
5.0
 50
0.000000000000007
 51
90.0
  0
ARC
  5
7F44
  8
KL
 10
12460.0377424783
 20
8358.5271541054663
 30
0.0
 40
5.0
 50
90.0
 51
180.0
  0
ARC
  5
7F45
  8
KL
 10
12475.037681478299
 20
8317.6350641054669
 30
0.0
 40
20.000091999999999
 50
180.0
 51
268.85427899999053
  0
LINE
  5
7F46
  8
KL
 10
12455.0377424783
 20
8358.5271541054663
 30
0.0
 11
12455.0377424783
 21
8317.6350641054669
 31
0.0
  0
LINE
  5
7F47
  8
KL
 10
12415.0377424783
 20
8358.5271541054663
 30
0.0
 11
12415.0377424783
 21
8317.6350641054669
 31
0.0
  0
ARC
  5
7F48
  8
KL
 10
12395.0377424783
 20
8317.6350641054669
 30
0.0
 40
20.0
 50
271.14572100000942
 51
0.000000000000007
  0
LINE
  5
7F49
  8
KL
 10
12335.0377424783
 20
8276.0310601054662
 30
0.0
 11
12335.0377424783
 21
8277.0310601054662
 31
0.0
  0
ARC
  5
7F4A
  8
KL
 10
12340.0377424783
 20
8277.0310601054662
 30
0.0
 40
5.0
 50
90.0
 51
180.0
  0
LINE
  5
7F4B
  8
KL
 10
12340.0377424783
 20
8282.0310601054643
 30
0.0
 11
12435.0377424783
 21
8282.0310601054643
 31
0.0
  0
ARC
  5
7F4C
  8
KL
 10
12612.037681478299
 20
8293.0310601054662
 30
0.0
 40
3.0
 50
0.000000000000007
 51
90.0
  0
LINE
  5
7F4D
  8
KL
 10
12555.037681478299
 20
8296.0310601054662
 30
0.0
 11
12562.717234402609
 21
8296.0310601054662
 31
0.0
  0
ARC
  5
7F57
  8
KL
 10
12530.037681478299
 20
8277.0310601054662
 30
0.0
 40
5.0
 50
0.000000000000007
 51
90.0
  0
LINE
  5
7F58
  8
KL
 10
12535.037681478299
 20
8276.0310601054662
 30
0.0
 11
12535.037681478299
 21
8277.0310601054662
 31
0.0
  0
LINE
  5
7F59
  8
KL
 10
12535.037681478299
 20
8276.0310601054662
 30
0.0
 11
12560.0377424783
 21
8276.0310601054662
 31
0.0
  0
LINE
  5
7F5A
  8
KL
 10
12674.6437604783
 20
8280.0310601054662
 30
0.0
 11
12684.2597274783
 21
8283.5310601054643
 31
0.0
  0
LINE
  5
7F5B
  8
KL
 10
12674.6437604783
 20
8280.0310601054662
 30
0.0
 11
12615.037681478299
 21
8280.0310601054662
 31
0.0
  0
LINE
  5
7F5C
  8
KL
 10
12615.037681478299
 20
8276.0310601054662
 30
0.0
 11
12615.037681478299
 21
8293.0310601054662
 31
0.0
  0
LINE
  5
7F5D
  8
KL
 10
12474.6377794783
 20
8297.6389711054653
 30
0.0
 11
12555.037681478299
 21
8296.0310601054662
 31
0.0
  0
LINE
  5
7F5E
  8
KL
 10
12530.037681478299
 20
8282.0310601054643
 30
0.0
 11
12435.0377424783
 21
8282.0310601054643
 31
0.0
  0
LINE
  5
7F5F
  8
KL
 10
12315.0377424783
 20
8296.0310601054662
 30
0.0
 11
12307.358250553991
 21
8296.0310601054662
 31
0.0
  0
LINE
  5
7F60
  8
KL
 10
12335.0377424783
 20
8276.0310601054662
 30
0.0
 11
12310.0377424783
 21
8276.0310601054662
 31
0.0
  0
ARC
  5
7F61
  8
KL
 10
12494.037681478299
 20
8433.3333061054655
 30
0.0
 40
30.0
 50
270.0
 51
0.000000000000007
  0
ARC
  5
7F62
  8
KL
 10
12376.0377424783
 20
8433.3333061054655
 30
0.0
 40
30.0
 50
180.0
 51
270.0
  0
LINE
  5
7F63
  8
CT
 10
12435.0377424783
 20
8762.4752544115872
 30
0.0
 11
12435.0377424783
 21
8192.4752544115872
 31
0.0
  0
LINE
  5
7F64
  8
KL
 10
12246.0377424783
 20
8314.0310601054662
 30
0.0
 11
12246.0377424783
 21
8476.031060105468
 31
0.0
  0
LINE
  5
7F65
  8
KL
 10
12604.037681478299
 20
8679.5310601054662
 30
0.0
 11
12604.037681478299
 21
8296.0310601054662
 31
0.0
  0
LINE
  5
7F66
  8
KL
 10
12654.037681478299
 20
8679.2175841054668
 30
0.0
 11
12654.037681478299
 21
8280.0310601054662
 31
0.0
  0
LINE
  5
7F67
  8
KL
 10
12684.2376324783
 20
8668.8484431054658
 30
0.0
 11
12684.2376324783
 21
8283.5310601054643
 31
0.0
  0
LINE
  5
7F68
  8
KL
 10
12246.0377424783
 20
8314.0310601054662
 30
0.0
 11
12246.0377424783
 21
8476.031060105468
 31
0.0
  0
LINE
  5
7F69
  8
KL
 10
12241.0377424783
 20
8286.0310601054662
 30
0.0
 11
12241.0377424783
 21
8476.031060105468
 31
0.0
  0
LINE
  5
7F6A
  8
FUTO
 10
12159.5377424783
 20
8398.0310601054662
 30
0.0
 11
12159.5377424783
 21
8476.031060105468
 31
0.0
  0
ARC
  5
7F6B
  8
KL
 10
12748.7267684783
 20
8653.5310601054662
 30
0.0
 40
15.0
 50
60.00018299999563
 51
90.0
  0
ARC
  5
7F6C
  8
KL
 10
12804.037681478299
 20
8633.1443421054664
 30
0.0
 40
4.9999580000000003
 50
0.000000000000007
 51
59.999718000001181
  0
LINE
  5
7F6D
  8
KL
 10
12806.537681478299
 20
8637.4744201054673
 30
0.0
 11
12756.2267684783
 21
8666.5215391054644
 31
0.0
  0
LINE
  5
7F6E
  8
FUTO
 10
8113.3204121344734
 20
8622.2600641054669
 30
0.0
 11
8114.7280051344733
 21
8621.4993221054665
 31
0.0
  0
ARC
  5
7F6F
  8
FUTO
 10
8112.8449481344742
 20
8621.3801811054673
 30
0.0
 40
1.000079999999999
 50
61.614464000024142
 51
151.6049860000241
  0
ARC
  5
7F70
  8
FUTO
 10
8114.2525411344741
 20
8620.6194391054669
 30
0.0
 40
1.0001299999999991
 50
331.6139680000237
 51
61.614464000024142
  0
LINE
  5
7F71
  8
FUTO
 10
8194.1587911344759
 20
8620.7861871054665
 30
0.0
 11
8193.3101581344745
 21
8620.7861871054665
 31
0.0
  0
LINE
  5
7F72
  8
FUTO
 10
8194.1587911344759
 20
8620.7861871054665
 30
0.0
 11
8194.1587911344759
 21
8621.6348201054661
 31
0.0
  0
LINE
  5
7F73
  8
FUTO
 10
8201.9123311344738
 20
8628.5398491054675
 30
0.0
 11
8205.5044941344731
 21
8624.9478081054658
 31
0.0
  0
LINE
  5
7F74
  8
FUTO
 10
8201.0638201344736
 20
8628.5398491054675
 30
0.0
 11
8201.9123311344738
 21
8628.5398491054675
 31
0.0
  0
LINE
  5
7F75
  8
FUTO
 10
8199.6249771344737
 20
8626.252496105466
 30
0.0
 11
8199.6249771344737
 21
8627.1011291054674
 31
0.0
  0
LINE
  5
7F76
  8
FUTO
 10
8199.6249771344737
 20
8626.252496105466
 30
0.0
 11
8203.2171401344731
 21
8622.6604551054643
 31
0.0
  0
LINE
  5
7F77
  8
FUTO
 10
8199.6249771344737
 20
8626.252496105466
 30
0.0
 11
8198.7764671344721
 21
8626.252496105466
 31
0.0
  0
LINE
  5
7F78
  8
FUTO
 10
7998.324562134474
 20
8411.6016171054653
 30
0.0
 11
7995.5262221344756
 21
8413.1140681054658
 31
0.0
  0
ARC
  5
7F79
  8
FUTO
 10
7993.9738541344732
 20
8401.4492731054688
 30
0.0
 40
1.0001299999999991
 50
151.61727900002231
 51
241.61447099997949
  0
ARC
  5
7F7A
  8
FUTO
 10
8992.7510761344747
 20
8487.5623101054643
 30
0.0
 40
1000.0
 50
174.84371900001099
 51
184.2695309999898
  0
LINE
  5
7F7B
  8
FUTO
 10
8113.4111101344733
 20
8616.9597711054666
 30
0.0
 11
8121.7575461344732
 21
8612.4485411054666
 31
0.0
  0
ARC
  5
7F7C
  8
FUTO
 10
8119.3802261344736
 20
8608.0498591054675
 30
0.0
 40
5.000062999999999
 50
0.000000000000007
 51
61.609245000013807
  0
LINE
  5
7F7D
  8
CT
 10
8141.8250511344731
 20
8551.0310601054662
 30
0.0
 11
8105.3917011344747
 21
8551.0310601054662
 31
0.0
  0
LINE
  5
7F7E
  8
FUTO
 10
8191.8714371344749
 20
8618.4988341054686
 30
0.0
 11
8195.4634781344739
 21
8614.9067931054669
 31
0.0
  0
LINE
  5
7F7F
  8
FUTO
 10
8191.8714371344749
 20
8618.4988341054686
 30
0.0
 11
8191.8714371344749
 21
8619.3474671054664
 31
0.0
  0
LINE
  5
7F80
  8
FUTO
 10
8123.3943251344754
 20
8611.0310601054662
 30
0.0
 11
8192.106545134473
 21
8611.0310601054662
 31
0.0
  0
LINE
  5
7F81
  8
FUTO
 10
8124.3802261344754
 20
8491.0310601054662
 30
0.0
 11
8141.4336931344733
 21
8491.0310601054662
 31
0.0
  0
ARC
  5
7F82
  8
FUTO
 10
8105.5523461344746
 20
8421.0310601054662
 30
0.0
 40
10.000057999999999
 50
270.0
 51
352.87567099997028
  0
LINE
  5
7F83
  8
FUTO
 10
8124.3802261344754
 20
8491.0310601054662
 30
0.0
 11
8115.475197134474
 21
8419.7908261054672
 31
0.0
  0
LINE
  5
7F84
  8
FUTO
 10
8134.3802261344727
 20
8491.0310601054662
 30
0.0
 11
8134.3802261344727
 21
8611.0310601054662
 31
0.0
  0
LINE
  5
7F85
  8
FUTO
 10
8124.3802261344754
 20
8491.0310601054662
 30
0.0
 11
8124.3802261344754
 21
8608.0498591054675
 31
0.0
  0
LINE
  5
7F86
  8
FUTO
 10
8002.1081931344734
 20
8411.0310601054662
 30
0.0
 11
8105.5523461344746
 21
8411.0310601054662
 31
0.0
  0
LINE
  5
7F87
  8
FUTO
 10
8110.244118134472
 20
8618.6714411054672
 30
0.0
 11
8034.060890134474
 21
8613.7568901054674
 31
0.0
  0
ARC
  5
7F88
  8
FUTO
 10
8036.6358421344739
 20
8573.8398981054652
 30
0.0
 40
40.000011000000001
 50
93.690902999999665
 51
174.8436270000314
  0
LINE
  5
7F89
  8
FUTO
 10
8111.965187134474
 20
8621.8557671054641
 30
0.0
 11
7993.0940941344743
 21
8401.9246151054685
 31
0.0
  0
LINE
  5
7F8A
  8
FUTO
 10
8205.5044941344731
 20
8624.9478081054658
 30
0.0
 11
8195.4634781344739
 21
8614.9067931054669
 31
0.0
  0
LINE
  5
7F8B
  8
CT
 10
8195.9391861344739
 20
8624.4719781054664
 30
0.0
 11
8201.1873551344743
 21
8619.2239311054673
 31
0.0
  0
LINE
  5
7F8C
  8
FUTO
 10
8201.0638201344736
 20
8628.5398491054675
 30
0.0
 11
8191.8714371344749
 21
8619.3474671054664
 31
0.0
  0
LINE
  5
7F8D
  8
FUTO
 10
8194.1587911344759
 20
8620.7861871054665
 30
0.0
 11
8197.750832134474
 21
8617.1941461054666
 31
0.0
  0
ARC
  5
7F8E
  8
FUTO
 10
8344.3802261344736
 20
8739.7810601054662
 30
0.0
 40
6.25
 50
0.000000000000007
 51
180.0
  0
LINE
  5
7F8F
  8
FUTO
 10
8327.7834701344746
 20
8682.4498841054665
 30
0.0
 11
8327.9435351344746
 21
8678.8660821054673
 31
0.0
  0
LINE
  5
7F90
  8
FUTO
 10
8338.1302261344736
 20
8697.8614441054688
 30
0.0
 11
8332.8256611344732
 21
8697.2930841054658
 31
0.0
  0
ARC
  5
7F91
  8
FUTO
 10
8333.1452561344759
 20
8694.310174105467
 30
0.0
 40
3.0000059999999991
 50
96.115463000033785
 51
174.8055969999956
  0
LINE
  5
7F92
  8
FUTO
 10
8350.6302261344754
 20
8697.8614441054688
 30
0.0
 11
8355.9347921344743
 21
8697.2930841054658
 31
0.0
  0
ARC
  5
7F93
  8
FUTO
 10
8331.3802261344736
 20
8683.0310601054662
 30
0.0
 40
3.0
 50
90.0
 51
133.8690379999866
  0
ARC
  5
7F94
  8
FUTO
 10
8344.3802261344736
 20
8476.031060105468
 30
0.0
 40
209.99987799999991
 50
93.733024999983584
 51
93.766990999962644
  0
ARC
  5
7F95
  8
FUTO
 10
8330.9030231344732
 20
8682.5917901054672
 30
0.0
 40
3.0001099999999989
 50
4.9449460000082901
 51
93.734192000008306
  0
ARC
  5
7F96
  8
FUTO
 10
8331.3802261344736
 20
8683.0310601054662
 30
0.0
 40
3.0
 50
90.0
 51
132.5596429999928
  0
LINE
  5
7F97
  8
FUTO
 10
8333.8917931344731
 20
8682.8503351054678
 30
0.0
 11
8334.2008751344765
 21
8679.2762391054675
 31
0.0
  0
LINE
  5
7F98
  8
FUTO
 10
8354.8685381344731
 20
8682.8503351054678
 30
0.0
 11
8354.5594561344715
 21
8679.2762391054675
 31
0.0
  0
ARC
  5
7F99
  8
FUTO
 10
8353.6302261344754
 20
8691.4636781054669
 30
0.0
 40
3.0
 50
180.0
 51
270.0
  0
ARC
  5
7F9A
  8
FUTO
 10
8335.1302261344736
 20
8691.7518861054687
 30
0.0
 40
3.0
 50
270.0
 51
0.000000000000007
  0
LINE
  5
7F9B
  8
FUTO
 10
8330.1575701344718
 20
8694.5817811054658
 30
0.0
 11
8329.3802261344736
 21
8686.0310601054662
 31
0.0
  0
ARC
  5
7F9C
  8
FUTO
 10
8330.7804491344741
 20
8682.5837951054673
 30
0.0
 40
3.000081999999999
 50
93.765747000020724
 51
182.55828900003789
  0
ARC
  5
7F9D
  8
FUTO
 10
8344.3802261344736
 20
8476.031060105468
 30
0.0
 40
209.99998500000001
 50
86.233009000037342
 51
86.267005999973293
  0
ARC
  5
7F9E
  8
FUTO
 10
8357.9798821344739
 20
8682.5837341054666
 30
0.0
 40
2.9999649999999991
 50
357.44277999999088
 51
86.232139999971935
  0
LINE
  5
7F9F
  8
FUTO
 10
8360.9768601344713
 20
8682.4498841054665
 30
0.0
 11
8360.8167961344734
 21
8678.8660821054673
 31
0.0
  0
LINE
  5
7FA0
  8
FUTO
 10
8358.6028831344738
 20
8694.5817811054658
 30
0.0
 11
8359.3802261344736
 21
8686.0310601054662
 31
0.0
  0
ARC
  5
7FA1
  8
FUTO
 10
8357.3802261344736
 20
8683.0310601054662
 30
0.0
 40
3.0
 50
46.112625000024657
 51
90.0
  0
LINE
  5
7FA2
  8
FUTO
 10
8329.3802261344736
 20
8686.0310601054662
 30
0.0
 11
8359.3802261344736
 21
8686.0310601054662
 31
0.0
  0
ARC
  5
7FA3
  8
FUTO
 10
8357.3802261344736
 20
8683.0310601054662
 30
0.0
 40
3.0
 50
46.168487999999194
 51
90.0
  0
ARC
  5
7FA4
  8
FUTO
 10
8355.6151961344749
 20
8694.310174105467
 30
0.0
 40
2.9999820000000001
 50
5.1943969999919046
 51
83.884536999966215
  0
ARC
  5
7FA5
  8
FUTO
 10
8357.8574301344743
 20
8682.5917901054672
 30
0.0
 40
3.0000490000000002
 50
86.26805899999222
 51
175.0561099999934
  0
LINE
  5
7FA6
  8
FUTO
 10
8486.8480001344742
 20
8628.5398491054675
 30
0.0
 11
8483.2559591344743
 21
8624.9478081054658
 31
0.0
  0
LINE
  5
7FA7
  8
FUTO
 10
8486.8480001344742
 20
8628.5398491054675
 30
0.0
 11
8487.6966331344738
 21
8628.5398491054675
 31
0.0
  0
LINE
  5
7FA8
  8
FUTO
 10
8494.6016621344734
 20
8620.7864311054673
 30
0.0
 11
8495.450295134473
 21
8620.7864311054673
 31
0.0
  0
LINE
  5
7FA9
  8
FUTO
 10
8494.6016621344734
 20
8620.7864311054673
 30
0.0
 11
8494.6016621344734
 21
8621.6348201054661
 31
0.0
  0
LINE
  5
7FAA
  8
FUTO
 10
8489.1353531344721
 20
8626.252496105466
 30
0.0
 11
8489.1353531344721
 21
8627.1011291054674
 31
0.0
  0
LINE
  5
7FAB
  8
FUTO
 10
8489.1353531344721
 20
8626.252496105466
 30
0.0
 11
8489.9839861344735
 21
8626.252496105466
 31
0.0
  0
LINE
  5
7FAC
  8
FUTO
 10
8489.1353531344721
 20
8626.252496105466
 30
0.0
 11
8485.543312134474
 21
8622.6604551054643
 31
0.0
  0
LINE
  5
7FAD
  8
FUTO
 10
8350.6302261344754
 20
8739.7810601054662
 30
0.0
 11
8350.6302261344754
 21
8691.4636781054669
 31
0.0
  0
LINE
  5
7FAE
  8
FUTO
 10
8338.1302261344736
 20
8739.7810601054662
 30
0.0
 11
8338.1302261344736
 21
8691.7518861054687
 31
0.0
  0
LINE
  5
7FAF
  8
FUTO
 10
8496.8890151344749
 20
8618.4988341054686
 30
0.0
 11
8493.2969741344732
 21
8614.9067931054669
 31
0.0
  0
LINE
  5
7FB0
  8
FUTO
 10
8496.8890151344749
 20
8619.3474671054664
 30
0.0
 11
8496.8890151344749
 21
8618.4988341054686
 31
0.0
  0
LINE
  5
7FB1
  8
FUTO
 10
8493.2969741344732
 20
8614.9067931054669
 30
0.0
 11
8483.2559591344743
 21
8624.9478081054658
 31
0.0
  0
LINE
  5
7FB2
  8
CT
 10
8492.8211441344738
 20
8624.4719781054664
 30
0.0
 11
8487.5730971344747
 21
8619.2239311054673
 31
0.0
  0
LINE
  5
7FB3
  8
FUTO
 10
8496.8890151344749
 20
8619.3474671054664
 30
0.0
 11
8487.6966331344738
 21
8628.5398491054675
 31
0.0
  0
LINE
  5
7FB4
  8
FUTO
 10
8494.6016621344734
 20
8620.7864311054673
 30
0.0
 11
8491.0096211344735
 21
8617.1941461054666
 31
0.0
  0
LINE
  5
7FB5
  8
CT
 10
8567.8802261344754
 20
8246.0310601054643
 30
0.0
 11
8120.8802261344736
 21
8246.0310601054643
 31
0.0
  0
ARC
  5
7FB6
  8
KL
 10
12804.037681478299
 20
8318.9177791054663
 30
0.0
 40
5.0
 50
300.00027499997202
 51
0.000000000000007
  0
ARC
  5
7FB7
  8
FUTO
 10
7995.381447134474
 20
8400.6885311054666
 30
0.0
 40
1.000079999999999
 50
241.61447099997949
 51
331.60498000002087
  0
ARC
  5
7FB8
  8
KL
 10
12748.7267684783
 20
8298.5310601054662
 30
0.0
 40
15.000085
 50
270.0
 51
299.99981700000433
  0
LINE
  5
7FB9
  8
KL
 10
12806.537681478299
 20
8314.5877011054636
 30
0.0
 11
12756.2267684783
 21
8285.5405821054665
 31
0.0
  0
ARC
  5
7FBA
  8
FUTO
 10
8160.3802261344736
 20
8350.3577211054671
 30
0.0
 40
5.0
 50
124.94366100000759
 51
180.0
  0
LINE
  5
7FBB
  8
FUTO
 10
8157.5163351344736
 20
8354.4563531054664
 30
0.0
 11
8173.4542011344729
 21
8365.5928281054657
 31
0.0
  0
ARC
  5
7FBC
  8
FUTO
 10
8158.3802261344736
 20
8293.0310601054662
 30
0.0
 40
3.0
 50
90.0
 51
180.0
  0
LINE
  5
7FBD
  8
FUTO
 10
8191.8714371344749
 20
8333.5632871054659
 30
0.0
 11
8195.4634781344739
 21
8337.1553281054657
 31
0.0
  0
LINE
  5
7FBE
  8
FUTO
 10
8191.8714371344749
 20
8332.7146541054644
 30
0.0
 11
8191.8714371344749
 21
8333.5632871054659
 31
0.0
  0
LINE
  5
7FBF
  8
FUTO
 10
8194.1587911344759
 20
8331.2756891054669
 30
0.0
 11
8193.3101581344745
 21
8331.2756891054669
 31
0.0
  0
LINE
  5
7FC0
  8
FUTO
 10
8194.1587911344759
 20
8331.2756891054669
 30
0.0
 11
8194.1587911344759
 21
8330.4273011054665
 31
0.0
  0
LINE
  5
7FC1
  8
FUTO
 10
8201.9124531344733
 20
8323.5222711054666
 30
0.0
 11
8205.5044941344731
 21
8327.1143121054665
 31
0.0
  0
LINE
  5
7FC2
  8
FUTO
 10
8201.9124531344733
 20
8323.5222711054666
 30
0.0
 11
8201.0638201344736
 21
8323.5222711054666
 31
0.0
  0
LINE
  5
7FC3
  8
FUTO
 10
8199.6250991344732
 20
8325.8096251054667
 30
0.0
 11
8199.6250991344732
 21
8324.9609921054671
 31
0.0
  0
LINE
  5
7FC4
  8
FUTO
 10
8199.6250991344732
 20
8325.8096251054667
 30
0.0
 11
8203.2171401344731
 21
8329.4016661054666
 31
0.0
  0
LINE
  5
7FC5
  8
FUTO
 10
8199.6250991344732
 20
8325.8096251054667
 30
0.0
 11
8198.7764671344721
 21
8325.8096251054667
 31
0.0
  0
LINE
  5
7FC6
  8
FUTO
 10
8195.4634781344739
 20
8337.1553281054657
 30
0.0
 11
8205.5044941344731
 21
8327.1143121054665
 31
0.0
  0
LINE
  5
7FC7
  8
CT
 10
8195.9393081344733
 20
8327.5901421054641
 30
0.0
 11
8201.1873551344743
 21
8332.8381891054669
 31
0.0
  0
LINE
  5
7FC8
  8
FUTO
 10
8191.8714371344749
 20
8332.7146541054644
 30
0.0
 11
8201.0638201344736
 21
8323.5222711054666
 31
0.0
  0
LINE
  5
7FC9
  8
FUTO
 10
8194.1587911344759
 20
8331.2756891054669
 30
0.0
 11
8197.750832134474
 21
8334.8679741054693
 31
0.0
  0
ARC
  5
7FCA
  8
FUTO
 10
8231.8802261344754
 20
8293.0310601054662
 30
0.0
 40
3.0
 50
0.000000000000007
 51
90.0
  0
LINE
  5
7FCB
  8
FUTO
 10
8231.8802261344754
 20
8296.0310601054662
 30
0.0
 11
8158.3802261344736
 21
8296.0310601054662
 31
0.0
  0
LINE
  5
7FCC
  8
FUTO
 10
8155.3802261344727
 20
8276.0310601054662
 30
0.0
 11
8234.8802261344754
 21
8276.0310601054662
 31
0.0
  0
LINE
  5
7FCD
  8
FUTO
 10
8234.8802261344754
 20
8293.0310601054662
 30
0.0
 11
8234.8802261344754
 21
8276.0310601054662
 31
0.0
  0
LINE
  5
7FCE
  8
FUTO
 10
8240.2774431344733
 20
8301.1743711054642
 30
0.0
 11
8234.8802261344754
 21
8281.0310601054662
 31
0.0
  0
LINE
  5
7FCF
  8
CT
 10
8185.3802261344754
 20
8306.0310601054662
 30
0.0
 11
8185.3802261344754
 21
8266.0310601054662
 31
0.0
  0
LINE
  5
7FD0
  8
FUTO
 10
8155.3802261344727
 20
8350.3577211054671
 30
0.0
 11
8155.3802261344727
 21
8276.0310601054662
 31
0.0
  0
LINE
  5
7FD1
  8
FUTO
 10
8531.2439961344735
 20
8354.4563531054664
 30
0.0
 11
8515.3061301344733
 21
8365.5928281054657
 31
0.0
  0
ARC
  5
7FD2
  8
FUTO
 10
8456.8802261344736
 20
8293.0310601054662
 30
0.0
 40
3.0
 50
90.0
 51
180.0
  0
LINE
  5
7FD3
  8
FUTO
 10
8496.8890151344749
 20
8333.5632871054659
 30
0.0
 11
8493.2969741344732
 21
8337.1553281054657
 31
0.0
  0
LINE
  5
7FD4
  8
FUTO
 10
8496.8890151344749
 20
8333.5632871054659
 30
0.0
 11
8496.8890151344749
 21
8332.7146541054644
 31
0.0
  0
LINE
  5
7FD5
  8
FUTO
 10
8486.8480001344742
 20
8323.5222711054666
 30
0.0
 11
8483.2559591344743
 21
8327.1143121054665
 31
0.0
  0
LINE
  5
7FD6
  8
FUTO
 10
8487.6966331344738
 20
8323.5222711054666
 30
0.0
 11
8486.8480001344742
 21
8323.5222711054666
 31
0.0
  0
LINE
  5
7FD7
  8
FUTO
 10
8489.1355971344765
 20
8325.8096251054667
 30
0.0
 11
8489.1355971344765
 21
8324.9609921054671
 31
0.0
  0
LINE
  5
7FD8
  8
FUTO
 10
8489.1355971344765
 20
8325.8096251054667
 30
0.0
 11
8489.9839861344735
 21
8325.8096251054667
 31
0.0
  0
LINE
  5
7FD9
  8
FUTO
 10
8494.6016621344734
 20
8331.2759331054658
 30
0.0
 11
8495.450295134473
 21
8331.2759331054658
 31
0.0
  0
LINE
  5
7FDA
  8
FUTO
 10
8494.6016621344734
 20
8331.2759331054658
 30
0.0
 11
8494.6016621344734
 21
8330.4273011054665
 31
0.0
  0
LINE
  5
7FDB
  8
FUTO
 10
8489.1355971344765
 20
8325.8096251054667
 30
0.0
 11
8485.543312134474
 21
8329.4016661054666
 31
0.0
  0
LINE
  5
7FDC
  8
FUTO
 10
8483.2559591344743
 20
8327.1143121054665
 30
0.0
 11
8493.2969741344732
 21
8337.1553281054657
 31
0.0
  0
LINE
  5
7FDD
  8
CT
 10
8492.8211441344738
 20
8327.5901421054641
 30
0.0
 11
8487.5730971344747
 21
8332.8381891054669
 31
0.0
  0
LINE
  5
7FDE
  8
FUTO
 10
8487.6966331344738
 20
8323.5222711054666
 30
0.0
 11
8496.8890151344749
 21
8332.7146541054644
 31
0.0
  0
LINE
  5
7FDF
  8
FUTO
 10
8494.6016621344734
 20
8331.2759331054658
 30
0.0
 11
8491.0096211344735
 21
8334.8679741054693
 31
0.0
  0
LINE
  5
7FE0
  8
FUTO
 10
8456.8802261344736
 20
8296.0310601054662
 30
0.0
 11
8530.3802261344736
 21
8296.0310601054662
 31
0.0
  0
LINE
  5
7FE1
  8
FUTO
 10
8453.8802261344736
 20
8293.0310601054662
 30
0.0
 11
8453.8802261344736
 21
8276.0310601054662
 31
0.0
  0
LINE
  5
7FE2
  8
FUTO
 10
8448.4827961344745
 20
8301.1742491054665
 30
0.0
 11
8453.8802261344736
 21
8281.0310601054662
 31
0.0
  0
LINE
  5
7FE3
  8
CT
 10
8503.3802261344717
 20
8306.0310601054662
 30
0.0
 11
8503.3802261344717
 21
8266.0310601054662
 31
0.0
  0
LINE
  5
7FE4
  8
FUTO
 10
8533.3802261344736
 20
8350.3577211054671
 30
0.0
 11
8533.3802261344736
 21
8276.0310601054662
 31
0.0
  0
LINE
  5
7FE5
  8
FUTO
 10
8533.3802261344736
 20
8276.0310601054662
 30
0.0
 11
8453.8802261344736
 21
8276.0310601054662
 31
0.0
  0
ARC
  5
7FE6
  8
FUTO
 10
8528.3802261344736
 20
8350.3577211054671
 30
0.0
 40
5.0000669999999987
 50
0.000000000000007
 51
55.056335000025037
  0
ARC
  5
7FE7
  8
FUTO
 10
8530.3802261344736
 20
8293.0310601054662
 30
0.0
 40
3.0
 50
0.000000000000007
 51
90.0
  0
LINE
  5
7FE8
  8
FUTO
 10
8289.6421891344744
 20
8280.0310601054662
 30
0.0
 11
8399.1182631344727
 21
8280.0310601054662
 31
0.0
  0
ARC
  5
7FEA
  8
FUTO
 10
8344.3802261344736
 20
8476.031060105468
 30
0.0
 40
203.5
 50
285.6036990000095
 51
254.3962400000253
  0
LINE
  5
7FEB
  8
KL
 10
12749.9377054783
 20
8283.5310601054643
 30
0.0
 11
12749.9377054783
 21
8668.4819881054664
 31
0.0
  0
LINE
  5
7FEC
  8
CT
 10
8054.3802261344736
 20
8428.4253471054653
 30
0.0
 11
8054.3802261344736
 21
8389.4314511054672
 31
0.0
  0
LINE
  5
7FED
  8
FUTO
 10
8115.1321791344753
 20
8620.1438531054646
 30
0.0
 11
7996.2610861344738
 21
8400.2129451054643
 31
0.0
  0
LINE
  5
7FEE
  8
FUTO
 10
7994.9059831344721
 20
8399.8086481054688
 30
0.0
 11
7993.4983901344731
 21
8400.5693901054656
 31
0.0
  0
LINE
  5
7FEF
  8
KL
 10
12809.0377424783
 20
8633.6810241054663
 30
0.0
 11
12809.0377424783
 21
8318.8907101054665
 31
0.0
  0
LINE
  5
7FF0
  8
CT
 10
11989.5377424783
 20
8476.031060105468
 30
0.0
 11
12829.0377424783
 21
8476.031060105468
 31
0.0
  0
LINE
  5
7FF1
  8
KL
 10
12687.786460478301
 20
8668.5310601054662
 30
0.0
 11
12748.7267684783
 21
8668.5310601054662
 31
0.0
  0
LINE
  5
7FF2
  8
KL
 10
12684.2376324783
 20
8283.5310601054643
 30
0.0
 11
12748.7267684783
 21
8283.5310601054643
 31
0.0
  0
LINE
  5
7FF3
  8
FUTO
 10
8335.3802261344754
 20
8510.0310601054662
 30
0.0
 11
8353.3802261344736
 21
8510.0310601054662
 31
0.0
  0
LINE
  5
7FF4
  8
FUTO
 10
8335.3802261344736
 20
8499.0310601054643
 30
0.0
 11
8353.3802261344736
 21
8499.0310601054643
 31
0.0
  0
LINE
  5
7FF5
  8
FUTO
 10
8335.3802261344754
 20
8510.0310601054662
 30
0.0
 11
8335.3802261344736
 21
8499.0310601054643
 31
0.0
  0
LINE
  5
7FF6
  8
FUTO
 10
8353.3802261344754
 20
8510.0310601054662
 30
0.0
 11
8353.3802261344736
 21
8499.0310601054643
 31
0.0
  0
LINE
  5
7FF7
  8
CT
 10
8479.3802261344717
 20
12245.769600413059
 30
0.0
 11
8529.3802261344754
 21
12245.769600413059
 31
0.0
  0
LINE
  5
7FF8
  8
CT
 10
8504.3802261344736
 20
12220.769600413059
 30
0.0
 11
8504.3802261344736
 21
12270.769600413059
 31
0.0
  0
LINE
  5
7FF9
  8
CT
 10
8184.3802261344727
 20
12220.769600413059
 30
0.0
 11
8184.3802261344727
 21
12270.769600413059
 31
0.0
  0
LINE
  5
7FFA
  8
CT
 10
8209.3802261344754
 20
12245.769600413059
 30
0.0
 11
8159.3802261344727
 21
12245.769600413059
 31
0.0
  0
LINE
  5
7FFB
  8
CT
 10
8209.3802261344754
 20
12705.769600413059
 30
0.0
 11
8159.3802261344727
 21
12705.769600413059
 31
0.0
  0
LINE
  5
7FFC
  8
CT
 10
8184.3802261344727
 20
12730.769600413059
 30
0.0
 11
8184.3802261344727
 21
12680.769600413059
 31
0.0
  0
LINE
  5
7FFD
  8
CT
 10
8504.3802261344736
 20
12730.769600413059
 30
0.0
 11
8504.3802261344736
 21
12680.769600413059
 31
0.0
  0
LINE
  5
7FFE
  8
CT
 10
8479.3802261344717
 20
12705.769600413059
 30
0.0
 11
8529.3802261344754
 21
12705.769600413059
 31
0.0
  0
LINE
  5
8000
  8
SL
 10
8211.8802261344754
 20
12050.269600413059
 30
0.0
 11
8211.8802261344754
 21
12148.269600413059
 31
0.0
  0
LINE
  5
8001
  8
FUTO
 10
8140.8802261344727
 20
11911.269600413059
 30
0.0
 11
8140.8802261344727
 21
12200.26960041307
 31
0.0
  0
LINE
  5
8002
  8
SL
 10
8476.8802261344717
 20
12050.269600413059
 30
0.0
 11
8476.8802261344717
 21
12148.269600413059
 31
0.0
  0
LINE
  5
8003
  8
SL
 10
8154.3802261344736
 20
12797.80815804122
 30
0.0
 11
8154.3802261344736
 21
12235.26960041307
 31
0.0
  0
LINE
  5
8004
  8
SL
 10
8219.3802261344736
 20
12849.769600413059
 30
0.0
 11
8219.3802261344736
 21
12235.26960041307
 31
0.0
  0
LINE
  5
8005
  8
SL
 10
8469.3802261344754
 20
12849.769600413059
 30
0.0
 11
8469.3802261344736
 21
12235.26960041307
 31
0.0
  0
LINE
  5
8006
  8
SL
 10
8534.3802261344754
 20
12790.669563413059
 30
0.0
 11
8534.3802261344736
 21
12235.26960041307
 31
0.0
  0
LINE
  5
8007
  8
FUTO
 10
8173.3802261344736
 20
13147.269600413059
 30
0.0
 11
8173.3802261344736
 21
14435.26960041307
 31
0.0
  0
LINE
  5
8008
  8
FUTO
 10
8223.3802261344736
 20
13197.269600413059
 30
0.0
 11
8223.3802261344736
 21
14385.26960041307
 31
0.0
  0
LINE
  5
8018
  8
FUTO
 10
8173.3802261344736
 20
14435.26960041307
 30
0.0
 11
10574.38022613447
 21
14435.26960041307
 31
0.0
  0
LINE
  5
8019
  8
FUTO
 10
8173.3802261344736
 20
13147.269600413059
 30
0.0
 11
10574.38022613447
 21
13147.269600413059
 31
0.0
  0
LINE
  5
801A
  8
FUTO
 10
8644.3802261344736
 20
13147.269600413059
 30
0.0
 11
8644.3802261344736
 21
13122.26960041307
 31
0.0
  0
LINE
  5
801C
  8
FUTO
 10
9594.3802261344736
 20
13197.269600413059
 30
0.0
 11
10639.38022613447
 21
13197.269600413059
 31
0.0
  0
LINE
  5
801D
  8
FUTO
 10
9594.3802261344736
 20
14385.26960041307
 30
0.0
 11
10639.38022613447
 21
14385.269600413059
 31
0.0
  0
LINE
  5
8021
  8
FUTO
 10
10574.38022613447
 20
14450.269600413059
 30
0.0
 11
10639.38022613447
 21
14450.269600413059
 31
0.0
  0
LINE
  5
8022
  8
FUTO
 10
10544.38022613447
 20
13147.269600413059
 30
0.0
 11
10544.38022613447
 21
13122.26960041307
 31
0.0
  0
LINE
  5
8025
  8
FUTO
 10
9208.7283532437505
 20
12235.26960041307
 30
0.0
 11
9208.7283532437505
 21
13122.26960041307
 31
0.0
  0
LINE
  5
8027
  8
FUTO
 10
9980.0320990251985
 20
12235.26960041307
 30
0.0
 11
9980.0320990251985
 21
13122.26960041307
 31
0.0
  0
DIMENSION
  5
8095
  8
SP
  2
*D12
 10
7488.7604658208738
 20
14516.26960041307
 30
0.0
 11
7401.260465820872
 21
14153.76960041307
 31
0.0
 70
     0
 13
7831.3802261344736
 23
13791.26960041307
 33
0.0
 14
8729.3802261344736
 24
14516.26960041307
 34
0.0
 50
90.0
1001
ACAD
1000
DSTYLE
1002
{
1070
    40
1040
35.0
1070
    41
1040
2.5
1070
   147
1040
1.0
1002
}
  0
DIMENSION
  5
80A2
  8
SP
  2
*D13
 10
7488.7604658208738
 20
11911.269600413059
 30
0.0
 11
7401.2604658208729
 21
12851.26960041307
 31
0.0
 70
     0
 13
7831.3802261344736
 23
13791.26960041307
 33
0.0
 14
8140.8802261344727
 24
11911.269600413059
 34
0.0
 50
90.0
1001
ACAD
1000
DSTYLE
1002
{
1070
    40
1040
35.0
1070
    41
1040
2.5
1070
   147
1040
1.0
1002
}
  0
LINE
  5
80D6
  8
KL
 10
8654.3802261344736
 20
9295.2090177332939
 30
0.0
 11
8654.3802261344736
 21
8476.4548983003988
 31
0.0
  0
LINE
  5
80D7
  8
KL
 10
8663.3802261344736
 20
9307.9318034972584
 30
0.0
 11
8663.3802261344736
 21
8485.5455031278816
 31
0.0
  0
LINE
  5
80D8
  8
FUTO
 10
8982.9721023807124
 20
9975.0310601054662
 30
0.0
 11
8178.7526816237114
 21
9975.0310601054662
 31
0.0
  0
LINE
  5
80D9
  8
FUTO
 10
8959.5806173903948
 20
9957.0310601054662
 30
0.0
 11
8178.7526816237114
 21
9957.0310601054662
 31
0.0
  0
LINE
  5
80DA
  8
KL
 10
9972.6561861430509
 20
9929.8744828395047
 30
0.0
 11
9794.0345744734732
 21
9951.2276419417631
 31
0.0
  0
LINE
  5
80DB
  8
KL
 10
9970.5196049744136
 20
9912.0017376415835
 30
0.0
 11
9791.8979933048358
 21
9933.3548967438419
 31
0.0
  0
LINE
  5
81A6
  8
FUTO
 10
10597.78990037284
 20
10076.64412788293
 30
0.0
 11
10595.653319204201
 21
10094.516873080849
 31
0.0
  0
LINE
  5
81A7
  8
CT
 10
10596.721609788519
 20
10085.58050048189
 30
0.0
 11
9792.9662838891527
 21
9989.7708508681335
 31
0.0
  0
LINE
  5
81A9
  8
FUTO
 10
8178.7526816237114
 20
9957.0310601054662
 30
0.0
 11
8178.7526816237114
 21
9975.0310601054662
 31
0.0
  0
LINE
  5
81E1
  8
FUTO
 10
14418.737742478301
 20
9867.9513263166173
 30
0.0
 11
14418.737742478301
 21
8216.0310601054662
 31
0.0
  0
LINE
  5
81E2
  8
FUTO
 10
14408.737742478301
 20
10094.58050048189
 30
0.0
 11
14408.737742478301
 21
10076.58050048189
 31
0.0
  0
LINE
  5
81E3
  8
FUTO
 10
13082.337742478299
 20
9916.0310601054662
 30
0.0
 11
13082.337742478299
 21
8216.0310601054662
 31
0.0
  0
LINE
  5
81E4
  8
FUTO
 10
13091.537742478309
 20
8203.0310601054662
 30
0.0
 11
14409.5377424783
 21
8203.0310601054662
 31
0.0
  0
LINE
  5
81FB
  8
FUTO
 10
13157.337742478299
 20
8268.0310601054662
 30
0.0
 11
14343.737742478301
 21
8268.0310601054662
 31
0.0
  0
LINE
  5
8200
  8
FUTO
 10
10639.38022613447
 20
13132.269600413059
 30
0.0
 11
10639.38022613447
 21
14450.269600413059
 31
0.0
  0
LINE
  5
8201
  8
FUTO
 10
10633.38022613447
 20
13132.269600413059
 30
0.0
 11
10633.38022613447
 21
14450.269600413059
 31
0.0
  0
LINE
  5
8202
  8
FUTO
 10
10574.38022613447
 20
13132.269600413059
 30
0.0
 11
10574.38022613447
 21
14450.269600413059
 31
0.0
  0
LINE
  5
8213
  8
FUTO
 10
8044.3802261344754
 20
13197.269600413059
 30
0.0
 11
8173.3802261344736
 21
13197.269600413059
 31
0.0
  0
DIMENSION
  5
8215
  8
SP
  2
*D14
 10
8044.3802261344708
 20
14827.20048939158
 30
0.0
 11
8819.3802261344717
 21
14914.700489391589
 31
0.0
 70
     0
 13
9594.3802261344736
 23
14561.04751222993
 33
0.0
 14
8044.3802261344708
 24
13197.269600413059
 34
0.0
1001
ACAD
1000
DSTYLE
1002
{
1070
    40
1040
35.0
1070
    41
1040
2.5
1070
   147
1040
1.0
1002
}
  0
DIMENSION
  5
8222
  8
SP
  2
*D15
 10
10639.38022613447
 20
14827.20048939158
 30
0.0
 11
10116.88022613447
 21
14914.700489391589
 31
0.0
 70
     0
 13
9594.3802261344736
 23
14561.04751222993
 33
0.0
 14
10639.38022613447
 24
14435.26960041307
 34
0.0
1001
ACAD
1000
DSTYLE
1002
{
1070
    40
1040
35.0
1070
    41
1040
2.5
1070
   147
1040
1.0
1002
}
  0
LINE
  5
82B5
  8
FUTO
 10
10574.38022613447
 20
13132.269600413059
 30
0.0
 11
10639.38022613447
 21
13132.269600413059
 31
0.0
  0
LINE
  5
83BA
  8
FUTO
 10
10219.38022613447
 20
8216.0310601054662
 30
0.0
 11
9980.0320990251985
 21
9858.0310601054662
 31
0.0
  0
LINE
  5
83BB
  8
FUTO
 10
8969.3802261344736
 20
8216.0310601054662
 30
0.0
 11
9068.281416775304
 21
8894.5229162715277
 31
0.0
  0
LINE
  5
83BC
  8
FUTO
 10
8663.3802261344736
 20
8485.5455031278816
 30
0.0
 11
8663.3802261344736
 21
8216.0310601054662
 31
0.0
  0
LINE
  5
83BD
  8
FUTO
 10
8654.3802261344736
 20
8476.4548983004006
 30
0.0
 11
8654.3802261344736
 21
8216.0310601054662
 31
0.0
  0
LINE
  5
83BE
  8
SL
 10
9335.1230616506346
 20
10144.946466551641
 30
0.0
 11
8235.32760932778
 21
8551.289127896318
 31
0.0
  0
LINE
  5
83BF
  8
SL
 10
9815.6426912052102
 20
9741.8259719588732
 30
0.0
 11
8437.4509455689913
 21
8381.7225706469799
 31
0.0
  0
LINE
  5
83C0
  8
FUTO
 10
9284.1532780894977
 20
10185.483197727081
 30
0.0
 11
8164.7751509505406
 21
8603.0822976758809
 31
0.0
  0
LINE
  5
83C1
  8
FUTO
 10
8500.7208800208864
 20
8321.2486323484081
 30
0.0
 11
9864.4231737564623
 21
9698.6795939796393
 31
0.0
  0
LINE
  5
83C2
  8
FUTO
 10
13082.337742478299
 20
11105.031060105461
 30
0.0
 11
14418.737742478301
 21
11105.031060105461
 31
0.0
  0
LINE
  5
83C3
  8
KL
 10
9068.281416775304
 20
8894.5229162715277
 30
0.0
 11
9208.7283532437523
 21
9858.0310601054662
 31
0.0
  0
LINE
  5
83D6
  8
CT
 10
9691.8950070638402
 20
11105.031060105461
 30
0.0
 11
9594.3802261344736
 21
11105.031060105461
 31
0.0
  0
DIMENSION
  5
83D7
  8
SP
  2
*D16
 10
11001.999277869751
 20
9966.0310601054662
 30
0.0
 11
10914.49927786974
 21
10535.531060105461
 31
0.0
 70
     0
 13
9691.8950070638402
 23
11105.031060105461
 33
0.0
 14
10904.043062401841
 24
9966.0310601054662
 34
0.0
 50
90.0
1001
ACAD
1000
DSTYLE
1002
{
1070
    40
1040
35.0
1070
    41
1040
2.5
1070
   147
1040
1.0
1002
}
  0
DIMENSION
  5
83E5
  8
SP
  2
*D17
 10
11001.999277869751
 20
8066.0310601054662
 30
0.0
 11
10914.49927786974
 21
9016.0310601054662
 31
0.0
 70
     0
 13
10904.043062401841
 23
9966.0310601054662
 33
0.0
 14
10544.38022613447
 24
8066.0310601054662
 34
0.0
 50
90.0
1001
ACAD
1000
DSTYLE
1002
{
1070
    40
1040
35.0
1070
    41
1040
2.5
1070
   147
1040
1.0
1002
}
  0
DIMENSION
  5
83F2
  8
SP
  2
*D18
 10
10639.38022613447
 20
11425.60508172244
 30
0.0
 11
10116.88022613447
 21
11513.10508172244
 31
0.0
 70
     0
 13
9594.3802261344736
 23
11361.743283176709
 33
0.0
 14
10639.38022613447
 24
9989.0310601054662
 34
0.0
 50
180.0
1001
ACAD
1000
DSTYLE
1002
{
1070
    40
1040
35.0
1070
    41
1040
2.5
1070
   147
1040
1.0
1002
}
  0
LINE
  5
849A
  8
FUTO
 10
13092.337742478299
 20
10085.58050048189
 30
0.0
 11
14408.737742478301
 21
10085.58050048189
 31
0.0
  0
LINE
  5
849B
  8
FUTO
 10
14418.737742478301
 20
10066.58050048189
 30
0.0
 11
14418.737742478301
 21
9966.0310601054662
 31
0.0
  0
LINE
  5
849C
  8
FUTO
 10
13082.337742478299
 20
10066.580500481899
 30
0.0
 11
13082.337742478299
 21
9966.0310601054662
 31
0.0
  0
LINE
  5
849D
  8
FUTO
 10
13157.337742478299
 20
8203.0310601054662
 30
0.0
 11
14343.737742478301
 21
8203.0310601054662
 31
0.0
  0
LINE
  5
84AD
  8
FUTO
 10
13092.337742478299
 20
9989.0310601054662
 30
0.0
 11
13092.337742478299
 21
8216.0310601054662
 31
0.0
  0
LINE
  5
84AE
  8
FUTO
 10
14408.737742478301
 20
9989.0310601054662
 30
0.0
 11
14408.737742478301
 21
8216.0310601054662
 31
0.0
  0
LINE
  5
84AF
  8
FUTO
 10
13157.337742478299
 20
9924.0310601054662
 30
0.0
 11
14343.737742478301
 21
9924.0310601054662
 31
0.0
  0
LINE
  5
84B0
  8
FUTO
 10
13092.337742478299
 20
9989.0310601054662
 30
0.0
 11
14408.737742478301
 21
9989.0310601054662
 31
0.0
  0
ARC
  5
84B2
  8
FUTO
 10
9710.3802261344754
 20
9850.0310601054662
 30
0.0
 40
1505.0
 50
233.53683757454129
 51
242.40115054885879
  0
TEXT
  5
8F13
  8
SP
 10
15929.44720314695
 20
9704.7458973471694
 30
0.0
 40
100.0
  1
 
  0
LINE
  5
8F14
  8
4
 10
15030.697634173781
 20
6103.69267005863
 30
0.0
 11
15030.697634173781
 21
5103.69267005863
 31
0.0
  0
LINE
  5
8F15
  8
4
 10
11530.697634173781
 20
6103.69267005863
 30
0.0
 11
11530.697634173781
 21
5103.69267005863
 31
0.0
  0
LINE
  5
8F16
  8
4
 10
9030.6976341737864
 20
6103.69267005863
 30
0.0
 11
9030.6976341737882
 21
5103.69267005863
 31
0.0
  0
LINE
  5
8F19
  8
4
 10
9030.6976341737864
 20
5103.69267005863
 30
0.0
 11
15030.697634173781
 21
5103.69267005863
 31
0.0
  0
LINE
  5
8F1A
  8
4
 10
9030.6976341737864
 20
5603.69267005863
 30
0.0
 11
15030.697634173781
 21
5603.69267005863
 31
0.0
  0
TEXT
  5
8F1B
  8
4
 10
9223.2080384083074
 20
5761.4077993916972
 30
0.0
 40
250.0
  1
機器名称
  0
TEXT
  5
8F1C
  8
4
 10
9211.9881642977816
 20
5211.9184537186838
 30
0.0
 40
250.0
  1
機器型番
  0
TEXT
  5
8F1D
  8
4
 10
11554.66294267899
 20
5714.6291818433674
 30
0.0
 40
225.0
  1
ミツヤリミットロードファン
  0
TEXT
  5
8F1E
  8
4
 10
11713.9701121012
 20
5189.4905914583469
 30
0.0
 40
250.0
  1
LL#10-1
  0
TEXT
  5
8F20
  8
4
 10
9793.7964257228996
 20
15520.8368767212
 30
0.0
 40
270.0
  1
床置ベット
  0
TEXT
  5
8F21
  8
4
 10
7361.5356008210174
 20
16273.09755105512
 30
0.0
 40
360.0
  1
遠心式片吸込片持リミットロードファン
  0
LINE
  5
8F22
  8
4
 10
7030.6976341737854
 20
15950.736441382651
 30
0.0
 11
15030.697634173781
 21
15950.736441382651
 31
0.0
  0
LINE
  5
8F23
  8
4
 10
7030.6976341737854
 20
16950.736441382651
 30
0.0
 11
15030.697634173781
 21
16950.736441382651
 31
0.0
  0
LINE
  5
8F24
  8
4
 10
9030.6976341737864
 20
6103.69267005863
 30
0.0
 11
15030.697634173781
 21
6103.69267005863
 31
0.0
  0
LINE
  5
8F25
  8
4
 10
7030.6976341737854
 20
16950.736441382651
 30
0.0
 11
7030.6976341737854
 21
15950.736441382651
 31
0.0
  0
TEXT
  5
8F26
  8
4
 10
7476.5652149291518
 20
15515.29005779034
 30
0.0
 40
270.0
  1
左回転右横向
  0
TEXT
  5
8F27
  8
4
 10
13125.545430420239
 20
17133.998077535169
 30
0.0
 40
280.0
  1
No.
  0
TEXT
  5
8F28
  8
4
 10
13192.476857430551
 20
15024.572033711011
 30
0.0
 40
270.0
  1
縮尺：1/50
  0
LINE
  5
8F29
  8
4
 10
15030.697634173781
 20
16950.736441382651
 30
0.0
 11
15030.697634173781
 21
15950.736441382651
 31
0.0
  0
LINE
  5
8F2A
  8
4
 10
16280.697634173781
 20
18353.692670058619
 30
0.0
 11
16280.697634173781
 21
18353.692670058619
 31
0.0
  0
LINE
  5
8F2B
  8
4
 10
12983.784745973109
 20
17010.010585685632
 30
0.0
 11
12983.784745973109
 21
17536.953977807389
 31
0.0
  0
LINE
  5
8F2C
  8
4
 10
12983.784745973109
 20
17536.953977807389
 30
0.0
 11
15030.697634173781
 21
17536.953977807389
 31
0.0
  0
LINE
  5
8F2D
  8
4
 10
15030.697634173781
 20
17536.953977807389
 30
0.0
 11
15030.697634173781
 21
17010.010585685632
 31
0.0
  0
LINE
  5
8F2E
  8
4
 10
15030.697634173781
 20
17010.010585685632
 30
0.0
 11
12983.784745973109
 21
17010.010585685632
 31
0.0
  0
LINE
  5
8F2F
  8
4
 10
5780.6976341737864
 20
3603.69267005863
 30
0.0
 11
5780.6976341737864
 21
18353.692670058619
 31
0.0
  0
LINE
  5
8F30
  8
4
 10
5780.6976341737864
 20
18353.692670058619
 30
0.0
 11
16280.697634173781
 21
18353.692670058619
 31
0.0
  0
LINE
  5
8F31
  8
4
 10
16280.697634173781
 20
18353.692670058619
 30
0.0
 11
16280.697634173781
 21
3603.69267005863
 31
0.0
  0
LINE
  5
8F32
  8
4
 10
16280.697634173781
 20
3603.69267005863
 30
0.0
 11
5780.6976341737864
 21
3603.69267005863
 31
0.0
  0
ENDSEC
  0
EOF
