  0
SECTION
  2
HEADER
  9
$ACADVER
  1
AC1009
  9
$INSBASE
 10
0.0
 20
0.0
 30
0.0
  9
$EXTMIN
 10
5824.3301699994099
 20
3127.1569893464371
 30
0.0
  9
$EXTMAX
 10
16324.33016999941
 20
17877.156989346429
 30
0.0
  9
$LIMMIN
 10
0.0
 20
0.0
  9
$LIMMAX
 10
297.0
 20
210.0
  9
$ORTHOMODE
 70
     0
  9
$REGENMODE
 70
     1
  9
$FILLMODE
 70
     1
  9
$QTEXTMODE
 70
     0
  9
$MIRRTEXT
 70
     0
  9
$DRAGMODE
 70
     2
  9
$LTSCALE
 40
175.0
  9
$OSMODE
 70
    37
  9
$ATTMODE
 70
     1
  9
$TEXTSIZE
 40
150.0
  9
$TRACEWID
 40
0.05
  9
$TEXTSTYLE
  7
STANDARD
  9
$CLAYER
  8
FUTO
  9
$CELTYPE
  6
BYLAYER
  9
$CECOLOR
 62
   256
  9
$DIMSCALE
 40
35.0
  9
$DIMASZ
 40
2.5
  9
$DIMEXO
 40
1.0
  9
$DIMDLI
 40
10.0
  9
$DIMRND
 40
0.0
  9
$DIMDLE
 40
0.0
  9
$DIMEXE
 40
1.0
  9
$DIMTP
 40
0.0
  9
$DIMTM
 40
0.0
  9
$DIMTXT
 40
3.0
  9
$DIMCEN
 40
0.0
  9
$DIMTSZ
 40
0.0
  9
$DIMTOL
 70
     0
  9
$DIMLIM
 70
     0
  9
$DIMTIH
 70
     0
  9
$DIMTOH
 70
     0
  9
$DIMSE1
 70
     0
  9
$DIMSE2
 70
     0
  9
$DIMTAD
 70
     1
  9
$DIMZIN
 70
     8
  9
$DIMBLK
  1

  9
$DIMASO
 70
     1
  9
$DIMSHO
 70
     1
  9
$DIMPOST
  1

  9
$DIMAPOST
  1

  9
$DIMALT
 70
     0
  9
$DIMALTD
 70
     2
  9
$DIMALTF
 40
0.03937
  9
$DIMLFAC
 40
1.0
  9
$DIMTOFL
 70
     1
  9
$DIMTVP
 40
0.0
  9
$DIMTIX
 70
     0
  9
$DIMSOXD
 70
     0
  9
$DIMSAH
 70
     1
  9
$DIMBLK1
  1
OPEN
  9
$DIMBLK2
  1
OPEN
  9
$DIMSTYLE
  2
MATSU
  9
$DIMCLRD
 70
   256
  9
$DIMCLRE
 70
   256
  9
$DIMCLRT
 70
   256
  9
$DIMTFAC
 40
1.0
  9
$DIMGAP
 40
1.0
  9
$LUNITS
 70
     2
  9
$LUPREC
 70
     4
  9
$SKETCHINC
 40
0.1
  9
$FILLETRAD
 40
30.0
  9
$AUNITS
 70
     0
  9
$AUPREC
 70
     2
  9
$MENU
  1
acad
  9
$ELEVATION
 40
0.0
  9
$PELEVATION
 40
0.0
  9
$THICKNESS
 40
0.0
  9
$LIMCHECK
 70
     0
  9
$BLIPMODE
 70
     0
  9
$CHAMFERA
 40
8.0
  9
$CHAMFERB
 40
8.0
  9
$SKPOLY
 70
     0
  9
$TDCREATE
 40
2453957.375965347
  9
$TDUPDATE
 40
2454953.649300301
  9
$TDINDWG
 40
0.1353083449
  9
$TDUSRTIMER
 40
0.1353083449
  9
$USRTIMER
 70
     1
  9
$ANGBASE
 50
0.0
  9
$ANGDIR
 70
     0
  9
$PDMODE
 70
     0
  9
$PDSIZE
 40
1.0
  9
$PLINEWID
 40
0.0
  9
$COORDS
 70
     1
  9
$SPLFRAME
 70
     0
  9
$SPLINETYPE
 70
     6
  9
$SPLINESEGS
 70
     8
  9
$ATTDIA
 70
     0
  9
$ATTREQ
 70
     1
  9
$HANDLING
 70
 10241
  9
$HANDSEED
  5
8CCD
  9
$SURFTAB1
 70
     6
  9
$SURFTAB2
 70
     6
  9
$SURFTYPE
 70
     6
  9
$SURFU
 70
     6
  9
$SURFV
 70
     6
  9
$UCSNAME
  2

  9
$UCSORG
 10
0.0
 20
-0.0000000000000142
 30
0.0
  9
$UCSXDIR
 10
1.0
 20
0.0
 30
0.0
  9
$UCSYDIR
 10
0.0
 20
1.0
 30
0.0
  9
$PUCSNAME
  2

  9
$PUCSORG
 10
0.0
 20
0.0
 30
0.0
  9
$PUCSXDIR
 10
1.0
 20
0.0
 30
0.0
  9
$PUCSYDIR
 10
0.0
 20
1.0
 30
0.0
  9
$USERI1
 70
     0
  9
$USERI2
 70
     0
  9
$USERI3
 70
     0
  9
$USERI4
 70
     0
  9
$USERI5
 70
     0
  9
$USERR1
 40
0.0
  9
$USERR2
 40
0.0
  9
$USERR3
 40
0.0
  9
$USERR4
 40
0.0
  9
$USERR5
 40
0.0
  9
$WORLDVIEW
 70
     1
  9
$SHADEDGE
 70
     3
  9
$SHADEDIF
 70
    70
  9
$TILEMODE
 70
     1
  9
$MAXACTVP
 70
    16
  9
$PLIMCHECK
 70
     0
  9
$PEXTMIN
 10
1.0000000000000000E+020
 20
1.0000000000000000E+020
 30
1.0000000000000000E+020
  9
$PEXTMAX
 10
-1.0000000000000000E+020
 20
-1.0000000000000000E+020
 30
-1.0000000000000000E+020
  9
$PLIMMIN
 10
0.0
 20
0.0
  9
$PLIMMAX
 10
12.0
 20
9.0
  9
$UNITMODE
 70
     0
  9
$VISRETAIN
 70
     0
  9
$PLINEGEN
 70
     0
  9
$PSLTSCALE
 70
     0
  0
ENDSEC
  0
SECTION
  2
TABLES
  0
TABLE
  2
VPORT
 70
     2
  0
VPORT
  2
*ACTIVE
 70
     0
 10
0.0
 20
0.0
 11
1.0
 21
1.0
 12
15534.02606487921
 22
4869.0770539723417
 13
0.0
 23
0.0
 14
5.0
 24
5.0
 15
0.0
 25
0.0
 16
0.0
 26
0.0
 36
1.0
 17
0.0
 27
0.0
 37
0.0
 40
4280.3716386010492
 41
3.1666666666666661
 42
50.0
 43
0.0
 44
0.0
 50
0.0
 51
0.0
 71
     0
 72
   100
 73
     1
 74
     0
 75
     0
 76
     0
 77
     0
 78
     0
  0
ENDTAB
  0
TABLE
  2
LTYPE
 70
     4
  0
LTYPE
  2
CONTINUOUS
 70
     0
  3
Solid line
 72
    65
 73
     0
 40
0.0
  0
LTYPE
  2
CENTER
 70
     0
  3
____ _ ____ _ ____ _ ____ _ ____ _ ____ _ ____ 
 72
    65
 73
     4
 40
2.0
 49
1.25
 49
-0.25
 49
0.25
 49
-0.25
  0
LTYPE
  2
HIDDEN
 70
     0
  3
__ __ __ __ __ __ __ __ __ __ __ __ __ __ __ __
 72
    65
 73
     2
 40
0.375
 49
0.25
 49
-0.125
  0
LTYPE
  2
PHANTOM
 70
     0
  3
______  __  __  ______  __  __  ______  __  __ 
 72
    65
 73
     6
 40
2.5
 49
1.25
 49
-0.25
 49
0.25
 49
-0.25
 49
0.25
 49
-0.25
  0
ENDTAB
  0
TABLE
  2
LAYER
 70
     9
  0
LAYER
  2
0
 70
     0
 62
     7
  6
CONTINUOUS
  0
LAYER
  2
CT
 70
     0
 62
     3
  6
CENTER
  0
LAYER
  2
FUTO
 70
     0
 62
     4
  6
CONTINUOUS
  0
LAYER
  2
HOSO
 70
     0
 62
     7
  6
CONTINUOUS
  0
LAYER
  2
KL
 70
     0
 62
     7
  6
HIDDEN
  0
LAYER
  2
SL
 70
     0
 62
     1
  6
PHANTOM
  0
LAYER
  2
SP
 70
     0
 62
     2
  6
CONTINUOUS
  0
LAYER
  2
DEFPOINTS
 70
     0
 62
     7
  6
CONTINUOUS
  0
LAYER
  2
4
 70
     0
 62
     7
  6
CONTINUOUS
  0
ENDTAB
  0
TABLE
  2
STYLE
 70
     1
  0
STYLE
  2
STANDARD
 70
     0
 40
0.0
 41
1.0
 50
15.0
 71
     0
 42
150.0
  3
C:\Program Files\AutoCAD LT\simplex.shx
  4
extfont.shx
  0
ENDTAB
  0
TABLE
  2
VIEW
 70
     0
  0
ENDTAB
  0
TABLE
  2
UCS
 70
     0
  0
ENDTAB
  0
TABLE
  2
APPID
 70
     1
  0
APPID
  2
ACAD
 70
     0
  0
ENDTAB
  0
TABLE
  2
DIMSTYLE
 70
     2
  0
DIMSTYLE
  2
STANDARD
 70
     0
  3

  4

  5

  6

  7

 40
1.0
 41
0.18
 42
0.0625
 43
0.38
 44
0.18
 45
0.0
 46
0.0
 47
0.0
 48
0.0
140
0.18
141
0.09
142
0.0
143
25.399999999999999
144
1.0
145
0.0
146
1.0
147
0.09
 71
     0
 72
     0
 73
     1
 74
     1
 75
     0
 76
     0
 77
     0
 78
     0
170
     0
171
     2
172
     0
173
     0
174
     0
175
     0
176
     0
177
     0
178
     0
  0
DIMSTYLE
  2
MATSU
 70
     0
  3

  4

  5

  6
OPEN
  7
OPEN
 40
1.0
 41
2.0
 42
1.0
 43
10.0
 44
1.0
 45
0.0
 46
0.0
 47
0.0
 48
0.0
140
3.0
141
0.0
142
0.0
143
0.03937
144
1.0
145
0.0
146
1.0
147
0.5
 71
     0
 72
     0
 73
     0
 74
     0
 75
     0
 76
     0
 77
     1
 78
     8
170
     0
171
     2
172
     1
173
     1
174
     0
175
     0
176
   256
177
   256
178
   256
  0
ENDTAB
  0
ENDSEC
  0
SECTION
  2
BLOCKS
  0
BLOCK
  8
0
  2
$MODEL_SPACE
 70
     0
 10
0.0
 20
0.0
 30
0.0
  3
$MODEL_SPACE
  1

  0
ENDBLK
  5
1B
  8
0
  0
BLOCK
 67
     1
  8
0
  2
$PAPER_SPACE
 70
     0
 10
0.0
 20
0.0
 30
0.0
  3
$PAPER_SPACE
  1

  0
ENDBLK
  5
18
 67
     1
  8
0
  0
BLOCK
  8
0
  2
_OPEN
 70
     0
 10
0.0
 20
0.0
 30
0.0
  3
_OPEN
  1

  0
LINE
  5
28
  8
0
  6
BYBLOCK
 62
     0
 10
-1.0
 20
0.1666666666666666
 30
0.0
 11
0.0
 21
0.0
 31
0.0
  0
LINE
  5
29
  8
0
  6
BYBLOCK
 62
     0
 10
0.0
 20
0.0
 30
0.0
 11
-1.0
 21
-0.1666666666666666
 31
0.0
  0
LINE
  5
2A
  8
0
  6
BYBLOCK
 62
     0
 10
0.0
 20
0.0
 30
0.0
 11
-1.0
 21
0.0
 31
0.0
  0
ENDBLK
  5
2B
  8
0
  0
BLOCK
  8
0
  2
まっすぐの矢印
 70
     0
 10
0.0
 20
0.0
 30
0.0
  3
まっすぐの矢印
  1

  0
LINE
  5
56E2
  8
SP
 10
0.6962157491662495
 20
-2.216890595009601
 30
0.0
 11
0.6962157491662495
 21
-5.0
 31
0.0
  0
LINE
  5
56E3
  8
SP
 10
0.6962157491662495
 20
-5.0
 30
0.0
 11
-0.6962157491662495
 21
-5.0
 31
0.0
  0
LINE
  5
56E4
  8
SP
 10
-0.6962157491662495
 20
-5.0
 30
0.0
 11
-0.6962157491662495
 21
-2.216890595009601
 31
0.0
  0
LINE
  5
56E5
  8
SP
 10
-0.6962157491662495
 20
-2.216890595009601
 30
0.0
 11
-1.7145256852758151
 21
-2.216890595009601
 31
0.0
  0
LINE
  5
56E6
  8
SP
 10
-1.7145256852758151
 20
-2.216890595009601
 30
0.0
 11
0.0
 21
0.0
 31
0.0
  0
LINE
  5
56E7
  8
SP
 10
0.0
 20
0.0
 30
0.0
 11
1.7145256852758151
 21
-2.216890595009601
 31
0.0
  0
LINE
  5
56E8
  8
SP
 10
1.7145256852758151
 20
-2.216890595009601
 30
0.0
 11
0.6962157491662495
 21
-2.216890595009601
 31
0.0
  0
ENDBLK
  5
56EA
  8
0
  0
BLOCK
  8
0
  2
右回転矢印
 70
     0
 10
0.0
 20
0.0
 30
0.0
  3
右回転矢印
  1

  0
LINE
  5
56EC
  8
SP
 10
-2.7705290305565882
 20
1.567794835092901
 30
0.0
 11
-2.4288000558398148
 21
2.8051227455822878
 31
0.0
  0
LINE
  5
56ED
  8
SP
 10
-2.4288000558398148
 20
2.8051227455822878
 30
0.0
 11
0.0
 21
0.0
 31
0.0
  0
LINE
  5
56EE
  8
SP
 10
0.0
 20
0.0
 30
0.0
 11
-3.3160037613098718
 21
-0.4072531086382499
 31
0.0
  0
LINE
  5
56EF
  8
SP
 10
-3.3160037613098718
 20
-0.4072531086382499
 30
0.0
 11
-3.0391574735299112
 21
0.5951483970269315
 31
0.0
  0
ARC
  5
56F0
  8
SP
 10
-5.9215210782018062
 20
-9.8412769578768184
 30
0.0
 40
10.82714154973578
 50
74.560750721316467
 51
112.11861101078711
  0
LINE
  5
56F1
  8
SP
 10
-9.9982127316752951
 20
0.1890560027239694
 30
0.0
 11
-10.37814929817227
 21
1.1238557349100611
 31
0.0
  0
ARC
  5
56F2
  8
SP
 10
-5.9215210782018062
 20
-9.8412769578768291
 30
0.0
 40
11.83620167374065
 50
74.560750721316396
 51
112.11861101078701
  0
ENDBLK
  5
56F4
  8
0
  0
BLOCK
  8
0
  2
*D3
 70
     1
 10
0.0
 20
0.0
 30
0.0
  3
*D3
  1

  0
LINE
  5
8C33
  8
SP
 10
8182.3488018678763
 20
7546.7391744168444
 30
0.0
 11
8182.3488018678763
 21
7296.2268642337413
 31
0.0
  0
LINE
  5
8C34
  8
SP
 10
9132.3488018678745
 20
7546.7391744168444
 30
0.0
 11
9132.3488018678745
 21
7296.2268642337413
 31
0.0
  0
LINE
  5
8C35
  8
SP
 10
8269.8488018678763
 20
7331.2268642337403
 30
0.0
 11
9044.8488018678763
 21
7331.2268642337403
 31
0.0
  0
INSERT
  5
8C36
  8
SP
  2
_OPEN
 10
8182.3488018678763
 20
7331.2268642337403
 30
0.0
 41
87.5
 42
87.5
 43
87.5
 50
180.0
  0
INSERT
  5
8C37
  8
SP
  2
_OPEN
 10
9132.3488018678745
 20
7331.2268642337403
 30
0.0
 41
87.5
 42
87.5
 43
87.5
  0
TEXT
  5
8C38
  8
FUTO
 10
8508.9513422463206
 20
7366.2268642337413
 30
0.0
 40
105.0
  1
950
 51
15.0
  0
POINT
  5
8C39
  8
DEFPOINTS
 62
     0
 10
8182.3488018678763
 20
7581.7391744168426
 30
0.0
  0
POINT
  5
8C3A
  8
DEFPOINTS
 62
     0
 10
9132.3488018678745
 20
7581.7391744168426
 30
0.0
  0
POINT
  5
8C3B
  8
DEFPOINTS
 62
     0
 10
9132.3488018678745
 20
7331.2268642337403
 30
0.0
  0
ENDBLK
  5
6A60
  8
0
  0
BLOCK
  8
0
  2
*D4
 70
     1
 10
0.0
 20
0.0
 30
0.0
  3
*D4
  1

  0
LINE
  5
8C45
  8
SP
 10
9132.3488018678745
 20
7546.7391744168444
 30
0.0
 11
9132.3488018678745
 21
7296.2268642337413
 31
0.0
  0
LINE
  5
8C46
  8
SP
 10
10682.348801867871
 20
7546.7391744168444
 30
0.0
 11
10682.348801867871
 21
7296.2268642337413
 31
0.0
  0
LINE
  5
8C47
  8
SP
 10
9219.8488018678745
 20
7331.2268642337403
 30
0.0
 11
10594.848801867871
 21
7331.2268642337403
 31
0.0
  0
INSERT
  5
8C48
  8
SP
  2
_OPEN
 10
9132.3488018678745
 20
7331.2268642337403
 30
0.0
 41
87.5
 42
87.5
 43
87.5
 50
180.0
  0
INSERT
  5
8C49
  8
SP
  2
_OPEN
 10
10682.348801867871
 20
7331.2268642337403
 30
0.0
 41
87.5
 42
87.5
 43
87.5
  0
TEXT
  5
8C4A
  8
FUTO
 10
9712.0731205112334
 20
7366.2268642337413
 30
0.0
 40
105.0
  1
1550
 51
15.0
  0
POINT
  5
8C4B
  8
DEFPOINTS
 62
     0
 10
9132.3488018678745
 20
7581.7391744168426
 30
0.0
  0
POINT
  5
8C4C
  8
DEFPOINTS
 62
     0
 10
10682.348801867871
 20
7581.7391744168426
 30
0.0
  0
POINT
  5
8C4D
  8
DEFPOINTS
 62
     0
 10
10682.348801867871
 20
7331.2268642337403
 30
0.0
  0
ENDBLK
  5
6A6D
  8
0
  0
BLOCK
  8
0
  2
*D5
 70
     1
 10
0.0
 20
0.0
 30
0.0
  3
*D5
  1

  0
LINE
  5
8C2A
  8
SP
 10
8182.3488018678763
 20
7546.7391744168444
 30
0.0
 11
8182.3488018678763
 21
7046.1391202360828
 31
0.0
  0
LINE
  5
8C2B
  8
SP
 10
10682.348801867871
 20
7546.7391744168444
 30
0.0
 11
10682.348801867871
 21
7046.1391202360828
 31
0.0
  0
LINE
  5
8C2C
  8
SP
 10
8269.8488018678763
 20
7081.1391202360819
 30
0.0
 11
10594.848801867871
 21
7081.1391202360819
 31
0.0
  0
INSERT
  5
8C2D
  8
SP
  2
_OPEN
 10
8182.3488018678763
 20
7081.1391202360819
 30
0.0
 41
87.5
 42
87.5
 43
87.5
 50
180.0
  0
INSERT
  5
8C2E
  8
SP
  2
_OPEN
 10
10682.348801867871
 20
7081.1391202360819
 30
0.0
 41
87.5
 42
87.5
 43
87.5
  0
TEXT
  5
8C2F
  8
FUTO
 10
9238.4609611895539
 20
7116.1391202360828
 30
0.0
 40
105.0
  1
2500
 51
15.0
  0
POINT
  5
8C30
  8
DEFPOINTS
 62
     0
 10
8182.3488018678763
 20
7581.7391744168426
 30
0.0
  0
POINT
  5
8C31
  8
DEFPOINTS
 62
     0
 10
10682.348801867871
 20
7581.7391744168426
 30
0.0
  0
POINT
  5
8C32
  8
DEFPOINTS
 62
     0
 10
10682.348801867871
 20
7081.1391202360819
 30
0.0
  0
ENDBLK
  5
6A7A
  8
0
  0
BLOCK
  8
0
  2
*D6
 70
     1
 10
0.0
 20
0.0
 30
0.0
  3
*D6
  1

  0
LINE
  5
8C95
  8
SP
 10
12493.3573519499
 20
7546.7391744168417
 30
0.0
 11
12493.3573519499
 21
7296.2268408459031
 31
0.0
  0
LINE
  5
8C96
  8
SP
 10
14124.3573519499
 20
7546.7391744168444
 30
0.0
 11
14124.3573519499
 21
7296.2268408459031
 31
0.0
  0
LINE
  5
8C97
  8
SP
 10
12580.8573519499
 20
7331.2268408459022
 30
0.0
 11
14036.8573519499
 21
7331.2268408459022
 31
0.0
  0
INSERT
  5
8C98
  8
SP
  2
_OPEN
 10
12493.3573519499
 20
7331.2268408459022
 30
0.0
 41
87.5
 42
87.5
 43
87.5
 50
180.0
  0
INSERT
  5
8C99
  8
SP
  2
_OPEN
 10
14124.3573519499
 20
7331.2268408459022
 30
0.0
 41
87.5
 42
87.5
 43
87.5
  0
TEXT
  5
8C9A
  8
FUTO
 10
13130.90217866895
 20
7366.2268408459031
 30
0.0
 40
105.0
  1
1631
 51
15.0
  0
POINT
  5
8C9B
  8
DEFPOINTS
 62
     0
 10
12493.3573519499
 20
7581.7391744168426
 30
0.0
  0
POINT
  5
8C9C
  8
DEFPOINTS
 62
     0
 10
14124.3573519499
 20
7581.7391744168426
 30
0.0
  0
POINT
  5
8C9D
  8
DEFPOINTS
 62
     0
 10
14124.3573519499
 20
7331.2268408459022
 30
0.0
  0
ENDBLK
  5
6A87
  8
0
  0
BLOCK
  8
0
  2
*D7
 70
     1
 10
0.0
 20
0.0
 30
0.0
  3
*D7
  1

  0
LINE
  5
8CA7
  8
SP
 10
14124.3573519499
 20
7546.7391744168444
 30
0.0
 11
14124.3573519499
 21
7296.2268408459031
 31
0.0
  0
LINE
  5
8CA8
  8
SP
 10
14793.3573519499
 20
7546.7391744168417
 30
0.0
 11
14793.3573519499
 21
7296.2268408459031
 31
0.0
  0
LINE
  5
8CA9
  8
SP
 10
14211.8573519499
 20
7331.2268408459022
 30
0.0
 11
14705.8573519499
 21
7331.2268408459022
 31
0.0
  0
INSERT
  5
8CAA
  8
SP
  2
_OPEN
 10
14124.3573519499
 20
7331.2268408459022
 30
0.0
 41
87.5
 42
87.5
 43
87.5
 50
180.0
  0
INSERT
  5
8CAB
  8
SP
  2
_OPEN
 10
14793.3573519499
 20
7331.2268408459022
 30
0.0
 41
87.5
 42
87.5
 43
87.5
  0
TEXT
  5
8CAC
  8
FUTO
 10
14312.290019347271
 20
7366.2268408459031
 30
0.0
 40
105.0
  1
669
 51
15.0
  0
POINT
  5
8CAD
  8
DEFPOINTS
 62
     0
 10
14124.3573519499
 20
7581.7391744168426
 30
0.0
  0
POINT
  5
8CAE
  8
DEFPOINTS
 62
     0
 10
14793.3573519499
 20
7581.7391744168426
 30
0.0
  0
POINT
  5
8CAF
  8
DEFPOINTS
 62
     0
 10
14793.3573519499
 20
7331.2268408459022
 30
0.0
  0
ENDBLK
  5
6A94
  8
0
  0
BLOCK
  8
0
  2
*D8
 70
     1
 10
0.0
 20
0.0
 30
0.0
  3
*D8
  1

  0
LINE
  5
8C8C
  8
SP
 10
12493.3573519499
 20
7546.7391744168417
 30
0.0
 11
12493.3573519499
 21
7046.1390968482447
 31
0.0
  0
LINE
  5
8C8D
  8
SP
 10
14793.3573519499
 20
7546.7391744168417
 30
0.0
 11
14793.3573519499
 21
7046.1390968482447
 31
0.0
  0
LINE
  5
8C8E
  8
SP
 10
12580.8573519499
 20
7081.1390968482438
 30
0.0
 11
14705.8573519499
 21
7081.1390968482438
 31
0.0
  0
INSERT
  5
8C8F
  8
SP
  2
_OPEN
 10
12493.3573519499
 20
7081.1390968482438
 30
0.0
 41
87.5
 42
87.5
 43
87.5
 50
180.0
  0
INSERT
  5
8C90
  8
SP
  2
_OPEN
 10
14793.3573519499
 20
7081.1390968482438
 30
0.0
 41
87.5
 42
87.5
 43
87.5
  0
TEXT
  5
8C91
  8
FUTO
 10
13449.46951127158
 20
7116.1390968482447
 30
0.0
 40
105.0
  1
2300
 51
15.0
  0
POINT
  5
8C92
  8
DEFPOINTS
 62
     0
 10
12493.3573519499
 20
7581.7391744168426
 30
0.0
  0
POINT
  5
8C93
  8
DEFPOINTS
 62
     0
 10
14793.3573519499
 20
7581.7391744168426
 30
0.0
  0
POINT
  5
8C94
  8
DEFPOINTS
 62
     0
 10
14793.3573519499
 20
7081.1390968482438
 30
0.0
  0
ENDBLK
  5
6AA1
  8
0
  0
BLOCK
  8
0
  2
*D9
 70
     1
 10
0.0
 20
0.0
 30
0.0
  3
*D9
  1

  0
LINE
  5
8CB0
  8
SP
 10
14124.3573519499
 20
10338.998176545691
 30
0.0
 11
14124.3573519499
 21
10384.97055609466
 31
0.0
  0
LINE
  5
8CB1
  8
SP
 10
14849.3573519499
 20
9881.7391744168435
 30
0.0
 11
14849.3573519499
 21
10384.97055609466
 31
0.0
  0
LINE
  5
8CB2
  8
SP
 10
14211.8573519499
 20
10349.97055609466
 30
0.0
 11
14761.8573519499
 21
10349.97055609466
 31
0.0
  0
INSERT
  5
8CB3
  8
SP
  2
_OPEN
 10
14124.3573519499
 20
10349.97055609466
 30
0.0
 41
87.5
 42
87.5
 43
87.5
 50
180.0
  0
INSERT
  5
8CB4
  8
SP
  2
_OPEN
 10
14849.3573519499
 20
10349.97055609466
 30
0.0
 41
87.5
 42
87.5
 43
87.5
  0
TEXT
  5
8CB5
  8
FUTO
 10
14332.790019347271
 20
10384.97055609466
 30
0.0
 40
105.0
  1
725
 51
15.0
  0
POINT
  5
8CB6
  8
DEFPOINTS
 62
     0
 10
14124.3573519499
 20
10303.998176545691
 30
0.0
  0
POINT
  5
8CB7
  8
DEFPOINTS
 62
     0
 10
14849.3573519499
 20
9846.7391744168435
 30
0.0
  0
POINT
  5
8CB8
  8
DEFPOINTS
 62
     0
 10
14849.3573519499
 20
10349.97055609466
 30
0.0
  0
ENDBLK
  5
6AFF
  8
0
  0
BLOCK
  8
0
  2
*D10
 70
     1
 10
0.0
 20
0.0
 30
0.0
  3
*D10
  1

  0
LINE
  5
8C9E
  8
SP
 10
14884.3573519499
 20
9781.7391744168435
 30
0.0
 11
15163.55075315178
 21
9781.7391744168435
 31
0.0
  0
LINE
  5
8C9F
  8
SP
 10
14884.3573519499
 20
8181.7391744168426
 30
0.0
 11
15163.55075315178
 21
8181.7391744168426
 31
0.0
  0
LINE
  5
8CA0
  8
SP
 10
15128.55075315178
 20
9694.2391744168435
 30
0.0
 11
15128.55075315178
 21
8269.2391744168435
 31
0.0
  0
INSERT
  5
8CA1
  8
SP
  2
_OPEN
 10
15128.55075315178
 20
9781.7391744168435
 30
0.0
 41
87.5
 42
87.5
 43
87.5
 50
90.0
  0
INSERT
  5
8CA2
  8
SP
  2
_OPEN
 10
15128.55075315178
 20
8181.7391744168426
 30
0.0
 41
87.5
 42
87.5
 43
87.5
 50
270.0
  0
TEXT
  5
8CA3
  8
FUTO
 10
15093.55075315178
 20
8750.0404446060675
 30
0.0
 40
105.0
  1
φ1600
 50
90.0
 51
15.0
  0
POINT
  5
8CA4
  8
DEFPOINTS
 62
     0
 10
14849.3573519499
 20
9781.7391744168435
 30
0.0
  0
POINT
  5
8CA5
  8
DEFPOINTS
 62
     0
 10
14849.3573519499
 20
8181.7391744168426
 30
0.0
  0
POINT
  5
8CA6
  8
DEFPOINTS
 62
     0
 10
15128.55075315178
 20
8181.7391744168426
 30
0.0
  0
ENDBLK
  5
6F63
  8
0
  0
BLOCK
  8
0
  2
*D11
 70
     1
 10
0.0
 20
0.0
 30
0.0
  3
*D11
  1

  0
LINE
  5
8C84
  8
SP
 10
12244.3573519499
 20
9396.7391744168435
 30
0.0
 11
12244.3573519499
 21
10384.97055609466
 31
0.0
  0
LINE
  5
8C85
  8
SP
 10
12331.8573519499
 20
10349.97055609466
 30
0.0
 11
14036.8573519499
 21
10349.97055609466
 31
0.0
  0
INSERT
  5
8C86
  8
SP
  2
_OPEN
 10
12244.3573519499
 20
10349.97055609466
 30
0.0
 41
87.5
 42
87.5
 43
87.5
 50
180.0
  0
INSERT
  5
8C87
  8
SP
  2
_OPEN
 10
14124.3573519499
 20
10349.97055609466
 30
0.0
 41
87.5
 42
87.5
 43
87.5
  0
TEXT
  5
8C88
  8
FUTO
 10
12989.081670593259
 20
10384.97055609466
 30
0.0
 40
105.0
  1
1880
 51
15.0
  0
POINT
  5
8C89
  8
DEFPOINTS
 62
     0
 10
12244.3573519499
 20
9361.7391744168453
 30
0.0
  0
POINT
  5
8C8A
  8
DEFPOINTS
 62
     0
 10
14124.3573519499
 20
10349.97055609466
 30
0.0
  0
POINT
  5
8C8B
  8
DEFPOINTS
 62
     0
 10
14124.3573519499
 20
10349.97055609466
 30
0.0
  0
ENDBLK
  5
6FBD
  8
0
  0
BLOCK
  8
0
  2
*D12
 70
     1
 10
0.0
 20
0.0
 30
0.0
  3
*D12
  1

  0
LINE
  5
8C4E
  8
SP
 10
9132.3488018678745
 20
10169.371034930209
 30
0.0
 11
9132.3488018678745
 21
10411.905565498721
 31
0.0
  0
LINE
  5
8C4F
  8
SP
 10
10895.348801867871
 20
10061.73917441684
 30
0.0
 11
10895.348801867871
 21
10411.905565498721
 31
0.0
  0
LINE
  5
8C50
  8
SP
 10
9219.8488018678745
 20
10376.905565498721
 30
0.0
 11
10807.848801867871
 21
10376.905565498721
 31
0.0
  0
INSERT
  5
8C51
  8
SP
  2
_OPEN
 10
9132.3488018678745
 20
10376.905565498721
 30
0.0
 41
87.5
 42
87.5
 43
87.5
 50
180.0
  0
INSERT
  5
8C52
  8
SP
  2
_OPEN
 10
10895.348801867871
 20
10376.905565498721
 30
0.0
 41
87.5
 42
87.5
 43
87.5
  0
TEXT
  5
8C53
  8
FUTO
 10
9815.8936285869204
 20
10411.905565498721
 30
0.0
 40
105.0
  1
1763
 51
15.0
  0
POINT
  5
8C54
  8
DEFPOINTS
 62
     0
 10
9132.3488018678745
 20
10134.3710349302
 30
0.0
  0
POINT
  5
8C55
  8
DEFPOINTS
 62
     0
 10
10895.348801867871
 20
10026.73917441684
 30
0.0
  0
POINT
  5
8C56
  8
DEFPOINTS
 62
     0
 10
10895.348801867871
 20
10376.905565498721
 30
0.0
  0
ENDBLK
  5
8034
  8
0
  0
BLOCK
  8
0
  2
*D13
 70
     1
 10
0.0
 20
0.0
 30
0.0
  3
*D13
  1

  0
LINE
  5
8C3C
  8
SP
 10
10717.348801867871
 20
7581.7391744168426
 30
0.0
 11
11183.54396811562
 21
7581.7391744168426
 31
0.0
  0
LINE
  5
8C3D
  8
SP
 10
11000.706923837721
 20
8981.7391744168417
 30
0.0
 11
11183.54396811562
 21
8981.7391744168417
 31
0.0
  0
LINE
  5
8C3E
  8
SP
 10
11148.54396811562
 20
7669.2391744168426
 30
0.0
 11
11148.54396811562
 21
8894.2391744168435
 31
0.0
  0
INSERT
  5
8C3F
  8
SP
  2
_OPEN
 10
11148.54396811562
 20
7581.7391744168426
 30
0.0
 41
87.5
 42
87.5
 43
87.5
 50
270.0
  0
INSERT
  5
8C40
  8
SP
  2
_OPEN
 10
11148.54396811562
 20
8981.7391744168417
 30
0.0
 41
87.5
 42
87.5
 43
87.5
 50
90.0
  0
TEXT
  5
8C41
  8
FUTO
 10
11113.54396811562
 20
8086.4634930601987
 30
0.0
 40
105.0
  1
1400
 50
90.0
 51
15.0
  0
POINT
  5
8C42
  8
DEFPOINTS
 62
     0
 10
10682.348801867871
 20
7581.7391744168426
 30
0.0
  0
POINT
  5
8C43
  8
DEFPOINTS
 62
     0
 10
10965.706923837721
 20
8981.7391744168417
 30
0.0
  0
POINT
  5
8C44
  8
DEFPOINTS
 62
     0
 10
11148.54396811562
 20
8981.7391744168417
 30
0.0
  0
ENDBLK
  5
8052
  8
0
  0
BLOCK
  8
0
  2
*D14
 70
     1
 10
0.0
 20
0.0
 30
0.0
  3
*D14
  1

  0
LINE
  5
8C57
  8
SP
 10
11000.706923837721
 20
8981.7391744168417
 30
0.0
 11
11183.54396811562
 21
8981.7391744168417
 31
0.0
  0
LINE
  5
8C58
  8
SP
 10
10930.348801867871
 20
10026.73917441684
 30
0.0
 11
11183.54396811562
 21
10026.73917441684
 31
0.0
  0
LINE
  5
8C59
  8
SP
 10
11148.54396811562
 20
9069.2391744168435
 30
0.0
 11
11148.54396811562
 21
9939.2391744168435
 31
0.0
  0
INSERT
  5
8C5A
  8
SP
  2
_OPEN
 10
11148.54396811562
 20
8981.7391744168417
 30
0.0
 41
87.5
 42
87.5
 43
87.5
 50
270.0
  0
INSERT
  5
8C5B
  8
SP
  2
_OPEN
 10
11148.54396811562
 20
10026.73917441684
 30
0.0
 41
87.5
 42
87.5
 43
87.5
 50
90.0
  0
TEXT
  5
8C5C
  8
FUTO
 10
11113.54396811562
 20
9308.7840011358876
 30
0.0
 40
105.0
  1
1045
 50
90.0
 51
15.0
  0
POINT
  5
8C5D
  8
DEFPOINTS
 62
     0
 10
10965.706923837721
 20
8981.7391744168417
 30
0.0
  0
POINT
  5
8C5E
  8
DEFPOINTS
 62
     0
 10
10895.348801867871
 20
10026.73917441684
 30
0.0
  0
POINT
  5
8C5F
  8
DEFPOINTS
 62
     0
 10
11148.54396811562
 20
10026.73917441684
 30
0.0
  0
ENDBLK
  5
805F
  8
0
  0
BLOCK
  8
0
  2
*D15
 70
     1
 10
0.0
 20
0.0
 30
0.0
  3
*D15
  1

  0
LINE
  5
8C7B
  8
SP
 10
9132.3488018678745
 20
13798.85422366716
 30
0.0
 11
9132.3488018678745
 21
14074.226979306
 31
0.0
  0
LINE
  5
8C7C
  8
SP
 10
10895.348801867871
 20
13688.076311850289
 30
0.0
 11
10895.348801867871
 21
14074.226979306
 31
0.0
  0
LINE
  5
8C7D
  8
SP
 10
9219.8488018678745
 20
14039.226979306
 30
0.0
 11
10807.848801867871
 21
14039.226979306
 31
0.0
  0
INSERT
  5
8C7E
  8
SP
  2
_OPEN
 10
9132.3488018678745
 20
14039.226979306
 30
0.0
 41
87.5
 42
87.5
 43
87.5
 50
180.0
  0
INSERT
  5
8C7F
  8
SP
  2
_OPEN
 10
10895.348801867871
 20
14039.226979306
 30
0.0
 41
87.5
 42
87.5
 43
87.5
  0
TEXT
  5
8C80
  8
FUTO
 10
9815.8936285869204
 20
14074.226979306
 30
0.0
 40
105.0
  1
1763
 51
15.0
  0
POINT
  5
8C81
  8
DEFPOINTS
 62
     0
 10
9132.3488018678745
 20
13763.85422366716
 30
0.0
  0
POINT
  5
8C82
  8
DEFPOINTS
 62
     0
 10
10895.348801867871
 20
13653.076311850289
 30
0.0
  0
POINT
  5
8C83
  8
DEFPOINTS
 62
     0
 10
10895.348801867871
 20
14039.226979306
 30
0.0
  0
ENDBLK
  5
8087
  8
0
  0
BLOCK
  8
0
  2
*D16
 70
     1
 10
0.0
 20
0.0
 30
0.0
  3
*D16
  1

  0
LINE
  5
8C60
  8
SP
 10
9132.3488018678745
 20
13833.85422366716
 30
0.0
 11
9132.3488018678745
 21
14074.226979306
 31
0.0
  0
LINE
  5
8C61
  8
SP
 10
7943.3488018678763
 20
13673.076311850289
 30
0.0
 11
7943.3488018678763
 21
14074.226979306
 31
0.0
  0
LINE
  5
8C62
  8
SP
 10
9044.8488018678763
 20
14039.226979306
 30
0.0
 11
8030.8488018678754
 21
14039.226979306
 31
0.0
  0
INSERT
  5
8C63
  8
SP
  2
_OPEN
 10
9132.3488018678745
 20
14039.226979306
 30
0.0
 41
87.5
 42
87.5
 43
87.5
  0
INSERT
  5
8C64
  8
SP
  2
_OPEN
 10
7943.3488018678763
 20
14039.226979306
 30
0.0
 41
87.5
 42
87.5
 43
87.5
 50
180.0
  0
TEXT
  5
8C65
  8
FUTO
 10
8354.4032475301537
 20
14074.226979306
 30
0.0
 40
105.0
  1
1189
 51
15.0
  0
POINT
  5
8C66
  8
DEFPOINTS
 62
     0
 10
9132.3488018678745
 20
13798.85422366716
 30
0.0
  0
POINT
  5
8C67
  8
DEFPOINTS
 62
     0
 10
7943.3488018678763
 20
13638.076311850289
 30
0.0
  0
POINT
  5
8C68
  8
DEFPOINTS
 62
     0
 10
7943.3488018678763
 20
14039.226979306
 30
0.0
  0
ENDBLK
  5
8094
  8
0
  0
BLOCK
  8
0
  2
*D17
 70
     1
 10
0.0
 20
0.0
 30
0.0
  3
*D17
  1

  0
LINE
  5
8C72
  8
SP
 10
10930.348801867871
 20
12994.076311850289
 30
0.0
 11
11272.96856218147
 21
12994.076311850289
 31
0.0
  0
LINE
  5
8C73
  8
SP
 10
10032.348801867871
 20
13719.076311850289
 30
0.0
 11
11272.96856218147
 21
13719.076311850289
 31
0.0
  0
LINE
  5
8C74
  8
SP
 10
11237.96856218147
 20
13081.576311850289
 30
0.0
 11
11237.96856218147
 21
13631.576311850289
 31
0.0
  0
INSERT
  5
8C75
  8
SP
  2
_OPEN
 10
11237.96856218147
 20
12994.076311850289
 30
0.0
 41
87.5
 42
87.5
 43
87.5
 50
270.0
  0
INSERT
  5
8C76
  8
SP
  2
_OPEN
 10
11237.96856218147
 20
13719.076311850289
 30
0.0
 41
87.5
 42
87.5
 43
87.5
 50
90.0
  0
TEXT
  5
8C77
  8
FUTO
 10
11202.96856218147
 20
13202.508979247659
 30
0.0
 40
105.0
  1
725
 50
90.0
 51
15.0
  0
POINT
  5
8C78
  8
DEFPOINTS
 62
     0
 10
10895.348801867871
 20
12994.076311850289
 30
0.0
  0
POINT
  5
8C79
  8
DEFPOINTS
 62
     0
 10
9997.3488018678763
 20
13719.076311850289
 30
0.0
  0
POINT
  5
8C7A
  8
DEFPOINTS
 62
     0
 10
11237.96856218147
 20
13719.076311850289
 30
0.0
  0
ENDBLK
  5
80A1
  8
0
  0
BLOCK
  8
0
  2
*D18
 70
     1
 10
0.0
 20
0.0
 30
0.0
  3
*D18
  1

  0
LINE
  5
8C69
  8
SP
 10
10930.348801867871
 20
12994.076311850289
 30
0.0
 11
11272.96856218147
 21
12994.076311850289
 31
0.0
  0
LINE
  5
8C6A
  8
SP
 10
10620.848801867871
 20
11114.076311850289
 30
0.0
 11
11272.96856218147
 21
11114.076311850289
 31
0.0
  0
LINE
  5
8C6B
  8
SP
 10
11237.96856218147
 20
12906.576311850289
 30
0.0
 11
11237.96856218147
 21
11201.576311850289
 31
0.0
  0
INSERT
  5
8C6C
  8
SP
  2
_OPEN
 10
11237.96856218147
 20
12994.076311850289
 30
0.0
 41
87.5
 42
87.5
 43
87.5
 50
90.0
  0
INSERT
  5
8C6D
  8
SP
  2
_OPEN
 10
11237.96856218147
 20
11114.076311850289
 30
0.0
 41
87.5
 42
87.5
 43
87.5
 50
270.0
  0
TEXT
  5
8C6E
  8
FUTO
 10
11202.96856218147
 20
11858.80063049365
 30
0.0
 40
105.0
  1
1880
 50
90.0
 51
15.0
  0
POINT
  5
8C6F
  8
DEFPOINTS
 62
     0
 10
10895.348801867871
 20
12994.076311850289
 30
0.0
  0
POINT
  5
8C70
  8
DEFPOINTS
 62
     0
 10
10585.848801867871
 20
11114.076311850289
 30
0.0
  0
POINT
  5
8C71
  8
DEFPOINTS
 62
     0
 10
11237.96856218147
 20
11114.076311850289
 30
0.0
  0
ENDBLK
  5
80AE
  8
0
  0
ENDSEC
  0
SECTION
  2
ENTITIES
  0
LINE
  5
522D
  8
CT
 10
7822.6859656005026
 20
8981.7391744168417
 30
0.0
 11
10965.706923837721
 21
8981.7391744168417
 31
0.0
  0
LINE
  5
522E
  8
CT
 10
9132.3488018678745
 20
10134.3710349302
 30
0.0
 11
9132.3488018678745
 21
7581.7391744168426
 31
0.0
  0
ARC
  5
5232
  8
KL
 10
9248.3488018678763
 20
9097.7391744168435
 30
0.0
 40
1487.0
 50
270.0
 51
355.52584402394382
  0
ARC
  5
5234
  8
KL
 10
9248.3488018678763
 20
8865.7391744168435
 30
0.0
 40
1255.0
 50
180.0
 51
270.0
  0
ARC
  5
5238
  8
KL
 10
9035.3488018678763
 20
8884.7391744168435
 30
0.0
 40
1042.0
 50
90.0
 51
180.0
  0
ARC
  5
5239
  8
KL
 10
9035.3488018678763
 20
9078.7391744168435
 30
0.0
 40
848.0
 50
56.2952570492711
 51
90.0
  0
LINE
  5
523A
  8
FUTO
 10
9174.3488018678763
 20
10026.73917441684
 30
0.0
 11
10830.348801867871
 21
10026.73917441684
 31
0.0
  0
LINE
  5
523C
  8
KL
 10
9177.3488018678763
 20
10026.73917441684
 30
0.0
 11
9177.3488018678763
 21
9914.7654897921457
 31
0.0
  0
LINE
  5
523D
  8
KL
 10
10730.81735128131
 20
8981.7391744168453
 30
0.0
 11
10827.348801867871
 21
10026.73917441684
 31
0.0
  0
LINE
  5
523F
  8
FUTO
 10
9159.3488018678763
 20
9961.7391744168453
 30
0.0
 11
10839.42108772268
 21
9961.7391744168453
 31
0.0
  0
LINE
  5
5251
  8
FUTO
 10
9174.3488018678763
 20
10026.73917441684
 30
0.0
 11
9109.3488018678763
 21
10026.73917441684
 31
0.0
  0
LINE
  5
5252
  8
FUTO
 10
9174.3488018678763
 20
10026.73917441684
 30
0.0
 11
9174.3488018678763
 21
9961.7391744168453
 31
0.0
  0
LINE
  5
5253
  8
FUTO
 10
9109.3488018678763
 20
10026.73917441684
 30
0.0
 11
9109.3488018678763
 21
10024.73917441684
 31
0.0
  0
LINE
  5
5254
  8
FUTO
 10
9174.3488018678763
 20
9961.7391744168453
 30
0.0
 11
9172.3488018678763
 21
9961.7391744168453
 31
0.0
  0
LINE
  5
5255
  8
FUTO
 10
9168.3488018678763
 20
10012.23917441684
 30
0.0
 11
9168.3488018678763
 21
9965.7391744168435
 31
0.0
  0
LINE
  5
5256
  8
FUTO
 10
9159.8488018678763
 20
10020.73917441684
 30
0.0
 11
9113.3488018678763
 21
10020.73917441684
 31
0.0
  0
ARC
  5
5257
  8
FUTO
 10
9113.3488018678763
 20
10024.73917441684
 30
0.0
 40
4.0
 50
180.0
 51
270.0
  0
ARC
  5
5258
  8
FUTO
 10
9172.3488018678763
 20
9965.7391744168435
 30
0.0
 40
4.0
 50
180.0
 51
269.9999999999992
  0
ARC
  5
5259
  8
FUTO
 10
9159.8488018678763
 20
10012.23917441684
 30
0.0
 40
8.5
 50
0.0
 51
90.0
  0
LINE
  5
525A
  8
FUTO
 10
10830.348801867871
 20
10026.73917441684
 30
0.0
 11
10830.348801867871
 21
9961.7391744168453
 31
0.0
  0
LINE
  5
525B
  8
FUTO
 10
10830.348801867871
 20
10026.73917441684
 30
0.0
 11
10895.348801867871
 21
10026.73917441684
 31
0.0
  0
LINE
  5
525C
  8
FUTO
 10
10830.348801867871
 20
9961.7391744168453
 30
0.0
 11
10832.348801867871
 21
9961.7391744168453
 31
0.0
  0
LINE
  5
525D
  8
FUTO
 10
10895.348801867871
 20
10026.73917441684
 30
0.0
 11
10895.348801867871
 21
10024.73917441684
 31
0.0
  0
LINE
  5
525E
  8
FUTO
 10
10844.848801867871
 20
10020.73917441684
 30
0.0
 11
10891.348801867871
 21
10020.73917441684
 31
0.0
  0
LINE
  5
525F
  8
FUTO
 10
10836.348801867871
 20
10012.23917441684
 30
0.0
 11
10836.348801867871
 21
9965.7391744168435
 31
0.0
  0
ARC
  5
5260
  8
FUTO
 10
10832.348801867871
 20
9965.7391744168435
 30
0.0
 40
4.0
 50
270.0
 51
0.0
  0
ARC
  5
5261
  8
FUTO
 10
10891.348801867871
 20
10024.73917441684
 30
0.0
 40
4.0
 50
270.0
 51
359.9999999999992
  0
ARC
  5
5262
  8
FUTO
 10
10844.848801867871
 20
10012.23917441684
 30
0.0
 40
8.5
 50
90.0
 51
180.0
  0
LINE
  5
5263
  8
FUTO
 10
9174.3488018678763
 20
10020.73917441684
 30
0.0
 11
10830.348801867871
 21
10020.73917441684
 31
0.0
  0
ARC
  5
5264
  8
FUTO
 10
9035.3488018678763
 20
9078.7391744168435
 30
0.0
 40
866.0
 50
81.76768968499718
 51
90.0
  0
LINE
  5
5265
  8
FUTO
 10
9159.3488018678763
 20
9961.7391744168453
 30
0.0
 11
9159.3488018678763
 21
9935.8156004139673
 31
0.0
  0
ARC
  5
5266
  8
FUTO
 10
9035.3488018678763
 20
8884.7391744168435
 30
0.0
 40
1060.0
 50
90.0
 51
174.26082952273319
  0
LINE
  5
5267
  8
KL
 10
7993.3488018678763
 20
8865.7391744168435
 30
0.0
 11
7993.3488018678763
 21
8884.7391744168435
 31
0.0
  0
LINE
  5
5268
  8
FUTO
 10
7975.3488018678772
 20
8865.7391744168435
 30
0.0
 11
7975.3488018678772
 21
8884.7391744168435
 31
0.0
  0
ARC
  5
5269
  8
FUTO
 10
9248.3488018678763
 20
8865.7391744168435
 30
0.0
 40
1273.0
 50
180.0
 51
235.32328429597999
  0
ARC
  5
526A
  8
FUTO
 10
9248.3488018678763
 20
9097.7391744168435
 30
0.0
 40
1505.0
 50
294.8186092054417
 51
306.34329300028338
  0
LINE
  5
526B
  8
FUTO
 10
10749.725357081959
 20
8990.7391744168435
 30
0.0
 11
10839.42108772268
 21
9961.7391744168453
 31
0.0
  0
CIRCLE
  5
526C
  8
KL
 10
9515.3488018678781
 20
9798.3397580741948
 30
0.0
 40
17.0
  0
LINE
  5
526D
  8
FUTO
 10
10682.348801867871
 20
7581.7391744168426
 30
0.0
 11
8182.3488018678763
 21
7581.7391744168426
 31
0.0
  0
LINE
  5
526E
  8
FUTO
 10
10682.348801867871
 20
7731.7391744168426
 30
0.0
 11
8182.3488018678763
 21
7731.7391744168426
 31
0.0
  0
LINE
  5
526F
  8
FUTO
 10
8182.3488018678763
 20
7731.7391744168426
 30
0.0
 11
8182.3488018678763
 21
7581.7391744168426
 31
0.0
  0
LINE
  5
5270
  8
FUTO
 10
10682.348801867871
 20
7731.7391744168426
 30
0.0
 11
10682.348801867871
 21
7581.7391744168453
 31
0.0
  0
LINE
  5
5273
  8
FUTO
 10
8192.3488018678763
 20
9511.7391744168435
 30
0.0
 11
8192.3488018678763
 21
8990.7391744168435
 31
0.0
  0
LINE
  5
5274
  8
FUTO
 10
10072.348801867871
 20
9961.7391744168453
 30
0.0
 11
10072.348801867871
 21
8990.7391744168435
 31
0.0
  0
LINE
  5
5275
  8
FUTO
 10
10063.348801867871
 20
9961.7391744168453
 30
0.0
 11
10063.348801867871
 21
8990.7391744168435
 31
0.0
  0
LINE
  5
5276
  8
FUTO
 10
8201.3488018678781
 20
9511.7391744168435
 30
0.0
 11
8201.3488018678781
 21
8990.7391744168435
 31
0.0
  0
LINE
  5
5277
  8
FUTO
 10
8192.3488018678763
 20
9511.7391744168435
 30
0.0
 11
8201.3488018678781
 21
9511.7391744168435
 31
0.0
  0
LINE
  5
52EB
  8
CT
 10
10145.892444582731
 20
7991.7391744168444
 30
0.0
 11
10774.685522328569
 21
7991.7391744168444
 31
0.0
  0
LINE
  5
52F4
  8
CT
 10
10382.348801867871
 20
7581.7391744168426
 30
0.0
 11
10382.348801867871
 21
8221.8371886134446
 31
0.0
  0
LINE
  5
5391
  8
CT
 10
8987.3488018678763
 20
8861.7391744168453
 30
0.0
 11
8987.3488018678763
 21
8935.7391744168435
 31
0.0
  0
LINE
  5
5393
  8
CT
 10
9277.3488018678763
 20
8861.7391744168453
 30
0.0
 11
9277.3488018678763
 21
8935.7391744168435
 31
0.0
  0
ARC
  5
53C8
  8
FUTO
 10
9309.3488018678763
 20
8912.7391744168435
 30
0.0
 40
3.0
 50
0.0
 51
90.0
  0
LINE
  5
53C9
  8
FUTO
 10
9312.3488018678763
 20
8912.7391744168435
 30
0.0
 11
9312.3488018678763
 21
8881.7391744168453
 31
0.0
  0
ARC
  5
53CA
  8
FUTO
 10
9179.8488018678763
 20
9064.0115877763637
 30
0.0
 40
15.00000000000038
 50
325.47193698619282
 51
154.52806301381281
  0
LINE
  5
53CB
  8
FUTO
 10
9148.0304645656779
 20
9075.4359484009692
 30
0.0
 11
9148.0304645656779
 21
9081.7391744168435
 31
0.0
  0
LINE
  5
53CC
  8
FUTO
 10
9116.6671391700747
 20
9075.4359484009692
 30
0.0
 11
9116.6671391700747
 21
9081.7391744168435
 31
0.0
  0
LINE
  5
53CD
  8
FUTO
 10
9116.6671391700747
 20
9081.7391744168453
 30
0.0
 11
9148.0304645656779
 21
9081.7391744168435
 31
0.0
  0
ARC
  5
53CE
  8
FUTO
 10
9132.3488018678745
 20
8981.7391744168417
 30
0.0
 40
95.000000000000057
 50
9.0561260276173101
 51
50.943873972382391
  0
LINE
  5
53CF
  8
FUTO
 10
9227.3488018678763
 20
8966.7391744168435
 30
0.0
 11
9227.3488018678763
 21
8931.7391744168435
 31
0.0
  0
LINE
  5
53D0
  8
FUTO
 10
9222.3488018678763
 20
8881.7391744168453
 30
0.0
 11
9222.3488018678763
 21
8884.7391744168453
 31
0.0
  0
ARC
  5
53D1
  8
FUTO
 10
9243.3488018678763
 20
8931.7391744168435
 30
0.0
 40
16.0
 50
180.0
 51
270.0
  0
ARC
  5
53D2
  8
FUTO
 10
9179.8488018678763
 20
8899.4667610573233
 30
0.0
 40
14.999999999999909
 50
205.47193698618469
 51
34.528063013809451
  0
ARC
  5
53D3
  8
FUTO
 10
9132.3488018678745
 20
8981.7391744168453
 30
0.0
 40
95.000000000000966
 50
309.05612602761738
 51
350.94387397238222
  0
ARC
  5
53D4
  8
FUTO
 10
9227.3488018678763
 20
8981.7391744168417
 30
0.0
 40
15.00000000000011
 50
265.47193698619139
 51
94.528063013808264
  0
LINE
  5
53D5
  8
FUTO
 10
9243.3488018678763
 20
8915.7391744168435
 30
0.0
 11
9309.3488018678763
 21
8915.7391744168435
 31
0.0
  0
ARC
  5
53D7
  8
FUTO
 10
9084.8488018678763
 20
9064.0115877763656
 30
0.0
 40
15.00000000000006
 50
25.471936986186069
 51
214.52806301380949
  0
ARC
  5
53D8
  8
FUTO
 10
9132.3488018678745
 20
8981.7391744168417
 30
0.0
 40
94.999999999999375
 50
129.0561260276167
 51
170.94387397238259
  0
LINE
  5
53D9
  8
FUTO
 10
9037.3488018678763
 20
8966.7391744168435
 30
0.0
 11
9037.3488018678763
 21
8931.7391744168435
 31
0.0
  0
ARC
  5
53DA
  8
FUTO
 10
9084.8488018678763
 20
8899.4667610573233
 30
0.0
 40
14.99999999999978
 50
145.47193698619111
 51
334.52806301381349
  0
LINE
  5
53DB
  8
FUTO
 10
9042.3488018678763
 20
8881.7391744168453
 30
0.0
 11
9042.3488018678763
 21
8884.7391744168453
 31
0.0
  0
ARC
  5
53DC
  8
FUTO
 10
9132.3488018678745
 20
8981.7391744168417
 30
0.0
 40
95.000000000000057
 50
189.05612602761681
 51
230.94387397238239
  0
ARC
  5
53DD
  8
FUTO
 10
8955.3488018678745
 20
8912.7391744168435
 30
0.0
 40
3.0
 50
90.0
 51
180.0
  0
LINE
  5
53DE
  8
FUTO
 10
8952.3488018678745
 20
8912.7391744168435
 30
0.0
 11
8952.3488018678745
 21
8881.7391744168453
 31
0.0
  0
LINE
  5
53DF
  8
FUTO
 10
9021.3488018678763
 20
8915.7391744168435
 30
0.0
 11
8955.3488018678745
 21
8915.7391744168435
 31
0.0
  0
ARC
  5
53E0
  8
FUTO
 10
9021.3488018678763
 20
8931.7391744168435
 30
0.0
 40
16.0
 50
270.0
 51
0.0
  0
LINE
  5
53E1
  8
FUTO
 10
8937.3488018678763
 20
8881.7391744168453
 30
0.0
 11
9327.3488018678745
 21
8881.7391744168453
 31
0.0
  0
ARC
  5
53E2
  8
FUTO
 10
9037.3488018678763
 20
8981.7391744168417
 30
0.0
 40
14.999999999999879
 50
85.471936986191025
 51
274.52806301380912
  0
CIRCLE
  5
53E3
  8
FUTO
 10
9132.3488018678745
 20
8981.7391744168417
 30
0.0
 40
36.5
  0
LINE
  5
53E4
  8
FUTO
 10
9042.3488018678763
 20
8884.7391744168453
 30
0.0
 11
9222.3488018678763
 21
8884.7391744168453
 31
0.0
  0
ARC
  5
53E5
  8
FUTO
 10
9132.3488018678745
 20
8981.7391744168417
 30
0.0
 40
94.999999999998266
 50
249.05612602761619
 51
290.94387397238302
  0
ARC
  5
53E6
  8
FUTO
 10
9132.3488018678745
 20
8981.7391744168453
 30
0.0
 40
94.999999999998053
 50
69.056126027616386
 51
110.94387397238231
  0
LINE
  5
53E7
  8
FUTO
 10
12708.3573519499
 20
9061.7391744168435
 30
0.0
 11
12713.3573519499
 21
9061.7391744168435
 31
0.0
  0
ARC
  5
53E8
  8
FUTO
 10
12702.3573519499
 20
9070.7391744168453
 30
0.0
 40
6.0
 50
0.0
 51
90.0
  0
LINE
  5
53E9
  8
FUTO
 10
12693.3573519499
 20
9076.7391744168435
 30
0.0
 11
12702.3573519499
 21
9076.7391744168453
 31
0.0
  0
LINE
  5
53EA
  8
FUTO
 10
12713.3573519499
 20
8901.7391744168435
 30
0.0
 11
12708.3573519499
 21
8901.7391744168435
 31
0.0
  0
ARC
  5
53EB
  8
FUTO
 10
12702.3573519499
 20
8892.7391744168453
 30
0.0
 40
6.0
 50
270.0
 51
0.0
  0
ARC
  5
53EC
  8
FUTO
 10
12687.3573519499
 20
8909.7391744168435
 30
0.0
 40
6.0
 50
0.0
 51
90.0
  0
LINE
  5
53ED
  8
FUTO
 10
12702.3573519499
 20
8886.7391744168453
 30
0.0
 11
12693.3573519499
 21
8886.7391744168453
 31
0.0
  0
LINE
  5
53EE
  8
FUTO
 10
12713.3573519499
 20
9061.7391744168435
 30
0.0
 11
12713.3573519499
 21
8901.7391744168435
 31
0.0
  0
LINE
  5
53EF
  8
FUTO
 10
12708.3573519499
 20
9070.7391744168453
 30
0.0
 11
12708.3573519499
 21
8892.7391744168453
 31
0.0
  0
LINE
  5
53F0
  8
FUTO
 10
12693.3573519499
 20
8881.7391744168453
 30
0.0
 11
12693.3573519499
 21
9081.7391744168435
 31
0.0
  0
LINE
  5
53F1
  8
FUTO
 10
12593.3573519499
 20
9076.7391744168435
 30
0.0
 11
12584.3573519499
 21
9076.7391744168453
 31
0.0
  0
ARC
  5
53F2
  8
FUTO
 10
12584.3573519499
 20
9070.7391744168453
 30
0.0
 40
6.0
 50
90.0
 51
180.0
  0
LINE
  5
53F3
  8
FUTO
 10
12578.3573519499
 20
9061.7391744168435
 30
0.0
 11
12573.3573519499
 21
9061.7391744168435
 31
0.0
  0
ARC
  5
53F4
  8
FUTO
 10
12599.3573519499
 20
8909.7391744168435
 30
0.0
 40
6.0
 50
90.0
 51
180.0
  0
ARC
  5
53F5
  8
FUTO
 10
12584.3573519499
 20
8892.7391744168453
 30
0.0
 40
6.0
 50
180.0
 51
270.0
  0
LINE
  5
53F6
  8
FUTO
 10
12584.3573519499
 20
8886.7391744168453
 30
0.0
 11
12593.3573519499
 21
8886.7391744168453
 31
0.0
  0
LINE
  5
53F7
  8
FUTO
 10
12573.3573519499
 20
8901.7391744168435
 30
0.0
 11
12578.3573519499
 21
8901.7391744168435
 31
0.0
  0
LINE
  5
53F8
  8
FUTO
 10
12578.3573519499
 20
9070.7391744168453
 30
0.0
 11
12578.3573519499
 21
8892.7391744168453
 31
0.0
  0
LINE
  5
53F9
  8
FUTO
 10
12573.3573519499
 20
9061.7391744168435
 30
0.0
 11
12573.3573519499
 21
8901.7391744168435
 31
0.0
  0
LINE
  5
53FA
  8
FUTO
 10
12593.3573519499
 20
9081.7391744168435
 30
0.0
 11
12593.3573519499
 21
8881.7391744168453
 31
0.0
  0
LINE
  5
53FB
  8
FUTO
 10
12693.3573519499
 20
9081.7391744168435
 30
0.0
 11
12593.3573519499
 21
9081.7391744168435
 31
0.0
  0
LINE
  5
53FC
  8
FUTO
 10
12588.3573519499
 20
8881.7391744168453
 30
0.0
 11
12698.3573519499
 21
8881.7391744168453
 31
0.0
  0
LINE
  5
53FD
  8
FUTO
 10
12687.3573519499
 20
8915.7391744168435
 30
0.0
 11
12599.3573519499
 21
8915.7391744168435
 31
0.0
  0
LINE
  5
53FE
  8
KL
 10
9518.0006747585976
 20
8873.7391744168453
 30
0.0
 11
8746.6969289771532
 21
8873.7391744168435
 31
0.0
  0
LINE
  5
53FF
  8
FUTO
 10
8937.3488018678763
 20
8881.7391744168453
 30
0.0
 11
8937.3488018678763
 21
8873.7391744168453
 31
0.0
  0
LINE
  5
5400
  8
FUTO
 10
9327.3488018678745
 20
8881.7391744168453
 30
0.0
 11
9327.3488018678745
 21
8873.7391744168453
 31
0.0
  0
LINE
  5
5405
  8
FUTO
 10
8507.3488018678745
 20
7739.566721475785
 30
0.0
 11
8507.3488018678745
 21
7731.7391744168426
 31
0.0
  0
LINE
  5
5408
  8
FUTO
 10
8746.6969289771532
 20
8873.7391744168453
 30
0.0
 11
8507.3488018678745
 21
7739.566721475785
 31
0.0
  0
LINE
  5
540B
  8
KL
 10
9518.0006747585976
 20
8873.7391744168453
 30
0.0
 11
9661.9523513516997
 21
8191.6113127184108
 31
0.0
  0
LINE
  5
540E
  8
FUTO
 10
9757.3488018678763
 20
7739.566721475785
 30
0.0
 11
9757.3488018678763
 21
7731.7391744168426
 31
0.0
  0
LINE
  5
5411
  8
FUTO
 10
8507.3488018678745
 20
7731.7391744168426
 30
0.0
 11
8507.3488018678745
 21
7581.7391744168426
 31
0.0
  0
LINE
  5
5412
  8
KL
 10
8932.3488018678763
 20
8990.7391744168435
 30
0.0
 11
8932.3488018678763
 21
8972.7391744168435
 31
0.0
  0
LINE
  5
5413
  8
KL
 10
9332.3488018678763
 20
8990.7391744168435
 30
0.0
 11
9332.3488018678763
 21
8972.7391744168435
 31
0.0
  0
LINE
  5
5414
  8
FUTO
 10
7947.8735009570537
 20
8990.7391744168435
 30
0.0
 11
8752.4553957655844
 21
8990.7391744168435
 31
0.0
  0
LINE
  5
5415
  8
FUTO
 10
7947.8735009570537
 20
8972.7391744168435
 30
0.0
 11
8752.4553957655844
 21
8972.7391744168435
 31
0.0
  0
LINE
  5
5416
  8
KL
 10
9332.3488018678763
 20
8972.7391744168435
 30
0.0
 11
9687.2951993868428
 21
8972.7391744168435
 31
0.0
  0
LINE
  5
5417
  8
KL
 10
9332.3488018678763
 20
8990.7391744168435
 30
0.0
 11
9668.7453157942891
 21
8990.7391744168435
 31
0.0
  0
LINE
  5
5418
  8
FUTO
 10
7947.8735009570537
 20
8972.7391744168435
 30
0.0
 11
7947.8735009570537
 21
8990.7391744168435
 31
0.0
  0
LINE
  5
5419
  8
CT
 10
7972.8735009570537
 20
8951.7391744168435
 30
0.0
 11
7972.8735009570537
 21
9011.7391744168435
 31
0.0
  0
ARC
  5
541E
  8
FUTO
 10
9035.3488018678763
 20
8884.7391744168435
 30
0.0
 40
1060.0
 50
175.2378883439155
 51
180.0
  0
LINE
  5
541F
  8
FUTO
 10
8192.3488018678763
 20
8972.7391744168435
 30
0.0
 11
8192.3488018678763
 21
7731.7391744168426
 31
0.0
  0
LINE
  5
5420
  8
FUTO
 10
8201.3488018678781
 20
8972.7391744168435
 30
0.0
 11
8201.3488018678781
 21
7731.7391744168426
 31
0.0
  0
LINE
  5
5421
  8
FUTO
 10
10780.81735128131
 20
8990.7391744168435
 30
0.0
 11
10780.81735128131
 21
8972.7391744168435
 31
0.0
  0
LINE
  5
5422
  8
FUTO
 10
10755.817351281319
 20
9011.7391744168435
 30
0.0
 11
10755.817351281319
 21
8951.7391744168435
 31
0.0
  0
LINE
  5
5425
  8
FUTO
 10
10072.348801867871
 20
8972.7391744168435
 30
0.0
 11
10072.348801867871
 21
8599.0999108561355
 31
0.0
  0
LINE
  5
5426
  8
FUTO
 10
10063.348801867871
 20
8972.7391744168435
 30
0.0
 11
10063.348801867871
 21
8607.8331192987516
 31
0.0
  0
ARC
  5
543E
  8
FUTO
 10
9248.3488018678763
 20
9097.7391744168435
 30
0.0
 40
1505.0
 50
324.11245044793139
 51
355.2357259540903
  0
CIRCLE
  5
544F
  8
SL
 10
9132.3488018678745
 20
8981.7391744168417
 30
0.0
 40
315.0
  0
ARC
  5
5451
  8
FUTO
 10
9132.3488018678745
 20
8981.7391744168417
 30
0.0
 40
380.0
 50
45.861935230285411
 51
237.37961693434451
  0
CIRCLE
  5
5453
  8
SL
 10
10382.348801867871
 20
7991.7391744168444
 30
0.0
 40
132.49999999999989
  0
ARC
  5
5454
  8
FUTO
 10
10382.348801867871
 20
7991.7391744168444
 30
0.0
 40
220.0
 50
237.37961693434451
 51
45.861935230285411
  0
LINE
  5
5455
  8
SL
 10
9354.8978374854487
 20
9204.6672496915562
 30
0.0
 11
10475.960697802249
 21
8085.5105076673199
 31
0.0
  0
LINE
  5
5456
  8
SL
 10
8966.3240917438925
 20
8714.0438333512084
 30
0.0
 11
10312.51301110143
 21
7879.1371658733633
 31
0.0
  0
LINE
  5
5457
  8
FUTO
 10
8927.5020290812372
 20
8661.6801178680562
 30
0.0
 11
10263.7533018335
 21
7806.4418258885989
 31
0.0
  0
LINE
  5
5458
  8
FUTO
 10
9396.9769008560397
 20
9254.4514206140211
 30
0.0
 11
10535.55454338733
 21
8149.6252116888963
 31
0.0
  0
LINE
  5
5459
  8
CT
 10
12244.3573519499
 20
8981.7391744168417
 30
0.0
 11
14894.13526376677
 21
8981.7391744168417
 31
0.0
  0
LINE
  5
545A
  8
CT
 10
14124.3573519499
 20
10349.97055609466
 30
0.0
 11
14124.3573519499
 21
7581.7391744168426
 31
0.0
  0
LINE
  5
545B
  8
FUTO
 10
14718.3573519499
 20
7731.7391744168426
 30
0.0
 11
12568.3573519499
 21
7731.7391744168426
 31
0.0
  0
LINE
  5
545C
  8
FUTO
 10
14718.3573519499
 20
7581.7391744168426
 30
0.0
 11
12568.3573519499
 21
7581.7391744168426
 31
0.0
  0
LINE
  5
5505
  8
FUTO
 10
14718.3573519499
 20
7581.7391744168426
 30
0.0
 11
14793.3573519499
 21
7581.7391744168426
 31
0.0
  0
LINE
  5
5506
  8
FUTO
 10
14728.50872897891
 20
7594.416207046309
 30
0.0
 11
14789.705974920889
 21
7589.0621417873772
 31
0.0
  0
LINE
  5
5507
  8
FUTO
 10
14718.3573519499
 20
7731.7391744168426
 30
0.0
 11
14793.3573519499
 21
7731.7391744168426
 31
0.0
  0
LINE
  5
5508
  8
FUTO
 10
14728.50872897891
 20
7719.0621417873772
 30
0.0
 11
14789.705974920889
 21
7724.416207046309
 31
0.0
  0
LINE
  5
5509
  8
FUTO
 10
14724.8573519499
 20
7715.0773629950099
 30
0.0
 11
14724.8573519499
 21
7598.4009858386771
 31
0.0
  0
ARC
  5
550A
  8
FUTO
 10
14728.8573519499
 20
7598.4009858386771
 30
0.0
 40
4.0
 50
180.0
 51
264.99999999999989
  0
LINE
  5
550B
  8
FUTO
 10
14718.3573519499
 20
7731.7391744168426
 30
0.0
 11
14718.3573519499
 21
7581.7391744168426
 31
0.0
  0
ARC
  5
550C
  8
FUTO
 10
14728.8573519499
 20
7715.0773629950099
 30
0.0
 40
4.0
 50
95.000000000000057
 51
180.0
  0
LINE
  5
550D
  8
FUTO
 10
14793.3573519499
 20
7581.7391744168426
 30
0.0
 11
14793.3573519499
 21
7585.0773629950108
 31
0.0
  0
LINE
  5
550E
  8
FUTO
 10
14793.3573519499
 20
7731.7391744168426
 30
0.0
 11
14793.3573519499
 21
7728.4009858386771
 31
0.0
  0
ARC
  5
550F
  8
FUTO
 10
14789.3573519499
 20
7728.4009858386771
 30
0.0
 40
4.0
 50
275.00000000000051
 51
359.9999999999921
  0
ARC
  5
5510
  8
FUTO
 10
14789.3573519499
 20
7585.0773629950108
 30
0.0
 40
4.0
 50
0.0000000000078369
 51
84.999999999999503
  0
LINE
  5
5511
  8
FUTO
 10
12568.3573519499
 20
7731.7391744168426
 30
0.0
 11
12493.3573519499
 21
7731.7391744168426
 31
0.0
  0
LINE
  5
5512
  8
FUTO
 10
12558.205974920889
 20
7719.0621417873772
 30
0.0
 11
12497.00872897891
 21
7724.416207046309
 31
0.0
  0
LINE
  5
5513
  8
FUTO
 10
12568.3573519499
 20
7581.7391744168426
 30
0.0
 11
12493.3573519499
 21
7581.7391744168426
 31
0.0
  0
LINE
  5
5514
  8
FUTO
 10
12558.205974920889
 20
7594.416207046309
 30
0.0
 11
12497.00872897891
 21
7589.0621417873772
 31
0.0
  0
LINE
  5
5515
  8
FUTO
 10
12561.8573519499
 20
7598.4009858386771
 30
0.0
 11
12561.8573519499
 21
7715.0773629950099
 31
0.0
  0
ARC
  5
5516
  8
FUTO
 10
12557.8573519499
 20
7715.0773629950099
 30
0.0
 40
4.0
 50
0.0
 51
84.999999999999943
  0
LINE
  5
5517
  8
FUTO
 10
12568.3573519499
 20
7581.7391744168426
 30
0.0
 11
12568.3573519499
 21
7731.7391744168426
 31
0.0
  0
ARC
  5
5518
  8
FUTO
 10
12557.8573519499
 20
7598.4009858386771
 30
0.0
 40
4.0
 50
275.0
 51
0.0
  0
LINE
  5
5519
  8
FUTO
 10
12493.3573519499
 20
7731.7391744168426
 30
0.0
 11
12493.3573519499
 21
7728.4009858386753
 31
0.0
  0
LINE
  5
551A
  8
FUTO
 10
12493.3573519499
 20
7581.7391744168426
 30
0.0
 11
12493.3573519499
 21
7585.0773629950108
 31
0.0
  0
ARC
  5
551B
  8
FUTO
 10
12497.3573519499
 20
7585.0773629950108
 30
0.0
 40
4.0
 50
95.000000000000554
 51
179.9999999999921
  0
ARC
  5
551C
  8
FUTO
 10
12497.3573519499
 20
7728.4009858386771
 30
0.0
 40
4.0
 50
180.00000000000779
 51
264.99999999999949
  0
LINE
  5
551D
  8
FUTO
 10
14718.3573519499
 20
7594.7356744168446
 30
0.0
 11
12568.3573519499
 21
7594.7356744168446
 31
0.0
  0
LINE
  5
551E
  8
FUTO
 10
14718.3573519499
 20
7718.7426744168442
 30
0.0
 11
12568.3573519499
 21
7718.7426744168442
 31
0.0
  0
LINE
  5
551F
  8
FUTO
 10
10682.348801867871
 20
7594.7356744168446
 30
0.0
 11
8182.3488018678763
 21
7594.7356744168446
 31
0.0
  0
LINE
  5
5520
  8
FUTO
 10
10682.348801867871
 20
7718.7426744168442
 30
0.0
 11
8182.3488018678763
 21
7718.7426744168442
 31
0.0
  0
LINE
  5
5521
  8
FUTO
 10
13465.3573519499
 20
10026.73917441684
 30
0.0
 11
14783.3573519499
 21
10026.73917441684
 31
0.0
  0
LINE
  5
5522
  8
FUTO
 10
13534.3573519499
 20
10026.73917441684
 30
0.0
 11
13534.3573519499
 21
8990.7391744168435
 31
0.0
  0
LINE
  5
5523
  8
FUTO
 10
14714.3573519499
 20
10026.73917441684
 30
0.0
 11
14714.3573519499
 21
8990.7391744168435
 31
0.0
  0
LINE
  5
5524
  8
FUTO
 10
14717.557351949899
 20
10026.73917441684
 30
0.0
 11
14717.557351949899
 21
8990.7391744168435
 31
0.0
  0
LINE
  5
5525
  8
FUTO
 10
13531.1573519499
 20
10026.73917441684
 30
0.0
 11
13531.1573519499
 21
8990.7391744168435
 31
0.0
  0
LINE
  5
5526
  8
FUTO
 10
13456.1573519499
 20
9961.7391744168453
 30
0.0
 11
14792.557351949899
 21
9961.7391744168453
 31
0.0
  0
LINE
  5
5527
  8
FUTO
 10
13465.3573519499
 20
10020.73917441684
 30
0.0
 11
14783.3573519499
 21
10020.73917441684
 31
0.0
  0
LINE
  5
5528
  8
FUTO
 10
13465.3573519499
 20
10026.73917441684
 30
0.0
 11
13465.3573519499
 21
9961.7391744168453
 31
0.0
  0
LINE
  5
5529
  8
FUTO
 10
14783.3573519499
 20
10026.73917441684
 30
0.0
 11
14783.3573519499
 21
9961.7391744168453
 31
0.0
  0
LINE
  5
552A
  8
FUTO
 10
14792.557351949899
 20
9961.7391744168453
 30
0.0
 11
14792.557351949899
 21
9000.7391744168472
 31
0.0
  0
LINE
  5
552B
  8
FUTO
 10
13456.1573519499
 20
9961.7391744168453
 30
0.0
 11
13456.1573519499
 21
9000.7391744168435
 31
0.0
  0
LINE
  5
552C
  8
KL
 10
13534.3573519499
 20
7610.7391744168444
 30
0.0
 11
14714.3573519499
 21
7610.7391744168444
 31
0.0
  0
LINE
  5
552D
  8
KL
 10
13531.1573519499
 20
7592.7391744168426
 30
0.0
 11
13534.3573519499
 21
7592.7391744168426
 31
0.0
  0
LINE
  5
552E
  8
KL
 10
14714.3573519499
 20
7592.7391744168426
 30
0.0
 11
14717.557351949899
 21
7592.7391744168426
 31
0.0
  0
LINE
  5
552F
  8
KL
 10
13534.3573519499
 20
7731.7391744168444
 30
0.0
 11
13534.3573519499
 21
7592.7391744168426
 31
0.0
  0
LINE
  5
5530
  8
KL
 10
13531.1573519499
 20
7731.7391744168444
 30
0.0
 11
13531.1573519499
 21
7592.7391744168426
 31
0.0
  0
LINE
  5
5531
  8
KL
 10
14714.3573519499
 20
7731.7391744168426
 30
0.0
 11
14714.3573519499
 21
7592.7391744168426
 31
0.0
  0
LINE
  5
5532
  8
KL
 10
14717.557351949899
 20
7731.7391744168426
 30
0.0
 11
14717.557351949899
 21
7592.7391744168426
 31
0.0
  0
LINE
  5
5533
  8
CT
 10
13323.3573519499
 20
9142.1061324528073
 30
0.0
 11
13323.3573519499
 21
8810.0600836793074
 31
0.0
  0
LINE
  5
5534
  8
CT
 10
12643.3573519499
 20
9142.1061324528073
 30
0.0
 11
12643.3573519499
 21
8810.0600836793074
 31
0.0
  0
LINE
  5
5537
  8
CT
 10
13278.3573519499
 20
8913.6820311961128
 30
0.0
 11
13278.3573519499
 21
8823.6820311961128
 31
0.0
  0
LINE
  5
5538
  8
CT
 10
13368.3573519499
 20
8913.6820311961128
 30
0.0
 11
13368.3573519499
 21
8823.6820311961128
 31
0.0
  0
LINE
  5
5548
  8
FUTO
 10
13350.8573519499
 20
9101.7391744168435
 30
0.0
 11
13387.3573519499
 21
9101.7391744168435
 31
0.0
  0
LINE
  5
5549
  8
FUTO
 10
13350.8573519499
 20
9114.7391744168435
 30
0.0
 11
13350.8573519499
 21
8901.7391744168435
 31
0.0
  0
LINE
  5
554A
  8
FUTO
 10
13295.8573519499
 20
9114.7391744168435
 30
0.0
 11
13295.8573519499
 21
8901.7391744168435
 31
0.0
  0
ARC
  5
554B
  8
FUTO
 10
13390.3573519499
 20
8898.7391744168435
 30
0.0
 40
3.0
 50
0.0
 51
90.0
  0
ARC
  5
554C
  8
FUTO
 10
13256.3573519499
 20
8898.7391744168435
 30
0.0
 40
3.0
 50
90.000000000000028
 51
180.0
  0
LINE
  5
554D
  8
FUTO
 10
13401.3573519499
 20
9101.7391744168435
 30
0.0
 11
13387.3573519499
 21
9101.7391744168435
 31
0.0
  0
LINE
  5
554E
  8
FUTO
 10
13377.3573519499
 20
9114.7391744168435
 30
0.0
 11
13377.3573519499
 21
9101.7391744168435
 31
0.0
  0
LINE
  5
554F
  8
FUTO
 10
13259.3573519499
 20
9101.7391744168435
 30
0.0
 11
13295.8573519499
 21
9101.7391744168435
 31
0.0
  0
LINE
  5
5550
  8
FUTO
 10
13269.3573519499
 20
9114.7391744168435
 30
0.0
 11
13269.3573519499
 21
9101.7391744168435
 31
0.0
  0
LINE
  5
5551
  8
FUTO
 10
13245.3573519499
 20
9101.7391744168435
 30
0.0
 11
13259.3573519499
 21
9101.7391744168435
 31
0.0
  0
LINE
  5
5552
  8
FUTO
 10
13269.3573519499
 20
9114.7391744168435
 30
0.0
 11
13377.3573519499
 21
9114.7391744168435
 31
0.0
  0
LINE
  5
5553
  8
FUTO
 10
13401.3573519499
 20
8861.7391744168453
 30
0.0
 11
13393.3573519499
 21
8861.7391744168453
 31
0.0
  0
LINE
  5
5554
  8
FUTO
 10
13409.3573519499
 20
8901.7391744168435
 30
0.0
 11
13401.3573519499
 21
8881.7391744168435
 31
0.0
  0
LINE
  5
5555
  8
FUTO
 10
13393.3573519499
 20
8898.7391744168435
 30
0.0
 11
13393.3573519499
 21
8851.7391744168435
 31
0.0
  0
LINE
  5
5556
  8
FUTO
 10
13409.3573519499
 20
9061.7391744168435
 30
0.0
 11
13409.3573519499
 21
8901.7391744168435
 31
0.0
  0
LINE
  5
5557
  8
FUTO
 10
13245.3573519499
 20
8861.7391744168453
 30
0.0
 11
13253.3573519499
 21
8861.7391744168453
 31
0.0
  0
LINE
  5
5558
  8
FUTO
 10
13237.3573519499
 20
8901.7391744168435
 30
0.0
 11
13245.3573519499
 21
8881.7391744168435
 31
0.0
  0
LINE
  5
5559
  8
FUTO
 10
13253.3573519499
 20
8898.7391744168435
 30
0.0
 11
13253.3573519499
 21
8851.7391744168435
 31
0.0
  0
LINE
  5
555A
  8
FUTO
 10
13237.3573519499
 20
9061.7391744168435
 30
0.0
 11
13237.3573519499
 21
8901.7391744168435
 31
0.0
  0
LINE
  5
555B
  8
FUTO
 10
13256.3573519499
 20
8901.7391744168435
 30
0.0
 11
13390.3573519499
 21
8901.7391744168435
 31
0.0
  0
LINE
  5
555C
  8
FUTO
 10
13243.3573519499
 20
8851.7391744168435
 30
0.0
 11
13403.3573519499
 21
8851.7391744168435
 31
0.0
  0
LINE
  5
555D
  8
FUTO
 10
13387.3573519499
 20
9101.7391744168435
 30
0.0
 11
13387.3573519499
 21
8901.7391744168435
 31
0.0
  0
LINE
  5
555E
  8
FUTO
 10
13401.3573519499
 20
9101.7391744168435
 30
0.0
 11
13401.3573519499
 21
8861.7391744168453
 31
0.0
  0
LINE
  5
555F
  8
FUTO
 10
13409.3573519499
 20
9061.7391744168435
 30
0.0
 11
13401.3573519499
 21
9081.7391744168435
 31
0.0
  0
LINE
  5
5560
  8
FUTO
 10
13237.3573519499
 20
9061.7391744168435
 30
0.0
 11
13245.3573519499
 21
9081.7391744168435
 31
0.0
  0
LINE
  5
5561
  8
FUTO
 10
13245.3573519499
 20
9101.7391744168435
 30
0.0
 11
13245.3573519499
 21
8861.7391744168453
 31
0.0
  0
LINE
  5
5562
  8
FUTO
 10
13387.3573519499
 20
9101.7391744168435
 30
0.0
 11
13387.3573519499
 21
8901.7391744168435
 31
0.0
  0
LINE
  5
5563
  8
FUTO
 10
13259.3573519499
 20
9101.7391744168435
 30
0.0
 11
13259.3573519499
 21
8901.7391744168435
 31
0.0
  0
LINE
  5
55BF
  8
FUTO
 10
12718.3573519499
 20
8873.7391744168435
 30
0.0
 11
12568.3573519499
 21
8873.7391744168453
 31
0.0
  0
LINE
  5
55C1
  8
FUTO
 10
12718.3573519499
 20
8873.7391744168435
 30
0.0
 11
12718.3573519499
 21
8833.7391744168435
 31
0.0
  0
LINE
  5
55C6
  8
FUTO
 10
12568.3573519499
 20
8873.7391744168453
 30
0.0
 11
12568.3573519499
 21
7731.7391744168426
 31
0.0
  0
LINE
  5
55CC
  8
FUTO
 10
12588.3573519499
 20
8881.7391744168453
 30
0.0
 11
12588.3573519499
 21
8873.7391744168453
 31
0.0
  0
LINE
  5
55CD
  8
FUTO
 10
12698.3573519499
 20
8881.7391744168453
 30
0.0
 11
12698.3573519499
 21
8873.7391744168435
 31
0.0
  0
LINE
  5
55DF
  8
FUTO
 10
13233.3573519499
 20
8843.7391744168435
 30
0.0
 11
13413.3573519499
 21
8843.7391744168435
 31
0.0
  0
LINE
  5
55E0
  8
FUTO
 10
13413.3573519499
 20
8843.7391744168435
 30
0.0
 11
13413.3573519499
 21
7731.7391744168444
 31
0.0
  0
LINE
  5
55E6
  8
FUTO
 10
13233.3573519499
 20
8843.7391744168435
 30
0.0
 11
13233.3573519499
 21
8833.7391744168435
 31
0.0
  0
LINE
  5
55ED
  8
FUTO
 10
13243.3573519499
 20
8851.7391744168435
 30
0.0
 11
13243.3573519499
 21
8843.7391744168435
 31
0.0
  0
LINE
  5
55EE
  8
FUTO
 10
13403.3573519499
 20
8851.7391744168435
 30
0.0
 11
13403.3573519499
 21
8843.7391744168435
 31
0.0
  0
LINE
  5
55F3
  8
FUTO
 10
13233.3573519499
 20
8833.7391744168435
 30
0.0
 11
12718.3573519499
 21
8833.7391744168435
 31
0.0
  0
LINE
  5
5600
  8
FUTO
 10
13466.1573519499
 20
8990.7391744168435
 30
0.0
 11
14782.557351949899
 21
8990.7391744168435
 31
0.0
  0
LINE
  5
5601
  8
FUTO
 10
13466.1573519499
 20
8972.7391744168435
 30
0.0
 11
14782.557351949899
 21
8972.7391744168435
 31
0.0
  0
LINE
  5
5602
  8
FUTO
 10
13466.1573519499
 20
8990.7391744168435
 30
0.0
 11
13466.1573519499
 21
8972.7391744168435
 31
0.0
  0
LINE
  5
5603
  8
FUTO
 10
13534.3573519499
 20
8972.7391744168435
 30
0.0
 11
13534.3573519499
 21
7731.7391744168426
 31
0.0
  0
LINE
  5
5604
  8
FUTO
 10
13531.1573519499
 20
8972.7391744168435
 30
0.0
 11
13531.1573519499
 21
7731.7391744168426
 31
0.0
  0
LINE
  5
5605
  8
FUTO
 10
14717.557351949899
 20
8972.7391744168435
 30
0.0
 11
14717.557351949899
 21
7731.7391744168426
 31
0.0
  0
LINE
  5
5606
  8
FUTO
 10
14714.3573519499
 20
8972.7391744168435
 30
0.0
 11
14714.3573519499
 21
7731.7391744168426
 31
0.0
  0
LINE
  5
5608
  8
FUTO
 10
14782.557351949899
 20
8990.7391744168453
 30
0.0
 11
14792.557351949899
 21
9000.7391744168472
 31
0.0
  0
LINE
  5
5609
  8
FUTO
 10
14782.557351949899
 20
8972.7391744168435
 30
0.0
 11
14792.557351949899
 21
8962.7391744168417
 31
0.0
  0
LINE
  5
560A
  8
FUTO
 10
14792.557351949899
 20
8962.7391744168417
 30
0.0
 11
14792.557351949899
 21
7731.7391744168426
 31
0.0
  0
LINE
  5
560B
  8
FUTO
 10
13466.1573519499
 20
8990.7391744168435
 30
0.0
 11
13456.1573519499
 21
9000.7391744168435
 31
0.0
  0
LINE
  5
560C
  8
FUTO
 10
13466.1573519499
 20
8972.7391744168435
 30
0.0
 11
13456.1573519499
 21
8962.7391744168435
 31
0.0
  0
LINE
  5
560D
  8
FUTO
 10
13456.1573519499
 20
8962.7391744168435
 30
0.0
 11
13456.1573519499
 21
7731.7391744168426
 31
0.0
  0
LINE
  5
560E
  8
SL
 10
12383.3573519499
 20
9296.7391744168435
 30
0.0
 11
12383.3573519499
 21
7859.2391744168444
 31
0.0
  0
LINE
  5
560F
  8
SL
 10
12383.3573519499
 20
9296.7391744168435
 30
0.0
 11
12461.2573519499
 21
9296.7391744168435
 31
0.0
  0
LINE
  5
5610
  8
SL
 10
12383.3573519499
 20
8666.7391744168453
 30
0.0
 11
12461.2573519499
 21
8666.7391744168453
 31
0.0
  0
LINE
  5
5611
  8
SL
 10
12461.2573519499
 20
9296.7391744168435
 30
0.0
 11
12461.2573519499
 21
9061.7391744168435
 31
0.0
  0
LINE
  5
5613
  8
SL
 10
12483.3573519499
 20
9061.7391744168435
 30
0.0
 11
12483.3573519499
 21
8901.7391744168435
 31
0.0
  0
LINE
  5
5614
  8
SL
 10
12461.2573519499
 20
9061.7391744168435
 30
0.0
 11
12483.3573519499
 21
9061.7391744168435
 31
0.0
  0
LINE
  5
5615
  8
SL
 10
12461.2573519499
 20
8901.7391744168435
 30
0.0
 11
12483.3573519499
 21
8901.7391744168435
 31
0.0
  0
LINE
  5
5616
  8
SL
 10
12461.2573519499
 20
8901.7391744168435
 30
0.0
 11
12461.2573519499
 21
8666.7391744168453
 31
0.0
  0
LINE
  5
5617
  8
CT
 10
12244.3573519499
 20
7991.7391744168444
 30
0.0
 11
12560.3573519499
 21
7991.7391744168444
 31
0.0
  0
LINE
  5
5618
  8
SL
 10
12383.3573519499
 20
8124.2391744168444
 30
0.0
 11
12461.2573519499
 21
8124.2391744168444
 31
0.0
  0
LINE
  5
5619
  8
SL
 10
12383.3573519499
 20
7859.2391744168444
 30
0.0
 11
12461.2573519499
 21
7859.2391744168444
 31
0.0
  0
LINE
  5
561A
  8
SL
 10
12461.2573519499
 20
9296.7391744168435
 30
0.0
 11
12461.2573519499
 21
8061.7391744168444
 31
0.0
  0
LINE
  5
561B
  8
SL
 10
12481.3573519499
 20
8061.7391744168444
 30
0.0
 11
12481.3573519499
 21
7921.7391744168444
 31
0.0
  0
LINE
  5
561C
  8
SL
 10
12461.2573519499
 20
8061.7391744168444
 30
0.0
 11
12481.3573519499
 21
8061.7391744168444
 31
0.0
  0
LINE
  5
561D
  8
SL
 10
12461.2573519499
 20
7921.7391744168444
 30
0.0
 11
12481.3573519499
 21
7921.7391744168444
 31
0.0
  0
LINE
  5
561E
  8
SL
 10
12461.2573519499
 20
7921.7391744168444
 30
0.0
 11
12461.2573519499
 21
7859.2391744168444
 31
0.0
  0
LINE
  5
561F
  8
FUTO
 10
12244.3573519499
 20
9361.7391744168453
 30
0.0
 11
12533.3573519499
 21
9361.7391744168453
 31
0.0
  0
LINE
  5
5620
  8
FUTO
 10
12244.3573519499
 20
7771.7391744168453
 30
0.0
 11
12533.3573519499
 21
7771.7391744168426
 31
0.0
  0
LINE
  5
5621
  8
FUTO
 10
12244.3573519499
 20
9361.7391744168453
 30
0.0
 11
12244.3573519499
 21
7771.7391744168426
 31
0.0
  0
LINE
  5
5622
  8
FUTO
 10
12533.3573519499
 20
9361.7391744168453
 30
0.0
 11
12533.3573519499
 21
7771.7391744168426
 31
0.0
  0
LINE
  5
5623
  8
FUTO
 10
12713.3573519499
 20
9031.7391744168435
 30
0.0
 11
13237.3573519499
 21
9031.7391744168435
 31
0.0
  0
LINE
  5
5624
  8
FUTO
 10
12713.3573519499
 20
8931.7391744168435
 30
0.0
 11
13237.3573519499
 21
8931.7391744168435
 31
0.0
  0
LINE
  5
5625
  8
KL
 10
13409.3573519499
 20
9031.7391744168435
 30
0.0
 11
13531.1573519499
 21
9031.7391744168435
 31
0.0
  0
LINE
  5
5626
  8
KL
 10
13409.3573519499
 20
8931.7391744168435
 30
0.0
 11
13531.1573519499
 21
8931.7391744168435
 31
0.0
  0
LINE
  5
5627
  8
FUTO
 10
12483.3573519499
 20
9024.2391744168453
 30
0.0
 11
12573.3573519499
 21
9024.2391744168453
 31
0.0
  0
LINE
  5
5628
  8
FUTO
 10
12483.3573519499
 20
8939.2391744168435
 30
0.0
 11
12573.3573519499
 21
8939.2391744168435
 31
0.0
  0
LINE
  5
5694
  8
FUTO
 10
10682.348801867871
 20
11363.076311850289
 30
0.0
 11
8507.3488018678745
 21
11363.076311850289
 31
0.0
  0
LINE
  5
5695
  8
FUTO
 10
10082.348801867871
 20
13663.076311850289
 30
0.0
 11
8182.3488018678763
 21
13663.076311850289
 31
0.0
  0
LINE
  5
5696
  8
FUTO
 10
8182.3488018678763
 20
13663.076311850289
 30
0.0
 11
8182.3488018678763
 21
13638.076311850289
 31
0.0
  0
LINE
  5
5699
  8
FUTO
 10
10830.348801867871
 20
12400.076311850289
 30
0.0
 11
9174.3488018678763
 21
12400.076311850289
 31
0.0
  0
LINE
  5
569A
  8
FUTO
 10
10682.348801867871
 20
12325.076311850289
 30
0.0
 11
8182.3488018678763
 21
12325.076311850289
 31
0.0
  0
LINE
  5
569B
  8
FUTO
 10
10682.348801867871
 20
11438.076311850289
 30
0.0
 11
8507.3488018678745
 21
11438.076311850289
 31
0.0
  0
LINE
  5
569C
  8
FUTO
 10
10830.348801867871
 20
13588.076311850289
 30
0.0
 11
9174.3488018678763
 21
13588.076311850289
 31
0.0
  0
LINE
  5
56A0
  8
FUTO
 10
8507.3488018678745
 20
12325.076311850289
 30
0.0
 11
8507.3488018678745
 21
11363.076311850289
 31
0.0
  0
LINE
  5
56A2
  8
FUTO
 10
8582.3488018678763
 20
12325.076311850289
 30
0.0
 11
8582.3488018678763
 21
11438.076311850289
 31
0.0
  0
LINE
  5
56A4
  8
FUTO
 10
9757.3488018678763
 20
12325.076311850289
 30
0.0
 11
9757.3488018678763
 21
11438.076311850289
 31
0.0
  0
LINE
  5
56A6
  8
FUTO
 10
10082.348801867871
 20
13663.076311850289
 30
0.0
 11
10082.348801867871
 21
13653.076311850289
 31
0.0
  0
LINE
  5
56A7
  8
FUTO
 10
9682.3488018678763
 20
12325.076311850289
 30
0.0
 11
9682.3488018678763
 21
11438.076311850289
 31
0.0
  0
LINE
  5
56A8
  8
FUTO
 10
10682.348801867871
 20
12335.076311850289
 30
0.0
 11
10682.348801867871
 21
12325.076311850289
 31
0.0
  0
LINE
  5
56A9
  8
FUTO
 10
10682.348801867871
 20
11438.076311850289
 30
0.0
 11
10682.348801867871
 21
11363.076311850289
 31
0.0
  0
LINE
  5
56AA
  8
CT
 10
10382.348801867871
 20
12275.076311850289
 30
0.0
 11
10382.348801867871
 21
10857.61948397567
 31
0.0
  0
LINE
  5
56AC
  8
FUTO
 10
10572.348801867871
 20
12325.076311850289
 30
0.0
 11
10572.348801867871
 21
12000.614869478441
 31
0.0
  0
LINE
  5
56AD
  8
FUTO
 10
10507.348801867871
 20
12325.076311850289
 30
0.0
 11
10507.348801867871
 21
12052.576311850289
 31
0.0
  0
LINE
  5
56AE
  8
FUTO
 10
10257.348801867871
 20
12325.076311850289
 30
0.0
 11
10257.348801867871
 21
12052.576311850289
 31
0.0
  0
LINE
  5
56AF
  8
FUTO
 10
10192.348801867871
 20
12325.076311850289
 30
0.0
 11
10192.348801867871
 21
11993.476274850291
 31
0.0
  0
LINE
  5
56B0
  8
CT
 10
10906.93526214729
 20
12994.076311850289
 30
0.0
 11
7781.8327999378134
 21
12994.076311850289
 31
0.0
  0
LINE
  5
69CC
  8
CT
 10
14694.3573519499
 20
9821.7391744168435
 30
0.0
 11
14737.557351949899
 21
9821.7391744168435
 31
0.0
  0
DIMENSION
  5
6A61
  8
SP
  2
*D3
 10
9132.3488018678745
 20
7331.2268642337403
 30
0.0
 11
8657.3488018678745
 21
7418.7268642337403
 31
0.0
 70
     0
 13
8182.3488018678763
 23
7581.7391744168426
 33
0.0
 14
9132.3488018678745
 24
7581.7391744168426
 34
0.0
1001
ACAD
1000
DSTYLE
1002
{
1070
    40
1040
35.0
1070
   147
1040
1.0
1070
    41
1040
2.5
1002
}
  0
DIMENSION
  5
6A6E
  8
SP
  2
*D4
 10
10682.348801867871
 20
7331.2268642337403
 30
0.0
 11
9907.3488018678745
 21
7418.7268642337403
 31
0.0
 70
     0
 13
9132.3488018678745
 23
7581.7391744168426
 33
0.0
 14
10682.348801867871
 24
7581.7391744168426
 34
0.0
1001
ACAD
1000
DSTYLE
1002
{
1070
    40
1040
35.0
1070
   147
1040
1.0
1070
    41
1040
2.5
1002
}
  0
DIMENSION
  5
6A7B
  8
SP
  2
*D5
 10
10682.348801867871
 20
7081.1391202360819
 30
0.0
 11
9432.3488018678763
 21
7168.6391202360828
 31
0.0
 70
     0
 13
8182.3488018678763
 23
7581.7391744168426
 33
0.0
 14
10682.348801867871
 24
7581.7391744168426
 34
0.0
1001
ACAD
1000
DSTYLE
1002
{
1070
    40
1040
35.0
1070
   147
1040
1.0
1070
    41
1040
2.5
1002
}
  0
DIMENSION
  5
6A88
  8
SP
  2
*D6
 10
14124.3573519499
 20
7331.2268408459022
 30
0.0
 11
13308.8573519499
 21
7418.7268408459022
 31
0.0
 70
     0
 13
12493.3573519499
 23
7581.7391744168426
 33
0.0
 14
14124.3573519499
 24
7581.7391744168426
 34
0.0
1001
ACAD
1000
DSTYLE
1002
{
1070
    40
1040
35.0
1070
   147
1040
1.0
1070
    41
1040
2.5
1002
}
  0
DIMENSION
  5
6A95
  8
SP
  2
*D7
 10
14793.3573519499
 20
7331.2268408459022
 30
0.0
 11
14458.8573519499
 21
7418.7268408459022
 31
0.0
 70
     0
 13
14124.3573519499
 23
7581.7391744168426
 33
0.0
 14
14793.3573519499
 24
7581.7391744168426
 34
0.0
1001
ACAD
1000
DSTYLE
1002
{
1070
    40
1040
35.0
1070
   147
1040
1.0
1070
    41
1040
2.5
1002
}
  0
DIMENSION
  5
6AA2
  8
SP
  2
*D8
 10
14793.3573519499
 20
7081.1390968482438
 30
0.0
 11
13643.3573519499
 21
7168.6390968482438
 31
0.0
 70
     0
 13
12493.3573519499
 23
7581.7391744168426
 33
0.0
 14
14793.3573519499
 24
7581.7391744168426
 34
0.0
1001
ACAD
1000
DSTYLE
1002
{
1070
    40
1040
35.0
1070
   147
1040
1.0
1070
    41
1040
2.5
1002
}
  0
LINE
  5
6AB0
  8
SP
 10
14124.3573519499
 20
10303.998176545691
 30
0.0
 11
14124.3573519499
 21
10338.998176545691
 31
0.0
  0
LINE
  5
6ADF
  8
FUTO
 10
14849.3573519499
 20
9846.7391744168435
 30
0.0
 11
14849.3573519499
 21
8116.7391744168444
 31
0.0
  0
LINE
  5
6AE1
  8
KL
 10
14717.557351949899
 20
9781.7391744168435
 30
0.0
 11
14849.3573519499
 21
9781.7391744168435
 31
0.0
  0
LINE
  5
6AE5
  8
KL
 10
14717.557351949899
 20
9846.7391744168435
 30
0.0
 11
14723.557351949899
 21
9846.7391744168435
 31
0.0
  0
LINE
  5
6AE7
  8
FUTO
 10
14843.3573519499
 20
9846.7391744168435
 30
0.0
 11
14843.3573519499
 21
8116.7391744168444
 31
0.0
  0
LINE
  5
6AE8
  8
FUTO
 10
14792.557351949899
 20
9787.7391744168435
 30
0.0
 11
14843.3573519499
 21
9787.7391744168435
 31
0.0
  0
LINE
  5
6AEA
  8
KL
 10
14723.557351949899
 20
9846.7391744168435
 30
0.0
 11
14723.557351949899
 21
8990.7391744168435
 31
0.0
  0
LINE
  5
6AEB
  8
FUTO
 10
14843.3573519499
 20
9846.7391744168435
 30
0.0
 11
14849.3573519499
 21
9846.7391744168435
 31
0.0
  0
LINE
  5
6AEC
  8
CT
 10
14824.3573519499
 20
9821.7391744168435
 30
0.0
 11
14867.557351949899
 21
9821.7391744168435
 31
0.0
  0
LINE
  5
6AED
  8
KL
 10
14717.557351949899
 20
8181.7391744168426
 30
0.0
 11
14849.3573519499
 21
8181.7391744168426
 31
0.0
  0
LINE
  5
6AEE
  8
CT
 10
14694.3573519499
 20
8141.7391744168444
 30
0.0
 11
14737.557351949899
 21
8141.7391744168444
 31
0.0
  0
LINE
  5
6AEF
  8
KL
 10
14717.557351949899
 20
8116.7391744168444
 30
0.0
 11
14723.557351949899
 21
8116.7391744168444
 31
0.0
  0
LINE
  5
6AF0
  8
CT
 10
14824.3573519499
 20
8141.7391744168444
 30
0.0
 11
14867.557351949899
 21
8141.7391744168444
 31
0.0
  0
LINE
  5
6AF1
  8
FUTO
 10
14792.557351949899
 20
8175.7391744168426
 30
0.0
 11
14843.3573519499
 21
8175.7391744168426
 31
0.0
  0
LINE
  5
6AF2
  8
FUTO
 10
14843.3573519499
 20
8116.7391744168444
 30
0.0
 11
14849.3573519499
 21
8116.7391744168444
 31
0.0
  0
LINE
  5
6AF3
  8
KL
 10
14723.557351949899
 20
8972.7391744168435
 30
0.0
 11
14723.557351949899
 21
8116.7391744168444
 31
0.0
  0
DIMENSION
  5
6B00
  8
SP
  2
*D9
 10
14849.3573519499
 20
10349.97055609466
 30
0.0
 11
14486.8573519499
 21
10437.47055609466
 31
0.0
 70
     0
 13
14124.3573519499
 23
10303.998176545691
 33
0.0
 14
14849.3573519499
 24
9846.7391744168435
 34
0.0
1001
ACAD
1000
DSTYLE
1002
{
1070
    40
1040
35.0
1070
   147
1040
1.0
1070
    41
1040
2.5
1002
}
  0
LINE
  5
6E16
  8
SL
 10
12734.577338004319
 20
8833.7391744168435
 30
0.0
 11
12734.577338004319
 21
9138.5565330204336
 31
0.0
  0
LINE
  5
6E17
  8
SL
 10
12734.577338004319
 20
9138.5565330204336
 30
0.0
 11
13220.532710433081
 21
9138.5565330204336
 31
0.0
  0
LINE
  5
6E18
  8
SL
 10
13220.532710433081
 20
9138.5565330204336
 30
0.0
 11
13220.532710433081
 21
8833.7391744168435
 31
0.0
  0
INSERT
  5
6E51
  8
FUTO
  2
右回転矢印
 10
8921.8431020965945
 20
9594.5404986640824
 30
0.0
 41
-35.0
 42
35.0
 43
35.0
  0
INSERT
  5
6EE2
  8
FUTO
  2
まっすぐの矢印
 10
9529.2663025384718
 20
10257.625698160669
 30
0.0
 41
35.0
 42
35.0
 43
35.0
  0
INSERT
  5
6EEC
  8
FUTO
  2
まっすぐの矢印
 10
14895.82533152106
 20
9509.4408747604066
 30
0.0
 41
35.0
 42
35.0
 43
35.0
 50
90.0
  0
DIMENSION
  5
6F64
  8
SP
  2
*D10
 10
15128.55075315178
 20
8181.7391744168426
 30
0.0
 11
15041.05075315178
 21
8981.7391744168453
 31
0.0
 70
     0
 13
14849.3573519499
 23
9781.7391744168435
 33
0.0
 14
14849.3573519499
 24
8181.7391744168426
 34
0.0
 50
90.0
1001
ACAD
1000
DSTYLE
1002
{
1070
    40
1040
35.0
1070
     3
1000
φ<>
1070
   147
1040
1.0
1070
    41
1040
2.5
1002
}
  0
DIMENSION
  5
6FB2
  8
SP
  2
*D11
 10
14124.3573519499
 20
10349.97055609466
 30
0.0
 11
13184.3573519499
 21
10437.47055609466
 31
0.0
 70
     0
 13
12244.3573519499
 23
9361.7391744168453
 33
0.0
 14
14124.3573519499
 24
10349.97055609466
 34
0.0
1001
ACAD
1000
DSTYLE
1002
{
1070
    40
1040
35.0
1070
    41
1040
2.5
1070
   147
1040
1.0
1002
}
  0
LINE
  5
6FD7
  8
CT
 10
9132.3488018678745
 20
11114.076311850289
 30
0.0
 11
9132.3488018678745
 21
13763.85422366716
 31
0.0
  0
LINE
  5
6FDA
  8
FUTO
 10
8752.3488018678763
 20
11114.076311850289
 30
0.0
 11
10585.848801867871
 21
11114.076311850289
 31
0.0
  0
LINE
  5
6FDB
  8
FUTO
 10
8752.3488018678763
 20
11403.076311850289
 30
0.0
 11
10585.848801867871
 21
11403.076311850289
 31
0.0
  0
LINE
  5
6FDC
  8
SL
 10
8817.3488018678763
 20
11330.976311850291
 30
0.0
 11
10249.848801867871
 21
11330.976311850291
 31
0.0
  0
LINE
  5
6FDD
  8
SL
 10
8817.3488018678763
 20
11253.076311850289
 30
0.0
 11
10514.848801867871
 21
11253.076311850289
 31
0.0
  0
LINE
  5
6FE5
  8
SL
 10
10249.848801867871
 20
11351.076311850289
 30
0.0
 11
10514.848801867871
 21
11351.076311850289
 31
0.0
  0
LINE
  5
6FE8
  8
FUTO
 10
8752.3488018678763
 20
11114.076311850289
 30
0.0
 11
8752.3488018678763
 21
11403.076311850289
 31
0.0
  0
LINE
  5
6FE9
  8
SL
 10
9212.3488018678763
 20
11330.976311850291
 30
0.0
 11
9212.3488018678763
 21
11353.076311850289
 31
0.0
  0
LINE
  5
6FEA
  8
SL
 10
9052.3488018678763
 20
11330.976311850291
 30
0.0
 11
9052.3488018678763
 21
11353.076311850289
 31
0.0
  0
LINE
  5
6FEB
  8
SL
 10
8817.3488018678763
 20
11330.976311850291
 30
0.0
 11
9052.3488018678763
 21
11330.976311850291
 31
0.0
  0
LINE
  5
6FEC
  8
SL
 10
9212.3488018678763
 20
11330.976311850291
 30
0.0
 11
9447.3488018678763
 21
11330.976311850291
 31
0.0
  0
LINE
  5
6FED
  8
SL
 10
9447.3488018678763
 20
11253.076311850289
 30
0.0
 11
9447.3488018678763
 21
11330.976311850291
 31
0.0
  0
LINE
  5
6FEE
  8
SL
 10
8817.3488018678763
 20
11253.076311850289
 30
0.0
 11
8817.3488018678763
 21
11330.976311850291
 31
0.0
  0
LINE
  5
6FF1
  8
FUTO
 10
9182.3488018678763
 20
11583.076311850289
 30
0.0
 11
9182.3488018678763
 21
12107.076311850289
 31
0.0
  0
LINE
  5
6FF2
  8
FUTO
 10
9082.3488018678763
 20
11583.076311850289
 30
0.0
 11
9082.3488018678763
 21
12107.076311850289
 31
0.0
  0
LINE
  5
6FF5
  8
CT
 10
8971.9818438319126
 20
11513.076311850289
 30
0.0
 11
9304.0278926054089
 21
11513.076311850289
 31
0.0
  0
LINE
  5
6FF6
  8
FUTO
 10
9032.3488018678745
 20
11463.076311850289
 30
0.0
 11
9232.3488018678763
 21
11463.076311850289
 31
0.0
  0
ARC
  5
6FF7
  8
FUTO
 10
9221.3488018678745
 20
11454.076311850289
 30
0.0
 40
6.0
 50
270.0
 51
0.0
  0
LINE
  5
6FF8
  8
FUTO
 10
9232.3488018678763
 20
11563.076311850289
 30
0.0
 11
9032.3488018678745
 21
11563.076311850289
 31
0.0
  0
ARC
  5
6FF9
  8
FUTO
 10
9221.3488018678745
 20
11572.076311850289
 30
0.0
 40
6.0
 50
0.0
 51
90.0
  0
LINE
  5
6FFD
  8
FUTO
 10
9227.3488018678763
 20
11454.076311850289
 30
0.0
 11
9227.3488018678763
 21
11463.076311850289
 31
0.0
  0
LINE
  5
7000
  8
FUTO
 10
9227.3488018678763
 20
11572.076311850289
 30
0.0
 11
9227.3488018678763
 21
11563.076311850289
 31
0.0
  0
ARC
  5
7001
  8
FUTO
 10
9043.3488018678763
 20
11454.076311850289
 30
0.0
 40
6.0
 50
180.0
 51
270.0
  0
ARC
  5
7002
  8
FUTO
 10
9043.3488018678763
 20
11572.076311850289
 30
0.0
 40
6.0
 50
90.0
 51
180.0
  0
LINE
  5
7004
  8
FUTO
 10
9174.8488018678763
 20
11353.076311850289
 30
0.0
 11
9174.8488018678763
 21
11443.076311850289
 31
0.0
  0
LINE
  5
7005
  8
FUTO
 10
9089.8488018678763
 20
11353.076311850289
 30
0.0
 11
9089.8488018678763
 21
11443.076311850289
 31
0.0
  0
LINE
  5
7006
  8
SL
 10
9052.3488018678763
 20
11353.076311850289
 30
0.0
 11
9212.3488018678763
 21
11353.076311850289
 31
0.0
  0
LINE
  5
7007
  8
FUTO
 10
9052.3488018678763
 20
11443.076311850289
 30
0.0
 11
9212.3488018678763
 21
11443.076311850289
 31
0.0
  0
LINE
  5
7008
  8
FUTO
 10
9043.3488018678763
 20
11448.076311850289
 30
0.0
 11
9221.3488018678745
 21
11448.076311850289
 31
0.0
  0
LINE
  5
7009
  8
FUTO
 10
9212.3488018678763
 20
11443.076311850289
 30
0.0
 11
9212.3488018678763
 21
11448.076311850289
 31
0.0
  0
LINE
  5
700B
  8
FUTO
 10
9052.3488018678763
 20
11448.076311850289
 30
0.0
 11
9052.3488018678763
 21
11443.076311850289
 31
0.0
  0
LINE
  5
700C
  8
FUTO
 10
9043.3488018678763
 20
11578.076311850289
 30
0.0
 11
9221.3488018678745
 21
11578.076311850289
 31
0.0
  0
LINE
  5
700D
  8
FUTO
 10
9052.3488018678763
 20
11583.076311850289
 30
0.0
 11
9212.3488018678763
 21
11583.076311850289
 31
0.0
  0
LINE
  5
700F
  8
FUTO
 10
9212.3488018678763
 20
11583.076311850289
 30
0.0
 11
9212.3488018678763
 21
11578.076311850289
 31
0.0
  0
LINE
  5
7010
  8
FUTO
 10
9052.3488018678763
 20
11578.076311850289
 30
0.0
 11
9052.3488018678763
 21
11583.076311850289
 31
0.0
  0
LINE
  5
7011
  8
FUTO
 10
9032.3488018678745
 20
11563.076311850289
 30
0.0
 11
9032.3488018678745
 21
11463.076311850289
 31
0.0
  0
LINE
  5
7012
  8
FUTO
 10
9037.3488018678763
 20
11463.076311850289
 30
0.0
 11
9037.3488018678763
 21
11454.076311850289
 31
0.0
  0
LINE
  5
7013
  8
FUTO
 10
9037.3488018678763
 20
11563.076311850289
 30
0.0
 11
9037.3488018678763
 21
11572.076311850289
 31
0.0
  0
LINE
  5
7015
  8
FUTO
 10
9012.3488018678781
 20
12115.076311850289
 30
0.0
 11
9252.3488018678763
 21
12115.076311850289
 31
0.0
  0
LINE
  5
7016
  8
FUTO
 10
9012.3488018678781
 20
12271.076311850289
 30
0.0
 11
9252.3488018678763
 21
12271.076311850289
 31
0.0
  0
LINE
  5
7018
  8
FUTO
 10
9212.3488018678763
 20
12107.076311850289
 30
0.0
 11
9232.3488018678763
 21
12115.076311850289
 31
0.0
  0
LINE
  5
701A
  8
FUTO
 10
9212.3488018678763
 20
12279.076311850289
 30
0.0
 11
9232.3488018678763
 21
12271.076311850289
 31
0.0
  0
LINE
  5
701D
  8
CT
 10
8971.9818438319126
 20
12193.076311850289
 30
0.0
 11
9304.0278926054089
 21
12193.076311850289
 31
0.0
  0
LINE
  5
7022
  8
FUTO
 10
9252.3488018678763
 20
12115.076311850289
 30
0.0
 11
9252.3488018678763
 21
12123.076311850289
 31
0.0
  0
LINE
  5
7024
  8
FUTO
 10
9252.3488018678763
 20
12271.076311850289
 30
0.0
 11
9252.3488018678763
 21
12263.076311850289
 31
0.0
  0
LINE
  5
7026
  8
FUTO
 10
8999.3488018678763
 20
12139.076311850289
 30
0.0
 11
8999.3488018678763
 21
12247.076311850289
 31
0.0
  0
LINE
  5
7027
  8
FUTO
 10
9012.3488018678781
 20
12129.076311850289
 30
0.0
 11
9252.3488018678763
 21
12129.076311850289
 31
0.0
  0
LINE
  5
7028
  8
FUTO
 10
9052.3488018678763
 20
12107.076311850289
 30
0.0
 11
9032.3488018678745
 21
12115.076311850289
 31
0.0
  0
LINE
  5
7029
  8
FUTO
 10
8999.3488018678763
 20
12165.576311850289
 30
0.0
 11
9265.3488018678781
 21
12165.576311850289
 31
0.0
  0
LINE
  5
702A
  8
FUTO
 10
9052.3488018678763
 20
12107.076311850289
 30
0.0
 11
9212.3488018678763
 21
12107.076311850289
 31
0.0
  0
LINE
  5
702C
  8
FUTO
 10
9012.3488018678781
 20
12115.076311850289
 30
0.0
 11
9012.3488018678781
 21
12129.076311850289
 31
0.0
  0
LINE
  5
702D
  8
FUTO
 10
8999.3488018678763
 20
12139.076311850289
 30
0.0
 11
9012.3488018678781
 21
12139.076311850289
 31
0.0
  0
LINE
  5
702E
  8
FUTO
 10
9012.3488018678781
 20
12129.076311850289
 30
0.0
 11
9012.3488018678781
 21
12165.576311850289
 31
0.0
  0
LINE
  5
702F
  8
FUTO
 10
9012.3488018678781
 20
12257.076311850289
 30
0.0
 11
9212.3488018678763
 21
12257.076311850289
 31
0.0
  0
LINE
  5
7030
  8
FUTO
 10
9052.3488018678763
 20
12279.076311850289
 30
0.0
 11
9032.3488018678745
 21
12271.076311850289
 31
0.0
  0
LINE
  5
7031
  8
FUTO
 10
9012.3488018678781
 20
12257.076311850289
 30
0.0
 11
9252.3488018678763
 21
12257.076311850289
 31
0.0
  0
LINE
  5
7032
  8
FUTO
 10
8999.3488018678763
 20
12220.576311850289
 30
0.0
 11
9265.3488018678781
 21
12220.576311850289
 31
0.0
  0
LINE
  5
7033
  8
KL
 10
9182.3488018678763
 20
12279.076311850289
 30
0.0
 11
9182.3488018678763
 21
12400.87631185029
 31
0.0
  0
LINE
  5
7034
  8
KL
 10
9082.3488018678763
 20
12279.076311850289
 30
0.0
 11
9082.3488018678763
 21
12400.87631185029
 31
0.0
  0
LINE
  5
7035
  8
FUTO
 10
9052.3488018678763
 20
12279.076311850289
 30
0.0
 11
9212.3488018678763
 21
12279.076311850289
 31
0.0
  0
LINE
  5
703A
  8
FUTO
 10
8999.3488018678763
 20
12247.076311850289
 30
0.0
 11
9012.3488018678781
 21
12247.076311850289
 31
0.0
  0
LINE
  5
703B
  8
FUTO
 10
9012.3488018678781
 20
12271.076311850289
 30
0.0
 11
9012.3488018678781
 21
12257.076311850289
 31
0.0
  0
LINE
  5
703C
  8
FUTO
 10
9012.3488018678781
 20
12220.576311850289
 30
0.0
 11
9012.3488018678781
 21
12257.076311850289
 31
0.0
  0
LINE
  5
703F
  8
KL
 10
9141.3488018678745
 20
13593.27631185029
 30
0.0
 11
9997.3488018678763
 21
13593.27631185029
 31
0.0
  0
LINE
  5
7040
  8
FUTO
 10
8267.3488018678763
 20
13713.076311850289
 30
0.0
 11
9997.3488018678763
 21
13713.076311850289
 31
0.0
  0
LINE
  5
7041
  8
FUTO
 10
8267.3488018678763
 20
13719.076311850289
 30
0.0
 11
9997.3488018678763
 21
13719.076311850289
 31
0.0
  0
LINE
  5
7045
  8
KL
 10
9997.3488018678763
 20
13587.27631185029
 30
0.0
 11
9997.3488018678763
 21
13593.27631185029
 31
0.0
  0
LINE
  5
7046
  8
FUTO
 10
9997.3488018678763
 20
13713.076311850289
 30
0.0
 11
9997.3488018678763
 21
13719.076311850289
 31
0.0
  0
LINE
  5
7047
  8
FUTO
 10
9938.3488018678763
 20
13662.27631185029
 30
0.0
 11
9938.3488018678763
 21
13713.076311850289
 31
0.0
  0
LINE
  5
7048
  8
KL
 10
9932.3488018678763
 20
13587.27631185029
 30
0.0
 11
9932.3488018678763
 21
13719.076311850289
 31
0.0
  0
LINE
  5
7049
  8
CT
 10
9972.3488018678763
 20
13564.076311850289
 30
0.0
 11
9972.3488018678763
 21
13607.27631185029
 31
0.0
  0
LINE
  5
704A
  8
CT
 10
9972.3488018678763
 20
13694.076311850289
 30
0.0
 11
9972.3488018678763
 21
13737.27631185029
 31
0.0
  0
LINE
  5
704E
  8
KL
 10
8267.3488018678763
 20
13593.27631185029
 30
0.0
 11
9123.3488018678763
 21
13593.27631185029
 31
0.0
  0
INSERT
  5
7052
  8
FUTO
  2
まっすぐの矢印
 10
8875.4875495769083
 20
13765.544291421451
 30
0.0
 41
35.0
 42
35.0
 43
35.0
 50
180.0
  0
LINE
  5
7053
  8
FUTO
 10
8326.3488018678781
 20
13662.27631185029
 30
0.0
 11
8326.3488018678781
 21
13713.076311850289
 31
0.0
  0
LINE
  5
7054
  8
KL
 10
8332.3488018678763
 20
13587.27631185029
 30
0.0
 11
8332.3488018678763
 21
13719.076311850289
 31
0.0
  0
LINE
  5
7055
  8
CT
 10
8292.3488018678763
 20
13564.076311850289
 30
0.0
 11
8292.3488018678763
 21
13607.27631185029
 31
0.0
  0
LINE
  5
7056
  8
CT
 10
8292.3488018678763
 20
13694.076311850289
 30
0.0
 11
8292.3488018678763
 21
13737.27631185029
 31
0.0
  0
LINE
  5
7057
  8
KL
 10
8267.3488018678763
 20
13587.27631185029
 30
0.0
 11
8267.3488018678763
 21
13593.27631185029
 31
0.0
  0
LINE
  5
7058
  8
FUTO
 10
8267.3488018678763
 20
13713.076311850289
 30
0.0
 11
8267.3488018678763
 21
13719.076311850289
 31
0.0
  0
LINE
  5
7096
  8
FUTO
 10
9232.3488018678763
 20
11563.076311850289
 30
0.0
 11
9232.3488018678763
 21
11463.076311850289
 31
0.0
  0
LINE
  5
7097
  8
FUTO
 10
9265.3488018678781
 20
12139.076311850289
 30
0.0
 11
9265.3488018678781
 21
12247.076311850289
 31
0.0
  0
LINE
  5
7098
  8
FUTO
 10
9252.3488018678763
 20
12129.076311850289
 30
0.0
 11
9252.3488018678763
 21
12165.576311850289
 31
0.0
  0
LINE
  5
7099
  8
FUTO
 10
9265.3488018678781
 20
12139.076311850289
 30
0.0
 11
9252.3488018678763
 21
12139.076311850289
 31
0.0
  0
LINE
  5
709A
  8
FUTO
 10
9252.3488018678763
 20
12115.076311850289
 30
0.0
 11
9252.3488018678763
 21
12129.076311850289
 31
0.0
  0
LINE
  5
709B
  8
FUTO
 10
9252.3488018678763
 20
12220.576311850289
 30
0.0
 11
9252.3488018678763
 21
12257.076311850289
 31
0.0
  0
LINE
  5
709C
  8
FUTO
 10
9252.3488018678763
 20
12271.076311850289
 30
0.0
 11
9252.3488018678763
 21
12257.076311850289
 31
0.0
  0
LINE
  5
709D
  8
FUTO
 10
9265.3488018678781
 20
12247.076311850289
 30
0.0
 11
9252.3488018678763
 21
12247.076311850289
 31
0.0
  0
ARC
  5
7D1A
  8
FUTO
 10
10382.348801867871
 20
11354.076311850289
 30
0.0
 40
9.0
 50
0.000000000000007
 51
180.0
  0
LINE
  5
7D1B
  8
FUTO
 10
10391.348801867871
 20
11253.076311850289
 30
0.0
 11
10391.348801867871
 21
11354.076311850289
 31
0.0
  0
LINE
  5
7D1C
  8
FUTO
 10
10373.348801867871
 20
11253.076311850289
 30
0.0
 11
10373.348801867871
 21
11354.076311850289
 31
0.0
  0
LINE
  5
7D1D
  8
FUTO
 10
10639.34874086787
 20
11767.57625085029
 30
0.0
 11
10639.34874086787
 21
11803.576311850289
 31
0.0
  0
LINE
  5
7D1E
  8
FUTO
 10
10642.34874086787
 20
11767.57625085029
 30
0.0
 11
10642.34874086787
 21
11803.576311850289
 31
0.0
  0
LINE
  5
7D1F
  8
FUTO
 10
10634.34874086787
 20
11767.57625085029
 30
0.0
 11
10634.34874086787
 21
11814.576311850289
 31
0.0
  0
LINE
  5
7D20
  8
FUTO
 10
10592.348801867871
 20
11428.576311850289
 30
0.0
 11
10592.348801867871
 21
11475.451311850289
 31
0.0
  0
LINE
  5
7D21
  8
FUTO
 10
10540.040436863401
 20
11423.576311850289
 30
0.0
 11
10587.348801867871
 21
11423.576311850289
 31
0.0
  0
ARC
  5
7D22
  8
FUTO
 10
10587.348801867871
 20
11428.576311850289
 30
0.0
 40
5.0
 50
270.0
 51
0.000000000000007
  0
LINE
  5
7D23
  8
FUTO
 10
10572.0301470863
 20
11475.451311850289
 30
0.0
 11
10592.348801867871
 21
11475.451311850289
 31
0.0
  0
LINE
  5
7D24
  8
FUTO
 10
10592.348801867871
 20
11473.576311850289
 30
0.0
 11
10639.34874086787
 21
11473.576311850289
 31
0.0
  0
LINE
  5
7D25
  8
FUTO
 10
10592.348801867871
 20
11470.576311850289
 30
0.0
 11
10642.34874086787
 21
11470.576311850289
 31
0.0
  0
LINE
  5
7D26
  8
FUTO
 10
10572.13927543615
 20
11478.576311850289
 30
0.0
 11
10634.34874086787
 21
11478.576311850289
 31
0.0
  0
LINE
  5
7D27
  8
FUTO
 10
10634.34874086787
 20
11478.576311850289
 30
0.0
 11
10639.34874086787
 21
11473.576311850289
 31
0.0
  0
LINE
  5
7D28
  8
FUTO
 10
10667.34874086787
 20
11513.576311850289
 30
0.0
 11
10667.34874086787
 21
11553.576311850289
 31
0.0
  0
LINE
  5
7D29
  8
FUTO
 10
10637.34874086787
 20
11513.576311850289
 30
0.0
 11
10637.34874086787
 21
11553.576311850289
 31
0.0
  0
LINE
  5
7D2A
  8
FUTO
 10
10667.34874086787
 20
11553.576311850289
 30
0.0
 11
10637.34874086787
 21
11553.576311850289
 31
0.0
  0
LINE
  5
7D2B
  8
FUTO
 10
10637.34874086787
 20
11513.576311850289
 30
0.0
 11
10667.34874086787
 21
11513.576311850289
 31
0.0
  0
LINE
  5
7D2C
  8
CT
 10
10585.848801867871
 20
11533.576311850289
 30
0.0
 11
10753.403183867869
 21
11533.576311850289
 31
0.0
  0
LINE
  5
7D2D
  8
FUTO
 10
10741.80320886787
 20
11551.166155850289
 30
0.0
 11
10729.703232867871
 21
11551.166155850289
 31
0.0
  0
LINE
  5
7D2E
  8
FUTO
 10
10741.80320886787
 20
11515.986468850289
 30
0.0
 11
10729.703232867871
 21
11515.986468850289
 31
0.0
  0
LINE
  5
7D2F
  8
FUTO
 10
10741.80320886787
 20
11543.28138985029
 30
0.0
 11
10729.703232867871
 21
11543.28138985029
 31
0.0
  0
LINE
  5
7D30
  8
FUTO
 10
10741.80320886787
 20
11523.87123385029
 30
0.0
 11
10729.703232867871
 21
11523.87123385029
 31
0.0
  0
LINE
  5
7D31
  8
FUTO
 10
10743.403183867869
 20
11549.56654685029
 30
0.0
 11
10743.403183867869
 21
11517.58705385029
 31
0.0
  0
LINE
  5
7D32
  8
FUTO
 10
10741.80320886787
 20
11515.986468850289
 30
0.0
 11
10743.403183867869
 21
11517.58705385029
 31
0.0
  0
LINE
  5
7D33
  8
FUTO
 10
10741.80320886787
 20
11523.87123385029
 30
0.0
 11
10743.403183867869
 21
11522.271624850289
 31
0.0
  0
LINE
  5
7D34
  8
FUTO
 10
10741.80320886787
 20
11523.87123385029
 30
0.0
 11
10743.403183867869
 21
11525.471819850291
 31
0.0
  0
LINE
  5
7D35
  8
FUTO
 10
10743.403183867869
 20
11549.56654685029
 30
0.0
 11
10741.80320886787
 21
11551.166155850289
 31
0.0
  0
LINE
  5
7D36
  8
FUTO
 10
10741.80320886787
 20
11543.28138985029
 30
0.0
 11
10743.403183867869
 21
11544.88197585029
 31
0.0
  0
LINE
  5
7D37
  8
FUTO
 10
10741.80320886787
 20
11543.28138985029
 30
0.0
 11
10743.403183867869
 21
11541.681780850289
 31
0.0
  0
LINE
  5
7D38
  8
FUTO
 10
10729.703232867871
 20
11551.166155850289
 30
0.0
 11
10729.703232867871
 21
11515.986468850289
 31
0.0
  0
LINE
  5
7D39
  8
FUTO
 10
10729.703232867871
 20
11524.576311850289
 30
0.0
 11
10667.34874086787
 21
11524.576311850289
 31
0.0
  0
LINE
  5
7D3A
  8
HOSO
 10
10667.34874086787
 20
11526.576311850289
 30
0.0
 11
10729.703293867869
 21
11526.576311850289
 31
0.0
  0
LINE
  5
7D3B
  8
HOSO
 10
10729.703232867871
 20
11540.576311850289
 30
0.0
 11
10667.34874086787
 21
11540.576311850289
 31
0.0
  0
LINE
  5
7D3C
  8
FUTO
 10
10667.34874086787
 20
11542.576311850289
 30
0.0
 11
10729.703293867869
 21
11542.576311850289
 31
0.0
  0
LINE
  5
7D3D
  8
FUTO
 10
10637.34874086787
 20
11524.576311850289
 30
0.0
 11
10585.848801867871
 21
11524.576311850289
 31
0.0
  0
LINE
  5
7D3E
  8
HOSO
 10
10585.848801867871
 20
11526.576311850289
 30
0.0
 11
10637.34874086787
 21
11526.576311850289
 31
0.0
  0
LINE
  5
7D3F
  8
FUTO
 10
10585.848801867871
 20
11542.576311850289
 30
0.0
 11
10637.34874086787
 21
11542.576311850289
 31
0.0
  0
LINE
  5
7D40
  8
HOSO
 10
10637.34874086787
 20
11540.576311850289
 30
0.0
 11
10585.848801867871
 21
11540.576311850289
 31
0.0
  0
LINE
  5
7D41
  8
FUTO
 10
10642.34874086787
 20
11470.576311850289
 30
0.0
 11
10642.34874086787
 21
11513.576311850289
 31
0.0
  0
LINE
  5
7D42
  8
FUTO
 10
10639.34874086787
 20
11473.576311850289
 30
0.0
 11
10639.34874086787
 21
11513.576311850289
 31
0.0
  0
LINE
  5
7D43
  8
FUTO
 10
10634.34874086787
 20
11478.576311850289
 30
0.0
 11
10634.34874086787
 21
11524.576311850289
 31
0.0
  0
LINE
  5
7D44
  8
FUTO
 10
10642.34874086787
 20
11553.576311850289
 30
0.0
 11
10642.34874086787
 21
11589.576311850289
 31
0.0
  0
LINE
  5
7D45
  8
FUTO
 10
10639.34874086787
 20
11553.576311850289
 30
0.0
 11
10639.34874086787
 21
11589.576311850289
 31
0.0
  0
LINE
  5
7D46
  8
FUTO
 10
10634.34874086787
 20
11542.576311850289
 30
0.0
 11
10634.34874086787
 21
11589.576311850289
 31
0.0
  0
LINE
  5
7D47
  8
FUTO
 10
10667.34874086787
 20
11814.576311850289
 30
0.0
 11
10729.703293867869
 21
11814.576311850289
 31
0.0
  0
LINE
  5
7D48
  8
HOSO
 10
10729.703232867871
 20
11816.576311850289
 30
0.0
 11
10667.34874086787
 21
11816.576311850289
 31
0.0
  0
LINE
  5
7D49
  8
HOSO
 10
10667.34874086787
 20
11830.576311850289
 30
0.0
 11
10729.703293867869
 21
11830.576311850289
 31
0.0
  0
LINE
  5
7D4A
  8
FUTO
 10
10729.703232867871
 20
11832.576311850289
 30
0.0
 11
10667.34874086787
 21
11832.576311850289
 31
0.0
  0
LINE
  5
7D4B
  8
FUTO
 10
10729.703232867871
 20
11805.986467850291
 30
0.0
 11
10729.703232867871
 21
11841.166154850291
 31
0.0
  0
LINE
  5
7D4C
  8
FUTO
 10
10741.80320886787
 20
11813.87123385029
 30
0.0
 11
10743.403183867869
 21
11815.470842850291
 31
0.0
  0
LINE
  5
7D4D
  8
FUTO
 10
10741.80320886787
 20
11813.87123385029
 30
0.0
 11
10743.403183867869
 21
11812.27064785029
 31
0.0
  0
LINE
  5
7D4E
  8
FUTO
 10
10743.403183867869
 20
11807.58607685029
 30
0.0
 11
10741.80320886787
 21
11805.986467850291
 31
0.0
  0
LINE
  5
7D4F
  8
FUTO
 10
10741.80320886787
 20
11833.28138985029
 30
0.0
 11
10743.403183867869
 21
11831.68080385029
 31
0.0
  0
LINE
  5
7D50
  8
FUTO
 10
10741.80320886787
 20
11833.28138985029
 30
0.0
 11
10743.403183867869
 21
11834.880998850291
 31
0.0
  0
LINE
  5
7D51
  8
FUTO
 10
10741.80320886787
 20
11841.166154850291
 30
0.0
 11
10743.403183867869
 21
11839.565569850291
 31
0.0
  0
LINE
  5
7D52
  8
FUTO
 10
10743.403183867869
 20
11807.58607685029
 30
0.0
 11
10743.403183867869
 21
11839.565569850291
 31
0.0
  0
LINE
  5
7D53
  8
FUTO
 10
10741.80320886787
 20
11833.28138985029
 30
0.0
 11
10729.703232867871
 21
11833.28138985029
 31
0.0
  0
LINE
  5
7D54
  8
FUTO
 10
10741.80320886787
 20
11813.87123385029
 30
0.0
 11
10729.703232867871
 21
11813.87123385029
 31
0.0
  0
LINE
  5
7D55
  8
FUTO
 10
10741.80320886787
 20
11841.166154850291
 30
0.0
 11
10729.703232867871
 21
11841.166154850291
 31
0.0
  0
LINE
  5
7D56
  8
FUTO
 10
10741.80320886787
 20
11805.986467850291
 30
0.0
 11
10729.703232867871
 21
11805.986467850291
 31
0.0
  0
LINE
  5
7D57
  8
FUTO
 10
10637.34874086787
 20
11843.576311850289
 30
0.0
 11
10667.34874086787
 21
11843.576311850289
 31
0.0
  0
LINE
  5
7D58
  8
FUTO
 10
10667.34874086787
 20
11803.576311850289
 30
0.0
 11
10637.34874086787
 21
11803.576311850289
 31
0.0
  0
LINE
  5
7D59
  8
FUTO
 10
10637.34874086787
 20
11843.576311850289
 30
0.0
 11
10637.34874086787
 21
11803.576311850289
 31
0.0
  0
LINE
  5
7D5A
  8
FUTO
 10
10667.34874086787
 20
11843.576311850289
 30
0.0
 11
10667.34874086787
 21
11803.576311850289
 31
0.0
  0
LINE
  5
7D5B
  8
HOSO
 10
10637.34874086787
 20
11816.576311850289
 30
0.0
 11
10585.848801867871
 21
11816.576311850289
 31
0.0
  0
LINE
  5
7D5C
  8
FUTO
 10
10585.848801867871
 20
11814.576311850289
 30
0.0
 11
10637.34874086787
 21
11814.576311850289
 31
0.0
  0
LINE
  5
7D5D
  8
HOSO
 10
10585.848801867871
 20
11830.576311850289
 30
0.0
 11
10637.34874086787
 21
11830.576311850289
 31
0.0
  0
LINE
  5
7D5E
  8
FUTO
 10
10637.34874086787
 20
11832.576311850289
 30
0.0
 11
10585.848801867871
 21
11832.576311850289
 31
0.0
  0
LINE
  5
7D5F
  8
CT
 10
10585.848801867871
 20
11823.576311850289
 30
0.0
 11
10753.403183867869
 21
11823.576311850289
 31
0.0
  0
LINE
  5
7D60
  8
FUTO
 10
10634.34874086787
 20
11878.576311850289
 30
0.0
 11
10639.34874086787
 21
11883.576311850289
 31
0.0
  0
LINE
  5
7D61
  8
FUTO
 10
10592.348801867871
 20
11886.576311850289
 30
0.0
 11
10642.34874086787
 21
11886.576311850289
 31
0.0
  0
LINE
  5
7D62
  8
FUTO
 10
10592.348801867871
 20
11883.576311850289
 30
0.0
 11
10639.34874086787
 21
11883.576311850289
 31
0.0
  0
LINE
  5
7D63
  8
FUTO
 10
10585.848801867871
 20
11881.701311850289
 30
0.0
 11
10592.348801867871
 21
11881.701311850289
 31
0.0
  0
LINE
  5
7D64
  8
FUTO
 10
10585.848801867871
 20
11878.576311850289
 30
0.0
 11
10634.34874086787
 21
11878.576311850289
 31
0.0
  0
LINE
  5
7D65
  8
FUTO
 10
10634.34874086787
 20
11878.576311850289
 30
0.0
 11
10634.34874086787
 21
11832.576311850289
 31
0.0
  0
LINE
  5
7D66
  8
FUTO
 10
10639.34874086787
 20
11883.576311850289
 30
0.0
 11
10639.34874086787
 21
11843.576311850289
 31
0.0
  0
LINE
  5
7D67
  8
FUTO
 10
10642.34874086787
 20
11886.576311850289
 30
0.0
 11
10642.34874086787
 21
11843.576311850289
 31
0.0
  0
ARC
  5
7D68
  8
FUTO
 10
10587.348801867871
 20
11928.576311850289
 30
0.0
 40
5.0
 50
0.000000000000007
 51
90.000000000000028
  0
LINE
  5
7D69
  8
FUTO
 10
10592.348801867871
 20
11928.576311850289
 30
0.0
 11
10592.348801867871
 21
11881.701311850289
 31
0.0
  0
LINE
  5
7D6A
  8
FUTO
 10
10574.848801867871
 20
11933.576311850289
 30
0.0
 11
10587.348801867871
 21
11933.576311850289
 31
0.0
  0
LINE
  5
7D6B
  8
CT
 10
10178.848801867871
 20
11823.576311850289
 30
0.0
 11
10011.294419867871
 21
11823.576311850289
 31
0.0
  0
LINE
  5
7D6C
  8
FUTO
 10
10127.34886286787
 20
11832.576311850289
 30
0.0
 11
10178.848801867871
 21
11832.576311850289
 31
0.0
  0
LINE
  5
7D6D
  8
HOSO
 10
10178.848801867871
 20
11830.576311850289
 30
0.0
 11
10127.34886286787
 21
11830.576311850289
 31
0.0
  0
LINE
  5
7D6E
  8
FUTO
 10
10178.848801867871
 20
11814.576311850289
 30
0.0
 11
10127.34886286787
 21
11814.576311850289
 31
0.0
  0
LINE
  5
7D6F
  8
HOSO
 10
10127.34886286787
 20
11816.576311850289
 30
0.0
 11
10178.848801867871
 21
11816.576311850289
 31
0.0
  0
LINE
  5
7D70
  8
FUTO
 10
10097.34886286787
 20
11843.576311850289
 30
0.0
 11
10097.34886286787
 21
11803.576311850289
 31
0.0
  0
LINE
  5
7D71
  8
FUTO
 10
10127.34886286787
 20
11843.576311850289
 30
0.0
 11
10127.34886286787
 21
11803.576311850289
 31
0.0
  0
LINE
  5
7D72
  8
FUTO
 10
10097.34886286787
 20
11803.576311850289
 30
0.0
 11
10127.34886286787
 21
11803.576311850289
 31
0.0
  0
LINE
  5
7D73
  8
FUTO
 10
10127.34886286787
 20
11843.576311850289
 30
0.0
 11
10097.34886286787
 21
11843.576311850289
 31
0.0
  0
LINE
  5
7D74
  8
FUTO
 10
10022.89439486787
 20
11805.986467850291
 30
0.0
 11
10034.994370867869
 21
11805.986467850291
 31
0.0
  0
LINE
  5
7D75
  8
FUTO
 10
10022.89439486787
 20
11841.166154850291
 30
0.0
 11
10034.994370867869
 21
11841.166154850291
 31
0.0
  0
LINE
  5
7D76
  8
FUTO
 10
10022.89439486787
 20
11813.87123385029
 30
0.0
 11
10034.994370867869
 21
11813.87123385029
 31
0.0
  0
LINE
  5
7D77
  8
FUTO
 10
10022.89439486787
 20
11833.28138985029
 30
0.0
 11
10034.994370867869
 21
11833.28138985029
 31
0.0
  0
LINE
  5
7D78
  8
FUTO
 10
10021.294419867871
 20
11807.58607685029
 30
0.0
 11
10021.294419867871
 21
11839.565569850291
 31
0.0
  0
LINE
  5
7D79
  8
FUTO
 10
10022.89439486787
 20
11841.166154850291
 30
0.0
 11
10021.294419867871
 21
11839.565569850291
 31
0.0
  0
LINE
  5
7D7A
  8
FUTO
 10
10022.89439486787
 20
11833.28138985029
 30
0.0
 11
10021.294419867871
 21
11834.880998850291
 31
0.0
  0
LINE
  5
7D7B
  8
FUTO
 10
10022.89439486787
 20
11833.28138985029
 30
0.0
 11
10021.294419867871
 21
11831.68080385029
 31
0.0
  0
LINE
  5
7D7C
  8
FUTO
 10
10021.294419867871
 20
11807.58607685029
 30
0.0
 11
10022.89439486787
 21
11805.986467850291
 31
0.0
  0
LINE
  5
7D7D
  8
FUTO
 10
10022.89439486787
 20
11813.87123385029
 30
0.0
 11
10021.294419867871
 21
11812.27064785029
 31
0.0
  0
LINE
  5
7D7E
  8
FUTO
 10
10022.89439486787
 20
11813.87123385029
 30
0.0
 11
10021.294419867871
 21
11815.470842850291
 31
0.0
  0
LINE
  5
7D7F
  8
FUTO
 10
10034.994370867869
 20
11805.986467850291
 30
0.0
 11
10034.994370867869
 21
11841.166154850291
 31
0.0
  0
LINE
  5
7D80
  8
FUTO
 10
10034.994370867869
 20
11832.576311850289
 30
0.0
 11
10097.34886286787
 21
11832.576311850289
 31
0.0
  0
LINE
  5
7D81
  8
HOSO
 10
10097.34886286787
 20
11830.576311850289
 30
0.0
 11
10034.99430986787
 21
11830.576311850289
 31
0.0
  0
LINE
  5
7D82
  8
HOSO
 10
10034.994370867869
 20
11816.576311850289
 30
0.0
 11
10097.34886286787
 21
11816.576311850289
 31
0.0
  0
LINE
  5
7D83
  8
FUTO
 10
10097.34886286787
 20
11814.576311850289
 30
0.0
 11
10034.99430986787
 21
11814.576311850289
 31
0.0
  0
LINE
  5
7D84
  8
FUTO
 10
10122.34886286787
 20
11886.576311850289
 30
0.0
 11
10122.34886286787
 21
11843.576311850289
 31
0.0
  0
LINE
  5
7D85
  8
FUTO
 10
10125.34886286787
 20
11883.576311850289
 30
0.0
 11
10125.34886286787
 21
11843.576311850289
 31
0.0
  0
LINE
  5
7D86
  8
FUTO
 10
10130.34886286787
 20
11878.576311850289
 30
0.0
 11
10130.34886286787
 21
11832.576311850289
 31
0.0
  0
LINE
  5
7D87
  8
FUTO
 10
10189.848801867871
 20
11933.576311850289
 30
0.0
 11
10177.348801867871
 21
11933.576311850289
 31
0.0
  0
LINE
  5
7D88
  8
FUTO
 10
10178.848801867871
 20
11878.576311850289
 30
0.0
 11
10130.34886286787
 21
11878.576311850289
 31
0.0
  0
LINE
  5
7D89
  8
FUTO
 10
10178.848801867871
 20
11881.701311850289
 30
0.0
 11
10172.348801867871
 21
11881.701311850289
 31
0.0
  0
LINE
  5
7D8A
  8
FUTO
 10
10172.348801867871
 20
11928.576311850289
 30
0.0
 11
10172.348801867871
 21
11881.701311850289
 31
0.0
  0
LINE
  5
7D8B
  8
FUTO
 10
10172.348801867871
 20
11883.576311850289
 30
0.0
 11
10125.34886286787
 21
11883.576311850289
 31
0.0
  0
LINE
  5
7D8C
  8
FUTO
 10
10172.348801867871
 20
11886.576311850289
 30
0.0
 11
10122.34886286787
 21
11886.576311850289
 31
0.0
  0
ARC
  5
7D8D
  8
FUTO
 10
10177.348801867871
 20
11928.576311850289
 30
0.0
 40
5.0
 50
90.000000000000028
 51
180.0
  0
LINE
  5
7D8E
  8
FUTO
 10
10130.34886286787
 20
11878.576311850289
 30
0.0
 11
10125.34886286787
 21
11883.576311850289
 31
0.0
  0
LINE
  5
7D8F
  8
FUTO
 10
10192.66745664944
 20
11475.451311850289
 30
0.0
 11
10172.348801867871
 21
11475.451311850289
 31
0.0
  0
LINE
  5
7D90
  8
FUTO
 10
10130.34886286787
 20
11542.576311850289
 30
0.0
 11
10130.34886286787
 21
11814.576311850289
 31
0.0
  0
LINE
  5
7D91
  8
FUTO
 10
10130.34886286787
 20
11478.576311850289
 30
0.0
 11
10125.34886286787
 21
11473.576311850289
 31
0.0
  0
LINE
  5
7D92
  8
FUTO
 10
10130.34886286787
 20
11478.576311850289
 30
0.0
 11
10130.34886286787
 21
11524.576311850289
 31
0.0
  0
LINE
  5
7D93
  8
FUTO
 10
10192.55832829959
 20
11478.576311850289
 30
0.0
 11
10130.34886286787
 21
11478.576311850289
 31
0.0
  0
ARC
  5
7D94
  8
FUTO
 10
10177.348801867871
 20
11428.576311850289
 30
0.0
 40
5.0
 50
180.0
 51
270.0
  0
LINE
  5
7D95
  8
FUTO
 10
10172.348801867871
 20
11470.576311850289
 30
0.0
 11
10122.34886286787
 21
11470.576311850289
 31
0.0
  0
LINE
  5
7D96
  8
FUTO
 10
10172.348801867871
 20
11473.576311850289
 30
0.0
 11
10125.34886286787
 21
11473.576311850289
 31
0.0
  0
LINE
  5
7D97
  8
FUTO
 10
10224.65716687235
 20
11423.576311850289
 30
0.0
 11
10177.348801867871
 21
11423.576311850289
 31
0.0
  0
LINE
  5
7D98
  8
FUTO
 10
10172.348801867871
 20
11428.576311850289
 30
0.0
 11
10172.348801867871
 21
11475.451311850289
 31
0.0
  0
LINE
  5
7D99
  8
FUTO
 10
10125.34886286787
 20
11553.576311850289
 30
0.0
 11
10125.34886286787
 21
11803.576311850289
 31
0.0
  0
LINE
  5
7D9A
  8
FUTO
 10
10122.34886286787
 20
11553.576311850289
 30
0.0
 11
10122.34886286787
 21
11803.576311850289
 31
0.0
  0
LINE
  5
7D9B
  8
FUTO
 10
10125.34886286787
 20
11473.576311850289
 30
0.0
 11
10125.34886286787
 21
11513.576311850289
 31
0.0
  0
LINE
  5
7D9C
  8
FUTO
 10
10122.34886286787
 20
11470.576311850289
 30
0.0
 11
10122.34886286787
 21
11513.576311850289
 31
0.0
  0
LINE
  5
7D9D
  8
HOSO
 10
10127.34886286787
 20
11540.576311850289
 30
0.0
 11
10178.848801867871
 21
11540.576311850289
 31
0.0
  0
LINE
  5
7D9E
  8
FUTO
 10
10178.848801867871
 20
11542.576311850289
 30
0.0
 11
10127.34886286787
 21
11542.576311850289
 31
0.0
  0
LINE
  5
7D9F
  8
HOSO
 10
10178.848801867871
 20
11526.576311850289
 30
0.0
 11
10127.34886286787
 21
11526.576311850289
 31
0.0
  0
LINE
  5
7DA0
  8
FUTO
 10
10127.34886286787
 20
11524.576311850289
 30
0.0
 11
10178.848801867871
 21
11524.576311850289
 31
0.0
  0
LINE
  5
7DA1
  8
FUTO
 10
10097.34886286787
 20
11542.576311850289
 30
0.0
 11
10034.99430986787
 21
11542.576311850289
 31
0.0
  0
LINE
  5
7DA2
  8
HOSO
 10
10034.994370867869
 20
11540.576311850289
 30
0.0
 11
10097.34886286787
 21
11540.576311850289
 31
0.0
  0
LINE
  5
7DA3
  8
HOSO
 10
10097.34886286787
 20
11526.576311850289
 30
0.0
 11
10034.99430986787
 21
11526.576311850289
 31
0.0
  0
LINE
  5
7DA4
  8
FUTO
 10
10034.994370867869
 20
11524.576311850289
 30
0.0
 11
10097.34886286787
 21
11524.576311850289
 31
0.0
  0
LINE
  5
7DA5
  8
FUTO
 10
10034.994370867869
 20
11551.166155850289
 30
0.0
 11
10034.994370867869
 21
11515.986468850289
 31
0.0
  0
LINE
  5
7DA6
  8
FUTO
 10
10022.89439486787
 20
11543.28138985029
 30
0.0
 11
10021.294419867871
 21
11541.681780850289
 31
0.0
  0
LINE
  5
7DA7
  8
FUTO
 10
10022.89439486787
 20
11543.28138985029
 30
0.0
 11
10021.294419867871
 21
11544.88197585029
 31
0.0
  0
LINE
  5
7DA8
  8
FUTO
 10
10021.294419867871
 20
11549.56654685029
 30
0.0
 11
10022.89439486787
 21
11551.166155850289
 31
0.0
  0
LINE
  5
7DA9
  8
FUTO
 10
10022.89439486787
 20
11523.87123385029
 30
0.0
 11
10021.294419867871
 21
11525.471819850291
 31
0.0
  0
LINE
  5
7DAA
  8
FUTO
 10
10022.89439486787
 20
11523.87123385029
 30
0.0
 11
10021.294419867871
 21
11522.271624850289
 31
0.0
  0
LINE
  5
7DAB
  8
FUTO
 10
10022.89439486787
 20
11515.986468850289
 30
0.0
 11
10021.294419867871
 21
11517.58705385029
 31
0.0
  0
LINE
  5
7DAC
  8
FUTO
 10
10021.294419867871
 20
11549.56654685029
 30
0.0
 11
10021.294419867871
 21
11517.58705385029
 31
0.0
  0
LINE
  5
7DAD
  8
FUTO
 10
10022.89439486787
 20
11523.87123385029
 30
0.0
 11
10034.994370867869
 21
11523.87123385029
 31
0.0
  0
LINE
  5
7DAE
  8
FUTO
 10
10022.89439486787
 20
11543.28138985029
 30
0.0
 11
10034.994370867869
 21
11543.28138985029
 31
0.0
  0
LINE
  5
7DAF
  8
FUTO
 10
10022.89439486787
 20
11515.986468850289
 30
0.0
 11
10034.994370867869
 21
11515.986468850289
 31
0.0
  0
LINE
  5
7DB0
  8
FUTO
 10
10022.89439486787
 20
11551.166155850289
 30
0.0
 11
10034.994370867869
 21
11551.166155850289
 31
0.0
  0
LINE
  5
7DB1
  8
CT
 10
10178.848801867871
 20
11533.576311850289
 30
0.0
 11
10011.294419867871
 21
11533.576311850289
 31
0.0
  0
LINE
  5
7DB2
  8
FUTO
 10
10127.34886286787
 20
11513.576311850289
 30
0.0
 11
10097.34886286787
 21
11513.576311850289
 31
0.0
  0
LINE
  5
7DB3
  8
FUTO
 10
10097.34886286787
 20
11553.576311850289
 30
0.0
 11
10127.34886286787
 21
11553.576311850289
 31
0.0
  0
LINE
  5
7DB4
  8
FUTO
 10
10127.34886286787
 20
11513.576311850289
 30
0.0
 11
10127.34886286787
 21
11553.576311850289
 31
0.0
  0
LINE
  5
7DB5
  8
FUTO
 10
10097.34886286787
 20
11513.576311850289
 30
0.0
 11
10097.34886286787
 21
11553.576311850289
 31
0.0
  0
ARC
  5
7DB6
  8
FUTO
 10
10713.97795186787
 20
11740.57625085029
 30
0.0
 40
20.0
 50
0.000000000000007
 51
90.000000000000028
  0
ARC
  5
7DB7
  8
FUTO
 10
10713.97795186787
 20
11616.576311850289
 30
0.0
 40
20.0
 50
270.0
 51
0.000000000000007
  0
ARC
  5
7DB8
  8
FUTO
 10
10723.97795186787
 20
11599.576311850289
 30
0.0
 40
10.0
 50
270.0
 51
0.000000000000007
  0
ARC
  5
7DB9
  8
FUTO
 10
10723.97795186787
 20
11757.57625085029
 30
0.0
 40
10.0
 50
0.000000000000007
 51
90.000000000000028
  0
ARC
  5
7DBA
  8
FUTO
 10
10621.12122696898
 20
11599.576311850289
 30
0.0
 40
10.0
 50
180.0
 51
270.0
  0
ARC
  5
7DBB
  8
FUTO
 10
10624.288342507311
 20
11599.576311850289
 30
0.0
 40
10.0
 50
180.0
 51
270.0
  0
ARC
  5
7DBC
  8
FUTO
 10
10621.12122696898
 20
11757.57625085029
 30
0.0
 40
10.0
 50
90.000000000000028
 51
180.0
  0
ARC
  5
7DBD
  8
FUTO
 10
10624.288342507311
 20
11757.57625085029
 30
0.0
 40
10.0
 50
90.000000000000028
 51
180.0
  0
LINE
  5
7DBE
  8
FUTO
 10
10621.484945786769
 20
11596.576311850289
 30
0.0
 11
10713.97795186787
 21
11596.576311850289
 31
0.0
  0
LINE
  5
7DBF
  8
FUTO
 10
10621.484945786769
 20
11760.57625085029
 30
0.0
 11
10713.97795186787
 21
11760.57625085029
 31
0.0
  0
ARC
  5
7DC0
  8
FUTO
 10
10607.348801867871
 20
11601.576311850289
 30
0.0
 40
5.0
 50
180.0
 51
270.0
  0
ARC
  5
7DC1
  8
FUTO
 10
10607.348801867871
 20
11755.57625085029
 30
0.0
 40
5.0
 50
90.000000000000028
 51
180.0
  0
ARC
  5
7DC2
  8
FUTO
 10
10621.484945786769
 20
11601.576311850289
 30
0.0
 40
5.0
 50
180.0
 51
270.0
  0
ARC
  5
7DC3
  8
FUTO
 10
10621.484945786769
 20
11755.57625085029
 30
0.0
 40
5.0
 50
90.000000000000028
 51
180.0
  0
LINE
  5
7DC4
  8
FUTO
 10
10621.12122696898
 20
11589.576311850289
 30
0.0
 11
10723.97795186787
 21
11589.576311850289
 31
0.0
  0
LINE
  5
7DC5
  8
FUTO
 10
10607.348801867871
 20
11596.576311850289
 30
0.0
 11
10611.12122696898
 21
11596.576311850289
 31
0.0
  0
LINE
  5
7DC6
  8
FUTO
 10
10621.12122696898
 20
11767.57625085029
 30
0.0
 11
10723.97795186787
 21
11767.57625085029
 31
0.0
  0
LINE
  5
7DC7
  8
FUTO
 10
10607.348801867871
 20
11760.57625085029
 30
0.0
 11
10611.12122696898
 21
11760.57625085029
 31
0.0
  0
LINE
  5
7DC8
  8
FUTO
 10
10585.848801867871
 20
11738.576311850289
 30
0.0
 11
10585.848801867871
 21
11845.38708259932
 31
0.0
  0
LINE
  5
7DC9
  8
FUTO
 10
10602.348801867871
 20
11618.576311850289
 30
0.0
 11
10534.622404307691
 21
11618.576311850289
 31
0.0
  0
LINE
  5
7DCA
  8
FUTO
 10
10602.348801867871
 20
11738.576311850289
 30
0.0
 11
10534.622404307691
 21
11738.576311850289
 31
0.0
  0
LINE
  5
7DCB
  8
FUTO
 10
10692.66813786787
 20
11616.576311850289
 30
0.0
 11
10692.66813786787
 21
11740.57625085029
 31
0.0
  0
LINE
  5
7DCC
  8
FUTO
 10
10616.484945786769
 20
11601.576311850289
 30
0.0
 11
10616.484945786769
 21
11755.57625085029
 31
0.0
  0
LINE
  5
7DCD
  8
FUTO
 10
10614.288342507311
 20
11599.576311850289
 30
0.0
 11
10614.288342507311
 21
11757.57625085029
 31
0.0
  0
LINE
  5
7DCE
  8
FUTO
 10
10611.12122696898
 20
11599.576311850289
 30
0.0
 11
10611.12122696898
 21
11757.57625085029
 31
0.0
  0
LINE
  5
7DCF
  8
FUTO
 10
10602.348801867871
 20
11601.576311850289
 30
0.0
 11
10602.348801867871
 21
11755.57625085029
 31
0.0
  0
LINE
  5
7DD0
  8
FUTO
 10
10592.348801867871
 20
11618.576311850289
 30
0.0
 11
10592.348801867871
 21
11738.576311850289
 31
0.0
  0
LINE
  5
7DD1
  8
FUTO
 10
10534.622404307691
 20
11618.576311850289
 30
0.0
 11
10534.622404307691
 21
11738.576311850289
 31
0.0
  0
LINE
  5
7DD2
  8
FUTO
 10
10733.97795186787
 20
11599.576311850289
 30
0.0
 11
10733.97795186787
 21
11757.57625085029
 31
0.0
  0
LINE
  5
7DD3
  8
FUTO
 10
10388.598801867871
 20
11654.826311850289
 30
0.0
 11
10388.598801867871
 21
11702.326311850289
 31
0.0
  0
ARC
  5
7DD4
  8
FUTO
 10
10382.348801867871
 20
11654.826311850289
 30
0.0
 40
6.25
 50
180.0
 51
0.000000000000007
  0
ARC
  5
7DD5
  8
FUTO
 10
10382.348801867871
 20
11702.326311850289
 30
0.0
 40
6.25
 50
0.000000000000007
 51
180.0
  0
LINE
  5
7DD6
  8
CT
 10
10753.97795186787
 20
11678.576311850289
 30
0.0
 11
10102.34886286787
 21
11678.576311850289
 31
0.0
  0
LINE
  5
7DD7
  8
FUTO
 10
10376.098801867871
 20
11654.826311850289
 30
0.0
 11
10376.098801867871
 21
11702.326311850289
 31
0.0
  0
LINE
  5
7DD8
  8
FUTO
 10
10585.848801867871
 20
11845.387082599331
 30
0.0
 11
10584.02702486787
 21
11847.57625085029
 31
0.0
  0
LINE
  5
7DD9
  8
FUTO
 10
10585.848801867871
 20
11511.76539885029
 30
0.0
 11
10579.348801867871
 21
11503.95448585029
 31
0.0
  0
LINE
  5
7DDA
  8
FUTO
 10
10585.848801867871
 20
11511.76539885029
 30
0.0
 11
10585.848801867871
 21
11618.576311850289
 31
0.0
  0
LINE
  5
7DDB
  8
FUTO
 10
10178.848801867871
 20
11511.76539885029
 30
0.0
 11
10178.848801867871
 21
11845.38708259932
 31
0.0
  0
ARC
  5
7DDC
  8
FUTO
 10
10460.348801867871
 20
11405.076311850289
 30
0.0
 40
2.0
 50
270.0
 51
0.000000000000007
  0
ARC
  5
7DDD
  8
FUTO
 10
10465.348801867871
 20
11415.22938785029
 30
0.0
 40
2.9999599999999988
 50
92.999557000035409
 51
180.0
  0
LINE
  5
7DDE
  8
FUTO
 10
10462.348801867871
 20
11415.22938785029
 30
0.0
 11
10462.348801867871
 21
11405.076311850289
 31
0.0
  0
ARC
  5
7DDF
  8
FUTO
 10
10561.444749867869
 20
11458.861956850291
 30
0.0
 40
9.9999679999999991
 50
315.0
 51
358.00067099997602
  0
ARC
  5
7DE0
  8
FUTO
 10
10534.45158586787
 20
11431.868791850289
 30
0.0
 40
10.000024
 50
272.99903899998708
 51
315.0
  0
LINE
  5
7DE1
  8
FUTO
 10
10568.51579486787
 20
11451.79091185029
 30
0.0
 11
10541.52262986787
 21
11424.797747850291
 31
0.0
  0
LINE
  5
7DE2
  8
FUTO
 10
10572.348801867871
 20
11484.576311850289
 30
0.0
 11
10571.438645867869
 21
11458.513079850291
 31
0.0
  0
LINE
  5
7DE3
  8
FUTO
 10
10534.974778867871
 20
11421.88246385029
 30
0.0
 11
10446.383469867869
 21
11417.23964185029
 31
0.0
  0
LINE
  5
7DE4
  8
FUTO
 10
10544.348801867871
 20
11494.576311850289
 30
0.0
 11
10220.348801867871
 21
11494.576311850289
 31
0.0
  0
LINE
  5
7DE5
  8
FUTO
 10
10544.348801867871
 20
11484.576311850289
 30
0.0
 11
10544.348801867871
 21
11489.576311850289
 31
0.0
  0
LINE
  5
7DE6
  8
FUTO
 10
10544.348801867871
 20
11489.576311850289
 30
0.0
 11
10544.348801867871
 21
11494.576311850289
 31
0.0
  0
LINE
  5
7DE7
  8
FUTO
 10
10579.348801867871
 20
11503.95448585029
 30
0.0
 11
10544.348801867871
 21
11494.576311850289
 31
0.0
  0
ARC
  5
7DE8
  8
FUTO
 10
10565.848801867871
 20
11894.049639850289
 30
0.0
 40
20.0
 50
0.000000000000007
 51
20.000046000015271
  0
ARC
  5
7DE9
  8
FUTO
 10
10594.848801867871
 20
11931.32502985029
 30
0.0
 40
20.0
 50
180.0
 51
199.99972500000979
  0
LINE
  5
7DEA
  8
FUTO
 10
10529.997727867871
 20
11876.07625085029
 30
0.0
 11
10533.750657867869
 21
11882.57625085029
 31
0.0
  0
LINE
  5
7DEB
  8
FUTO
 10
10533.750657867869
 20
11882.57625085029
 30
0.0
 11
10529.997727867871
 21
11889.07625085029
 31
0.0
  0
LINE
  5
7DEC
  8
FUTO
 10
10584.642747867871
 20
11900.89009385029
 30
0.0
 11
10576.05485686787
 21
11924.48469785029
 31
0.0
  0
LINE
  5
7DED
  8
FUTO
 10
10585.848801867871
 20
11847.57625085029
 30
0.0
 11
10585.848801867871
 21
11894.049639850289
 31
0.0
  0
LINE
  5
7DEE
  8
FUTO
 10
10518.739426867871
 20
11882.57625085029
 30
0.0
 11
10522.49235686787
 21
11889.07625085029
 31
0.0
  0
LINE
  5
7DEF
  8
FUTO
 10
10522.49235686787
 20
11876.07625085029
 30
0.0
 11
10518.739426867871
 21
11882.57625085029
 31
0.0
  0
LINE
  5
7DF0
  8
CT
 10
10526.245042867869
 20
11875.13411185029
 30
0.0
 11
10526.245042867869
 21
11889.59016685029
 31
0.0
  0
LINE
  5
7DF1
  8
CT
 10
10517.854417867869
 20
11882.57625085029
 30
0.0
 11
10534.67595086787
 21
11882.57625085029
 31
0.0
  0
LINE
  5
7DF2
  8
FUTO
 10
10522.49235686787
 20
11889.07625085029
 30
0.0
 11
10529.997727867871
 21
11889.07625085029
 31
0.0
  0
LINE
  5
7DF3
  8
FUTO
 10
10522.49235686787
 20
11876.07625085029
 30
0.0
 11
10529.997727867871
 21
11876.07625085029
 31
0.0
  0
CIRCLE
  5
7DF4
  8
FUTO
 10
10526.245042867869
 20
11882.57625085029
 30
0.0
 40
6.5
  0
ARC
  5
7DF5
  8
FUTO
 10
10559.848801867871
 20
11992.265337850289
 30
0.0
 40
15.0
 50
0.000000000000007
 51
29.999817000004409
  0
ARC
  5
7DF6
  8
FUTO
 10
10539.462083867869
 20
12047.57625085029
 30
0.0
 40
4.9999580000000003
 50
30.000281999998801
 51
90.000000000000028
  0
LINE
  5
7DF7
  8
FUTO
 10
10543.79216186787
 20
12050.07625085029
 30
0.0
 11
10572.839280867869
 21
11999.765337850289
 31
0.0
  0
LINE
  5
7DF8
  8
FUTO
 10
10574.848801867871
 20
11931.32502985029
 30
0.0
 11
10574.848801867871
 21
11992.265337850289
 31
0.0
  0
LINE
  5
7DF9
  8
FUTO
 10
10189.848801867871
 20
11931.32502985029
 30
0.0
 11
10189.848801867871
 21
11992.265337850289
 31
0.0
  0
LINE
  5
7DFA
  8
CT
 10
10382.348801867871
 20
11233.076311850289
 30
0.0
 11
10382.348801867871
 21
12072.576311850289
 31
0.0
  0
LINE
  5
7DFB
  8
FUTO
 10
10224.698837867871
 20
12052.576311850289
 30
0.0
 11
10539.489151867871
 21
12052.576311850289
 31
0.0
  0
LINE
  5
7DFC
  8
FUTO
 10
10574.848801867871
 20
11993.476274850291
 30
0.0
 11
10189.897873867871
 21
11993.476274850291
 31
0.0
  0
LINE
  5
7DFD
  8
FUTO
 10
10220.90544186787
 20
12050.07625085029
 30
0.0
 11
10191.858322867871
 21
11999.765337850289
 31
0.0
  0
ARC
  5
7DFE
  8
FUTO
 10
10225.235519867871
 20
12047.57625085029
 30
0.0
 40
4.9999580000000003
 50
90.000000000000028
 51
149.99971800000111
  0
ARC
  5
7DFF
  8
FUTO
 10
10204.848801867871
 20
11992.265337850289
 30
0.0
 40
15.0
 50
150.00018299999559
 51
180.0
  0
LINE
  5
7E00
  8
FUTO
 10
10460.348801867871
 20
11403.076311850289
 30
0.0
 11
10382.348801867871
 21
11403.076311850289
 31
0.0
  0
LINE
  5
7E01
  8
FUTO
 10
10572.348801867871
 20
11484.576311850289
 30
0.0
 11
10382.348801867871
 21
11484.576311850289
 31
0.0
  0
LINE
  5
7E02
  8
FUTO
 10
10544.348801867871
 20
11489.576311850289
 30
0.0
 11
10382.348801867871
 21
11489.576311850289
 31
0.0
  0
LINE
  5
7E03
  8
FUTO
 10
10189.531418867869
 20
11927.776201850291
 30
0.0
 11
10574.848801867871
 21
11927.776201850291
 31
0.0
  0
LINE
  5
7E04
  8
FUTO
 10
10179.16227786787
 20
11897.57625085029
 30
0.0
 11
10585.53542206675
 21
11897.57625085029
 31
0.0
  0
LINE
  5
7E05
  8
FUTO
 10
10178.848801867871
 20
11847.57625085029
 30
0.0
 11
10584.02702486787
 21
11847.57625085029
 31
0.0
  0
LINE
  5
7E06
  8
FUTO
 10
10544.348801867871
 20
11489.576311850289
 30
0.0
 11
10382.348801867871
 21
11489.576311850289
 31
0.0
  0
CIRCLE
  5
7E07
  8
FUTO
 10
10238.45256086787
 20
11882.57625085029
 30
0.0
 40
6.5
  0
LINE
  5
7E08
  8
FUTO
 10
10242.20524686787
 20
11876.07625085029
 30
0.0
 11
10234.699875867869
 21
11876.07625085029
 31
0.0
  0
LINE
  5
7E09
  8
FUTO
 10
10242.20524686787
 20
11889.07625085029
 30
0.0
 11
10234.699875867869
 21
11889.07625085029
 31
0.0
  0
LINE
  5
7E0A
  8
CT
 10
10246.84318586787
 20
11882.57625085029
 30
0.0
 11
10230.02165286787
 21
11882.57625085029
 31
0.0
  0
LINE
  5
7E0B
  8
CT
 10
10238.45256086787
 20
11875.13411185029
 30
0.0
 11
10238.45256086787
 21
11889.59016685029
 31
0.0
  0
LINE
  5
7E0C
  8
FUTO
 10
10242.20524686787
 20
11876.07625085029
 30
0.0
 11
10245.958176867871
 21
11882.57625085029
 31
0.0
  0
LINE
  5
7E0D
  8
FUTO
 10
10245.958176867871
 20
11882.57625085029
 30
0.0
 11
10242.20524686787
 21
11889.07625085029
 31
0.0
  0
LINE
  5
7E0E
  8
FUTO
 10
10178.848801867871
 20
11847.57625085029
 30
0.0
 11
10178.848801867871
 21
11894.049639850289
 31
0.0
  0
LINE
  5
7E0F
  8
FUTO
 10
10180.054855867869
 20
11900.89009385029
 30
0.0
 11
10188.64274686787
 21
11924.48469785029
 31
0.0
  0
LINE
  5
7E10
  8
FUTO
 10
10230.94694586787
 20
11882.57625085029
 30
0.0
 11
10234.699875867869
 21
11889.07625085029
 31
0.0
  0
LINE
  5
7E11
  8
FUTO
 10
10234.699875867869
 20
11876.07625085029
 30
0.0
 11
10230.94694586787
 21
11882.57625085029
 31
0.0
  0
ARC
  5
7E12
  8
FUTO
 10
10169.848801867871
 20
11931.32502985029
 30
0.0
 40
20.0
 50
340.00027499999021
 51
0.000000000000007
  0
ARC
  5
7E13
  8
FUTO
 10
10198.848801867871
 20
11894.049639850289
 30
0.0
 40
20.0
 50
159.99995399998471
 51
180.0
  0
LINE
  5
7E14
  8
FUTO
 10
10178.848801867871
 20
11845.387082599331
 30
0.0
 11
10180.67057886787
 21
11847.57625085029
 31
0.0
  0
LINE
  5
7E15
  8
FUTO
 10
10220.348801867871
 20
11489.576311850289
 30
0.0
 11
10382.348801867871
 21
11489.576311850289
 31
0.0
  0
LINE
  5
7E16
  8
FUTO
 10
10229.722824867869
 20
11421.88246385029
 30
0.0
 11
10318.314133867871
 21
11417.23964185029
 31
0.0
  0
LINE
  5
7E17
  8
FUTO
 10
10192.348801867871
 20
11484.576311850289
 30
0.0
 11
10382.348801867871
 21
11484.576311850289
 31
0.0
  0
LINE
  5
7E18
  8
FUTO
 10
10220.348801867871
 20
11489.576311850289
 30
0.0
 11
10382.348801867871
 21
11489.576311850289
 31
0.0
  0
LINE
  5
7E19
  8
FUTO
 10
10412.348801867871
 20
11393.076311850289
 30
0.0
 11
10412.348801867871
 21
11253.076311850289
 31
0.0
  0
LINE
  5
7E1A
  8
FUTO
 10
10352.348801867871
 20
11393.076311850289
 30
0.0
 11
10352.348801867871
 21
11253.076311850289
 31
0.0
  0
LINE
  5
7E1B
  8
FUTO
 10
10304.348801867871
 20
11403.076311850289
 30
0.0
 11
10382.348801867871
 21
11403.076311850289
 31
0.0
  0
LINE
  5
7E1C
  8
FUTO
 10
10414.848801867871
 20
11393.076311850289
 30
0.0
 11
10349.848801867871
 21
11393.076311850289
 31
0.0
  0
LINE
  5
7E1D
  8
FUTO
 10
10414.848801867871
 20
11393.076311850289
 30
0.0
 11
10414.848801867871
 21
11403.076311850289
 31
0.0
  0
LINE
  5
7E1E
  8
FUTO
 10
10349.848801867871
 20
11393.076311850289
 30
0.0
 11
10349.848801867871
 21
11403.076311850289
 31
0.0
  0
LINE
  5
7E1F
  8
FUTO
 10
10302.348801867871
 20
11415.22938785029
 30
0.0
 11
10302.348801867871
 21
11405.076311850289
 31
0.0
  0
ARC
  5
7E20
  8
FUTO
 10
10299.348801867871
 20
11415.22938785029
 30
0.0
 40
2.9999599999999988
 50
0.000000000000007
 51
87.000443000016659
  0
ARC
  5
7E21
  8
FUTO
 10
10304.348801867871
 20
11405.076311850289
 30
0.0
 40
2.0
 50
180.0
 51
270.0
  0
LINE
  5
7E22
  8
FUTO
 10
10352.348801867871
 20
11253.076311850289
 30
0.0
 11
10412.348801867871
 21
11253.076311850289
 31
0.0
  0
LINE
  5
7E23
  8
FUTO
 10
10178.848801867871
 20
11511.76539885029
 30
0.0
 11
10185.348801867871
 21
11503.95448585029
 31
0.0
  0
LINE
  5
7E24
  8
FUTO
 10
10192.348801867871
 20
11484.576311850289
 30
0.0
 11
10193.258957867871
 21
11458.513079850291
 31
0.0
  0
LINE
  5
7E25
  8
FUTO
 10
10185.348801867871
 20
11503.95448585029
 30
0.0
 11
10220.348801867871
 21
11494.576311850289
 31
0.0
  0
LINE
  5
7E26
  8
FUTO
 10
10220.348801867871
 20
11489.576311850289
 30
0.0
 11
10220.348801867871
 21
11494.576311850289
 31
0.0
  0
LINE
  5
7E27
  8
FUTO
 10
10220.348801867871
 20
11484.576311850289
 30
0.0
 11
10220.348801867871
 21
11489.576311850289
 31
0.0
  0
LINE
  5
7E28
  8
FUTO
 10
10196.18180886787
 20
11451.79091185029
 30
0.0
 11
10223.17497386787
 21
11424.797747850291
 31
0.0
  0
ARC
  5
7E29
  8
FUTO
 10
10230.24601786787
 20
11431.868791850289
 30
0.0
 40
10.000024
 50
225.0
 51
267.00096100001281
  0
ARC
  5
7E2A
  8
FUTO
 10
10203.252853867871
 20
11458.861956850291
 30
0.0
 40
9.9999679999999991
 50
181.99932900002389
 51
225.0
  0
CIRCLE
  5
7E2B
  8
FUTO
 10
10382.348801867871
 20
7991.7391744168444
 30
0.0
 40
30.0
  0
LINE
  5
7E2C
  8
FUTO
 10
12971.177860025589
 20
7811.7391744168444
 30
0.0
 11
12985.8572909499
 21
7811.7391744168444
 31
0.0
  0
LINE
  5
7E2D
  8
FUTO
 10
12973.8573519499
 20
7791.7391744168444
 30
0.0
 11
13008.8573519499
 21
7791.7391744168444
 31
0.0
  0
LINE
  5
7E2E
  8
FUTO
 10
12646.53684387421
 20
7811.7391744168444
 30
0.0
 11
12631.8573519499
 21
7811.7391744168444
 31
0.0
  0
LINE
  5
7E2F
  8
FUTO
 10
12643.8573519499
 20
7791.7391744168444
 30
0.0
 11
12608.8573519499
 21
7791.7391744168444
 31
0.0
  0
LINE
  5
7E30
  8
CT
 10
10542.348801867871
 20
7781.7391744168426
 30
0.0
 11
10542.348801867871
 21
7711.7391744168453
 31
0.0
  0
LINE
  5
7E31
  8
FUTO
 10
12708.8573519499
 20
7786.7391744168444
 30
0.0
 11
12708.8573519499
 21
7791.7391744168444
 31
0.0
  0
LINE
  5
7E32
  8
FUTO
 10
12908.8573519499
 20
7791.7391744168444
 30
0.0
 11
12908.8573519499
 21
7786.7391744168444
 31
0.0
  0
LINE
  5
7E33
  8
FUTO
 10
12978.8573519499
 20
7786.7391744168444
 30
0.0
 11
12978.8573519499
 21
7791.7391744168444
 31
0.0
  0
LINE
  5
7E34
  8
FUTO
 10
12978.8573519499
 20
7786.7391744168444
 30
0.0
 11
12973.8573519499
 21
7786.7391744168444
 31
0.0
  0
LINE
  5
7E35
  8
FUTO
 10
12928.8573519499
 20
7786.7391744168444
 30
0.0
 11
12928.8573519499
 21
7791.7391744168444
 31
0.0
  0
LINE
  5
7E36
  8
FUTO
 10
12933.8573519499
 20
7786.7391744168444
 30
0.0
 11
12928.8573519499
 21
7786.7391744168444
 31
0.0
  0
LINE
  5
7E37
  8
FUTO
 10
12683.8573519499
 20
7786.7391744168444
 30
0.0
 11
12688.8573519499
 21
7786.7391744168444
 31
0.0
  0
LINE
  5
7E38
  8
FUTO
 10
12638.8573519499
 20
7786.7391744168444
 30
0.0
 11
12643.8573519499
 21
7786.7391744168444
 31
0.0
  0
LINE
  5
7E39
  8
FUTO
 10
12688.8573519499
 20
7786.7391744168444
 30
0.0
 11
12688.8573519499
 21
7791.7391744168444
 31
0.0
  0
LINE
  5
7E3A
  8
FUTO
 10
12638.8573519499
 20
7786.7391744168444
 30
0.0
 11
12638.8573519499
 21
7791.7391744168444
 31
0.0
  0
LINE
  5
7E3B
  8
FUTO
 10
10314.348801867871
 20
7791.7391744168444
 30
0.0
 11
10314.348801867871
 21
7786.7391744168444
 31
0.0
  0
LINE
  5
7E3C
  8
FUTO
 10
10450.34892386787
 20
7786.7391744168444
 30
0.0
 11
10450.34892386787
 21
7791.7391744168444
 31
0.0
  0
LINE
  5
7E3D
  8
FUTO
 10
12663.8573519499
 20
7820.2147604168449
 30
0.0
 11
12647.8573519499
 21
7810.9774564168429
 31
0.0
  0
LINE
  5
7E3E
  8
FUTO
 10
12679.8573519499
 20
7810.9774564168429
 30
0.0
 11
12663.8573519499
 21
7820.2147604168449
 31
0.0
  0
LINE
  5
7E3F
  8
FUTO
 10
12663.8573519499
 20
7783.2645654168437
 30
0.0
 11
12647.8573519499
 21
7792.5018704168442
 31
0.0
  0
LINE
  5
7E40
  8
FUTO
 10
12679.8573519499
 20
7792.5018704168442
 30
0.0
 11
12663.8573519499
 21
7783.2645654168437
 31
0.0
  0
LINE
  5
7E41
  8
CT
 10
12633.8573519499
 20
7801.7391744168444
 30
0.0
 11
12693.8573519499
 21
7801.7391744168444
 31
0.0
  0
CIRCLE
  5
7E42
  8
FUTO
 10
12663.8573519499
 20
7801.7391744168444
 30
0.0
 40
16.0
  0
LINE
  5
7E43
  8
FUTO
 10
12679.8573519499
 20
7792.5018704168442
 30
0.0
 11
12679.8573519499
 21
7810.9774564168429
 31
0.0
  0
LINE
  5
7E44
  8
FUTO
 10
12647.8573519499
 20
7792.5018704168442
 30
0.0
 11
12647.8573519499
 21
7810.9774564168429
 31
0.0
  0
ARC
  5
7E45
  8
FUTO
 10
12663.8573519499
 20
7801.7391744168444
 30
0.0
 40
20.0
 50
0.000000000000007
 51
180.0
  0
ARC
  5
7E46
  8
FUTO
 10
12556.8573519499
 20
7758.7391744168444
 30
0.0
 40
3.0
 50
90.0
 51
180.0
  0
LINE
  5
7E47
  8
FUTO
 10
12605.7323519499
 20
7761.7391744168444
 30
0.0
 11
12556.8573519499
 21
7761.7391744168444
 31
0.0
  0
LINE
  5
7E48
  8
FUTO
 10
12610.8573519499
 20
7731.7391744168426
 30
0.0
 11
12610.8573519499
 21
7736.7391744168444
 31
0.0
  0
LINE
  5
7E49
  8
FUTO
 10
12600.8573519499
 20
7743.7391744168444
 30
0.0
 11
12600.8573519499
 21
7736.7391744168444
 31
0.0
  0
LINE
  5
7E4A
  8
FUTO
 10
12610.8573519499
 20
7731.7391744168426
 30
0.0
 11
12553.8573519499
 21
7731.7391744168426
 31
0.0
  0
LINE
  5
7E4B
  8
FUTO
 10
12553.8573519499
 20
7731.7391744168426
 30
0.0
 11
12553.8573519499
 21
7758.7391744168444
 31
0.0
  0
LINE
  5
7E4C
  8
CT
 10
12578.8573519499
 20
7781.7391744168426
 30
0.0
 11
12578.8573519499
 21
7711.7391744168453
 31
0.0
  0
LINE
  5
7E4D
  8
FUTO
 10
12600.8573519499
 20
7743.7391744168444
 30
0.0
 11
12643.8573519499
 21
7743.7391744168444
 31
0.0
  0
LINE
  5
7E4E
  8
FUTO
 10
12608.8573519499
 20
7791.7391744168444
 30
0.0
 11
12603.8573519499
 21
7743.7391744168444
 31
0.0
  0
LINE
  5
7E4F
  8
FUTO
 10
12683.8573519499
 20
7801.7391744168444
 30
0.0
 11
12683.8573519499
 21
7736.7391744168444
 31
0.0
  0
LINE
  5
7E50
  8
FUTO
 10
12643.8573519499
 20
7736.7391744168444
 30
0.0
 11
12643.8573519499
 21
7801.7391744168444
 31
0.0
  0
LINE
  5
7E51
  8
CT
 10
12663.8573519499
 20
7726.7391744168426
 30
0.0
 11
12663.8573519499
 21
7831.7391744168426
 31
0.0
  0
LINE
  5
7E52
  8
FUTO
 10
12937.8573519499
 20
7810.9774564168429
 30
0.0
 11
12953.8573519499
 21
7820.2147604168449
 31
0.0
  0
LINE
  5
7E53
  8
FUTO
 10
12937.8573519499
 20
7792.5018704168442
 30
0.0
 11
12953.8573519499
 21
7783.2645654168437
 31
0.0
  0
LINE
  5
7E54
  8
FUTO
 10
12937.8573519499
 20
7792.5018704168442
 30
0.0
 11
12937.8573519499
 21
7810.9774564168429
 31
0.0
  0
LINE
  5
7E55
  8
FUTO
 10
12969.8573519499
 20
7792.5018704168442
 30
0.0
 11
12969.8573519499
 21
7810.9774564168429
 31
0.0
  0
CIRCLE
  5
7E56
  8
FUTO
 10
12953.8573519499
 20
7801.7391744168444
 30
0.0
 40
16.0
  0
LINE
  5
7E57
  8
FUTO
 10
12953.8573519499
 20
7820.2147604168449
 30
0.0
 11
12969.8573519499
 21
7810.9774564168429
 31
0.0
  0
LINE
  5
7E58
  8
FUTO
 10
12953.8573519499
 20
7783.2645654168437
 30
0.0
 11
12969.8573519499
 21
7792.5018704168442
 31
0.0
  0
ARC
  5
7E59
  8
FUTO
 10
12953.8573519499
 20
7801.7391744168444
 30
0.0
 40
20.0
 50
0.000000000000007
 51
180.0
  0
LINE
  5
7E5A
  8
CT
 10
12983.8573519499
 20
7801.7391744168444
 30
0.0
 11
12923.8573519499
 21
7801.7391744168444
 31
0.0
  0
LINE
  5
7E5B
  8
FUTO
 10
12708.8573519499
 20
7786.7391744168444
 30
0.0
 11
12908.8573519499
 21
7786.7391744168444
 31
0.0
  0
LINE
  5
7E5C
  8
FUTO
 10
13006.8573519499
 20
7731.7391744168426
 30
0.0
 11
13006.8573519499
 21
7736.7391744168444
 31
0.0
  0
LINE
  5
7E5D
  8
FUTO
 10
13016.8573519499
 20
7743.7391744168444
 30
0.0
 11
13016.8573519499
 21
7736.7391744168444
 31
0.0
  0
LINE
  5
7E5E
  8
FUTO
 10
13016.8573519499
 20
7743.7391744168444
 30
0.0
 11
12973.8573519499
 21
7743.7391744168444
 31
0.0
  0
LINE
  5
7E5F
  8
CT
 10
13038.8573519499
 20
7781.7391744168426
 30
0.0
 11
13038.8573519499
 21
7711.7391744168453
 31
0.0
  0
ARC
  5
7E60
  8
FUTO
 10
13060.8573519499
 20
7758.7391744168444
 30
0.0
 40
3.0
 50
0.000000000000007
 51
90.0
  0
LINE
  5
7E61
  8
FUTO
 10
13063.8573519499
 20
7731.7391744168426
 30
0.0
 11
13063.8573519499
 21
7758.7391744168444
 31
0.0
  0
LINE
  5
7E62
  8
FUTO
 10
13011.9823519499
 20
7761.7391744168444
 30
0.0
 11
13060.8573519499
 21
7761.7391744168444
 31
0.0
  0
LINE
  5
7E63
  8
FUTO
 10
13006.8573519499
 20
7731.7391744168426
 30
0.0
 11
13063.8573519499
 21
7731.7391744168426
 31
0.0
  0
LINE
  5
7E64
  8
FUTO
 10
13008.8573519499
 20
7791.7391744168444
 30
0.0
 11
13013.8573519499
 21
7743.7391744168444
 31
0.0
  0
LINE
  5
7E65
  8
FUTO
 10
12933.8573519499
 20
7801.7391744168444
 30
0.0
 11
12933.8573519499
 21
7736.7391744168444
 31
0.0
  0
LINE
  5
7E66
  8
FUTO
 10
12973.8573519499
 20
7736.7391744168444
 30
0.0
 11
12973.8573519499
 21
7801.7391744168444
 31
0.0
  0
LINE
  5
7E67
  8
CT
 10
12953.8573519499
 20
7726.7391744168426
 30
0.0
 11
12953.8573519499
 21
7831.7391744168426
 31
0.0
  0
LINE
  5
7E68
  8
FUTO
 10
10741.80339186787
 20
7811.4442524168444
 30
0.0
 11
10743.40336786787
 21
7809.8446434168436
 31
0.0
  0
LINE
  5
7E69
  8
FUTO
 10
10741.80339186787
 20
7811.4442524168444
 30
0.0
 11
10743.40336786787
 21
7813.044838416844
 31
0.0
  0
LINE
  5
7E6A
  8
FUTO
 10
10741.80339186787
 20
7811.4442524168444
 30
0.0
 11
10729.703416867869
 21
7811.4442524168444
 31
0.0
  0
LINE
  5
7E6B
  8
FUTO
 10
10743.40324586787
 20
7817.7294094168446
 30
0.0
 11
10741.803269867871
 21
7819.3290184168427
 31
0.0
  0
LINE
  5
7E6C
  8
FUTO
 10
10741.80339186787
 20
7819.3290184168427
 30
0.0
 11
10729.703416867869
 21
7819.3290184168427
 31
0.0
  0
LINE
  5
7E6D
  8
FUTO
 10
10741.80339186787
 20
7792.0340964168454
 30
0.0
 11
10743.40336786787
 21
7793.6346824168431
 31
0.0
  0
LINE
  5
7E6E
  8
FUTO
 10
10741.80339186787
 20
7792.0340964168454
 30
0.0
 11
10743.40336786787
 21
7790.4344874168437
 31
0.0
  0
LINE
  5
7E6F
  8
FUTO
 10
10741.80339186787
 20
7792.0340964168454
 30
0.0
 11
10729.703416867869
 21
7792.0340964168454
 31
0.0
  0
LINE
  5
7E70
  8
FUTO
 10
10741.80339186787
 20
7784.1493314168447
 30
0.0
 11
10729.703416867869
 21
7784.1493314168447
 31
0.0
  0
LINE
  5
7E71
  8
FUTO
 10
10741.80339186787
 20
7784.1493314168447
 30
0.0
 11
10743.40336786787
 21
7785.7499164168439
 31
0.0
  0
LINE
  5
7E72
  8
FUTO
 10
10743.40324586787
 20
7817.7294094168446
 30
0.0
 11
10743.40324586787
 21
7785.7499164168439
 31
0.0
  0
LINE
  5
7E73
  8
FUTO
 10
10729.70329486787
 20
7819.3290184168427
 30
0.0
 11
10729.70329486787
 21
7784.1493314168447
 31
0.0
  0
LINE
  5
7E74
  8
HOSO
 10
10667.34892386787
 20
7794.7391744168444
 30
0.0
 11
10729.703050867871
 21
7794.7391744168444
 31
0.0
  0
LINE
  5
7E75
  8
FUTO
 10
10667.34892386787
 20
7810.7391744168444
 30
0.0
 11
10729.703050867871
 21
7810.7391744168444
 31
0.0
  0
LINE
  5
7E76
  8
HOSO
 10
10729.70329486787
 20
7808.7391744168444
 30
0.0
 11
10667.34892386787
 21
7808.7391744168444
 31
0.0
  0
LINE
  5
7E77
  8
FUTO
 10
10729.70329486787
 20
7792.7391744168426
 30
0.0
 11
10667.34892386787
 21
7792.7391744168426
 31
0.0
  0
LINE
  5
7E78
  8
FUTO
 10
10571.348801867871
 20
7808.7391744168444
 30
0.0
 11
10573.348801867871
 21
7810.7391744168444
 31
0.0
  0
LINE
  5
7E79
  8
HOSO
 10
10635.18225720121
 20
7808.7391744168444
 30
0.0
 11
10571.348924867871
 21
7808.7391744168444
 31
0.0
  0
LINE
  5
7E7A
  8
FUTO
 10
10573.348801867871
 20
7810.7391744168444
 30
0.0
 11
10635.51559053454
 21
7810.7391744168444
 31
0.0
  0
LINE
  5
7E7B
  8
FUTO
 10
10573.348801867871
 20
7792.7391744168426
 30
0.0
 11
10571.348801867871
 21
7794.7391744168444
 31
0.0
  0
LINE
  5
7E7C
  8
FUTO
 10
10632.51559053454
 20
7792.7391744168426
 30
0.0
 11
10573.348801867871
 21
7792.7391744168426
 31
0.0
  0
LINE
  5
7E7D
  8
HOSO
 10
10571.348801867871
 20
7794.7391744168444
 30
0.0
 11
10632.84892386787
 21
7794.7391744168444
 31
0.0
  0
LINE
  5
7E7E
  8
FUTO
 10
10573.348801867871
 20
7810.7391744168444
 30
0.0
 11
10573.348801867871
 21
7792.7391744168426
 31
0.0
  0
LINE
  5
7E7F
  8
FUTO
 10
10637.34892386787
 20
7821.7391744168444
 30
0.0
 11
10632.34892386787
 21
7791.7391744168444
 31
0.0
  0
LINE
  5
7E80
  8
FUTO
 10
10314.348801867871
 20
7786.7391744168444
 30
0.0
 11
10450.34892386787
 21
7786.7391744168444
 31
0.0
  0
LINE
  5
7E81
  8
FUTO
 10
10634.34892386787
 20
7791.7391744168444
 30
0.0
 11
10450.34892386787
 21
7791.7391744168444
 31
0.0
  0
LINE
  5
7E82
  8
FUTO
 10
10637.34892386787
 20
7821.7391744168444
 30
0.0
 11
10667.34892386787
 21
7821.7391744168444
 31
0.0
  0
LINE
  5
7E83
  8
CT
 10
10571.348801867871
 20
7801.7391744168444
 30
0.0
 11
10753.40324586787
 21
7801.7391744168444
 31
0.0
  0
LINE
  5
7E84
  8
FUTO
 10
10642.34892386787
 20
7736.7391744168444
 30
0.0
 11
10667.34892386787
 21
7736.7391744168444
 31
0.0
  0
LINE
  5
7E85
  8
FUTO
 10
10639.34892386787
 20
7743.7391744168444
 30
0.0
 11
10642.34892386787
 21
7743.7391744168444
 31
0.0
  0
LINE
  5
7E86
  8
FUTO
 10
10642.34892386787
 20
7743.7391744168444
 30
0.0
 11
10642.34892386787
 21
7736.7391744168444
 31
0.0
  0
ARC
  5
7E87
  8
FUTO
 10
10589.349167867869
 20
7758.7391744168444
 30
0.0
 40
3.0
 50
0.000000000000007
 51
90.002335000001153
  0
LINE
  5
7E88
  8
FUTO
 10
10592.34892386787
 20
7731.7391744168426
 30
0.0
 11
10592.34892386787
 21
7758.7391744168444
 31
0.0
  0
ARC
  5
7E89
  8
FUTO
 10
10495.34892386787
 20
7758.7391744168444
 30
0.0
 40
3.0
 50
89.997664999998861
 51
180.0
  0
LINE
  5
7E8A
  8
FUTO
 10
10492.34892386787
 20
7731.7391744168426
 30
0.0
 11
10492.34892386787
 21
7758.7391744168444
 31
0.0
  0
LINE
  5
7E8B
  8
FUTO
 10
10495.34892386787
 20
7761.7391744168444
 30
0.0
 11
10589.34892386787
 21
7761.7391744168444
 31
0.0
  0
LINE
  5
7E8C
  8
FUTO
 10
10492.34892386787
 20
7731.7391744168426
 30
0.0
 11
10592.34892386787
 21
7731.7391744168426
 31
0.0
  0
LINE
  5
7E8D
  8
FUTO
 10
10642.34892386787
 20
7736.7391744168444
 30
0.0
 11
10592.34892386787
 21
7736.7391744168444
 31
0.0
  0
LINE
  5
7E8E
  8
FUTO
 10
10634.34892386787
 20
7791.7391744168444
 30
0.0
 11
10639.34892386787
 21
7743.7391744168444
 31
0.0
  0
LINE
  5
7E8F
  8
FUTO
 10
10667.34892386787
 20
7821.7391744168444
 30
0.0
 11
10667.34892386787
 21
7736.7391744168444
 31
0.0
  0
LINE
  5
7E90
  8
FUTO
 10
10193.348801867871
 20
7808.7391744168444
 30
0.0
 11
10191.348801867871
 21
7810.7391744168444
 31
0.0
  0
LINE
  5
7E91
  8
HOSO
 10
10129.515529534539
 20
7808.7391744168463
 30
0.0
 11
10193.348801867871
 21
7808.7391744168444
 31
0.0
  0
LINE
  5
7E92
  8
FUTO
 10
10191.348801867871
 20
7810.7391744168444
 30
0.0
 11
10129.1821962012
 21
7810.7391744168444
 31
0.0
  0
LINE
  5
7E93
  8
FUTO
 10
10191.348801867871
 20
7792.7391744168426
 30
0.0
 11
10193.348801867871
 21
7794.7391744168444
 31
0.0
  0
LINE
  5
7E94
  8
FUTO
 10
10132.1821962012
 20
7792.7391744168426
 30
0.0
 11
10191.348801867871
 21
7792.7391744168426
 31
0.0
  0
LINE
  5
7E95
  8
HOSO
 10
10193.348801867871
 20
7794.7391744168444
 30
0.0
 11
10131.84886286787
 21
7794.7391744168444
 31
0.0
  0
LINE
  5
7E96
  8
FUTO
 10
10191.348801867871
 20
7810.7391744168444
 30
0.0
 11
10191.348801867871
 21
7792.7391744168426
 31
0.0
  0
LINE
  5
7E97
  8
FUTO
 10
10127.34886286787
 20
7821.7391744168444
 30
0.0
 11
10132.34886286787
 21
7791.7391744168444
 31
0.0
  0
LINE
  5
7E98
  8
FUTO
 10
10097.34886286787
 20
7810.7391744168444
 30
0.0
 11
10034.99430986787
 21
7810.7391744168444
 31
0.0
  0
LINE
  5
7E99
  8
HOSO
 10
10034.994370867869
 20
7808.7391744168444
 30
0.0
 11
10097.34886286787
 21
7808.7391744168444
 31
0.0
  0
LINE
  5
7E9A
  8
HOSO
 10
10097.34886286787
 20
7794.7391744168463
 30
0.0
 11
10034.99430986787
 21
7794.7391744168444
 31
0.0
  0
LINE
  5
7E9B
  8
FUTO
 10
10034.994370867869
 20
7792.7391744168426
 30
0.0
 11
10097.34886286787
 21
7792.7391744168426
 31
0.0
  0
LINE
  5
7E9C
  8
FUTO
 10
10034.994370867869
 20
7819.3290184168427
 30
0.0
 11
10034.994370867869
 21
7784.1493314168447
 31
0.0
  0
LINE
  5
7E9D
  8
FUTO
 10
10022.89439486787
 20
7811.4442524168444
 30
0.0
 11
10021.294419867871
 21
7809.8446434168436
 31
0.0
  0
LINE
  5
7E9E
  8
FUTO
 10
10022.89439486787
 20
7811.4442524168444
 30
0.0
 11
10021.294419867871
 21
7813.044838416844
 31
0.0
  0
LINE
  5
7E9F
  8
FUTO
 10
10021.294419867871
 20
7817.7294094168446
 30
0.0
 11
10022.89439486787
 21
7819.3290184168427
 31
0.0
  0
LINE
  5
7EA0
  8
FUTO
 10
10022.89439486787
 20
7792.0340964168454
 30
0.0
 11
10021.294419867871
 21
7793.6346824168431
 31
0.0
  0
LINE
  5
7EA1
  8
FUTO
 10
10022.89439486787
 20
7792.0340964168454
 30
0.0
 11
10021.294419867871
 21
7790.4344874168437
 31
0.0
  0
LINE
  5
7EA2
  8
FUTO
 10
10022.89439486787
 20
7784.1493314168447
 30
0.0
 11
10021.294419867871
 21
7785.7499164168439
 31
0.0
  0
LINE
  5
7EA3
  8
FUTO
 10
10021.294419867871
 20
7817.7294094168446
 30
0.0
 11
10021.294419867871
 21
7785.7499164168439
 31
0.0
  0
LINE
  5
7EA4
  8
FUTO
 10
10022.89439486787
 20
7792.0340964168454
 30
0.0
 11
10034.994370867869
 21
7792.0340964168454
 31
0.0
  0
LINE
  5
7EA5
  8
FUTO
 10
10022.89439486787
 20
7811.4442524168444
 30
0.0
 11
10034.994370867869
 21
7811.4442524168444
 31
0.0
  0
LINE
  5
7EA6
  8
FUTO
 10
10022.89439486787
 20
7784.1493314168447
 30
0.0
 11
10034.994370867869
 21
7784.1493314168447
 31
0.0
  0
LINE
  5
7EA7
  8
FUTO
 10
10022.89439486787
 20
7819.3290184168427
 30
0.0
 11
10034.994370867869
 21
7819.3290184168427
 31
0.0
  0
LINE
  5
7EA8
  8
FUTO
 10
10127.34886286787
 20
7821.7391744168444
 30
0.0
 11
10097.34886286787
 21
7821.7391744168444
 31
0.0
  0
LINE
  5
7EA9
  8
CT
 10
10193.348801867871
 20
7801.7391744168444
 30
0.0
 11
10011.294419867871
 21
7801.7391744168444
 31
0.0
  0
ARC
  5
7EAA
  8
FUTO
 10
10269.34892386787
 20
7758.7391744168444
 30
0.0
 40
2.999938999999999
 50
0.000000000000007
 51
90.001166999976832
  0
LINE
  5
7EAB
  8
FUTO
 10
10272.348801867871
 20
7731.7391744168426
 30
0.0
 11
10272.348801867871
 21
7758.7391744168444
 31
0.0
  0
ARC
  5
7EAC
  8
FUTO
 10
10175.348801867871
 20
7758.7391744168444
 30
0.0
 40
3.0
 50
89.998832999971086
 51
180.0
  0
LINE
  5
7EAD
  8
FUTO
 10
10125.34886286787
 20
7743.7391744168444
 30
0.0
 11
10122.34886286787
 21
7743.7391744168444
 31
0.0
  0
LINE
  5
7EAE
  8
FUTO
 10
10122.34886286787
 20
7743.7391744168444
 30
0.0
 11
10122.34886286787
 21
7736.7391744168444
 31
0.0
  0
LINE
  5
7EAF
  8
FUTO
 10
10122.34886286787
 20
7736.7391744168444
 30
0.0
 11
10172.348801867871
 21
7736.7391744168444
 31
0.0
  0
LINE
  5
7EB0
  8
FUTO
 10
10172.348801867871
 20
7731.7391744168426
 30
0.0
 11
10172.348801867871
 21
7758.7391744168444
 31
0.0
  0
LINE
  5
7EB1
  8
FUTO
 10
10269.348801867871
 20
7761.7391744168444
 30
0.0
 11
10175.348801867871
 21
7761.7391744168444
 31
0.0
  0
LINE
  5
7EB2
  8
FUTO
 10
10272.348801867871
 20
7731.7391744168426
 30
0.0
 11
10172.348801867871
 21
7731.7391744168426
 31
0.0
  0
LINE
  5
7EB3
  8
FUTO
 10
10122.34886286787
 20
7736.7391744168444
 30
0.0
 11
10097.34886286787
 21
7736.7391744168444
 31
0.0
  0
LINE
  5
7EB4
  8
FUTO
 10
10130.34886286787
 20
7791.7391744168444
 30
0.0
 11
10125.34886286787
 21
7743.7391744168444
 31
0.0
  0
LINE
  5
7EB5
  8
FUTO
 10
10097.34886286787
 20
7821.7391744168444
 30
0.0
 11
10097.34886286787
 21
7736.7391744168444
 31
0.0
  0
LINE
  5
7EB6
  8
CT
 10
10222.348801867871
 20
7781.7391744168426
 30
0.0
 11
10222.348801867871
 21
7711.7391744168453
 31
0.0
  0
LINE
  5
7EB7
  8
FUTO
 10
10130.34886286787
 20
7791.7391744168444
 30
0.0
 11
10314.348801867871
 21
7791.7391744168444
 31
0.0
  0
LINE
  5
7EB8
  8
FUTO
 10
10272.348801867871
 20
7736.7391744168444
 30
0.0
 11
10492.348801867871
 21
7736.7391744168444
 31
0.0
  0
LINE
  5
7EB9
  8
FUTO
 10
12683.8573519499
 20
7743.7391744168444
 30
0.0
 11
12933.8573519499
 21
7743.7391744168444
 31
0.0
  0
LINE
  5
7EBA
  8
FUTO
 10
12600.8573519499
 20
7736.7391744168444
 30
0.0
 11
13016.8573519499
 21
7736.7391744168444
 31
0.0
  0
LINE
  5
7EBB
  8
FUTO
 10
12624.8573519499
 20
8153.7391744168426
 30
0.0
 11
12624.8573519499
 21
8116.7391744168444
 31
0.0
  0
ARC
  5
7EBC
  8
FUTO
 10
12589.1429969499
 20
8170.8351224168437
 30
0.0
 40
9.9999679999999991
 50
91.999329000023934
 51
135.0
  0
ARC
  5
7EBD
  8
FUTO
 10
12562.149831949901
 20
8143.8419584168423
 30
0.0
 40
10.000024
 50
135.0
 51
177.00096100001281
  0
LINE
  5
7EBE
  8
FUTO
 10
12582.0719519499
 20
8177.9061674168433
 30
0.0
 11
12555.0787879499
 21
8150.9130024168444
 31
0.0
  0
LINE
  5
7EBF
  8
FUTO
 10
12614.8573519499
 20
8153.7391744168426
 30
0.0
 11
12619.8573519499
 21
8153.7391744168426
 31
0.0
  0
LINE
  5
7EC0
  8
FUTO
 10
12619.8573519499
 20
8153.7391744168426
 30
0.0
 11
12624.8573519499
 21
8153.7391744168426
 31
0.0
  0
LINE
  5
7EC1
  8
FUTO
 10
12634.2355259499
 20
8188.7391744168426
 30
0.0
 11
12624.8573519499
 21
8153.7391744168426
 31
0.0
  0
LINE
  5
7EC2
  8
FUTO
 10
12614.8573519499
 20
8181.7391744168426
 30
0.0
 11
12588.7941199499
 21
8180.8290184168436
 31
0.0
  0
LINE
  5
7EC3
  8
FUTO
 10
12589.8573519499
 20
8143.4344874168446
 30
0.0
 11
12614.8573519499
 21
8143.4344874168446
 31
0.0
  0
LINE
  5
7EC4
  8
FUTO
 10
12649.8573519499
 20
8201.7391744168435
 30
0.0
 11
12634.2355259499
 21
8188.7391744168426
 31
0.0
  0
LINE
  5
7EC5
  8
FUTO
 10
12383.3573519499
 20
8025.7391744168426
 30
0.0
 11
12383.3573519499
 21
7961.7391744168453
 31
0.0
  0
ARC
  5
7EC6
  8
FUTO
 10
12535.3573519499
 20
8069.7391744168426
 30
0.0
 40
2.0
 50
90.0
 51
180.0
  0
LINE
  5
7EC7
  8
FUTO
 10
12582.597341949901
 20
8122.5013814168442
 30
0.0
 11
12589.8573519499
 21
8122.5013814168442
 31
0.0
  0
LINE
  5
7EC8
  8
FUTO
 10
12582.597341949901
 20
8117.7704244168444
 30
0.0
 11
12589.8573519499
 21
8117.7704244168444
 31
0.0
  0
LINE
  5
7EC9
  8
CT
 10
12594.0289829499
 20
8111.9474264168448
 30
0.0
 11
12578.4547639499
 21
8111.9474264168448
 31
0.0
  0
LINE
  5
7ECA
  8
FUTO
 10
12582.597341949901
 20
8117.7704244168444
 30
0.0
 11
12581.6373809499
 21
8118.730385416844
 31
0.0
  0
LINE
  5
7ECB
  8
FUTO
 10
12582.597341949901
 20
8117.7704244168444
 30
0.0
 11
12581.6373809499
 21
8116.8104634168449
 31
0.0
  0
LINE
  5
7ECC
  8
FUTO
 10
12582.597341949901
 20
8122.5013814168442
 30
0.0
 11
12581.6373809499
 21
8121.5414204168446
 31
0.0
  0
LINE
  5
7ECD
  8
FUTO
 10
12581.6373809499
 20
8106.7391744168417
 30
0.0
 11
12576.9469519499
 21
8106.7391744168417
 31
0.0
  0
LINE
  5
7ECE
  8
FUTO
 10
12582.597341949901
 20
8101.3932274168437
 30
0.0
 11
12589.8573519499
 21
8101.3932274168437
 31
0.0
  0
LINE
  5
7ECF
  8
FUTO
 10
12582.597341949901
 20
8106.1241844168426
 30
0.0
 11
12589.8573519499
 21
8106.1241844168426
 31
0.0
  0
LINE
  5
7ED0
  8
FUTO
 10
12581.6373809499
 20
8102.353432416844
 30
0.0
 11
12582.597341949901
 21
8101.3932274168437
 31
0.0
  0
LINE
  5
7ED1
  8
FUTO
 10
12582.597341949901
 20
8106.1241844168426
 30
0.0
 11
12581.6373809499
 21
8105.1642234168439
 31
0.0
  0
LINE
  5
7ED2
  8
FUTO
 10
12582.597341949901
 20
8106.1241844168426
 30
0.0
 11
12581.6373809499
 21
8107.0841454168431
 31
0.0
  0
LINE
  5
7ED3
  8
FUTO
 10
12589.8573519499
 20
8101.3932274168437
 30
0.0
 11
12589.8573519499
 21
8122.5013814168442
 31
0.0
  0
LINE
  5
7ED4
  8
FUTO
 10
12581.6373809499
 20
8102.353432416844
 30
0.0
 11
12581.6373809499
 21
8121.5414204168446
 31
0.0
  0
ARC
  5
7ED5
  8
FUTO
 10
12634.8573519499
 20
8116.7391744168444
 30
0.0
 40
10.0
 50
90.0
 51
180.0
  0
LINE
  5
7ED6
  8
FUTO
 10
12589.8573519499
 20
8121.9603664168426
 30
0.0
 11
12614.8573519499
 21
8121.9603664168426
 31
0.0
  0
LINE
  5
7ED7
  8
FUTO
 10
12589.8573519499
 20
8098.1549464168438
 30
0.0
 11
12614.8573519499
 21
8098.1549464168438
 31
0.0
  0
ARC
  5
7ED8
  8
FUTO
 10
12545.510427949899
 20
8074.7391744168444
 30
0.0
 40
2.9999599999999988
 50
270.0
 51
357.00044300001662
  0
LINE
  5
7ED9
  8
FUTO
 10
12545.510427949899
 20
8071.7391744168444
 30
0.0
 11
12535.3573519499
 21
8071.7391744168444
 31
0.0
  0
LINE
  5
7EDA
  8
FUTO
 10
12493.3573519499
 20
8025.7391744168426
 30
0.0
 11
12493.3573519499
 21
8021.7391744168426
 31
0.0
  0
LINE
  5
7EDB
  8
FUTO
 10
12523.3573519499
 20
8024.2391744168453
 30
0.0
 11
12533.3573519499
 21
8024.2391744168453
 31
0.0
  0
LINE
  5
7EDC
  8
FUTO
 10
12523.3573519499
 20
7959.2391744168426
 30
0.0
 11
12533.3573519499
 21
7959.2391744168426
 31
0.0
  0
LINE
  5
7EDD
  8
FUTO
 10
12523.3573519499
 20
7959.2391744168426
 30
0.0
 11
12523.3573519499
 21
8024.2391744168453
 31
0.0
  0
ARC
  5
7EDE
  8
FUTO
 10
12634.8573519499
 20
8016.7391744168444
 30
0.0
 40
10.0
 50
180.0
 51
270.0
  0
LINE
  5
7EDF
  8
FUTO
 10
12533.3573519499
 20
8069.7391744168426
 30
0.0
 11
12533.3573519499
 21
7991.7391744168444
 31
0.0
  0
LINE
  5
7EE0
  8
FUTO
 10
12624.8573519499
 20
8016.7391744168444
 30
0.0
 11
12624.8573519499
 21
8116.7391744168444
 31
0.0
  0
LINE
  5
7EE1
  8
FUTO
 10
12523.3573519499
 20
8021.7391744168426
 30
0.0
 11
12383.3573519499
 21
8021.7391744168426
 31
0.0
  0
LINE
  5
7EE2
  8
FUTO
 10
12523.3573519499
 20
7961.7391744168453
 30
0.0
 11
12383.3573519499
 21
7961.7391744168453
 31
0.0
  0
LINE
  5
7EE3
  8
FUTO
 10
12493.3573519499
 20
8025.7391744168426
 30
0.0
 11
12383.3573519499
 21
8025.7391744168426
 31
0.0
  0
LINE
  5
7EE4
  8
FUTO
 10
12619.8573519499
 20
8153.7391744168426
 30
0.0
 11
12619.8573519499
 21
7991.7391744168444
 31
0.0
  0
LINE
  5
7EE5
  8
FUTO
 10
12614.8573519499
 20
8181.7391744168426
 30
0.0
 11
12614.8573519499
 21
7991.7391744168444
 31
0.0
  0
LINE
  5
7EE6
  8
FUTO
 10
12552.1635039499
 20
8144.3651514168441
 30
0.0
 11
12547.5206819499
 21
8055.7738424168438
 31
0.0
  0
LINE
  5
7EE7
  8
FUTO
 10
12589.8573519499
 20
8143.4344874168446
 30
0.0
 11
12589.8573519499
 21
8098.1549464168438
 31
0.0
  0
LINE
  5
7EE8
  8
FUTO
 10
12619.8573519499
 20
8153.7391744168426
 30
0.0
 11
12619.8573519499
 21
7991.7391744168444
 31
0.0
  0
ARC
  5
7EE9
  8
FUTO
 10
12797.6223669499
 20
8210.0182884168444
 30
0.0
 40
2.9999909999999992
 50
96.115172999988943
 51
174.80557099997009
  0
LINE
  5
7EEA
  8
FUTO
 10
12794.634695949901
 20
8210.2898954168431
 30
0.0
 11
12793.8573519499
 21
8201.7391744168435
 31
0.0
  0
ARC
  5
7EEB
  8
FUTO
 10
12787.898977949901
 20
8202.4689724168438
 30
0.0
 40
5.9999760000000002
 50
354.80557299999322
 51
54.396263000016731
  0
ARC
  5
7EEC
  8
FUTO
 10
12820.0923369499
 20
8210.0182884168444
 30
0.0
 40
2.999981
 50
5.194427000006832
 51
83.884827000011072
  0
ARC
  5
7EED
  8
FUTO
 10
12808.8573519499
 20
8231.7391744168417
 30
0.0
 40
30.0
 50
305.19004800002568
 51
305.60386699999998
  0
LINE
  5
7EEE
  8
FUTO
 10
12808.8573519499
 20
8214.2391744168435
 30
0.0
 11
12820.411916949901
 21
8213.0011984168432
 31
0.0
  0
LINE
  5
7EEF
  8
FUTO
 10
12823.0800079499
 20
8210.2898954168431
 30
0.0
 11
12823.8573519499
 21
8201.7391744168435
 31
0.0
  0
ARC
  5
7EF0
  8
FUTO
 10
12829.8157259499
 20
8202.4689724168438
 30
0.0
 40
5.9999820000000001
 50
125.6037369999832
 51
185.19442700000681
  0
LINE
  5
7EF1
  8
FUTO
 10
12808.8573519499
 20
8214.2391744168435
 30
0.0
 11
12797.3027869499
 21
8213.0011984168432
 31
0.0
  0
LINE
  5
7EF2
  8
FUTO
 10
12797.3027869499
 20
8213.0011984168432
 30
0.0
 11
12820.411916949901
 21
8213.0011984168432
 31
0.0
  0
LINE
  5
7EF3
  8
CT
 10
12848.8573519499
 20
8231.7391744168417
 30
0.0
 11
12768.8573519499
 21
8231.7391744168417
 31
0.0
  0
LINE
  5
7EF4
  8
FUTO
 10
12749.8573519499
 20
8140.7391744168426
 30
0.0
 11
12867.8573519499
 21
8140.7391744168426
 31
0.0
  0
CIRCLE
  5
7EF5
  8
FUTO
 10
12808.8573519499
 20
8231.7391744168417
 30
0.0
 40
17.5
  0
ARC
  5
7EF6
  8
FUTO
 10
12808.8573519499
 20
8231.7391744168417
 30
0.0
 40
30.0
 50
305.60386699999998
 51
234.39614899998969
  0
LINE
  5
7EF7
  8
FUTO
 10
12967.8572909499
 20
8201.7391744168435
 30
0.0
 11
12977.8572909499
 21
8193.4173974168443
 31
0.0
  0
ARC
  5
7EF8
  8
FUTO
 10
13024.330679949901
 20
8175.2391744168426
 30
0.0
 40
20.0
 50
69.99995399998474
 51
90.0
  0
ARC
  5
7EF9
  8
FUTO
 10
13061.606069949899
 20
8204.2391744168435
 30
0.0
 40
20.0
 50
250.00027499999021
 51
270.0
  0
LINE
  5
7EFA
  8
FUTO
 10
13006.3572909499
 20
8139.3881004168434
 30
0.0
 11
13012.8572909499
 21
8143.1410304168439
 31
0.0
  0
LINE
  5
7EFB
  8
FUTO
 10
13012.8572909499
 20
8143.1410304168439
 30
0.0
 11
13019.3572909499
 21
8139.3881004168434
 31
0.0
  0
LINE
  5
7EFC
  8
FUTO
 10
13031.1711339499
 20
8194.0331204168433
 30
0.0
 11
13054.7657379499
 21
8185.4452294168441
 31
0.0
  0
LINE
  5
7EFD
  8
FUTO
 10
12977.8572909499
 20
8195.2391744168435
 30
0.0
 11
13024.330679949901
 21
8195.2391744168435
 31
0.0
  0
LINE
  5
7EFE
  8
FUTO
 10
12967.8572909499
 20
8201.7391744168435
 30
0.0
 11
12808.8573519499
 21
8201.7391744168435
 31
0.0
  0
LINE
  5
7EFF
  8
FUTO
 10
12870.8572909499
 20
8133.7391744168426
 30
0.0
 11
12746.8573519499
 21
8133.7391744168426
 31
0.0
  0
ARC
  5
7F00
  8
FUTO
 10
12746.8573519499
 20
7959.0414204168437
 30
0.0
 40
20.0
 50
180.0
 51
270.0
  0
CIRCLE
  5
7F01
  8
FUTO
 10
12808.8573519499
 20
7926.0414204168437
 30
0.0
 40
3.5
  0
LINE
  5
7F02
  8
CT
 10
12815.3102329499
 20
7926.0414204168437
 30
0.0
 11
12800.7211219499
 21
7926.0414204168437
 31
0.0
  0
LINE
  5
7F03
  8
FUTO
 10
12746.8573519499
 20
7939.0414204168437
 30
0.0
 11
12870.8573519499
 21
7939.0414204168437
 31
0.0
  0
LINE
  5
7F04
  8
FUTO
 10
12867.8572909499
 20
7919.0414204168428
 30
0.0
 11
12749.8573519499
 21
7919.0414204168428
 31
0.0
  0
LINE
  5
7F05
  8
FUTO
 10
12726.8573519499
 20
8113.7391744168444
 30
0.0
 11
12726.8573519499
 21
7959.0414204168437
 31
0.0
  0
LINE
  5
7F06
  8
FUTO
 10
12719.8573519499
 20
8110.7391744168444
 30
0.0
 11
12719.8573519499
 21
7949.0414204168437
 31
0.0
  0
LINE
  5
7F07
  8
FUTO
 10
12977.8572909499
 20
8126.7391744168444
 30
0.0
 11
12893.2344879499
 21
8126.7391744168444
 31
0.0
  0
LINE
  5
7F08
  8
FUTO
 10
13012.8572909499
 20
8128.1297994168453
 30
0.0
 11
13019.3572909499
 21
8131.8827294168423
 31
0.0
  0
LINE
  5
7F09
  8
FUTO
 10
13006.3572909499
 20
8131.8827294168423
 30
0.0
 11
13012.8572909499
 21
8128.1297994168453
 31
0.0
  0
LINE
  5
7F0A
  8
CT
 10
13005.415151949899
 20
8135.6354154168439
 30
0.0
 11
13019.8712069499
 21
8135.6354154168439
 31
0.0
  0
LINE
  5
7F0B
  8
FUTO
 10
12977.8572909499
 20
8006.7391744168426
 30
0.0
 11
12897.8572909499
 21
8006.7391744168426
 31
0.0
  0
LINE
  5
7F0C
  8
FUTO
 10
12890.8572909499
 20
8113.7391744168444
 30
0.0
 11
12890.8572909499
 21
7959.0414204168437
 31
0.0
  0
LINE
  5
7F0D
  8
FUTO
 10
12897.8572909499
 20
8110.7391744168444
 30
0.0
 11
12897.8572909499
 21
7949.0414204168437
 31
0.0
  0
ARC
  5
7F0E
  8
FUTO
 10
12870.8572909499
 20
7959.0414204168437
 30
0.0
 40
20.0
 50
270.0
 51
0.000000000000007
  0
LINE
  5
7F0F
  8
CT
 10
12917.8572909499
 20
8066.7391744168426
 30
0.0
 11
12699.8573519499
 21
8066.7391744168426
 31
0.0
  0
ARC
  5
7F10
  8
FUTO
 10
12870.8572909499
 20
8113.7391744168444
 30
0.0
 40
20.0
 50
0.000000000000007
 51
90.0
  0
ARC
  5
7F11
  8
FUTO
 10
12746.8573519499
 20
8113.7391744168444
 30
0.0
 40
20.0
 50
90.0
 51
180.0
  0
ARC
  5
7F12
  8
FUTO
 10
12749.8573519499
 20
8110.7391744168444
 30
0.0
 40
30.0
 50
90.0
 51
180.0
  0
ARC
  5
7F13
  8
FUTO
 10
12867.8572909499
 20
8110.7391744168444
 30
0.0
 40
30.0
 50
0.000000000000007
 51
90.0
  0
LINE
  5
7F14
  8
CT
 10
13012.8572909499
 20
8127.2447904168439
 30
0.0
 11
13012.8572909499
 21
8144.0663234168433
 31
0.0
  0
LINE
  5
7F15
  8
FUTO
 10
13019.3572909499
 20
8131.8827294168423
 30
0.0
 11
13019.3572909499
 21
8139.3881004168434
 31
0.0
  0
LINE
  5
7F16
  8
FUTO
 10
13006.3572909499
 20
8131.8827294168423
 30
0.0
 11
13006.3572909499
 21
8139.3881004168434
 31
0.0
  0
CIRCLE
  5
7F17
  8
FUTO
 10
13012.8572909499
 20
8135.6354154168439
 30
0.0
 40
6.5
  0
LINE
  5
7F18
  8
FUTO
 10
12649.8573519499
 20
8201.7391744168435
 30
0.0
 11
12808.8573519499
 21
8201.7391744168435
 31
0.0
  0
LINE
  5
7F19
  8
FUTO
 10
12634.8573519499
 20
8126.7391744168444
 30
0.0
 11
12724.480154949901
 21
8126.7391744168444
 31
0.0
  0
LINE
  5
7F1A
  8
FUTO
 10
12634.8573519499
 20
8006.7391744168426
 30
0.0
 11
12719.8573519499
 21
8006.7391744168426
 31
0.0
  0
ARC
  5
7F1B
  8
FUTO
 10
12535.3573519499
 20
7913.7391744168444
 30
0.0
 40
2.0
 50
180.0
 51
270.0
  0
ARC
  5
7F1C
  8
FUTO
 10
12545.510427949899
 20
7908.7391744168444
 30
0.0
 40
3.0
 50
2.9995570000354208
 51
90.0
  0
ARC
  5
7F1D
  8
FUTO
 10
12560.206960949899
 20
7876.7074364168429
 30
0.0
 40
10.000139999999989
 50
183.00042699998181
 51
225.00097699998821
  0
LINE
  5
7F1E
  8
FUTO
 10
12582.597341949901
 20
7882.0851224168428
 30
0.0
 11
12589.8573519499
 21
7882.0851224168428
 31
0.0
  0
LINE
  5
7F1F
  8
FUTO
 10
12582.597341949901
 20
7877.3541654168439
 30
0.0
 11
12589.8573519499
 21
7877.3541654168439
 31
0.0
  0
LINE
  5
7F20
  8
FUTO
 10
12581.6373809499
 20
7881.1249174168443
 30
0.0
 11
12582.597341949901
 21
7882.0851224168428
 31
0.0
  0
LINE
  5
7F21
  8
FUTO
 10
12582.597341949901
 20
7877.3541654168439
 30
0.0
 11
12581.6373809499
 21
7878.3141264168426
 31
0.0
  0
LINE
  5
7F22
  8
FUTO
 10
12582.597341949901
 20
7877.3541654168439
 30
0.0
 11
12581.6373809499
 21
7876.3942044168434
 31
0.0
  0
LINE
  5
7F23
  8
FUTO
 10
12582.597341949901
 20
7865.7079244168444
 30
0.0
 11
12589.8573519499
 21
7865.7079244168444
 31
0.0
  0
LINE
  5
7F24
  8
CT
 10
12594.0289829499
 20
7871.5309224168441
 30
0.0
 11
12578.4547639499
 21
7871.5309224168441
 31
0.0
  0
LINE
  5
7F25
  8
FUTO
 10
12582.597341949901
 20
7865.7079244168444
 30
0.0
 11
12581.6373809499
 21
7864.7479634168449
 31
0.0
  0
LINE
  5
7F26
  8
FUTO
 10
12582.597341949901
 20
7865.7079244168444
 30
0.0
 11
12581.6373809499
 21
7866.667885416844
 31
0.0
  0
LINE
  5
7F27
  8
FUTO
 10
12581.6373809499
 20
7881.1249174168443
 30
0.0
 11
12581.6373809499
 21
7861.9369284168424
 31
0.0
  0
LINE
  5
7F28
  8
FUTO
 10
12589.8573519499
 20
7861.5179834168439
 30
0.0
 11
12614.8573519499
 21
7861.5179834168439
 31
0.0
  0
LINE
  5
7F29
  8
FUTO
 10
12589.8573519499
 20
7885.3234034168436
 30
0.0
 11
12614.8573519499
 21
7885.3234034168436
 31
0.0
  0
LINE
  5
7F2A
  8
FUTO
 10
12582.597341949901
 20
7860.9769674168429
 30
0.0
 11
12589.8573519499
 21
7860.9769674168429
 31
0.0
  0
ARC
  5
7F2B
  8
FUTO
 10
12588.9994419499
 20
7847.9149564168429
 30
0.0
 40
10.0
 50
225.0
 51
270.0
  0
ARC
  5
7F2C
  8
FUTO
 10
12562.149831949901
 20
7839.6363914168433
 30
0.0
 40
9.9999679999999991
 50
182.9990540000266
 51
225.0
  0
LINE
  5
7F2D
  8
FUTO
 10
12624.8573519499
 20
7839.978432416844
 30
0.0
 11
12643.9459749499
 21
7839.978432416844
 31
0.0
  0
LINE
  5
7F2E
  8
FUTO
 10
12625.893240949899
 20
7829.7391744168426
 30
0.0
 11
12619.8573519499
 21
7829.7391744168426
 31
0.0
  0
LINE
  5
7F2F
  8
FUTO
 10
12614.8573519499
 20
7829.7391744168426
 30
0.0
 11
12619.8573519499
 21
7829.7391744168426
 31
0.0
  0
ARC
  5
7F30
  8
FUTO
 10
12631.8573519499
 20
7808.7391744168444
 30
0.0
 40
3.0
 50
90.0
 51
180.0
  0
ARC
  5
7F31
  8
FUTO
 10
12638.9459749499
 20
7816.7391744168444
 30
0.0
 40
5.0
 50
270.0
 51
0.000000000000007
  0
LINE
  5
7F32
  8
FUTO
 10
12624.8573519499
 20
7832.8656394168429
 30
0.0
 11
12627.415945949901
 21
7832.8656394168429
 31
0.0
  0
LINE
  5
7F33
  8
FUTO
 10
12631.8573519499
 20
7811.7391744168444
 30
0.0
 11
12624.8573519499
 21
7832.8656394168429
 31
0.0
  0
LINE
  5
7F34
  8
FUTO
 10
12643.9459749499
 20
7816.7391744168444
 30
0.0
 11
12643.9459749499
 21
7839.978432416844
 31
0.0
  0
LINE
  5
7F35
  8
FUTO
 10
12635.0155549499
 20
7811.7391744168444
 30
0.0
 11
12624.8573519499
 21
7839.978432416844
 31
0.0
  0
LINE
  5
7F36
  8
FUTO
 10
12588.9994419499
 20
7837.9149564168438
 30
0.0
 11
12614.8573519499
 21
7837.9149564168438
 31
0.0
  0
LINE
  5
7F37
  8
FUTO
 10
12589.8573519499
 20
7840.0438624168446
 30
0.0
 11
12614.8573519499
 21
7840.0438624168446
 31
0.0
  0
LINE
  5
7F38
  8
FUTO
 10
12548.488699949899
 20
7909.2344144168428
 30
0.0
 11
12552.1635039499
 21
7839.1131984168442
 31
0.0
  0
LINE
  5
7F39
  8
FUTO
 10
12589.8573519499
 20
7840.0438624168446
 30
0.0
 11
12589.8573519499
 21
7885.3234034168436
 31
0.0
  0
LINE
  5
7F3A
  8
FUTO
 10
12581.928396949899
 20
7840.8439114168432
 30
0.0
 11
12553.135915949901
 21
7869.6361474168443
 31
0.0
  0
LINE
  5
7F3B
  8
FUTO
 10
12582.597341949901
 20
7860.9769674168429
 30
0.0
 11
12581.6373809499
 21
7861.9369284168424
 31
0.0
  0
LINE
  5
7F3C
  8
FUTO
 10
12589.8573519499
 20
7882.0851224168428
 30
0.0
 11
12589.8573519499
 21
7860.9769674168429
 31
0.0
  0
LINE
  5
7F3D
  8
FUTO
 10
12545.510427949899
 20
7911.7391744168444
 30
0.0
 11
12535.3573519499
 21
7911.7391744168444
 31
0.0
  0
ARC
  5
7F3E
  8
FUTO
 10
12589.1429969499
 20
7812.6432274168437
 30
0.0
 40
9.9999839999999995
 50
225.0
 51
268.00067099997602
  0
LINE
  5
7F3F
  8
FUTO
 10
12614.8573519499
 20
7801.7391744168444
 30
0.0
 11
12588.7941199499
 21
7802.6493314168429
 31
0.0
  0
LINE
  5
7F40
  8
FUTO
 10
12628.8573519499
 20
7791.7391744168444
 30
0.0
 11
12628.8573519499
 21
7808.7391744168444
 31
0.0
  0
LINE
  5
7F41
  8
FUTO
 10
12582.0719519499
 20
7805.5721824168431
 30
0.0
 11
12555.0787879499
 21
7832.5653464168436
 31
0.0
  0
LINE
  5
7F42
  8
FUTO
 10
12769.2572539499
 20
7813.3470854168427
 30
0.0
 11
12688.8573519499
 21
7811.7391744168444
 31
0.0
  0
ARC
  5
7F43
  8
FUTO
 10
12783.8573519499
 20
7874.2352684168427
 30
0.0
 40
5.0
 50
0.000000000000007
 51
90.0
  0
ARC
  5
7F44
  8
FUTO
 10
12833.8573519499
 20
7874.2352684168427
 30
0.0
 40
5.0
 50
90.0
 51
180.0
  0
ARC
  5
7F45
  8
FUTO
 10
12848.8572909499
 20
7833.3431784168442
 30
0.0
 40
20.000091999999999
 50
180.0
 51
268.85427899999053
  0
LINE
  5
7F46
  8
FUTO
 10
12828.8573519499
 20
7874.2352684168427
 30
0.0
 11
12828.8573519499
 21
7833.3431784168442
 31
0.0
  0
LINE
  5
7F47
  8
FUTO
 10
12788.8573519499
 20
7874.2352684168427
 30
0.0
 11
12788.8573519499
 21
7833.3431784168442
 31
0.0
  0
ARC
  5
7F48
  8
FUTO
 10
12768.8573519499
 20
7833.3431784168442
 30
0.0
 40
20.0
 50
271.14572100000942
 51
0.000000000000007
  0
LINE
  5
7F49
  8
FUTO
 10
12708.8573519499
 20
7791.7391744168444
 30
0.0
 11
12708.8573519499
 21
7792.7391744168426
 31
0.0
  0
ARC
  5
7F4A
  8
FUTO
 10
12713.8573519499
 20
7792.7391744168426
 30
0.0
 40
5.0
 50
90.0
 51
180.0
  0
LINE
  5
7F4B
  8
FUTO
 10
12713.8573519499
 20
7797.7391744168444
 30
0.0
 11
12808.8573519499
 21
7797.7391744168444
 31
0.0
  0
ARC
  5
7F4C
  8
FUTO
 10
12985.8572909499
 20
7808.7391744168444
 30
0.0
 40
3.0
 50
0.000000000000007
 51
90.0
  0
LINE
  5
7F4D
  8
FUTO
 10
12928.8572909499
 20
7811.7391744168444
 30
0.0
 11
12936.53684387421
 21
7811.7391744168444
 31
0.0
  0
LINE
  5
7F4E
  8
FUTO
 10
13012.8572909499
 20
7855.3485494168444
 30
0.0
 11
13019.3572909499
 21
7851.5956204168433
 31
0.0
  0
LINE
  5
7F4F
  8
FUTO
 10
13006.3572909499
 20
7851.5956204168433
 30
0.0
 11
13012.8572909499
 21
7855.3485494168444
 31
0.0
  0
LINE
  5
7F50
  8
CT
 10
13005.415151949899
 20
7847.8429344168426
 30
0.0
 11
13019.8712069499
 21
7847.8429344168426
 31
0.0
  0
LINE
  5
7F51
  8
FUTO
 10
13006.3572909499
 20
7844.0902494168431
 30
0.0
 11
13012.8572909499
 21
7840.3373194168425
 31
0.0
  0
LINE
  5
7F52
  8
FUTO
 10
13012.8572909499
 20
7840.3373194168425
 30
0.0
 11
13019.3572909499
 21
7844.0902494168431
 31
0.0
  0
LINE
  5
7F53
  8
CT
 10
13012.8572909499
 20
7856.2335594168426
 30
0.0
 11
13012.8572909499
 21
7839.4120264168441
 31
0.0
  0
LINE
  5
7F54
  8
FUTO
 10
13019.3572909499
 20
7851.5956204168433
 30
0.0
 11
13019.3572909499
 21
7844.0902494168431
 31
0.0
  0
LINE
  5
7F55
  8
FUTO
 10
13006.3572909499
 20
7851.5956204168433
 30
0.0
 11
13006.3572909499
 21
7844.0902494168431
 31
0.0
  0
CIRCLE
  5
7F56
  8
FUTO
 10
13012.8572909499
 20
7847.8429344168426
 30
0.0
 40
6.5
  0
ARC
  5
7F57
  8
FUTO
 10
12903.8572909499
 20
7792.7391744168426
 30
0.0
 40
5.0
 50
0.000000000000007
 51
90.0
  0
LINE
  5
7F58
  8
FUTO
 10
12908.8572909499
 20
7791.7391744168444
 30
0.0
 11
12908.8572909499
 21
7792.7391744168426
 31
0.0
  0
LINE
  5
7F59
  8
FUTO
 10
12908.8572909499
 20
7791.7391744168444
 30
0.0
 11
12933.8573519499
 21
7791.7391744168444
 31
0.0
  0
LINE
  5
7F5A
  8
FUTO
 10
13048.463369949901
 20
7795.7391744168426
 30
0.0
 11
13058.079336949901
 21
7799.2391744168444
 31
0.0
  0
LINE
  5
7F5B
  8
FUTO
 10
13048.463369949901
 20
7795.7391744168426
 30
0.0
 11
12988.8572909499
 21
7795.7391744168426
 31
0.0
  0
LINE
  5
7F5C
  8
FUTO
 10
12988.8572909499
 20
7791.7391744168444
 30
0.0
 11
12988.8572909499
 21
7808.7391744168444
 31
0.0
  0
LINE
  5
7F5D
  8
FUTO
 10
12848.457388949901
 20
7813.3470854168427
 30
0.0
 11
12928.8572909499
 21
7811.7391744168444
 31
0.0
  0
LINE
  5
7F5E
  8
FUTO
 10
12903.8572909499
 20
7797.7391744168444
 30
0.0
 11
12808.8573519499
 21
7797.7391744168444
 31
0.0
  0
LINE
  5
7F5F
  8
FUTO
 10
12688.8573519499
 20
7811.7391744168444
 30
0.0
 11
12681.177860025589
 21
7811.7391744168444
 31
0.0
  0
LINE
  5
7F60
  8
FUTO
 10
12708.8573519499
 20
7791.7391744168444
 30
0.0
 11
12683.8573519499
 21
7791.7391744168444
 31
0.0
  0
ARC
  5
7F61
  8
FUTO
 10
12867.8572909499
 20
7949.0414204168437
 30
0.0
 40
30.0
 50
270.0
 51
0.000000000000007
  0
ARC
  5
7F62
  8
FUTO
 10
12749.8573519499
 20
7949.0414204168437
 30
0.0
 40
30.0
 50
180.0
 51
270.0
  0
LINE
  5
7F63
  8
CT
 10
12808.8573519499
 20
8281.7391744168435
 30
0.0
 11
12808.8573519499
 21
7711.7391744168453
 31
0.0
  0
LINE
  5
7F64
  8
FUTO
 10
12619.8573519499
 20
7829.7391744168426
 30
0.0
 11
12619.8573519499
 21
7991.7391744168444
 31
0.0
  0
LINE
  5
7F65
  8
FUTO
 10
12977.8572909499
 20
8195.2391744168435
 30
0.0
 11
12977.8572909499
 21
7811.7391744168444
 31
0.0
  0
LINE
  5
7F66
  8
FUTO
 10
13027.8572909499
 20
8194.9256984168424
 30
0.0
 11
13027.8572909499
 21
7795.7391744168426
 31
0.0
  0
LINE
  5
7F67
  8
FUTO
 10
13058.0572419499
 20
8184.5565574168431
 30
0.0
 11
13058.0572419499
 21
7799.2391744168444
 31
0.0
  0
LINE
  5
7F68
  8
FUTO
 10
12619.8573519499
 20
7829.7391744168426
 30
0.0
 11
12619.8573519499
 21
7991.7391744168444
 31
0.0
  0
LINE
  5
7F69
  8
FUTO
 10
12614.8573519499
 20
7801.7391744168444
 30
0.0
 11
12614.8573519499
 21
7991.7391744168444
 31
0.0
  0
LINE
  5
7F6A
  8
FUTO
 10
12533.3573519499
 20
7913.7391744168444
 30
0.0
 11
12533.3573519499
 21
7991.7391744168444
 31
0.0
  0
ARC
  5
7F6B
  8
FUTO
 10
13122.5463779499
 20
8169.2391744168417
 30
0.0
 40
15.0
 50
60.00018299999563
 51
90.0
  0
ARC
  5
7F6C
  8
FUTO
 10
13177.8572909499
 20
8148.8524564168447
 30
0.0
 40
4.9999580000000003
 50
0.000000000000007
 51
59.999718000001181
  0
LINE
  5
7F6D
  8
FUTO
 10
13180.3572909499
 20
8153.1825344168437
 30
0.0
 11
13130.0463779499
 21
8182.2296534168454
 31
0.0
  0
LINE
  5
7F6E
  8
FUTO
 10
10613.408615867869
 20
8137.9681784168442
 30
0.0
 11
10612.001022867869
 21
8137.2074364168438
 31
0.0
  0
ARC
  5
7F6F
  8
FUTO
 10
10613.88407986787
 20
8137.0882954168446
 30
0.0
 40
1.000079999999999
 50
28.39501399997588
 51
118.3855359999758
  0
ARC
  5
7F70
  8
FUTO
 10
10612.47648686787
 20
8136.3275534168442
 30
0.0
 40
1.0001299999999991
 50
118.3855359999758
 51
208.3860319999763
  0
LINE
  5
7F71
  8
FUTO
 10
10532.57023686787
 20
8136.4943014168439
 30
0.0
 11
10533.41886986787
 21
8136.4943014168439
 31
0.0
  0
LINE
  5
7F72
  8
FUTO
 10
10532.57023686787
 20
8136.4943014168439
 30
0.0
 11
10532.57023686787
 21
8137.3429344168444
 31
0.0
  0
LINE
  5
7F73
  8
FUTO
 10
10524.816696867871
 20
8144.247963416844
 30
0.0
 11
10521.224533867869
 21
8140.6559224168432
 31
0.0
  0
LINE
  5
7F74
  8
FUTO
 10
10525.665207867871
 20
8144.247963416844
 30
0.0
 11
10524.816696867871
 21
8144.247963416844
 31
0.0
  0
LINE
  5
7F75
  8
FUTO
 10
10527.104050867871
 20
8141.9606104168433
 30
0.0
 11
10527.104050867871
 21
8142.8092434168448
 31
0.0
  0
LINE
  5
7F76
  8
FUTO
 10
10527.104050867871
 20
8141.9606104168433
 30
0.0
 11
10523.51188786787
 21
8138.3685694168444
 31
0.0
  0
LINE
  5
7F77
  8
FUTO
 10
10527.104050867871
 20
8141.9606104168433
 30
0.0
 11
10527.95256086787
 21
8141.9606104168433
 31
0.0
  0
LINE
  5
7F78
  8
FUTO
 10
10728.40446586787
 20
7927.3097314168454
 30
0.0
 11
10731.20280586787
 21
7928.8221824168431
 31
0.0
  0
ARC
  5
7F79
  8
FUTO
 10
10732.75517386787
 20
7917.1573874168444
 30
0.0
 40
1.0001299999999991
 50
298.38552900002043
 51
28.382720999977689
  0
ARC
  5
7F7A
  8
FUTO
 10
9733.9779518678752
 20
8003.2704244168453
 30
0.0
 40
1000.0
 50
355.7304690000102
 51
5.1562809999889501
  0
LINE
  5
7F7B
  8
FUTO
 10
10613.317917867869
 20
8132.6678854168431
 30
0.0
 11
10604.971481867869
 21
8128.156655416843
 31
0.0
  0
ARC
  5
7F7C
  8
FUTO
 10
10607.348801867871
 20
8123.7579734168448
 30
0.0
 40
5.000062999999999
 50
118.3907549999861
 51
180.0
  0
LINE
  5
7F7D
  8
CT
 10
10584.90397686787
 20
8066.7391744168426
 30
0.0
 11
10621.33732686787
 21
8066.7391744168426
 31
0.0
  0
LINE
  5
7F7E
  8
FUTO
 10
10534.85759086787
 20
8134.2069484168442
 30
0.0
 11
10531.265549867871
 21
8130.6149074168452
 31
0.0
  0
LINE
  5
7F7F
  8
FUTO
 10
10534.85759086787
 20
8134.2069484168442
 30
0.0
 11
10534.85759086787
 21
8135.0555814168438
 31
0.0
  0
LINE
  5
7F80
  8
FUTO
 10
10603.334702867871
 20
8126.7391744168444
 30
0.0
 11
10534.62248286787
 21
8126.7391744168444
 31
0.0
  0
LINE
  5
7F81
  8
FUTO
 10
10602.348801867871
 20
8006.7391744168426
 30
0.0
 11
10585.295334867869
 21
8006.7391744168426
 31
0.0
  0
ARC
  5
7F82
  8
FUTO
 10
10621.17668186787
 20
7936.7391744168444
 30
0.0
 40
10.000057999999999
 50
187.1243290000296
 51
270.0
  0
LINE
  5
7F83
  8
FUTO
 10
10602.348801867871
 20
8006.7391744168426
 30
0.0
 11
10611.25383086787
 21
7935.4989404168446
 31
0.0
  0
LINE
  5
7F84
  8
FUTO
 10
10592.348801867871
 20
8006.7391744168426
 30
0.0
 11
10592.348801867871
 21
8126.7391744168444
 31
0.0
  0
LINE
  5
7F85
  8
FUTO
 10
10602.348801867871
 20
8006.7391744168426
 30
0.0
 11
10602.348801867871
 21
8123.7579734168448
 31
0.0
  0
LINE
  5
7F86
  8
FUTO
 10
10724.62083486787
 20
7926.7391744168444
 30
0.0
 11
10621.17668186787
 21
7926.7391744168444
 31
0.0
  0
LINE
  5
7F87
  8
FUTO
 10
10616.48490986787
 20
8134.3795554168446
 30
0.0
 11
10692.66813786787
 21
8129.4650044168447
 31
0.0
  0
ARC
  5
7F88
  8
FUTO
 10
10690.09318586787
 20
8089.5480124168453
 30
0.0
 40
40.000011000000001
 50
5.1563729999685757
 51
86.309097000000307
  0
LINE
  5
7F89
  8
FUTO
 10
10614.76384086787
 20
8137.5638814168433
 30
0.0
 11
10733.63493386787
 21
7917.6327294168441
 31
0.0
  0
LINE
  5
7F8A
  8
FUTO
 10
10521.224533867869
 20
8140.6559224168432
 30
0.0
 11
10531.265549867871
 21
8130.6149074168452
 31
0.0
  0
LINE
  5
7F8B
  8
CT
 10
10530.789841867871
 20
8140.1800924168438
 30
0.0
 11
10525.54167286787
 21
8134.9320454168437
 31
0.0
  0
LINE
  5
7F8C
  8
FUTO
 10
10525.665207867871
 20
8144.247963416844
 30
0.0
 11
10534.85759086787
 21
8135.0555814168438
 31
0.0
  0
LINE
  5
7F8D
  8
FUTO
 10
10532.57023686787
 20
8136.4943014168439
 30
0.0
 11
10528.97819586787
 21
8132.9022604168449
 31
0.0
  0
ARC
  5
7F8E
  8
FUTO
 10
10382.348801867871
 20
8255.4891744168435
 30
0.0
 40
6.25
 50
0.000000000000007
 51
180.0
  0
LINE
  5
7F8F
  8
FUTO
 10
10398.94555786787
 20
8198.1579984168438
 30
0.0
 11
10398.78549286787
 21
8194.5741964168446
 31
0.0
  0
LINE
  5
7F90
  8
FUTO
 10
10388.598801867871
 20
8213.5695584168443
 30
0.0
 11
10393.903366867869
 21
8213.0011984168432
 31
0.0
  0
ARC
  5
7F91
  8
FUTO
 10
10393.58377186787
 20
8210.0182884168444
 30
0.0
 40
3.0000059999999991
 50
5.1944030000043186
 51
83.884536999966215
  0
LINE
  5
7F92
  8
FUTO
 10
10376.098801867871
 20
8213.5695584168443
 30
0.0
 11
10370.79423586787
 21
8213.0011984168432
 31
0.0
  0
ARC
  5
7F93
  8
FUTO
 10
10395.348801867871
 20
8198.7391744168435
 30
0.0
 40
3.0
 50
46.130962000013298
 51
90.0
  0
ARC
  5
7F94
  8
FUTO
 10
10382.348801867871
 20
7991.7391744168444
 30
0.0
 40
209.99987799999991
 50
86.233009000037313
 51
86.266975000016402
  0
ARC
  5
7F95
  8
FUTO
 10
10395.826004867869
 20
8198.2999044168446
 30
0.0
 40
3.0001099999999989
 50
86.265807999991665
 51
175.05505399999171
  0
ARC
  5
7F96
  8
FUTO
 10
10395.348801867871
 20
8198.7391744168435
 30
0.0
 40
3.0
 50
47.440357000007118
 51
90.0
  0
LINE
  5
7F97
  8
FUTO
 10
10392.837234867869
 20
8198.5584494168434
 30
0.0
 11
10392.52815286787
 21
8194.9843534168449
 31
0.0
  0
LINE
  5
7F98
  8
FUTO
 10
10371.86048986787
 20
8198.5584494168434
 30
0.0
 11
10372.169571867869
 21
8194.9843534168449
 31
0.0
  0
ARC
  5
7F99
  8
FUTO
 10
10373.098801867871
 20
8207.1717924168424
 30
0.0
 40
3.0
 50
270.0
 51
0.000000000000007
  0
ARC
  5
7F9A
  8
FUTO
 10
10391.598801867871
 20
8207.4600004168442
 30
0.0
 40
3.0
 50
180.0
 51
270.0
  0
LINE
  5
7F9B
  8
FUTO
 10
10396.571457867871
 20
8210.2898954168431
 30
0.0
 11
10397.348801867871
 21
8201.7391744168435
 31
0.0
  0
ARC
  5
7F9C
  8
FUTO
 10
10395.94857886787
 20
8198.2919094168446
 30
0.0
 40
3.000081999999999
 50
357.44171099996208
 51
86.234252999979233
  0
ARC
  5
7F9D
  8
FUTO
 10
10382.348801867871
 20
7991.7391744168444
 30
0.0
 40
209.99998500000001
 50
93.732994000026736
 51
93.766990999962673
  0
ARC
  5
7F9E
  8
FUTO
 10
10368.749145867871
 20
8198.2918484168422
 30
0.0
 40
2.9999649999999991
 50
93.767860000028065
 51
182.55722000000901
  0
LINE
  5
7F9F
  8
FUTO
 10
10365.75216786787
 20
8198.1579984168438
 30
0.0
 11
10365.912231867869
 21
8194.5741964168446
 31
0.0
  0
LINE
  5
7FA0
  8
FUTO
 10
10368.126144867871
 20
8210.2898954168431
 30
0.0
 11
10367.348801867871
 21
8201.7391744168435
 31
0.0
  0
ARC
  5
7FA1
  8
FUTO
 10
10369.348801867871
 20
8198.7391744168435
 30
0.0
 40
3.0
 50
90.0
 51
133.88737499997529
  0
LINE
  5
7FA2
  8
FUTO
 10
10397.348801867871
 20
8201.7391744168435
 30
0.0
 11
10367.348801867871
 21
8201.7391744168435
 31
0.0
  0
ARC
  5
7FA3
  8
FUTO
 10
10369.348801867871
 20
8198.7391744168435
 30
0.0
 40
3.0
 50
90.0
 51
133.8315120000008
  0
ARC
  5
7FA4
  8
FUTO
 10
10371.11383186787
 20
8210.0182884168444
 30
0.0
 40
2.9999820000000001
 50
96.115463000033799
 51
174.80560300000801
  0
ARC
  5
7FA5
  8
FUTO
 10
10368.87159786787
 20
8198.2999044168446
 30
0.0
 40
3.0000490000000002
 50
4.9438900000065571
 51
93.731941000007794
  0
LINE
  5
7FA6
  8
FUTO
 10
10239.88102786787
 20
8144.247963416844
 30
0.0
 11
10243.47306886787
 21
8140.6559224168432
 31
0.0
  0
LINE
  5
7FA7
  8
FUTO
 10
10239.88102786787
 20
8144.247963416844
 30
0.0
 11
10239.032394867871
 21
8144.247963416844
 31
0.0
  0
LINE
  5
7FA8
  8
FUTO
 10
10232.127365867869
 20
8136.4945454168437
 30
0.0
 11
10231.27873286787
 21
8136.4945454168437
 31
0.0
  0
LINE
  5
7FA9
  8
FUTO
 10
10232.127365867869
 20
8136.4945454168437
 30
0.0
 11
10232.127365867869
 21
8137.3429344168444
 31
0.0
  0
LINE
  5
7FAA
  8
FUTO
 10
10237.593674867871
 20
8141.9606104168433
 30
0.0
 11
10237.593674867871
 21
8142.8092434168448
 31
0.0
  0
LINE
  5
7FAB
  8
FUTO
 10
10237.593674867871
 20
8141.9606104168433
 30
0.0
 11
10236.745041867871
 21
8141.9606104168433
 31
0.0
  0
LINE
  5
7FAC
  8
FUTO
 10
10237.593674867871
 20
8141.9606104168433
 30
0.0
 11
10241.18571586787
 21
8138.3685694168444
 31
0.0
  0
LINE
  5
7FAD
  8
FUTO
 10
10376.098801867871
 20
8255.4891744168435
 30
0.0
 11
10376.098801867871
 21
8207.1717924168424
 31
0.0
  0
LINE
  5
7FAE
  8
FUTO
 10
10388.598801867871
 20
8255.4891744168435
 30
0.0
 11
10388.598801867871
 21
8207.4600004168442
 31
0.0
  0
LINE
  5
7FAF
  8
FUTO
 10
10229.84001286787
 20
8134.2069484168442
 30
0.0
 11
10233.432053867869
 21
8130.6149074168452
 31
0.0
  0
LINE
  5
7FB0
  8
FUTO
 10
10229.84001286787
 20
8135.0555814168438
 30
0.0
 11
10229.84001286787
 21
8134.2069484168442
 31
0.0
  0
LINE
  5
7FB1
  8
FUTO
 10
10233.432053867869
 20
8130.6149074168452
 30
0.0
 11
10243.47306886787
 21
8140.6559224168432
 31
0.0
  0
LINE
  5
7FB2
  8
CT
 10
10233.907883867871
 20
8140.1800924168438
 30
0.0
 11
10239.15593086787
 21
8134.9320454168437
 31
0.0
  0
LINE
  5
7FB3
  8
FUTO
 10
10229.84001286787
 20
8135.0555814168438
 30
0.0
 11
10239.032394867871
 21
8144.247963416844
 31
0.0
  0
LINE
  5
7FB4
  8
FUTO
 10
10232.127365867869
 20
8136.4945454168437
 30
0.0
 11
10235.719406867869
 21
8132.9022604168449
 31
0.0
  0
LINE
  5
7FB5
  8
CT
 10
10158.848801867871
 20
7991.7391744168444
 30
0.0
 11
10605.848801867871
 21
7991.7391744168444
 31
0.0
  0
ARC
  5
7FB6
  8
FUTO
 10
13177.8572909499
 20
7834.6258934168427
 30
0.0
 40
5.0
 50
300.00027499997202
 51
0.000000000000007
  0
ARC
  5
7FB7
  8
FUTO
 10
10731.34758086787
 20
7916.3966454168449
 30
0.0
 40
1.000079999999999
 50
208.39501999997901
 51
298.38552900002043
  0
ARC
  5
7FB8
  8
FUTO
 10
13122.5463779499
 20
7814.2391744168444
 30
0.0
 40
15.000085
 50
270.0
 51
299.99981700000433
  0
LINE
  5
7FB9
  8
FUTO
 10
13180.3572909499
 20
7830.2958154168427
 30
0.0
 11
13130.0463779499
 21
7801.2486964168447
 31
0.0
  0
ARC
  5
7FBA
  8
FUTO
 10
10566.348801867871
 20
7866.0658354168436
 30
0.0
 40
5.0
 50
0.000000000000007
 51
55.056338999992313
  0
LINE
  5
7FBB
  8
FUTO
 10
10569.21269286787
 20
7870.1644674168429
 30
0.0
 11
10553.27482686787
 21
7881.3009424168422
 31
0.0
  0
ARC
  5
7FBC
  8
FUTO
 10
10568.348801867871
 20
7808.7391744168444
 30
0.0
 40
3.0
 50
0.000000000000007
 51
90.0
  0
LINE
  5
7FBD
  8
FUTO
 10
10534.85759086787
 20
7849.2714014168423
 30
0.0
 11
10531.265549867871
 21
7852.8634424168431
 31
0.0
  0
LINE
  5
7FBE
  8
FUTO
 10
10534.85759086787
 20
7848.4227684168427
 30
0.0
 11
10534.85759086787
 21
7849.2714014168423
 31
0.0
  0
LINE
  5
7FBF
  8
FUTO
 10
10532.57023686787
 20
7846.9838034168442
 30
0.0
 11
10533.41886986787
 21
7846.9838034168442
 31
0.0
  0
LINE
  5
7FC0
  8
FUTO
 10
10532.57023686787
 20
7846.9838034168442
 30
0.0
 11
10532.57023686787
 21
7846.1354154168448
 31
0.0
  0
LINE
  5
7FC1
  8
FUTO
 10
10524.816574867869
 20
7839.230385416844
 30
0.0
 11
10521.224533867869
 21
7842.8224264168439
 31
0.0
  0
LINE
  5
7FC2
  8
FUTO
 10
10524.816574867869
 20
7839.230385416844
 30
0.0
 11
10525.665207867871
 21
7839.230385416844
 31
0.0
  0
LINE
  5
7FC3
  8
FUTO
 10
10527.103928867869
 20
7841.5177394168431
 30
0.0
 11
10527.103928867869
 21
7840.6691064168444
 31
0.0
  0
LINE
  5
7FC4
  8
FUTO
 10
10527.103928867869
 20
7841.5177394168431
 30
0.0
 11
10523.51188786787
 21
7845.1097804168439
 31
0.0
  0
LINE
  5
7FC5
  8
FUTO
 10
10527.103928867869
 20
7841.5177394168431
 30
0.0
 11
10527.95256086787
 21
7841.5177394168431
 31
0.0
  0
LINE
  5
7FC6
  8
FUTO
 10
10531.265549867871
 20
7852.8634424168431
 30
0.0
 11
10521.224533867869
 21
7842.8224264168439
 31
0.0
  0
LINE
  5
7FC7
  8
CT
 10
10530.789719867869
 20
7843.2982564168442
 30
0.0
 11
10525.54167286787
 21
7848.5463034168451
 31
0.0
  0
LINE
  5
7FC8
  8
FUTO
 10
10534.85759086787
 20
7848.4227684168427
 30
0.0
 11
10525.665207867871
 21
7839.230385416844
 31
0.0
  0
LINE
  5
7FC9
  8
FUTO
 10
10532.57023686787
 20
7846.9838034168442
 30
0.0
 11
10528.97819586787
 21
7850.5760884168449
 31
0.0
  0
ARC
  5
7FCA
  8
FUTO
 10
10494.848801867871
 20
7808.7391744168444
 30
0.0
 40
3.0
 50
90.0
 51
180.0
  0
LINE
  5
7FCB
  8
FUTO
 10
10494.848801867871
 20
7811.7391744168444
 30
0.0
 11
10568.348801867871
 21
7811.7391744168444
 31
0.0
  0
LINE
  5
7FCC
  8
FUTO
 10
10571.348801867871
 20
7791.7391744168444
 30
0.0
 11
10491.848801867871
 21
7791.7391744168444
 31
0.0
  0
LINE
  5
7FCD
  8
FUTO
 10
10491.848801867871
 20
7808.7391744168444
 30
0.0
 11
10491.848801867871
 21
7791.7391744168444
 31
0.0
  0
LINE
  5
7FCE
  8
FUTO
 10
10486.451584867869
 20
7816.8824854168442
 30
0.0
 11
10491.848801867871
 21
7796.7391744168444
 31
0.0
  0
LINE
  5
7FCF
  8
CT
 10
10541.348801867871
 20
7821.7391744168444
 30
0.0
 11
10541.348801867871
 21
7781.7391744168426
 31
0.0
  0
LINE
  5
7FD0
  8
FUTO
 10
10571.348801867871
 20
7866.0658354168436
 30
0.0
 11
10571.348801867871
 21
7791.7391744168444
 31
0.0
  0
LINE
  5
7FD1
  8
FUTO
 10
10195.485031867869
 20
7870.1644674168429
 30
0.0
 11
10211.422897867869
 21
7881.3009424168422
 31
0.0
  0
ARC
  5
7FD2
  8
FUTO
 10
10269.848801867871
 20
7808.7391744168444
 30
0.0
 40
3.0
 50
0.000000000000007
 51
90.0
  0
LINE
  5
7FD3
  8
FUTO
 10
10229.84001286787
 20
7849.2714014168423
 30
0.0
 11
10233.432053867869
 21
7852.8634424168431
 31
0.0
  0
LINE
  5
7FD4
  8
FUTO
 10
10229.84001286787
 20
7849.2714014168423
 30
0.0
 11
10229.84001286787
 21
7848.4227684168427
 31
0.0
  0
LINE
  5
7FD5
  8
FUTO
 10
10239.88102786787
 20
7839.230385416844
 30
0.0
 11
10243.47306886787
 21
7842.8224264168439
 31
0.0
  0
LINE
  5
7FD6
  8
FUTO
 10
10239.032394867871
 20
7839.230385416844
 30
0.0
 11
10239.88102786787
 21
7839.230385416844
 31
0.0
  0
LINE
  5
7FD7
  8
FUTO
 10
10237.59343086787
 20
7841.5177394168431
 30
0.0
 11
10237.59343086787
 21
7840.6691064168444
 31
0.0
  0
LINE
  5
7FD8
  8
FUTO
 10
10237.59343086787
 20
7841.5177394168431
 30
0.0
 11
10236.745041867871
 21
7841.5177394168431
 31
0.0
  0
LINE
  5
7FD9
  8
FUTO
 10
10232.127365867869
 20
7846.9840474168432
 30
0.0
 11
10231.27873286787
 21
7846.9840474168432
 31
0.0
  0
LINE
  5
7FDA
  8
FUTO
 10
10232.127365867869
 20
7846.9840474168432
 30
0.0
 11
10232.127365867869
 21
7846.1354154168448
 31
0.0
  0
LINE
  5
7FDB
  8
FUTO
 10
10237.59343086787
 20
7841.5177394168431
 30
0.0
 11
10241.18571586787
 21
7845.1097804168439
 31
0.0
  0
LINE
  5
7FDC
  8
FUTO
 10
10243.47306886787
 20
7842.8224264168439
 30
0.0
 11
10233.432053867869
 21
7852.8634424168431
 31
0.0
  0
LINE
  5
7FDD
  8
CT
 10
10233.907883867871
 20
7843.2982564168442
 30
0.0
 11
10239.15593086787
 21
7848.5463034168451
 31
0.0
  0
LINE
  5
7FDE
  8
FUTO
 10
10239.032394867871
 20
7839.230385416844
 30
0.0
 11
10229.84001286787
 21
7848.4227684168427
 31
0.0
  0
LINE
  5
7FDF
  8
FUTO
 10
10232.127365867869
 20
7846.9840474168432
 30
0.0
 11
10235.719406867869
 21
7850.5760884168449
 31
0.0
  0
LINE
  5
7FE0
  8
FUTO
 10
10269.848801867871
 20
7811.7391744168444
 30
0.0
 11
10196.348801867871
 21
7811.7391744168444
 31
0.0
  0
LINE
  5
7FE1
  8
FUTO
 10
10272.848801867871
 20
7808.7391744168444
 30
0.0
 11
10272.848801867871
 21
7791.7391744168444
 31
0.0
  0
LINE
  5
7FE2
  8
FUTO
 10
10278.24623186787
 20
7816.8823634168439
 30
0.0
 11
10272.848801867871
 21
7796.7391744168444
 31
0.0
  0
LINE
  5
7FE3
  8
CT
 10
10223.348801867871
 20
7821.7391744168444
 30
0.0
 11
10223.348801867871
 21
7781.7391744168426
 31
0.0
  0
LINE
  5
7FE4
  8
FUTO
 10
10193.348801867871
 20
7866.0658354168436
 30
0.0
 11
10193.348801867871
 21
7791.7391744168444
 31
0.0
  0
LINE
  5
7FE5
  8
FUTO
 10
10193.348801867871
 20
7791.7391744168444
 30
0.0
 11
10272.848801867871
 21
7791.7391744168444
 31
0.0
  0
ARC
  5
7FE6
  8
FUTO
 10
10198.348801867871
 20
7866.0658354168436
 30
0.0
 40
5.0000669999999987
 50
124.9436649999749
 51
180.0
  0
ARC
  5
7FE7
  8
FUTO
 10
10196.348801867871
 20
7808.7391744168444
 30
0.0
 40
3.0
 50
90.0
 51
180.0
  0
LINE
  5
7FE8
  8
FUTO
 10
10437.08683886787
 20
7795.7391744168426
 30
0.0
 11
10327.61076486787
 21
7795.7391744168426
 31
0.0
  0
LINE
  5
7FE9
  8
CT
 10
10382.348801867871
 20
8281.7391744168435
 30
0.0
 11
10382.348801867871
 21
7711.7391744168453
 31
0.0
  0
ARC
  5
7FEA
  8
FUTO
 10
10382.348801867871
 20
7991.7391744168444
 30
0.0
 40
203.5
 50
285.60375999997461
 51
254.39630099999039
  0
LINE
  5
7FEB
  8
FUTO
 10
13123.7573149499
 20
7799.2391744168444
 30
0.0
 11
13123.7573149499
 21
8184.1901024168428
 31
0.0
  0
LINE
  5
7FEC
  8
CT
 10
10672.348801867871
 20
7944.1334614168436
 30
0.0
 11
10672.348801867871
 21
7905.1395654168446
 31
0.0
  0
LINE
  5
7FED
  8
FUTO
 10
10611.59684886787
 20
8135.8519674168438
 30
0.0
 11
10730.46794186787
 21
7915.9210594168444
 31
0.0
  0
LINE
  5
7FEE
  8
FUTO
 10
10731.82304486787
 20
7915.5167624168444
 30
0.0
 11
10733.23063786787
 21
7916.2775044168457
 31
0.0
  0
LINE
  5
7FEF
  8
FUTO
 10
13182.8573519499
 20
8149.3891384168428
 30
0.0
 11
13182.8573519499
 21
7834.5988244168429
 31
0.0
  0
LINE
  5
7FF0
  8
CT
 10
12363.3573519499
 20
7991.7391744168444
 30
0.0
 11
13202.8573519499
 21
7991.7391744168444
 31
0.0
  0
LINE
  5
7FF1
  8
FUTO
 10
13061.606069949899
 20
8184.2391744168426
 30
0.0
 11
13122.5463779499
 21
8184.2391744168426
 31
0.0
  0
LINE
  5
7FF2
  8
FUTO
 10
13058.0572419499
 20
7799.2391744168444
 30
0.0
 11
13122.5463779499
 21
7799.2391744168444
 31
0.0
  0
LINE
  5
7FF3
  8
FUTO
 10
10391.348801867871
 20
8025.7391744168426
 30
0.0
 11
10373.348801867871
 21
8025.7391744168426
 31
0.0
  0
LINE
  5
7FF4
  8
FUTO
 10
10391.348801867871
 20
8014.7391744168444
 30
0.0
 11
10373.348801867871
 21
8014.7391744168444
 31
0.0
  0
LINE
  5
7FF5
  8
FUTO
 10
10391.348801867871
 20
8025.7391744168453
 30
0.0
 11
10391.348801867871
 21
8014.7391744168444
 31
0.0
  0
LINE
  5
7FF6
  8
FUTO
 10
10373.348801867871
 20
8025.7391744168453
 30
0.0
 11
10373.348801867871
 21
8014.7391744168444
 31
0.0
  0
LINE
  5
7FF7
  8
CT
 10
10247.348801867871
 20
11448.576311850289
 30
0.0
 11
10197.348801867871
 21
11448.576311850289
 31
0.0
  0
LINE
  5
7FF8
  8
CT
 10
10222.348801867871
 20
11423.576311850289
 30
0.0
 11
10222.348801867871
 21
11473.576311850289
 31
0.0
  0
LINE
  5
7FF9
  8
CT
 10
10542.348801867871
 20
11423.576311850289
 30
0.0
 11
10542.348801867871
 21
11473.576311850289
 31
0.0
  0
LINE
  5
7FFA
  8
CT
 10
10517.348801867871
 20
11448.576311850289
 30
0.0
 11
10567.348801867871
 21
11448.576311850289
 31
0.0
  0
LINE
  5
7FFB
  8
CT
 10
10517.348801867871
 20
11908.576311850289
 30
0.0
 11
10567.348801867871
 21
11908.576311850289
 31
0.0
  0
LINE
  5
7FFC
  8
CT
 10
10542.348801867871
 20
11933.576311850289
 30
0.0
 11
10542.348801867871
 21
11883.576311850289
 31
0.0
  0
LINE
  5
7FFD
  8
CT
 10
10222.348801867871
 20
11933.576311850289
 30
0.0
 11
10222.348801867871
 21
11883.576311850289
 31
0.0
  0
LINE
  5
7FFE
  8
CT
 10
10247.348801867871
 20
11908.576311850289
 30
0.0
 11
10197.348801867871
 21
11908.576311850289
 31
0.0
  0
LINE
  5
8000
  8
SL
 10
10514.848801867871
 20
11253.076311850289
 30
0.0
 11
10514.848801867871
 21
11351.076311850289
 31
0.0
  0
LINE
  5
8001
  8
FUTO
 10
10585.848801867871
 20
11114.076311850289
 30
0.0
 11
10585.848801867871
 21
11403.076311850289
 31
0.0
  0
LINE
  5
8002
  8
SL
 10
10249.848801867871
 20
11253.076311850289
 30
0.0
 11
10249.848801867871
 21
11351.076311850289
 31
0.0
  0
LINE
  5
8003
  8
SL
 10
10572.348801867871
 20
12000.614869478441
 30
0.0
 11
10572.348801867871
 21
11438.076311850289
 31
0.0
  0
LINE
  5
8004
  8
SL
 10
10507.348801867871
 20
12052.576311850289
 30
0.0
 11
10507.348801867871
 21
11438.076311850289
 31
0.0
  0
LINE
  5
8005
  8
SL
 10
10257.348801867871
 20
12052.576311850289
 30
0.0
 11
10257.348801867871
 21
11438.076311850289
 31
0.0
  0
LINE
  5
8006
  8
SL
 10
10192.348801867871
 20
11993.476274850291
 30
0.0
 11
10192.348801867871
 21
11438.076311850289
 31
0.0
  0
LINE
  5
8007
  8
FUTO
 10
10895.348801867871
 20
12335.076311850289
 30
0.0
 11
10895.348801867871
 21
13653.076311850289
 31
0.0
  0
LINE
  5
8008
  8
FUTO
 10
10830.348801867871
 20
12400.076311850289
 30
0.0
 11
10830.348801867871
 21
13588.076311850289
 31
0.0
  0
LINE
  5
8009
  8
FUTO
 10
9109.3488018678763
 20
12335.076311850289
 30
0.0
 11
9109.3488018678763
 21
13653.076311850289
 31
0.0
  0
LINE
  5
8017
  8
FUTO
 10
9174.3488018678763
 20
12400.076311850289
 30
0.0
 11
9174.3488018678763
 21
13588.076311850289
 31
0.0
  0
LINE
  5
8018
  8
FUTO
 10
10895.348801867871
 20
13653.076311850289
 30
0.0
 11
9109.3488018678763
 21
13653.076311850289
 31
0.0
  0
LINE
  5
8019
  8
FUTO
 10
10895.348801867871
 20
12335.076311850289
 30
0.0
 11
9109.3488018678763
 21
12335.076311850289
 31
0.0
  0
LINE
  5
801A
  8
FUTO
 10
10082.348801867871
 20
12335.076311850289
 30
0.0
 11
10082.348801867871
 21
12325.076311850289
 31
0.0
  0
LINE
  5
801C
  8
FUTO
 10
9109.3488018678763
 20
12400.076311850289
 30
0.0
 11
7993.3488018678763
 21
12400.076311850289
 31
0.0
  0
LINE
  5
801D
  8
FUTO
 10
9109.3488018678763
 20
13588.076311850289
 30
0.0
 11
7993.3488018678763
 21
13588.076311850289
 31
0.0
  0
LINE
  5
801E
  8
FUTO
 10
7993.3488018678763
 20
12400.076311850289
 30
0.0
 11
7993.3488018678763
 21
13588.076311850289
 31
0.0
  0
LINE
  5
801F
  8
FUTO
 10
7943.3488018678763
 20
12350.076311850289
 30
0.0
 11
7943.3488018678763
 21
13638.076311850289
 31
0.0
  0
LINE
  5
8020
  8
FUTO
 10
9109.3488018678763
 20
12350.076311850289
 30
0.0
 11
7943.3488018678763
 21
12350.076311850289
 31
0.0
  0
LINE
  5
8021
  8
FUTO
 10
9109.3488018678763
 20
13638.076311850289
 30
0.0
 11
7943.3488018678763
 21
13638.076311850289
 31
0.0
  0
LINE
  5
8022
  8
FUTO
 10
8182.3488018678763
 20
12350.076311850289
 30
0.0
 11
8182.3488018678763
 21
12325.076311850289
 31
0.0
  0
LINE
  5
8023
  8
SL
 10
10830.348801867871
 20
13588.076311850289
 30
0.0
 11
9174.3488018678763
 21
12400.076311850289
 31
0.0
  0
LINE
  5
8024
  8
SL
 10
9174.3488018678763
 20
13588.076311850289
 30
0.0
 11
10830.348801867871
 21
12400.076311850289
 31
0.0
  0
LINE
  5
8025
  8
FUTO
 10
9518.0006747585976
 20
11438.076311850289
 30
0.0
 11
9518.0006747585976
 21
12325.076311850289
 31
0.0
  0
LINE
  5
8027
  8
FUTO
 10
8746.6969289771569
 20
11438.076311850289
 30
0.0
 11
8746.6969289771569
 21
12325.076311850289
 31
0.0
  0
DIMENSION
  5
8028
  8
SP
  2
*D12
 10
10895.348801867871
 20
10376.905565498721
 30
0.0
 11
10013.848801867871
 21
10464.405565498721
 31
0.0
 70
     0
 13
9132.3488018678745
 23
10134.3710349302
 33
0.0
 14
10895.348801867871
 24
10026.73917441684
 34
0.0
1001
ACAD
1000
DSTYLE
1002
{
1070
    40
1040
35.0
1070
    41
1040
2.5
1070
   147
1040
1.0
1002
}
  0
DIMENSION
  5
8046
  8
SP
  2
*D13
 10
11148.54396811562
 20
8981.7391744168417
 30
0.0
 11
11061.04396811562
 21
8281.7391744168472
 31
0.0
 70
     0
 13
10682.348801867871
 23
7581.7391744168426
 33
0.0
 14
10965.706923837721
 24
8981.7391744168417
 34
0.0
 50
90.0
1001
ACAD
1000
DSTYLE
1002
{
1070
    40
1040
35.0
1070
    41
1040
2.5
1070
   147
1040
1.0
1002
}
  0
DIMENSION
  5
8053
  8
SP
  2
*D14
 10
11148.54396811562
 20
10026.73917441684
 30
0.0
 11
11061.04396811562
 21
9504.2391744168453
 31
0.0
 70
     0
 13
10965.706923837721
 23
8981.7391744168417
 33
0.0
 14
10895.348801867871
 24
10026.73917441684
 34
0.0
 50
90.0
1001
ACAD
1000
DSTYLE
1002
{
1070
    40
1040
35.0
1070
    41
1040
2.5
1070
   147
1040
1.0
1002
}
  0
DIMENSION
  5
807B
  8
SP
  2
*D15
 10
10895.348801867871
 20
14039.226979306
 30
0.0
 11
10013.848801867871
 21
14126.726979306
 31
0.0
 70
     0
 13
9132.3488018678745
 23
13763.85422366716
 33
0.0
 14
10895.348801867871
 24
13653.076311850289
 34
0.0
1001
ACAD
1000
DSTYLE
1002
{
1070
    40
1040
35.0
1070
    41
1040
2.5
1070
   147
1040
1.0
1002
}
  0
DIMENSION
  5
8088
  8
SP
  2
*D16
 10
7943.3488018678763
 20
14039.226979306
 30
0.0
 11
8537.8488018678763
 21
14126.726979306
 31
0.0
 70
     0
 13
9132.3488018678745
 23
13798.85422366716
 33
0.0
 14
7943.3488018678763
 24
13638.076311850289
 34
0.0
1001
ACAD
1000
DSTYLE
1002
{
1070
    40
1040
35.0
1070
    41
1040
2.5
1070
   147
1040
1.0
1002
}
  0
DIMENSION
  5
8095
  8
SP
  2
*D17
 10
11237.96856218147
 20
13719.076311850289
 30
0.0
 11
11150.46856218147
 21
13356.576311850289
 31
0.0
 70
     0
 13
10895.348801867871
 23
12994.076311850289
 33
0.0
 14
9997.3488018678763
 24
13719.076311850289
 34
0.0
 50
90.0
1001
ACAD
1000
DSTYLE
1002
{
1070
    40
1040
35.0
1070
    41
1040
2.5
1070
   147
1040
1.0
1002
}
  0
DIMENSION
  5
80A2
  8
SP
  2
*D18
 10
11237.96856218147
 20
11114.076311850289
 30
0.0
 11
11150.46856218147
 21
12054.076311850289
 31
0.0
 70
     0
 13
10895.348801867871
 23
12994.076311850289
 33
0.0
 14
10585.848801867871
 24
11114.076311850289
 34
0.0
 50
90.0
1001
ACAD
1000
DSTYLE
1002
{
1070
    40
1040
35.0
1070
    41
1040
2.5
1070
   147
1040
1.0
1002
}
  0
LINE
  5
80D3
  8
FUTO
 10
9661.9523513516997
 20
8191.6113127184108
 30
0.0
 11
9757.3488018678763
 21
7739.566721475785
 31
0.0
  0
LINE
  5
80D4
  8
FUTO
 10
10072.348801867871
 20
7928.9460741282446
 30
0.0
 11
10072.348801867871
 21
7731.7391744168426
 31
0.0
  0
LINE
  5
80D5
  8
FUTO
 10
10063.348801867871
 20
7934.7063265484067
 30
0.0
 11
10063.348801867871
 21
7731.7391744168426
 31
0.0
  0
LINE
  5
80D6
  8
KL
 10
10072.348801867871
 20
8599.0999108561355
 30
0.0
 11
10072.348801867871
 21
7928.9460741282446
 31
0.0
  0
LINE
  5
80D7
  8
KL
 10
10063.348801867871
 20
8607.8331192987516
 30
0.0
 11
10063.348801867871
 21
7934.7063265484067
 31
0.0
  0
LINE
  5
80D8
  8
FUTO
 10
9668.7453157942891
 20
8990.7391744168435
 30
0.0
 11
10780.81735128131
 21
8990.7391744168435
 31
0.0
  0
LINE
  5
80D9
  8
FUTO
 10
9687.2951993868428
 20
8972.7391744168435
 30
0.0
 11
10780.81735128131
 21
8972.7391744168435
 31
0.0
  0
LINE
  5
80DA
  8
KL
 10
8752.4553957655844
 20
8990.7391744168435
 30
0.0
 11
8932.3488018678763
 21
8990.7391744168435
 31
0.0
  0
LINE
  5
80DB
  8
KL
 10
8752.4553957655844
 20
8972.7391744168435
 30
0.0
 11
8932.3488018678763
 21
8972.7391744168435
 31
0.0
  0
TEXT
  5
8ABC
  8
SP
 10
15973.07973897257
 20
9228.2102166349741
 30
0.0
 40
100.0
  1
 
  0
LINE
  5
8ABD
  8
4
 10
15074.33016999941
 20
5627.1569893464366
 30
0.0
 11
15074.330169999401
 21
4627.1569893464366
 31
0.0
  0
LINE
  5
8ABE
  8
4
 10
11574.33016999941
 20
5627.1569893464366
 30
0.0
 11
11574.330169999401
 21
4627.1569893464366
 31
0.0
  0
LINE
  5
8ABF
  8
4
 10
9074.3301699994117
 20
5627.1569893464366
 30
0.0
 11
9074.3301699994117
 21
4627.1569893464366
 31
0.0
  0
LINE
  5
8AC2
  8
4
 10
9074.3301699994117
 20
4627.1569893464366
 30
0.0
 11
15074.33016999941
 21
4627.1569893464366
 31
0.0
  0
LINE
  5
8AC3
  8
4
 10
9074.3301699994117
 20
5127.1569893464366
 30
0.0
 11
15074.33016999941
 21
5127.1569893464366
 31
0.0
  0
TEXT
  5
8AC4
  8
4
 10
9266.840574233931
 20
5284.8721186795046
 30
0.0
 40
250.0
  1
機器名称
  0
TEXT
  5
8AC5
  8
4
 10
9255.6207001234052
 20
4735.3827730064913
 30
0.0
 40
250.0
  1
機器型番
  0
TEXT
  5
8AC6
  8
4
 10
11598.29547850462
 20
5238.093501131174
 30
0.0
 40
225.0
  1
ミツヤリミットロードファン
  0
TEXT
  5
8AC7
  8
4
 10
11757.60264792682
 20
4712.9549107461526
 30
0.0
 40
250.0
  1
LL#10-1
  0
TEXT
  5
8AC9
  8
4
 10
9837.428961548525
 20
15044.30119600901
 30
0.0
 40
270.0
  1
床置ベット
  0
TEXT
  5
8ACA
  8
4
 10
7405.1681366466428
 20
15796.561870342921
 30
0.0
 40
360.0
  1
遠心式片吸込片持リミットロードファン
  0
LINE
  5
8ACB
  8
4
 10
7074.3301699994099
 20
15474.200760670459
 30
0.0
 11
15074.33016999941
 21
15474.200760670459
 31
0.0
  0
LINE
  5
8ACC
  8
4
 10
7074.3301699994099
 20
16474.200760670461
 30
0.0
 11
15074.33016999941
 21
16474.200760670461
 31
0.0
  0
LINE
  5
8ACD
  8
4
 10
9074.3301699994117
 20
5627.1569893464366
 30
0.0
 11
15074.33016999941
 21
5627.1569893464366
 31
0.0
  0
LINE
  5
8ACE
  8
4
 10
7074.3301699994099
 20
16474.200760670461
 30
0.0
 11
7074.3301699994099
 21
15474.200760670459
 31
0.0
  0
TEXT
  5
8ACF
  8
4
 10
7520.1977507547772
 20
15038.75437707815
 30
0.0
 40
270.0
  1
左回転上向
  0
TEXT
  5
8AD0
  8
4
 10
13169.177966245859
 20
16657.462396822979
 30
0.0
 40
280.0
  1
No.
  0
TEXT
  5
8AD1
  8
4
 10
13236.10939325618
 20
14548.03635299881
 30
0.0
 40
270.0
  1
縮尺：1/50
  0
LINE
  5
8AD2
  8
4
 10
15074.33016999941
 20
16474.200760670461
 30
0.0
 11
15074.33016999941
 21
15474.200760670459
 31
0.0
  0
LINE
  5
8AD3
  8
4
 10
16324.33016999941
 20
17877.156989346429
 30
0.0
 11
16324.33016999941
 21
17877.156989346429
 31
0.0
  0
LINE
  5
8AD4
  8
4
 10
13027.417281798729
 20
16533.474904973438
 30
0.0
 11
13027.417281798729
 21
17060.418297095192
 31
0.0
  0
LINE
  5
8AD5
  8
4
 10
13027.417281798729
 20
17060.418297095192
 30
0.0
 11
15074.33016999941
 21
17060.418297095192
 31
0.0
  0
LINE
  5
8AD6
  8
4
 10
15074.33016999941
 20
17060.418297095192
 30
0.0
 11
15074.33016999941
 21
16533.474904973438
 31
0.0
  0
LINE
  5
8AD7
  8
4
 10
15074.33016999941
 20
16533.474904973438
 30
0.0
 11
13027.417281798729
 21
16533.474904973438
 31
0.0
  0
LINE
  5
8AD8
  8
4
 10
5824.3301699994099
 20
3127.1569893464371
 30
0.0
 11
5824.3301699994099
 21
17877.156989346429
 31
0.0
  0
LINE
  5
8AD9
  8
4
 10
5824.3301699994099
 20
17877.156989346429
 30
0.0
 11
16324.33016999941
 21
17877.156989346429
 31
0.0
  0
LINE
  5
8ADA
  8
4
 10
16324.33016999941
 20
17877.156989346429
 30
0.0
 11
16324.33016999941
 21
3127.1569893464371
 31
0.0
  0
LINE
  5
8ADB
  8
4
 10
16324.33016999941
 20
3127.1569893464371
 30
0.0
 11
5824.3301699994099
 21
3127.1569893464371
 31
0.0
  0
ENDSEC
  0
EOF
