  0
SECTION
  2
HEADER
  9
$ACADVER
  1
AC1027
  9
$ACADMAINTVER
 70
   125
  9
$DWGCODEPAGE
  3
ANSI_932
  9
$LASTSAVEDBY
  1
yasukiyo.ogawa
  9
$REQUIREDVERSIONS
160
                 0
  9
$INSBASE
 10
0.0
 20
0.0
 30
0.0
  9
$EXTMIN
 10
0.0
 20
0.0
 30
0.0
  9
$EXTMAX
 10
9450.0
 20
13275.0
 30
0.0
  9
$LIMMIN
 10
0.0
 20
0.0
  9
$LIMMAX
 10
297.0
 20
210.0
  9
$ORTHOMODE
 70
     1
  9
$REGENMODE
 70
     1
  9
$FILLMODE
 70
     0
  9
$QTEXTMODE
 70
     0
  9
$MIRRTEXT
 70
     1
  9
$LTSCALE
 40
100.0
  9
$ATTMODE
 70
     1
  9
$TEXTSIZE
 40
180.0
  9
$TRACEWID
 40
0.05
  9
$TEXTSTYLE
  7
STANDARD
  9
$CLAYER
  8
3
  9
$CELTYPE
  6
BYLAYER
  9
$CECOLOR
 62
   256
  9
$CELTSCALE
 40
1.0
  9
$DISPSILH
 70
     0
  9
$DIMSCALE
 40
45.0
  9
$DIMASZ
 40
2.0
  9
$DIMEXO
 40
0.5
  9
$DIMDLI
 40
10.0
  9
$DIMRND
 40
0.0
  9
$DIMDLE
 40
0.0
  9
$DIMEXE
 40
1.0
  9
$DIMTP
 40
1.0
  9
$DIMTM
 40
1.0
  9
$DIMTXT
 40
3.0
  9
$DIMCEN
 40
0.0
  9
$DIMTSZ
 40
0.0
  9
$DIMTOL
 70
     0
  9
$DIMLIM
 70
     0
  9
$DIMTIH
 70
     0
  9
$DIMTOH
 70
     0
  9
$DIMSE1
 70
     0
  9
$DIMSE2
 70
     0
  9
$DIMTAD
 70
     1
  9
$DIMZIN
 70
     8
  9
$DIMBLK
  1

  9
$DIMASO
 70
     1
  9
$DIMSHO
 70
     1
  9
$DIMPOST
  1
(<>)
  9
$DIMAPOST
  1

  9
$DIMALT
 70
     0
  9
$DIMALTD
 70
     2
  9
$DIMALTF
 40
0.039
  9
$DIMLFAC
 40
1.0
  9
$DIMTOFL
 70
     1
  9
$DIMTVP
 40
0.0
  9
$DIMTIX
 70
     0
  9
$DIMSOXD
 70
     0
  9
$DIMSAH
 70
     1
  9
$DIMBLK1
  1
OPEN
  9
$DIMBLK2
  1
OPEN
  9
$DIMSTYLE
  2
IGA
  9
$DIMCLRD
 70
     0
  9
$DIMCLRE
 70
     0
  9
$DIMCLRT
 70
     0
  9
$DIMTFAC
 40
10.0
  9
$DIMGAP
 40
1.0
  9
$DIMJUST
 70
     0
  9
$DIMSD1
 70
     0
  9
$DIMSD2
 70
     0
  9
$DIMTOLJ
 70
     1
  9
$DIMTZIN
 70
     8
  9
$DIMALTZ
 70
     0
  9
$DIMALTTZ
 70
     0
  9
$DIMUPT
 70
     0
  9
$DIMDEC
 70
     0
  9
$DIMTDEC
 70
     0
  9
$DIMALTU
 70
     2
  9
$DIMALTTD
 70
     2
  9
$DIMTXSTY
  7
STANDARD
  9
$DIMAUNIT
 70
     0
  9
$DIMADEC
 70
     0
  9
$DIMALTRND
 40
0.0
  9
$DIMAZIN
 70
     0
  9
$DIMDSEP
 70
    46
  9
$DIMATFIT
 70
     3
  9
$DIMFRAC
 70
     0
  9
$DIMLDRBLK
  1
OPEN
  9
$DIMLUNIT
 70
     2
  9
$DIMLWD
 70
    -2
  9
$DIMLWE
 70
    -2
  9
$DIMTMOVE
 70
     2
  9
$DIMFXL
 40
1.0
  9
$DIMFXLON
 70
     0
  9
$DIMJOGANG
 40
0.7853981633974483
  9
$DIMTFILL
 70
     0
  9
$DIMTFILLCLR
 70
     0
  9
$DIMARCSYM
 70
     0
  9
$DIMLTYPE
  6

  9
$DIMLTEX1
  6

  9
$DIMLTEX2
  6

  9
$DIMTXTDIRECTION
 70
     0
  9
$LUNITS
 70
     2
  9
$LUPREC
 70
     3
  9
$SKETCHINC
 40
0.1
  9
$FILLETRAD
 40
50.0
  9
$AUNITS
 70
     0
  9
$AUPREC
 70
     0
  9
$MENU
  1
acad
  9
$ELEVATION
 40
0.0
  9
$PELEVATION
 40
0.0
  9
$THICKNESS
 40
0.0
  9
$LIMCHECK
 70
     0
  9
$CHAMFERA
 40
0.5
  9
$CHAMFERB
 40
0.5
  9
$CHAMFERC
 40
20.0
  9
$CHAMFERD
 40
0.0
  9
$SKPOLY
 70
     0
  9
$TDCREATE
 40
2452324.548263889
  9
$TDUCREATE
 40
2452324.173273380
  9
$TDUPDATE
 40
2460245.566145833
  9
$TDUUPDATE
 40
2460245.191153253
  9
$TDINDWG
 40
0.0309555671
  9
$TDUSRTIMER
 40
0.0309555671
  9
$USRTIMER
 70
     1
  9
$ANGBASE
 50
0.0
  9
$ANGDIR
 70
     0
  9
$PDMODE
 70
     0
  9
$PDSIZE
 40
0.0
  9
$PLINEWID
 40
0.0
  9
$SPLFRAME
 70
     0
  9
$SPLINETYPE
 70
     6
  9
$SPLINESEGS
 70
     8
  9
$HANDSEED
  5
8055
  9
$SURFTAB1
 70
     6
  9
$SURFTAB2
 70
     6
  9
$SURFTYPE
 70
     6
  9
$SURFU
 70
     6
  9
$SURFV
 70
     6
  9
$UCSBASE
  2

  9
$UCSNAME
  2

  9
$UCSORG
 10
0.0
 20
0.0
 30
0.0
  9
$UCSXDIR
 10
1.0
 20
0.0
 30
0.0
  9
$UCSYDIR
 10
0.0
 20
1.0
 30
0.0
  9
$UCSORTHOREF
  2

  9
$UCSORTHOVIEW
 70
     0
  9
$UCSORGTOP
 10
0.0
 20
0.0
 30
0.0
  9
$UCSORGBOTTOM
 10
0.0
 20
0.0
 30
0.0
  9
$UCSORGLEFT
 10
0.0
 20
0.0
 30
0.0
  9
$UCSORGRIGHT
 10
0.0
 20
0.0
 30
0.0
  9
$UCSORGFRONT
 10
0.0
 20
0.0
 30
0.0
  9
$UCSORGBACK
 10
0.0
 20
0.0
 30
0.0
  9
$PUCSBASE
  2

  9
$PUCSNAME
  2

  9
$PUCSORG
 10
0.0
 20
0.0
 30
0.0
  9
$PUCSXDIR
 10
1.0
 20
0.0
 30
0.0
  9
$PUCSYDIR
 10
0.0
 20
1.0
 30
0.0
  9
$PUCSORTHOREF
  2

  9
$PUCSORTHOVIEW
 70
     0
  9
$PUCSORGTOP
 10
0.0
 20
0.0
 30
0.0
  9
$PUCSORGBOTTOM
 10
0.0
 20
0.0
 30
0.0
  9
$PUCSORGLEFT
 10
0.0
 20
0.0
 30
0.0
  9
$PUCSORGRIGHT
 10
0.0
 20
0.0
 30
0.0
  9
$PUCSORGFRONT
 10
0.0
 20
0.0
 30
0.0
  9
$PUCSORGBACK
 10
0.0
 20
0.0
 30
0.0
  9
$USERI1
 70
     0
  9
$USERI2
 70
     0
  9
$USERI3
 70
     0
  9
$USERI4
 70
     0
  9
$USERI5
 70
     0
  9
$USERR1
 40
0.0
  9
$USERR2
 40
0.0
  9
$USERR3
 40
0.0
  9
$USERR4
 40
0.0
  9
$USERR5
 40
0.0
  9
$WORLDVIEW
 70
     1
  9
$SHADEDGE
 70
     3
  9
$SHADEDIF
 70
    70
  9
$TILEMODE
 70
     1
  9
$MAXACTVP
 70
    16
  9
$PINSBASE
 10
0.0
 20
0.0
 30
0.0
  9
$PLIMCHECK
 70
     0
  9
$PEXTMIN
 10
1.000000000000000E+20
 20
1.000000000000000E+20
 30
1.000000000000000E+20
  9
$PEXTMAX
 10
-1.000000000000000E+20
 20
-1.000000000000000E+20
 30
-1.000000000000000E+20
  9
$PLIMMIN
 10
0.0
 20
0.0
  9
$PLIMMAX
 10
12.0
 20
9.0
  9
$UNITMODE
 70
     0
  9
$VISRETAIN
 70
     0
  9
$PLINEGEN
 70
     0
  9
$PSLTSCALE
 70
     1
  9
$TREEDEPTH
 70
  3020
  9
$CMLSTYLE
  2
STANDARD
  9
$CMLJUST
 70
     0
  9
$CMLSCALE
 40
20.0
  9
$PROXYGRAPHICS
 70
     1
  9
$MEASUREMENT
 70
     1
  9
$CELWEIGHT
370
    -1
  9
$ENDCAPS
280
     0
  9
$JOINSTYLE
280
     0
  9
$LWDISPLAY
290
     0
  9
$INSUNITS
 70
     0
  9
$HYPERLINKBASE
  1

  9
$STYLESHEET
  1

  9
$XEDIT
290
     1
  9
$CEPSNTYPE
380
     0
  9
$PSTYLEMODE
290
     1
  9
$FINGERPRINTGUID
  2
{6A4C3490-EC9D-4492-8589-D9782C9B8D7B}
  9
$VERSIONGUID
  2
{4C7F5021-81F3-42E1-B5EA-C32EC9F5A854}
  9
$EXTNAMES
290
     1
  9
$PSVPSCALE
 40
0.0
  9
$OLESTARTUP
290
     0
  9
$SORTENTS
280
   127
  9
$INDEXCTL
280
     0
  9
$HIDETEXT
280
     0
  9
$XCLIPFRAME
280
     2
  9
$HALOGAP
280
     0
  9
$OBSCOLOR
 70
   257
  9
$OBSLTYPE
280
     0
  9
$INTERSECTIONDISPLAY
280
     0
  9
$INTERSECTIONCOLOR
 70
   257
  9
$DIMASSOC
280
     1
  9
$PROJECTNAME
  1

  9
$CAMERADISPLAY
290
     0
  9
$LENSLENGTH
 40
50.0
  9
$CAMERAHEIGHT
 40
0.0
  9
$STEPSPERSEC
 40
2.0
  9
$STEPSIZE
 40
6.0
  9
$3DDWFPREC
 40
2.0
  9
$PSOLWIDTH
 40
0.25
  9
$PSOLHEIGHT
 40
4.0
  9
$LOFTANG1
 40
1.570796326794896
  9
$LOFTANG2
 40
1.570796326794896
  9
$LOFTMAG1
 40
0.0
  9
$LOFTMAG2
 40
0.0
  9
$LOFTPARAM
 70
     7
  9
$LOFTNORMALS
280
     1
  9
$LATITUDE
 40
37.795
  9
$LONGITUDE
 40
-122.394
  9
$NORTHDIRECTION
 40
0.0
  9
$TIMEZONE
 70
 -8000
  9
$LIGHTGLYPHDISPLAY
280
     1
  9
$TILEMODELIGHTSYNCH
280
     1
  9
$CMATERIAL
347
7F66
  9
$SOLIDHIST
280
     0
  9
$SHOWHIST
280
     1
  9
$DWFFRAME
280
     2
  9
$DGNFRAME
280
     0
  9
$REALWORLDSCALE
290
     1
  9
$INTERFERECOLOR
 62
     1
  9
$INTERFEREOBJVS
345
7F88
  9
$INTERFEREVPVS
346
7F85
  9
$CSHADOW
280
     0
  9
$SHADOWPLANELOCATION
 40
0.0
  0
ENDSEC
  0
SECTION
  2
CLASSES
  0
CLASS
  1
ACDBDICTIONARYWDFLT
  2
AcDbDictionaryWithDefault
  3
ObjectDBX Classes
 90
        0
 91
        1
280
     0
281
     0
  0
CLASS
  1
DICTIONARYVAR
  2
AcDbDictionaryVar
  3
ObjectDBX Classes
 90
        0
 91
       11
280
     0
281
     0
  0
CLASS
  1
MATERIAL
  2
AcDbMaterial
  3
ObjectDBX Classes
 90
     1153
 91
        3
280
     0
281
     0
  0
CLASS
  1
VISUALSTYLE
  2
AcDbVisualStyle
  3
ObjectDBX Classes
 90
     4095
 91
       24
280
     0
281
     0
  0
CLASS
  1
TABLESTYLE
  2
AcDbTableStyle
  3
ObjectDBX Classes
 90
     4095
 91
        1
280
     0
281
     0
  0
CLASS
  1
SCALE
  2
AcDbScale
  3
ObjectDBX Classes
 90
     1153
 91
       17
280
     0
281
     0
  0
CLASS
  1
MLEADERSTYLE
  2
AcDbMLeaderStyle
  3
ACDB_MLEADERSTYLE_CLASS
 90
     4095
 91
        1
280
     0
281
     0
  0
CLASS
  1
ACDBSECTIONVIEWSTYLE
  2
AcDbSectionViewStyle
  3
ObjectDBX Classes
 90
     1025
 91
        1
280
     0
281
     0
  0
CLASS
  1
ACDBDETAILVIEWSTYLE
  2
AcDbDetailViewStyle
  3
ObjectDBX Classes
 90
     1025
 91
        1
280
     0
281
     0
  0
CLASS
  1
CELLSTYLEMAP
  2
AcDbCellStyleMap
  3
ObjectDBX Classes
 90
     1152
 91
        1
280
     0
281
     0
  0
ENDSEC
  0
SECTION
  2
TABLES
  0
TABLE
  2
VPORT
  5
8
330
0
100
AcDbSymbolTable
 70
     1
1001
ACAD
1000
DbSaveVer
1071
      278
  0
VPORT
  5
7F63
330
8
100
AcDbSymbolTableRecord
100
AcDbViewportTableRecord
  2
*Active
 70
     0
 10
0.0
 20
0.0
 11
1.0
 21
1.0
 12
6061.755418487901
 22
6637.500030908269
 13
0.0
 23
0.0
 14
10.0
 24
10.0
 15
10.0
 25
10.0
 16
0.0
 26
0.0
 36
1.0
 17
0.0
 27
0.0
 37
0.0
 40
13360.82076619344
 41
2.250314465408805
 42
50.0
 43
0.0
 44
0.0
 50
0.0
 51
0.0
 71
     0
 72
   100
 73
     1
 74
     0
 75
     0
 76
     0
 77
     0
 78
     0
281
     0
 65
     1
110
0.0
120
0.0
130
0.0
111
1.0
121
0.0
131
0.0
112
0.0
122
1.0
132
0.0
 79
     0
146
0.0
348
7F84
 60
     3
 61
     5
292
     1
282
     1
141
0.0
142
0.0
 63
   250
421
  3355443
1001
ACAD_NAV_VCDISPLAY
1070
     3
  0
ENDTAB
  0
TABLE
  2
LTYPE
  5
5
330
0
100
AcDbSymbolTable
 70
     2
  0
LTYPE
  5
13
330
5
100
AcDbSymbolTableRecord
100
AcDbLinetypeTableRecord
  2
BYBLOCK
 70
     0
  3

 72
    65
 73
     0
 40
0.0
  0
LTYPE
  5
14
330
5
100
AcDbSymbolTableRecord
100
AcDbLinetypeTableRecord
  2
BYLAYER
 70
     0
  3

 72
    65
 73
     0
 40
0.0
  0
LTYPE
  5
15
330
5
100
AcDbSymbolTableRecord
100
AcDbLinetypeTableRecord
  2
CONTINUOUS
 70
     0
  3
Solid line
 72
    65
 73
     0
 40
0.0
  0
LTYPE
  5
1F
330
5
100
AcDbSymbolTableRecord
100
AcDbLinetypeTableRecord
  2
CENTER
 70
     0
  3
____ _ ____ _ ____ _ ____ _ ____ _ ____ _ ____ 
 72
    65
 73
     4
 40
2.0
 49
1.25
 74
     0
 49
-0.25
 74
     0
 49
0.25
 74
     0
 49
-0.25
 74
     0
  0
ENDTAB
  0
TABLE
  2
LAYER
  5
2
102
{ACAD_XDICTIONARY
360
802C
102
}
330
0
100
AcDbSymbolTable
 70
     6
  0
LAYER
  5
F
102
{ACAD_XDICTIONARY
360
801F
102
}
330
2
100
AcDbSymbolTableRecord
100
AcDbLayerTableRecord
  2
0
 70
     0
 62
     7
  6
CONTINUOUS
370
    -3
390
7E95
347
7F76
348
0
  0
LAYER
  5
31
102
{ACAD_XDICTIONARY
360
8021
102
}
330
2
100
AcDbSymbolTableRecord
100
AcDbLayerTableRecord
  2
3
 70
     0
 62
     2
  6
CONTINUOUS
370
    -3
390
7E95
347
7F76
348
0
  0
LAYER
  5
76D0
102
{ACAD_XDICTIONARY
360
8023
102
}
330
2
100
AcDbSymbolTableRecord
100
AcDbLayerTableRecord
  2
2
 70
     0
 62
     3
  6
CENTER
370
    -3
390
7E95
347
7F76
348
0
  0
LAYER
  5
76D1
102
{ACAD_XDICTIONARY
360
8025
102
}
330
2
100
AcDbSymbolTableRecord
100
AcDbLayerTableRecord
  2
1
 70
     0
 62
     4
  6
CONTINUOUS
370
    -3
390
7E95
347
7F76
348
0
  0
LAYER
  5
76D2
102
{ACAD_XDICTIONARY
360
8027
102
}
330
2
100
AcDbSymbolTableRecord
100
AcDbLayerTableRecord
  2
4
 70
     0
 62
     7
  6
CONTINUOUS
370
    -3
390
7E95
347
7F76
348
0
  0
LAYER
  5
7A00
330
2
100
AcDbSymbolTableRecord
100
AcDbLayerTableRecord
  2
DEFPOINTS
 70
     0
 62
     7
  6
CONTINUOUS
290
     0
370
    -3
390
7E95
347
7F76
348
0
  0
ENDTAB
  0
TABLE
  2
STYLE
  5
3
330
0
100
AcDbSymbolTable
 70
     1
  0
STYLE
  5
10
330
3
100
AcDbSymbolTableRecord
100
AcDbTextStyleTableRecord
  2
STANDARD
 70
     0
 40
0.0
 41
1.0
 50
0.0
 71
     0
 42
180.0
  3
simplex.shx
  4
extfont.shx
  0
ENDTAB
  0
TABLE
  2
VIEW
  5
6
330
0
100
AcDbSymbolTable
 70
     0
  0
ENDTAB
  0
TABLE
  2
UCS
  5
7
330
0
100
AcDbSymbolTable
 70
     0
  0
ENDTAB
  0
TABLE
  2
APPID
  5
9
330
0
100
AcDbSymbolTable
 70
     4
  0
APPID
  5
11
330
9
100
AcDbSymbolTableRecord
100
AcDbRegAppTableRecord
  2
ACAD
 70
     0
  0
APPID
  5
7FB5
330
9
100
AcDbSymbolTableRecord
100
AcDbRegAppTableRecord
  2
AcadAnnoMonitorAlertIconDisabled
 70
     0
  0
APPID
  5
7FB6
330
9
100
AcDbSymbolTableRecord
100
AcDbRegAppTableRecord
  2
ACAD_EXEMPT_FROM_CAD_STANDARDS
 70
     0
  0
APPID
  5
8032
330
9
100
AcDbSymbolTableRecord
100
AcDbRegAppTableRecord
  2
ACAD_NAV_VCDISPLAY
 70
     0
  0
ENDTAB
  0
TABLE
  2
DIMSTYLE
  5
A
330
0
100
AcDbSymbolTable
 70
     1
100
AcDbDimStyleTable
 71
     1
340
1D
  0
DIMSTYLE
105
1D
102
{ACAD_REACTORS
330
7BB6
330
7BD9
330
7BE6
330
7BFD
330
7C5C
330
7C68
330
7C88
330
7D3E
330
7D4B
330
7D57
330
7D64
330
7D71
330
7D7E
330
7D8B
330
7D99
330
7DA5
330
7DF6
330
7E03
330
7E10
330
7E1D
330
7E4E
330
7E5B
102
}
330
A
100
AcDbSymbolTableRecord
100
AcDbDimStyleTableRecord
  2
IGA
 70
     0
 40
2.0
 41
2.0
 42
0.5
 43
10.0
 44
1.0
 47
1.0
 48
1.0
 73
     0
 74
     0
 77
     1
 78
     8
140
3.0
141
0.0
143
0.03937
146
10.0
147
1.0
173
     1
271
     1
272
     0
279
     2
284
     8
340
10
341
7BA4
343
7BA4
344
7BA4
  0
ENDTAB
  0
TABLE
  2
BLOCK_RECORD
  5
1
330
0
100
AcDbSymbolTable
 70
    25
  0
BLOCK_RECORD
  5
19
102
{ACAD_XDICTIONARY
360
7EC3
102
}
330
1
100
AcDbSymbolTableRecord
100
AcDbBlockTableRecord
  2
*MODEL_SPACE
340
7E98
 70
     0
280
     1
281
     0
  0
BLOCK_RECORD
  5
16
102
{ACAD_XDICTIONARY
360
7EC1
102
}
330
1
100
AcDbSymbolTableRecord
100
AcDbBlockTableRecord
  2
*PAPER_SPACE
340
7E99
 70
     0
280
     1
281
     0
  0
BLOCK_RECORD
  5
7BA4
330
1
100
AcDbSymbolTableRecord
100
AcDbBlockTableRecord
  2
_OPEN
340
0
102
{BLKREFS
331
7ECC
331
7ECD
331
7ED5
331
7ED6
331
7EEF
331
7EF0
331
7EF7
331
7EF8
331
7F0E
331
7F0F
331
7F17
331
7F18
331
7F1F
331
7F20
331
7F28
331
7F29
331
7F31
331
7F32
331
7F3A
331
7F3B
331
7FD4
331
7FD5
331
7FDC
331
7FDD
331
7FE5
331
7FE6
331
7FEE
331
7FEF
331
7FF7
331
7FF8
331
8000
331
8001
331
800E
331
800F
331
801A
331
7F43
331
7F44
331
7F4C
331
7F4D
331
7F54
331
7F55
102
}
 70
     0
280
     1
281
     0
  0
BLOCK_RECORD
  5
7BAA
330
1
100
AcDbSymbolTableRecord
100
AcDbBlockTableRecord
  2
*D1
340
0
 70
     0
280
     1
281
     0
  0
BLOCK_RECORD
  5
7BCD
330
1
100
AcDbSymbolTableRecord
100
AcDbBlockTableRecord
  2
*D2
340
0
 70
     0
280
     1
281
     0
  0
BLOCK_RECORD
  5
7BDA
330
1
100
AcDbSymbolTableRecord
100
AcDbBlockTableRecord
  2
*D3
340
0
 70
     0
280
     1
281
     0
  0
BLOCK_RECORD
  5
7BF2
330
1
100
AcDbSymbolTableRecord
100
AcDbBlockTableRecord
  2
*D4
340
0
 70
     0
280
     1
281
     0
  0
BLOCK_RECORD
  5
7C50
330
1
100
AcDbSymbolTableRecord
100
AcDbBlockTableRecord
  2
*D5
340
0
 70
     0
280
     1
281
     0
  0
BLOCK_RECORD
  5
7C5D
330
1
100
AcDbSymbolTableRecord
100
AcDbBlockTableRecord
  2
*D6
340
0
 70
     0
280
     1
281
     0
  0
BLOCK_RECORD
  5
7C79
330
1
100
AcDbSymbolTableRecord
100
AcDbBlockTableRecord
  2
*D7
340
0
 70
     0
280
     1
281
     0
  0
BLOCK_RECORD
  5
7CCF
330
1
100
AcDbSymbolTableRecord
100
AcDbBlockTableRecord
  2
_DOT
340
0
102
{BLKREFS
331
8019
102
}
 70
     0
280
     1
281
     0
  0
BLOCK_RECORD
  5
7D32
330
1
100
AcDbSymbolTableRecord
100
AcDbBlockTableRecord
  2
*D9
340
0
 70
     0
280
     1
281
     0
  0
BLOCK_RECORD
  5
7D3F
330
1
100
AcDbSymbolTableRecord
100
AcDbBlockTableRecord
  2
*D10
340
0
 70
     0
280
     1
281
     0
  0
BLOCK_RECORD
  5
7D4C
330
1
100
AcDbSymbolTableRecord
100
AcDbBlockTableRecord
  2
*D11
340
0
 70
     0
280
     1
281
     0
  0
BLOCK_RECORD
  5
7D58
330
1
100
AcDbSymbolTableRecord
100
AcDbBlockTableRecord
  2
*D12
340
0
 70
     0
280
     1
281
     0
  0
BLOCK_RECORD
  5
7D65
330
1
100
AcDbSymbolTableRecord
100
AcDbBlockTableRecord
  2
*D13
340
0
 70
     0
280
     1
281
     0
  0
BLOCK_RECORD
  5
7D72
330
1
100
AcDbSymbolTableRecord
100
AcDbBlockTableRecord
  2
*D14
340
0
 70
     0
280
     1
281
     0
  0
BLOCK_RECORD
  5
7D7F
330
1
100
AcDbSymbolTableRecord
100
AcDbBlockTableRecord
  2
*D15
340
0
 70
     0
280
     1
281
     0
  0
BLOCK_RECORD
  5
7D8D
330
1
100
AcDbSymbolTableRecord
100
AcDbBlockTableRecord
  2
*D16
340
0
 70
     0
280
     1
281
     0
  0
BLOCK_RECORD
  5
7D9A
330
1
100
AcDbSymbolTableRecord
100
AcDbBlockTableRecord
  2
*D17
340
0
 70
     0
280
     1
281
     0
  0
BLOCK_RECORD
  5
7DEA
330
1
100
AcDbSymbolTableRecord
100
AcDbBlockTableRecord
  2
*D18
340
0
 70
     0
280
     1
281
     0
  0
BLOCK_RECORD
  5
7DF7
330
1
100
AcDbSymbolTableRecord
100
AcDbBlockTableRecord
  2
*D19
340
0
 70
     0
280
     1
281
     0
  0
BLOCK_RECORD
  5
7E04
330
1
100
AcDbSymbolTableRecord
100
AcDbBlockTableRecord
  2
*D20
340
0
 70
     0
280
     1
281
     0
  0
BLOCK_RECORD
  5
7E11
330
1
100
AcDbSymbolTableRecord
100
AcDbBlockTableRecord
  2
*D21
340
0
 70
     0
280
     1
281
     0
  0
BLOCK_RECORD
  5
7E1E
330
1
100
AcDbSymbolTableRecord
100
AcDbBlockTableRecord
  2
_NONE
340
0
 70
     0
280
     1
281
     0
  0
BLOCK_RECORD
  5
7E46
330
1
100
AcDbSymbolTableRecord
100
AcDbBlockTableRecord
  2
*D23
340
0
 70
     0
280
     1
281
     0
  0
BLOCK_RECORD
  5
7E4F
330
1
100
AcDbSymbolTableRecord
100
AcDbBlockTableRecord
  2
*D24
340
0
 70
     0
280
     1
281
     0
  0
ENDTAB
  0
ENDSEC
  0
SECTION
  2
BLOCKS
  0
BLOCK
  5
1A
330
19
100
AcDbEntity
  8
0
100
AcDbBlockBegin
  2
*MODEL_SPACE
 70
     0
 10
0.0
 20
0.0
 30
0.0
  3
*MODEL_SPACE
  1

  0
ENDBLK
  5
1B
330
19
100
AcDbEntity
  8
0
100
AcDbBlockEnd
  0
BLOCK
  5
17
330
16
100
AcDbEntity
 67
     1
  8
0
100
AcDbBlockBegin
  2
*PAPER_SPACE
 70
     0
 10
0.0
 20
0.0
 30
0.0
  3
*PAPER_SPACE
  1

  0
ENDBLK
  5
18
330
16
100
AcDbEntity
 67
     1
  8
0
100
AcDbBlockEnd
  0
BLOCK
  5
7BA5
330
7BA4
100
AcDbEntity
  8
0
100
AcDbBlockBegin
  2
_OPEN
 70
     0
 10
0.0
 20
0.0
 30
0.0
  3
_OPEN
  1

  0
LINE
  5
7BA6
330
7BA4
100
AcDbEntity
  8
0
  6
ByBlock
 62
     0
100
AcDbLine
 10
-1.0
 20
0.1666666666666666
 30
0.0
 11
0.0
 21
0.0
 31
0.0
  0
LINE
  5
7BA7
330
7BA4
100
AcDbEntity
  8
0
  6
ByBlock
 62
     0
100
AcDbLine
 10
0.0
 20
0.0
 30
0.0
 11
-1.0
 21
-0.1666666666666666
 31
0.0
  0
LINE
  5
7BA8
330
7BA4
100
AcDbEntity
  8
0
  6
ByBlock
 62
     0
100
AcDbLine
 10
0.0
 20
0.0
 30
0.0
 11
-1.0
 21
0.0
 31
0.0
  0
ENDBLK
  5
7BA9
330
7BA4
100
AcDbEntity
  8
0
100
AcDbBlockEnd
  0
BLOCK
  5
7BC2
330
7BAA
100
AcDbEntity
  8
0
100
AcDbBlockBegin
  2
*D1
 70
     1
 10
0.0
 20
0.0
 30
0.0
  3
*D1
  1

  0
LINE
  5
7EC9
330
7BAA
100
AcDbEntity
  8
3
 62
     0
440
 16777216
100
AcDbLine
 10
8160.73724964476
 20
5239.933204501324
 30
0.0
 11
8672.242078195358
 21
5239.933204501324
 31
0.0
  0
LINE
  5
7ECA
330
7BAA
100
AcDbEntity
  8
3
 62
     0
440
 16777216
100
AcDbLine
 10
8160.73724964476
 20
3839.933204501323
 30
0.0
 11
8672.242078195356
 21
3839.933204501323
 31
0.0
  0
LINE
  5
7ECB
330
7BAA
100
AcDbEntity
  8
3
 62
     0
440
 16777216
100
AcDbLine
 10
8627.242078195356
 20
5149.933204501323
 30
0.0
 11
8627.242078195356
 21
3929.933204501324
 31
0.0
  0
INSERT
  5
7ECC
330
7BAA
100
AcDbEntity
  8
3
 62
     0
440
 16777216
100
AcDbBlockReference
  2
_OPEN
 10
8627.242078195356
 20
5239.933204501324
 30
0.0
 41
90.0
 42
90.0
 43
90.0
 50
90.0
  0
INSERT
  5
7ECD
330
7BAA
100
AcDbEntity
  8
3
 62
     0
440
 16777216
100
AcDbBlockReference
  2
_OPEN
 10
8627.242078195356
 20
3839.933204501323
 30
0.0
 41
90.0
 42
90.0
 43
90.0
 50
270.0
  0
MTEXT
  5
7ECE
330
7BAA
100
AcDbEntity
  8
3
 62
     0
440
 16777216
100
AcDbMText
 10
8514.742078195356
 20
4479.787853347846
 30
0.0
 40
135.0
 41
0.0
 46
0.0
 71
     5
 72
     5
  1
\A1;φ1400
 11
0.0000000000000001
 21
1.0
 31
0.0
 73
     1
 44
1.0
  0
POINT
  5
7ECF
330
7BAA
100
AcDbEntity
  8
DEFPOINTS
 62
     0
440
 16777216
100
AcDbPoint
 10
8138.23724964476
 20
5239.933204501324
 30
0.0
  0
POINT
  5
7ED0
330
7BAA
100
AcDbEntity
  8
DEFPOINTS
 62
     0
440
 16777216
100
AcDbPoint
 10
8138.23724964476
 20
3839.933204501323
 30
0.0
  0
POINT
  5
7ED1
330
7BAA
100
AcDbEntity
  8
DEFPOINTS
 62
     0
440
 16777216
100
AcDbPoint
 10
8627.242078195356
 20
3839.933204501323
 30
0.0
  0
ENDBLK
  5
7BCC
330
7BAA
100
AcDbEntity
  8
0
100
AcDbBlockEnd
  0
BLOCK
  5
7BCE
330
7BCD
100
AcDbEntity
  8
0
100
AcDbBlockBegin
  2
*D2
 70
     1
 10
0.0
 20
0.0
 30
0.0
  3
*D2
  1

  0
LINE
  5
7ED2
330
7BCD
100
AcDbEntity
  8
3
 62
     0
440
 16777216
100
AcDbLine
 10
6238.237249644761
 20
5486.433204501324
 30
0.0
 11
6238.237249644761
 21
5645.852992274104
 31
0.0
  0
LINE
  5
7ED3
330
7BCD
100
AcDbEntity
  8
3
 62
     0
440
 16777216
100
AcDbLine
 10
8138.23724964476
 20
5442.433204501323
 30
0.0
 11
8138.23724964476
 21
5645.852992274104
 31
0.0
  0
LINE
  5
7ED4
330
7BCD
100
AcDbEntity
  8
3
 62
     0
440
 16777216
100
AcDbLine
 10
6328.237249644761
 20
5600.852992274104
 30
0.0
 11
8048.237249644762
 21
5600.852992274104
 31
0.0
  0
INSERT
  5
7ED5
330
7BCD
100
AcDbEntity
  8
3
 62
     0
440
 16777216
100
AcDbBlockReference
  2
_OPEN
 10
6238.237249644761
 20
5600.852992274104
 30
0.0
 41
90.0
 42
90.0
 43
90.0
 50
180.0
  0
INSERT
  5
7ED6
330
7BCD
100
AcDbEntity
  8
3
 62
     0
440
 16777216
100
AcDbBlockReference
  2
_OPEN
 10
8138.23724964476
 20
5600.852992274104
 30
0.0
 41
90.0
 42
90.0
 43
90.0
  0
MTEXT
  5
7ED7
330
7BCD
100
AcDbEntity
  8
3
 62
     0
440
 16777216
100
AcDbMText
 10
7195.614020192799
 20
5713.352992274104
 30
0.0
 40
135.0
 41
0.0
 46
0.0
 71
     5
 72
     5
  1
\A1;1900
 73
     1
 44
1.0
  0
POINT
  5
7ED8
330
7BCD
100
AcDbEntity
  8
DEFPOINTS
 62
     0
440
 16777216
100
AcDbPoint
 10
6238.237249644761
 20
5463.933204501323
 30
0.0
  0
POINT
  5
7ED9
330
7BCD
100
AcDbEntity
  8
DEFPOINTS
 62
     0
440
 16777216
100
AcDbPoint
 10
8138.23724964476
 20
5419.933204501323
 30
0.0
  0
POINT
  5
7EDA
330
7BCD
100
AcDbEntity
  8
DEFPOINTS
 62
     0
440
 16777216
100
AcDbPoint
 10
8138.23724964476
 20
5600.852992274104
 30
0.0
  0
ENDBLK
  5
7BD8
330
7BCD
100
AcDbEntity
  8
0
100
AcDbBlockEnd
  0
BLOCK
  5
7DD3
330
7BDA
100
AcDbEntity
  8
0
100
AcDbBlockBegin
  2
*D3
 70
     1
 10
0.0
 20
0.0
 30
0.0
  3
*D3
  1

  0
LINE
  5
7FD1
330
7BDA
100
AcDbEntity
  8
3
 62
     0
440
 16777216
370
    -2
100
AcDbLine
 10
8318.437249644759
 20
4492.433204501323
 30
0.0
 11
8318.437249644759
 21
5966.871174271892
 31
0.0
  0
LINE
  5
7FD2
330
7BDA
100
AcDbEntity
  8
3
 62
     0
440
 16777216
370
    -2
100
AcDbLine
 10
7188.23724964476
 20
5814.460174866145
 30
0.0
 11
7188.23724964476
 21
5966.871174271892
 31
0.0
  0
LINE
  5
7FD3
330
7BDA
100
AcDbEntity
  8
3
 62
     0
440
 16777216
370
    -2
100
AcDbLine
 10
8228.437249644761
 20
5921.871174271892
 30
0.0
 11
7278.23724964476
 21
5921.871174271892
 31
0.0
  0
INSERT
  5
7FD4
330
7BDA
100
AcDbEntity
  8
3
 62
     0
440
 16777216
370
    -2
100
AcDbBlockReference
  2
_OPEN
 10
8318.437249644759
 20
5921.871174271892
 30
0.0
 41
90.0
 42
90.0
 43
90.0
  0
INSERT
  5
7FD5
330
7BDA
100
AcDbEntity
  8
3
 62
     0
440
 16777216
370
    -2
100
AcDbBlockReference
  2
_OPEN
 10
7188.23724964476
 20
5921.871174271892
 30
0.0
 41
90.0
 42
90.0
 43
90.0
 50
180.0
  0
MTEXT
  5
7FD6
330
7BDA
100
AcDbEntity
  8
3
 62
     0
440
 16777216
100
AcDbMText
 10
7742.663955301302
 20
6069.728317129034
 30
0.0
 40
135.0
 41
0.0
 46
0.0
 71
     5
 72
     1
  1
\A1;(1130)
 73
     1
 44
1.0
  0
POINT
  5
7FD7
330
7BDA
100
AcDbEntity
  8
DEFPOINTS
 62
     0
440
 16777216
100
AcDbPoint
 10
8318.437249644759
 20
4469.933204501323
 30
0.0
  0
POINT
  5
7FD8
330
7BDA
100
AcDbEntity
  8
DEFPOINTS
 62
     0
440
 16777216
100
AcDbPoint
 10
7188.23724964476
 20
5791.960174866144
 30
0.0
  0
POINT
  5
7FD9
330
7BDA
100
AcDbEntity
  8
DEFPOINTS
 62
     0
440
 16777216
100
AcDbPoint
 10
7188.23724964476
 20
5921.871174271892
 30
0.0
  0
ENDBLK
  5
7DDD
330
7BDA
100
AcDbEntity
  8
0
100
AcDbBlockEnd
  0
BLOCK
  5
7C08
330
7BF2
100
AcDbEntity
  8
0
100
AcDbBlockBegin
  2
*D4
 70
     1
 10
0.0
 20
0.0
 30
0.0
  3
*D4
  1

  0
LINE
  5
7FDA
330
7BF2
100
AcDbEntity
  8
3
 62
     0
440
 16777216
370
    -2
100
AcDbLine
 10
5718.237249644761
 20
4942.433204501323
 30
0.0
 11
5718.237249644761
 21
5966.871174271892
 31
0.0
  0
LINE
  5
7FDB
330
7BF2
100
AcDbEntity
  8
3
 62
     0
440
 16777216
370
    -2
100
AcDbLine
 10
7098.23724964476
 20
5921.871174271892
 30
0.0
 11
5808.23724964476
 21
5921.871174271892
 31
0.0
  0
INSERT
  5
7FDC
330
7BF2
100
AcDbEntity
  8
3
 62
     0
440
 16777216
370
    -2
100
AcDbBlockReference
  2
_OPEN
 10
7188.23724964476
 20
5921.871174271892
 30
0.0
 41
90.0
 42
90.0
 43
90.0
  0
INSERT
  5
7FDD
330
7BF2
100
AcDbEntity
  8
3
 62
     0
440
 16777216
370
    -2
100
AcDbBlockReference
  2
_OPEN
 10
5718.237249644761
 20
5921.871174271892
 30
0.0
 41
90.0
 42
90.0
 43
90.0
 50
180.0
  0
MTEXT
  5
7FDE
330
7BF2
100
AcDbEntity
  8
3
 62
     0
440
 16777216
100
AcDbMText
 10
6453.237249644761
 20
6069.728317129034
 30
0.0
 40
135.0
 41
0.0
 46
0.0
 71
     5
 72
     1
  1
\A1;(1470)
 73
     1
 44
1.0
  0
POINT
  5
7FDF
330
7BF2
100
AcDbEntity
  8
DEFPOINTS
 62
     0
440
 16777216
100
AcDbPoint
 10
7188.23724964476
 20
5791.960174866144
 30
0.0
  0
POINT
  5
7FE0
330
7BF2
100
AcDbEntity
  8
DEFPOINTS
 62
     0
440
 16777216
100
AcDbPoint
 10
5718.237249644761
 20
4919.933204501323
 30
0.0
  0
POINT
  5
7FE1
330
7BF2
100
AcDbEntity
  8
DEFPOINTS
 62
     0
440
 16777216
100
AcDbPoint
 10
5718.237249644761
 20
5921.871174271892
 30
0.0
  0
ENDBLK
  5
7C11
330
7BF2
100
AcDbEntity
  8
0
100
AcDbBlockEnd
  0
BLOCK
  5
7C51
330
7C50
100
AcDbEntity
  8
0
100
AcDbBlockBegin
  2
*D5
 70
     1
 10
0.0
 20
0.0
 30
0.0
  3
*D5
  1

  0
LINE
  5
7EEC
330
7C50
100
AcDbEntity
  8
3
 62
     0
440
 16777216
100
AcDbLine
 10
2755.797113150955
 20
5469.933204501323
 30
0.0
 11
1400.645523461929
 21
5469.933204501324
 31
0.0
  0
LINE
  5
7EED
330
7C50
100
AcDbEntity
  8
3
 62
     0
440
 16777216
100
AcDbLine
 10
1585.509265819164
 20
4539.933204501322
 30
0.0
 11
1400.645523461929
 21
4539.933204501322
 31
0.0
  0
LINE
  5
7EEE
330
7C50
100
AcDbEntity
  8
3
 62
     0
440
 16777216
100
AcDbLine
 10
1445.645523461929
 20
5379.933204501324
 30
0.0
 11
1445.645523461929
 21
4629.933204501323
 31
0.0
  0
INSERT
  5
7EEF
330
7C50
100
AcDbEntity
  8
3
 62
     0
440
 16777216
100
AcDbBlockReference
  2
_OPEN
 10
1445.645523461929
 20
5469.933204501324
 30
0.0
 41
90.0
 42
90.0
 43
90.0
 50
90.0
  0
INSERT
  5
7EF0
330
7C50
100
AcDbEntity
  8
3
 62
     0
440
 16777216
100
AcDbBlockReference
  2
_OPEN
 10
1445.645523461928
 20
4539.933204501322
 30
0.0
 41
90.0
 42
90.0
 43
90.0
 50
270.0
  0
MTEXT
  5
7EF1
330
7C50
100
AcDbEntity
  8
3
 62
     0
440
 16777216
100
AcDbMText
 10
1333.145523461928
 20
5030.240085713359
 30
0.0
 40
135.0
 41
0.0
 46
0.0
 71
     5
 72
     5
  1
\A1;930
 11
0.0000000000000001
 21
1.0
 31
0.0
 73
     1
 44
1.0
  0
POINT
  5
7EF2
330
7C50
100
AcDbEntity
  8
DEFPOINTS
 62
     0
440
 16777216
100
AcDbPoint
 10
2778.297113150955
 20
5469.933204501323
 30
0.0
  0
POINT
  5
7EF3
330
7C50
100
AcDbEntity
  8
DEFPOINTS
 62
     0
440
 16777216
100
AcDbPoint
 10
1608.009265819164
 20
4539.933204501322
 30
0.0
  0
POINT
  5
7EF4
330
7C50
100
AcDbEntity
  8
DEFPOINTS
 62
     0
440
 16777216
100
AcDbPoint
 10
1445.645523461928
 20
4539.933204501322
 30
0.0
  0
ENDBLK
  5
7C5B
330
7C50
100
AcDbEntity
  8
0
100
AcDbBlockEnd
  0
BLOCK
  5
7C5E
330
7C5D
100
AcDbEntity
  8
0
100
AcDbBlockBegin
  2
*D6
 70
     1
 10
0.0
 20
0.0
 30
0.0
  3
*D6
  1

  0
LINE
  5
7EF5
330
7C5D
100
AcDbEntity
  8
3
 62
     0
440
 16777216
100
AcDbLine
 10
1905.797113150955
 20
3299.933204501324
 30
0.0
 11
1400.645523461928
 21
3299.933204501324
 31
0.0
  0
LINE
  5
7EF6
330
7C5D
100
AcDbEntity
  8
3
 62
     0
440
 16777216
100
AcDbLine
 10
1445.645523461928
 20
4449.933204501323
 30
0.0
 11
1445.645523461928
 21
3389.933204501323
 31
0.0
  0
INSERT
  5
7EF7
330
7C5D
100
AcDbEntity
  8
3
 62
     0
440
 16777216
100
AcDbBlockReference
  2
_OPEN
 10
1445.645523461928
 20
4539.933204501322
 30
0.0
 41
90.0
 42
90.0
 43
90.0
 50
90.0
  0
INSERT
  5
7EF8
330
7C5D
100
AcDbEntity
  8
3
 62
     0
440
 16777216
100
AcDbBlockReference
  2
_OPEN
 10
1445.645523461928
 20
3299.933204501324
 30
0.0
 41
90.0
 42
90.0
 43
90.0
 50
270.0
  0
MTEXT
  5
7EF9
330
7C5D
100
AcDbEntity
  8
3
 62
     0
440
 16777216
100
AcDbMText
 10
1333.145523461927
 20
3919.933204501324
 30
0.0
 40
135.0
 41
0.0
 46
0.0
 71
     5
 72
     5
  1
\A1;1240
 11
0.0000000000000001
 21
1.0
 31
0.0
 73
     1
 44
1.0
  0
POINT
  5
7EFA
330
7C5D
100
AcDbEntity
  8
DEFPOINTS
 62
     0
440
 16777216
100
AcDbPoint
 10
1608.009265819164
 20
4539.933204501322
 30
0.0
  0
POINT
  5
7EFB
330
7C5D
100
AcDbEntity
  8
DEFPOINTS
 62
     0
440
 16777216
100
AcDbPoint
 10
1928.297113150955
 20
3299.933204501324
 30
0.0
  0
POINT
  5
7EFC
330
7C5D
100
AcDbEntity
  8
DEFPOINTS
 62
     0
440
 16777216
100
AcDbPoint
 10
1445.645523461928
 20
3299.933204501324
 30
0.0
  0
ENDBLK
  5
7C67
330
7C5D
100
AcDbEntity
  8
0
100
AcDbBlockEnd
  0
BLOCK
  5
7D08
330
7C79
100
AcDbEntity
  8
0
100
AcDbBlockBegin
  2
*D7
 70
     1
 10
0.0
 20
0.0
 30
0.0
  3
*D7
  1

  0
LINE
  5
8014
330
7C79
100
AcDbEntity
  8
3
 62
     0
440
 16777216
370
    -2
100
AcDbLine
 10
1905.797113150955
 20
3194.933204501324
 30
0.0
 11
1400.645523461928
 21
3194.933204501324
 31
0.0
  0
LINE
  5
8015
330
7C79
100
AcDbEntity
  8
3
 62
     0
440
 16777216
370
    -2
100
AcDbLine
 10
1905.797113150955
 20
3119.933204501324
 30
0.0
 11
1400.645523461928
 21
3119.933204501324
 31
0.0
  0
LINE
  5
8016
330
7C79
100
AcDbEntity
  8
3
 62
     0
440
 16777216
370
    -2
100
AcDbLine
 10
1445.645523461928
 20
3284.933204501323
 30
0.0
 11
1445.645523461928
 21
3374.933204501323
 31
0.0
  0
LINE
  5
8017
330
7C79
100
AcDbEntity
  8
3
 62
     0
440
 16777216
370
    -2
100
AcDbLine
 10
1445.645523461928
 20
3029.933204501324
 30
0.0
 11
1445.645523461928
 21
2631.361775929895
 31
0.0
  0
LINE
  5
8018
330
7C79
100
AcDbEntity
  8
3
 62
     0
440
 16777216
370
    -2
100
AcDbLine
 10
1445.645523461928
 20
3194.933204501324
 30
0.0
 11
1445.645523461928
 21
3119.933204501324
 31
0.0
  0
INSERT
  5
8019
330
7C79
100
AcDbEntity
  8
3
 62
     0
440
 16777216
370
    -2
100
AcDbBlockReference
  2
_DOT
 10
1445.645523461928
 20
3194.933204501324
 30
0.0
 41
90.0
 42
90.0
 43
90.0
 50
270.0
  0
INSERT
  5
801A
330
7C79
100
AcDbEntity
  8
3
 62
     0
440
 16777216
370
    -2
100
AcDbBlockReference
  2
_OPEN
 10
1445.645523461928
 20
3119.933204501324
 30
0.0
 41
90.0
 42
90.0
 43
90.0
 50
90.0
  0
MTEXT
  5
801B
330
7C79
100
AcDbEntity
  8
3
 62
     0
440
 16777216
100
AcDbMText
 10
1333.145523461927
 20
2785.64749021561
 30
0.0
 40
135.0
 41
0.0
 46
0.0
 71
     5
 72
     1
  1
\A1;75
 11
0.0000000000000001
 21
1.0
 31
0.0
 73
     1
 44
1.0
  0
POINT
  5
801C
330
7C79
100
AcDbEntity
  8
DEFPOINTS
 62
     0
440
 16777216
100
AcDbPoint
 10
1928.297113150955
 20
3194.933204501324
 30
0.0
  0
POINT
  5
801D
330
7C79
100
AcDbEntity
  8
DEFPOINTS
 62
     0
440
 16777216
100
AcDbPoint
 10
1928.297113150955
 20
3119.933204501324
 30
0.0
  0
POINT
  5
801E
330
7C79
100
AcDbEntity
  8
DEFPOINTS
 62
     0
440
 16777216
100
AcDbPoint
 10
1445.645523461928
 20
3119.933204501324
 30
0.0
  0
ENDBLK
  5
7D14
330
7C79
100
AcDbEntity
  8
0
100
AcDbBlockEnd
  0
BLOCK
  5
7CD0
330
7CCF
100
AcDbEntity
  8
0
100
AcDbBlockBegin
  2
_DOT
 70
     0
 10
0.0
 20
0.0
 30
0.0
  3
_DOT
  1

  0
LINE
  5
7D21
330
7CCF
100
AcDbEntity
  8
0
  6
ByBlock
 62
     0
100
AcDbLine
 10
0.0
 20
0.0
 30
0.0
 11
-1.0
 21
-0.0000000000000284
 31
0.0
  0
LWPOLYLINE
  5
7D22
330
7CCF
100
AcDbEntity
  8
0
  6
ByBlock
 62
     0
100
AcDbPolyline
 90
        2
 70
     1
 43
0.1666666666666666
 10
-0.0833333333333286
 20
-0.0000000000000284
 42
1.0
 10
0.0833333333333286
 20
-0.0000000000000284
 42
1.0
  0
ENDBLK
  5
7CD6
330
7CCF
100
AcDbEntity
  8
0
100
AcDbBlockEnd
  0
BLOCK
  5
7D33
330
7D32
100
AcDbEntity
  8
0
100
AcDbBlockBegin
  2
*D9
 70
     1
 10
0.0
 20
0.0
 30
0.0
  3
*D9
  1

  0
LINE
  5
7F0B
330
7D32
100
AcDbEntity
  8
3
 62
     0
440
 16777216
100
AcDbLine
 10
4269.297113150955
 20
5492.433204501324
 30
0.0
 11
4269.297113150955
 21
5815.63860298543
 31
0.0
  0
LINE
  5
7F0C
330
7D32
100
AcDbEntity
  8
3
 62
     0
440
 16777216
100
AcDbLine
 10
2819.297113150955
 20
5492.433204501324
 30
0.0
 11
2819.297113150955
 21
5815.63860298543
 31
0.0
  0
LINE
  5
7F0D
330
7D32
100
AcDbEntity
  8
3
 62
     0
440
 16777216
100
AcDbLine
 10
4179.297113150954
 20
5770.638602985429
 30
0.0
 11
2909.297113150955
 21
5770.638602985429
 31
0.0
  0
INSERT
  5
7F0E
330
7D32
100
AcDbEntity
  8
3
 62
     0
440
 16777216
100
AcDbBlockReference
  2
_OPEN
 10
4269.297113150955
 20
5770.638602985429
 30
0.0
 41
90.0
 42
90.0
 43
90.0
  0
INSERT
  5
7F0F
330
7D32
100
AcDbEntity
  8
3
 62
     0
440
 16777216
100
AcDbBlockReference
  2
_OPEN
 10
2819.297113150955
 20
5770.638602985429
 30
0.0
 41
90.0
 42
90.0
 43
90.0
 50
180.0
  0
MTEXT
  5
7F10
330
7D32
100
AcDbEntity
  8
3
 62
     0
440
 16777216
100
AcDbMText
 10
3549.099905223724
 20
5883.138602985429
 30
0.0
 40
135.0
 41
0.0
 46
0.0
 71
     5
 72
     5
  1
\A1;1450
 73
     1
 44
1.0
  0
POINT
  5
7F11
330
7D32
100
AcDbEntity
  8
DEFPOINTS
 62
     0
440
 16777216
100
AcDbPoint
 10
4269.297113150955
 20
5469.933204501323
 30
0.0
  0
POINT
  5
7F12
330
7D32
100
AcDbEntity
  8
DEFPOINTS
 62
     0
440
 16777216
100
AcDbPoint
 10
2819.297113150955
 20
5469.933204501323
 30
0.0
  0
POINT
  5
7F13
330
7D32
100
AcDbEntity
  8
DEFPOINTS
 62
     0
440
 16777216
100
AcDbPoint
 10
2819.297113150955
 20
5770.638602985429
 30
0.0
  0
ENDBLK
  5
7D3D
330
7D32
100
AcDbEntity
  8
0
100
AcDbBlockEnd
  0
BLOCK
  5
7D40
330
7D3F
100
AcDbEntity
  8
0
100
AcDbBlockBegin
  2
*D10
 70
     1
 10
0.0
 20
0.0
 30
0.0
  3
*D10
  1

  0
LINE
  5
7F14
330
7D3F
100
AcDbEntity
  8
3
 62
     0
440
 16777216
100
AcDbLine
 10
4269.297113150955
 20
5492.433204501324
 30
0.0
 11
4269.297113150955
 21
6079.296173989351
 31
0.0
  0
LINE
  5
7F15
330
7D3F
100
AcDbEntity
  8
3
 62
     0
440
 16777216
100
AcDbLine
 10
2778.297113150955
 20
5580.427962352408
 30
0.0
 11
2778.297113150955
 21
6079.296173989351
 31
0.0
  0
LINE
  5
7F16
330
7D3F
100
AcDbEntity
  8
3
 62
     0
440
 16777216
100
AcDbLine
 10
4179.297113150954
 20
6034.296173989351
 30
0.0
 11
2868.297113150955
 21
6034.296173989351
 31
0.0
  0
INSERT
  5
7F17
330
7D3F
100
AcDbEntity
  8
3
 62
     0
440
 16777216
100
AcDbBlockReference
  2
_OPEN
 10
4269.297113150955
 20
6034.296173989351
 30
0.0
 41
90.0
 42
90.0
 43
90.0
  0
INSERT
  5
7F18
330
7D3F
100
AcDbEntity
  8
3
 62
     0
440
 16777216
100
AcDbBlockReference
  2
_OPEN
 10
2778.297113150955
 20
6034.296173989351
 30
0.0
 41
90.0
 42
90.0
 43
90.0
 50
180.0
  0
MTEXT
  5
7F19
330
7D3F
100
AcDbEntity
  8
3
 62
     0
440
 16777216
100
AcDbMText
 10
3563.759683896176
 20
6146.796173989351
 30
0.0
 40
135.0
 41
0.0
 46
0.0
 71
     5
 72
     5
  1
\A1;1491
 73
     1
 44
1.0
  0
POINT
  5
7F1A
330
7D3F
100
AcDbEntity
  8
DEFPOINTS
 62
     0
440
 16777216
100
AcDbPoint
 10
4269.297113150955
 20
5469.933204501323
 30
0.0
  0
POINT
  5
7F1B
330
7D3F
100
AcDbEntity
  8
DEFPOINTS
 62
     0
440
 16777216
100
AcDbPoint
 10
2778.297113150955
 20
5557.927962352408
 30
0.0
  0
POINT
  5
7F1C
330
7D3F
100
AcDbEntity
  8
DEFPOINTS
 62
     0
440
 16777216
100
AcDbPoint
 10
2778.297113150955
 20
6034.296173989351
 30
0.0
  0
ENDBLK
  5
7D4A
330
7D3F
100
AcDbEntity
  8
0
100
AcDbBlockEnd
  0
BLOCK
  5
7D4D
330
7D4C
100
AcDbEntity
  8
0
100
AcDbBlockBegin
  2
*D11
 70
     1
 10
0.0
 20
0.0
 30
0.0
  3
*D11
  1

  0
LINE
  5
7F1D
330
7D4C
100
AcDbEntity
  8
3
 62
     0
440
 16777216
100
AcDbLine
 10
1775.297113150955
 20
4476.933204501324
 30
0.0
 11
1775.297113150955
 21
6079.296173989351
 31
0.0
  0
LINE
  5
7F1E
330
7D4C
100
AcDbEntity
  8
3
 62
     0
440
 16777216
100
AcDbLine
 10
2688.297113150955
 20
6034.296173989351
 30
0.0
 11
1865.297113150955
 21
6034.296173989351
 31
0.0
  0
INSERT
  5
7F1F
330
7D4C
100
AcDbEntity
  8
3
 62
     0
440
 16777216
100
AcDbBlockReference
  2
_OPEN
 10
2778.297113150955
 20
6034.296173989351
 30
0.0
 41
90.0
 42
90.0
 43
90.0
  0
INSERT
  5
7F20
330
7D4C
100
AcDbEntity
  8
3
 62
     0
440
 16777216
100
AcDbBlockReference
  2
_OPEN
 10
1775.297113150955
 20
6034.296173989351
 30
0.0
 41
90.0
 42
90.0
 43
90.0
 50
180.0
  0
MTEXT
  5
7F21
330
7D4C
100
AcDbEntity
  8
3
 62
     0
440
 16777216
100
AcDbMText
 10
2276.797113150955
 20
6146.796173989351
 30
0.0
 40
135.0
 41
0.0
 46
0.0
 71
     5
 72
     5
  1
\A1;1003
 73
     1
 44
1.0
  0
POINT
  5
7F22
330
7D4C
100
AcDbEntity
  8
DEFPOINTS
 62
     0
440
 16777216
100
AcDbPoint
 10
2778.297113150955
 20
5557.927962352408
 30
0.0
  0
POINT
  5
7F23
330
7D4C
100
AcDbEntity
  8
DEFPOINTS
 62
     0
440
 16777216
100
AcDbPoint
 10
1775.297113150955
 20
4454.433204501323
 30
0.0
  0
POINT
  5
7F24
330
7D4C
100
AcDbEntity
  8
DEFPOINTS
 62
     0
440
 16777216
100
AcDbPoint
 10
1775.297113150955
 20
6034.296173989351
 30
0.0
  0
ENDBLK
  5
7D56
330
7D4C
100
AcDbEntity
  8
0
100
AcDbBlockEnd
  0
BLOCK
  5
7D59
330
7D58
100
AcDbEntity
  8
0
100
AcDbBlockBegin
  2
*D12
 70
     1
 10
0.0
 20
0.0
 30
0.0
  3
*D12
  1

  0
LINE
  5
7F25
330
7D58
100
AcDbEntity
  8
3
 62
     0
440
 16777216
100
AcDbLine
 10
1775.297113150955
 20
4499.433204501324
 30
0.0
 11
1775.297113150955
 21
6368.298802906225
 31
0.0
  0
LINE
  5
7F26
330
7D58
100
AcDbEntity
  8
3
 62
     0
440
 16777216
100
AcDbLine
 10
4828.297113150955
 20
3472.433204501323
 30
0.0
 11
4828.297113150955
 21
6368.298802906225
 31
0.0
  0
LINE
  5
7F27
330
7D58
100
AcDbEntity
  8
3
 62
     0
440
 16777216
100
AcDbLine
 10
1865.297113150955
 20
6323.298802906226
 30
0.0
 11
4738.297113150955
 21
6323.298802906226
 31
0.0
  0
INSERT
  5
7F28
330
7D58
100
AcDbEntity
  8
3
 62
     0
440
 16777216
100
AcDbBlockReference
  2
_OPEN
 10
1775.297113150955
 20
6323.298802906226
 30
0.0
 41
90.0
 42
90.0
 43
90.0
 50
180.0
  0
INSERT
  5
7F29
330
7D58
100
AcDbEntity
  8
3
 62
     0
440
 16777216
100
AcDbBlockReference
  2
_OPEN
 10
4828.297113150955
 20
6323.298802906226
 30
0.0
 41
90.0
 42
90.0
 43
90.0
  0
MTEXT
  5
7F2A
330
7D58
100
AcDbEntity
  8
3
 62
     0
440
 16777216
100
AcDbMText
 10
3236.32455118365
 20
6435.798802906226
 30
0.0
 40
135.0
 41
0.0
 46
0.0
 71
     5
 72
     5
  1
\A1;3053
 73
     1
 44
1.0
  0
POINT
  5
7F2B
330
7D58
100
AcDbEntity
  8
DEFPOINTS
 62
     0
440
 16777216
100
AcDbPoint
 10
1775.297113150955
 20
4476.933204501324
 30
0.0
  0
POINT
  5
7F2C
330
7D58
100
AcDbEntity
  8
DEFPOINTS
 62
     0
440
 16777216
100
AcDbPoint
 10
4828.297113150955
 20
3449.933204501324
 30
0.0
  0
POINT
  5
7F2D
330
7D58
100
AcDbEntity
  8
DEFPOINTS
 62
     0
440
 16777216
100
AcDbPoint
 10
4828.297113150955
 20
6323.298802906226
 30
0.0
  0
ENDBLK
  5
7D63
330
7D58
100
AcDbEntity
  8
0
100
AcDbBlockEnd
  0
BLOCK
  5
7D66
330
7D65
100
AcDbEntity
  8
0
100
AcDbBlockBegin
  2
*D13
 70
     1
 10
0.0
 20
0.0
 30
0.0
  3
*D13
  1

  0
LINE
  5
7F2E
330
7D65
100
AcDbEntity
  8
3
 62
     0
440
 16777216
100
AcDbLine
 10
1905.797113150955
 20
9555.446054598915
 30
0.0
 11
1484.300229237511
 21
9555.446054598915
 31
0.0
  0
LINE
  5
7F2F
330
7D65
100
AcDbEntity
  8
3
 62
     0
440
 16777216
100
AcDbLine
 10
1905.797113150955
 20
7195.446054598915
 30
0.0
 11
1484.30022923751
 21
7195.446054598915
 31
0.0
  0
LINE
  5
7F30
330
7D65
100
AcDbEntity
  8
3
 62
     0
440
 16777216
100
AcDbLine
 10
1529.300229237511
 20
9465.446054598915
 30
0.0
 11
1529.300229237511
 21
7285.446054598915
 31
0.0
  0
INSERT
  5
7F31
330
7D65
100
AcDbEntity
  8
3
 62
     0
440
 16777216
100
AcDbBlockReference
  2
_OPEN
 10
1529.300229237511
 20
9555.446054598915
 30
0.0
 41
90.0
 42
90.0
 43
90.0
 50
90.0
  0
INSERT
  5
7F32
330
7D65
100
AcDbEntity
  8
3
 62
     0
440
 16777216
100
AcDbBlockReference
  2
_OPEN
 10
1529.300229237511
 20
7195.446054598915
 30
0.0
 41
90.0
 42
90.0
 43
90.0
 50
270.0
  0
MTEXT
  5
7F33
330
7D65
100
AcDbEntity
  8
3
 62
     0
440
 16777216
100
AcDbMText
 10
1416.800229237509
 20
8366.458639966054
 30
0.0
 40
135.0
 41
0.0
 46
0.0
 71
     5
 72
     5
  1
\A1;2360
 11
0.0000000000000001
 21
1.0
 31
0.0
 73
     1
 44
1.0
  0
POINT
  5
7F34
330
7D65
100
AcDbEntity
  8
DEFPOINTS
 62
     0
440
 16777216
100
AcDbPoint
 10
1928.297113150955
 20
9555.446054598915
 30
0.0
  0
POINT
  5
7F35
330
7D65
100
AcDbEntity
  8
DEFPOINTS
 62
     0
440
 16777216
100
AcDbPoint
 10
1928.297113150955
 20
7195.446054598915
 30
0.0
  0
POINT
  5
7F36
330
7D65
100
AcDbEntity
  8
DEFPOINTS
 62
     0
440
 16777216
100
AcDbPoint
 10
1529.300229237511
 20
7195.446054598915
 30
0.0
  0
ENDBLK
  5
7D70
330
7D65
100
AcDbEntity
  8
0
100
AcDbBlockEnd
  0
BLOCK
  5
7D73
330
7D72
100
AcDbEntity
  8
0
100
AcDbBlockBegin
  2
*D14
 70
     1
 10
0.0
 20
0.0
 30
0.0
  3
*D14
  1

  0
LINE
  5
7F37
330
7D72
100
AcDbEntity
  8
3
 62
     0
440
 16777216
100
AcDbLine
 10
1928.297113150955
 20
7172.946054598916
 30
0.0
 11
1928.297113150955
 21
6769.612581635229
 31
0.0
  0
LINE
  5
7F38
330
7D72
100
AcDbEntity
  8
3
 62
     0
440
 16777216
100
AcDbLine
 10
4828.297113150955
 20
7172.946054598916
 30
0.0
 11
4828.297113150955
 21
6769.612581635229
 31
0.0
  0
LINE
  5
7F39
330
7D72
100
AcDbEntity
  8
3
 62
     0
440
 16777216
100
AcDbLine
 10
2018.297113150955
 20
6814.612581635228
 30
0.0
 11
4738.297113150955
 21
6814.612581635228
 31
0.0
  0
INSERT
  5
7F3A
330
7D72
100
AcDbEntity
  8
3
 62
     0
440
 16777216
100
AcDbBlockReference
  2
_OPEN
 10
1928.297113150955
 20
6814.612581635228
 30
0.0
 41
90.0
 42
90.0
 43
90.0
 50
180.0
  0
INSERT
  5
7F3B
330
7D72
100
AcDbEntity
  8
3
 62
     0
440
 16777216
100
AcDbBlockReference
  2
_OPEN
 10
4828.297113150955
 20
6814.612581635228
 30
0.0
 41
90.0
 42
90.0
 43
90.0
  0
MTEXT
  5
7F3C
330
7D72
100
AcDbEntity
  8
3
 62
     0
440
 16777216
100
AcDbMText
 10
3277.854647633191
 20
6927.112581635229
 30
0.0
 40
135.0
 41
0.0
 46
0.0
 71
     5
 72
     5
  1
\A1;2900
 73
     1
 44
1.0
  0
POINT
  5
7F3D
330
7D72
100
AcDbEntity
  8
DEFPOINTS
 62
     0
440
 16777216
100
AcDbPoint
 10
1928.297113150955
 20
7195.446054598915
 30
0.0
  0
POINT
  5
7F3E
330
7D72
100
AcDbEntity
  8
DEFPOINTS
 62
     0
440
 16777216
100
AcDbPoint
 10
4828.297113150955
 20
7195.446054598915
 30
0.0
  0
POINT
  5
7F3F
330
7D72
100
AcDbEntity
  8
DEFPOINTS
 62
     0
440
 16777216
100
AcDbPoint
 10
4828.297113150955
 20
6814.612581635228
 30
0.0
  0
ENDBLK
  5
7D7D
330
7D72
100
AcDbEntity
  8
0
100
AcDbBlockEnd
  0
BLOCK
  5
7D80
330
7D7F
100
AcDbEntity
  8
0
100
AcDbBlockBegin
  2
*D15
 70
     1
 10
0.0
 20
0.0
 30
0.0
  3
*D15
  1

  0
LINE
  5
7F40
330
7D7F
100
AcDbEntity
  8
3
 62
     0
440
 16777216
100
AcDbLine
 10
4850.797113150955
 20
7195.446054598915
 30
0.0
 11
5349.120617928792
 21
7195.446054598915
 31
0.0
  0
LINE
  5
7F41
330
7D7F
100
AcDbEntity
  8
3
 62
     0
440
 16777216
100
AcDbLine
 10
4850.797113150955
 20
8295.446054598915
 30
0.0
 11
5349.120617928792
 21
8295.446054598915
 31
0.0
  0
LINE
  5
7F42
330
7D7F
100
AcDbEntity
  8
3
 62
     0
440
 16777216
100
AcDbLine
 10
5304.120617928791
 20
7285.446054598915
 30
0.0
 11
5304.120617928791
 21
8205.446054598915
 31
0.0
  0
INSERT
  5
7F43
330
7D7F
100
AcDbEntity
  8
3
 62
     0
440
 16777216
100
AcDbBlockReference
  2
_OPEN
 10
5304.120617928791
 20
7195.446054598915
 30
0.0
 41
90.0
 42
90.0
 43
90.0
 50
270.0
  0
INSERT
  5
7F44
330
7D7F
100
AcDbEntity
  8
3
 62
     0
440
 16777216
100
AcDbBlockReference
  2
_OPEN
 10
5304.120617928791
 20
8295.446054598915
 30
0.0
 41
90.0
 42
90.0
 43
90.0
 50
90.0
  0
MTEXT
  5
7F45
330
7D7F
100
AcDbEntity
  8
3
 62
     0
440
 16777216
100
AcDbMText
 10
5191.620617928791
 20
7718.999691342702
 30
0.0
 40
135.0
 41
0.0
 46
0.0
 71
     5
 72
     5
  1
\A1;1100
 11
0.0000000000000001
 21
1.0
 31
0.0
 73
     1
 44
1.0
  0
POINT
  5
7F46
330
7D7F
100
AcDbEntity
  8
DEFPOINTS
 62
     0
440
 16777216
100
AcDbPoint
 10
4828.297113150955
 20
7195.446054598915
 30
0.0
  0
POINT
  5
7F47
330
7D7F
100
AcDbEntity
  8
DEFPOINTS
 62
     0
440
 16777216
100
AcDbPoint
 10
4828.297113150955
 20
8295.446054598915
 30
0.0
  0
POINT
  5
7F48
330
7D7F
100
AcDbEntity
  8
DEFPOINTS
 62
     0
440
 16777216
100
AcDbPoint
 10
5304.120617928791
 20
8295.446054598915
 30
0.0
  0
ENDBLK
  5
7D8A
330
7D7F
100
AcDbEntity
  8
0
100
AcDbBlockEnd
  0
BLOCK
  5
7D8E
330
7D8D
100
AcDbEntity
  8
0
100
AcDbBlockBegin
  2
*D16
 70
     1
 10
0.0
 20
0.0
 30
0.0
  3
*D16
  1

  0
LINE
  5
7F49
330
7D8D
100
AcDbEntity
  8
3
 62
     0
440
 16777216
100
AcDbLine
 10
1928.297113150955
 20
9577.946054598916
 30
0.0
 11
1928.297113150955
 21
9922.196207359391
 31
0.0
  0
LINE
  5
7F4A
330
7D8D
100
AcDbEntity
  8
3
 62
     0
440
 16777216
100
AcDbLine
 10
3628.297113150955
 20
9577.946054598916
 30
0.0
 11
3628.297113150955
 21
9922.196207359391
 31
0.0
  0
LINE
  5
7F4B
330
7D8D
100
AcDbEntity
  8
3
 62
     0
440
 16777216
100
AcDbLine
 10
2018.297113150955
 20
9877.196207359389
 30
0.0
 11
3538.297113150955
 21
9877.196207359389
 31
0.0
  0
INSERT
  5
7F4C
330
7D8D
100
AcDbEntity
  8
3
 62
     0
440
 16777216
100
AcDbBlockReference
  2
_OPEN
 10
1928.297113150955
 20
9877.196207359389
 30
0.0
 41
90.0
 42
90.0
 43
90.0
 50
180.0
  0
INSERT
  5
7F4D
330
7D8D
100
AcDbEntity
  8
3
 62
     0
440
 16777216
100
AcDbBlockReference
  2
_OPEN
 10
3628.297113150955
 20
9877.196207359389
 30
0.0
 41
90.0
 42
90.0
 43
90.0
  0
MTEXT
  5
7F4E
330
7D8D
100
AcDbEntity
  8
3
 62
     0
440
 16777216
100
AcDbMText
 10
2784.145121652706
 20
9989.69620735939
 30
0.0
 40
135.0
 41
0.0
 46
0.0
 71
     5
 72
     5
  1
\A1;1700
 73
     1
 44
1.0
  0
POINT
  5
7F4F
330
7D8D
100
AcDbEntity
  8
DEFPOINTS
 62
     0
440
 16777216
100
AcDbPoint
 10
1928.297113150955
 20
9555.446054598915
 30
0.0
  0
POINT
  5
7F50
330
7D8D
100
AcDbEntity
  8
DEFPOINTS
 62
     0
440
 16777216
100
AcDbPoint
 10
3628.297113150955
 20
9555.446054598915
 30
0.0
  0
POINT
  5
7F51
330
7D8D
100
AcDbEntity
  8
DEFPOINTS
 62
     0
440
 16777216
100
AcDbPoint
 10
3628.297113150955
 20
9877.196207359389
 30
0.0
  0
ENDBLK
  5
7D98
330
7D8D
100
AcDbEntity
  8
0
100
AcDbBlockEnd
  0
BLOCK
  5
7D9B
330
7D9A
100
AcDbEntity
  8
0
100
AcDbBlockBegin
  2
*D17
 70
     1
 10
0.0
 20
0.0
 30
0.0
  3
*D17
  1

  0
LINE
  5
7F52
330
7D9A
100
AcDbEntity
  8
3
 62
     0
440
 16777216
100
AcDbLine
 10
4828.297113150955
 20
8317.946054598916
 30
0.0
 11
4828.297113150955
 21
9922.196207359391
 31
0.0
  0
LINE
  5
7F53
330
7D9A
100
AcDbEntity
  8
3
 62
     0
440
 16777216
100
AcDbLine
 10
3718.297113150955
 20
9877.196207359389
 30
0.0
 11
4738.297113150955
 21
9877.196207359389
 31
0.0
  0
INSERT
  5
7F54
330
7D9A
100
AcDbEntity
  8
3
 62
     0
440
 16777216
100
AcDbBlockReference
  2
_OPEN
 10
3628.297113150955
 20
9877.196207359389
 30
0.0
 41
90.0
 42
90.0
 43
90.0
 50
180.0
  0
INSERT
  5
7F55
330
7D9A
100
AcDbEntity
  8
3
 62
     0
440
 16777216
100
AcDbBlockReference
  2
_OPEN
 10
4828.297113150955
 20
9877.196207359389
 30
0.0
 41
90.0
 42
90.0
 43
90.0
  0
MTEXT
  5
7F56
330
7D9A
100
AcDbEntity
  8
3
 62
     0
440
 16777216
100
AcDbMText
 10
4228.297113150954
 20
9989.69620735939
 30
0.0
 40
135.0
 41
0.0
 46
0.0
 71
     5
 72
     5
  1
\A1;1200
 73
     1
 44
1.0
  0
POINT
  5
7F57
330
7D9A
100
AcDbEntity
  8
DEFPOINTS
 62
     0
440
 16777216
100
AcDbPoint
 10
3628.297113150955
 20
9555.446054598915
 30
0.0
  0
POINT
  5
7F58
330
7D9A
100
AcDbEntity
  8
DEFPOINTS
 62
     0
440
 16777216
100
AcDbPoint
 10
4828.297113150955
 20
8295.446054598915
 30
0.0
  0
POINT
  5
7F59
330
7D9A
100
AcDbEntity
  8
DEFPOINTS
 62
     0
440
 16777216
100
AcDbPoint
 10
4828.297113150955
 20
9877.196207359389
 30
0.0
  0
ENDBLK
  5
7DA4
330
7D9A
100
AcDbEntity
  8
0
100
AcDbBlockEnd
  0
BLOCK
  5
7DEB
330
7DEA
100
AcDbEntity
  8
0
100
AcDbBlockBegin
  2
*D18
 70
     1
 10
0.0
 20
0.0
 30
0.0
  3
*D18
  1

  0
LINE
  5
7FE2
330
7DEA
100
AcDbEntity
  8
3
 62
     0
440
 16777216
370
    -2
100
AcDbLine
 10
1928.297113150955
 20
3097.433204501323
 30
0.0
 11
1928.297113150955
 21
2794.54517137332
 31
0.0
  0
LINE
  5
7FE3
330
7DEA
100
AcDbEntity
  8
3
 62
     0
440
 16777216
370
    -2
100
AcDbLine
 10
2778.297113150955
 20
3097.433204501323
 30
0.0
 11
2778.297113150955
 21
2794.54517137332
 31
0.0
  0
LINE
  5
7FE4
330
7DEA
100
AcDbEntity
  8
3
 62
     0
440
 16777216
370
    -2
100
AcDbLine
 10
2018.297113150955
 20
2839.54517137332
 30
0.0
 11
2688.297113150955
 21
2839.54517137332
 31
0.0
  0
INSERT
  5
7FE5
330
7DEA
100
AcDbEntity
  8
3
 62
     0
440
 16777216
370
    -2
100
AcDbBlockReference
  2
_OPEN
 10
1928.297113150955
 20
2839.54517137332
 30
0.0
 41
90.0
 42
90.0
 43
90.0
 50
180.0
  0
INSERT
  5
7FE6
330
7DEA
100
AcDbEntity
  8
3
 62
     0
440
 16777216
370
    -2
100
AcDbBlockReference
  2
_OPEN
 10
2778.297113150955
 20
2839.54517137332
 30
0.0
 41
90.0
 42
90.0
 43
90.0
  0
MTEXT
  5
7FE7
330
7DEA
100
AcDbEntity
  8
3
 62
     0
440
 16777216
100
AcDbMText
 10
2353.297113150955
 20
2952.04517137332
 30
0.0
 40
135.0
 41
0.0
 46
0.0
 71
     5
 72
     1
  1
\A1;850
 73
     1
 44
1.0
  0
POINT
  5
7FE8
330
7DEA
100
AcDbEntity
  8
DEFPOINTS
 62
     0
440
 16777216
100
AcDbPoint
 10
1928.297113150955
 20
3119.933204501324
 30
0.0
  0
POINT
  5
7FE9
330
7DEA
100
AcDbEntity
  8
DEFPOINTS
 62
     0
440
 16777216
100
AcDbPoint
 10
2778.297113150955
 20
3119.933204501324
 30
0.0
  0
POINT
  5
7FEA
330
7DEA
100
AcDbEntity
  8
DEFPOINTS
 62
     0
440
 16777216
100
AcDbPoint
 10
2778.297113150955
 20
2839.54517137332
 30
0.0
  0
ENDBLK
  5
7DF5
330
7DEA
100
AcDbEntity
  8
0
100
AcDbBlockEnd
  0
BLOCK
  5
7DF8
330
7DF7
100
AcDbEntity
  8
0
100
AcDbBlockBegin
  2
*D19
 70
     1
 10
0.0
 20
0.0
 30
0.0
  3
*D19
  1

  0
LINE
  5
7FEB
330
7DF7
100
AcDbEntity
  8
3
 62
     0
440
 16777216
370
    -2
100
AcDbLine
 10
2778.297113150955
 20
3097.433204501323
 30
0.0
 11
2778.297113150955
 21
2794.54517137332
 31
0.0
  0
LINE
  5
7FEC
330
7DF7
100
AcDbEntity
  8
3
 62
     0
440
 16777216
370
    -2
100
AcDbLine
 10
4828.297113150955
 20
3097.433204501323
 30
0.0
 11
4828.297113150955
 21
2794.54517137332
 31
0.0
  0
LINE
  5
7FED
330
7DF7
100
AcDbEntity
  8
3
 62
     0
440
 16777216
370
    -2
100
AcDbLine
 10
2868.297113150955
 20
2839.54517137332
 30
0.0
 11
4738.297113150955
 21
2839.54517137332
 31
0.0
  0
INSERT
  5
7FEE
330
7DF7
100
AcDbEntity
  8
3
 62
     0
440
 16777216
370
    -2
100
AcDbBlockReference
  2
_OPEN
 10
2778.297113150955
 20
2839.54517137332
 30
0.0
 41
90.0
 42
90.0
 43
90.0
 50
180.0
  0
INSERT
  5
7FEF
330
7DF7
100
AcDbEntity
  8
3
 62
     0
440
 16777216
370
    -2
100
AcDbBlockReference
  2
_OPEN
 10
4828.297113150955
 20
2839.54517137332
 30
0.0
 41
90.0
 42
90.0
 43
90.0
  0
MTEXT
  5
7FF0
330
7DF7
100
AcDbEntity
  8
3
 62
     0
440
 16777216
100
AcDbMText
 10
3803.297113150955
 20
2952.04517137332
 30
0.0
 40
135.0
 41
0.0
 46
0.0
 71
     5
 72
     1
  1
\A1;2050
 73
     1
 44
1.0
  0
POINT
  5
7FF1
330
7DF7
100
AcDbEntity
  8
DEFPOINTS
 62
     0
440
 16777216
100
AcDbPoint
 10
2778.297113150955
 20
3119.933204501324
 30
0.0
  0
POINT
  5
7FF2
330
7DF7
100
AcDbEntity
  8
DEFPOINTS
 62
     0
440
 16777216
100
AcDbPoint
 10
4828.297113150955
 20
3119.933204501324
 30
0.0
  0
POINT
  5
7FF3
330
7DF7
100
AcDbEntity
  8
DEFPOINTS
 62
     0
440
 16777216
100
AcDbPoint
 10
4828.297113150955
 20
2839.54517137332
 30
0.0
  0
ENDBLK
  5
7E02
330
7DF7
100
AcDbEntity
  8
0
100
AcDbBlockEnd
  0
BLOCK
  5
7E05
330
7E04
100
AcDbEntity
  8
0
100
AcDbBlockBegin
  2
*D20
 70
     1
 10
0.0
 20
0.0
 30
0.0
  3
*D20
  1

  0
LINE
  5
7FF4
330
7E04
100
AcDbEntity
  8
3
 62
     0
440
 16777216
370
    -2
100
AcDbLine
 10
5857.237249644761
 20
3097.433204501324
 30
0.0
 11
5857.237249644761
 21
2794.54517137332
 31
0.0
  0
LINE
  5
7FF5
330
7E04
100
AcDbEntity
  8
3
 62
     0
440
 16777216
370
    -2
100
AcDbLine
 10
7188.23724964476
 20
3097.433204501324
 30
0.0
 11
7188.23724964476
 21
2794.54517137332
 31
0.0
  0
LINE
  5
7FF6
330
7E04
100
AcDbEntity
  8
3
 62
     0
440
 16777216
370
    -2
100
AcDbLine
 10
5947.237249644761
 20
2839.54517137332
 30
0.0
 11
7098.23724964476
 21
2839.54517137332
 31
0.0
  0
INSERT
  5
7FF7
330
7E04
100
AcDbEntity
  8
3
 62
     0
440
 16777216
370
    -2
100
AcDbBlockReference
  2
_OPEN
 10
5857.237249644761
 20
2839.54517137332
 30
0.0
 41
90.0
 42
90.0
 43
90.0
 50
180.0
  0
INSERT
  5
7FF8
330
7E04
100
AcDbEntity
  8
3
 62
     0
440
 16777216
370
    -2
100
AcDbBlockReference
  2
_OPEN
 10
7188.23724964476
 20
2839.54517137332
 30
0.0
 41
90.0
 42
90.0
 43
90.0
  0
MTEXT
  5
7FF9
330
7E04
100
AcDbEntity
  8
3
 62
     0
440
 16777216
100
AcDbMText
 10
6522.73724964476
 20
2952.04517137332
 30
0.0
 40
135.0
 41
0.0
 46
0.0
 71
     5
 72
     1
  1
\A1;1331
 73
     1
 44
1.0
  0
POINT
  5
7FFA
330
7E04
100
AcDbEntity
  8
DEFPOINTS
 62
     0
440
 16777216
100
AcDbPoint
 10
5857.237249644761
 20
3119.933204501324
 30
0.0
  0
POINT
  5
7FFB
330
7E04
100
AcDbEntity
  8
DEFPOINTS
 62
     0
440
 16777216
100
AcDbPoint
 10
7188.23724964476
 20
3119.933204501324
 30
0.0
  0
POINT
  5
7FFC
330
7E04
100
AcDbEntity
  8
DEFPOINTS
 62
     0
440
 16777216
100
AcDbPoint
 10
7188.23724964476
 20
2839.54517137332
 30
0.0
  0
ENDBLK
  5
7E0F
330
7E04
100
AcDbEntity
  8
0
100
AcDbBlockEnd
  0
BLOCK
  5
7E12
330
7E11
100
AcDbEntity
  8
0
100
AcDbBlockBegin
  2
*D21
 70
     1
 10
0.0
 20
0.0
 30
0.0
  3
*D21
  1

  0
LINE
  5
7FFD
330
7E11
100
AcDbEntity
  8
3
 62
     0
440
 16777216
370
    -2
100
AcDbLine
 10
7188.23724964476
 20
3097.433204501324
 30
0.0
 11
7188.23724964476
 21
2794.54517137332
 31
0.0
  0
LINE
  5
7FFE
330
7E11
100
AcDbEntity
  8
3
 62
     0
440
 16777216
370
    -2
100
AcDbLine
 10
8217.23724964476
 20
3097.433204501325
 30
0.0
 11
8217.23724964476
 21
2794.54517137332
 31
0.0
  0
LINE
  5
7FFF
330
7E11
100
AcDbEntity
  8
3
 62
     0
440
 16777216
370
    -2
100
AcDbLine
 10
7278.23724964476
 20
2839.54517137332
 30
0.0
 11
8127.23724964476
 21
2839.54517137332
 31
0.0
  0
INSERT
  5
8000
330
7E11
100
AcDbEntity
  8
3
 62
     0
440
 16777216
370
    -2
100
AcDbBlockReference
  2
_OPEN
 10
7188.23724964476
 20
2839.54517137332
 30
0.0
 41
90.0
 42
90.0
 43
90.0
 50
180.0
  0
INSERT
  5
8001
330
7E11
100
AcDbEntity
  8
3
 62
     0
440
 16777216
370
    -2
100
AcDbBlockReference
  2
_OPEN
 10
8217.23724964476
 20
2839.54517137332
 30
0.0
 41
90.0
 42
90.0
 43
90.0
  0
MTEXT
  5
8002
330
7E11
100
AcDbEntity
  8
3
 62
     0
440
 16777216
100
AcDbMText
 10
7702.737249644761
 20
2952.04517137332
 30
0.0
 40
135.0
 41
0.0
 46
0.0
 71
     5
 72
     1
  1
\A1;1029
 73
     1
 44
1.0
  0
POINT
  5
8003
330
7E11
100
AcDbEntity
  8
DEFPOINTS
 62
     0
440
 16777216
100
AcDbPoint
 10
7188.23724964476
 20
3119.933204501324
 30
0.0
  0
POINT
  5
8004
330
7E11
100
AcDbEntity
  8
DEFPOINTS
 62
     0
440
 16777216
100
AcDbPoint
 10
8217.23724964476
 20
3119.933204501324
 30
0.0
  0
POINT
  5
8005
330
7E11
100
AcDbEntity
  8
DEFPOINTS
 62
     0
440
 16777216
100
AcDbPoint
 10
8217.23724964476
 20
2839.54517137332
 30
0.0
  0
ENDBLK
  5
7E1C
330
7E11
100
AcDbEntity
  8
0
100
AcDbBlockEnd
  0
BLOCK
  5
7E1F
330
7E1E
100
AcDbEntity
  8
0
100
AcDbBlockBegin
  2
_NONE
 70
     0
 10
0.0
 20
0.0
 30
0.0
  3
_NONE
  1

  0
CIRCLE
  5
7E20
330
7E1E
100
AcDbEntity
  8
0
  6
ByBlock
 62
     0
100
AcDbCircle
 10
0.0
 20
0.0
 30
0.0
 40
0.25
  0
ENDBLK
  5
7E21
330
7E1E
100
AcDbEntity
  8
0
100
AcDbBlockEnd
  0
BLOCK
  5
7E87
330
7E46
100
AcDbEntity
  8
0
100
AcDbBlockBegin
  2
*D23
 70
     1
 10
0.0
 20
0.0
 30
0.0
  3
*D23
  1

  0
LINE
  5
8006
330
7E46
100
AcDbEntity
  8
3
 62
     0
440
 16777216
370
    -2
100
AcDbLine
 10
1445.710792476253
 20
3194.933204501324
 30
0.0
 11
1445.710792476253
 21
3299.933204501324
 31
0.0
  0
MTEXT
  5
8007
330
7E46
100
AcDbEntity
  8
3
 62
     0
440
 16777216
100
AcDbMText
 10
1230.35364961911
 20
3247.433204501324
 30
0.0
 40
135.0
 41
0.0
 46
0.0
 71
     5
 72
     1
  1
\A1;   (105)
 11
0.0000000000000001
 21
1.0
 31
0.0
 73
     1
 44
1.0
  0
POINT
  5
8008
330
7E46
100
AcDbEntity
  8
DEFPOINTS
 62
     0
440
 16777216
100
AcDbPoint
 10
1928.297113150955
 20
3194.933204501324
 30
0.0
  0
POINT
  5
8009
330
7E46
100
AcDbEntity
  8
DEFPOINTS
 62
     0
440
 16777216
100
AcDbPoint
 10
1928.297113150955
 20
3299.933204501324
 30
0.0
  0
POINT
  5
800A
330
7E46
100
AcDbEntity
  8
DEFPOINTS
 62
     0
440
 16777216
100
AcDbPoint
 10
1445.710792476253
 20
3299.933204501324
 30
0.0
  0
ENDBLK
  5
7E8D
330
7E46
100
AcDbEntity
  8
0
100
AcDbBlockEnd
  0
BLOCK
  5
7E50
330
7E4F
100
AcDbEntity
  8
0
100
AcDbBlockBegin
  2
*D24
 70
     1
 10
0.0
 20
0.0
 30
0.0
  3
*D24
  1

  0
LINE
  5
800B
330
7E4F
100
AcDbEntity
  8
3
 62
     0
440
 16777216
370
    -2
100
AcDbLine
 10
1905.797113150955
 20
3119.933204501324
 30
0.0
 11
991.3780004945943
 21
3119.933204501324
 31
0.0
  0
LINE
  5
800C
330
7E4F
100
AcDbEntity
  8
3
 62
     0
440
 16777216
370
    -2
100
AcDbLine
 10
2742.797113150955
 20
5469.933204501323
 30
0.0
 11
991.3780004945948
 21
5469.933204501324
 31
0.0
  0
LINE
  5
800D
330
7E4F
100
AcDbEntity
  8
3
 62
     0
440
 16777216
370
    -2
100
AcDbLine
 10
1036.378000494594
 20
3209.933204501324
 30
0.0
 11
1036.378000494595
 21
5379.933204501324
 31
0.0
  0
INSERT
  5
800E
330
7E4F
100
AcDbEntity
  8
3
 62
     0
440
 16777216
370
    -2
100
AcDbBlockReference
  2
_OPEN
 10
1036.378000494594
 20
3119.933204501324
 30
0.0
 41
90.0
 42
90.0
 43
90.0
 50
270.0
  0
INSERT
  5
800F
330
7E4F
100
AcDbEntity
  8
3
 62
     0
440
 16777216
370
    -2
100
AcDbBlockReference
  2
_OPEN
 10
1036.378000494595
 20
5469.933204501324
 30
0.0
 41
90.0
 42
90.0
 43
90.0
 50
90.0
  0
MTEXT
  5
8010
330
7E4F
100
AcDbEntity
  8
3
 62
     0
440
 16777216
100
AcDbMText
 10
888.5208576374509
 20
4294.933204501324
 30
0.0
 40
135.0
 41
0.0
 46
0.0
 71
     5
 72
     1
  1
\A1;(2350)
 11
0.0000000000000001
 21
1.0
 31
0.0
 73
     1
 44
1.0
  0
POINT
  5
8011
330
7E4F
100
AcDbEntity
  8
DEFPOINTS
 62
     0
440
 16777216
100
AcDbPoint
 10
1928.297113150955
 20
3119.933204501324
 30
0.0
  0
POINT
  5
8012
330
7E4F
100
AcDbEntity
  8
DEFPOINTS
 62
     0
440
 16777216
100
AcDbPoint
 10
2765.297113150955
 20
5469.933204501323
 30
0.0
  0
POINT
  5
8013
330
7E4F
100
AcDbEntity
  8
DEFPOINTS
 62
     0
440
 16777216
100
AcDbPoint
 10
1036.378000494595
 20
5469.933204501324
 30
0.0
  0
ENDBLK
  5
7E5A
330
7E4F
100
AcDbEntity
  8
0
100
AcDbBlockEnd
  0
ENDSEC
  0
SECTION
  2
ENTITIES
  0
CIRCLE
  5
7AD5
330
19
100
AcDbEntity
  8
1
100
AcDbCircle
 10
2778.297113150955
 20
4539.933204501322
 30
0.0
 40
225.0
  0
ARC
  5
7AD6
330
19
100
AcDbEntity
  8
1
100
AcDbCircle
 10
2778.297113150955
 20
4539.933204501322
 30
0.0
 40
380.0
100
AcDbArc
 50
59.00563194897924
 51
247.5868048370896
  0
ARC
  5
7AD7
330
19
100
AcDbEntity
  8
1
100
AcDbCircle
 10
2692.797113150955
 20
4454.433204501323
 30
0.0
 40
917.5
100
AcDbArc
 50
174.6529621965137
 51
180.0
  0
LINE
  5
7AD8
330
19
100
AcDbEntity
  8
2
100
AcDbLine
 10
2778.297113150955
 20
5557.927962352408
 30
0.0
 11
2778.297113150955
 21
3119.933204501323
 31
0.0
  0
LINE
  5
7AD9
330
19
100
AcDbEntity
  8
1
100
AcDbLine
 10
2973.979563329601
 20
4865.67601515427
 30
0.0
 11
4552.821740855581
 21
3917.223138713539
 31
0.0
  0
LINE
  5
7ADA
330
19
100
AcDbEntity
  8
1
100
AcDbLine
 10
2889.346707756782
 20
4735.619145585197
 30
0.0
 11
4493.692985529942
 21
3825.170480917382
 31
0.0
  0
ARC
  5
7ADB
330
19
100
AcDbEntity
  8
1
100
AcDbCircle
 10
2880.297113150955
 20
4641.933204501323
 30
0.0
 40
1309.0
100
AcDbArc
 50
294.4089953286153
 51
355.530863344479
  0
CIRCLE
  5
7ADC
330
19
100
AcDbEntity
  8
1
100
AcDbCircle
 10
2778.297113150955
 20
4539.933204501322
 30
0.0
 40
750.0
  0
CIRCLE
  5
7ADD
330
19
100
AcDbEntity
  8
1
100
AcDbCircle
 10
2778.297113150955
 20
4539.933204501322
 30
0.0
 40
700.0
  0
ARC
  5
7ADE
330
19
100
AcDbEntity
  8
1
100
AcDbCircle
 10
2880.297113150955
 20
4437.933204501323
 30
0.0
 40
1105.0
100
AcDbArc
 50
179.1444203645698
 51
243.3953183106035
  0
LINE
  5
7AE0
330
19
100
AcDbEntity
  8
1
100
AcDbLine
 10
1928.297113150955
 20
3119.933204501324
 30
0.0
 11
4828.297113150955
 21
3119.933204501324
 31
0.0
  0
LINE
  5
7AE1
330
19
100
AcDbEntity
  8
1
100
AcDbLine
 10
1928.297113150955
 20
3194.933204501324
 30
0.0
 11
4828.297113150955
 21
3194.933204501324
 31
0.0
  0
LINE
  5
7AE2
330
19
100
AcDbEntity
  8
1
100
AcDbLine
 10
1928.297113150955
 20
3449.933204501324
 30
0.0
 11
4828.297113150955
 21
3449.933204501324
 31
0.0
  0
LINE
  5
7AE3
330
19
100
AcDbEntity
  8
1
100
AcDbLine
 10
1928.297113150955
 20
3299.933204501324
 30
0.0
 11
4828.297113150955
 21
3299.933204501324
 31
0.0
  0
LINE
  5
7AE4
330
19
100
AcDbEntity
  8
1
100
AcDbLine
 10
1928.297113150955
 20
3194.933204501324
 30
0.0
 11
1928.297113150955
 21
3119.933204501324
 31
0.0
  0
LINE
  5
7AE5
330
19
100
AcDbEntity
  8
1
100
AcDbLine
 10
1928.297113150955
 20
3449.933204501324
 30
0.0
 11
1928.297113150955
 21
3299.933204501324
 31
0.0
  0
LINE
  5
7AE6
330
19
100
AcDbEntity
  8
1
100
AcDbLine
 10
4828.297113150955
 20
3194.933204501324
 30
0.0
 11
4828.297113150955
 21
3119.933204501324
 31
0.0
  0
LINE
  5
7AE7
330
19
100
AcDbEntity
  8
2
100
AcDbLine
 10
4428.297113150954
 20
3991.279395501324
 30
0.0
 11
4428.297113150954
 21
3119.933204501324
 31
0.0
  0
POINT
  5
7AE8
330
19
100
AcDbEntity
  8
1
100
AcDbPoint
 10
4828.297113150955
 20
3119.933204501324
 30
0.0
  0
POINT
  5
7AE9
330
19
100
AcDbEntity
  8
1
100
AcDbPoint
 10
4828.297113150955
 20
3119.933204501324
 30
0.0
  0
LINE
  5
7AEA
330
19
100
AcDbEntity
  8
2
100
AcDbLine
 10
4171.790031417796
 20
3709.933204501324
 30
0.0
 11
4696.428439089832
 21
3709.933204501324
 31
0.0
  0
LINE
  5
7AEB
330
19
100
AcDbEntity
  8
1
100
AcDbLine
 10
4178.340916238272
 20
3509.933204501324
 30
0.0
 11
4328.901560176515
 21
3509.933204501324
 31
0.0
  0
ARC
  5
7AEC
330
19
100
AcDbEntity
  8
1
100
AcDbCircle
 10
4428.297113150954
 20
3709.933204501324
 30
0.0
 40
203.5
100
AcDbArc
 50
285.60376
 51
254.396301
  0
LINE
  5
7AED
330
19
100
AcDbEntity
  8
1
100
AcDbLine
 10
2633.409463595019
 20
4188.639069898772
 30
0.0
 11
4336.096302074233
 21
3486.383411015677
 31
0.0
  0
LINE
  5
7AEE
330
19
100
AcDbEntity
  8
1
100
AcDbLine
 10
4374.757260294744
 20
3588.731990991989
 30
0.0
 11
2687.380381885691
 21
4334.119823070377
 31
0.0
  0
LINE
  5
7AF1
330
19
100
AcDbEntity
  8
1
100
AcDbLine
 10
4168.297113150955
 20
3449.933204501324
 30
0.0
 11
4178.340916238272
 21
3509.933204501324
 31
0.0
  0
ARC
  5
7AF9
330
19
100
AcDbEntity
  8
1
100
AcDbCircle
 10
4428.297113150954
 20
3709.933204501324
 30
0.0
 40
241.8170790715176
100
AcDbArc
 50
247.5868048370896
 51
59.00563194897922
  0
LINE
  5
7AFA
330
19
100
AcDbEntity
  8
1
100
AcDbLine
 10
4617.297113150955
 20
3584.259864501324
 30
0.0
 11
4617.297113150955
 21
3509.933204501324
 31
0.0
  0
LINE
  5
7AFB
330
19
100
AcDbEntity
  8
1
100
AcDbLine
 10
4239.297113150954
 20
3584.259864501324
 30
0.0
 11
4239.297113150954
 21
3509.933204501324
 31
0.0
  0
LINE
  5
7AFD
330
19
100
AcDbEntity
  8
1
100
AcDbLine
 10
4483.035150150953
 20
3513.933204501324
 30
0.0
 11
4373.559076150955
 21
3513.933204501324
 31
0.0
  0
LINE
  5
7AFE
330
19
100
AcDbEntity
  8
1
100
AcDbLine
 10
4428.297113150954
 20
3500.084565110189
 30
0.0
 11
4527.692666125394
 21
3500.084565110189
 31
0.0
  0
LINE
  5
7AFF
330
19
100
AcDbEntity
  8
1
100
AcDbLine
 10
4324.194543150955
 20
3535.076392501323
 30
0.0
 11
4317.457347568665
 21
3509.933204501324
 31
0.0
  0
LINE
  5
7B00
330
19
100
AcDbEntity
  8
1
100
AcDbLine
 10
4328.901560176515
 20
3509.933204501324
 30
0.0
 11
4328.901560176515
 21
3500.084565110189
 31
0.0
  0
LINE
  5
7B02
330
19
100
AcDbEntity
  8
1
100
AcDbLine
 10
4239.297113150954
 20
3509.933204501324
 30
0.0
 11
4318.797113150955
 21
3509.933204501324
 31
0.0
  0
LINE
  5
7B03
330
19
100
AcDbEntity
  8
1
100
AcDbLine
 10
4428.297113150954
 20
3500.084565110189
 30
0.0
 11
4328.901560176515
 21
3500.084565110189
 31
0.0
  0
LINE
  5
7B07
330
19
100
AcDbEntity
  8
1
100
AcDbLine
 10
4688.297113150954
 20
3449.933204501324
 30
0.0
 11
4678.253310063637
 21
3509.933204501324
 31
0.0
  0
LINE
  5
7B09
330
19
100
AcDbEntity
  8
1
100
AcDbLine
 10
4532.399896150955
 20
3535.076514501323
 30
0.0
 11
4539.136817747666
 21
3509.933204501324
 31
0.0
  0
LINE
  5
7B0A
330
19
100
AcDbEntity
  8
1
100
AcDbLine
 10
4527.692666125394
 20
3509.933204501324
 30
0.0
 11
4527.692666125394
 21
3500.084565110189
 31
0.0
  0
LINE
  5
7B0B
330
19
100
AcDbEntity
  8
1
100
AcDbLine
 10
4617.297113150955
 20
3509.933204501324
 30
0.0
 11
4537.797113150954
 21
3509.933204501324
 31
0.0
  0
LINE
  5
7B0C
330
19
100
AcDbEntity
  8
1
100
AcDbLine
 10
4617.297113150955
 20
3509.933204501324
 30
0.0
 11
4537.297113150954
 21
3509.933204501324
 31
0.0
  0
LINE
  5
7B0E
330
19
100
AcDbEntity
  8
1
100
AcDbLine
 10
4678.253310063637
 20
3509.933204501324
 30
0.0
 11
4527.692666125394
 21
3509.933204501324
 31
0.0
  0
LINE
  5
7B0F
330
19
100
AcDbEntity
  8
1
100
AcDbLine
 10
4828.297113150955
 20
3449.933204501324
 30
0.0
 11
4828.297113150955
 21
3299.933204501324
 31
0.0
  0
POINT
  5
7B10
330
19
100
AcDbEntity
  8
1
100
AcDbPoint
 10
4828.297113150955
 20
3299.933204501324
 30
0.0
  0
POINT
  5
7B11
330
19
100
AcDbEntity
  8
1
100
AcDbPoint
 10
4828.297113150955
 20
3299.933204501324
 30
0.0
  0
POINT
  5
7B12
330
19
100
AcDbEntity
  8
1
100
AcDbPoint
 10
4828.297113150955
 20
3194.933204501324
 30
0.0
  0
POINT
  5
7B13
330
19
100
AcDbEntity
  8
1
100
AcDbPoint
 10
4828.297113150955
 20
3194.933204501324
 30
0.0
  0
POINT
  5
7B14
330
19
100
AcDbEntity
  8
1
100
AcDbPoint
 10
4828.297113150955
 20
3194.933204501324
 30
0.0
  0
POINT
  5
7B15
330
19
100
AcDbEntity
  8
1
100
AcDbPoint
 10
4828.297113150955
 20
3194.933204501324
 30
0.0
  0
CIRCLE
  5
7B1A
330
19
100
AcDbEntity
  8
1
100
AcDbCircle
 10
4428.297113150954
 20
3709.933204501324
 30
0.0
 40
132.5
  0
ARC
  5
7B1B
330
19
100
AcDbEntity
  8
1
100
AcDbCircle
 10
4244.297113150955
 20
3584.259864501324
 30
0.0
 40
5.000066999999999
100
AcDbArc
 50
124.943665
 51
180.0
  0
LINE
  5
7B1C
330
19
100
AcDbEntity
  8
1
100
AcDbLine
 10
4241.433343150954
 20
3588.358497501324
 30
0.0
 11
4257.371210150956
 21
3599.494727501324
 31
0.0
  0
ARC
  5
7B1D
330
19
100
AcDbEntity
  8
1
100
AcDbCircle
 10
4612.297113150955
 20
3584.259864501324
 30
0.0
 40
5.0
100
AcDbArc
 50
0.0
 51
55.05633899999998
  0
LINE
  5
7B1F
330
19
100
AcDbEntity
  8
1
100
AcDbLine
 10
4615.161005150954
 20
3588.358497501324
 30
0.0
 11
4599.223138150954
 21
3599.494727501324
 31
0.0
  0
ARC
  5
7B20
330
19
100
AcDbEntity
  8
1
100
AcDbCircle
 10
2692.797113150955
 20
4454.433204501323
 30
0.0
 40
917.5
100
AcDbArc
 50
84.65296219651374
 51
174.6529621965137
  0
LINE
  5
7B21
330
19
100
AcDbEntity
  8
2
100
AcDbLine
 10
1608.009265819164
 20
4539.933204501322
 30
0.0
 11
4258.800942095695
 21
4539.933204501322
 31
0.0
  0
LINE
  5
7B22
330
19
100
AcDbEntity
  8
1
100
AcDbLine
 10
4269.297113150955
 20
5469.933204501323
 30
0.0
 11
4185.410966448666
 21
4539.933204501322
 31
0.0
  0
LINE
  5
7B23
330
19
100
AcDbEntity
  8
1
100
AcDbLine
 10
2819.297113150955
 20
5419.933204501322
 30
0.0
 11
4264.787105263734
 21
5419.933204501324
 31
0.0
  0
LINE
  5
7B24
330
19
100
AcDbEntity
  8
1
100
AcDbLine
 10
2765.297113150955
 20
5463.933204501323
 30
0.0
 11
4323.297113150955
 21
5463.933204501325
 31
0.0
  0
LINE
  5
7B25
330
19
100
AcDbEntity
  8
1
100
AcDbLine
 10
2765.297113150955
 20
5469.933204501323
 30
0.0
 11
4323.297113150955
 21
5469.933204501324
 31
0.0
  0
LINE
  5
7B26
330
19
100
AcDbEntity
  8
1
100
AcDbLine
 10
2819.297113150955
 20
5469.933204501323
 30
0.0
 11
2819.297113150955
 21
5360.8369492247
 31
0.0
  0
ARC
  5
7B27
330
19
100
AcDbEntity
  8
1
100
AcDbCircle
 10
2692.797113150955
 20
4625.133204501324
 30
0.0
 40
746.4999999999999
100
AcDbArc
 50
80.24372338188337
 51
83.42322386974393
  0
LINE
  5
7B28
330
19
100
AcDbEntity
  8
1
100
AcDbLine
 10
2765.297113150955
 20
5469.933204501323
 30
0.0
 11
2765.297113150956
 21
5463.933204501325
 31
0.0
  0
LINE
  5
7B29
330
19
100
AcDbEntity
  8
1
100
AcDbLine
 10
4323.297113150955
 20
5469.933204501324
 30
0.0
 11
4323.297113150955
 21
5463.933204501326
 31
0.0
  0
LINE
  5
7B2A
330
19
100
AcDbEntity
  8
1
100
AcDbLine
 10
8138.23724964476
 20
4539.933204501322
 30
0.0
 11
8138.23724964476
 21
3449.933204501324
 31
0.0
  0
LINE
  5
7B2B
330
19
100
AcDbEntity
  8
2
100
AcDbLine
 10
7188.23724964476
 20
5624.699627998172
 30
0.0
 11
7188.23724964476
 21
3119.933204501324
 31
0.0
  0
LINE
  5
7B2C
330
19
100
AcDbEntity
  8
1
100
AcDbLine
 10
5969.23724964476
 20
4459.933204501323
 30
0.0
 11
5969.23724964476
 21
4619.933204501323
 31
0.0
  0
LINE
  5
7B2D
330
19
100
AcDbEntity
  8
1
100
AcDbLine
 10
6238.237249644761
 20
4539.933204501322
 30
0.0
 11
6238.237249644761
 21
3910.328823093849
 31
0.0
  0
LINE
  5
7B2E
330
19
100
AcDbEntity
  8
1
100
AcDbLine
 10
5718.237249644761
 20
3469.933204501324
 30
0.0
 11
5718.237249644761
 21
4919.933204501323
 31
0.0
  0
LINE
  5
7B2F
330
19
100
AcDbEntity
  8
1
100
AcDbLine
 10
5954.63724964476
 20
3577.433204501323
 30
0.0
 11
5954.63724964476
 21
4764.933204501323
 31
0.0
  0
LINE
  5
7B30
330
19
100
AcDbEntity
  8
1
100
AcDbLine
 10
5869.23724964476
 20
3577.433204501323
 30
0.0
 11
5869.23724964476
 21
4764.933204501323
 31
0.0
  0
LINE
  5
7B31
330
19
100
AcDbEntity
  8
1
100
AcDbLine
 10
8217.23724964476
 20
3194.933204501324
 30
0.0
 11
8217.23724964476
 21
3119.933204501324
 31
0.0
  0
LINE
  5
7B32
330
19
100
AcDbEntity
  8
1
100
AcDbLine
 10
5857.237249644761
 20
3194.933204501325
 30
0.0
 11
5857.237249644761
 21
3119.933204501324
 31
0.0
  0
LINE
  5
7B33
330
19
100
AcDbEntity
  8
1
100
AcDbLine
 10
8217.23724964476
 20
3119.933204501324
 30
0.0
 11
5857.237249644761
 21
3119.933204501324
 31
0.0
  0
LINE
  5
7B34
330
19
100
AcDbEntity
  8
1
100
AcDbLine
 10
8217.23724964476
 20
3299.933204501324
 30
0.0
 11
5857.237249644761
 21
3299.933204501324
 31
0.0
  0
LINE
  5
7B35
330
19
100
AcDbEntity
  8
1
100
AcDbLine
 10
8143.23724964476
 20
3449.933204501324
 30
0.0
 11
5857.237249644761
 21
3449.933204501324
 31
0.0
  0
LINE
  5
7B36
330
19
100
AcDbEntity
  8
1
100
AcDbLine
 10
8217.23724964476
 20
3194.933204501324
 30
0.0
 11
5857.237249644761
 21
3194.933204501325
 31
0.0
  0
LINE
  5
7B37
330
19
100
AcDbEntity
  8
1
100
AcDbLine
 10
6055.605276667491
 20
3910.328823093849
 30
0.0
 11
6055.605276667491
 21
3710.328823093849
 31
0.0
  0
LINE
  5
7B38
330
19
100
AcDbEntity
  8
1
100
AcDbLine
 10
6705.105276667492
 20
3500.328823093849
 30
0.0
 11
6705.105276667492
 21
3910.328823093849
 31
0.0
  0
LINE
  5
7B3A
330
19
100
AcDbEntity
  8
1
100
AcDbLine
 10
6045.605276667491
 20
3740.328823093849
 30
0.0
 11
5905.605276667491
 21
3740.328823093849
 31
0.0
  0
LINE
  5
7B3B
330
19
100
AcDbEntity
  8
1
100
AcDbLine
 10
6045.605276667491
 20
3680.328823093849
 30
0.0
 11
5905.605276667491
 21
3680.328823093849
 31
0.0
  0
LINE
  5
7B3E
330
19
100
AcDbEntity
  8
2
100
AcDbLine
 10
5718.237249644761
 20
3710.32882309385
 30
0.0
 11
6705.105276667492
 21
3710.328823093849
 31
0.0
  0
LINE
  5
7B3F
330
19
100
AcDbEntity
  8
1
100
AcDbLine
 10
6004.63724964476
 20
3469.933204501324
 30
0.0
 11
5718.237249644761
 21
3469.933204501324
 31
0.0
  0
LINE
  5
7B40
330
19
100
AcDbEntity
  8
1
100
AcDbLine
 10
5857.237249644761
 20
3449.933204501324
 30
0.0
 11
5857.237249644761
 21
3299.933204501324
 31
0.0
  0
LINE
  5
7B41
330
19
100
AcDbEntity
  8
1
100
AcDbLine
 10
5905.605276667491
 20
3680.328823093849
 30
0.0
 11
5905.605276667491
 21
3740.328823093849
 31
0.0
  0
LINE
  5
7B42
330
19
100
AcDbEntity
  8
1
100
AcDbLine
 10
5954.63724964476
 20
3577.433204501323
 30
0.0
 11
5869.23724964476
 21
3577.433204501323
 31
0.0
  0
LINE
  5
7B43
330
19
100
AcDbEntity
  8
1
100
AcDbLine
 10
5954.637249644759
 20
3842.433204501324
 30
0.0
 11
5869.23724964476
 21
3842.433204501324
 31
0.0
  0
LINE
  5
7B44
330
19
100
AcDbEntity
  8
1
100
AcDbLine
 10
6055.605276667491
 20
3500.328823093849
 30
0.0
 11
6055.605276667491
 21
3710.328823093849
 31
0.0
  0
LINE
  5
7B45
330
19
100
AcDbEntity
  8
1
100
AcDbLine
 10
6004.63724964476
 20
3469.933204501324
 30
0.0
 11
6004.63724964476
 21
3646.254497449125
 31
0.0
  0
LINE
  5
7B46
330
19
100
AcDbEntity
  8
1
100
AcDbLine
 10
6705.105276667492
 20
3500.328823093849
 30
0.0
 11
6331.105276667491
 21
3500.328823093849
 31
0.0
  0
LINE
  5
7B47
330
19
100
AcDbEntity
  8
1
100
AcDbLine
 10
6055.605276667491
 20
3500.328823093849
 30
0.0
 11
6331.105276667491
 21
3500.328823093849
 31
0.0
  0
LINE
  5
7B48
330
19
100
AcDbEntity
  8
1
100
AcDbLine
 10
6238.237249644761
 20
3500.328823093849
 30
0.0
 11
6238.237249644761
 21
3449.933204501324
 31
0.0
  0
LINE
  5
7B49
330
19
100
AcDbEntity
  8
1
100
AcDbLine
 10
6045.605276667491
 20
3742.828823093849
 30
0.0
 11
6045.605276667491
 21
3677.828823093849
 31
0.0
  0
LINE
  5
7B4A
330
19
100
AcDbEntity
  8
1
100
AcDbLine
 10
6045.605276667491
 20
3677.828823093849
 30
0.0
 11
6055.605276667491
 21
3677.828823093849
 31
0.0
  0
LINE
  5
7B4C
330
19
100
AcDbEntity
  8
1
100
AcDbLine
 10
6045.605276667491
 20
3742.828823093849
 30
0.0
 11
6055.605276667491
 21
3742.828823093849
 31
0.0
  0
LINE
  5
7B4D
330
19
100
AcDbEntity
  8
1
100
AcDbLine
 10
5969.23724964476
 20
4459.933204501323
 30
0.0
 11
5954.63724964476
 21
4459.933204501323
 31
0.0
  0
LINE
  5
7B4E
330
19
100
AcDbEntity
  8
1
100
AcDbLine
 10
5954.63724964476
 20
4314.933204501323
 30
0.0
 11
5869.23724964476
 21
4314.933204501323
 31
0.0
  0
LINE
  5
7B4F
330
19
100
AcDbEntity
  8
1
100
AcDbLine
 10
6705.105276667492
 20
3910.328823093848
 30
0.0
 11
6055.605276667491
 21
3910.328823093849
 31
0.0
  0
LINE
  5
7B50
330
19
100
AcDbEntity
  8
1
100
AcDbLine
 10
6035.037249644762
 20
4469.933204501323
 30
0.0
 11
6035.037249644759
 21
4299.933204501323
 31
0.0
  0
LINE
  5
7B51
330
19
100
AcDbEntity
  8
1
100
AcDbLine
 10
6078.437249644761
 20
4299.933204501323
 30
0.0
 11
6238.237249644761
 21
4299.933204501323
 31
0.0
  0
LINE
  5
7B52
330
19
100
AcDbEntity
  8
1
100
AcDbLine
 10
6160.037249644759
 20
4299.933204501323
 30
0.0
 11
6035.037249644759
 21
4299.933204501323
 31
0.0
  0
LINE
  5
7B53
330
19
100
AcDbEntity
  8
1
100
AcDbLine
 10
6078.437249644761
 20
4469.933204501323
 30
0.0
 11
6238.237249644761
 21
4469.933204501323
 31
0.0
  0
LINE
  5
7B54
330
19
100
AcDbEntity
  8
1
100
AcDbLine
 10
6160.037249644759
 20
4469.933204501323
 30
0.0
 11
6035.037249644759
 21
4469.933204501323
 31
0.0
  0
LINE
  5
7B55
330
19
100
AcDbEntity
  8
1
100
AcDbLine
 10
8217.23724964476
 20
3449.933204501324
 30
0.0
 11
8217.23724964476
 21
3299.933204501324
 31
0.0
  0
LINE
  5
7B56
330
19
100
AcDbEntity
  8
1
100
AcDbLine
 10
8143.23724964476
 20
3449.933204501324
 30
0.0
 11
8217.23724964476
 21
3449.933204501324
 31
0.0
  0
LINE
  5
7B58
330
19
100
AcDbEntity
  8
1
100
AcDbLine
 10
8318.437249644759
 20
4469.933204501323
 30
0.0
 11
8318.437249644761
 21
4299.933204501323
 31
0.0
  0
LINE
  5
7B59
330
19
100
AcDbEntity
  8
1
100
AcDbLine
 10
8216.43724964476
 20
4299.933204501323
 30
0.0
 11
8318.437249644761
 21
4299.933204501323
 31
0.0
  0
LINE
  5
7B5A
330
19
100
AcDbEntity
  8
1
100
AcDbLine
 10
8271.437249644758
 20
4299.933204501323
 30
0.0
 11
8138.23724964476
 21
4299.933204501323
 31
0.0
  0
LINE
  5
7B5B
330
19
100
AcDbEntity
  8
1
100
AcDbLine
 10
8318.437249644759
 20
4469.933204501323
 30
0.0
 11
8243.93724964476
 21
4469.933204501323
 31
0.0
  0
LINE
  5
7B5C
330
19
100
AcDbEntity
  8
1
100
AcDbLine
 10
8138.23724964476
 20
4469.933204501323
 30
0.0
 11
8243.93724964476
 21
4469.933204501323
 31
0.0
  0
LINE
  5
7B5D
330
19
100
AcDbEntity
  8
1
100
AcDbLine
 10
8188.23724964476
 20
5463.933204501323
 30
0.0
 11
6188.23724964476
 21
5463.933204501323
 31
0.0
  0
LINE
  5
7B5E
330
19
100
AcDbEntity
  8
1
100
AcDbLine
 10
8188.23724964476
 20
5469.933204501324
 30
0.0
 11
6188.23724964476
 21
5469.933204501323
 31
0.0
  0
LINE
  5
7B5F
330
19
100
AcDbEntity
  8
2
100
AcDbLine
 10
8277.887743700455
 20
4539.933204501322
 30
0.0
 11
5718.237249644761
 21
4539.933204501322
 31
0.0
  0
LINE
  5
7B60
330
19
100
AcDbEntity
  8
1
100
AcDbLine
 10
6238.237249644761
 20
5419.933204501323
 30
0.0
 11
6238.237249644761
 21
4539.933204501322
 31
0.0
  0
LINE
  5
7B61
330
19
100
AcDbEntity
  8
1
100
AcDbLine
 10
6004.63724964476
 20
4919.933204501323
 30
0.0
 11
5718.237249644761
 21
4919.933204501323
 31
0.0
  0
LINE
  5
7B62
330
19
100
AcDbEntity
  8
1
100
AcDbLine
 10
5969.23724964476
 20
4619.933204501323
 30
0.0
 11
5954.637249644762
 21
4619.933204501323
 31
0.0
  0
LINE
  5
7B63
330
19
100
AcDbEntity
  8
1
100
AcDbLine
 10
5954.637249644762
 20
4764.933204501323
 30
0.0
 11
5869.23724964476
 21
4764.933204501323
 31
0.0
  0
LINE
  5
7B64
330
19
100
AcDbEntity
  8
1
100
AcDbLine
 10
6004.63724964476
 20
4693.261497566738
 30
0.0
 11
6004.63724964476
 21
4919.933204501323
 31
0.0
  0
LINE
  5
7B65
330
19
100
AcDbEntity
  8
1
100
AcDbLine
 10
6238.237249644761
 20
4587.433204501323
 30
0.0
 11
5969.23724964476
 21
4587.433204501323
 31
0.0
  0
LINE
  5
7B66
330
19
100
AcDbEntity
  8
1
100
AcDbLine
 10
6238.237249644761
 20
4492.433204501323
 30
0.0
 11
5969.23724964476
 21
4492.433204501323
 31
0.0
  0
LINE
  5
7B67
330
19
100
AcDbEntity
  8
1
100
AcDbLine
 10
6188.23724964476
 20
5469.933204501323
 30
0.0
 11
6188.23724964476
 21
5419.933204501324
 31
0.0
  0
LINE
  5
7B68
330
19
100
AcDbEntity
  8
1
100
AcDbLine
 10
6238.237249644761
 20
5469.933204501323
 30
0.0
 11
6238.237249644761
 21
5419.933204501323
 31
0.0
  0
LINE
  5
7B69
330
19
100
AcDbEntity
  8
1
100
AcDbLine
 10
8138.23724964476
 20
5419.933204501323
 30
0.0
 11
8138.23724964476
 21
4539.933204501322
 31
0.0
  0
LINE
  5
7B6B
330
19
100
AcDbEntity
  8
1
100
AcDbLine
 10
8188.23724964476
 20
5469.933204501323
 30
0.0
 11
8188.23724964476
 21
5419.933204501324
 31
0.0
  0
LINE
  5
7B6C
330
19
100
AcDbEntity
  8
1
100
AcDbLine
 10
8138.23724964476
 20
5469.933204501323
 30
0.0
 11
8138.23724964476
 21
5419.933204501323
 31
0.0
  0
LINE
  5
7B6E
330
19
100
AcDbEntity
  8
1
100
AcDbLine
 10
4828.297113150955
 20
8295.446054598915
 30
0.0
 11
4828.297113150955
 21
7195.446054598915
 31
0.0
  0
LINE
  5
7B70
330
19
100
AcDbEntity
  8
1
100
AcDbLine
 10
4269.297113150955
 20
9476.446054598916
 30
0.0
 11
4269.297113150955
 21
7576.446054598915
 31
0.0
  0
LINE
  5
7B71
330
19
100
AcDbEntity
  8
2
100
AcDbLine
 10
2778.297113150955
 20
9696.132470569489
 30
0.0
 11
2778.297113150955
 21
7056.446054598914
 31
0.0
  0
LINE
  5
7B73
330
19
100
AcDbEntity
  8
1
100
AcDbLine
 10
1775.297113150955
 20
9476.446054598916
 30
0.0
 11
1775.297113150955
 21
7576.446054598915
 31
0.0
  0
LINE
  5
7B74
330
19
100
AcDbEntity
  8
1
100
AcDbLine
 10
2819.297113150955
 20
9476.446054598916
 30
0.0
 11
2819.297113150955
 21
7576.446054598915
 31
0.0
  0
LINE
  5
7B75
330
19
100
AcDbEntity
  8
1
100
AcDbLine
 10
2819.297113150955
 20
9476.446054598916
 30
0.0
 11
4269.297113150955
 21
7576.446054598915
 31
0.0
  0
LINE
  5
7B76
330
19
100
AcDbEntity
  8
1
100
AcDbLine
 10
4269.297113150955
 20
9476.446054598914
 30
0.0
 11
2819.297113150955
 21
7576.446054598915
 31
0.0
  0
LINE
  5
7B78
330
19
100
AcDbEntity
  8
1
100
AcDbLine
 10
4828.297113150955
 20
7195.446054598915
 30
0.0
 11
1928.297113150955
 21
7195.446054598915
 31
0.0
  0
LINE
  5
7B79
330
19
100
AcDbEntity
  8
1
100
AcDbLine
 10
1928.297113150955
 20
7576.446054598914
 30
0.0
 11
1928.297113150955
 21
7195.446054598915
 31
0.0
  0
LINE
  5
7B7B
330
19
100
AcDbEntity
  8
1
100
AcDbLine
 10
4668.297113150955
 20
7342.846054598915
 30
0.0
 11
2389.297113150955
 21
7342.846054598915
 31
0.0
  0
LINE
  5
7B7C
330
19
100
AcDbEntity
  8
1
100
AcDbLine
 10
4668.297113150955
 20
7056.446054598914
 30
0.0
 11
2389.297113150955
 21
7056.446054598914
 31
0.0
  0
LINE
  5
7B7D
330
19
100
AcDbEntity
  8
1
100
AcDbLine
 10
4560.797113150955
 20
7292.846054598915
 30
0.0
 11
2544.297113150955
 21
7292.846054598915
 31
0.0
  0
LINE
  5
7B7E
330
19
100
AcDbEntity
  8
1
100
AcDbLine
 10
4560.797113150955
 20
7207.446054598915
 30
0.0
 11
2544.297113150955
 21
7207.446054598915
 31
0.0
  0
LINE
  5
7B7F
330
19
100
AcDbEntity
  8
1
100
AcDbLine
 10
4269.297113150955
 20
7576.446054598915
 30
0.0
 11
1775.297113150954
 21
7576.446054598915
 31
0.0
  0
LINE
  5
7B81
330
19
100
AcDbEntity
  8
1
100
AcDbLine
 10
2825.797113150955
 20
7576.446054598915
 30
0.0
 11
2825.797113150955
 21
7307.446054598916
 31
0.0
  0
LINE
  5
7B82
330
19
100
AcDbEntity
  8
1
100
AcDbLine
 10
2730.797113150955
 20
7576.446054598915
 30
0.0
 11
2730.797113150955
 21
7307.446054598916
 31
0.0
  0
LINE
  5
7B83
330
19
100
AcDbEntity
  8
1
100
AcDbLine
 10
2858.297113150955
 20
7307.446054598916
 30
0.0
 11
2698.297113150955
 21
7307.446054598916
 31
0.0
  0
LINE
  5
7B84
330
19
100
AcDbEntity
  8
1
100
AcDbLine
 10
2544.297113150955
 20
7292.846054598917
 30
0.0
 11
2544.297113150955
 21
7207.446054598915
 31
0.0
  0
LINE
  5
7B85
330
19
100
AcDbEntity
  8
1
100
AcDbLine
 10
2389.297113150955
 20
7342.846054598915
 30
0.0
 11
2389.297113150955
 21
7056.446054598914
 31
0.0
  0
LINE
  5
7B86
330
19
100
AcDbEntity
  8
1
100
AcDbLine
 10
2698.297113150955
 20
7307.446054598916
 30
0.0
 11
2698.297113150955
 21
7292.846054598917
 31
0.0
  0
LINE
  5
7B87
330
19
100
AcDbEntity
  8
1
100
AcDbLine
 10
2994.297113150955
 20
7292.846054598915
 30
0.0
 11
2994.297113150955
 21
7207.446054598915
 31
0.0
  0
LINE
  5
7B88
330
19
100
AcDbEntity
  8
1
100
AcDbLine
 10
2858.297113150955
 20
7307.446054598916
 30
0.0
 11
2858.297113150955
 21
7292.846054598915
 31
0.0
  0
LINE
  5
7B89
330
19
100
AcDbEntity
  8
1
100
AcDbLine
 10
4638.297113150954
 20
7400.146054598915
 30
0.0
 11
4638.297113150954
 21
7675.646054598916
 31
0.0
  0
LINE
  5
7B8B
330
19
100
AcDbEntity
  8
2
100
AcDbLine
 10
4428.297113150954
 20
8049.646054598914
 30
0.0
 11
4428.297113150954
 21
7056.446054598914
 31
0.0
  0
LINE
  5
7B8D
330
19
100
AcDbEntity
  8
1
100
AcDbLine
 10
4458.297113150955
 20
7390.146054598915
 30
0.0
 11
4458.297113150955
 21
7250.146054598914
 31
0.0
  0
LINE
  5
7B8E
330
19
100
AcDbEntity
  8
1
100
AcDbLine
 10
4398.297113150955
 20
7390.146054598915
 30
0.0
 11
4398.297113150955
 21
7250.146054598914
 31
0.0
  0
LINE
  5
7B8F
330
19
100
AcDbEntity
  8
1
100
AcDbLine
 10
4668.297113150955
 20
7342.846054598915
 30
0.0
 11
4668.297113150955
 21
7056.446054598914
 31
0.0
  0
LINE
  5
7B90
330
19
100
AcDbEntity
  8
1
100
AcDbLine
 10
4560.797113150955
 20
7292.846054598915
 30
0.0
 11
4560.797113150955
 21
7207.446054598915
 31
0.0
  0
LINE
  5
7B91
330
19
100
AcDbEntity
  8
1
100
AcDbLine
 10
4295.797113150955
 20
7292.846054598915
 30
0.0
 11
4295.797113150955
 21
7207.446054598915
 31
0.0
  0
LINE
  5
7B92
330
19
100
AcDbEntity
  8
1
100
AcDbLine
 10
4458.297113150955
 20
7250.146054598914
 30
0.0
 11
4398.297113150955
 21
7250.146054598914
 31
0.0
  0
LINE
  5
7B93
330
19
100
AcDbEntity
  8
1
100
AcDbLine
 10
4228.297113150953
 20
7576.446054598915
 30
0.0
 11
4228.297113150954
 21
7400.146054598915
 31
0.0
  0
LINE
  5
7B94
330
19
100
AcDbEntity
  8
1
100
AcDbLine
 10
4638.297113150954
 20
7400.146054598915
 30
0.0
 11
4428.297113150954
 21
7400.146054598915
 31
0.0
  0
LINE
  5
7B95
330
19
100
AcDbEntity
  8
1
100
AcDbLine
 10
4460.797113150955
 20
7390.146054598915
 30
0.0
 11
4460.797113150955
 21
7400.146054598915
 31
0.0
  0
LINE
  5
7B97
330
19
100
AcDbEntity
  8
1
100
AcDbLine
 10
4395.797113150955
 20
7390.146054598915
 30
0.0
 11
4395.797113150955
 21
7400.146054598915
 31
0.0
  0
LINE
  5
7B98
330
19
100
AcDbEntity
  8
1
100
AcDbLine
 10
4395.797113150955
 20
7390.146054598915
 30
0.0
 11
4460.797113150955
 21
7390.146054598915
 31
0.0
  0
LINE
  5
7B99
330
19
100
AcDbEntity
  8
1
100
AcDbLine
 10
4228.297113150954
 20
7400.146054598915
 30
0.0
 11
4428.297113150954
 21
7400.146054598915
 31
0.0
  0
LINE
  5
7B9A
330
19
100
AcDbEntity
  8
1
100
AcDbLine
 10
4638.297113150954
 20
8049.646054598914
 30
0.0
 11
4638.297113150954
 21
7675.646054598916
 31
0.0
  0
LINE
  5
7B9B
330
19
100
AcDbEntity
  8
1
100
AcDbLine
 10
4638.297113150954
 20
8049.646054598914
 30
0.0
 11
4269.297113150956
 21
8049.646054598914
 31
0.0
  0
LINE
  5
7B9D
330
19
100
AcDbEntity
  8
2
100
AcDbLine
 10
4269.297113150955
 20
8526.446054598913
 30
0.0
 11
1717.77597923834
 21
8526.446054598915
 31
0.0
  0
LINE
  5
7B9E
330
19
100
AcDbEntity
  8
1
100
AcDbLine
 10
3628.297113150955
 20
9555.446054598915
 30
0.0
 11
1928.297113150955
 21
9555.446054598915
 31
0.0
  0
LINE
  5
7B9F
330
19
100
AcDbEntity
  8
1
100
AcDbLine
 10
1928.297113150955
 20
9555.446054598915
 30
0.0
 11
1928.297113150955
 21
9476.446054598916
 31
0.0
  0
LINE
  5
7BA0
330
19
100
AcDbEntity
  8
1
100
AcDbLine
 10
4828.297113150955
 20
8295.446054598915
 30
0.0
 11
4269.297113150955
 21
8295.446054598915
 31
0.0
  0
LINE
  5
7BA1
330
19
100
AcDbEntity
  8
1
100
AcDbLine
 10
4269.297113150955
 20
9476.446054598914
 30
0.0
 11
1775.297113150954
 21
9476.446054598916
 31
0.0
  0
LINE
  5
7BA3
330
19
100
AcDbEntity
  8
1
100
AcDbLine
 10
3628.297113150955
 20
9555.446054598915
 30
0.0
 11
3628.297113150955
 21
9476.446054598914
 31
0.0
  0
DIMENSION
  5
7BB6
330
19
100
AcDbEntity
  8
3
100
AcDbDimension
280
     0
  2
*D1
 10
8627.242078195356
 20
3839.933204501323
 30
0.0
 11
8627.242078195356
 21
4479.787853347846
 31
0.0
 70
   160
 71
     5
 42
-1.0
 73
     0
 74
     0
 75
     0
  3
IGA
100
AcDbAlignedDimension
 13
8138.23724964476
 23
5239.933204501324
 33
0.0
 14
8138.23724964476
 24
3839.933204501323
 34
0.0
 50
90.0
100
AcDbRotatedDimension
1001
ACAD
1000
DSTYLE
1002
{
1070
   287
1070
     3
1070
     3
1000
φ<>
1070
    40
1040
45.0
1070
   143
1040
0.039
1070
   172
1070
     1
1070
   271
1070
     0
1070
   279
1070
     0
1070
   288
1070
     1
1002
}
  0
DIMENSION
  5
7BD9
330
19
100
AcDbEntity
  8
3
100
AcDbDimension
280
     0
  2
*D2
 10
8138.23724964476
 20
5600.852992274104
 30
0.0
 11
7195.614020192799
 21
5600.852992274104
 31
0.0
 70
   160
 71
     5
 42
-1.0
 73
     0
 74
     0
 75
     0
  3
IGA
100
AcDbAlignedDimension
 13
6238.237249644761
 23
5463.933204501323
 33
0.0
 14
8138.23724964476
 24
5419.933204501323
 34
0.0
100
AcDbRotatedDimension
1001
ACAD
1000
DSTYLE
1002
{
1070
   287
1070
     3
1070
    40
1040
45.0
1070
   143
1040
0.039
1070
   172
1070
     1
1070
   271
1070
     0
1070
   279
1070
     0
1070
   288
1070
     1
1002
}
  0
DIMENSION
  5
7BE6
330
19
100
AcDbEntity
  8
3
100
AcDbDimension
280
     0
  2
*D3
 10
7188.23724964476
 20
5921.871174271892
 30
0.0
 11
7742.663955301302
 21
5921.871174271892
 31
0.0
 70
   160
  1
(<>)
 71
     5
 42
1130.199999999999
 73
     0
 74
     0
 75
     0
  3
IGA
100
AcDbAlignedDimension
 13
8318.437249644759
 23
4469.933204501323
 33
0.0
 14
7188.23724964476
 24
5791.960174866144
 34
0.0
100
AcDbRotatedDimension
1001
ACAD
1000
DSTYLE
1002
{
1070
   287
1070
     3
1070
    40
1040
45.0
1070
   143
1040
0.039
1070
   172
1070
     1
1070
   271
1070
     0
1070
   279
1070
     0
1070
   288
1070
     1
1002
}
  0
DIMENSION
  5
7BFD
330
19
100
AcDbEntity
  8
3
100
AcDbDimension
280
     0
  2
*D4
 10
5718.237249644761
 20
5921.871174271892
 30
0.0
 11
6453.237249644761
 21
6069.728317129034
 31
0.0
 70
    32
  1
(<>)
 71
     5
 42
1470.0
 73
     0
 74
     0
 75
     0
  3
IGA
100
AcDbAlignedDimension
 13
7188.23724964476
 23
5791.960174866144
 33
0.0
 14
5718.237249644761
 24
4919.933204501323
 34
0.0
100
AcDbRotatedDimension
1001
ACAD
1000
DSTYLE
1002
{
1070
   287
1070
     4
1070
    40
1040
45.0
1070
    75
1070
     1
1070
   143
1040
0.039
1070
   172
1070
     1
1070
   271
1070
     0
1070
   279
1070
     1
1070
   288
1070
     1
1002
}
  0
DIMENSION
  5
7C5C
330
19
100
AcDbEntity
  8
3
100
AcDbDimension
280
     0
  2
*D5
 10
1445.645523461928
 20
4539.933204501322
 30
0.0
 11
1445.645523461928
 21
5030.240085713359
 31
0.0
 70
   160
 71
     5
 42
-1.0
 73
     0
 74
     0
 75
     0
  3
IGA
100
AcDbAlignedDimension
 13
2778.297113150955
 23
5469.933204501323
 33
0.0
 14
1608.009265819164
 24
4539.933204501322
 34
0.0
 50
90.0
100
AcDbRotatedDimension
1001
ACAD
1000
DSTYLE
1002
{
1070
   287
1070
     3
1070
    40
1040
45.0
1070
   143
1040
0.039
1070
   172
1070
     1
1070
   271
1070
     0
1070
   279
1070
     0
1070
   288
1070
     1
1002
}
  0
DIMENSION
  5
7C68
330
19
100
AcDbEntity
  8
3
100
AcDbDimension
280
     0
  2
*D6
 10
1445.645523461928
 20
3299.933204501324
 30
0.0
 11
1333.145523461927
 21
3919.933204501324
 31
0.0
 70
    32
 71
     5
 42
-1.0
 73
     0
 74
     0
 75
     0
  3
IGA
100
AcDbAlignedDimension
 13
1608.009265819164
 23
4539.933204501322
 33
0.0
 14
1928.297113150955
 24
3299.933204501324
 34
0.0
 50
90.0
100
AcDbRotatedDimension
1001
ACAD
1000
DSTYLE
1002
{
1070
   287
1070
     4
1070
    40
1040
45.0
1070
    75
1070
     1
1070
   143
1040
0.039
1070
   172
1070
     1
1070
   271
1070
     0
1070
   279
1070
     1
1070
   288
1070
     1
1002
}
  0
DIMENSION
  5
7C88
330
19
100
AcDbEntity
  8
3
100
AcDbDimension
280
     0
  2
*D7
 10
1445.645523461928
 20
3119.933204501324
 30
0.0
 11
1333.145523461927
 21
2785.64749021561
 31
0.0
 70
    32
 71
     5
 42
75.0
 73
     0
 74
     0
 75
     0
  3
IGA
100
AcDbAlignedDimension
 13
1928.297113150955
 23
3194.933204501324
 33
0.0
 14
1928.297113150955
 24
3119.933204501324
 34
0.0
 50
90.0
100
AcDbRotatedDimension
1001
ACAD
1000
DSTYLE
1002
{
1070
   287
1070
     3
1070
    40
1040
45.0
1070
   143
1040
0.039
1070
   172
1070
     1
1070
   271
1070
     0
1070
   279
1070
     0
1070
   288
1070
     1
1070
     6
1000
DOT
1002
}
  0
DIMENSION
  5
7D3E
330
19
100
AcDbEntity
  8
3
100
AcDbDimension
280
     0
  2
*D9
 10
2819.297113150955
 20
5770.638602985429
 30
0.0
 11
3549.099905223724
 21
5770.638602985429
 31
0.0
 70
   160
 71
     5
 42
-1.0
 73
     0
 74
     0
 75
     0
  3
IGA
100
AcDbAlignedDimension
 13
4269.297113150955
 23
5469.933204501323
 33
0.0
 14
2819.297113150955
 24
5469.933204501323
 34
0.0
100
AcDbRotatedDimension
1001
ACAD
1000
DSTYLE
1002
{
1070
   287
1070
     3
1070
    40
1040
45.0
1070
   143
1040
0.039
1070
   172
1070
     1
1070
   271
1070
     0
1070
   279
1070
     0
1070
   288
1070
     1
1002
}
  0
DIMENSION
  5
7D4B
330
19
100
AcDbEntity
  8
3
100
AcDbDimension
280
     0
  2
*D10
 10
2778.297113150955
 20
6034.296173989351
 30
0.0
 11
3563.759683896176
 21
6034.296173989351
 31
0.0
 70
   160
 71
     5
 42
-1.0
 73
     0
 74
     0
 75
     0
  3
IGA
100
AcDbAlignedDimension
 13
4269.297113150955
 23
5469.933204501323
 33
0.0
 14
2778.297113150955
 24
5557.927962352408
 34
0.0
100
AcDbRotatedDimension
1001
ACAD
1000
DSTYLE
1002
{
1070
   287
1070
     3
1070
    40
1040
45.0
1070
   143
1040
0.039
1070
   172
1070
     1
1070
   271
1070
     0
1070
   279
1070
     0
1070
   288
1070
     1
1002
}
  0
DIMENSION
  5
7D57
330
19
100
AcDbEntity
  8
3
100
AcDbDimension
280
     0
  2
*D11
 10
1775.297113150955
 20
6034.296173989351
 30
0.0
 11
2276.797113150955
 21
6146.796173989351
 31
0.0
 70
    32
 71
     5
 42
-1.0
 73
     0
 74
     0
 75
     0
  3
IGA
100
AcDbAlignedDimension
 13
2778.297113150955
 23
5557.927962352408
 33
0.0
 14
1775.297113150955
 24
4454.433204501323
 34
0.0
100
AcDbRotatedDimension
1001
ACAD
1000
DSTYLE
1002
{
1070
   287
1070
     4
1070
    40
1040
45.0
1070
    75
1070
     1
1070
   143
1040
0.039
1070
   172
1070
     1
1070
   271
1070
     0
1070
   279
1070
     1
1070
   288
1070
     1
1002
}
  0
DIMENSION
  5
7D64
330
19
100
AcDbEntity
  8
3
100
AcDbDimension
280
     0
  2
*D12
 10
4828.297113150955
 20
6323.298802906226
 30
0.0
 11
3236.32455118365
 21
6323.298802906226
 31
0.0
 70
   160
 71
     5
 42
-1.0
 73
     0
 74
     0
 75
     0
  3
IGA
100
AcDbAlignedDimension
 13
1775.297113150955
 23
4476.933204501324
 33
0.0
 14
4828.297113150955
 24
3449.933204501324
 34
0.0
100
AcDbRotatedDimension
1001
ACAD
1000
DSTYLE
1002
{
1070
   287
1070
     3
1070
    40
1040
45.0
1070
   143
1040
0.039
1070
   172
1070
     1
1070
   271
1070
     0
1070
   279
1070
     0
1070
   288
1070
     1
1002
}
  0
DIMENSION
  5
7D71
330
19
100
AcDbEntity
  8
3
100
AcDbDimension
280
     0
  2
*D13
 10
1529.300229237511
 20
7195.446054598915
 30
0.0
 11
1529.300229237509
 21
8366.458639966054
 31
0.0
 70
   160
 71
     5
 42
-1.0
 73
     0
 74
     0
 75
     0
  3
IGA
100
AcDbAlignedDimension
 13
1928.297113150955
 23
9555.446054598915
 33
0.0
 14
1928.297113150955
 24
7195.446054598915
 34
0.0
 50
90.0
100
AcDbRotatedDimension
1001
ACAD
1000
DSTYLE
1002
{
1070
   287
1070
     3
1070
    40
1040
45.0
1070
   143
1040
0.039
1070
   172
1070
     1
1070
   271
1070
     0
1070
   279
1070
     0
1070
   288
1070
     1
1002
}
  0
DIMENSION
  5
7D7E
330
19
100
AcDbEntity
  8
3
100
AcDbDimension
280
     0
  2
*D14
 10
4828.297113150955
 20
6814.612581635228
 30
0.0
 11
3277.854647633191
 21
6814.612581635228
 31
0.0
 70
   160
 71
     5
 42
-1.0
 73
     0
 74
     0
 75
     0
  3
IGA
100
AcDbAlignedDimension
 13
1928.297113150955
 23
7195.446054598915
 33
0.0
 14
4828.297113150955
 24
7195.446054598915
 34
0.0
100
AcDbRotatedDimension
1001
ACAD
1000
DSTYLE
1002
{
1070
   287
1070
     3
1070
    40
1040
45.0
1070
   143
1040
0.039
1070
   172
1070
     1
1070
   271
1070
     0
1070
   279
1070
     0
1070
   288
1070
     1
1002
}
  0
DIMENSION
  5
7D8B
330
19
100
AcDbEntity
  8
3
100
AcDbDimension
280
     0
  2
*D15
 10
5304.120617928791
 20
8295.446054598915
 30
0.0
 11
5304.120617928791
 21
7718.999691342702
 31
0.0
 70
   160
 71
     5
 42
-1.0
 73
     0
 74
     0
 75
     0
  3
IGA
100
AcDbAlignedDimension
 13
4828.297113150955
 23
7195.446054598915
 33
0.0
 14
4828.297113150955
 24
8295.446054598915
 34
0.0
 50
90.0
100
AcDbRotatedDimension
1001
ACAD
1000
DSTYLE
1002
{
1070
   287
1070
     3
1070
    40
1040
45.0
1070
   143
1040
0.039
1070
   172
1070
     1
1070
   271
1070
     0
1070
   279
1070
     0
1070
   288
1070
     1
1002
}
  0
DIMENSION
  5
7D99
330
19
100
AcDbEntity
  8
3
100
AcDbDimension
280
     0
  2
*D16
 10
3628.297113150955
 20
9877.196207359389
 30
0.0
 11
2784.145121652706
 21
9877.196207359389
 31
0.0
 70
   160
 71
     5
 42
-1.0
 73
     0
 74
     0
 75
     0
  3
IGA
100
AcDbAlignedDimension
 13
1928.297113150955
 23
9555.446054598915
 33
0.0
 14
3628.297113150955
 24
9555.446054598915
 34
0.0
100
AcDbRotatedDimension
1001
ACAD
1000
DSTYLE
1002
{
1070
   287
1070
     3
1070
    40
1040
45.0
1070
   143
1040
0.039
1070
   172
1070
     1
1070
   271
1070
     0
1070
   279
1070
     0
1070
   288
1070
     1
1002
}
  0
DIMENSION
  5
7DA5
330
19
100
AcDbEntity
  8
3
100
AcDbDimension
280
     0
  2
*D17
 10
4828.297113150955
 20
9877.196207359389
 30
0.0
 11
4228.297113150954
 21
9989.69620735939
 31
0.0
 70
    32
 71
     5
 42
-1.0
 73
     0
 74
     0
 75
     0
  3
IGA
100
AcDbAlignedDimension
 13
3628.297113150955
 23
9555.446054598915
 33
0.0
 14
4828.297113150955
 24
8295.446054598915
 34
0.0
100
AcDbRotatedDimension
1001
ACAD
1000
DSTYLE
1002
{
1070
   287
1070
     4
1070
    40
1040
45.0
1070
    75
1070
     1
1070
   143
1040
0.039
1070
   172
1070
     1
1070
   271
1070
     0
1070
   279
1070
     1
1070
   288
1070
     1
1002
}
  0
LINE
  5
7DA6
330
19
100
AcDbEntity
  8
4
100
AcDbLine
 10
8325.0
 20
1815.173430021546
 30
0.0
 11
8325.0
 21
915.1734300215466
 31
0.0
  0
LINE
  5
7DA7
330
19
100
AcDbEntity
  8
4
100
AcDbLine
 10
5175.0
 20
1815.173430021546
 30
0.0
 11
5175.0
 21
915.1734300215466
 31
0.0
  0
LINE
  5
7DA8
330
19
100
AcDbEntity
  8
4
100
AcDbLine
 10
2925.0
 20
1815.173430021546
 30
0.0
 11
2925.0
 21
915.1734300215466
 31
0.0
  0
LINE
  5
7DAB
330
19
100
AcDbEntity
  8
4
100
AcDbLine
 10
2925.0
 20
915.1734300215466
 30
0.0
 11
8325.0
 21
915.1734300215466
 31
0.0
  0
LINE
  5
7DAC
330
19
100
AcDbEntity
  8
4
100
AcDbLine
 10
2925.0
 20
1365.173430021547
 30
0.0
 11
8325.0
 21
1365.173430021547
 31
0.0
  0
TEXT
  5
7DAD
330
19
100
AcDbEntity
  8
4
100
AcDbText
 10
3098.259363811058
 20
1507.117046421305
 30
0.0
 40
225.0
  1
機器名称
100
AcDbText
  0
TEXT
  5
7DAE
330
19
100
AcDbEntity
  8
4
100
AcDbText
 10
3088.161477111589
 20
1012.576635315596
 30
0.0
 40
225.0
  1
機器型番
100
AcDbText
  0
TEXT
  5
7DAF
330
19
100
AcDbEntity
  8
4
100
AcDbText
 10
5304.530570434284
 20
1474.11029734296
 30
0.0
 40
191.25
  1
ミツヤリミットロードファン
100
AcDbText
  0
TEXT
  5
7DB0
330
19
100
AcDbEntity
  8
4
100
AcDbText
 10
5339.945230134663
 20
992.3915592812917
 30
0.0
 40
225.0
  1
LL#9-5
100
AcDbText
  0
TEXT
  5
7DB2
330
19
100
AcDbEntity
  8
4
100
AcDbText
 10
3678.460096728246
 20
10725.42978599632
 30
0.0
 40
243.0
  1
床置防振ベット
100
AcDbText
  0
TEXT
  5
7DB3
330
19
100
AcDbEntity
  8
4
100
AcDbText
 10
1265.523862720598
 20
11402.46439289684
 30
0.0
 40
324.0
  1
遠心式両吸込両持リミットロードファン
100
AcDbText
  0
LINE
  5
7DB4
330
19
100
AcDbEntity
  8
4
100
AcDbLine
 10
1125.0
 20
11112.33939419162
 30
0.0
 11
8325.0
 21
11112.33939419162
 31
0.0
  0
LINE
  5
7DB5
330
19
100
AcDbEntity
  8
4
100
AcDbLine
 10
1125.0
 20
12012.33939419162
 30
0.0
 11
8325.0
 21
12012.33939419162
 31
0.0
  0
LINE
  5
7DB6
330
19
100
AcDbEntity
  8
4
100
AcDbLine
 10
2925.0
 20
1815.173430021546
 30
0.0
 11
8325.0
 21
1815.173430021546
 31
0.0
  0
LINE
  5
7DB7
330
19
100
AcDbEntity
  8
4
100
AcDbLine
 10
1125.0
 20
12012.33939419162
 30
0.0
 11
1125.0
 21
11112.33939419162
 31
0.0
  0
TEXT
  5
7DB8
330
19
100
AcDbEntity
  8
4
100
AcDbText
 10
1717.095351636086
 20
10720.43764895854
 30
0.0
 40
243.0
  1
左回転上向
100
AcDbText
  0
TEXT
  5
7DB9
330
19
100
AcDbEntity
  8
4
100
AcDbText
 10
6610.363016621803
 20
12177.27486672889
 30
0.0
 40
252.0
  1
No.
100
AcDbText
  0
TEXT
  5
7DBA
330
19
100
AcDbEntity
  8
4
100
AcDbText
 10
5900.832281700059
 20
10725.42978599632
 30
0.0
 40
243.0
  1
縮尺：1/45
100
AcDbText
  0
LINE
  5
7DBB
330
19
100
AcDbEntity
  8
4
100
AcDbLine
 10
8325.0
 20
12012.33939419162
 30
0.0
 11
8325.0
 21
11112.33939419162
 31
0.0
  0
LINE
  5
7DBC
330
19
100
AcDbEntity
  8
4
100
AcDbLine
 10
9450.0
 20
13275.0
 30
0.0
 11
9450.0
 21
13275.0
 31
0.0
  0
LINE
  5
7DBD
330
19
100
AcDbEntity
  8
4
100
AcDbLine
 10
6482.778400619391
 20
12065.6861240643
 30
0.0
 11
6482.778400619391
 21
12539.93517697388
 31
0.0
  0
LINE
  5
7DBE
330
19
100
AcDbEntity
  8
4
100
AcDbLine
 10
6482.778400619391
 20
12539.93517697388
 30
0.0
 11
8325.0
 21
12539.93517697388
 31
0.0
  0
LINE
  5
7DBF
330
19
100
AcDbEntity
  8
4
100
AcDbLine
 10
8325.0
 20
12539.93517697388
 30
0.0
 11
8325.0
 21
12065.6861240643
 31
0.0
  0
LINE
  5
7DC0
330
19
100
AcDbEntity
  8
4
100
AcDbLine
 10
8325.0
 20
12065.6861240643
 30
0.0
 11
6482.778400619391
 21
12065.6861240643
 31
0.0
  0
LINE
  5
7DC1
330
19
100
AcDbEntity
  8
4
100
AcDbLine
 10
0.0
 20
0.0
 30
0.0
 11
0.0
 21
13275.0
 31
0.0
  0
LINE
  5
7DC2
330
19
100
AcDbEntity
  8
4
100
AcDbLine
 10
0.0
 20
13275.0
 30
0.0
 11
9450.0
 21
13275.0
 31
0.0
  0
LINE
  5
7DC3
330
19
100
AcDbEntity
  8
4
100
AcDbLine
 10
9450.0
 20
13275.0
 30
0.0
 11
9450.0
 21
0.0
 31
0.0
  0
LINE
  5
7DC4
330
19
100
AcDbEntity
  8
4
100
AcDbLine
 10
9450.0
 20
0.0
 30
0.0
 11
0.0
 21
0.0
 31
0.0
  0
LINE
  5
7DCE
330
19
100
AcDbEntity
  8
1
100
AcDbLine
 10
8188.23724964476
 20
5419.933204501324
 30
0.0
 11
6188.23724964476
 21
5419.933204501323
 31
0.0
  0
DIMENSION
  5
7DF6
330
19
100
AcDbEntity
  8
3
100
AcDbDimension
280
     0
  2
*D18
 10
2778.297113150955
 20
2839.54517137332
 30
0.0
 11
2353.297113150955
 21
2952.04517137332
 31
0.0
 70
    32
 71
     5
 42
850.0
 73
     0
 74
     0
 75
     0
  3
IGA
100
AcDbAlignedDimension
 13
1928.297113150955
 23
3119.933204501324
 33
0.0
 14
2778.297113150955
 24
3119.933204501324
 34
0.0
100
AcDbRotatedDimension
1001
ACAD
1000
DSTYLE
1002
{
1070
   172
1070
     1
1070
    40
1040
45.0
1070
   271
1070
     0
1070
   143
1040
0.039
1002
}
  0
DIMENSION
  5
7E03
330
19
100
AcDbEntity
  8
3
100
AcDbDimension
280
     0
  2
*D19
 10
4828.297113150955
 20
2839.54517137332
 30
0.0
 11
3803.297113150955
 21
2952.04517137332
 31
0.0
 70
    32
 71
     5
 42
2050.0
 73
     0
 74
     0
 75
     0
  3
IGA
100
AcDbAlignedDimension
 13
2778.297113150955
 23
3119.933204501324
 33
0.0
 14
4828.297113150955
 24
3119.933204501324
 34
0.0
100
AcDbRotatedDimension
1001
ACAD
1000
DSTYLE
1002
{
1070
   172
1070
     1
1070
    40
1040
45.0
1070
   271
1070
     0
1070
   143
1040
0.039
1002
}
  0
DIMENSION
  5
7E10
330
19
100
AcDbEntity
  8
3
100
AcDbDimension
280
     0
  2
*D20
 10
7188.23724964476
 20
2839.54517137332
 30
0.0
 11
6522.73724964476
 21
2952.04517137332
 31
0.0
 70
    32
 71
     5
 42
1331.0
 73
     0
 74
     0
 75
     0
  3
IGA
100
AcDbAlignedDimension
 13
5857.237249644761
 23
3119.933204501324
 33
0.0
 14
7188.23724964476
 24
3119.933204501324
 34
0.0
100
AcDbRotatedDimension
1001
ACAD
1000
DSTYLE
1002
{
1070
   172
1070
     1
1070
    40
1040
45.0
1070
   271
1070
     0
1070
   143
1040
0.039
1002
}
  0
DIMENSION
  5
7E1D
330
19
100
AcDbEntity
  8
3
100
AcDbDimension
280
     0
  2
*D21
 10
8217.23724964476
 20
2839.54517137332
 30
0.0
 11
7702.737249644761
 21
2952.04517137332
 31
0.0
 70
    32
 71
     5
 42
1029.0
 73
     0
 74
     0
 75
     0
  3
IGA
100
AcDbAlignedDimension
 13
7188.23724964476
 23
3119.933204501324
 33
0.0
 14
8217.23724964476
 24
3119.933204501324
 34
0.0
100
AcDbRotatedDimension
1001
ACAD
1000
DSTYLE
1002
{
1070
   172
1070
     1
1070
    40
1040
45.0
1070
   271
1070
     0
1070
   143
1040
0.039
1002
}
  0
DIMENSION
  5
7E4E
330
19
100
AcDbEntity
  8
3
100
AcDbDimension
280
     0
  2
*D23
 10
1445.710792476253
 20
3299.933204501324
 30
0.0
 11
1230.35364961911
 21
3247.433204501324
 31
0.0
 70
    32
  1
   <>
 71
     5
 42
105.0
 73
     0
 74
     0
 75
     0
  3
IGA
100
AcDbAlignedDimension
 13
1928.297113150955
 23
3194.933204501324
 33
0.0
 14
1928.297113150955
 24
3299.933204501324
 34
0.0
 50
90.0
100
AcDbRotatedDimension
1001
ACAD
1000
DSTYLE
1002
{
1070
   172
1070
     1
1070
    76
1070
     1
1070
    75
1070
     1
1070
    40
1040
45.0
1070
     3
1000
(<>)
1070
   271
1070
     0
1070
     7
1000
_NONE
1070
     6
1000
_NONE
1070
   143
1040
0.039
1002
}
  0
DIMENSION
  5
7E5B
330
19
100
AcDbEntity
  8
3
100
AcDbDimension
280
     0
  2
*D24
 10
1036.378000494595
 20
5469.933204501324
 30
0.0
 11
888.5208576374509
 21
4294.933204501324
 31
0.0
 70
    32
 71
     5
 42
2350.0
 73
     0
 74
     0
 75
     0
  3
IGA
100
AcDbAlignedDimension
 13
1928.297113150955
 23
3119.933204501324
 33
0.0
 14
2765.297113150955
 24
5469.933204501323
 34
0.0
 50
90.0
100
AcDbRotatedDimension
1001
ACAD
1000
DSTYLE
1002
{
1070
   172
1070
     1
1070
    40
1040
45.0
1070
     3
1000
(<>)
1070
   271
1070
     0
1070
   143
1040
0.039
1002
}
  0
ENDSEC
  0
SECTION
  2
OBJECTS
  0
DICTIONARY
  5
C
330
0
100
AcDbDictionary
281
     1
  3
ACAD_CIP_PREVIOUS_PRODUCT_INFO
350
7FB4
  3
ACAD_COLOR
350
7F97
  3
ACAD_DETAILVIEWSTYLE
350
7FB0
  3
ACAD_GROUP
350
D
  3
ACAD_LAYOUT
350
7E96
  3
ACAD_MATERIAL
350
7F65
  3
ACAD_MLEADERSTYLE
350
7FAC
  3
ACAD_MLINESTYLE
350
E
  3
ACAD_PLOTSETTINGS
350
7E97
  3
ACAD_PLOTSTYLENAME
350
7E94
  3
ACAD_SCALELIST
350
7F9A
  3
ACAD_SECTIONVIEWSTYLE
350
7FAE
  3
ACAD_TABLESTYLE
350
7F98
  3
ACAD_VISUALSTYLE
350
7F7E
  3
ACDB_RECOMPOSE_DATA
350
8048
  3
AcDbVariableDictionary
350
7F5C
  3
AcDsDecomposeData
350
804E
  0
DICTIONARY
  5
802C
330
2
100
AcDbDictionary
280
     1
281
     1
  3
ACAD_LAYERSTATES
360
802D
  0
DICTIONARY
  5
801F
330
F
100
AcDbDictionary
280
     1
281
     1
  3
ADSK_XREC_LAYER_RECONCILED
360
8020
  0
DICTIONARY
  5
8021
330
31
100
AcDbDictionary
280
     1
281
     1
  3
ADSK_XREC_LAYER_RECONCILED
360
8022
  0
DICTIONARY
  5
8023
330
76D0
100
AcDbDictionary
280
     1
281
     1
  3
ADSK_XREC_LAYER_RECONCILED
360
8024
  0
DICTIONARY
  5
8025
330
76D1
100
AcDbDictionary
280
     1
281
     1
  3
ADSK_XREC_LAYER_RECONCILED
360
8026
  0
DICTIONARY
  5
8027
330
76D2
100
AcDbDictionary
280
     1
281
     1
  3
ADSK_XREC_LAYER_RECONCILED
360
8028
  0
DICTIONARY
  5
7EC3
330
19
100
AcDbDictionary
280
     1
281
     1
  3
ACAD_LAYOUTSELFREF
360
7EC4
  0
DICTIONARY
  5
7EC1
330
16
100
AcDbDictionary
280
     1
281
     1
  3
ACAD_LAYOUTSELFREF
360
7EC2
  0
XRECORD
  5
7FB4
102
{ACAD_REACTORS
330
C
102
}
330
C
100
AcDbXrecord
280
     1
300
ACDLT
300
2023
300

  0
DICTIONARY
  5
7F97
102
{ACAD_REACTORS
330
C
102
}
330
C
100
AcDbDictionary
281
     1
  0
DICTIONARY
  5
7FB0
102
{ACAD_REACTORS
330
C
102
}
330
C
100
AcDbDictionary
281
     1
  3
Metric50
350
7FB1
  0
DICTIONARY
  5
D
102
{ACAD_REACTORS
330
C
102
}
330
C
100
AcDbDictionary
281
     1
  0
DICTIONARY
  5
7E96
102
{ACAD_REACTORS
330
C
102
}
330
C
100
AcDbDictionary
281
     1
  3
Model
350
7E98
  3
ﾚｲｱｳﾄ1
350
7E99
  0
DICTIONARY
  5
7F65
102
{ACAD_REACTORS
330
C
102
}
330
C
100
AcDbDictionary
281
     1
  3
ByBlock
350
7F6E
  3
ByLayer
350
7F66
  3
Global
350
7F76
  0
DICTIONARY
  5
7FAC
102
{ACAD_REACTORS
330
C
102
}
330
C
100
AcDbDictionary
281
     1
  3
Standard
350
7FAD
  0
DICTIONARY
  5
E
102
{ACAD_REACTORS
330
C
102
}
330
C
100
AcDbDictionary
281
     1
  3
STANDARD
350
1C
  0
DICTIONARY
  5
7E97
102
{ACAD_REACTORS
330
C
102
}
330
C
100
AcDbDictionary
281
     1
  0
ACDBDICTIONARYWDFLT
  5
7E94
102
{ACAD_REACTORS
330
C
102
}
330
C
100
AcDbDictionary
281
     1
  3
Normal
350
7E95
100
AcDbDictionaryWithDefault
340
7E95
  0
DICTIONARY
  5
7F9A
102
{ACAD_REACTORS
330
C
102
}
330
C
100
AcDbDictionary
281
     1
  3
A0
350
7F9B
  3
A1
350
7F9C
  3
A2
350
7F9D
  3
A3
350
7F9E
  3
A4
350
7F9F
  3
A5
350
7FA0
  3
A6
350
7FA1
  3
A7
350
7FA2
  3
A8
350
7FA3
  3
A9
350
7FA4
  3
B0
350
7FA5
  3
B1
350
7FA6
  3
B2
350
7FA7
  3
B3
350
7FA8
  3
B4
350
7FA9
  3
B5
350
7FAA
  3
B6
350
7FAB
  0
DICTIONARY
  5
7FAE
102
{ACAD_REACTORS
330
C
102
}
330
C
100
AcDbDictionary
281
     1
  3
Metric50
350
7FAF
  0
DICTIONARY
  5
7F98
102
{ACAD_REACTORS
330
C
102
}
330
C
100
AcDbDictionary
281
     1
  3
Standard
350
7F99
  0
DICTIONARY
  5
7F7E
102
{ACAD_REACTORS
330
C
102
}
330
C
100
AcDbDictionary
281
     1
  3
2dWireframe
350
7F84
  3
Basic
350
7F83
  3
Brighten
350
7F8A
  3
ColorChange
350
7F8E
  3
Conceptual
350
7F87
  3
Dim
350
7F89
  3
EdgeColorOff
350
7F96
  3
Facepattern
350
7F8D
  3
Flat
350
7F7F
  3
FlatWithEdges
350
7F80
  3
Gouraud
350
7F81
  3
GouraudWithEdges
350
7F82
  3
Hidden
350
7F86
  3
JitterOff
350
7F94
  3
Linepattern
350
7F8C
  3
OverhangOff
350
7F95
  3
Realistic
350
7F88
  3
Shaded
350
7F93
  3
Shaded with edges
350
7F92
  3
Shades of Gray
350
7F8F
  3
Sketchy
350
7F90
  3
Thicken
350
7F8B
  3
Wireframe
350
7F85
  3
X-Ray
350
7F91
  0
XRECORD
  5
8048
102
{ACAD_REACTORS
330
C
102
}
330
C
100
AcDbXrecord
280
     1
 90
        1
330
7F99
  0
DICTIONARY
  5
7F5C
102
{ACAD_REACTORS
330
C
102
}
330
C
100
AcDbDictionary
281
     1
  3
CANNOSCALE
350
803D
  3
CMLEADERSTYLE
350
8039
  3
CTABLESTYLE
350
8038
  3
CVIEWDETAILSTYLE
350
803A
  3
CVIEWSECTIONSTYLE
350
803B
  3
DIMASSOC
350
7F5D
  3
LAYEREVAL
350
803F
  3
LAYERNOTIFY
350
8040
  3
LIGHTINGUNITS
350
803E
  3
MARKUPASSISTMODE
350
8045
  3
MSLTSCALE
350
803C
  0
DICTIONARY
  5
804E
102
{ACAD_REACTORS
330
C
102
}
330
C
100
AcDbDictionary
281
     1
  3
AcDsRecords
350
8050
  3
AcDsSchemas
350
804F
1001
ACAD
1070
     2
  0
DICTIONARY
  5
802D
102
{ACAD_REACTORS
330
802C
102
}
330
802C
100
AcDbDictionary
281
     1
  0
XRECORD
  5
8020
102
{ACAD_REACTORS
330
801F
102
}
330
801F
100
AcDbXrecord
280
     1
290
     1
  0
XRECORD
  5
8022
102
{ACAD_REACTORS
330
8021
102
}
330
8021
100
AcDbXrecord
280
     1
290
     1
  0
XRECORD
  5
8024
102
{ACAD_REACTORS
330
8023
102
}
330
8023
100
AcDbXrecord
280
     1
290
     1
  0
XRECORD
  5
8026
102
{ACAD_REACTORS
330
8025
102
}
330
8025
100
AcDbXrecord
280
     1
290
     1
  0
XRECORD
  5
8028
102
{ACAD_REACTORS
330
8027
102
}
330
8027
100
AcDbXrecord
280
     1
290
     1
  0
XRECORD
  5
7EC4
102
{ACAD_REACTORS
330
7EC3
102
}
330
7EC3
100
AcDbXrecord
280
     1
340
19
  0
XRECORD
  5
7EC2
102
{ACAD_REACTORS
330
7EC1
102
}
330
7EC1
100
AcDbXrecord
280
     1
340
16
  0
ACDBDETAILVIEWSTYLE
  5
7FB1
102
{ACAD_XDICTIONARY
360
8053
102
}
102
{ACAD_REACTORS
330
7FB0
102
}
330
7FB0
100
AcDbModelDocViewStyle
 70
     0
  3
Metric50
290
     0
100
AcDbDetailViewStyle
 70
     0
 71
     0
 90
        3
 71
     1
340
10
 62
   256
 40
5.0
340
0
 62
   256
 40
5.0
300

 40
0.0
280
     1
 71
     2
340
15
 90
       25
 62
   256
 71
     3
340
10
 62
   256
 40
5.0
 90
        0
 40
15.0
 90
        1
300
%<\AcVar ViewDetailId>% (%<\AcVar ViewScale \f "%sn">%)
 71
     4
340
15
 90
       25
 62
   256
340
15
 90
       25
 62
   256
280
     0
  0
LAYOUT
  5
7E98
102
{ACAD_REACTORS
330
7E96
102
}
330
7E96
100
AcDbPlotSettings
  1

  2
\\Txbo34x8944cqyd\EPSON LP-6100
  4

  6

 40
0.0
 41
0.0
 42
0.0
 43
0.0
 44
0.0
 45
0.0
 46
0.0
 47
0.0
 48
0.0
 49
0.0
140
0.0
141
0.0
142
1.0
143
1.0
 70
  1712
 72
     0
 73
     0
 74
     0
  7
GOD2000TABLE.ctb
 75
     0
147
1.0
 76
     0
 77
     2
 78
   300
148
0.0
149
0.0
100
AcDbLayout
  1
Model
 70
     1
 71
     0
 10
0.0
 20
0.0
 11
12.0
 21
9.0
 12
0.0
 22
0.0
 32
0.0
 14
0.0
 24
0.0
 34
0.0
 15
0.0
 25
0.0
 35
0.0
146
0.0
 13
0.0
 23
0.0
 33
0.0
 16
1.0
 26
0.0
 36
0.0
 17
0.0
 27
1.0
 37
0.0
 76
     0
330
19
331
7F63
  0
LAYOUT
  5
7E99
102
{ACAD_REACTORS
330
7E96
102
}
330
7E96
100
AcDbPlotSettings
  1

  2
\\Txbo34x8944cqyd\EPSON LP-6100
  4

  6

 40
0.0
 41
0.0
 42
0.0
 43
0.0
 44
0.0
 45
0.0
 46
0.0
 47
0.0
 48
0.0
 49
0.0
140
0.0
141
0.0
142
1.0
143
1.0
 70
   688
 72
     0
 73
     0
 74
     5
  7
GOD2000TABLE.ctb
 75
    16
147
1.0
 76
     0
 77
     2
 78
   300
148
0.0
149
0.0
100
AcDbLayout
  1
ﾚｲｱｳﾄ1
 70
     1
 71
     1
 10
0.0
 20
0.0
 11
12.0
 21
9.0
 12
0.0
 22
0.0
 32
0.0
 14
1.000000000000000E+20
 24
1.000000000000000E+20
 34
1.000000000000000E+20
 15
-1.000000000000000E+20
 25
-1.000000000000000E+20
 35
-1.000000000000000E+20
146
0.0
 13
0.0
 23
0.0
 33
0.0
 16
1.0
 26
0.0
 36
0.0
 17
0.0
 27
1.0
 37
0.0
 76
     0
330
16
  0
MATERIAL
  5
7F6E
102
{ACAD_XDICTIONARY
360
7F6F
102
}
102
{ACAD_REACTORS
330
7F65
102
}
330
7F65
100
AcDbMaterial
  1
ByBlock
 72
     0
 43
0.0208333333333333
 43
0.0
 43
0.0
 43
0.0
 43
0.0
 43
0.0208333333333333
 43
0.0
 43
0.0
 43
0.0
 43
0.0
 43
1.0
 43
0.0
 43
0.0
 43
0.0
 43
0.0
 43
1.0
 77
     0
 47
0.0208333333333333
 47
0.0
 47
0.0
 47
0.0
 47
0.0
 47
0.0208333333333333
 47
0.0
 47
0.0
 47
0.0
 47
0.0
 47
1.0
 47
0.0
 47
0.0
 47
0.0
 47
0.0
 47
1.0
171
     0
 49
0.0208333333333333
 49
0.0
 49
0.0
 49
0.0
 49
0.0
 49
0.0208333333333333
 49
0.0
 49
0.0
 49
0.0
 49
0.0
 49
1.0
 49
0.0
 49
0.0
 49
0.0
 49
0.0
 49
1.0
175
     0
142
0.0208333333333333
142
0.0
142
0.0
142
0.0
142
0.0
142
0.0208333333333333
142
0.0
142
0.0
142
0.0
142
0.0
142
1.0
142
0.0
142
0.0
142
0.0
142
0.0
142
1.0
179
     0
144
0.0208333333333333
144
0.0
144
0.0
144
0.0
144
0.0
144
0.0208333333333333
144
0.0
144
0.0
144
0.0
144
0.0
144
1.0
144
0.0
144
0.0
144
0.0
144
0.0
144
1.0
147
0.0208333333333333
147
0.0
147
0.0
147
0.0
147
0.0
147
0.0208333333333333
147
0.0
147
0.0
147
0.0
147
0.0
147
1.0
147
0.0
147
0.0
147
0.0
147
0.0
147
1.0
  0
MATERIAL
  5
7F66
102
{ACAD_XDICTIONARY
360
7F67
102
}
102
{ACAD_REACTORS
330
7F65
102
}
330
7F65
100
AcDbMaterial
  1
ByLayer
 72
     0
 43
0.0208333333333333
 43
0.0
 43
0.0
 43
0.0
 43
0.0
 43
0.0208333333333333
 43
0.0
 43
0.0
 43
0.0
 43
0.0
 43
1.0
 43
0.0
 43
0.0
 43
0.0
 43
0.0
 43
1.0
 77
     0
 47
0.0208333333333333
 47
0.0
 47
0.0
 47
0.0
 47
0.0
 47
0.0208333333333333
 47
0.0
 47
0.0
 47
0.0
 47
0.0
 47
1.0
 47
0.0
 47
0.0
 47
0.0
 47
0.0
 47
1.0
171
     0
 49
0.0208333333333333
 49
0.0
 49
0.0
 49
0.0
 49
0.0
 49
0.0208333333333333
 49
0.0
 49
0.0
 49
0.0
 49
0.0
 49
1.0
 49
0.0
 49
0.0
 49
0.0
 49
0.0
 49
1.0
175
     0
142
0.0208333333333333
142
0.0
142
0.0
142
0.0
142
0.0
142
0.0208333333333333
142
0.0
142
0.0
142
0.0
142
0.0
142
1.0
142
0.0
142
0.0
142
0.0
142
0.0
142
1.0
179
     0
144
0.0208333333333333
144
0.0
144
0.0
144
0.0
144
0.0
144
0.0208333333333333
144
0.0
144
0.0
144
0.0
144
0.0
144
1.0
144
0.0
144
0.0
144
0.0
144
0.0
144
1.0
147
0.0208333333333333
147
0.0
147
0.0
147
0.0
147
0.0
147
0.0208333333333333
147
0.0
147
0.0
147
0.0
147
0.0
147
1.0
147
0.0
147
0.0
147
0.0
147
0.0
147
1.0
  0
MATERIAL
  5
7F76
102
{ACAD_XDICTIONARY
360
7F77
102
}
102
{ACAD_REACTORS
330
7F65
102
}
330
7F65
100
AcDbMaterial
  1
Global
 72
     0
 43
0.0208333333333333
 43
0.0
 43
0.0
 43
0.0
 43
0.0
 43
0.0208333333333333
 43
0.0
 43
0.0
 43
0.0
 43
0.0
 43
1.0
 43
0.0
 43
0.0
 43
0.0
 43
0.0
 43
1.0
 77
     0
 47
0.0208333333333333
 47
0.0
 47
0.0
 47
0.0
 47
0.0
 47
0.0208333333333333
 47
0.0
 47
0.0
 47
0.0
 47
0.0
 47
1.0
 47
0.0
 47
0.0
 47
0.0
 47
0.0
 47
1.0
171
     0
 49
0.0208333333333333
 49
0.0
 49
0.0
 49
0.0
 49
0.0
 49
0.0208333333333333
 49
0.0
 49
0.0
 49
0.0
 49
0.0
 49
1.0
 49
0.0
 49
0.0
 49
0.0
 49
0.0
 49
1.0
175
     0
142
0.0208333333333333
142
0.0
142
0.0
142
0.0
142
0.0
142
0.0208333333333333
142
0.0
142
0.0
142
0.0
142
0.0
142
1.0
142
0.0
142
0.0
142
0.0
142
0.0
142
1.0
179
     0
144
0.0208333333333333
144
0.0
144
0.0
144
0.0
144
0.0
144
0.0208333333333333
144
0.0
144
0.0
144
0.0
144
0.0
144
1.0
144
0.0
144
0.0
144
0.0
144
0.0
144
1.0
147
0.0208333333333333
147
0.0
147
0.0
147
0.0
147
0.0
147
0.0208333333333333
147
0.0
147
0.0
147
0.0
147
0.0
147
1.0
147
0.0
147
0.0
147
0.0
147
0.0
147
1.0
  0
MLEADERSTYLE
  5
7FAD
102
{ACAD_REACTORS
330
7FAC
102
}
330
7FAC
100
AcDbMLeaderStyle
179
     2
170
     2
171
     1
172
     0
 90
        2
 40
0.0
 41
0.0
173
     1
 91
-1056964608
340
13
 92
       -2
290
     1
 42
2.0
291
     1
 43
0.36
  3
Standard
 44
4.0
300

342
10
174
     1
178
     6
175
     1
176
     0
 93
-1056964608
 45
4.0
292
     0
297
     0
 46
4.0
 94
-1056964608
 47
1.0
 49
1.0
140
1.0
293
     1
141
0.0
294
     1
177
     0
142
1.0
295
     0
296
     0
143
0.125
271
     0
272
     9
273
     9
298
     1
  0
MLINESTYLE
  5
1C
102
{ACAD_REACTORS
330
E
102
}
330
E
100
AcDbMlineStyle
  2
STANDARD
 70
     0
  3

 62
     0
 51
90.0
 52
90.0
 71
     2
 49
0.5
 62
   256
  6
BYLAYER
 49
-0.5
 62
   256
  6
BYLAYER
  0
ACDBPLACEHOLDER
  5
7E95
102
{ACAD_REACTORS
330
7E94
102
}
330
7E94
  0
SCALE
  5
7F9B
102
{ACAD_REACTORS
330
7F9A
102
}
330
7F9A
100
AcDbScale
 70
     0
300
1:1
140
1.0
141
1.0
290
     1
  0
SCALE
  5
7F9C
102
{ACAD_REACTORS
330
7F9A
102
}
330
7F9A
100
AcDbScale
 70
     0
300
1:2
140
1.0
141
2.0
290
     0
  0
SCALE
  5
7F9D
102
{ACAD_REACTORS
330
7F9A
102
}
330
7F9A
100
AcDbScale
 70
     0
300
1:4
140
1.0
141
4.0
290
     0
  0
SCALE
  5
7F9E
102
{ACAD_REACTORS
330
7F9A
102
}
330
7F9A
100
AcDbScale
 70
     0
300
1:5
140
1.0
141
5.0
290
     0
  0
SCALE
  5
7F9F
102
{ACAD_REACTORS
330
7F9A
102
}
330
7F9A
100
AcDbScale
 70
     0
300
1:8
140
1.0
141
8.0
290
     0
  0
SCALE
  5
7FA0
102
{ACAD_REACTORS
330
7F9A
102
}
330
7F9A
100
AcDbScale
 70
     0
300
1:10
140
1.0
141
10.0
290
     0
  0
SCALE
  5
7FA1
102
{ACAD_REACTORS
330
7F9A
102
}
330
7F9A
100
AcDbScale
 70
     0
300
1:16
140
1.0
141
16.0
290
     0
  0
SCALE
  5
7FA2
102
{ACAD_REACTORS
330
7F9A
102
}
330
7F9A
100
AcDbScale
 70
     0
300
1:20
140
1.0
141
20.0
290
     0
  0
SCALE
  5
7FA3
102
{ACAD_REACTORS
330
7F9A
102
}
330
7F9A
100
AcDbScale
 70
     0
300
1:30
140
1.0
141
30.0
290
     0
  0
SCALE
  5
7FA4
102
{ACAD_REACTORS
330
7F9A
102
}
330
7F9A
100
AcDbScale
 70
     0
300
1:40
140
1.0
141
40.0
290
     0
  0
SCALE
  5
7FA5
102
{ACAD_REACTORS
330
7F9A
102
}
330
7F9A
100
AcDbScale
 70
     0
300
1:50
140
1.0
141
50.0
290
     0
  0
SCALE
  5
7FA6
102
{ACAD_REACTORS
330
7F9A
102
}
330
7F9A
100
AcDbScale
 70
     0
300
1:100
140
1.0
141
100.0
290
     0
  0
SCALE
  5
7FA7
102
{ACAD_REACTORS
330
7F9A
102
}
330
7F9A
100
AcDbScale
 70
     0
300
2:1
140
2.0
141
1.0
290
     0
  0
SCALE
  5
7FA8
102
{ACAD_REACTORS
330
7F9A
102
}
330
7F9A
100
AcDbScale
 70
     0
300
4:1
140
4.0
141
1.0
290
     0
  0
SCALE
  5
7FA9
102
{ACAD_REACTORS
330
7F9A
102
}
330
7F9A
100
AcDbScale
 70
     0
300
8:1
140
8.0
141
1.0
290
     0
  0
SCALE
  5
7FAA
102
{ACAD_REACTORS
330
7F9A
102
}
330
7F9A
100
AcDbScale
 70
     0
300
10:1
140
10.0
141
1.0
290
     0
  0
SCALE
  5
7FAB
102
{ACAD_REACTORS
330
7F9A
102
}
330
7F9A
100
AcDbScale
 70
     0
300
100:1
140
100.0
141
1.0
290
     0
  0
ACDBSECTIONVIEWSTYLE
  5
7FAF
102
{ACAD_XDICTIONARY
360
8051
102
}
102
{ACAD_REACTORS
330
7FAE
102
}
330
7FAE
100
AcDbModelDocViewStyle
 70
     0
  3
Metric50
290
     0
100
AcDbSectionViewStyle
 70
     0
 71
     0
 90
      102
 71
     1
340
10
 62
   256
 40
5.0
340
0
340
0
 62
   256
 40
5.0
300
I, O, Q, S, X, Z
 40
10.0
 90
        0
 40
2.5
 90
        0
 71
     2
340
15
 90
       25
 62
   256
340
15
 90
       50
 62
   256
 40
5.0
 40
2.5
 40
5.0
 71
     3
340
10
 62
   256
 40
5.0
 90
        0
 40
15.0
 90
        1
300
%<\AcVar ViewSectionStartId>%-%<\AcVar ViewSectionEndId>% (%<\AcVar ViewScale \f "%sn">%)
 71
     4
 62
   256
 62
   257
300
ANSI31
 40
1.0
 90
        0
290
     0
290
     0
 90
        6
 40
0.0
 40
1.570796326794896
 40
0.2617993877991494
 40
1.308996938995747
 40
-0.2617993877991494
 40
1.832595714594046
  0
TABLESTYLE
  5
7F99
102
{ACAD_XDICTIONARY
360
8046
102
}
102
{ACAD_REACTORS
330
7F98
102
}
330
7F98
100
AcDbTableStyle
280
     0
  3
Standard
 70
     0
 71
     0
 40
1.5
 41
1.5
280
     0
281
     0
  7
STANDARD
140
4.5
170
     2
 62
     0
 63
     7
283
     0
 90
      512
 91
        0
  1

274
    -2
284
     1
 64
     0
275
    -2
285
     1
 65
     0
276
    -2
286
     1
 66
     0
277
    -2
287
     1
 67
     0
278
    -2
288
     1
 68
     0
279
    -2
289
     1
 69
     0
  7
STANDARD
140
6.0
170
     5
 62
     0
 63
     7
283
     0
 90
      512
 91
        0
  1

274
    -2
284
     1
 64
     0
275
    -2
285
     1
 65
     0
276
    -2
286
     1
 66
     0
277
    -2
287
     1
 67
     0
278
    -2
288
     1
 68
     0
279
    -2
289
     1
 69
     0
  7
STANDARD
140
4.5
170
     5
 62
     0
 63
     7
283
     0
 90
      512
 91
        0
  1

274
    -2
284
     1
 64
     0
275
    -2
285
     1
 65
     0
276
    -2
286
     1
 66
     0
277
    -2
287
     1
 67
     0
278
    -2
288
     1
 68
     0
279
    -2
289
     1
 69
     0
  0
VISUALSTYLE
  5
7F84
102
{ACAD_REACTORS
330
7F7E
102
}
330
7F7E
100
AcDbVisualStyle
  2
2dWireframe
 70
     4
177
     3
291
     0
 70
    58
 90
        0
176
     1
 90
        2
176
     1
 90
        0
176
     1
 90
        0
176
     1
 40
0.6
176
     1
 40
30.0
176
     1
 62
     7
420
 16777215
176
     1
 90
        1
176
     1
 90
        4
176
     1
 62
     7
176
     1
 62
   257
176
     1
 90
        1
176
     1
 90
        1
176
     1
 40
1.0
176
     1
 90
        0
176
     1
 62
   257
176
     1
 40
1.0
176
     1
 90
        1
176
     1
 90
        6
176
     1
 90
        2
176
     1
 62
     7
176
     1
 90
        5
176
     1
 90
        0
176
     1
 90
        0
176
     1
290
     0
176
     1
 90
        1
176
     1
 40
0.0
176
     1
 90
        0
176
     1
290
     1
176
     1
290
     1
176
     1
290
     0
176
     1
290
     0
176
     1
290
     0
176
     1
290
     0
176
     1
290
     0
176
     1
290
     0
176
     1
290
     0
176
     1
 90
       50
176
     1
 40
0.0
176
     1
 40
1.0
176
     1
 90
        0
176
     1
 62
    18
420
        0
176
     1
 90
       50
176
     1
 90
        3
176
     1
 62
     5
420
      255
176
     1
290
     0
176
     1
 90
       50
176
     1
 90
       50
176
     1
 90
       50
176
     1
290
     0
176
     1
 90
       50
176
     1
 62
   256
176
     0
 40
1.0
176
     0
 90
        2
176
     1
  1
strokes_ogs.tif
176
     1
290
     0
176
     1
 40
1.0
176
     1
 40
1.0
176
     1
1001
ACAD
1000
AcDbSavedByObjectVersion
1070
     0
  0
VISUALSTYLE
  5
7F83
102
{ACAD_REACTORS
330
7F7E
102
}
330
7F7E
100
AcDbVisualStyle
  2
Basic
 70
     7
177
     3
291
     1
 70
    58
 90
        1
176
     1
 90
        0
176
     1
 90
        1
176
     1
 90
        0
176
     1
 40
0.6
176
     1
 40
30.0
176
     1
 62
     7
420
 16777215
176
     1
 90
        0
176
     1
 90
        4
176
     1
 62
     7
176
     1
 62
   257
176
     1
 90
        1
176
     1
 90
        1
176
     1
 40
1.0
176
     1
 90
        8
176
     1
 62
     7
176
     1
 40
1.0
176
     1
 90
        1
176
     1
 90
        6
176
     1
 90
        2
176
     1
 62
     7
176
     1
 90
        5
176
     1
 90
        0
176
     1
 90
        0
176
     1
290
     0
176
     1
 90
        1
176
     1
 40
0.0
176
     1
 90
        0
176
     1
290
     0
176
     1
290
     1
176
     1
290
     1
176
     1
290
     0
176
     1
290
     0
176
     1
290
     0
176
     1
290
     0
176
     1
290
     0
176
     1
290
     0
176
     1
 90
       50
176
     1
 40
0.0
176
     1
 40
1.0
176
     1
 90
        0
176
     1
 62
    18
420
        0
176
     1
 90
       50
176
     1
 90
        3
176
     1
 62
     5
420
      255
176
     1
290
     0
176
     1
 90
       50
176
     1
 90
       50
176
     1
 90
       50
176
     1
290
     0
176
     1
 90
       50
176
     1
 62
   256
176
     0
 40
1.0
176
     0
 90
        2
176
     1
  1
strokes_ogs.tif
176
     1
290
     0
176
     1
 40
1.0
176
     1
 40
1.0
176
     1
1001
ACAD
1000
AcDbSavedByObjectVersion
1070
     0
  0
VISUALSTYLE
  5
7F8A
102
{ACAD_REACTORS
330
7F7E
102
}
330
7F7E
100
AcDbVisualStyle
  2
Brighten
 70
    12
177
     3
291
     1
 70
    58
 90
        2
176
     1
 90
        2
176
     1
 90
        0
176
     1
 90
        0
176
     1
 40
0.6
176
     1
 40
30.0
176
     1
 62
     7
420
 16777215
176
     1
 90
        1
176
     1
 90
        4
176
     1
 62
     7
176
     1
 62
   257
176
     1
 90
        1
176
     1
 90
        1
176
     1
 40
1.0
176
     1
 90
        8
176
     1
 62
     7
176
     1
 40
1.0
176
     1
 90
        1
176
     1
 90
        6
176
     1
 90
        2
176
     1
 62
     7
176
     1
 90
        5
176
     1
 90
        0
176
     1
 90
        0
176
     1
290
     0
176
     1
 90
        1
176
     1
 40
50.0
176
     1
 90
        0
176
     1
290
     0
176
     1
290
     1
176
     1
290
     1
176
     1
290
     0
176
     1
290
     0
176
     1
290
     0
176
     1
290
     0
176
     1
290
     0
176
     1
290
     0
176
     1
 90
       50
176
     1
 40
0.0
176
     1
 40
1.0
176
     1
 90
        0
176
     1
 62
    18
420
        0
176
     1
 90
       50
176
     1
 90
        3
176
     1
 62
     5
420
      255
176
     1
290
     0
176
     1
 90
       50
176
     1
 90
       50
176
     1
 90
       50
176
     1
290
     0
176
     1
 90
       50
176
     1
 62
   256
176
     0
 40
1.0
176
     0
 90
        2
176
     1
  1
strokes_ogs.tif
176
     1
290
     0
176
     1
 40
1.0
176
     1
 40
1.0
176
     1
1001
ACAD
1000
AcDbSavedByObjectVersion
1070
     0
  0
VISUALSTYLE
  5
7F8E
102
{ACAD_REACTORS
330
7F7E
102
}
330
7F7E
100
AcDbVisualStyle
  2
ColorChange
 70
    16
177
     3
291
     1
 70
    58
 90
        2
176
     1
 90
        2
176
     1
 90
        3
176
     1
 90
        0
176
     1
 40
0.6
176
     1
 40
30.0
176
     1
 62
     8
420
  8421504
176
     1
 90
        1
176
     1
 90
        4
176
     1
 62
     7
176
     1
 62
   257
176
     1
 90
        1
176
     1
 90
        1
176
     1
 40
1.0
176
     1
 90
        8
176
     1
 62
     8
420
  8421504
176
     1
 40
1.0
176
     1
 90
        1
176
     1
 90
        6
176
     1
 90
        2
176
     1
 62
     7
176
     1
 90
        5
176
     1
 90
        0
176
     1
 90
        0
176
     1
290
     0
176
     1
 90
        1
176
     1
 40
0.0
176
     1
 90
        0
176
     1
290
     0
176
     1
290
     1
176
     1
290
     1
176
     1
290
     0
176
     1
290
     0
176
     1
290
     0
176
     1
290
     0
176
     1
290
     0
176
     1
290
     0
176
     1
 90
       50
176
     1
 40
0.0
176
     1
 40
1.0
176
     1
 90
        0
176
     1
 62
    18
420
        0
176
     1
 90
       50
176
     1
 90
        3
176
     1
 62
     5
420
      255
176
     1
290
     0
176
     1
 90
       50
176
     1
 90
       50
176
     1
 90
       50
176
     1
290
     0
176
     1
 90
       50
176
     1
 62
   256
176
     0
 40
1.0
176
     0
 90
        2
176
     1
  1
strokes_ogs.tif
176
     1
290
     0
176
     1
 40
1.0
176
     1
 40
1.0
176
     1
1001
ACAD
1000
AcDbSavedByObjectVersion
1070
     0
  0
VISUALSTYLE
  5
7F87
102
{ACAD_REACTORS
330
7F7E
102
}
330
7F7E
100
AcDbVisualStyle
  2
Conceptual
 70
     9
177
     3
291
     0
 70
    58
 90
        3
176
     1
 90
        2
176
     1
 90
        0
176
     1
 90
        0
176
     1
 40
0.6
176
     1
 40
30.0
176
     1
 62
     7
420
 16777215
176
     1
 90
        2
176
     1
 90
        2
176
     1
 62
     7
176
     1
 62
   257
176
     1
 90
        1
176
     1
 90
        1
176
     1
 40
179.0
176
     1
 90
        8
176
     1
 62
     7
176
     1
 40
1.0
176
     1
 90
        1
176
     1
 90
        6
176
     1
 90
        2
176
     1
 62
     7
176
     1
 90
        3
176
     1
 90
        0
176
     1
 90
        0
176
     1
290
     0
176
     1
 90
        1
176
     1
 40
0.0
176
     1
 90
        0
176
     1
290
     0
176
     1
290
     1
176
     1
290
     1
176
     1
290
     0
176
     1
290
     0
176
     1
290
     0
176
     1
290
     0
176
     1
290
     0
176
     1
290
     0
176
     1
 90
       50
176
     1
 40
0.0
176
     1
 40
1.0
176
     1
 90
        0
176
     1
 62
    18
420
        0
176
     1
 90
       50
176
     1
 90
        3
176
     1
 62
     5
420
      255
176
     1
290
     0
176
     1
 90
       50
176
     1
 90
       50
176
     1
 90
       50
176
     1
290
     0
176
     1
 90
       50
176
     1
 62
   256
176
     0
 40
1.0
176
     0
 90
        2
176
     1
  1
strokes_ogs.tif
176
     1
290
     0
176
     1
 40
1.0
176
     1
 40
1.0
176
     1
1001
ACAD
1000
AcDbSavedByObjectVersion
1070
     0
  0
VISUALSTYLE
  5
7F89
102
{ACAD_REACTORS
330
7F7E
102
}
330
7F7E
100
AcDbVisualStyle
  2
Dim
 70
    11
177
     3
291
     1
 70
    58
 90
        2
176
     1
 90
        2
176
     1
 90
        0
176
     1
 90
        0
176
     1
 40
0.6
176
     1
 40
30.0
176
     1
 62
     7
420
 16777215
176
     1
 90
        1
176
     1
 90
        4
176
     1
 62
     7
176
     1
 62
   257
176
     1
 90
        1
176
     1
 90
        1
176
     1
 40
1.0
176
     1
 90
        8
176
     1
 62
     7
176
     1
 40
1.0
176
     1
 90
        1
176
     1
 90
        6
176
     1
 90
        2
176
     1
 62
     7
176
     1
 90
        5
176
     1
 90
        0
176
     1
 90
        0
176
     1
290
     0
176
     1
 90
        1
176
     1
 40
-50.0
176
     1
 90
        0
176
     1
290
     0
176
     1
290
     1
176
     1
290
     1
176
     1
290
     0
176
     1
290
     0
176
     1
290
     0
176
     1
290
     0
176
     1
290
     0
176
     1
290
     0
176
     1
 90
       50
176
     1
 40
0.0
176
     1
 40
1.0
176
     1
 90
        0
176
     1
 62
    18
420
        0
176
     1
 90
       50
176
     1
 90
        3
176
     1
 62
     5
420
      255
176
     1
290
     0
176
     1
 90
       50
176
     1
 90
       50
176
     1
 90
       50
176
     1
290
     0
176
     1
 90
       50
176
     1
 62
   256
176
     0
 40
1.0
176
     0
 90
        2
176
     1
  1
strokes_ogs.tif
176
     1
290
     0
176
     1
 40
1.0
176
     1
 40
1.0
176
     1
1001
ACAD
1000
AcDbSavedByObjectVersion
1070
     0
  0
VISUALSTYLE
  5
7F96
102
{ACAD_REACTORS
330
7F7E
102
}
330
7F7E
100
AcDbVisualStyle
  2
EdgeColorOff
 70
    22
177
     3
291
     1
 70
    58
 90
        2
176
     0
 90
        2
176
     0
 90
        0
176
     0
 90
        0
176
     0
 40
0.6
176
     0
 40
30.0
176
     0
 62
     7
420
 16777215
176
     0
 90
        1
176
     0
 90
        4
176
     0
 62
     7
176
     0
 62
   257
176
     0
 90
        1
176
     0
 90
        1
176
     0
 40
1.0
176
     0
 90
        8
176
     2
 62
     7
176
     0
 40
1.0
176
     0
 90
        1
176
     0
 90
        6
176
     0
 90
        2
176
     0
 62
     7
176
     0
 90
        5
176
     0
 90
        0
176
     0
 90
        0
176
     0
290
     0
176
     0
 90
        1
176
     0
 40
0.0
176
     0
 90
        0
176
     0
290
     0
176
     0
290
     1
176
     0
290
     1
176
     0
290
     0
176
     0
290
     0
176
     0
290
     0
176
     0
290
     0
176
     0
290
     0
176
     0
290
     0
176
     0
 90
       50
176
     0
 40
0.0
176
     0
 40
1.0
176
     0
 90
        0
176
     0
 62
    18
420
        0
176
     0
 90
       50
176
     0
 90
        3
176
     0
 62
     5
420
      255
176
     0
290
     0
176
     0
 90
       50
176
     0
 90
       50
176
     0
 90
       50
176
     0
290
     0
176
     0
 90
       50
176
     0
 62
   256
176
     0
 40
1.0
176
     0
 90
        2
176
     0
  1
strokes_ogs.tif
176
     0
290
     0
176
     0
 40
1.0
176
     0
 40
1.0
176
     0
1001
ACAD
1000
AcDbSavedByObjectVersion
1070
     0
  0
VISUALSTYLE
  5
7F8D
102
{ACAD_REACTORS
330
7F7E
102
}
330
7F7E
100
AcDbVisualStyle
  2
Facepattern
 70
    15
177
     3
291
     1
 70
    58
 90
        2
176
     1
 90
        2
176
     1
 90
        0
176
     1
 90
        0
176
     1
 40
0.6
176
     1
 40
30.0
176
     1
 62
     7
420
 16777215
176
     1
 90
        1
176
     1
 90
        4
176
     1
 62
     7
176
     1
 62
   257
176
     1
 90
        1
176
     1
 90
        1
176
     1
 40
1.0
176
     1
 90
        8
176
     1
 62
     7
176
     1
 40
1.0
176
     1
 90
        1
176
     1
 90
        6
176
     1
 90
        2
176
     1
 62
     7
176
     1
 90
        5
176
     1
 90
        0
176
     1
 90
        0
176
     1
290
     0
176
     1
 90
        1
176
     1
 40
0.0
176
     1
 90
        0
176
     1
290
     0
176
     1
290
     1
176
     1
290
     1
176
     1
290
     0
176
     1
290
     0
176
     1
290
     0
176
     1
290
     0
176
     1
290
     0
176
     1
290
     0
176
     1
 90
       50
176
     1
 40
0.0
176
     1
 40
1.0
176
     1
 90
        0
176
     1
 62
    18
420
        0
176
     1
 90
       50
176
     1
 90
        3
176
     1
 62
     5
420
      255
176
     1
290
     0
176
     1
 90
       50
176
     1
 90
       50
176
     1
 90
       50
176
     1
290
     0
176
     1
 90
       50
176
     1
 62
   256
176
     0
 40
1.0
176
     0
 90
        2
176
     1
  1
strokes_ogs.tif
176
     1
290
     0
176
     1
 40
1.0
176
     1
 40
1.0
176
     1
1001
ACAD
1000
AcDbSavedByObjectVersion
1070
     0
  0
VISUALSTYLE
  5
7F7F
102
{ACAD_REACTORS
330
7F7E
102
}
330
7F7E
100
AcDbVisualStyle
  2
Flat
 70
     0
177
     3
291
     1
 70
    58
 90
        2
176
     1
 90
        1
176
     1
 90
        1
176
     1
 90
        2
176
     1
 40
0.6
176
     1
 40
30.0
176
     1
 62
     7
420
 16777215
176
     1
 90
        0
176
     1
 90
        0
176
     1
 62
     7
176
     1
 62
   257
176
     1
 90
        1
176
     1
 90
        1
176
     1
 40
1.0
176
     1
 90
        8
176
     1
 62
     7
176
     1
 40
1.0
176
     1
 90
        1
176
     1
 90
        6
176
     1
 90
        2
176
     1
 62
     7
176
     1
 90
        5
176
     1
 90
        0
176
     1
 90
        0
176
     1
290
     0
176
     1
 90
       13
176
     1
 40
0.0
176
     1
 90
        0
176
     1
290
     0
176
     1
290
     1
176
     1
290
     1
176
     1
290
     0
176
     1
290
     0
176
     1
290
     0
176
     1
290
     0
176
     1
290
     0
176
     1
290
     0
176
     1
 90
       50
176
     1
 40
0.0
176
     1
 40
1.0
176
     1
 90
        0
176
     1
 62
    18
420
        0
176
     1
 90
       50
176
     1
 90
        3
176
     1
 62
     5
420
      255
176
     1
290
     0
176
     1
 90
       50
176
     1
 90
       50
176
     1
 90
       50
176
     1
290
     0
176
     1
 90
       50
176
     1
 62
   256
176
     0
 40
1.0
176
     0
 90
        2
176
     1
  1
strokes_ogs.tif
176
     1
290
     0
176
     1
 40
1.0
176
     1
 40
1.0
176
     1
1001
ACAD
1000
AcDbSavedByObjectVersion
1070
     0
  0
VISUALSTYLE
  5
7F80
102
{ACAD_REACTORS
330
7F7E
102
}
330
7F7E
100
AcDbVisualStyle
  2
FlatWithEdges
 70
     1
177
     3
291
     1
 70
    58
 90
        2
176
     1
 90
        1
176
     1
 90
        1
176
     1
 90
        2
176
     1
 40
0.6
176
     1
 40
30.0
176
     1
 62
     7
420
 16777215
176
     1
 90
        1
176
     1
 90
        0
176
     1
 62
     7
176
     1
 62
   257
176
     1
 90
        1
176
     1
 90
        1
176
     1
 40
1.0
176
     1
 90
        0
176
     1
 62
   257
176
     1
 40
1.0
176
     1
 90
        1
176
     1
 90
        6
176
     1
 90
        2
176
     1
 62
     7
176
     1
 90
        5
176
     1
 90
        0
176
     1
 90
        0
176
     1
290
     0
176
     1
 90
       13
176
     1
 40
0.0
176
     1
 90
        0
176
     1
290
     0
176
     1
290
     1
176
     1
290
     1
176
     1
290
     0
176
     1
290
     0
176
     1
290
     0
176
     1
290
     0
176
     1
290
     0
176
     1
290
     0
176
     1
 90
       50
176
     1
 40
0.0
176
     1
 40
1.0
176
     1
 90
        0
176
     1
 62
    18
420
        0
176
     1
 90
       50
176
     1
 90
        3
176
     1
 62
     5
420
      255
176
     1
290
     0
176
     1
 90
       50
176
     1
 90
       50
176
     1
 90
       50
176
     1
290
     0
176
     1
 90
       50
176
     1
 62
   256
176
     0
 40
1.0
176
     0
 90
        2
176
     1
  1
strokes_ogs.tif
176
     1
290
     0
176
     1
 40
1.0
176
     1
 40
1.0
176
     1
1001
ACAD
1000
AcDbSavedByObjectVersion
1070
     0
  0
VISUALSTYLE
  5
7F81
102
{ACAD_REACTORS
330
7F7E
102
}
330
7F7E
100
AcDbVisualStyle
  2
Gouraud
 70
     2
177
     3
291
     1
 70
    58
 90
        2
176
     1
 90
        2
176
     1
 90
        1
176
     1
 90
        2
176
     1
 40
0.6
176
     1
 40
30.0
176
     1
 62
     7
420
 16777215
176
     1
 90
        0
176
     1
 90
        0
176
     1
 62
     7
176
     1
 62
   257
176
     1
 90
        1
176
     1
 90
        1
176
     1
 40
1.0
176
     1
 90
        0
176
     1
 62
     7
176
     1
 40
1.0
176
     1
 90
        1
176
     1
 90
        6
176
     1
 90
        2
176
     1
 62
     7
176
     1
 90
        5
176
     1
 90
        0
176
     1
 90
        0
176
     1
290
     0
176
     1
 90
       13
176
     1
 40
0.0
176
     1
 90
        0
176
     1
290
     0
176
     1
290
     1
176
     1
290
     1
176
     1
290
     0
176
     1
290
     0
176
     1
290
     0
176
     1
290
     0
176
     1
290
     0
176
     1
290
     0
176
     1
 90
       50
176
     1
 40
0.0
176
     1
 40
1.0
176
     1
 90
        0
176
     1
 62
    18
420
        0
176
     1
 90
       50
176
     1
 90
        3
176
     1
 62
     5
420
      255
176
     1
290
     0
176
     1
 90
       50
176
     1
 90
       50
176
     1
 90
       50
176
     1
290
     0
176
     1
 90
       50
176
     1
 62
   256
176
     0
 40
1.0
176
     0
 90
        2
176
     1
  1
strokes_ogs.tif
176
     1
290
     0
176
     1
 40
1.0
176
     1
 40
1.0
176
     1
1001
ACAD
1000
AcDbSavedByObjectVersion
1070
     0
  0
VISUALSTYLE
  5
7F82
102
{ACAD_REACTORS
330
7F7E
102
}
330
7F7E
100
AcDbVisualStyle
  2
GouraudWithEdges
 70
     3
177
     3
291
     1
 70
    58
 90
        2
176
     1
 90
        2
176
     1
 90
        1
176
     1
 90
        2
176
     1
 40
0.6
176
     1
 40
30.0
176
     1
 62
     7
420
 16777215
176
     1
 90
        1
176
     1
 90
        0
176
     1
 62
     7
176
     1
 62
   257
176
     1
 90
        1
176
     1
 90
        1
176
     1
 40
1.0
176
     1
 90
        0
176
     1
 62
   257
176
     1
 40
1.0
176
     1
 90
        1
176
     1
 90
        6
176
     1
 90
        2
176
     1
 62
     7
176
     1
 90
        5
176
     1
 90
        0
176
     1
 90
        0
176
     1
290
     0
176
     1
 90
       13
176
     1
 40
0.0
176
     1
 90
        0
176
     1
290
     0
176
     1
290
     1
176
     1
290
     1
176
     1
290
     0
176
     1
290
     0
176
     1
290
     0
176
     1
290
     0
176
     1
290
     0
176
     1
290
     0
176
     1
 90
       50
176
     1
 40
0.0
176
     1
 40
1.0
176
     1
 90
        0
176
     1
 62
    18
420
        0
176
     1
 90
       50
176
     1
 90
        3
176
     1
 62
     5
420
      255
176
     1
290
     0
176
     1
 90
       50
176
     1
 90
       50
176
     1
 90
       50
176
     1
290
     0
176
     1
 90
       50
176
     1
 62
   256
176
     0
 40
1.0
176
     0
 90
        2
176
     1
  1
strokes_ogs.tif
176
     1
290
     0
176
     1
 40
1.0
176
     1
 40
1.0
176
     1
1001
ACAD
1000
AcDbSavedByObjectVersion
1070
     0
  0
VISUALSTYLE
  5
7F86
102
{ACAD_REACTORS
330
7F7E
102
}
330
7F7E
100
AcDbVisualStyle
  2
Hidden
 70
     6
177
     3
291
     0
 70
    58
 90
        1
176
     1
 90
        2
176
     1
 90
        2
176
     1
 90
        0
176
     1
 40
0.6
176
     1
 40
30.0
176
     1
 62
     7
420
 16777215
176
     1
 90
        2
176
     1
 90
        2
176
     1
 62
     7
176
     1
 62
   257
176
     1
 90
        2
176
     1
 90
        1
176
     1
 40
40.0
176
     1
 90
        0
176
     1
 62
   257
176
     1
 40
1.0
176
     1
 90
        1
176
     1
 90
        6
176
     1
 90
        2
176
     1
 62
     7
176
     1
 90
        3
176
     1
 90
        0
176
     1
 90
        0
176
     1
290
     0
176
     1
 90
        1
176
     1
 40
0.0
176
     1
 90
        0
176
     1
290
     0
176
     1
290
     1
176
     1
290
     1
176
     1
290
     0
176
     1
290
     0
176
     1
290
     0
176
     1
290
     0
176
     1
290
     0
176
     1
290
     0
176
     1
 90
       50
176
     1
 40
0.0
176
     1
 40
1.0
176
     1
 90
        0
176
     1
 62
    18
420
        0
176
     1
 90
       50
176
     1
 90
        3
176
     1
 62
     5
420
      255
176
     1
290
     0
176
     1
 90
       50
176
     1
 90
       50
176
     1
 90
       50
176
     1
290
     0
176
     1
 90
       50
176
     1
 62
   256
176
     0
 40
1.0
176
     0
 90
        2
176
     1
  1
strokes_ogs.tif
176
     1
290
     0
176
     1
 40
1.0
176
     1
 40
1.0
176
     1
1001
ACAD
1000
AcDbSavedByObjectVersion
1070
     0
  0
VISUALSTYLE
  5
7F94
102
{ACAD_REACTORS
330
7F7E
102
}
330
7F7E
100
AcDbVisualStyle
  2
JitterOff
 70
    20
177
     3
291
     1
 70
    58
 90
        2
176
     0
 90
        2
176
     0
 90
        0
176
     0
 90
        0
176
     0
 40
0.6
176
     0
 40
30.0
176
     0
 62
     7
420
 16777215
176
     0
 90
        1
176
     0
 90
        4
176
     0
 62
     7
176
     0
 62
   257
176
     0
 90
        1
176
     0
 90
        1
176
     0
 40
1.0
176
     0
 90
       10
176
     2
 62
     7
176
     0
 40
1.0
176
     0
 90
        1
176
     0
 90
        6
176
     0
 90
        2
176
     0
 62
     7
176
     0
 90
        5
176
     0
 90
        0
176
     0
 90
        0
176
     0
290
     0
176
     0
 90
        1
176
     0
 40
0.0
176
     0
 90
        0
176
     0
290
     0
176
     0
290
     1
176
     0
290
     1
176
     0
290
     0
176
     0
290
     0
176
     0
290
     0
176
     0
290
     0
176
     0
290
     0
176
     0
290
     0
176
     0
 90
       50
176
     0
 40
0.0
176
     0
 40
1.0
176
     0
 90
        0
176
     0
 62
    18
420
        0
176
     0
 90
       50
176
     0
 90
        3
176
     0
 62
     5
420
      255
176
     0
290
     0
176
     0
 90
       50
176
     0
 90
       50
176
     0
 90
       50
176
     0
290
     0
176
     0
 90
       50
176
     0
 62
   256
176
     0
 40
1.0
176
     0
 90
        2
176
     0
  1
strokes_ogs.tif
176
     0
290
     0
176
     0
 40
1.0
176
     0
 40
1.0
176
     0
1001
ACAD
1000
AcDbSavedByObjectVersion
1070
     0
  0
VISUALSTYLE
  5
7F8C
102
{ACAD_REACTORS
330
7F7E
102
}
330
7F7E
100
AcDbVisualStyle
  2
Linepattern
 70
    14
177
     3
291
     1
 70
    58
 90
        2
176
     1
 90
        2
176
     1
 90
        0
176
     1
 90
        0
176
     1
 40
0.6
176
     1
 40
30.0
176
     1
 62
     7
420
 16777215
176
     1
 90
        1
176
     1
 90
        4
176
     1
 62
     7
176
     1
 62
   257
176
     1
 90
        7
176
     1
 90
        7
176
     1
 40
1.0
176
     1
 90
        8
176
     1
 62
     7
176
     1
 40
1.0
176
     1
 90
        1
176
     1
 90
        6
176
     1
 90
        2
176
     1
 62
     7
176
     1
 90
        5
176
     1
 90
        0
176
     1
 90
        0
176
     1
290
     0
176
     1
 90
        1
176
     1
 40
0.0
176
     1
 90
        0
176
     1
290
     0
176
     1
290
     1
176
     1
290
     1
176
     1
290
     0
176
     1
290
     0
176
     1
290
     0
176
     1
290
     0
176
     1
290
     0
176
     1
290
     0
176
     1
 90
       50
176
     1
 40
0.0
176
     1
 40
1.0
176
     1
 90
        0
176
     1
 62
    18
420
        0
176
     1
 90
       50
176
     1
 90
        3
176
     1
 62
     5
420
      255
176
     1
290
     0
176
     1
 90
       50
176
     1
 90
       50
176
     1
 90
       50
176
     1
290
     0
176
     1
 90
       50
176
     1
 62
   256
176
     0
 40
1.0
176
     0
 90
        2
176
     1
  1
strokes_ogs.tif
176
     1
290
     0
176
     1
 40
1.0
176
     1
 40
1.0
176
     1
1001
ACAD
1000
AcDbSavedByObjectVersion
1070
     0
  0
VISUALSTYLE
  5
7F95
102
{ACAD_REACTORS
330
7F7E
102
}
330
7F7E
100
AcDbVisualStyle
  2
OverhangOff
 70
    21
177
     3
291
     1
 70
    58
 90
        2
176
     0
 90
        2
176
     0
 90
        0
176
     0
 90
        0
176
     0
 40
0.6
176
     0
 40
30.0
176
     0
 62
     7
420
 16777215
176
     0
 90
        1
176
     0
 90
        4
176
     0
 62
     7
176
     0
 62
   257
176
     0
 90
        1
176
     0
 90
        1
176
     0
 40
1.0
176
     0
 90
        9
176
     2
 62
     7
176
     0
 40
1.0
176
     0
 90
        1
176
     0
 90
        6
176
     0
 90
        2
176
     0
 62
     7
176
     0
 90
        5
176
     0
 90
        0
176
     0
 90
        0
176
     0
290
     0
176
     0
 90
        1
176
     0
 40
0.0
176
     0
 90
        0
176
     0
290
     0
176
     0
290
     1
176
     0
290
     1
176
     0
290
     0
176
     0
290
     0
176
     0
290
     0
176
     0
290
     0
176
     0
290
     0
176
     0
290
     0
176
     0
 90
       50
176
     0
 40
0.0
176
     0
 40
1.0
176
     0
 90
        0
176
     0
 62
    18
420
        0
176
     0
 90
       50
176
     0
 90
        3
176
     0
 62
     5
420
      255
176
     0
290
     0
176
     0
 90
       50
176
     0
 90
       50
176
     0
 90
       50
176
     0
290
     0
176
     0
 90
       50
176
     0
 62
   256
176
     0
 40
1.0
176
     0
 90
        2
176
     0
  1
strokes_ogs.tif
176
     0
290
     0
176
     0
 40
1.0
176
     0
 40
1.0
176
     0
1001
ACAD
1000
AcDbSavedByObjectVersion
1070
     0
  0
VISUALSTYLE
  5
7F88
102
{ACAD_REACTORS
330
7F7E
102
}
330
7F7E
100
AcDbVisualStyle
  2
Realistic
 70
     8
177
     3
291
     0
 70
    58
 90
        2
176
     1
 90
        3
176
     1
 90
        0
176
     1
 90
        2
176
     1
 40
0.6
176
     1
 40
30.0
176
     1
 62
     7
420
 16777215
176
     1
 90
        0
176
     1
 90
        0
176
     1
 62
     7
176
     1
 62
   257
176
     1
 90
        1
176
     1
 90
        1
176
     1
 40
1.0
176
     1
 90
        8
176
     1
 62
   257
176
     1
 40
1.0
176
     1
 90
        1
176
     1
 90
        6
176
     1
 90
        2
176
     1
 62
     7
176
     1
 90
        3
176
     1
 90
        0
176
     1
 90
        0
176
     1
290
     0
176
     1
 90
       13
176
     1
 40
0.0
176
     1
 90
        0
176
     1
290
     0
176
     1
290
     1
176
     1
290
     1
176
     1
290
     0
176
     1
290
     0
176
     1
290
     0
176
     1
290
     0
176
     1
290
     0
176
     1
290
     0
176
     1
 90
       50
176
     1
 40
0.0
176
     1
 40
1.0
176
     1
 90
        0
176
     1
 62
    18
420
        0
176
     1
 90
       50
176
     1
 90
        3
176
     1
 62
     5
420
      255
176
     1
290
     0
176
     1
 90
       50
176
     1
 90
       50
176
     1
 90
       50
176
     1
290
     0
176
     1
 90
       50
176
     1
 62
   256
176
     0
 40
1.0
176
     0
 90
        2
176
     1
  1
strokes_ogs.tif
176
     1
290
     0
176
     1
 40
1.0
176
     1
 40
1.0
176
     1
1001
ACAD
1000
AcDbSavedByObjectVersion
1070
     0
  0
VISUALSTYLE
  5
7F93
102
{ACAD_REACTORS
330
7F7E
102
}
330
7F7E
100
AcDbVisualStyle
  2
Shaded
 70
    27
177
     3
291
     0
 70
    58
 90
        2
176
     1
 90
        2
176
     1
 90
        1
176
     1
 90
        2
176
     1
 40
0.6
176
     1
 40
30.0
176
     1
 62
     7
420
 16777215
176
     1
 90
        0
176
     1
 90
        4
176
     1
 62
     7
176
     1
 62
   257
176
     1
 90
        1
176
     1
 90
        1
176
     1
 40
1.0
176
     1
 90
        8
176
     1
 62
   257
176
     1
 40
1.0
176
     1
 90
        1
176
     1
 90
        6
176
     1
 90
        2
176
     1
 62
     8
420
  7895160
176
     1
 90
        3
176
     1
 90
        0
176
     1
 90
        0
176
     1
290
     0
176
     1
 90
        5
176
     1
 40
0.0
176
     1
 90
        0
176
     1
290
     0
176
     1
290
     1
176
     1
290
     1
176
     1
290
     0
176
     1
290
     0
176
     1
290
     0
176
     1
290
     0
176
     1
290
     0
176
     1
290
     0
176
     1
 90
       50
176
     1
 40
0.0
176
     1
 40
1.0
176
     1
 90
        0
176
     1
 62
    18
420
        0
176
     1
 90
       50
176
     1
 90
        3
176
     1
 62
     5
420
      255
176
     1
290
     0
176
     1
 90
       50
176
     1
 90
       50
176
     1
 90
       50
176
     1
290
     0
176
     1
 90
       50
176
     1
 62
   256
176
     0
 40
1.0
176
     0
 90
        2
176
     1
  1
strokes_ogs.tif
176
     1
290
     0
176
     1
 40
1.0
176
     1
 40
1.0
176
     1
1001
ACAD
1000
AcDbSavedByObjectVersion
1070
     0
  0
VISUALSTYLE
  5
7F92
102
{ACAD_REACTORS
330
7F7E
102
}
330
7F7E
100
AcDbVisualStyle
  2
Shaded with edges
 70
    26
177
     3
291
     0
 70
    58
 90
        2
176
     1
 90
        2
176
     1
 90
        1
176
     1
 90
        2
176
     1
 40
0.6
176
     1
 40
30.0
176
     1
 62
     7
420
 16777215
176
     1
 90
        1
176
     1
 90
        2
176
     1
 62
     7
176
     1
 62
   257
176
     1
 90
        2
176
     1
 90
        1
176
     1
 40
1.0
176
     1
 90
        8
176
     1
 62
   257
176
     1
 40
1.0
176
     1
 90
        1
176
     1
 90
        6
176
     1
 90
        2
176
     1
 62
     7
176
     1
 90
        3
176
     1
 90
        0
176
     1
 90
        0
176
     1
290
     0
176
     1
 90
        5
176
     1
 40
0.0
176
     1
 90
        0
176
     1
290
     0
176
     1
290
     1
176
     1
290
     1
176
     1
290
     0
176
     1
290
     0
176
     1
290
     0
176
     1
290
     0
176
     1
290
     0
176
     1
290
     0
176
     1
 90
       50
176
     1
 40
0.0
176
     1
 40
1.0
176
     1
 90
        0
176
     1
 62
    18
420
        0
176
     1
 90
       50
176
     1
 90
        3
176
     1
 62
     5
420
      255
176
     1
290
     0
176
     1
 90
       50
176
     1
 90
       50
176
     1
 90
       50
176
     1
290
     0
176
     1
 90
       50
176
     1
 62
   256
176
     0
 40
1.0
176
     0
 90
        2
176
     1
  1
strokes_ogs.tif
176
     1
290
     0
176
     1
 40
1.0
176
     1
 40
1.0
176
     1
1001
ACAD
1000
AcDbSavedByObjectVersion
1070
     0
  0
VISUALSTYLE
  5
7F8F
102
{ACAD_REACTORS
330
7F7E
102
}
330
7F7E
100
AcDbVisualStyle
  2
Shades of Gray
 70
    23
177
     3
291
     0
 70
    58
 90
        2
176
     1
 90
        2
176
     1
 90
        3
176
     1
 90
        0
176
     1
 40
0.6
176
     1
 40
30.0
176
     1
 62
     7
420
 16777215
176
     1
 90
        2
176
     1
 90
        2
176
     1
 62
     7
176
     1
 62
     7
176
     1
 90
        1
176
     1
 90
        1
176
     1
 40
40.0
176
     1
 90
        8
176
     1
 62
     7
176
     1
 40
1.0
176
     1
 90
        1
176
     1
 90
        6
176
     1
 90
        2
176
     1
 62
     7
176
     1
 90
        3
176
     1
 90
        0
176
     1
 90
        0
176
     1
290
     0
176
     1
 90
        1
176
     1
 40
0.0
176
     1
 90
        0
176
     1
290
     0
176
     1
290
     1
176
     1
290
     1
176
     1
290
     0
176
     1
290
     0
176
     1
290
     0
176
     1
290
     0
176
     1
290
     0
176
     1
290
     0
176
     1
 90
       50
176
     1
 40
0.0
176
     1
 40
1.0
176
     1
 90
        0
176
     1
 62
    18
420
        0
176
     1
 90
       50
176
     1
 90
        3
176
     1
 62
     5
420
      255
176
     1
290
     0
176
     1
 90
       50
176
     1
 90
       50
176
     1
 90
       50
176
     1
290
     0
176
     1
 90
       50
176
     1
 62
   256
176
     0
 40
1.0
176
     0
 90
        2
176
     1
  1
strokes_ogs.tif
176
     1
290
     0
176
     1
 40
1.0
176
     1
 40
1.0
176
     1
1001
ACAD
1000
AcDbSavedByObjectVersion
1070
     0
  0
VISUALSTYLE
  5
7F90
102
{ACAD_REACTORS
330
7F7E
102
}
330
7F7E
100
AcDbVisualStyle
  2
Sketchy
 70
    24
177
     3
291
     0
 70
    58
 90
        1
176
     1
 90
        2
176
     1
 90
        2
176
     1
 90
        0
176
     1
 40
0.6
176
     1
 40
30.0
176
     1
 62
     7
420
 16777215
176
     1
 90
        2
176
     1
 90
        2
176
     1
 62
     7
176
     1
 62
     7
176
     1
 90
        1
176
     1
 90
        1
176
     1
 40
40.0
176
     1
 90
       11
176
     1
 62
     7
176
     1
 40
1.0
176
     1
 90
        1
176
     1
 90
        6
176
     1
 90
        2
176
     1
 62
     7
176
     1
 90
        6
176
     1
 90
        0
176
     1
 90
        0
176
     1
290
     0
176
     1
 90
        1
176
     1
 40
0.0
176
     1
 90
        0
176
     1
290
     0
176
     1
290
     1
176
     1
290
     1
176
     1
290
     0
176
     1
290
     0
176
     1
290
     0
176
     1
290
     0
176
     1
290
     0
176
     1
290
     0
176
     1
 90
       50
176
     1
 40
0.0
176
     1
 40
1.0
176
     1
 90
        0
176
     1
 62
    18
420
        0
176
     1
 90
       50
176
     1
 90
        3
176
     1
 62
     5
420
      255
176
     1
290
     0
176
     1
 90
       50
176
     1
 90
       50
176
     1
 90
       50
176
     1
290
     0
176
     1
 90
       50
176
     1
 62
   256
176
     0
 40
1.0
176
     0
 90
        2
176
     1
  1
strokes_ogs.tif
176
     1
290
     0
176
     1
 40
1.0
176
     1
 40
1.0
176
     1
1001
ACAD
1000
AcDbSavedByObjectVersion
1070
     0
  0
VISUALSTYLE
  5
7F8B
102
{ACAD_REACTORS
330
7F7E
102
}
330
7F7E
100
AcDbVisualStyle
  2
Thicken
 70
    13
177
     3
291
     1
 70
    58
 90
        2
176
     1
 90
        2
176
     1
 90
        0
176
     1
 90
        0
176
     1
 40
0.6
176
     1
 40
30.0
176
     1
 62
     7
420
 16777215
176
     1
 90
        1
176
     1
 90
        4
176
     1
 62
     7
176
     1
 62
   257
176
     1
 90
        1
176
     1
 90
        1
176
     1
 40
1.0
176
     1
 90
       12
176
     1
 62
     7
176
     1
 40
1.0
176
     1
 90
        1
176
     1
 90
        6
176
     1
 90
        2
176
     1
 62
     7
176
     1
 90
        5
176
     1
 90
        0
176
     1
 90
        0
176
     1
290
     0
176
     1
 90
        1
176
     1
 40
0.0
176
     1
 90
        0
176
     1
290
     0
176
     1
290
     1
176
     1
290
     1
176
     1
290
     0
176
     1
290
     0
176
     1
290
     0
176
     1
290
     0
176
     1
290
     0
176
     1
290
     0
176
     1
 90
       50
176
     1
 40
0.0
176
     1
 40
1.0
176
     1
 90
        0
176
     1
 62
    18
420
        0
176
     1
 90
       50
176
     1
 90
        3
176
     1
 62
     5
420
      255
176
     1
290
     0
176
     1
 90
       50
176
     1
 90
       50
176
     1
 90
       50
176
     1
290
     0
176
     1
 90
       50
176
     1
 62
   256
176
     0
 40
1.0
176
     0
 90
        2
176
     1
  1
strokes_ogs.tif
176
     1
290
     0
176
     1
 40
1.0
176
     1
 40
1.0
176
     1
1001
ACAD
1000
AcDbSavedByObjectVersion
1070
     0
  0
VISUALSTYLE
  5
7F85
102
{ACAD_REACTORS
330
7F7E
102
}
330
7F7E
100
AcDbVisualStyle
  2
Wireframe
 70
     5
177
     3
291
     0
 70
    58
 90
        0
176
     1
 90
        2
176
     1
 90
        0
176
     1
 90
        0
176
     1
 40
0.6
176
     1
 40
30.0
176
     1
 62
     7
420
 16777215
176
     1
 90
        1
176
     1
 90
        4
176
     1
 62
     7
176
     1
 62
   257
176
     1
 90
        1
176
     1
 90
        1
176
     1
 40
1.0
176
     1
 90
        0
176
     1
 62
   257
176
     1
 40
1.0
176
     1
 90
        1
176
     1
 90
        6
176
     1
 90
        2
176
     1
 62
     7
176
     1
 90
        3
176
     1
 90
        0
176
     1
 90
        0
176
     1
290
     0
176
     1
 90
        1
176
     1
 40
0.0
176
     1
 90
        0
176
     1
290
     0
176
     1
290
     1
176
     1
290
     1
176
     1
290
     0
176
     1
290
     0
176
     1
290
     0
176
     1
290
     0
176
     1
290
     0
176
     1
290
     0
176
     1
 90
       50
176
     1
 40
0.0
176
     1
 40
1.0
176
     1
 90
        0
176
     1
 62
    18
420
        0
176
     1
 90
       50
176
     1
 90
        3
176
     1
 62
     5
420
      255
176
     1
290
     0
176
     1
 90
       50
176
     1
 90
       50
176
     1
 90
       50
176
     1
290
     0
176
     1
 90
       50
176
     1
 62
   256
176
     0
 40
1.0
176
     0
 90
        2
176
     1
  1
strokes_ogs.tif
176
     1
290
     0
176
     1
 40
1.0
176
     1
 40
1.0
176
     1
1001
ACAD
1000
AcDbSavedByObjectVersion
1070
     0
  0
VISUALSTYLE
  5
7F91
102
{ACAD_REACTORS
330
7F7E
102
}
330
7F7E
100
AcDbVisualStyle
  2
X-Ray
 70
    25
177
     3
291
     0
 70
    58
 90
        2
176
     1
 90
        2
176
     1
 90
        1
176
     1
 90
        1
176
     1
 40
0.5
176
     1
 40
30.0
176
     1
 62
     7
420
 16777215
176
     1
 90
        1
176
     1
 90
        0
176
     1
 62
     7
176
     1
 62
   257
176
     1
 90
        1
176
     1
 90
        1
176
     1
 40
1.0
176
     1
 90
        8
176
     1
 62
     7
176
     1
 40
1.0
176
     1
 90
        1
176
     1
 90
        6
176
     1
 90
        2
176
     1
 62
     7
176
     1
 90
        3
176
     1
 90
        0
176
     1
 90
        0
176
     1
290
     0
176
     1
 90
       13
176
     1
 40
0.0
176
     1
 90
        0
176
     1
290
     0
176
     1
290
     1
176
     1
290
     1
176
     1
290
     0
176
     1
290
     0
176
     1
290
     0
176
     1
290
     0
176
     1
290
     0
176
     1
290
     0
176
     1
 90
       50
176
     1
 40
0.0
176
     1
 40
1.0
176
     1
 90
        0
176
     1
 62
    18
420
        0
176
     1
 90
       50
176
     1
 90
        3
176
     1
 62
     5
420
      255
176
     1
290
     0
176
     1
 90
       50
176
     1
 90
       50
176
     1
 90
       50
176
     1
290
     0
176
     1
 90
       50
176
     1
 62
   256
176
     0
 40
1.0
176
     0
 90
        2
176
     1
  1
strokes_ogs.tif
176
     1
290
     0
176
     1
 40
1.0
176
     1
 40
1.0
176
     1
1001
ACAD
1000
AcDbSavedByObjectVersion
1070
     0
  0
DICTIONARYVAR
  5
803D
102
{ACAD_REACTORS
330
7F5C
102
}
330
7F5C
100
DictionaryVariables
280
     0
  1
1:1
  0
DICTIONARYVAR
  5
8039
102
{ACAD_REACTORS
330
7F5C
102
}
330
7F5C
100
DictionaryVariables
280
     0
  1
STANDARD
  0
DICTIONARYVAR
  5
8038
102
{ACAD_REACTORS
330
7F5C
102
}
330
7F5C
100
DictionaryVariables
280
     0
  1
STANDARD
  0
DICTIONARYVAR
  5
803A
102
{ACAD_REACTORS
330
7F5C
102
}
330
7F5C
100
DictionaryVariables
280
     0
  1
Metric50
  0
DICTIONARYVAR
  5
803B
102
{ACAD_REACTORS
330
7F5C
102
}
330
7F5C
100
DictionaryVariables
280
     0
  1
Metric50
  0
DICTIONARYVAR
  5
7F5D
102
{ACAD_REACTORS
330
7F5C
102
}
330
7F5C
100
DictionaryVariables
280
     0
  1
1
  0
DICTIONARYVAR
  5
803F
102
{ACAD_REACTORS
330
7F5C
102
}
330
7F5C
100
DictionaryVariables
280
     0
  1
1
  0
DICTIONARYVAR
  5
8040
102
{ACAD_REACTORS
330
7F5C
102
}
330
7F5C
100
DictionaryVariables
280
     0
  1
15
  0
DICTIONARYVAR
  5
803E
102
{ACAD_REACTORS
330
7F5C
102
}
330
7F5C
100
DictionaryVariables
280
     0
  1
0
  0
DICTIONARYVAR
  5
8045
102
{ACAD_REACTORS
330
7F5C
102
}
330
7F5C
100
DictionaryVariables
280
     0
  1
0
  0
DICTIONARYVAR
  5
803C
102
{ACAD_REACTORS
330
7F5C
102
}
330
7F5C
100
DictionaryVariables
280
     0
  1
0
  0
DICTIONARY
  5
8050
102
{ACAD_REACTORS
330
804E
102
}
330
804E
100
AcDbDictionary
281
     1
  0
DICTIONARY
  5
804F
102
{ACAD_REACTORS
330
804E
102
}
330
804E
100
AcDbDictionary
281
     1
  3
2048535902224
350
8049
  3
2048535902240
350
804A
  3
2048535902256
350
804B
  3
2048535902272
350
804C
  3
2048535902288
350
804D
  0
DICTIONARY
  5
8053
330
7FB1
100
AcDbDictionary
280
     1
281
     1
  3
ACAD_XREC_ROUNDTRIP
360
8054
  0
DICTIONARY
  5
7F6F
330
7F6E
100
AcDbDictionary
280
     1
281
     1
  3
BUMPTILE
360
7F71
  3
DIFFUSETILE
360
7F70
  3
OPACITYTILE
360
7F74
  3
REFLECTIONTILE
360
7F73
  3
REFRACTIONTILE
360
7F75
  3
SPECULARTILE
360
7F72
  0
DICTIONARY
  5
7F67
330
7F66
100
AcDbDictionary
280
     1
281
     1
  3
BUMPTILE
360
7F69
  3
DIFFUSETILE
360
7F68
  3
OPACITYTILE
360
7F6C
  3
REFLECTIONTILE
360
7F6B
  3
REFRACTIONTILE
360
7F6D
  3
SPECULARTILE
360
7F6A
  0
DICTIONARY
  5
7F77
330
7F76
100
AcDbDictionary
280
     1
281
     1
  3
BUMPTILE
360
7F79
  3
DIFFUSETILE
360
7F78
  3
OPACITYTILE
360
7F7C
  3
REFLECTIONTILE
360
7F7B
  3
REFRACTIONTILE
360
7F7D
  3
SPECULARTILE
360
7F7A
  0
DICTIONARY
  5
8051
330
7FAF
100
AcDbDictionary
280
     1
281
     1
  3
ACAD_XREC_ROUNDTRIP
360
8052
  0
DICTIONARY
  5
8046
330
7F99
100
AcDbDictionary
280
     1
281
     1
  3
ACAD_ROUNDTRIP_2008_TABLESTYLE_CELLSTYLEMAP
360
8047
  0
XRECORD
  5
8049
102
{ACAD_REACTORS
330
804F
102
}
330
804F
100
AcDbXrecord
280
     1
  1
AcDb_Thumbnail_Schema
102
{ATTRRECORD
341
804A
  2
AcDbDs::TreatedAsObjectData
280
     1
291
     1
102
ATTRRECORD}
102
{ATTRRECORD
341
804B
  2
AcDbDs::Legacy
280
     1
291
     1
102
ATTRRECORD}
  2
AcDbDs::ID
280
    10
 91
        8
102
{ATTRRECORD
341
804C
  2
AcDs:Indexable
280
     1
291
     1
102
ATTRRECORD}
102
{ATTRRECORD
341
804D
  2
AcDbDs::HandleAttribute
280
     7
282
     1
102
ATTRRECORD}
  2
Thumbnail_Data
280
    15
 91
        0
  0
XRECORD
  5
804A
102
{ACAD_REACTORS
330
804F
102
}
330
804F
100
AcDbXrecord
280
     1
  1
AcDbDs::TreatedAsObjectDataSchema
  2
AcDbDs::TreatedAsObjectData
280
     1
 91
        0
  0
XRECORD
  5
804B
102
{ACAD_REACTORS
330
804F
102
}
330
804F
100
AcDbXrecord
280
     1
  1
AcDbDs::LegacySchema
  2
AcDbDs::Legacy
280
     1
 91
        0
  0
XRECORD
  5
804C
102
{ACAD_REACTORS
330
804F
102
}
330
804F
100
AcDbXrecord
280
     1
  1
AcDbDs::IndexedPropertySchema
  2
AcDs:Indexable
280
     1
 91
        0
  0
XRECORD
  5
804D
102
{ACAD_REACTORS
330
804F
102
}
330
804F
100
AcDbXrecord
280
     1
  1
AcDbDs::HandleAttributeSchema
  2
AcDbDs::HandleAttribute
280
     7
 91
        1
284
     1
  0
XRECORD
  5
8054
102
{ACAD_REACTORS
330
8053
102
}
330
8053
100
AcDbXrecord
280
     1
102
DISPLAYNAME
  1
Metric50
102
FLAGS
 90
        0
  0
XRECORD
  5
7F71
102
{ACAD_REACTORS
330
7F6F
102
}
330
7F6F
100
AcDbXrecord
280
     1
270
     1
271
     1
  0
XRECORD
  5
7F70
102
{ACAD_REACTORS
330
7F6F
102
}
330
7F6F
100
AcDbXrecord
280
     1
270
     1
271
     1
  0
XRECORD
  5
7F74
102
{ACAD_REACTORS
330
7F6F
102
}
330
7F6F
100
AcDbXrecord
280
     1
270
     1
271
     1
  0
XRECORD
  5
7F73
102
{ACAD_REACTORS
330
7F6F
102
}
330
7F6F
100
AcDbXrecord
280
     1
270
     1
271
     1
  0
XRECORD
  5
7F75
102
{ACAD_REACTORS
330
7F6F
102
}
330
7F6F
100
AcDbXrecord
280
     1
270
     1
271
     1
  0
XRECORD
  5
7F72
102
{ACAD_REACTORS
330
7F6F
102
}
330
7F6F
100
AcDbXrecord
280
     1
270
     1
271
     1
  0
XRECORD
  5
7F69
102
{ACAD_REACTORS
330
7F67
102
}
330
7F67
100
AcDbXrecord
280
     1
270
     1
271
     1
  0
XRECORD
  5
7F68
102
{ACAD_REACTORS
330
7F67
102
}
330
7F67
100
AcDbXrecord
280
     1
270
     1
271
     1
  0
XRECORD
  5
7F6C
102
{ACAD_REACTORS
330
7F67
102
}
330
7F67
100
AcDbXrecord
280
     1
270
     1
271
     1
  0
XRECORD
  5
7F6B
102
{ACAD_REACTORS
330
7F67
102
}
330
7F67
100
AcDbXrecord
280
     1
270
     1
271
     1
  0
XRECORD
  5
7F6D
102
{ACAD_REACTORS
330
7F67
102
}
330
7F67
100
AcDbXrecord
280
     1
270
     1
271
     1
  0
XRECORD
  5
7F6A
102
{ACAD_REACTORS
330
7F67
102
}
330
7F67
100
AcDbXrecord
280
     1
270
     1
271
     1
  0
XRECORD
  5
7F79
102
{ACAD_REACTORS
330
7F77
102
}
330
7F77
100
AcDbXrecord
280
     1
270
     1
271
     1
  0
XRECORD
  5
7F78
102
{ACAD_REACTORS
330
7F77
102
}
330
7F77
100
AcDbXrecord
280
     1
270
     1
271
     1
  0
XRECORD
  5
7F7C
102
{ACAD_REACTORS
330
7F77
102
}
330
7F77
100
AcDbXrecord
280
     1
270
     1
271
     1
  0
XRECORD
  5
7F7B
102
{ACAD_REACTORS
330
7F77
102
}
330
7F77
100
AcDbXrecord
280
     1
270
     1
271
     1
  0
XRECORD
  5
7F7D
102
{ACAD_REACTORS
330
7F77
102
}
330
7F77
100
AcDbXrecord
280
     1
270
     1
271
     1
  0
XRECORD
  5
7F7A
102
{ACAD_REACTORS
330
7F77
102
}
330
7F77
100
AcDbXrecord
280
     1
270
     1
271
     1
  0
XRECORD
  5
8052
102
{ACAD_REACTORS
330
8051
102
}
330
8051
100
AcDbXrecord
280
     1
102
DISPLAYNAME
  1
Metric50
102
FLAGS
 90
        0
  0
CELLSTYLEMAP
  5
8047
102
{ACAD_REACTORS
330
8046
102
}
330
8046
100
AcDbCellStyleMap
 90
        3
300
CELLSTYLE
  1
TABLEFORMAT_BEGIN
 90
        5
170
     1
 91
        0
 92
    32768
 62
   257
 93
        1
300
CONTENTFORMAT
  1
CONTENTFORMAT_BEGIN
 90
        0
 91
        0
 92
      512
 93
        0
300

 40
0.0
140
1.0
 94
        5
 62
     0
340
10
144
6.0
309
CONTENTFORMAT_END
171
     1
301
MARGIN
  1
CELLMARGIN_BEGIN
 40
1.5
 40
1.5
 40
1.5
 40
1.5
 40
4.5
 40
4.5
309
CELLMARGIN_END
 94
        6
 95
        1
302
GRIDFORMAT
  1
GRIDFORMAT_BEGIN
 90
        0
 91
        1
 62
     0
 92
       -2
340
0
 93
        0
 40
1.125
309
GRIDFORMAT_END
 95
        2
302
GRIDFORMAT
  1
GRIDFORMAT_BEGIN
 90
        0
 91
        1
 62
     0
 92
       -2
340
0
 93
        0
 40
1.125
309
GRIDFORMAT_END
 95
        4
302
GRIDFORMAT
  1
GRIDFORMAT_BEGIN
 90
        0
 91
        1
 62
     0
 92
       -2
340
0
 93
        0
 40
1.125
309
GRIDFORMAT_END
 95
        8
302
GRIDFORMAT
  1
GRIDFORMAT_BEGIN
 90
        0
 91
        1
 62
     0
 92
       -2
340
0
 93
        0
 40
1.125
309
GRIDFORMAT_END
 95
       16
302
GRIDFORMAT
  1
GRIDFORMAT_BEGIN
 90
        0
 91
        1
 62
     0
 92
       -2
340
0
 93
        0
 40
1.125
309
GRIDFORMAT_END
 95
       32
302
GRIDFORMAT
  1
GRIDFORMAT_BEGIN
 90
        0
 91
        1
 62
     0
 92
       -2
340
0
 93
        0
 40
1.125
309
GRIDFORMAT_END
309
TABLEFORMAT_END
  1
CELLSTYLE_BEGIN
 90
        1
 91
        1
300
_TITLE
309
CELLSTYLE_END
300
CELLSTYLE
  1
TABLEFORMAT_BEGIN
 90
        5
170
     1
 91
        0
 92
        0
 62
   257
 93
        1
300
CONTENTFORMAT
  1
CONTENTFORMAT_BEGIN
 90
        0
 91
        0
 92
      512
 93
        0
300

 40
0.0
140
1.0
 94
        5
 62
     0
340
10
144
4.5
309
CONTENTFORMAT_END
171
     1
301
MARGIN
  1
CELLMARGIN_BEGIN
 40
1.5
 40
1.5
 40
1.5
 40
1.5
 40
4.5
 40
4.5
309
CELLMARGIN_END
 94
        6
 95
        1
302
GRIDFORMAT
  1
GRIDFORMAT_BEGIN
 90
        0
 91
        1
 62
     0
 92
       -2
340
0
 93
        0
 40
1.125
309
GRIDFORMAT_END
 95
        2
302
GRIDFORMAT
  1
GRIDFORMAT_BEGIN
 90
        0
 91
        1
 62
     0
 92
       -2
340
0
 93
        0
 40
1.125
309
GRIDFORMAT_END
 95
        4
302
GRIDFORMAT
  1
GRIDFORMAT_BEGIN
 90
        0
 91
        1
 62
     0
 92
       -2
340
0
 93
        0
 40
1.125
309
GRIDFORMAT_END
 95
        8
302
GRIDFORMAT
  1
GRIDFORMAT_BEGIN
 90
        0
 91
        1
 62
     0
 92
       -2
340
0
 93
        0
 40
1.125
309
GRIDFORMAT_END
 95
       16
302
GRIDFORMAT
  1
GRIDFORMAT_BEGIN
 90
        0
 91
        1
 62
     0
 92
       -2
340
0
 93
        0
 40
1.125
309
GRIDFORMAT_END
 95
       32
302
GRIDFORMAT
  1
GRIDFORMAT_BEGIN
 90
        0
 91
        1
 62
     0
 92
       -2
340
0
 93
        0
 40
1.125
309
GRIDFORMAT_END
309
TABLEFORMAT_END
  1
CELLSTYLE_BEGIN
 90
        2
 91
        1
300
_HEADER
309
CELLSTYLE_END
300
CELLSTYLE
  1
TABLEFORMAT_BEGIN
 90
        5
170
     1
 91
        0
 92
        0
 62
   257
 93
        1
300
CONTENTFORMAT
  1
CONTENTFORMAT_BEGIN
 90
        0
 91
        0
 92
      512
 93
        0
300

 40
0.0
140
1.0
 94
        2
 62
     0
340
10
144
4.5
309
CONTENTFORMAT_END
171
     1
301
MARGIN
  1
CELLMARGIN_BEGIN
 40
1.5
 40
1.5
 40
1.5
 40
1.5
 40
4.5
 40
4.5
309
CELLMARGIN_END
 94
        6
 95
        1
302
GRIDFORMAT
  1
GRIDFORMAT_BEGIN
 90
        0
 91
        1
 62
     0
 92
       -2
340
0
 93
        0
 40
1.125
309
GRIDFORMAT_END
 95
        2
302
GRIDFORMAT
  1
GRIDFORMAT_BEGIN
 90
        0
 91
        1
 62
     0
 92
       -2
340
0
 93
        0
 40
1.125
309
GRIDFORMAT_END
 95
        4
302
GRIDFORMAT
  1
GRIDFORMAT_BEGIN
 90
        0
 91
        1
 62
     0
 92
       -2
340
0
 93
        0
 40
1.125
309
GRIDFORMAT_END
 95
        8
302
GRIDFORMAT
  1
GRIDFORMAT_BEGIN
 90
        0
 91
        1
 62
     0
 92
       -2
340
0
 93
        0
 40
1.125
309
GRIDFORMAT_END
 95
       16
302
GRIDFORMAT
  1
GRIDFORMAT_BEGIN
 90
        0
 91
        1
 62
     0
 92
       -2
340
0
 93
        0
 40
1.125
309
GRIDFORMAT_END
 95
       32
302
GRIDFORMAT
  1
GRIDFORMAT_BEGIN
 90
        0
 91
        1
 62
     0
 92
       -2
340
0
 93
        0
 40
1.125
309
GRIDFORMAT_END
309
TABLEFORMAT_END
  1
CELLSTYLE_BEGIN
 90
        3
 91
        2
300
_DATA
309
CELLSTYLE_END
  0
ENDSEC
  0
SECTION
  2
ACDSDATA
 70
     2
 71
     8
  0
ACDSSCHEMA
 90
        0
  1
AcDb_Thumbnail_Schema
  2
AcDbDs::ID
280
    10
 91
        8
  2
Thumbnail_Data
280
    15
 91
        0
101
ACDSRECORD
 95
        0
 90
        1
  2
AcDbDs::TreatedAsObjectData
280
     1
291
     1
101
ACDSRECORD
 95
        0
 90
        2
  2
AcDbDs::Legacy
280
     1
291
     1
101
ACDSRECORD
  1
AcDbDs::ID
 90
        3
  2
AcDs:Indexable
280
     1
291
     1
101
ACDSRECORD
  1
AcDbDs::ID
 90
        4
  2
AcDbDs::HandleAttribute
280
     7
282
     1
  0
ACDSSCHEMA
 90
        1
  1
AcDbDs::TreatedAsObjectDataSchema
  2
AcDbDs::TreatedAsObjectData
280
     1
 91
        0
  0
ACDSSCHEMA
 90
        2
  1
AcDbDs::LegacySchema
  2
AcDbDs::Legacy
280
     1
 91
        0
  0
ACDSSCHEMA
 90
        3
  1
AcDbDs::IndexedPropertySchema
  2
AcDs:Indexable
280
     1
 91
        0
  0
ACDSSCHEMA
 90
        4
  1
AcDbDs::HandleAttributeSchema
  2
AcDbDs::HandleAttribute
280
     7
 91
        1
284
     1
  0
ACDSRECORD
 90
        0
  2
AcDbDs::ID
280
    10
320
7E98
  2
Thumbnail_Data
280
    15
 94
     1733
310
89504E470D0A1A0A0000000D49484452000001000000007C0803000000B13B9E5A00000300504C5445000000000000C8C8C80000000000000000000000000000000000000000000000000000330000660000990000CC0000FF0033000033330033660033990033CC0033FF0066000066330066660066990066CC0066FF0099
310
000099330099660099990099CC0099FF00CC0000CC3300CC6600CC9900CCCC00CCFF00FF0000FF3300FF6600FF9900FFCC00FFFF3300003300333300663300993300CC3300FF3333003333333333663333993333CC3333FF3366003366333366663366993366CC3366FF3399003399333399663399993399CC3399FF33CC00
310
33CC3333CC6633CC9933CCCC33CCFF33FF0033FF3333FF6633FF9933FFCC33FFFF6600006600336600666600996600CC6600FF6633006633336633666633996633CC6633FF6666006666336666666666996666CC6666FF6699006699336699666699996699CC6699FF66CC0066CC3366CC6666CC9966CCCC66CCFF66FF0066
310
FF3366FF6666FF9966FFCC66FFFF9900009900339900669900999900CC9900FF9933009933339933669933999933CC9933FF9966009966339966669966999966CC9966FF9999009999339999669999999999CC9999FF99CC0099CC3399CC6699CC9999CCCC99CCFF99FF0099FF3399FF6699FF9999FFCC99FFFFCC0000CC00
310
33CC0066CC0099CC00CCCC00FFCC3300CC3333CC3366CC3399CC33CCCC33FFCC6600CC6633CC6666CC6699CC66CCCC66FFCC9900CC9933CC9966CC9999CC99CCCC99FFCCCC00CCCC33CCCC66CCCC99CCCCCCCCCCFFCCFF00CCFF33CCFF66CCFF99CCFFCCCCFFFFFF0000FF0033FF0066FF0099FF00CCFF00FFFF3300FF3333
310
FF3366FF3399FF33CCFF33FFFF6600FF6633FF6666FF6699FF66CCFF66FFFF9900FF9933FF9966FF9999FF99CCFF99FFFFCC00FFCC33FFCC66FFCC99FFCCCCFFCCFFFFFF00FFFF33FFFF66FFFF99FFFFCCFFFFFF0000000D0D0D1A1A1A2828283535354343435050505D5D5D6B6B6B787878868686939393A1A1A1AEAEAEBB
310
BBBBC9C9C9D6D6D6E4E4E4F1F1F1FFFFFF00000000000000000000000000000000000000000000000000000000000008F1915C000003804944415478DAED9D4B72C3200C86751C36BAFF65B806FBC63608898793CC346DF46005C4F5441F3F020425001F48E54309B4A4A2EAB50120000480001000BEE79BDE0C7E5E000C7F
310
5E5C2AC03D80E219C0D00B7403F8D515804A005FF6B200F02F5DE0EAD7A4E85E3AB2D0347ED60E03418162C707C09C6D004E6B2F63A916E843E55D60F669520C1C4053000806CA15D00DACE35B6B65D6B6E5EE2DE104631EE071395C4C2D8799D30331D2153EE0D198797A3F580481F52A400C00DD39CA99017448C09E34A5
310
8052CAAC803AEE5D75CD7CB0A5805FFAFB880906800010005403C847DA948C03C883CDB917B20F0037C99302200D6570A300CF004E9DA34CB5EC440119B0651362AF0F002E01F47CCDBA03D00A2DE70FC055A24C00F00780D4EF03C031D91D0054FFEF0840DAA450805300E403CE59F1EB4B422B00E428F0860CEC01787345
310
64702698C01F00B116B800D8F601B7ABC100E005C026B9014012E002F0340AB079CF4206D601AC82A23C3E6A7D2608D4C2D8C3E2E414011DED0BB0166FCDFF18157C6D8CC0BC271A7B832E007CF56B03C0DF7ED3F7CF45180090BDFB808795DC5661B70F00F02200AE89591FF6BA801F002243964900CF9D840500370AC883
310
12E67A1B00846BDC00102D6F0CC054BDEA1E4225AA01CCF6C8A35223009C0207197503A86320AC23429302961113230084D5579A0150F030ADDC814A00ED3C30D24608BE0500BB82D403A82131448F00AE2D314CC8ACC4618440B40EE0EC02DDF401008249009713ACC61D0AE8ED3C02D82940AF13A4197F0770D88FB803D0
310
3DA4290039E5E511299487A41E1547A07C7AC88402A02BA0B6F55A01AB2E80A01F000237BCAAFDC52E706EA5680690733F1185970F3C8134639F3A41D0AD80ABF9B0CE7F12F781C35A600F004C006833C1A682736E986C03A089903820D01020C8C59E58241A5B0CF5C91F778249EE0E3F463CA423C45201CA0322CC907E3E
310
60DE1E473E41B2070084B21149F24FBA807E00DB48CF1EC01C36D20DE0E68C5012F1119B0072006000F20C805D2830FF6FAD8889AA3D2607B43B0A8BEDD12C1FECBB66F3FD022A01B425F10BE7039E9E1F500DA095A667390098F3FA0140FE4CCFD2E303200004800010000240000800F523EFB7CADE5856D6451700E4ADAB
310
941D2E97B50100163F9DC6AE932D749F2ABB60357C807D05D04DC27797E95AF6012E016CFA852305C4EDF231150E0001200004800010000C0250F4D3DB3FCAB157755FC81F3C0000000049454E44AE426082
  0
ENDSEC
  0
EOF
