  0
SECTION
  2
HEADER
  9
$ACADVER
  1
AC1027
  9
$ACADMAINTVER
 70
   125
  9
$DWGCODEPAGE
  3
ANSI_932
  9
$LASTSAVEDBY
  1
yasukiyo.ogawa
  9
$REQUIREDVERSIONS
160
                 0
  9
$INSBASE
 10
0.0
 20
0.0
 30
0.0
  9
$EXTMIN
 10
0.0
 20
0.0
 30
0.0
  9
$EXTMAX
 10
9450.0
 20
13275.0
 30
0.0
  9
$LIMMIN
 10
0.0
 20
0.0
  9
$LIMMAX
 10
297.0
 20
210.0
  9
$ORTHOMODE
 70
     1
  9
$REGENMODE
 70
     1
  9
$FILLMODE
 70
     0
  9
$QTEXTMODE
 70
     0
  9
$MIRRTEXT
 70
     1
  9
$LTSCALE
 40
100.0
  9
$ATTMODE
 70
     1
  9
$TEXTSIZE
 40
180.0
  9
$TRACEWID
 40
0.05
  9
$TEXTSTYLE
  7
STANDARD
  9
$CLAYER
  8
3
  9
$CELTYPE
  6
BYLAYER
  9
$CECOLOR
 62
   256
  9
$CELTSCALE
 40
1.0
  9
$DISPSILH
 70
     0
  9
$DIMSCALE
 40
45.0
  9
$DIMASZ
 40
2.0
  9
$DIMEXO
 40
0.5
  9
$DIMDLI
 40
10.0
  9
$DIMRND
 40
0.0
  9
$DIMDLE
 40
0.0
  9
$DIMEXE
 40
1.0
  9
$DIMTP
 40
1.0
  9
$DIMTM
 40
1.0
  9
$DIMTXT
 40
3.0
  9
$DIMCEN
 40
0.0
  9
$DIMTSZ
 40
0.0
  9
$DIMTOL
 70
     0
  9
$DIMLIM
 70
     0
  9
$DIMTIH
 70
     0
  9
$DIMTOH
 70
     0
  9
$DIMSE1
 70
     0
  9
$DIMSE2
 70
     0
  9
$DIMTAD
 70
     1
  9
$DIMZIN
 70
     8
  9
$DIMBLK
  1

  9
$DIMASO
 70
     1
  9
$DIMSHO
 70
     1
  9
$DIMPOST
  1
(<>)
  9
$DIMAPOST
  1

  9
$DIMALT
 70
     0
  9
$DIMALTD
 70
     2
  9
$DIMALTF
 40
0.039
  9
$DIMLFAC
 40
1.0
  9
$DIMTOFL
 70
     1
  9
$DIMTVP
 40
0.0
  9
$DIMTIX
 70
     0
  9
$DIMSOXD
 70
     0
  9
$DIMSAH
 70
     1
  9
$DIMBLK1
  1
OPEN
  9
$DIMBLK2
  1
OPEN
  9
$DIMSTYLE
  2
IGA
  9
$DIMCLRD
 70
     0
  9
$DIMCLRE
 70
     0
  9
$DIMCLRT
 70
     0
  9
$DIMTFAC
 40
10.0
  9
$DIMGAP
 40
1.0
  9
$DIMJUST
 70
     0
  9
$DIMSD1
 70
     0
  9
$DIMSD2
 70
     0
  9
$DIMTOLJ
 70
     1
  9
$DIMTZIN
 70
     8
  9
$DIMALTZ
 70
     0
  9
$DIMALTTZ
 70
     0
  9
$DIMUPT
 70
     0
  9
$DIMDEC
 70
     0
  9
$DIMTDEC
 70
     0
  9
$DIMALTU
 70
     2
  9
$DIMALTTD
 70
     2
  9
$DIMTXSTY
  7
STANDARD
  9
$DIMAUNIT
 70
     0
  9
$DIMADEC
 70
     0
  9
$DIMALTRND
 40
0.0
  9
$DIMAZIN
 70
     0
  9
$DIMDSEP
 70
    46
  9
$DIMATFIT
 70
     3
  9
$DIMFRAC
 70
     0
  9
$DIMLDRBLK
  1
OPEN
  9
$DIMLUNIT
 70
     2
  9
$DIMLWD
 70
    -2
  9
$DIMLWE
 70
    -2
  9
$DIMTMOVE
 70
     2
  9
$DIMFXL
 40
1.0
  9
$DIMFXLON
 70
     0
  9
$DIMJOGANG
 40
0.7853981633974483
  9
$DIMTFILL
 70
     0
  9
$DIMTFILLCLR
 70
     0
  9
$DIMARCSYM
 70
     0
  9
$DIMLTYPE
  6

  9
$DIMLTEX1
  6

  9
$DIMLTEX2
  6

  9
$DIMTXTDIRECTION
 70
     0
  9
$LUNITS
 70
     2
  9
$LUPREC
 70
     3
  9
$SKETCHINC
 40
0.1
  9
$FILLETRAD
 40
50.0
  9
$AUNITS
 70
     0
  9
$AUPREC
 70
     0
  9
$MENU
  1
acad
  9
$ELEVATION
 40
0.0
  9
$PELEVATION
 40
0.0
  9
$THICKNESS
 40
0.0
  9
$LIMCHECK
 70
     0
  9
$CHAMFERA
 40
0.5
  9
$CHAMFERB
 40
0.5
  9
$CHAMFERC
 40
20.0
  9
$CHAMFERD
 40
0.0
  9
$SKPOLY
 70
     0
  9
$TDCREATE
 40
2452324.548263889
  9
$TDUCREATE
 40
2452324.173273380
  9
$TDUPDATE
 40
2460245.561782408
  9
$TDUUPDATE
 40
2460245.186786702
  9
$TDINDWG
 40
0.0343572338
  9
$TDUSRTIMER
 40
0.0343572338
  9
$USRTIMER
 70
     1
  9
$ANGBASE
 50
0.0
  9
$ANGDIR
 70
     0
  9
$PDMODE
 70
     0
  9
$PDSIZE
 40
0.0
  9
$PLINEWID
 40
0.0
  9
$SPLFRAME
 70
     0
  9
$SPLINETYPE
 70
     6
  9
$SPLINESEGS
 70
     8
  9
$HANDSEED
  5
8097
  9
$SURFTAB1
 70
     6
  9
$SURFTAB2
 70
     6
  9
$SURFTYPE
 70
     6
  9
$SURFU
 70
     6
  9
$SURFV
 70
     6
  9
$UCSBASE
  2

  9
$UCSNAME
  2

  9
$UCSORG
 10
0.0
 20
0.0
 30
0.0
  9
$UCSXDIR
 10
1.0
 20
0.0
 30
0.0
  9
$UCSYDIR
 10
0.0
 20
1.0
 30
0.0
  9
$UCSORTHOREF
  2

  9
$UCSORTHOVIEW
 70
     0
  9
$UCSORGTOP
 10
0.0
 20
0.0
 30
0.0
  9
$UCSORGBOTTOM
 10
0.0
 20
0.0
 30
0.0
  9
$UCSORGLEFT
 10
0.0
 20
0.0
 30
0.0
  9
$UCSORGRIGHT
 10
0.0
 20
0.0
 30
0.0
  9
$UCSORGFRONT
 10
0.0
 20
0.0
 30
0.0
  9
$UCSORGBACK
 10
0.0
 20
0.0
 30
0.0
  9
$PUCSBASE
  2

  9
$PUCSNAME
  2

  9
$PUCSORG
 10
0.0
 20
0.0
 30
0.0
  9
$PUCSXDIR
 10
1.0
 20
0.0
 30
0.0
  9
$PUCSYDIR
 10
0.0
 20
1.0
 30
0.0
  9
$PUCSORTHOREF
  2

  9
$PUCSORTHOVIEW
 70
     0
  9
$PUCSORGTOP
 10
0.0
 20
0.0
 30
0.0
  9
$PUCSORGBOTTOM
 10
0.0
 20
0.0
 30
0.0
  9
$PUCSORGLEFT
 10
0.0
 20
0.0
 30
0.0
  9
$PUCSORGRIGHT
 10
0.0
 20
0.0
 30
0.0
  9
$PUCSORGFRONT
 10
0.0
 20
0.0
 30
0.0
  9
$PUCSORGBACK
 10
0.0
 20
0.0
 30
0.0
  9
$USERI1
 70
     0
  9
$USERI2
 70
     0
  9
$USERI3
 70
     0
  9
$USERI4
 70
     0
  9
$USERI5
 70
     0
  9
$USERR1
 40
0.0
  9
$USERR2
 40
0.0
  9
$USERR3
 40
0.0
  9
$USERR4
 40
0.0
  9
$USERR5
 40
0.0
  9
$WORLDVIEW
 70
     1
  9
$SHADEDGE
 70
     3
  9
$SHADEDIF
 70
    70
  9
$TILEMODE
 70
     1
  9
$MAXACTVP
 70
    16
  9
$PINSBASE
 10
0.0
 20
0.0
 30
0.0
  9
$PLIMCHECK
 70
     0
  9
$PEXTMIN
 10
1.000000000000000E+20
 20
1.000000000000000E+20
 30
1.000000000000000E+20
  9
$PEXTMAX
 10
-1.000000000000000E+20
 20
-1.000000000000000E+20
 30
-1.000000000000000E+20
  9
$PLIMMIN
 10
0.0
 20
0.0
  9
$PLIMMAX
 10
12.0
 20
9.0
  9
$UNITMODE
 70
     0
  9
$VISRETAIN
 70
     0
  9
$PLINEGEN
 70
     0
  9
$PSLTSCALE
 70
     1
  9
$TREEDEPTH
 70
  3020
  9
$CMLSTYLE
  2
STANDARD
  9
$CMLJUST
 70
     0
  9
$CMLSCALE
 40
20.0
  9
$PROXYGRAPHICS
 70
     1
  9
$MEASUREMENT
 70
     1
  9
$CELWEIGHT
370
    -1
  9
$ENDCAPS
280
     0
  9
$JOINSTYLE
280
     0
  9
$LWDISPLAY
290
     0
  9
$INSUNITS
 70
     0
  9
$HYPERLINKBASE
  1

  9
$STYLESHEET
  1

  9
$XEDIT
290
     1
  9
$CEPSNTYPE
380
     0
  9
$PSTYLEMODE
290
     1
  9
$FINGERPRINTGUID
  2
{65ABD219-4F96-40E7-893F-722A3DE5A22C}
  9
$VERSIONGUID
  2
{311A48E8-6CBB-437F-A514-C521FDBF5106}
  9
$EXTNAMES
290
     1
  9
$PSVPSCALE
 40
0.0
  9
$OLESTARTUP
290
     0
  9
$SORTENTS
280
   127
  9
$INDEXCTL
280
     0
  9
$HIDETEXT
280
     0
  9
$XCLIPFRAME
280
     2
  9
$HALOGAP
280
     0
  9
$OBSCOLOR
 70
   257
  9
$OBSLTYPE
280
     0
  9
$INTERSECTIONDISPLAY
280
     0
  9
$INTERSECTIONCOLOR
 70
   257
  9
$DIMASSOC
280
     1
  9
$PROJECTNAME
  1

  9
$CAMERADISPLAY
290
     0
  9
$LENSLENGTH
 40
50.0
  9
$CAMERAHEIGHT
 40
0.0
  9
$STEPSPERSEC
 40
2.0
  9
$STEPSIZE
 40
6.0
  9
$3DDWFPREC
 40
2.0
  9
$PSOLWIDTH
 40
0.25
  9
$PSOLHEIGHT
 40
4.0
  9
$LOFTANG1
 40
1.570796326794896
  9
$LOFTANG2
 40
1.570796326794896
  9
$LOFTMAG1
 40
0.0
  9
$LOFTMAG2
 40
0.0
  9
$LOFTPARAM
 70
     7
  9
$LOFTNORMALS
280
     1
  9
$LATITUDE
 40
37.795
  9
$LONGITUDE
 40
-122.394
  9
$NORTHDIRECTION
 40
0.0
  9
$TIMEZONE
 70
 -8000
  9
$LIGHTGLYPHDISPLAY
280
     1
  9
$TILEMODELIGHTSYNCH
280
     1
  9
$CMATERIAL
347
7FE5
  9
$SOLIDHIST
280
     0
  9
$SHOWHIST
280
     1
  9
$DWFFRAME
280
     2
  9
$DGNFRAME
280
     0
  9
$REALWORLDSCALE
290
     1
  9
$INTERFERECOLOR
 62
     1
  9
$INTERFEREOBJVS
345
8007
  9
$INTERFEREVPVS
346
8004
  9
$CSHADOW
280
     0
  9
$SHADOWPLANELOCATION
 40
0.0
  0
ENDSEC
  0
SECTION
  2
CLASSES
  0
CLASS
  1
ACDBDICTIONARYWDFLT
  2
AcDbDictionaryWithDefault
  3
ObjectDBX Classes
 90
        0
 91
        1
280
     0
281
     0
  0
CLASS
  1
DICTIONARYVAR
  2
AcDbDictionaryVar
  3
ObjectDBX Classes
 90
        0
 91
       11
280
     0
281
     0
  0
CLASS
  1
MATERIAL
  2
AcDbMaterial
  3
ObjectDBX Classes
 90
     1153
 91
        3
280
     0
281
     0
  0
CLASS
  1
VISUALSTYLE
  2
AcDbVisualStyle
  3
ObjectDBX Classes
 90
     4095
 91
       24
280
     0
281
     0
  0
CLASS
  1
TABLESTYLE
  2
AcDbTableStyle
  3
ObjectDBX Classes
 90
     4095
 91
        1
280
     0
281
     0
  0
CLASS
  1
SCALE
  2
AcDbScale
  3
ObjectDBX Classes
 90
     1153
 91
       17
280
     0
281
     0
  0
CLASS
  1
MLEADERSTYLE
  2
AcDbMLeaderStyle
  3
ACDB_MLEADERSTYLE_CLASS
 90
     4095
 91
        1
280
     0
281
     0
  0
CLASS
  1
ACDBSECTIONVIEWSTYLE
  2
AcDbSectionViewStyle
  3
ObjectDBX Classes
 90
     1025
 91
        1
280
     0
281
     0
  0
CLASS
  1
ACDBDETAILVIEWSTYLE
  2
AcDbDetailViewStyle
  3
ObjectDBX Classes
 90
     1025
 91
        1
280
     0
281
     0
  0
CLASS
  1
CELLSTYLEMAP
  2
AcDbCellStyleMap
  3
ObjectDBX Classes
 90
     1152
 91
        1
280
     0
281
     0
  0
ENDSEC
  0
SECTION
  2
TABLES
  0
TABLE
  2
VPORT
  5
8
330
0
100
AcDbSymbolTable
 70
     1
1001
ACAD
1000
DbSaveVer
1071
      278
  0
VPORT
  5
7FE2
330
8
100
AcDbSymbolTableRecord
100
AcDbViewportTableRecord
  2
*Active
 70
     0
 10
0.0
 20
0.0
 11
1.0
 21
1.0
 12
6061.755418487901
 22
6637.500030908269
 13
0.0
 23
0.0
 14
10.0
 24
10.0
 15
10.0
 25
10.0
 16
0.0
 26
0.0
 36
1.0
 17
0.0
 27
0.0
 37
0.0
 40
13360.82076619344
 41
2.250314465408805
 42
50.0
 43
0.0
 44
0.0
 50
0.0
 51
0.0
 71
     0
 72
   100
 73
     1
 74
     0
 75
     0
 76
     0
 77
     0
 78
     0
281
     0
 65
     1
110
0.0
120
0.0
130
0.0
111
1.0
121
0.0
131
0.0
112
0.0
122
1.0
132
0.0
 79
     0
146
0.0
348
8003
 60
     3
 61
     5
292
     1
282
     1
141
0.0
142
0.0
 63
   250
421
  3355443
1001
ACAD_NAV_VCDISPLAY
1070
     3
  0
ENDTAB
  0
TABLE
  2
LTYPE
  5
5
330
0
100
AcDbSymbolTable
 70
     2
  0
LTYPE
  5
13
330
5
100
AcDbSymbolTableRecord
100
AcDbLinetypeTableRecord
  2
BYBLOCK
 70
     0
  3

 72
    65
 73
     0
 40
0.0
  0
LTYPE
  5
14
330
5
100
AcDbSymbolTableRecord
100
AcDbLinetypeTableRecord
  2
BYLAYER
 70
     0
  3

 72
    65
 73
     0
 40
0.0
  0
LTYPE
  5
15
330
5
100
AcDbSymbolTableRecord
100
AcDbLinetypeTableRecord
  2
CONTINUOUS
 70
     0
  3
Solid line
 72
    65
 73
     0
 40
0.0
  0
LTYPE
  5
1F
330
5
100
AcDbSymbolTableRecord
100
AcDbLinetypeTableRecord
  2
CENTER
 70
     0
  3
____ _ ____ _ ____ _ ____ _ ____ _ ____ _ ____ 
 72
    65
 73
     4
 40
2.0
 49
1.25
 74
     0
 49
-0.25
 74
     0
 49
0.25
 74
     0
 49
-0.25
 74
     0
  0
ENDTAB
  0
TABLE
  2
LAYER
  5
2
102
{ACAD_XDICTIONARY
360
806E
102
}
330
0
100
AcDbSymbolTable
 70
     6
  0
LAYER
  5
F
102
{ACAD_XDICTIONARY
360
8061
102
}
330
2
100
AcDbSymbolTableRecord
100
AcDbLayerTableRecord
  2
0
 70
     0
 62
     7
  6
CONTINUOUS
370
    -3
390
7F14
347
7FF5
348
0
  0
LAYER
  5
31
102
{ACAD_XDICTIONARY
360
8063
102
}
330
2
100
AcDbSymbolTableRecord
100
AcDbLayerTableRecord
  2
3
 70
     0
 62
     2
  6
CONTINUOUS
370
    -3
390
7F14
347
7FF5
348
0
  0
LAYER
  5
76D0
102
{ACAD_XDICTIONARY
360
8065
102
}
330
2
100
AcDbSymbolTableRecord
100
AcDbLayerTableRecord
  2
2
 70
     0
 62
     3
  6
CENTER
370
    -3
390
7F14
347
7FF5
348
0
  0
LAYER
  5
76D1
102
{ACAD_XDICTIONARY
360
8067
102
}
330
2
100
AcDbSymbolTableRecord
100
AcDbLayerTableRecord
  2
1
 70
     0
 62
     4
  6
CONTINUOUS
370
    -3
390
7F14
347
7FF5
348
0
  0
LAYER
  5
76D2
102
{ACAD_XDICTIONARY
360
8069
102
}
330
2
100
AcDbSymbolTableRecord
100
AcDbLayerTableRecord
  2
4
 70
     0
 62
     7
  6
CONTINUOUS
370
    -3
390
7F14
347
7FF5
348
0
  0
LAYER
  5
7A00
330
2
100
AcDbSymbolTableRecord
100
AcDbLayerTableRecord
  2
DEFPOINTS
 70
     0
 62
     7
  6
CONTINUOUS
290
     0
370
    -3
390
7F14
347
7FF5
348
0
  0
ENDTAB
  0
TABLE
  2
STYLE
  5
3
330
0
100
AcDbSymbolTable
 70
     1
  0
STYLE
  5
10
330
3
100
AcDbSymbolTableRecord
100
AcDbTextStyleTableRecord
  2
STANDARD
 70
     0
 40
0.0
 41
1.0
 50
0.0
 71
     0
 42
180.0
  3
simplex.shx
  4
extfont.shx
  0
ENDTAB
  0
TABLE
  2
VIEW
  5
6
330
0
100
AcDbSymbolTable
 70
     0
  0
ENDTAB
  0
TABLE
  2
UCS
  5
7
330
0
100
AcDbSymbolTable
 70
     0
  0
ENDTAB
  0
TABLE
  2
APPID
  5
9
330
0
100
AcDbSymbolTable
 70
     4
  0
APPID
  5
11
330
9
100
AcDbSymbolTableRecord
100
AcDbRegAppTableRecord
  2
ACAD
 70
     0
  0
APPID
  5
8034
330
9
100
AcDbSymbolTableRecord
100
AcDbRegAppTableRecord
  2
AcadAnnoMonitorAlertIconDisabled
 70
     0
  0
APPID
  5
8035
330
9
100
AcDbSymbolTableRecord
100
AcDbRegAppTableRecord
  2
ACAD_EXEMPT_FROM_CAD_STANDARDS
 70
     0
  0
APPID
  5
8074
330
9
100
AcDbSymbolTableRecord
100
AcDbRegAppTableRecord
  2
ACAD_NAV_VCDISPLAY
 70
     0
  0
ENDTAB
  0
TABLE
  2
DIMSTYLE
  5
A
330
0
100
AcDbSymbolTable
 70
     1
100
AcDbDimStyleTable
 71
     0
  0
DIMSTYLE
105
1D
102
{ACAD_REACTORS
330
7BB6
330
7BD9
330
7BE6
330
7BFD
330
7C5C
330
7C68
330
7C88
330
7D3E
330
7D4B
330
7D57
330
7D64
330
7D71
330
7D7E
330
7D8B
330
7D99
330
7DA5
330
7EA6
330
7EB3
330
7EC0
330
7ECD
330
7EDC
330
7EE9
102
}
330
A
100
AcDbSymbolTableRecord
100
AcDbDimStyleTableRecord
  2
IGA
 70
     0
 40
2.0
 41
2.0
 42
0.5
 43
10.0
 44
1.0
 47
1.0
 48
1.0
 73
     0
 74
     0
 77
     1
 78
     8
140
3.0
141
0.0
143
0.03937
146
10.0
147
1.0
173
     1
271
     1
272
     0
279
     2
284
     8
340
10
341
7BA4
343
7BA4
344
7BA4
  0
ENDTAB
  0
TABLE
  2
BLOCK_RECORD
  5
1
330
0
100
AcDbSymbolTable
 70
    25
  0
BLOCK_RECORD
  5
19
102
{ACAD_XDICTIONARY
360
7F42
102
}
330
1
100
AcDbSymbolTableRecord
100
AcDbBlockTableRecord
  2
*MODEL_SPACE
340
7F17
 70
     0
280
     1
281
     0
  0
BLOCK_RECORD
  5
16
102
{ACAD_XDICTIONARY
360
7F40
102
}
330
1
100
AcDbSymbolTableRecord
100
AcDbBlockTableRecord
  2
*PAPER_SPACE
340
7F18
 70
     0
280
     1
281
     0
  0
BLOCK_RECORD
  5
7BA4
330
1
100
AcDbSymbolTableRecord
100
AcDbBlockTableRecord
  2
_OPEN
340
0
102
{BLKREFS
331
7EB9
331
7EBA
331
7EC6
331
7EC7
331
7EE2
331
7EE3
331
7F4B
331
7F4C
331
7F54
331
7F55
331
8053
331
8054
331
805B
331
805C
331
7E9F
331
7EA0
331
7EAC
331
7EAD
331
7F6E
331
7F6F
331
7F76
331
7F77
331
7F82
331
7F8D
331
7F8E
331
7F96
331
7F97
331
7F9E
331
7F9F
331
7FA7
331
7FA8
331
7FB0
331
7FB1
331
7FB9
331
7FBA
331
7FC2
331
7FC3
331
7FCB
331
7FCC
331
7FD3
331
7FD4
102
}
 70
     0
280
     1
281
     0
  0
BLOCK_RECORD
  5
7BAA
330
1
100
AcDbSymbolTableRecord
100
AcDbBlockTableRecord
  2
*D1
340
0
 70
     0
280
     1
281
     0
  0
BLOCK_RECORD
  5
7BCD
330
1
100
AcDbSymbolTableRecord
100
AcDbBlockTableRecord
  2
*D2
340
0
 70
     0
280
     1
281
     0
  0
BLOCK_RECORD
  5
7BDA
330
1
100
AcDbSymbolTableRecord
100
AcDbBlockTableRecord
  2
*D3
340
0
 70
     0
280
     1
281
     0
  0
BLOCK_RECORD
  5
7BF2
330
1
100
AcDbSymbolTableRecord
100
AcDbBlockTableRecord
  2
*D4
340
0
 70
     0
280
     1
281
     0
  0
BLOCK_RECORD
  5
7C50
330
1
100
AcDbSymbolTableRecord
100
AcDbBlockTableRecord
  2
*D5
340
0
 70
     0
280
     1
281
     0
  0
BLOCK_RECORD
  5
7C5D
330
1
100
AcDbSymbolTableRecord
100
AcDbBlockTableRecord
  2
*D6
340
0
 70
     0
280
     1
281
     0
  0
BLOCK_RECORD
  5
7C79
330
1
100
AcDbSymbolTableRecord
100
AcDbBlockTableRecord
  2
*D7
340
0
 70
     0
280
     1
281
     0
  0
BLOCK_RECORD
  5
7CCF
330
1
100
AcDbSymbolTableRecord
100
AcDbBlockTableRecord
  2
_DOT
340
0
102
{BLKREFS
331
7F81
102
}
 70
     0
280
     1
281
     0
  0
BLOCK_RECORD
  5
7D32
330
1
100
AcDbSymbolTableRecord
100
AcDbBlockTableRecord
  2
*D9
340
0
 70
     0
280
     1
281
     0
  0
BLOCK_RECORD
  5
7D3F
330
1
100
AcDbSymbolTableRecord
100
AcDbBlockTableRecord
  2
*D10
340
0
 70
     0
280
     1
281
     0
  0
BLOCK_RECORD
  5
7D4C
330
1
100
AcDbSymbolTableRecord
100
AcDbBlockTableRecord
  2
*D11
340
0
 70
     0
280
     1
281
     0
  0
BLOCK_RECORD
  5
7D58
330
1
100
AcDbSymbolTableRecord
100
AcDbBlockTableRecord
  2
*D12
340
0
 70
     0
280
     1
281
     0
  0
BLOCK_RECORD
  5
7D65
330
1
100
AcDbSymbolTableRecord
100
AcDbBlockTableRecord
  2
*D13
340
0
 70
     0
280
     1
281
     0
  0
BLOCK_RECORD
  5
7D72
330
1
100
AcDbSymbolTableRecord
100
AcDbBlockTableRecord
  2
*D14
340
0
 70
     0
280
     1
281
     0
  0
BLOCK_RECORD
  5
7D7F
330
1
100
AcDbSymbolTableRecord
100
AcDbBlockTableRecord
  2
*D15
340
0
 70
     0
280
     1
281
     0
  0
BLOCK_RECORD
  5
7D8D
330
1
100
AcDbSymbolTableRecord
100
AcDbBlockTableRecord
  2
*D16
340
0
 70
     0
280
     1
281
     0
  0
BLOCK_RECORD
  5
7D9A
330
1
100
AcDbSymbolTableRecord
100
AcDbBlockTableRecord
  2
*D17
340
0
 70
     0
280
     1
281
     0
  0
BLOCK_RECORD
  5
7E9A
330
1
100
AcDbSymbolTableRecord
100
AcDbBlockTableRecord
  2
*D18
340
0
 70
     0
280
     1
281
     0
  0
BLOCK_RECORD
  5
7EA7
330
1
100
AcDbSymbolTableRecord
100
AcDbBlockTableRecord
  2
*D19
340
0
 70
     0
280
     1
281
     0
  0
BLOCK_RECORD
  5
7EB4
330
1
100
AcDbSymbolTableRecord
100
AcDbBlockTableRecord
  2
*D20
340
0
 70
     0
280
     1
281
     0
  0
BLOCK_RECORD
  5
7EC1
330
1
100
AcDbSymbolTableRecord
100
AcDbBlockTableRecord
  2
*D21
340
0
 70
     0
280
     1
281
     0
  0
BLOCK_RECORD
  5
7ECE
330
1
100
AcDbSymbolTableRecord
100
AcDbBlockTableRecord
  2
_NONE
340
0
 70
     0
280
     1
281
     0
  0
BLOCK_RECORD
  5
7ED2
330
1
100
AcDbSymbolTableRecord
100
AcDbBlockTableRecord
  2
*D23
340
0
 70
     0
280
     1
281
     0
  0
BLOCK_RECORD
  5
7EDD
330
1
100
AcDbSymbolTableRecord
100
AcDbBlockTableRecord
  2
*D24
340
0
 70
     0
280
     1
281
     0
  0
ENDTAB
  0
ENDSEC
  0
SECTION
  2
BLOCKS
  0
BLOCK
  5
1A
330
19
100
AcDbEntity
  8
0
100
AcDbBlockBegin
  2
*MODEL_SPACE
 70
     0
 10
0.0
 20
0.0
 30
0.0
  3
*MODEL_SPACE
  1

  0
ENDBLK
  5
1B
330
19
100
AcDbEntity
  8
0
100
AcDbBlockEnd
  0
BLOCK
  5
17
330
16
100
AcDbEntity
 67
     1
  8
0
100
AcDbBlockBegin
  2
*PAPER_SPACE
 70
     0
 10
0.0
 20
0.0
 30
0.0
  3
*PAPER_SPACE
  1

  0
ENDBLK
  5
18
330
16
100
AcDbEntity
 67
     1
  8
0
100
AcDbBlockEnd
  0
BLOCK
  5
7BA5
330
7BA4
100
AcDbEntity
  8
0
100
AcDbBlockBegin
  2
_OPEN
 70
     0
 10
0.0
 20
0.0
 30
0.0
  3
_OPEN
  1

  0
LINE
  5
7BA6
330
7BA4
100
AcDbEntity
  8
0
  6
ByBlock
 62
     0
100
AcDbLine
 10
-1.0
 20
0.1666666666666666
 30
0.0
 11
0.0
 21
0.0
 31
0.0
  0
LINE
  5
7BA7
330
7BA4
100
AcDbEntity
  8
0
  6
ByBlock
 62
     0
100
AcDbLine
 10
0.0
 20
0.0
 30
0.0
 11
-1.0
 21
-0.1666666666666666
 31
0.0
  0
LINE
  5
7BA8
330
7BA4
100
AcDbEntity
  8
0
  6
ByBlock
 62
     0
100
AcDbLine
 10
0.0
 20
0.0
 30
0.0
 11
-1.0
 21
0.0
 31
0.0
  0
ENDBLK
  5
7BA9
330
7BA4
100
AcDbEntity
  8
0
100
AcDbBlockEnd
  0
BLOCK
  5
7BC2
330
7BAA
100
AcDbEntity
  8
0
100
AcDbBlockBegin
  2
*D1
 70
     1
 10
0.0
 20
0.0
 30
0.0
  3
*D1
  1

  0
LINE
  5
7F48
330
7BAA
100
AcDbEntity
  8
3
 62
     0
440
 16777216
100
AcDbLine
 10
8160.73724964476
 20
5239.933204501324
 30
0.0
 11
8672.242078195358
 21
5239.933204501324
 31
0.0
  0
LINE
  5
7F49
330
7BAA
100
AcDbEntity
  8
3
 62
     0
440
 16777216
100
AcDbLine
 10
8160.73724964476
 20
3839.933204501323
 30
0.0
 11
8672.242078195356
 21
3839.933204501323
 31
0.0
  0
LINE
  5
7F4A
330
7BAA
100
AcDbEntity
  8
3
 62
     0
440
 16777216
100
AcDbLine
 10
8627.242078195356
 20
5149.933204501323
 30
0.0
 11
8627.242078195356
 21
3929.933204501324
 31
0.0
  0
INSERT
  5
7F4B
330
7BAA
100
AcDbEntity
  8
3
 62
     0
440
 16777216
100
AcDbBlockReference
  2
_OPEN
 10
8627.242078195356
 20
5239.933204501324
 30
0.0
 41
90.0
 42
90.0
 43
90.0
 50
90.0
  0
INSERT
  5
7F4C
330
7BAA
100
AcDbEntity
  8
3
 62
     0
440
 16777216
100
AcDbBlockReference
  2
_OPEN
 10
8627.242078195356
 20
3839.933204501323
 30
0.0
 41
90.0
 42
90.0
 43
90.0
 50
270.0
  0
MTEXT
  5
7F4D
330
7BAA
100
AcDbEntity
  8
3
 62
     0
440
 16777216
100
AcDbMText
 10
8514.742078195356
 20
4479.787853347846
 30
0.0
 40
135.0
 41
0.0
 46
0.0
 71
     5
 72
     5
  1
\A1;φ1400
 11
0.0000000000000001
 21
1.0
 31
0.0
 73
     1
 44
1.0
  0
POINT
  5
7F4E
330
7BAA
100
AcDbEntity
  8
DEFPOINTS
 62
     0
440
 16777216
100
AcDbPoint
 10
8138.23724964476
 20
5239.933204501324
 30
0.0
  0
POINT
  5
7F4F
330
7BAA
100
AcDbEntity
  8
DEFPOINTS
 62
     0
440
 16777216
100
AcDbPoint
 10
8138.23724964476
 20
3839.933204501323
 30
0.0
  0
POINT
  5
7F50
330
7BAA
100
AcDbEntity
  8
DEFPOINTS
 62
     0
440
 16777216
100
AcDbPoint
 10
8627.242078195356
 20
3839.933204501323
 30
0.0
  0
ENDBLK
  5
7BCC
330
7BAA
100
AcDbEntity
  8
0
100
AcDbBlockEnd
  0
BLOCK
  5
7BCE
330
7BCD
100
AcDbEntity
  8
0
100
AcDbBlockBegin
  2
*D2
 70
     1
 10
0.0
 20
0.0
 30
0.0
  3
*D2
  1

  0
LINE
  5
7F51
330
7BCD
100
AcDbEntity
  8
3
 62
     0
440
 16777216
100
AcDbLine
 10
6238.237249644761
 20
5486.433204501324
 30
0.0
 11
6238.237249644761
 21
5645.852992274104
 31
0.0
  0
LINE
  5
7F52
330
7BCD
100
AcDbEntity
  8
3
 62
     0
440
 16777216
100
AcDbLine
 10
8138.23724964476
 20
5442.433204501323
 30
0.0
 11
8138.23724964476
 21
5645.852992274104
 31
0.0
  0
LINE
  5
7F53
330
7BCD
100
AcDbEntity
  8
3
 62
     0
440
 16777216
100
AcDbLine
 10
6328.237249644761
 20
5600.852992274104
 30
0.0
 11
8048.237249644762
 21
5600.852992274104
 31
0.0
  0
INSERT
  5
7F54
330
7BCD
100
AcDbEntity
  8
3
 62
     0
440
 16777216
100
AcDbBlockReference
  2
_OPEN
 10
6238.237249644761
 20
5600.852992274104
 30
0.0
 41
90.0
 42
90.0
 43
90.0
 50
180.0
  0
INSERT
  5
7F55
330
7BCD
100
AcDbEntity
  8
3
 62
     0
440
 16777216
100
AcDbBlockReference
  2
_OPEN
 10
8138.23724964476
 20
5600.852992274104
 30
0.0
 41
90.0
 42
90.0
 43
90.0
  0
MTEXT
  5
7F56
330
7BCD
100
AcDbEntity
  8
3
 62
     0
440
 16777216
100
AcDbMText
 10
7195.614020192799
 20
5713.352992274104
 30
0.0
 40
135.0
 41
0.0
 46
0.0
 71
     5
 72
     5
  1
\A1;1900
 73
     1
 44
1.0
  0
POINT
  5
7F57
330
7BCD
100
AcDbEntity
  8
DEFPOINTS
 62
     0
440
 16777216
100
AcDbPoint
 10
6238.237249644761
 20
5463.933204501323
 30
0.0
  0
POINT
  5
7F58
330
7BCD
100
AcDbEntity
  8
DEFPOINTS
 62
     0
440
 16777216
100
AcDbPoint
 10
8138.23724964476
 20
5419.933204501323
 30
0.0
  0
POINT
  5
7F59
330
7BCD
100
AcDbEntity
  8
DEFPOINTS
 62
     0
440
 16777216
100
AcDbPoint
 10
8138.23724964476
 20
5600.852992274104
 30
0.0
  0
ENDBLK
  5
7BD8
330
7BCD
100
AcDbEntity
  8
0
100
AcDbBlockEnd
  0
BLOCK
  5
7E87
330
7BDA
100
AcDbEntity
  8
0
100
AcDbBlockBegin
  2
*D3
 70
     1
 10
0.0
 20
0.0
 30
0.0
  3
*D3
  1

  0
LINE
  5
8050
330
7BDA
100
AcDbEntity
  8
3
 62
     0
440
 16777216
370
    -2
100
AcDbLine
 10
8318.437249644759
 20
4492.433204501323
 30
0.0
 11
8318.437249644759
 21
5966.871174271892
 31
0.0
  0
LINE
  5
8051
330
7BDA
100
AcDbEntity
  8
3
 62
     0
440
 16777216
370
    -2
100
AcDbLine
 10
7188.23724964476
 20
5814.460174866145
 30
0.0
 11
7188.23724964476
 21
5966.871174271892
 31
0.0
  0
LINE
  5
8052
330
7BDA
100
AcDbEntity
  8
3
 62
     0
440
 16777216
370
    -2
100
AcDbLine
 10
8228.437249644761
 20
5921.871174271892
 30
0.0
 11
7278.23724964476
 21
5921.871174271892
 31
0.0
  0
INSERT
  5
8053
330
7BDA
100
AcDbEntity
  8
3
 62
     0
440
 16777216
370
    -2
100
AcDbBlockReference
  2
_OPEN
 10
8318.437249644759
 20
5921.871174271892
 30
0.0
 41
90.0
 42
90.0
 43
90.0
  0
INSERT
  5
8054
330
7BDA
100
AcDbEntity
  8
3
 62
     0
440
 16777216
370
    -2
100
AcDbBlockReference
  2
_OPEN
 10
7188.23724964476
 20
5921.871174271892
 30
0.0
 41
90.0
 42
90.0
 43
90.0
 50
180.0
  0
MTEXT
  5
8055
330
7BDA
100
AcDbEntity
  8
3
 62
     0
440
 16777216
100
AcDbMText
 10
7742.663955301302
 20
6069.728317129034
 30
0.0
 40
135.0
 41
0.0
 46
0.0
 71
     5
 72
     1
  1
\A1;(1130)
 73
     1
 44
1.0
  0
POINT
  5
8056
330
7BDA
100
AcDbEntity
  8
DEFPOINTS
 62
     0
440
 16777216
100
AcDbPoint
 10
8318.437249644759
 20
4469.933204501323
 30
0.0
  0
POINT
  5
8057
330
7BDA
100
AcDbEntity
  8
DEFPOINTS
 62
     0
440
 16777216
100
AcDbPoint
 10
7188.23724964476
 20
5791.960174866144
 30
0.0
  0
POINT
  5
8058
330
7BDA
100
AcDbEntity
  8
DEFPOINTS
 62
     0
440
 16777216
100
AcDbPoint
 10
7188.23724964476
 20
5921.871174271892
 30
0.0
  0
ENDBLK
  5
7E91
330
7BDA
100
AcDbEntity
  8
0
100
AcDbBlockEnd
  0
BLOCK
  5
7C08
330
7BF2
100
AcDbEntity
  8
0
100
AcDbBlockBegin
  2
*D4
 70
     1
 10
0.0
 20
0.0
 30
0.0
  3
*D4
  1

  0
LINE
  5
8059
330
7BF2
100
AcDbEntity
  8
3
 62
     0
440
 16777216
370
    -2
100
AcDbLine
 10
5718.237249644761
 20
4942.433204501323
 30
0.0
 11
5718.237249644761
 21
5966.871174271892
 31
0.0
  0
LINE
  5
805A
330
7BF2
100
AcDbEntity
  8
3
 62
     0
440
 16777216
370
    -2
100
AcDbLine
 10
7098.23724964476
 20
5921.871174271892
 30
0.0
 11
5808.23724964476
 21
5921.871174271892
 31
0.0
  0
INSERT
  5
805B
330
7BF2
100
AcDbEntity
  8
3
 62
     0
440
 16777216
370
    -2
100
AcDbBlockReference
  2
_OPEN
 10
7188.23724964476
 20
5921.871174271892
 30
0.0
 41
90.0
 42
90.0
 43
90.0
  0
INSERT
  5
805C
330
7BF2
100
AcDbEntity
  8
3
 62
     0
440
 16777216
370
    -2
100
AcDbBlockReference
  2
_OPEN
 10
5718.237249644761
 20
5921.871174271892
 30
0.0
 41
90.0
 42
90.0
 43
90.0
 50
180.0
  0
MTEXT
  5
805D
330
7BF2
100
AcDbEntity
  8
3
 62
     0
440
 16777216
100
AcDbMText
 10
6453.237249644761
 20
6069.728317129034
 30
0.0
 40
135.0
 41
0.0
 46
0.0
 71
     5
 72
     1
  1
\A1;(1470)
 73
     1
 44
1.0
  0
POINT
  5
805E
330
7BF2
100
AcDbEntity
  8
DEFPOINTS
 62
     0
440
 16777216
100
AcDbPoint
 10
7188.23724964476
 20
5791.960174866144
 30
0.0
  0
POINT
  5
805F
330
7BF2
100
AcDbEntity
  8
DEFPOINTS
 62
     0
440
 16777216
100
AcDbPoint
 10
5718.237249644761
 20
4919.933204501323
 30
0.0
  0
POINT
  5
8060
330
7BF2
100
AcDbEntity
  8
DEFPOINTS
 62
     0
440
 16777216
100
AcDbPoint
 10
5718.237249644761
 20
5921.871174271892
 30
0.0
  0
ENDBLK
  5
7C11
330
7BF2
100
AcDbEntity
  8
0
100
AcDbBlockEnd
  0
BLOCK
  5
7DE8
330
7C50
100
AcDbEntity
  8
0
100
AcDbBlockBegin
  2
*D5
 70
     1
 10
0.0
 20
0.0
 30
0.0
  3
*D5
  1

  0
LINE
  5
7F6B
330
7C50
100
AcDbEntity
  8
3
 62
     0
440
 16777216
100
AcDbLine
 10
3419.381188644271
 20
5469.933204501323
 30
0.0
 11
4774.532778333298
 21
5469.933204501323
 31
0.0
  0
LINE
  5
7F6C
330
7C50
100
AcDbEntity
  8
3
 62
     0
440
 16777216
100
AcDbLine
 10
4589.669035976061
 20
4539.933204501322
 30
0.0
 11
4774.532778333298
 21
4539.933204501322
 31
0.0
  0
LINE
  5
7F6D
330
7C50
100
AcDbEntity
  8
3
 62
     0
440
 16777216
100
AcDbLine
 10
4729.532778333298
 20
5379.933204501323
 30
0.0
 11
4729.532778333298
 21
4629.933204501323
 31
0.0
  0
INSERT
  5
7F6E
330
7C50
100
AcDbEntity
  8
3
 62
     0
440
 16777216
100
AcDbBlockReference
  2
_OPEN
 10
4729.532778333298
 20
5469.933204501323
 30
0.0
 41
90.0
 42
90.0
 43
90.0
 50
90.0
  0
INSERT
  5
7F6F
330
7C50
100
AcDbEntity
  8
3
 62
     0
440
 16777216
100
AcDbBlockReference
  2
_OPEN
 10
4729.532778333298
 20
4539.933204501322
 30
0.0
 41
90.0
 42
90.0
 43
90.0
 50
270.0
  0
MTEXT
  5
7F70
330
7C50
100
AcDbEntity
  8
3
 62
     0
440
 16777216
100
AcDbMText
 10
4617.032778333298
 20
5030.240085713359
 30
0.0
 40
135.0
 41
0.0
 46
0.0
 71
     5
 72
     5
  1
\A1;930
 11
0.0000000000000001
 21
1.0
 31
0.0
 73
     1
 44
1.0
  0
POINT
  5
7F71
330
7C50
100
AcDbEntity
  8
DEFPOINTS
 62
     0
440
 16777216
100
AcDbPoint
 10
3396.881188644271
 20
5469.933204501323
 30
0.0
  0
POINT
  5
7F72
330
7C50
100
AcDbEntity
  8
DEFPOINTS
 62
     0
440
 16777216
100
AcDbPoint
 10
4567.169035976061
 20
4539.933204501322
 30
0.0
  0
POINT
  5
7F73
330
7C50
100
AcDbEntity
  8
DEFPOINTS
 62
     0
440
 16777216
100
AcDbPoint
 10
4729.532778333298
 20
4539.933204501322
 30
0.0
  0
ENDBLK
  5
7DF2
330
7C50
100
AcDbEntity
  8
0
100
AcDbBlockEnd
  0
BLOCK
  5
7E09
330
7C5D
100
AcDbEntity
  8
0
100
AcDbBlockBegin
  2
*D6
 70
     1
 10
0.0
 20
0.0
 30
0.0
  3
*D6
  1

  0
LINE
  5
7F74
330
7C5D
100
AcDbEntity
  8
3
 62
     0
440
 16777216
100
AcDbLine
 10
4269.38118864427
 20
3299.933204501324
 30
0.0
 11
4774.532778333298
 21
3299.933204501324
 31
0.0
  0
LINE
  5
7F75
330
7C5D
100
AcDbEntity
  8
3
 62
     0
440
 16777216
100
AcDbLine
 10
4729.532778333298
 20
4449.933204501323
 30
0.0
 11
4729.532778333298
 21
3389.933204501323
 31
0.0
  0
INSERT
  5
7F76
330
7C5D
100
AcDbEntity
  8
3
 62
     0
440
 16777216
100
AcDbBlockReference
  2
_OPEN
 10
4729.532778333298
 20
4539.933204501322
 30
0.0
 41
90.0
 42
90.0
 43
90.0
 50
90.0
  0
INSERT
  5
7F77
330
7C5D
100
AcDbEntity
  8
3
 62
     0
440
 16777216
100
AcDbBlockReference
  2
_OPEN
 10
4729.532778333298
 20
3299.933204501324
 30
0.0
 41
90.0
 42
90.0
 43
90.0
 50
270.0
  0
MTEXT
  5
7F78
330
7C5D
100
AcDbEntity
  8
3
 62
     0
440
 16777216
100
AcDbMText
 10
4617.032778333297
 20
3919.933204501325
 30
0.0
 40
135.0
 41
0.0
 46
0.0
 71
     5
 72
     5
  1
\A1;1240
 11
0.0000000000000001
 21
1.0
 31
0.0
 73
     1
 44
1.0
  0
POINT
  5
7F79
330
7C5D
100
AcDbEntity
  8
DEFPOINTS
 62
     0
440
 16777216
100
AcDbPoint
 10
4567.169035976061
 20
4539.933204501322
 30
0.0
  0
POINT
  5
7F7A
330
7C5D
100
AcDbEntity
  8
DEFPOINTS
 62
     0
440
 16777216
100
AcDbPoint
 10
4246.88118864427
 20
3299.933204501324
 30
0.0
  0
POINT
  5
7F7B
330
7C5D
100
AcDbEntity
  8
DEFPOINTS
 62
     0
440
 16777216
100
AcDbPoint
 10
4729.532778333298
 20
3299.933204501324
 30
0.0
  0
ENDBLK
  5
7E12
330
7C5D
100
AcDbEntity
  8
0
100
AcDbBlockEnd
  0
BLOCK
  5
7E1F
330
7C79
100
AcDbEntity
  8
0
100
AcDbBlockBegin
  2
*D7
 70
     1
 10
0.0
 20
0.0
 30
0.0
  3
*D7
  1

  0
LINE
  5
7F7C
330
7C79
100
AcDbEntity
  8
3
 62
     0
440
 16777216
100
AcDbLine
 10
4269.38118864427
 20
3279.933204501324
 30
0.0
 11
4774.532778333298
 21
3279.933204501324
 31
0.0
  0
LINE
  5
7F7D
330
7C79
100
AcDbEntity
  8
3
 62
     0
440
 16777216
100
AcDbLine
 10
4269.38118864427
 20
3204.933204501324
 30
0.0
 11
4774.532778333298
 21
3204.933204501324
 31
0.0
  0
LINE
  5
7F7E
330
7C79
100
AcDbEntity
  8
3
 62
     0
440
 16777216
100
AcDbLine
 10
4729.532778333298
 20
3369.933204501324
 30
0.0
 11
4729.532778333298
 21
3459.933204501324
 31
0.0
  0
LINE
  5
7F7F
330
7C79
100
AcDbEntity
  8
3
 62
     0
440
 16777216
100
AcDbLine
 10
4729.532778333298
 20
3114.933204501324
 30
0.0
 11
4729.532778333298
 21
2716.361775929895
 31
0.0
  0
LINE
  5
7F80
330
7C79
100
AcDbEntity
  8
3
 62
     0
440
 16777216
100
AcDbLine
 10
4729.532778333298
 20
3279.933204501324
 30
0.0
 11
4729.532778333298
 21
3204.933204501324
 31
0.0
  0
INSERT
  5
7F81
330
7C79
100
AcDbEntity
  8
3
 62
     0
440
 16777216
100
AcDbBlockReference
  2
_DOT
 10
4729.532778333298
 20
3279.933204501324
 30
0.0
 41
90.0
 42
90.0
 43
90.0
 50
270.0
  0
INSERT
  5
7F82
330
7C79
100
AcDbEntity
  8
3
 62
     0
440
 16777216
100
AcDbBlockReference
  2
_OPEN
 10
4729.532778333298
 20
3204.933204501324
 30
0.0
 41
90.0
 42
90.0
 43
90.0
 50
90.0
  0
MTEXT
  5
7F83
330
7C79
100
AcDbEntity
  8
3
 62
     0
440
 16777216
100
AcDbMText
 10
4617.032778333297
 20
2870.64749021561
 30
0.0
 40
135.0
 41
0.0
 46
0.0
 71
     5
 72
     5
  1
\A1;75
 11
0.0000000000000001
 21
1.0
 31
0.0
 73
     1
 44
1.0
  0
POINT
  5
7F84
330
7C79
100
AcDbEntity
  8
DEFPOINTS
 62
     0
440
 16777216
100
AcDbPoint
 10
4246.88118864427
 20
3279.933204501324
 30
0.0
  0
POINT
  5
7F85
330
7C79
100
AcDbEntity
  8
DEFPOINTS
 62
     0
440
 16777216
100
AcDbPoint
 10
4246.88118864427
 20
3204.933204501324
 30
0.0
  0
POINT
  5
7F86
330
7C79
100
AcDbEntity
  8
DEFPOINTS
 62
     0
440
 16777216
100
AcDbPoint
 10
4729.532778333298
 20
3204.933204501324
 30
0.0
  0
ENDBLK
  5
7E2B
330
7C79
100
AcDbEntity
  8
0
100
AcDbBlockEnd
  0
BLOCK
  5
7CD0
330
7CCF
100
AcDbEntity
  8
0
100
AcDbBlockBegin
  2
_DOT
 70
     0
 10
0.0
 20
0.0
 30
0.0
  3
_DOT
  1

  0
LINE
  5
7D21
330
7CCF
100
AcDbEntity
  8
0
  6
ByBlock
 62
     0
100
AcDbLine
 10
0.0
 20
0.0
 30
0.0
 11
-1.0
 21
-0.0000000000000284
 31
0.0
  0
LWPOLYLINE
  5
7D22
330
7CCF
100
AcDbEntity
  8
0
  6
ByBlock
 62
     0
100
AcDbPolyline
 90
        2
 70
     1
 43
0.1666666666666666
 10
-0.0833333333333286
 20
-0.0000000000000284
 42
1.0
 10
0.0833333333333286
 20
-0.0000000000000284
 42
1.0
  0
ENDBLK
  5
7CD6
330
7CCF
100
AcDbEntity
  8
0
100
AcDbBlockEnd
  0
BLOCK
  5
7E2C
330
7D32
100
AcDbEntity
  8
0
100
AcDbBlockBegin
  2
*D9
 70
     1
 10
0.0
 20
0.0
 30
0.0
  3
*D9
  1

  0
LINE
  5
7F8A
330
7D32
100
AcDbEntity
  8
3
 62
     0
440
 16777216
100
AcDbLine
 10
1905.88118864427
 20
5492.433204501324
 30
0.0
 11
1905.88118864427
 21
5815.63860298543
 31
0.0
  0
LINE
  5
7F8B
330
7D32
100
AcDbEntity
  8
3
 62
     0
440
 16777216
100
AcDbLine
 10
3355.881188644271
 20
5492.433204501324
 30
0.0
 11
3355.881188644271
 21
5815.63860298543
 31
0.0
  0
LINE
  5
7F8C
330
7D32
100
AcDbEntity
  8
3
 62
     0
440
 16777216
100
AcDbLine
 10
1995.881188644271
 20
5770.638602985429
 30
0.0
 11
3265.881188644271
 21
5770.638602985429
 31
0.0
  0
INSERT
  5
7F8D
330
7D32
100
AcDbEntity
  8
3
 62
     0
440
 16777216
100
AcDbBlockReference
  2
_OPEN
 10
1905.88118864427
 20
5770.638602985429
 30
0.0
 41
90.0
 42
90.0
 43
90.0
 50
180.0
  0
INSERT
  5
7F8E
330
7D32
100
AcDbEntity
  8
3
 62
     0
440
 16777216
100
AcDbBlockReference
  2
_OPEN
 10
3355.881188644271
 20
5770.638602985429
 30
0.0
 41
90.0
 42
90.0
 43
90.0
  0
MTEXT
  5
7F8F
330
7D32
100
AcDbEntity
  8
3
 62
     0
440
 16777216
100
AcDbMText
 10
2626.078396571502
 20
5883.138602985429
 30
0.0
 40
135.0
 41
0.0
 46
0.0
 71
     5
 72
     5
  1
\A1;1450
 73
     1
 44
1.0
  0
POINT
  5
7F90
330
7D32
100
AcDbEntity
  8
DEFPOINTS
 62
     0
440
 16777216
100
AcDbPoint
 10
1905.88118864427
 20
5469.933204501323
 30
0.0
  0
POINT
  5
7F91
330
7D32
100
AcDbEntity
  8
DEFPOINTS
 62
     0
440
 16777216
100
AcDbPoint
 10
3355.881188644271
 20
5469.933204501323
 30
0.0
  0
POINT
  5
7F92
330
7D32
100
AcDbEntity
  8
DEFPOINTS
 62
     0
440
 16777216
100
AcDbPoint
 10
3355.881188644271
 20
5770.638602985429
 30
0.0
  0
ENDBLK
  5
7E36
330
7D32
100
AcDbEntity
  8
0
100
AcDbBlockEnd
  0
BLOCK
  5
7E37
330
7D3F
100
AcDbEntity
  8
0
100
AcDbBlockBegin
  2
*D10
 70
     1
 10
0.0
 20
0.0
 30
0.0
  3
*D10
  1

  0
LINE
  5
7F93
330
7D3F
100
AcDbEntity
  8
3
 62
     0
440
 16777216
100
AcDbLine
 10
1905.88118864427
 20
5492.433204501324
 30
0.0
 11
1905.88118864427
 21
6079.296173989351
 31
0.0
  0
LINE
  5
7F94
330
7D3F
100
AcDbEntity
  8
3
 62
     0
440
 16777216
100
AcDbLine
 10
3396.881188644271
 20
5580.427962352408
 30
0.0
 11
3396.881188644271
 21
6079.296173989351
 31
0.0
  0
LINE
  5
7F95
330
7D3F
100
AcDbEntity
  8
3
 62
     0
440
 16777216
100
AcDbLine
 10
1995.881188644271
 20
6034.296173989351
 30
0.0
 11
3306.881188644271
 21
6034.296173989351
 31
0.0
  0
INSERT
  5
7F96
330
7D3F
100
AcDbEntity
  8
3
 62
     0
440
 16777216
100
AcDbBlockReference
  2
_OPEN
 10
1905.88118864427
 20
6034.296173989351
 30
0.0
 41
90.0
 42
90.0
 43
90.0
 50
180.0
  0
INSERT
  5
7F97
330
7D3F
100
AcDbEntity
  8
3
 62
     0
440
 16777216
100
AcDbBlockReference
  2
_OPEN
 10
3396.881188644271
 20
6034.296173989351
 30
0.0
 41
90.0
 42
90.0
 43
90.0
  0
MTEXT
  5
7F98
330
7D3F
100
AcDbEntity
  8
3
 62
     0
440
 16777216
100
AcDbMText
 10
2611.41861789905
 20
6146.796173989351
 30
0.0
 40
135.0
 41
0.0
 46
0.0
 71
     5
 72
     5
  1
\A1;1491
 73
     1
 44
1.0
  0
POINT
  5
7F99
330
7D3F
100
AcDbEntity
  8
DEFPOINTS
 62
     0
440
 16777216
100
AcDbPoint
 10
1905.88118864427
 20
5469.933204501323
 30
0.0
  0
POINT
  5
7F9A
330
7D3F
100
AcDbEntity
  8
DEFPOINTS
 62
     0
440
 16777216
100
AcDbPoint
 10
3396.881188644271
 20
5557.927962352408
 30
0.0
  0
POINT
  5
7F9B
330
7D3F
100
AcDbEntity
  8
DEFPOINTS
 62
     0
440
 16777216
100
AcDbPoint
 10
3396.881188644271
 20
6034.296173989351
 30
0.0
  0
ENDBLK
  5
7E41
330
7D3F
100
AcDbEntity
  8
0
100
AcDbBlockEnd
  0
BLOCK
  5
7DDE
330
7D4C
100
AcDbEntity
  8
0
100
AcDbBlockBegin
  2
*D11
 70
     1
 10
0.0
 20
0.0
 30
0.0
  3
*D11
  1

  0
LINE
  5
7F9C
330
7D4C
100
AcDbEntity
  8
3
 62
     0
440
 16777216
100
AcDbLine
 10
4399.881188644271
 20
4476.933204501324
 30
0.0
 11
4399.881188644271
 21
6079.296173989351
 31
0.0
  0
LINE
  5
7F9D
330
7D4C
100
AcDbEntity
  8
3
 62
     0
440
 16777216
100
AcDbLine
 10
3486.881188644271
 20
6034.296173989351
 30
0.0
 11
4309.881188644271
 21
6034.296173989351
 31
0.0
  0
INSERT
  5
7F9E
330
7D4C
100
AcDbEntity
  8
3
 62
     0
440
 16777216
100
AcDbBlockReference
  2
_OPEN
 10
3396.881188644271
 20
6034.296173989351
 30
0.0
 41
90.0
 42
90.0
 43
90.0
 50
180.0
  0
INSERT
  5
7F9F
330
7D4C
100
AcDbEntity
  8
3
 62
     0
440
 16777216
100
AcDbBlockReference
  2
_OPEN
 10
4399.881188644271
 20
6034.296173989351
 30
0.0
 41
90.0
 42
90.0
 43
90.0
  0
MTEXT
  5
7FA0
330
7D4C
100
AcDbEntity
  8
3
 62
     0
440
 16777216
100
AcDbMText
 10
3898.381188644271
 20
6146.796173989351
 30
0.0
 40
135.0
 41
0.0
 46
0.0
 71
     5
 72
     5
  1
\A1;1003
 73
     1
 44
1.0
  0
POINT
  5
7FA1
330
7D4C
100
AcDbEntity
  8
DEFPOINTS
 62
     0
440
 16777216
100
AcDbPoint
 10
3396.881188644271
 20
5557.927962352408
 30
0.0
  0
POINT
  5
7FA2
330
7D4C
100
AcDbEntity
  8
DEFPOINTS
 62
     0
440
 16777216
100
AcDbPoint
 10
4399.881188644271
 20
4454.433204501323
 30
0.0
  0
POINT
  5
7FA3
330
7D4C
100
AcDbEntity
  8
DEFPOINTS
 62
     0
440
 16777216
100
AcDbPoint
 10
4399.881188644271
 20
6034.296173989351
 30
0.0
  0
ENDBLK
  5
7DE7
330
7D4C
100
AcDbEntity
  8
0
100
AcDbBlockEnd
  0
BLOCK
  5
7DFE
330
7D58
100
AcDbEntity
  8
0
100
AcDbBlockBegin
  2
*D12
 70
     1
 10
0.0
 20
0.0
 30
0.0
  3
*D12
  1

  0
LINE
  5
7FA4
330
7D58
100
AcDbEntity
  8
3
 62
     0
440
 16777216
100
AcDbLine
 10
4399.881188644271
 20
4499.433204501324
 30
0.0
 11
4399.881188644271
 21
6368.298802906225
 31
0.0
  0
LINE
  5
7FA5
330
7D58
100
AcDbEntity
  8
3
 62
     0
440
 16777216
100
AcDbLine
 10
1346.881188644271
 20
3472.433204501323
 30
0.0
 11
1346.881188644271
 21
6368.298802906225
 31
0.0
  0
LINE
  5
7FA6
330
7D58
100
AcDbEntity
  8
3
 62
     0
440
 16777216
100
AcDbLine
 10
4309.881188644271
 20
6323.298802906226
 30
0.0
 11
1436.881188644271
 21
6323.298802906226
 31
0.0
  0
INSERT
  5
7FA7
330
7D58
100
AcDbEntity
  8
3
 62
     0
440
 16777216
100
AcDbBlockReference
  2
_OPEN
 10
4399.881188644271
 20
6323.298802906226
 30
0.0
 41
90.0
 42
90.0
 43
90.0
  0
INSERT
  5
7FA8
330
7D58
100
AcDbEntity
  8
3
 62
     0
440
 16777216
100
AcDbBlockReference
  2
_OPEN
 10
1346.881188644271
 20
6323.298802906226
 30
0.0
 41
90.0
 42
90.0
 43
90.0
 50
180.0
  0
MTEXT
  5
7FA9
330
7D58
100
AcDbEntity
  8
3
 62
     0
440
 16777216
100
AcDbMText
 10
2938.853750611576
 20
6435.798802906226
 30
0.0
 40
135.0
 41
0.0
 46
0.0
 71
     5
 72
     5
  1
\A1;3053
 73
     1
 44
1.0
  0
POINT
  5
7FAA
330
7D58
100
AcDbEntity
  8
DEFPOINTS
 62
     0
440
 16777216
100
AcDbPoint
 10
4399.881188644271
 20
4476.933204501324
 30
0.0
  0
POINT
  5
7FAB
330
7D58
100
AcDbEntity
  8
DEFPOINTS
 62
     0
440
 16777216
100
AcDbPoint
 10
1346.881188644271
 20
3449.933204501324
 30
0.0
  0
POINT
  5
7FAC
330
7D58
100
AcDbEntity
  8
DEFPOINTS
 62
     0
440
 16777216
100
AcDbPoint
 10
1346.881188644271
 20
6323.298802906226
 30
0.0
  0
ENDBLK
  5
7E08
330
7D58
100
AcDbEntity
  8
0
100
AcDbBlockEnd
  0
BLOCK
  5
7E6D
330
7D65
100
AcDbEntity
  8
0
100
AcDbBlockBegin
  2
*D13
 70
     1
 10
0.0
 20
0.0
 30
0.0
  3
*D13
  1

  0
LINE
  5
7FAD
330
7D65
100
AcDbEntity
  8
3
 62
     0
440
 16777216
100
AcDbLine
 10
4269.38118864427
 20
9555.446054598915
 30
0.0
 11
4690.878072557717
 21
9555.446054598915
 31
0.0
  0
LINE
  5
7FAE
330
7D65
100
AcDbEntity
  8
3
 62
     0
440
 16777216
100
AcDbLine
 10
4269.38118864427
 20
7195.446054598915
 30
0.0
 11
4690.878072557717
 21
7195.446054598915
 31
0.0
  0
LINE
  5
7FAF
330
7D65
100
AcDbEntity
  8
3
 62
     0
440
 16777216
100
AcDbLine
 10
4645.878072557716
 20
9465.446054598915
 30
0.0
 11
4645.878072557716
 21
7285.446054598915
 31
0.0
  0
INSERT
  5
7FB0
330
7D65
100
AcDbEntity
  8
3
 62
     0
440
 16777216
100
AcDbBlockReference
  2
_OPEN
 10
4645.878072557716
 20
9555.446054598915
 30
0.0
 41
90.0
 42
90.0
 43
90.0
 50
90.0
  0
INSERT
  5
7FB1
330
7D65
100
AcDbEntity
  8
3
 62
     0
440
 16777216
100
AcDbBlockReference
  2
_OPEN
 10
4645.878072557716
 20
7195.446054598915
 30
0.0
 41
90.0
 42
90.0
 43
90.0
 50
270.0
  0
MTEXT
  5
7FB2
330
7D65
100
AcDbEntity
  8
3
 62
     0
440
 16777216
100
AcDbMText
 10
4533.378072557716
 20
8366.458639966054
 30
0.0
 40
135.0
 41
0.0
 46
0.0
 71
     5
 72
     5
  1
\A1;2360
 11
0.0000000000000001
 21
1.0
 31
0.0
 73
     1
 44
1.0
  0
POINT
  5
7FB3
330
7D65
100
AcDbEntity
  8
DEFPOINTS
 62
     0
440
 16777216
100
AcDbPoint
 10
4246.88118864427
 20
9555.446054598915
 30
0.0
  0
POINT
  5
7FB4
330
7D65
100
AcDbEntity
  8
DEFPOINTS
 62
     0
440
 16777216
100
AcDbPoint
 10
4246.88118864427
 20
7195.446054598915
 30
0.0
  0
POINT
  5
7FB5
330
7D65
100
AcDbEntity
  8
DEFPOINTS
 62
     0
440
 16777216
100
AcDbPoint
 10
4645.878072557716
 20
7195.446054598915
 30
0.0
  0
ENDBLK
  5
7E77
330
7D65
100
AcDbEntity
  8
0
100
AcDbBlockEnd
  0
BLOCK
  5
7E62
330
7D72
100
AcDbEntity
  8
0
100
AcDbBlockBegin
  2
*D14
 70
     1
 10
0.0
 20
0.0
 30
0.0
  3
*D14
  1

  0
LINE
  5
7FB6
330
7D72
100
AcDbEntity
  8
3
 62
     0
440
 16777216
100
AcDbLine
 10
4246.88118864427
 20
7172.946054598916
 30
0.0
 11
4246.88118864427
 21
6769.612581635229
 31
0.0
  0
LINE
  5
7FB7
330
7D72
100
AcDbEntity
  8
3
 62
     0
440
 16777216
100
AcDbLine
 10
1346.881188644271
 20
7172.946054598916
 30
0.0
 11
1346.881188644271
 21
6769.612581635229
 31
0.0
  0
LINE
  5
7FB8
330
7D72
100
AcDbEntity
  8
3
 62
     0
440
 16777216
100
AcDbLine
 10
4156.881188644271
 20
6814.612581635228
 30
0.0
 11
1436.881188644271
 21
6814.612581635228
 31
0.0
  0
INSERT
  5
7FB9
330
7D72
100
AcDbEntity
  8
3
 62
     0
440
 16777216
100
AcDbBlockReference
  2
_OPEN
 10
4246.88118864427
 20
6814.612581635228
 30
0.0
 41
90.0
 42
90.0
 43
90.0
  0
INSERT
  5
7FBA
330
7D72
100
AcDbEntity
  8
3
 62
     0
440
 16777216
100
AcDbBlockReference
  2
_OPEN
 10
1346.881188644271
 20
6814.612581635228
 30
0.0
 41
90.0
 42
90.0
 43
90.0
 50
180.0
  0
MTEXT
  5
7FBB
330
7D72
100
AcDbEntity
  8
3
 62
     0
440
 16777216
100
AcDbMText
 10
2897.323654162036
 20
6927.112581635229
 30
0.0
 40
135.0
 41
0.0
 46
0.0
 71
     5
 72
     5
  1
\A1;2900
 73
     1
 44
1.0
  0
POINT
  5
7FBC
330
7D72
100
AcDbEntity
  8
DEFPOINTS
 62
     0
440
 16777216
100
AcDbPoint
 10
4246.88118864427
 20
7195.446054598915
 30
0.0
  0
POINT
  5
7FBD
330
7D72
100
AcDbEntity
  8
DEFPOINTS
 62
     0
440
 16777216
100
AcDbPoint
 10
1346.881188644271
 20
7195.446054598915
 30
0.0
  0
POINT
  5
7FBE
330
7D72
100
AcDbEntity
  8
DEFPOINTS
 62
     0
440
 16777216
100
AcDbPoint
 10
1346.881188644271
 20
6814.612581635228
 30
0.0
  0
ENDBLK
  5
7E6C
330
7D72
100
AcDbEntity
  8
0
100
AcDbBlockEnd
  0
BLOCK
  5
7E4C
330
7D7F
100
AcDbEntity
  8
0
100
AcDbBlockBegin
  2
*D15
 70
     1
 10
0.0
 20
0.0
 30
0.0
  3
*D15
  1

  0
LINE
  5
7FBF
330
7D7F
100
AcDbEntity
  8
3
 62
     0
440
 16777216
100
AcDbLine
 10
1324.381188644271
 20
7195.446054598915
 30
0.0
 11
826.0576838664357
 21
7195.446054598915
 31
0.0
  0
LINE
  5
7FC0
330
7D7F
100
AcDbEntity
  8
3
 62
     0
440
 16777216
100
AcDbLine
 10
1324.381188644271
 20
8295.446054598915
 30
0.0
 11
826.0576838664359
 21
8295.446054598915
 31
0.0
  0
LINE
  5
7FC1
330
7D7F
100
AcDbEntity
  8
3
 62
     0
440
 16777216
100
AcDbLine
 10
871.0576838664358
 20
7285.446054598915
 30
0.0
 11
871.057683866436
 21
8205.446054598915
 31
0.0
  0
INSERT
  5
7FC2
330
7D7F
100
AcDbEntity
  8
3
 62
     0
440
 16777216
100
AcDbBlockReference
  2
_OPEN
 10
871.0576838664358
 20
7195.446054598915
 30
0.0
 41
90.0
 42
90.0
 43
90.0
 50
270.0
  0
INSERT
  5
7FC3
330
7D7F
100
AcDbEntity
  8
3
 62
     0
440
 16777216
100
AcDbBlockReference
  2
_OPEN
 10
871.057683866436
 20
8295.446054598915
 30
0.0
 41
90.0
 42
90.0
 43
90.0
 50
90.0
  0
MTEXT
  5
7FC4
330
7D7F
100
AcDbEntity
  8
3
 62
     0
440
 16777216
100
AcDbMText
 10
758.5576838664346
 20
7718.999691342702
 30
0.0
 40
135.0
 41
0.0
 46
0.0
 71
     5
 72
     5
  1
\A1;1100
 11
0.0000000000000001
 21
1.0
 31
0.0
 73
     1
 44
1.0
  0
POINT
  5
7FC5
330
7D7F
100
AcDbEntity
  8
DEFPOINTS
 62
     0
440
 16777216
100
AcDbPoint
 10
1346.881188644271
 20
7195.446054598915
 30
0.0
  0
POINT
  5
7FC6
330
7D7F
100
AcDbEntity
  8
DEFPOINTS
 62
     0
440
 16777216
100
AcDbPoint
 10
1346.881188644271
 20
8295.446054598915
 30
0.0
  0
POINT
  5
7FC7
330
7D7F
100
AcDbEntity
  8
DEFPOINTS
 62
     0
440
 16777216
100
AcDbPoint
 10
871.057683866436
 20
8295.446054598915
 30
0.0
  0
ENDBLK
  5
7E56
330
7D7F
100
AcDbEntity
  8
0
100
AcDbBlockEnd
  0
BLOCK
  5
7E57
330
7D8D
100
AcDbEntity
  8
0
100
AcDbBlockBegin
  2
*D16
 70
     1
 10
0.0
 20
0.0
 30
0.0
  3
*D16
  1

  0
LINE
  5
7FC8
330
7D8D
100
AcDbEntity
  8
3
 62
     0
440
 16777216
100
AcDbLine
 10
4246.88118864427
 20
9577.946054598916
 30
0.0
 11
4246.88118864427
 21
9922.196207359391
 31
0.0
  0
LINE
  5
7FC9
330
7D8D
100
AcDbEntity
  8
3
 62
     0
440
 16777216
100
AcDbLine
 10
2546.881188644271
 20
9577.946054598916
 30
0.0
 11
2546.881188644271
 21
9922.196207359391
 31
0.0
  0
LINE
  5
7FCA
330
7D8D
100
AcDbEntity
  8
3
 62
     0
440
 16777216
100
AcDbLine
 10
4156.881188644271
 20
9877.196207359389
 30
0.0
 11
2636.881188644271
 21
9877.196207359389
 31
0.0
  0
INSERT
  5
7FCB
330
7D8D
100
AcDbEntity
  8
3
 62
     0
440
 16777216
100
AcDbBlockReference
  2
_OPEN
 10
4246.88118864427
 20
9877.196207359389
 30
0.0
 41
90.0
 42
90.0
 43
90.0
  0
INSERT
  5
7FCC
330
7D8D
100
AcDbEntity
  8
3
 62
     0
440
 16777216
100
AcDbBlockReference
  2
_OPEN
 10
2546.881188644271
 20
9877.196207359389
 30
0.0
 41
90.0
 42
90.0
 43
90.0
 50
180.0
  0
MTEXT
  5
7FCD
330
7D8D
100
AcDbEntity
  8
3
 62
     0
440
 16777216
100
AcDbMText
 10
3391.03318014252
 20
9989.69620735939
 30
0.0
 40
135.0
 41
0.0
 46
0.0
 71
     5
 72
     5
  1
\A1;1700
 73
     1
 44
1.0
  0
POINT
  5
7FCE
330
7D8D
100
AcDbEntity
  8
DEFPOINTS
 62
     0
440
 16777216
100
AcDbPoint
 10
4246.88118864427
 20
9555.446054598915
 30
0.0
  0
POINT
  5
7FCF
330
7D8D
100
AcDbEntity
  8
DEFPOINTS
 62
     0
440
 16777216
100
AcDbPoint
 10
2546.881188644271
 20
9555.446054598915
 30
0.0
  0
POINT
  5
7FD0
330
7D8D
100
AcDbEntity
  8
DEFPOINTS
 62
     0
440
 16777216
100
AcDbPoint
 10
2546.881188644271
 20
9877.196207359389
 30
0.0
  0
ENDBLK
  5
7E61
330
7D8D
100
AcDbEntity
  8
0
100
AcDbBlockEnd
  0
BLOCK
  5
7E78
330
7D9A
100
AcDbEntity
  8
0
100
AcDbBlockBegin
  2
*D17
 70
     1
 10
0.0
 20
0.0
 30
0.0
  3
*D17
  1

  0
LINE
  5
7FD1
330
7D9A
100
AcDbEntity
  8
3
 62
     0
440
 16777216
100
AcDbLine
 10
1346.881188644271
 20
8317.946054598916
 30
0.0
 11
1346.881188644271
 21
9922.196207359391
 31
0.0
  0
LINE
  5
7FD2
330
7D9A
100
AcDbEntity
  8
3
 62
     0
440
 16777216
100
AcDbLine
 10
2456.881188644271
 20
9877.196207359389
 30
0.0
 11
1436.881188644271
 21
9877.196207359389
 31
0.0
  0
INSERT
  5
7FD3
330
7D9A
100
AcDbEntity
  8
3
 62
     0
440
 16777216
100
AcDbBlockReference
  2
_OPEN
 10
2546.881188644271
 20
9877.196207359389
 30
0.0
 41
90.0
 42
90.0
 43
90.0
  0
INSERT
  5
7FD4
330
7D9A
100
AcDbEntity
  8
3
 62
     0
440
 16777216
100
AcDbBlockReference
  2
_OPEN
 10
1346.881188644271
 20
9877.196207359389
 30
0.0
 41
90.0
 42
90.0
 43
90.0
 50
180.0
  0
MTEXT
  5
7FD5
330
7D9A
100
AcDbEntity
  8
3
 62
     0
440
 16777216
100
AcDbMText
 10
1946.881188644271
 20
9989.69620735939
 30
0.0
 40
135.0
 41
0.0
 46
0.0
 71
     5
 72
     5
  1
\A1;1200
 73
     1
 44
1.0
  0
POINT
  5
7FD6
330
7D9A
100
AcDbEntity
  8
DEFPOINTS
 62
     0
440
 16777216
100
AcDbPoint
 10
2546.881188644271
 20
9555.446054598915
 30
0.0
  0
POINT
  5
7FD7
330
7D9A
100
AcDbEntity
  8
DEFPOINTS
 62
     0
440
 16777216
100
AcDbPoint
 10
1346.881188644271
 20
8295.446054598915
 30
0.0
  0
POINT
  5
7FD8
330
7D9A
100
AcDbEntity
  8
DEFPOINTS
 62
     0
440
 16777216
100
AcDbPoint
 10
1346.881188644271
 20
9877.196207359389
 30
0.0
  0
ENDBLK
  5
7E81
330
7D9A
100
AcDbEntity
  8
0
100
AcDbBlockEnd
  0
BLOCK
  5
7E9B
330
7E9A
100
AcDbEntity
  8
0
100
AcDbBlockBegin
  2
*D18
 70
     1
 10
0.0
 20
0.0
 30
0.0
  3
*D18
  1

  0
LINE
  5
7E9C
330
7E9A
100
AcDbEntity
  8
0
  6
ByBlock
 62
     0
440
 16777216
100
AcDbLine
 10
1346.881188644271
 20
3182.433204501324
 30
0.0
 11
1346.881188644271
 21
2870.058125784894
 31
0.0
  0
LINE
  5
7E9D
330
7E9A
100
AcDbEntity
  8
0
  6
ByBlock
 62
     0
440
 16777216
100
AcDbLine
 10
3396.881188644271
 20
3182.433204501324
 30
0.0
 11
3396.881188644271
 21
2870.058125784894
 31
0.0
  0
LINE
  5
7E9E
330
7E9A
100
AcDbEntity
  8
0
  6
ByBlock
 62
     0
440
 16777216
100
AcDbLine
 10
1436.881188644271
 20
2915.058125784894
 30
0.0
 11
3306.881188644271
 21
2915.058125784894
 31
0.0
  0
INSERT
  5
7E9F
330
7E9A
100
AcDbEntity
  8
0
  6
ByBlock
 62
     0
440
 16777216
100
AcDbBlockReference
  2
_OPEN
 10
1346.881188644271
 20
2915.058125784894
 30
0.0
 41
90.0
 42
90.0
 43
90.0
 50
180.0
  0
INSERT
  5
7EA0
330
7E9A
100
AcDbEntity
  8
0
  6
ByBlock
 62
     0
440
 16777216
100
AcDbBlockReference
  2
_OPEN
 10
3396.881188644271
 20
2915.058125784894
 30
0.0
 41
90.0
 42
90.0
 43
90.0
  0
MTEXT
  5
7EA1
330
7E9A
100
AcDbEntity
  8
0
  6
ByBlock
 62
     0
440
 16777216
100
AcDbMText
 10
2371.881188644271
 20
3027.558125784894
 30
0.0
 40
135.0
 41
0.0
 46
0.0
 71
     5
 72
     5
  1
\A1;2050
 73
     1
 44
1.0
  0
POINT
  5
7EA2
330
7E9A
100
AcDbEntity
  8
DEFPOINTS
  6
ByBlock
 62
     0
440
 16777216
100
AcDbPoint
 10
1346.881188644271
 20
3204.933204501324
 30
0.0
  0
POINT
  5
7EA3
330
7E9A
100
AcDbEntity
  8
DEFPOINTS
  6
ByBlock
 62
     0
440
 16777216
100
AcDbPoint
 10
3396.881188644271
 20
3204.933204501324
 30
0.0
  0
POINT
  5
7EA4
330
7E9A
100
AcDbEntity
  8
DEFPOINTS
  6
ByBlock
 62
     0
440
 16777216
100
AcDbPoint
 10
3396.881188644271
 20
2915.058125784894
 30
0.0
  0
ENDBLK
  5
7EA5
330
7E9A
100
AcDbEntity
  8
0
100
AcDbBlockEnd
  0
BLOCK
  5
7EA8
330
7EA7
100
AcDbEntity
  8
0
100
AcDbBlockBegin
  2
*D19
 70
     1
 10
0.0
 20
0.0
 30
0.0
  3
*D19
  1

  0
LINE
  5
7EA9
330
7EA7
100
AcDbEntity
  8
0
  6
ByBlock
 62
     0
440
 16777216
100
AcDbLine
 10
3396.881188644271
 20
3182.433204501324
 30
0.0
 11
3396.881188644271
 21
2870.058125784894
 31
0.0
  0
LINE
  5
7EAA
330
7EA7
100
AcDbEntity
  8
0
  6
ByBlock
 62
     0
440
 16777216
100
AcDbLine
 10
4246.88118864427
 20
3182.433204501324
 30
0.0
 11
4246.88118864427
 21
2870.058125784894
 31
0.0
  0
LINE
  5
7EAB
330
7EA7
100
AcDbEntity
  8
0
  6
ByBlock
 62
     0
440
 16777216
100
AcDbLine
 10
3486.881188644271
 20
2915.058125784894
 30
0.0
 11
4156.881188644271
 21
2915.058125784894
 31
0.0
  0
INSERT
  5
7EAC
330
7EA7
100
AcDbEntity
  8
0
  6
ByBlock
 62
     0
440
 16777216
100
AcDbBlockReference
  2
_OPEN
 10
3396.881188644271
 20
2915.058125784894
 30
0.0
 41
90.0
 42
90.0
 43
90.0
 50
180.0
  0
INSERT
  5
7EAD
330
7EA7
100
AcDbEntity
  8
0
  6
ByBlock
 62
     0
440
 16777216
100
AcDbBlockReference
  2
_OPEN
 10
4246.88118864427
 20
2915.058125784894
 30
0.0
 41
90.0
 42
90.0
 43
90.0
  0
MTEXT
  5
7EAE
330
7EA7
100
AcDbEntity
  8
0
  6
ByBlock
 62
     0
440
 16777216
100
AcDbMText
 10
3821.881188644271
 20
3027.558125784894
 30
0.0
 40
135.0
 41
0.0
 46
0.0
 71
     5
 72
     5
  1
\A1;850
 73
     1
 44
1.0
  0
POINT
  5
7EAF
330
7EA7
100
AcDbEntity
  8
DEFPOINTS
  6
ByBlock
 62
     0
440
 16777216
100
AcDbPoint
 10
3396.881188644271
 20
3204.933204501324
 30
0.0
  0
POINT
  5
7EB0
330
7EA7
100
AcDbEntity
  8
DEFPOINTS
  6
ByBlock
 62
     0
440
 16777216
100
AcDbPoint
 10
4246.88118864427
 20
3204.933204501324
 30
0.0
  0
POINT
  5
7EB1
330
7EA7
100
AcDbEntity
  8
DEFPOINTS
  6
ByBlock
 62
     0
440
 16777216
100
AcDbPoint
 10
4246.88118864427
 20
2915.058125784894
 30
0.0
  0
ENDBLK
  5
7EB2
330
7EA7
100
AcDbEntity
  8
0
100
AcDbBlockEnd
  0
BLOCK
  5
7EB5
330
7EB4
100
AcDbEntity
  8
0
100
AcDbBlockBegin
  2
*D20
 70
     1
 10
0.0
 20
0.0
 30
0.0
  3
*D20
  1

  0
LINE
  5
7EB6
330
7EB4
100
AcDbEntity
  8
0
  6
ByBlock
 62
     0
440
 16777216
100
AcDbLine
 10
5857.237249644761
 20
3182.433204501324
 30
0.0
 11
5857.237249644761
 21
2870.058125784894
 31
0.0
  0
LINE
  5
7EB7
330
7EB4
100
AcDbEntity
  8
0
  6
ByBlock
 62
     0
440
 16777216
100
AcDbLine
 10
7188.23724964476
 20
3182.433204501324
 30
0.0
 11
7188.23724964476
 21
2870.058125784894
 31
0.0
  0
LINE
  5
7EB8
330
7EB4
100
AcDbEntity
  8
0
  6
ByBlock
 62
     0
440
 16777216
100
AcDbLine
 10
5947.237249644761
 20
2915.058125784894
 30
0.0
 11
7098.23724964476
 21
2915.058125784894
 31
0.0
  0
INSERT
  5
7EB9
330
7EB4
100
AcDbEntity
  8
0
  6
ByBlock
 62
     0
440
 16777216
100
AcDbBlockReference
  2
_OPEN
 10
5857.237249644761
 20
2915.058125784894
 30
0.0
 41
90.0
 42
90.0
 43
90.0
 50
180.0
  0
INSERT
  5
7EBA
330
7EB4
100
AcDbEntity
  8
0
  6
ByBlock
 62
     0
440
 16777216
100
AcDbBlockReference
  2
_OPEN
 10
7188.23724964476
 20
2915.058125784894
 30
0.0
 41
90.0
 42
90.0
 43
90.0
  0
MTEXT
  5
7EBB
330
7EB4
100
AcDbEntity
  8
0
  6
ByBlock
 62
     0
440
 16777216
100
AcDbMText
 10
6522.73724964476
 20
3027.558125784894
 30
0.0
 40
135.0
 41
0.0
 46
0.0
 71
     5
 72
     5
  1
\A1;1331
 73
     1
 44
1.0
  0
POINT
  5
7EBC
330
7EB4
100
AcDbEntity
  8
DEFPOINTS
  6
ByBlock
 62
     0
440
 16777216
100
AcDbPoint
 10
5857.237249644761
 20
3204.933204501324
 30
0.0
  0
POINT
  5
7EBD
330
7EB4
100
AcDbEntity
  8
DEFPOINTS
  6
ByBlock
 62
     0
440
 16777216
100
AcDbPoint
 10
7188.23724964476
 20
3204.933204501324
 30
0.0
  0
POINT
  5
7EBE
330
7EB4
100
AcDbEntity
  8
DEFPOINTS
  6
ByBlock
 62
     0
440
 16777216
100
AcDbPoint
 10
7188.23724964476
 20
2915.058125784894
 30
0.0
  0
ENDBLK
  5
7EBF
330
7EB4
100
AcDbEntity
  8
0
100
AcDbBlockEnd
  0
BLOCK
  5
7EC2
330
7EC1
100
AcDbEntity
  8
0
100
AcDbBlockBegin
  2
*D21
 70
     1
 10
0.0
 20
0.0
 30
0.0
  3
*D21
  1

  0
LINE
  5
7EC3
330
7EC1
100
AcDbEntity
  8
0
  6
ByBlock
 62
     0
440
 16777216
100
AcDbLine
 10
7188.23724964476
 20
3182.433204501324
 30
0.0
 11
7188.23724964476
 21
2870.058125784894
 31
0.0
  0
LINE
  5
7EC4
330
7EC1
100
AcDbEntity
  8
0
  6
ByBlock
 62
     0
440
 16777216
100
AcDbLine
 10
8217.23724964476
 20
3182.433204501324
 30
0.0
 11
8217.23724964476
 21
2870.058125784894
 31
0.0
  0
LINE
  5
7EC5
330
7EC1
100
AcDbEntity
  8
0
  6
ByBlock
 62
     0
440
 16777216
100
AcDbLine
 10
7278.23724964476
 20
2915.058125784894
 30
0.0
 11
8127.23724964476
 21
2915.058125784894
 31
0.0
  0
INSERT
  5
7EC6
330
7EC1
100
AcDbEntity
  8
0
  6
ByBlock
 62
     0
440
 16777216
100
AcDbBlockReference
  2
_OPEN
 10
7188.23724964476
 20
2915.058125784894
 30
0.0
 41
90.0
 42
90.0
 43
90.0
 50
180.0
  0
INSERT
  5
7EC7
330
7EC1
100
AcDbEntity
  8
0
  6
ByBlock
 62
     0
440
 16777216
100
AcDbBlockReference
  2
_OPEN
 10
8217.23724964476
 20
2915.058125784894
 30
0.0
 41
90.0
 42
90.0
 43
90.0
  0
MTEXT
  5
7EC8
330
7EC1
100
AcDbEntity
  8
0
  6
ByBlock
 62
     0
440
 16777216
100
AcDbMText
 10
7702.737249644761
 20
3027.558125784894
 30
0.0
 40
135.0
 41
0.0
 46
0.0
 71
     5
 72
     5
  1
\A1;1029
 73
     1
 44
1.0
  0
POINT
  5
7EC9
330
7EC1
100
AcDbEntity
  8
DEFPOINTS
  6
ByBlock
 62
     0
440
 16777216
100
AcDbPoint
 10
7188.23724964476
 20
3204.933204501324
 30
0.0
  0
POINT
  5
7ECA
330
7EC1
100
AcDbEntity
  8
DEFPOINTS
  6
ByBlock
 62
     0
440
 16777216
100
AcDbPoint
 10
8217.23724964476
 20
3204.933204501325
 30
0.0
  0
POINT
  5
7ECB
330
7EC1
100
AcDbEntity
  8
DEFPOINTS
  6
ByBlock
 62
     0
440
 16777216
100
AcDbPoint
 10
8217.23724964476
 20
2915.058125784894
 30
0.0
  0
ENDBLK
  5
7ECC
330
7EC1
100
AcDbEntity
  8
0
100
AcDbBlockEnd
  0
BLOCK
  5
7ECF
330
7ECE
100
AcDbEntity
  8
0
100
AcDbBlockBegin
  2
_NONE
 70
     0
 10
0.0
 20
0.0
 30
0.0
  3
_NONE
  1

  0
CIRCLE
  5
7ED0
330
7ECE
100
AcDbEntity
  8
0
  6
ByBlock
 62
     0
100
AcDbCircle
 10
0.0
 20
0.0
 30
0.0
 40
0.25
  0
ENDBLK
  5
7ED1
330
7ECE
100
AcDbEntity
  8
0
100
AcDbBlockEnd
  0
BLOCK
  5
7F00
330
7ED2
100
AcDbEntity
  8
0
100
AcDbBlockBegin
  2
*D23
 70
     1
 10
0.0
 20
0.0
 30
0.0
  3
*D23
  1

  0
LINE
  5
7F01
330
7ED2
100
AcDbEntity
  8
0
  6
ByBlock
 62
     0
440
 16777216
100
AcDbLine
 10
4733.049447725599
 20
3279.933204501324
 30
0.0
 11
4733.049447725599
 21
3279.933204501324
 31
0.0
  0
LINE
  5
7F02
330
7ED2
100
AcDbEntity
  8
0
  6
ByBlock
 62
     0
440
 16777216
100
AcDbLine
 10
4733.049447725599
 20
3299.933204501324
 30
0.0
 11
4733.049447725599
 21
3479.933204501324
 31
0.0
  0
MTEXT
  5
7F03
330
7ED2
100
AcDbEntity
  8
0
  6
ByBlock
 62
     0
440
 16777216
100
AcDbMText
 10
4948.406590582743
 20
3289.933204501323
 30
0.0
 40
135.0
 41
0.0
 46
0.0
 71
     5
 72
     5
  1
\A1;   (20)
 11
0.0
 21
1.0
 31
0.0
 73
     1
 44
1.0
  0
LINE
  5
7F04
330
7ED2
100
AcDbEntity
  8
0
  6
ByBlock
 62
     0
440
 16777216
100
AcDbLine
 10
4733.049447725599
 20
3279.933204501324
 30
0.0
 11
4733.049447725599
 21
3299.933204501324
 31
0.0
  0
POINT
  5
7F05
330
7ED2
100
AcDbEntity
  8
DEFPOINTS
  6
ByBlock
 62
     0
440
 16777216
100
AcDbPoint
 10
4246.88118864427
 20
3279.933204501324
 30
0.0
  0
POINT
  5
7F06
330
7ED2
100
AcDbEntity
  8
DEFPOINTS
  6
ByBlock
 62
     0
440
 16777216
100
AcDbPoint
 10
4246.88118864427
 20
3299.933204501324
 30
0.0
  0
POINT
  5
7F07
330
7ED2
100
AcDbEntity
  8
DEFPOINTS
  6
ByBlock
 62
     0
440
 16777216
100
AcDbPoint
 10
4733.049447725599
 20
3299.933204501324
 30
0.0
  0
ENDBLK
  5
7F08
330
7ED2
100
AcDbEntity
  8
0
100
AcDbBlockEnd
  0
BLOCK
  5
7EDE
330
7EDD
100
AcDbEntity
  8
0
100
AcDbBlockBegin
  2
*D24
 70
     1
 10
0.0
 20
0.0
 30
0.0
  3
*D24
  1

  0
LINE
  5
7EDF
330
7EDD
100
AcDbEntity
  8
0
  6
ByBlock
 62
     0
440
 16777216
100
AcDbLine
 10
3432.381188644271
 20
5469.933204501323
 30
0.0
 11
5170.4151388428
 21
5469.933204501323
 31
0.0
  0
LINE
  5
7EE0
330
7EDD
100
AcDbEntity
  8
0
  6
ByBlock
 62
     0
440
 16777216
100
AcDbLine
 10
4269.38118864427
 20
3204.933204501324
 30
0.0
 11
5170.4151388428
 21
3204.933204501324
 31
0.0
  0
LINE
  5
7EE1
330
7EDD
100
AcDbEntity
  8
0
  6
ByBlock
 62
     0
440
 16777216
100
AcDbLine
 10
5125.4151388428
 20
5379.933204501323
 30
0.0
 11
5125.4151388428
 21
3294.933204501324
 31
0.0
  0
INSERT
  5
7EE2
330
7EDD
100
AcDbEntity
  8
0
  6
ByBlock
 62
     0
440
 16777216
100
AcDbBlockReference
  2
_OPEN
 10
5125.4151388428
 20
5469.933204501323
 30
0.0
 41
90.0
 42
90.0
 43
90.0
 50
90.0
  0
INSERT
  5
7EE3
330
7EDD
100
AcDbEntity
  8
0
  6
ByBlock
 62
     0
440
 16777216
100
AcDbBlockReference
  2
_OPEN
 10
5125.4151388428
 20
3204.933204501324
 30
0.0
 41
90.0
 42
90.0
 43
90.0
 50
270.0
  0
MTEXT
  5
7EE4
330
7EDD
100
AcDbEntity
  8
0
  6
ByBlock
 62
     0
440
 16777216
100
AcDbMText
 10
4977.557995985657
 20
4337.433204501323
 30
0.0
 40
135.0
 41
0.0
 46
0.0
 71
     5
 72
     5
  1
\A1;(2265)
 11
0.0
 21
1.0
 31
0.0
 73
     1
 44
1.0
  0
POINT
  5
7EE5
330
7EDD
100
AcDbEntity
  8
DEFPOINTS
  6
ByBlock
 62
     0
440
 16777216
100
AcDbPoint
 10
3409.881188644271
 20
5469.933204501323
 30
0.0
  0
POINT
  5
7EE6
330
7EDD
100
AcDbEntity
  8
DEFPOINTS
  6
ByBlock
 62
     0
440
 16777216
100
AcDbPoint
 10
4246.88118864427
 20
3204.933204501324
 30
0.0
  0
POINT
  5
7EE7
330
7EDD
100
AcDbEntity
  8
DEFPOINTS
  6
ByBlock
 62
     0
440
 16777216
100
AcDbPoint
 10
5125.4151388428
 20
3204.933204501324
 30
0.0
  0
ENDBLK
  5
7EE8
330
7EDD
100
AcDbEntity
  8
0
100
AcDbBlockEnd
  0
ENDSEC
  0
SECTION
  2
ENTITIES
  0
CIRCLE
  5
7AD5
330
19
100
AcDbEntity
  8
1
100
AcDbCircle
 10
3396.881188644271
 20
4539.933204501322
 30
0.0
 40
225.0
  0
ARC
  5
7AD6
330
19
100
AcDbEntity
  8
1
100
AcDbCircle
 10
3396.881188644271
 20
4539.933204501322
 30
0.0
 40
380.0
100
AcDbArc
 50
292.4131951629104
 51
120.9943680510207
  0
ARC
  5
7AD7
330
19
100
AcDbEntity
  8
1
100
AcDbCircle
 10
3482.381188644271
 20
4454.433204501323
 30
0.0
 40
917.5
100
AcDbArc
 50
0.0
 51
5.347037803486264
  0
LINE
  5
7AD8
330
19
100
AcDbEntity
  8
2
100
AcDbLine
 10
3396.881188644271
 20
5557.927962352408
 30
0.0
 11
3396.881188644271
 21
3204.933204501324
 31
0.0
  0
LINE
  5
7AD9
330
19
100
AcDbEntity
  8
1
100
AcDbLine
 10
3201.198738465624
 20
4865.67601515427
 30
0.0
 11
1622.356560939644
 21
3917.223138713539
 31
0.0
  0
LINE
  5
7ADA
330
19
100
AcDbEntity
  8
1
100
AcDbLine
 10
3285.831594038444
 20
4735.619145585197
 30
0.0
 11
1681.485316265283
 21
3825.170480917382
 31
0.0
  0
ARC
  5
7ADB
330
19
100
AcDbEntity
  8
1
100
AcDbCircle
 10
3294.881188644271
 20
4641.933204501323
 30
0.0
 40
1309.0
100
AcDbArc
 50
184.469136655521
 51
245.5910046713847
  0
CIRCLE
  5
7ADC
330
19
100
AcDbEntity
  8
1
100
AcDbCircle
 10
3396.881188644271
 20
4539.933204501322
 30
0.0
 40
750.0
  0
CIRCLE
  5
7ADD
330
19
100
AcDbEntity
  8
1
100
AcDbCircle
 10
3396.881188644271
 20
4539.933204501322
 30
0.0
 40
700.0
  0
ARC
  5
7ADE
330
19
100
AcDbEntity
  8
1
100
AcDbCircle
 10
3294.881188644271
 20
4437.933204501323
 30
0.0
 40
1105.0
100
AcDbArc
 50
296.6046816893965
 51
0.8555796354301929
  0
LINE
  5
7AE0
330
19
100
AcDbEntity
  8
1
100
AcDbLine
 10
4246.88118864427
 20
3204.933204501324
 30
0.0
 11
1346.881188644271
 21
3204.933204501324
 31
0.0
  0
LINE
  5
7AE1
330
19
100
AcDbEntity
  8
1
100
AcDbLine
 10
4246.88118864427
 20
3279.933204501324
 30
0.0
 11
1346.881188644271
 21
3279.933204501324
 31
0.0
  0
LINE
  5
7AE2
330
19
100
AcDbEntity
  8
1
100
AcDbLine
 10
4246.88118864427
 20
3449.933204501324
 30
0.0
 11
1346.881188644271
 21
3449.933204501324
 31
0.0
  0
LINE
  5
7AE3
330
19
100
AcDbEntity
  8
1
100
AcDbLine
 10
4246.88118864427
 20
3299.933204501324
 30
0.0
 11
1346.881188644271
 21
3299.933204501324
 31
0.0
  0
LINE
  5
7AE4
330
19
100
AcDbEntity
  8
1
100
AcDbLine
 10
4246.88118864427
 20
3279.933204501324
 30
0.0
 11
4246.88118864427
 21
3204.933204501324
 31
0.0
  0
LINE
  5
7AE5
330
19
100
AcDbEntity
  8
1
100
AcDbLine
 10
4246.88118864427
 20
3449.933204501324
 30
0.0
 11
4246.88118864427
 21
3299.933204501324
 31
0.0
  0
LINE
  5
7AE6
330
19
100
AcDbEntity
  8
1
100
AcDbLine
 10
1346.881188644271
 20
3279.933204501324
 30
0.0
 11
1346.881188644271
 21
3204.933204501324
 31
0.0
  0
LINE
  5
7AE7
330
19
100
AcDbEntity
  8
2
100
AcDbLine
 10
1746.881188644271
 20
3991.279395501324
 30
0.0
 11
1746.881188644271
 21
3204.933204501323
 31
0.0
  0
POINT
  5
7AE8
330
19
100
AcDbEntity
  8
1
100
AcDbPoint
 10
1346.881188644271
 20
3204.933204501324
 30
0.0
  0
POINT
  5
7AE9
330
19
100
AcDbEntity
  8
1
100
AcDbPoint
 10
1346.881188644271
 20
3204.933204501324
 30
0.0
  0
LINE
  5
7AEA
330
19
100
AcDbEntity
  8
2
100
AcDbLine
 10
2003.388270377429
 20
3709.933204501324
 30
0.0
 11
1478.749862705394
 21
3709.933204501324
 31
0.0
  0
LINE
  5
7AEB
330
19
100
AcDbEntity
  8
1
100
AcDbLine
 10
1996.837385556953
 20
3509.933204501324
 30
0.0
 11
1846.276741618711
 21
3509.933204501324
 31
0.0
  0
ARC
  5
7AEC
330
19
100
AcDbEntity
  8
1
100
AcDbCircle
 10
1746.881188644271
 20
3709.933204501324
 30
0.0
 40
203.5
100
AcDbArc
 50
285.6036990000001
 51
254.39624
  0
LINE
  5
7AED
330
19
100
AcDbEntity
  8
1
100
AcDbLine
 10
3541.768838200207
 20
4188.639069898772
 30
0.0
 11
1839.081999720993
 21
3486.383411015677
 31
0.0
  0
LINE
  5
7AEE
330
19
100
AcDbEntity
  8
1
100
AcDbLine
 10
1800.421041500482
 20
3588.731990991989
 30
0.0
 11
3487.797919909536
 21
4334.119823070377
 31
0.0
  0
LINE
  5
7AF1
330
19
100
AcDbEntity
  8
1
100
AcDbLine
 10
2006.881188644271
 20
3449.933204501324
 30
0.0
 11
1996.837385556953
 21
3509.933204501324
 31
0.0
  0
ARC
  5
7AF9
330
19
100
AcDbEntity
  8
1
100
AcDbCircle
 10
1746.881188644271
 20
3709.933204501324
 30
0.0
 40
241.8170790715176
100
AcDbArc
 50
120.9943680510208
 51
292.4131951629103
  0
LINE
  5
7AFA
330
19
100
AcDbEntity
  8
1
100
AcDbLine
 10
1557.881188644271
 20
3584.259864501324
 30
0.0
 11
1557.881188644271
 21
3509.933204501324
 31
0.0
  0
LINE
  5
7AFB
330
19
100
AcDbEntity
  8
1
100
AcDbLine
 10
1935.881188644271
 20
3584.259864501324
 30
0.0
 11
1935.881188644271
 21
3509.933204501324
 31
0.0
  0
LINE
  5
7AFD
330
19
100
AcDbEntity
  8
1
100
AcDbLine
 10
1692.143151644271
 20
3513.933204501324
 30
0.0
 11
1801.61922564427
 21
3513.933204501324
 31
0.0
  0
LINE
  5
7AFE
330
19
100
AcDbEntity
  8
1
100
AcDbLine
 10
1746.881188644271
 20
3500.084565110189
 30
0.0
 11
1647.485635669831
 21
3500.084565110189
 31
0.0
  0
LINE
  5
7AFF
330
19
100
AcDbEntity
  8
1
100
AcDbLine
 10
1850.98375864427
 20
3535.076392501323
 30
0.0
 11
1857.720954226561
 21
3509.933204501324
 31
0.0
  0
LINE
  5
7B00
330
19
100
AcDbEntity
  8
1
100
AcDbLine
 10
1846.276741618711
 20
3509.933204501324
 30
0.0
 11
1846.276741618711
 21
3500.084565110189
 31
0.0
  0
LINE
  5
7B02
330
19
100
AcDbEntity
  8
1
100
AcDbLine
 10
1935.881188644271
 20
3509.933204501324
 30
0.0
 11
1856.381188644271
 21
3509.933204501324
 31
0.0
  0
LINE
  5
7B03
330
19
100
AcDbEntity
  8
1
100
AcDbLine
 10
1746.881188644271
 20
3500.084565110189
 30
0.0
 11
1846.276741618711
 21
3500.084565110189
 31
0.0
  0
LINE
  5
7B07
330
19
100
AcDbEntity
  8
1
100
AcDbLine
 10
1486.881188644271
 20
3449.933204501324
 30
0.0
 11
1496.924991731588
 21
3509.933204501324
 31
0.0
  0
LINE
  5
7B09
330
19
100
AcDbEntity
  8
1
100
AcDbLine
 10
1642.778405644271
 20
3535.076514501323
 30
0.0
 11
1636.041484047559
 21
3509.933204501324
 31
0.0
  0
LINE
  5
7B0A
330
19
100
AcDbEntity
  8
1
100
AcDbLine
 10
1647.485635669831
 20
3509.933204501324
 30
0.0
 11
1647.485635669831
 21
3500.084565110189
 31
0.0
  0
LINE
  5
7B0B
330
19
100
AcDbEntity
  8
1
100
AcDbLine
 10
1557.881188644271
 20
3509.933204501324
 30
0.0
 11
1637.381188644271
 21
3509.933204501324
 31
0.0
  0
LINE
  5
7B0C
330
19
100
AcDbEntity
  8
1
100
AcDbLine
 10
1557.881188644271
 20
3509.933204501324
 30
0.0
 11
1637.881188644271
 21
3509.933204501324
 31
0.0
  0
LINE
  5
7B0E
330
19
100
AcDbEntity
  8
1
100
AcDbLine
 10
1496.924991731588
 20
3509.933204501324
 30
0.0
 11
1647.485635669831
 21
3509.933204501324
 31
0.0
  0
LINE
  5
7B0F
330
19
100
AcDbEntity
  8
1
100
AcDbLine
 10
1346.881188644271
 20
3449.933204501324
 30
0.0
 11
1346.881188644271
 21
3299.933204501324
 31
0.0
  0
POINT
  5
7B10
330
19
100
AcDbEntity
  8
1
100
AcDbPoint
 10
1346.881188644271
 20
3299.933204501324
 30
0.0
  0
POINT
  5
7B11
330
19
100
AcDbEntity
  8
1
100
AcDbPoint
 10
1346.881188644271
 20
3299.933204501324
 30
0.0
  0
POINT
  5
7B12
330
19
100
AcDbEntity
  8
1
100
AcDbPoint
 10
1346.881188644271
 20
3279.933204501324
 30
0.0
  0
POINT
  5
7B13
330
19
100
AcDbEntity
  8
1
100
AcDbPoint
 10
1346.881188644271
 20
3279.933204501324
 30
0.0
  0
POINT
  5
7B14
330
19
100
AcDbEntity
  8
1
100
AcDbPoint
 10
1346.881188644271
 20
3279.933204501324
 30
0.0
  0
POINT
  5
7B15
330
19
100
AcDbEntity
  8
1
100
AcDbPoint
 10
1346.881188644271
 20
3279.933204501324
 30
0.0
  0
CIRCLE
  5
7B1A
330
19
100
AcDbEntity
  8
1
100
AcDbCircle
 10
1746.881188644271
 20
3709.933204501324
 30
0.0
 40
132.5
  0
ARC
  5
7B1B
330
19
100
AcDbEntity
  8
1
100
AcDbCircle
 10
1930.881188644271
 20
3584.259864501324
 30
0.0
 40
5.000066999999999
100
AcDbArc
 50
0.0
 51
55.056335
  0
LINE
  5
7B1C
330
19
100
AcDbEntity
  8
1
100
AcDbLine
 10
1933.744958644271
 20
3588.358497501324
 30
0.0
 11
1917.80709164427
 21
3599.494727501324
 31
0.0
  0
ARC
  5
7B1D
330
19
100
AcDbEntity
  8
1
100
AcDbCircle
 10
1562.881188644271
 20
3584.259864501324
 30
0.0
 40
5.0
100
AcDbArc
 50
124.943661
 51
180.0
  0
LINE
  5
7B1F
330
19
100
AcDbEntity
  8
1
100
AcDbLine
 10
1560.017296644271
 20
3588.358497501324
 30
0.0
 11
1575.955163644271
 21
3599.494727501324
 31
0.0
  0
ARC
  5
7B20
330
19
100
AcDbEntity
  8
1
100
AcDbCircle
 10
3482.381188644271
 20
4454.433204501323
 30
0.0
 40
917.5
100
AcDbArc
 50
5.347037803486264
 51
95.34703780348626
  0
LINE
  5
7B21
330
19
100
AcDbEntity
  8
2
100
AcDbLine
 10
4567.169035976061
 20
4539.933204501322
 30
0.0
 11
1916.37735969953
 21
4539.933204501322
 31
0.0
  0
LINE
  5
7B22
330
19
100
AcDbEntity
  8
1
100
AcDbLine
 10
1905.88118864427
 20
5469.933204501323
 30
0.0
 11
1989.76733534656
 21
4539.933204501322
 31
0.0
  0
LINE
  5
7B23
330
19
100
AcDbEntity
  8
1
100
AcDbLine
 10
3355.881188644271
 20
5419.933204501322
 30
0.0
 11
1910.391196531491
 21
5419.933204501324
 31
0.0
  0
LINE
  5
7B24
330
19
100
AcDbEntity
  8
1
100
AcDbLine
 10
3409.881188644271
 20
5463.933204501323
 30
0.0
 11
1851.881188644271
 21
5463.933204501325
 31
0.0
  0
LINE
  5
7B25
330
19
100
AcDbEntity
  8
1
100
AcDbLine
 10
3409.881188644271
 20
5469.933204501323
 30
0.0
 11
1851.881188644271
 21
5469.933204501324
 31
0.0
  0
LINE
  5
7B26
330
19
100
AcDbEntity
  8
1
100
AcDbLine
 10
3355.881188644271
 20
5469.933204501323
 30
0.0
 11
3355.881188644271
 21
5360.8369492247
 31
0.0
  0
ARC
  5
7B27
330
19
100
AcDbEntity
  8
1
100
AcDbCircle
 10
3482.381188644271
 20
4625.133204501324
 30
0.0
 40
746.4999999999999
100
AcDbArc
 50
96.57677613025608
 51
99.75627661811662
  0
LINE
  5
7B28
330
19
100
AcDbEntity
  8
1
100
AcDbLine
 10
3409.881188644271
 20
5469.933204501323
 30
0.0
 11
3409.88118864427
 21
5463.933204501325
 31
0.0
  0
LINE
  5
7B29
330
19
100
AcDbEntity
  8
1
100
AcDbLine
 10
1851.881188644271
 20
5469.933204501324
 30
0.0
 11
1851.881188644271
 21
5463.933204501326
 31
0.0
  0
LINE
  5
7B2A
330
19
100
AcDbEntity
  8
1
100
AcDbLine
 10
8138.23724964476
 20
4539.933204501322
 30
0.0
 11
8138.23724964476
 21
3449.933204501324
 31
0.0
  0
LINE
  5
7B2B
330
19
100
AcDbEntity
  8
2
100
AcDbLine
 10
7188.23724964476
 20
5624.699627998172
 30
0.0
 11
7188.23724964476
 21
3204.933204501324
 31
0.0
  0
LINE
  5
7B2C
330
19
100
AcDbEntity
  8
1
100
AcDbLine
 10
5969.23724964476
 20
4459.933204501323
 30
0.0
 11
5969.23724964476
 21
4619.933204501323
 31
0.0
  0
LINE
  5
7B2D
330
19
100
AcDbEntity
  8
1
100
AcDbLine
 10
6238.237249644761
 20
4539.933204501322
 30
0.0
 11
6238.237249644761
 21
3449.933204501324
 31
0.0
  0
LINE
  5
7B2E
330
19
100
AcDbEntity
  8
1
100
AcDbLine
 10
5718.237249644761
 20
3469.933204501324
 30
0.0
 11
5718.237249644761
 21
4919.933204501323
 31
0.0
  0
LINE
  5
7B2F
330
19
100
AcDbEntity
  8
1
100
AcDbLine
 10
5954.63724964476
 20
3577.433204501323
 30
0.0
 11
5954.63724964476
 21
4764.933204501323
 31
0.0
  0
LINE
  5
7B30
330
19
100
AcDbEntity
  8
1
100
AcDbLine
 10
5869.23724964476
 20
3577.433204501323
 30
0.0
 11
5869.23724964476
 21
4764.933204501323
 31
0.0
  0
LINE
  5
7B31
330
19
100
AcDbEntity
  8
1
100
AcDbLine
 10
8217.23724964476
 20
3279.933204501324
 30
0.0
 11
8217.23724964476
 21
3204.933204501325
 31
0.0
  0
LINE
  5
7B32
330
19
100
AcDbEntity
  8
1
100
AcDbLine
 10
5857.237249644761
 20
3279.933204501324
 30
0.0
 11
5857.237249644761
 21
3204.933204501324
 31
0.0
  0
LINE
  5
7B33
330
19
100
AcDbEntity
  8
1
100
AcDbLine
 10
8217.23724964476
 20
3204.933204501325
 30
0.0
 11
5857.237249644761
 21
3204.933204501324
 31
0.0
  0
LINE
  5
7B34
330
19
100
AcDbEntity
  8
1
100
AcDbLine
 10
8217.23724964476
 20
3299.933204501324
 30
0.0
 11
5857.237249644761
 21
3299.933204501324
 31
0.0
  0
LINE
  5
7B35
330
19
100
AcDbEntity
  8
1
100
AcDbLine
 10
8143.23724964476
 20
3449.933204501324
 30
0.0
 11
5857.237249644761
 21
3449.933204501324
 31
0.0
  0
LINE
  5
7B36
330
19
100
AcDbEntity
  8
1
100
AcDbLine
 10
8217.23724964476
 20
3279.933204501324
 30
0.0
 11
5857.237249644761
 21
3279.933204501324
 31
0.0
  0
LINE
  5
7B37
330
19
100
AcDbEntity
  8
1
100
AcDbLine
 10
6055.605276667491
 20
3910.328823093849
 30
0.0
 11
6055.605276667491
 21
3710.328823093849
 31
0.0
  0
LINE
  5
7B3A
330
19
100
AcDbEntity
  8
1
100
AcDbLine
 10
6045.605276667491
 20
3740.328823093849
 30
0.0
 11
5905.605276667491
 21
3740.328823093849
 31
0.0
  0
LINE
  5
7B3B
330
19
100
AcDbEntity
  8
1
100
AcDbLine
 10
6045.605276667491
 20
3680.328823093849
 30
0.0
 11
5905.605276667491
 21
3680.328823093849
 31
0.0
  0
LINE
  5
7B3E
330
19
100
AcDbEntity
  8
2
100
AcDbLine
 10
5718.237249644761
 20
3710.328823093848
 30
0.0
 11
6238.237249644761
 21
3710.32882309385
 31
0.0
  0
LINE
  5
7B3F
330
19
100
AcDbEntity
  8
1
100
AcDbLine
 10
6004.63724964476
 20
3469.933204501324
 30
0.0
 11
5718.237249644761
 21
3469.933204501324
 31
0.0
  0
LINE
  5
7B40
330
19
100
AcDbEntity
  8
1
100
AcDbLine
 10
5857.237249644761
 20
3449.933204501324
 30
0.0
 11
5857.237249644761
 21
3299.933204501324
 31
0.0
  0
LINE
  5
7B41
330
19
100
AcDbEntity
  8
1
100
AcDbLine
 10
5905.605276667491
 20
3680.328823093849
 30
0.0
 11
5905.605276667491
 21
3740.328823093849
 31
0.0
  0
LINE
  5
7B42
330
19
100
AcDbEntity
  8
1
100
AcDbLine
 10
5954.63724964476
 20
3577.433204501323
 30
0.0
 11
5869.23724964476
 21
3577.433204501323
 31
0.0
  0
LINE
  5
7B43
330
19
100
AcDbEntity
  8
1
100
AcDbLine
 10
5954.637249644759
 20
3842.433204501324
 30
0.0
 11
5869.23724964476
 21
3842.433204501324
 31
0.0
  0
LINE
  5
7B44
330
19
100
AcDbEntity
  8
1
100
AcDbLine
 10
6055.605276667491
 20
3500.328823093849
 30
0.0
 11
6055.605276667491
 21
3710.328823093849
 31
0.0
  0
LINE
  5
7B45
330
19
100
AcDbEntity
  8
1
100
AcDbLine
 10
6004.63724964476
 20
3469.933204501324
 30
0.0
 11
6004.63724964476
 21
3646.254497449125
 31
0.0
  0
LINE
  5
7B47
330
19
100
AcDbEntity
  8
1
100
AcDbLine
 10
6055.605276667491
 20
3500.328823093849
 30
0.0
 11
6238.237249644761
 21
3500.328823093849
 31
0.0
  0
LINE
  5
7B48
330
19
100
AcDbEntity
  8
1
100
AcDbLine
 10
6238.237249644761
 20
3500.328823093849
 30
0.0
 11
6238.237249644761
 21
3449.933204501324
 31
0.0
  0
LINE
  5
7B49
330
19
100
AcDbEntity
  8
1
100
AcDbLine
 10
6045.605276667491
 20
3742.828823093849
 30
0.0
 11
6045.605276667491
 21
3677.828823093849
 31
0.0
  0
LINE
  5
7B4A
330
19
100
AcDbEntity
  8
1
100
AcDbLine
 10
6045.605276667491
 20
3677.828823093849
 30
0.0
 11
6055.605276667491
 21
3677.828823093849
 31
0.0
  0
LINE
  5
7B4C
330
19
100
AcDbEntity
  8
1
100
AcDbLine
 10
6045.605276667491
 20
3742.828823093849
 30
0.0
 11
6055.605276667491
 21
3742.828823093849
 31
0.0
  0
LINE
  5
7B4D
330
19
100
AcDbEntity
  8
1
100
AcDbLine
 10
5969.23724964476
 20
4459.933204501323
 30
0.0
 11
5954.63724964476
 21
4459.933204501323
 31
0.0
  0
LINE
  5
7B4E
330
19
100
AcDbEntity
  8
1
100
AcDbLine
 10
5954.63724964476
 20
4314.933204501323
 30
0.0
 11
5869.23724964476
 21
4314.933204501323
 31
0.0
  0
LINE
  5
7B4F
330
19
100
AcDbEntity
  8
1
100
AcDbLine
 10
6238.23724964476
 20
3910.328823093849
 30
0.0
 11
6055.605276667491
 21
3910.328823093849
 31
0.0
  0
LINE
  5
7B50
330
19
100
AcDbEntity
  8
1
100
AcDbLine
 10
6035.037249644762
 20
4469.933204501323
 30
0.0
 11
6035.037249644759
 21
4299.933204501323
 31
0.0
  0
LINE
  5
7B51
330
19
100
AcDbEntity
  8
1
100
AcDbLine
 10
6078.437249644761
 20
4299.933204501323
 30
0.0
 11
6238.237249644761
 21
4299.933204501323
 31
0.0
  0
LINE
  5
7B52
330
19
100
AcDbEntity
  8
1
100
AcDbLine
 10
6160.037249644759
 20
4299.933204501323
 30
0.0
 11
6035.037249644759
 21
4299.933204501323
 31
0.0
  0
LINE
  5
7B53
330
19
100
AcDbEntity
  8
1
100
AcDbLine
 10
6078.437249644761
 20
4469.933204501323
 30
0.0
 11
6238.237249644761
 21
4469.933204501323
 31
0.0
  0
LINE
  5
7B54
330
19
100
AcDbEntity
  8
1
100
AcDbLine
 10
6160.037249644759
 20
4469.933204501323
 30
0.0
 11
6035.037249644759
 21
4469.933204501323
 31
0.0
  0
LINE
  5
7B55
330
19
100
AcDbEntity
  8
1
100
AcDbLine
 10
8217.23724964476
 20
3449.933204501324
 30
0.0
 11
8217.23724964476
 21
3299.933204501324
 31
0.0
  0
LINE
  5
7B56
330
19
100
AcDbEntity
  8
1
100
AcDbLine
 10
8143.23724964476
 20
3449.933204501324
 30
0.0
 11
8217.23724964476
 21
3449.933204501324
 31
0.0
  0
LINE
  5
7B58
330
19
100
AcDbEntity
  8
1
100
AcDbLine
 10
8318.437249644759
 20
4469.933204501323
 30
0.0
 11
8318.437249644761
 21
4299.933204501323
 31
0.0
  0
LINE
  5
7B59
330
19
100
AcDbEntity
  8
1
100
AcDbLine
 10
8216.43724964476
 20
4299.933204501323
 30
0.0
 11
8318.437249644761
 21
4299.933204501323
 31
0.0
  0
LINE
  5
7B5A
330
19
100
AcDbEntity
  8
1
100
AcDbLine
 10
8271.437249644758
 20
4299.933204501323
 30
0.0
 11
8138.23724964476
 21
4299.933204501323
 31
0.0
  0
LINE
  5
7B5B
330
19
100
AcDbEntity
  8
1
100
AcDbLine
 10
8318.437249644759
 20
4469.933204501323
 30
0.0
 11
8243.93724964476
 21
4469.933204501323
 31
0.0
  0
LINE
  5
7B5C
330
19
100
AcDbEntity
  8
1
100
AcDbLine
 10
8138.23724964476
 20
4469.933204501323
 30
0.0
 11
8243.93724964476
 21
4469.933204501323
 31
0.0
  0
LINE
  5
7B5D
330
19
100
AcDbEntity
  8
1
100
AcDbLine
 10
8188.23724964476
 20
5463.933204501323
 30
0.0
 11
6188.23724964476
 21
5463.933204501323
 31
0.0
  0
LINE
  5
7B5E
330
19
100
AcDbEntity
  8
1
100
AcDbLine
 10
8188.23724964476
 20
5469.933204501324
 30
0.0
 11
6188.23724964476
 21
5469.933204501323
 31
0.0
  0
LINE
  5
7B5F
330
19
100
AcDbEntity
  8
2
100
AcDbLine
 10
8277.887743700455
 20
4539.933204501322
 30
0.0
 11
5718.237249644761
 21
4539.933204501322
 31
0.0
  0
LINE
  5
7B60
330
19
100
AcDbEntity
  8
1
100
AcDbLine
 10
6238.237249644761
 20
5419.933204501323
 30
0.0
 11
6238.237249644761
 21
4539.933204501322
 31
0.0
  0
LINE
  5
7B61
330
19
100
AcDbEntity
  8
1
100
AcDbLine
 10
6004.63724964476
 20
4919.933204501323
 30
0.0
 11
5718.237249644761
 21
4919.933204501323
 31
0.0
  0
LINE
  5
7B62
330
19
100
AcDbEntity
  8
1
100
AcDbLine
 10
5969.23724964476
 20
4619.933204501323
 30
0.0
 11
5954.637249644762
 21
4619.933204501323
 31
0.0
  0
LINE
  5
7B63
330
19
100
AcDbEntity
  8
1
100
AcDbLine
 10
5954.637249644762
 20
4764.933204501323
 30
0.0
 11
5869.23724964476
 21
4764.933204501323
 31
0.0
  0
LINE
  5
7B64
330
19
100
AcDbEntity
  8
1
100
AcDbLine
 10
6004.63724964476
 20
4693.261497566738
 30
0.0
 11
6004.63724964476
 21
4919.933204501323
 31
0.0
  0
LINE
  5
7B65
330
19
100
AcDbEntity
  8
1
100
AcDbLine
 10
6238.237249644761
 20
4587.433204501323
 30
0.0
 11
5969.23724964476
 21
4587.433204501323
 31
0.0
  0
LINE
  5
7B66
330
19
100
AcDbEntity
  8
1
100
AcDbLine
 10
6238.237249644761
 20
4492.433204501323
 30
0.0
 11
5969.23724964476
 21
4492.433204501323
 31
0.0
  0
LINE
  5
7B67
330
19
100
AcDbEntity
  8
1
100
AcDbLine
 10
6188.23724964476
 20
5469.933204501323
 30
0.0
 11
6188.23724964476
 21
5419.933204501324
 31
0.0
  0
LINE
  5
7B68
330
19
100
AcDbEntity
  8
1
100
AcDbLine
 10
6238.237249644761
 20
5469.933204501323
 30
0.0
 11
6238.237249644761
 21
5419.933204501323
 31
0.0
  0
LINE
  5
7B69
330
19
100
AcDbEntity
  8
1
100
AcDbLine
 10
8138.23724964476
 20
5419.933204501323
 30
0.0
 11
8138.23724964476
 21
4539.933204501322
 31
0.0
  0
LINE
  5
7B6B
330
19
100
AcDbEntity
  8
1
100
AcDbLine
 10
8188.23724964476
 20
5469.933204501323
 30
0.0
 11
8188.23724964476
 21
5419.933204501324
 31
0.0
  0
LINE
  5
7B6C
330
19
100
AcDbEntity
  8
1
100
AcDbLine
 10
8138.23724964476
 20
5469.933204501323
 30
0.0
 11
8138.23724964476
 21
5419.933204501323
 31
0.0
  0
LINE
  5
7B6E
330
19
100
AcDbEntity
  8
1
100
AcDbLine
 10
1346.881188644271
 20
8295.446054598915
 30
0.0
 11
1346.881188644271
 21
7195.446054598915
 31
0.0
  0
LINE
  5
7B70
330
19
100
AcDbEntity
  8
1
100
AcDbLine
 10
1905.88118864427
 20
9476.446054598916
 30
0.0
 11
1905.88118864427
 21
7576.446054598915
 31
0.0
  0
LINE
  5
7B71
330
19
100
AcDbEntity
  8
2
100
AcDbLine
 10
3396.881188644271
 20
9696.132470569489
 30
0.0
 11
3396.881188644271
 21
7056.446054598914
 31
0.0
  0
LINE
  5
7B73
330
19
100
AcDbEntity
  8
1
100
AcDbLine
 10
4399.881188644271
 20
9476.446054598916
 30
0.0
 11
4399.881188644271
 21
7576.446054598915
 31
0.0
  0
LINE
  5
7B74
330
19
100
AcDbEntity
  8
1
100
AcDbLine
 10
3355.881188644271
 20
9476.446054598916
 30
0.0
 11
3355.881188644271
 21
7576.446054598915
 31
0.0
  0
LINE
  5
7B75
330
19
100
AcDbEntity
  8
1
100
AcDbLine
 10
3355.881188644271
 20
9476.446054598916
 30
0.0
 11
1905.88118864427
 21
7576.446054598915
 31
0.0
  0
LINE
  5
7B76
330
19
100
AcDbEntity
  8
1
100
AcDbLine
 10
1905.88118864427
 20
9476.446054598914
 30
0.0
 11
3355.881188644271
 21
7576.446054598915
 31
0.0
  0
LINE
  5
7B77
330
19
100
AcDbEntity
  8
1
100
AcDbLine
 10
1905.88118864427
 20
7576.446054598915
 30
0.0
 11
4399.881188644271
 21
7576.446054598915
 31
0.0
  0
LINE
  5
7B78
330
19
100
AcDbEntity
  8
1
100
AcDbLine
 10
1346.881188644271
 20
7195.446054598915
 30
0.0
 11
4246.88118864427
 21
7195.446054598915
 31
0.0
  0
LINE
  5
7B79
330
19
100
AcDbEntity
  8
1
100
AcDbLine
 10
4246.88118864427
 20
7576.446054598914
 30
0.0
 11
4246.88118864427
 21
7195.446054598915
 31
0.0
  0
LINE
  5
7B7B
330
19
100
AcDbEntity
  8
1
100
AcDbLine
 10
1506.881188644271
 20
7342.846054598915
 30
0.0
 11
3785.881188644271
 21
7342.846054598915
 31
0.0
  0
LINE
  5
7B7C
330
19
100
AcDbEntity
  8
1
100
AcDbLine
 10
1506.881188644271
 20
7056.446054598914
 30
0.0
 11
3785.881188644271
 21
7056.446054598914
 31
0.0
  0
LINE
  5
7B7D
330
19
100
AcDbEntity
  8
1
100
AcDbLine
 10
1614.381188644271
 20
7292.846054598915
 30
0.0
 11
3630.881188644271
 21
7292.846054598915
 31
0.0
  0
LINE
  5
7B7E
330
19
100
AcDbEntity
  8
1
100
AcDbLine
 10
1614.381188644271
 20
7207.446054598915
 30
0.0
 11
3630.881188644271
 21
7207.446054598915
 31
0.0
  0
LINE
  5
7B81
330
19
100
AcDbEntity
  8
1
100
AcDbLine
 10
3349.381188644271
 20
7576.446054598917
 30
0.0
 11
3349.381188644271
 21
7307.446054598916
 31
0.0
  0
LINE
  5
7B82
330
19
100
AcDbEntity
  8
1
100
AcDbLine
 10
3444.381188644271
 20
7576.446054598915
 30
0.0
 11
3444.381188644271
 21
7307.446054598916
 31
0.0
  0
LINE
  5
7B83
330
19
100
AcDbEntity
  8
1
100
AcDbLine
 10
3316.881188644271
 20
7307.446054598916
 30
0.0
 11
3476.881188644271
 21
7307.446054598916
 31
0.0
  0
LINE
  5
7B84
330
19
100
AcDbEntity
  8
1
100
AcDbLine
 10
3630.881188644271
 20
7292.846054598917
 30
0.0
 11
3630.881188644271
 21
7207.446054598915
 31
0.0
  0
LINE
  5
7B85
330
19
100
AcDbEntity
  8
1
100
AcDbLine
 10
3785.881188644271
 20
7342.846054598915
 30
0.0
 11
3785.881188644271
 21
7056.446054598914
 31
0.0
  0
LINE
  5
7B86
330
19
100
AcDbEntity
  8
1
100
AcDbLine
 10
3476.881188644271
 20
7307.446054598916
 30
0.0
 11
3476.881188644271
 21
7292.846054598917
 31
0.0
  0
LINE
  5
7B87
330
19
100
AcDbEntity
  8
1
100
AcDbLine
 10
3180.881188644271
 20
7292.846054598915
 30
0.0
 11
3180.881188644271
 21
7207.446054598915
 31
0.0
  0
LINE
  5
7B88
330
19
100
AcDbEntity
  8
1
100
AcDbLine
 10
3316.881188644271
 20
7307.446054598916
 30
0.0
 11
3316.881188644271
 21
7292.846054598915
 31
0.0
  0
LINE
  5
7B89
330
19
100
AcDbEntity
  8
1
100
AcDbLine
 10
1536.881188644271
 20
7400.146054598915
 30
0.0
 11
1536.881188644271
 21
7675.646054598916
 31
0.0
  0
LINE
  5
7B8B
330
19
100
AcDbEntity
  8
2
100
AcDbLine
 10
1746.881188644271
 20
8049.646054598914
 30
0.0
 11
1746.881188644271
 21
7056.446054598914
 31
0.0
  0
LINE
  5
7B8C
330
19
100
AcDbEntity
  8
1
100
AcDbLine
 10
1712.881188644271
 20
7360.146054598915
 30
0.0
 11
1712.881188644271
 21
7250.146054598914
 31
0.0
  0
LINE
  5
7B8D
330
19
100
AcDbEntity
  8
1
100
AcDbLine
 10
1716.88118864427
 20
7390.146054598915
 30
0.0
 11
1716.88118864427
 21
7250.146054598914
 31
0.0
  0
LINE
  5
7B8E
330
19
100
AcDbEntity
  8
1
100
AcDbLine
 10
1776.881188644271
 20
7390.146054598915
 30
0.0
 11
1776.881188644271
 21
7250.146054598914
 31
0.0
  0
LINE
  5
7B8F
330
19
100
AcDbEntity
  8
1
100
AcDbLine
 10
1506.881188644271
 20
7342.846054598915
 30
0.0
 11
1506.881188644271
 21
7056.446054598914
 31
0.0
  0
LINE
  5
7B90
330
19
100
AcDbEntity
  8
1
100
AcDbLine
 10
1614.381188644271
 20
7292.846054598915
 30
0.0
 11
1614.381188644271
 21
7207.446054598915
 31
0.0
  0
LINE
  5
7B91
330
19
100
AcDbEntity
  8
1
100
AcDbLine
 10
1879.381188644271
 20
7292.846054598915
 30
0.0
 11
1879.381188644271
 21
7207.446054598915
 31
0.0
  0
LINE
  5
7B92
330
19
100
AcDbEntity
  8
1
100
AcDbLine
 10
1712.881188644271
 20
7250.146054598914
 30
0.0
 11
1776.881188644271
 21
7250.146054598914
 31
0.0
  0
LINE
  5
7B93
330
19
100
AcDbEntity
  8
1
100
AcDbLine
 10
1946.881188644271
 20
7576.446054598915
 30
0.0
 11
1946.881188644271
 21
7400.146054598915
 31
0.0
  0
LINE
  5
7B94
330
19
100
AcDbEntity
  8
1
100
AcDbLine
 10
1536.881188644271
 20
7400.146054598915
 30
0.0
 11
1746.881188644271
 21
7400.146054598915
 31
0.0
  0
LINE
  5
7B95
330
19
100
AcDbEntity
  8
1
100
AcDbLine
 10
1714.381188644271
 20
7390.146054598915
 30
0.0
 11
1714.381188644271
 21
7400.146054598915
 31
0.0
  0
LINE
  5
7B96
330
19
100
AcDbEntity
  8
1
100
AcDbLine
 10
1712.881188644271
 20
7360.146054598915
 30
0.0
 11
1716.88118864427
 21
7360.146054598915
 31
0.0
  0
LINE
  5
7B97
330
19
100
AcDbEntity
  8
1
100
AcDbLine
 10
1779.38118864427
 20
7390.146054598915
 30
0.0
 11
1779.38118864427
 21
7400.146054598915
 31
0.0
  0
LINE
  5
7B98
330
19
100
AcDbEntity
  8
1
100
AcDbLine
 10
1779.38118864427
 20
7390.146054598915
 30
0.0
 11
1714.381188644271
 21
7390.146054598915
 31
0.0
  0
LINE
  5
7B99
330
19
100
AcDbEntity
  8
1
100
AcDbLine
 10
1946.881188644271
 20
7400.146054598915
 30
0.0
 11
1746.881188644271
 21
7400.146054598915
 31
0.0
  0
LINE
  5
7B9A
330
19
100
AcDbEntity
  8
1
100
AcDbLine
 10
1536.881188644271
 20
8049.646054598914
 30
0.0
 11
1536.881188644271
 21
7675.646054598916
 31
0.0
  0
LINE
  5
7B9B
330
19
100
AcDbEntity
  8
1
100
AcDbLine
 10
1536.881188644271
 20
8049.646054598914
 30
0.0
 11
1905.881188644271
 21
8049.646054598914
 31
0.0
  0
LINE
  5
7B9C
330
19
100
AcDbEntity
  8
1
100
AcDbLine
 10
1905.88118864427
 20
9476.446054598916
 30
0.0
 11
4399.881188644271
 21
9476.446054598916
 31
0.0
  0
LINE
  5
7B9D
330
19
100
AcDbEntity
  8
2
100
AcDbLine
 10
1905.88118864427
 20
8526.446054598913
 30
0.0
 11
4457.402322556885
 21
8526.446054598915
 31
0.0
  0
LINE
  5
7B9E
330
19
100
AcDbEntity
  8
1
100
AcDbLine
 10
2546.881188644271
 20
9555.446054598915
 30
0.0
 11
4246.88118864427
 21
9555.446054598915
 31
0.0
  0
LINE
  5
7B9F
330
19
100
AcDbEntity
  8
1
100
AcDbLine
 10
4246.88118864427
 20
9555.446054598915
 30
0.0
 11
4246.88118864427
 21
9476.446054598916
 31
0.0
  0
LINE
  5
7BA0
330
19
100
AcDbEntity
  8
1
100
AcDbLine
 10
1346.881188644271
 20
8295.446054598915
 30
0.0
 11
1905.88118864427
 21
8295.446054598915
 31
0.0
  0
LINE
  5
7BA3
330
19
100
AcDbEntity
  8
1
100
AcDbLine
 10
2546.881188644271
 20
9555.446054598915
 30
0.0
 11
2546.881188644271
 21
9476.446054598914
 31
0.0
  0
DIMENSION
  5
7BB6
330
19
100
AcDbEntity
  8
3
100
AcDbDimension
280
     0
  2
*D1
 10
8627.242078195356
 20
3839.933204501323
 30
0.0
 11
8627.242078195356
 21
4479.787853347846
 31
0.0
 70
   160
 71
     5
 42
-1.0
 73
     0
 74
     0
 75
     0
  3
IGA
100
AcDbAlignedDimension
 13
8138.23724964476
 23
5239.933204501324
 33
0.0
 14
8138.23724964476
 24
3839.933204501323
 34
0.0
 50
90.0
100
AcDbRotatedDimension
1001
ACAD
1000
DSTYLE
1002
{
1070
   287
1070
     3
1070
     3
1000
φ<>
1070
    40
1040
45.0
1070
   143
1040
0.039
1070
   172
1070
     1
1070
   271
1070
     0
1070
   279
1070
     0
1070
   288
1070
     1
1002
}
  0
DIMENSION
  5
7BD9
330
19
100
AcDbEntity
  8
3
100
AcDbDimension
280
     0
  2
*D2
 10
8138.23724964476
 20
5600.852992274104
 30
0.0
 11
7195.614020192799
 21
5600.852992274104
 31
0.0
 70
   160
 71
     5
 42
-1.0
 73
     0
 74
     0
 75
     0
  3
IGA
100
AcDbAlignedDimension
 13
6238.237249644761
 23
5463.933204501323
 33
0.0
 14
8138.23724964476
 24
5419.933204501323
 34
0.0
100
AcDbRotatedDimension
1001
ACAD
1000
DSTYLE
1002
{
1070
   287
1070
     3
1070
    40
1040
45.0
1070
   143
1040
0.039
1070
   172
1070
     1
1070
   271
1070
     0
1070
   279
1070
     0
1070
   288
1070
     1
1002
}
  0
DIMENSION
  5
7BE6
330
19
100
AcDbEntity
  8
3
100
AcDbDimension
280
     0
  2
*D3
 10
7188.23724964476
 20
5921.871174271892
 30
0.0
 11
7742.663955301302
 21
5921.871174271892
 31
0.0
 70
   160
  1
(<>)
 71
     5
 42
1130.199999999999
 73
     0
 74
     0
 75
     0
  3
IGA
100
AcDbAlignedDimension
 13
8318.437249644759
 23
4469.933204501323
 33
0.0
 14
7188.23724964476
 24
5791.960174866144
 34
0.0
100
AcDbRotatedDimension
1001
ACAD
1000
DSTYLE
1002
{
1070
   287
1070
     3
1070
    40
1040
45.0
1070
   143
1040
0.039
1070
   172
1070
     1
1070
   271
1070
     0
1070
   279
1070
     0
1070
   288
1070
     1
1002
}
  0
DIMENSION
  5
7BFD
330
19
100
AcDbEntity
  8
3
100
AcDbDimension
280
     0
  2
*D4
 10
5718.237249644761
 20
5921.871174271892
 30
0.0
 11
6453.237249644761
 21
6069.728317129034
 31
0.0
 70
    32
  1
(<>)
 71
     5
 42
1470.0
 73
     0
 74
     0
 75
     0
  3
IGA
100
AcDbAlignedDimension
 13
7188.23724964476
 23
5791.960174866144
 33
0.0
 14
5718.237249644761
 24
4919.933204501323
 34
0.0
100
AcDbRotatedDimension
1001
ACAD
1000
DSTYLE
1002
{
1070
   287
1070
     4
1070
    40
1040
45.0
1070
    75
1070
     1
1070
   143
1040
0.039
1070
   172
1070
     1
1070
   271
1070
     0
1070
   279
1070
     1
1070
   288
1070
     1
1002
}
  0
DIMENSION
  5
7C5C
330
19
100
AcDbEntity
  8
3
100
AcDbDimension
280
     0
  2
*D5
 10
4729.532778333298
 20
4539.933204501322
 30
0.0
 11
4729.532778333298
 21
5030.240085713359
 31
0.0
 70
   160
 71
     5
 42
-1.0
 73
     0
 74
     0
 75
     0
  3
IGA
100
AcDbAlignedDimension
 13
3396.881188644271
 23
5469.933204501323
 33
0.0
 14
4567.169035976061
 24
4539.933204501322
 34
0.0
 50
270.0
100
AcDbRotatedDimension
1001
ACAD
1000
DSTYLE
1002
{
1070
   287
1070
     3
1070
    40
1040
45.0
1070
   143
1040
0.039
1070
   172
1070
     1
1070
   271
1070
     0
1070
   279
1070
     0
1070
   288
1070
     1
1002
}
  0
DIMENSION
  5
7C68
330
19
100
AcDbEntity
  8
3
100
AcDbDimension
280
     0
  2
*D6
 10
4729.532778333298
 20
3299.933204501324
 30
0.0
 11
4617.032778333297
 21
3919.933204501325
 31
0.0
 70
    32
 71
     5
 42
-1.0
 73
     0
 74
     0
 75
     0
  3
IGA
100
AcDbAlignedDimension
 13
4567.169035976061
 23
4539.933204501322
 33
0.0
 14
4246.88118864427
 24
3299.933204501324
 34
0.0
 50
270.0
100
AcDbRotatedDimension
1001
ACAD
1000
DSTYLE
1002
{
1070
   287
1070
     4
1070
    40
1040
45.0
1070
    75
1070
     1
1070
   143
1040
0.039
1070
   172
1070
     1
1070
   271
1070
     0
1070
   279
1070
     1
1070
   288
1070
     1
1002
}
  0
DIMENSION
  5
7C88
330
19
100
AcDbEntity
  8
3
100
AcDbDimension
280
     0
  2
*D7
 10
4729.532778333298
 20
3204.933204501324
 30
0.0
 11
4617.032778333297
 21
2870.64749021561
 31
0.0
 70
    32
 71
     5
 42
-1.0
 73
     0
 74
     0
 75
     0
  3
IGA
100
AcDbAlignedDimension
 13
4246.88118864427
 23
3279.933204501324
 33
0.0
 14
4246.88118864427
 24
3204.933204501324
 34
0.0
 50
270.0
100
AcDbRotatedDimension
1001
ACAD
1000
DSTYLE
1002
{
1070
   287
1070
     3
1070
    40
1040
45.0
1070
   143
1040
0.039
1070
   172
1070
     1
1070
   271
1070
     0
1070
   279
1070
     0
1070
   288
1070
     1
1070
     6
1000
DOT
1002
}
  0
DIMENSION
  5
7D3E
330
19
100
AcDbEntity
  8
3
100
AcDbDimension
280
     0
  2
*D9
 10
3355.881188644271
 20
5770.638602985429
 30
0.0
 11
2626.078396571502
 21
5770.638602985429
 31
0.0
 70
   160
 71
     5
 42
-1.0
 73
     0
 74
     0
 75
     0
  3
IGA
100
AcDbAlignedDimension
 13
1905.88118864427
 23
5469.933204501323
 33
0.0
 14
3355.881188644271
 24
5469.933204501323
 34
0.0
100
AcDbRotatedDimension
1001
ACAD
1000
DSTYLE
1002
{
1070
   287
1070
     3
1070
    40
1040
45.0
1070
   143
1040
0.039
1070
   172
1070
     1
1070
   271
1070
     0
1070
   279
1070
     0
1070
   288
1070
     1
1002
}
  0
DIMENSION
  5
7D4B
330
19
100
AcDbEntity
  8
3
100
AcDbDimension
280
     0
  2
*D10
 10
3396.881188644271
 20
6034.296173989351
 30
0.0
 11
2611.41861789905
 21
6034.296173989351
 31
0.0
 70
   160
 71
     5
 42
-1.0
 73
     0
 74
     0
 75
     0
  3
IGA
100
AcDbAlignedDimension
 13
1905.88118864427
 23
5469.933204501323
 33
0.0
 14
3396.881188644271
 24
5557.927962352408
 34
0.0
100
AcDbRotatedDimension
1001
ACAD
1000
DSTYLE
1002
{
1070
   287
1070
     3
1070
    40
1040
45.0
1070
   143
1040
0.039
1070
   172
1070
     1
1070
   271
1070
     0
1070
   279
1070
     0
1070
   288
1070
     1
1002
}
  0
DIMENSION
  5
7D57
330
19
100
AcDbEntity
  8
3
100
AcDbDimension
280
     0
  2
*D11
 10
4399.881188644271
 20
6034.296173989351
 30
0.0
 11
3898.381188644271
 21
6146.796173989351
 31
0.0
 70
    32
 71
     5
 42
-1.0
 73
     0
 74
     0
 75
     0
  3
IGA
100
AcDbAlignedDimension
 13
3396.881188644271
 23
5557.927962352408
 33
0.0
 14
4399.881188644271
 24
4454.433204501323
 34
0.0
100
AcDbRotatedDimension
1001
ACAD
1000
DSTYLE
1002
{
1070
   287
1070
     4
1070
    40
1040
45.0
1070
    75
1070
     1
1070
   143
1040
0.039
1070
   172
1070
     1
1070
   271
1070
     0
1070
   279
1070
     1
1070
   288
1070
     1
1002
}
  0
DIMENSION
  5
7D64
330
19
100
AcDbEntity
  8
3
100
AcDbDimension
280
     0
  2
*D12
 10
1346.881188644271
 20
6323.298802906226
 30
0.0
 11
2938.853750611576
 21
6323.298802906226
 31
0.0
 70
   160
 71
     5
 42
-1.0
 73
     0
 74
     0
 75
     0
  3
IGA
100
AcDbAlignedDimension
 13
4399.881188644271
 23
4476.933204501324
 33
0.0
 14
1346.881188644271
 24
3449.933204501324
 34
0.0
100
AcDbRotatedDimension
1001
ACAD
1000
DSTYLE
1002
{
1070
   287
1070
     3
1070
    40
1040
45.0
1070
   143
1040
0.039
1070
   172
1070
     1
1070
   271
1070
     0
1070
   279
1070
     0
1070
   288
1070
     1
1002
}
  0
DIMENSION
  5
7D71
330
19
100
AcDbEntity
  8
3
100
AcDbDimension
280
     0
  2
*D13
 10
4645.878072557716
 20
7195.446054598915
 30
0.0
 11
4645.878072557716
 21
8366.458639966054
 31
0.0
 70
   160
 71
     5
 42
-1.0
 73
     0
 74
     0
 75
     0
  3
IGA
100
AcDbAlignedDimension
 13
4246.88118864427
 23
9555.446054598915
 33
0.0
 14
4246.88118864427
 24
7195.446054598915
 34
0.0
 50
270.0
100
AcDbRotatedDimension
1001
ACAD
1000
DSTYLE
1002
{
1070
   287
1070
     3
1070
    40
1040
45.0
1070
   143
1040
0.039
1070
   172
1070
     1
1070
   271
1070
     0
1070
   279
1070
     0
1070
   288
1070
     1
1002
}
  0
DIMENSION
  5
7D7E
330
19
100
AcDbEntity
  8
3
100
AcDbDimension
280
     0
  2
*D14
 10
1346.881188644271
 20
6814.612581635228
 30
0.0
 11
2897.323654162036
 21
6814.612581635228
 31
0.0
 70
   160
 71
     5
 42
-1.0
 73
     0
 74
     0
 75
     0
  3
IGA
100
AcDbAlignedDimension
 13
4246.88118864427
 23
7195.446054598915
 33
0.0
 14
1346.881188644271
 24
7195.446054598915
 34
0.0
100
AcDbRotatedDimension
1001
ACAD
1000
DSTYLE
1002
{
1070
   287
1070
     3
1070
    40
1040
45.0
1070
   143
1040
0.039
1070
   172
1070
     1
1070
   271
1070
     0
1070
   279
1070
     0
1070
   288
1070
     1
1002
}
  0
DIMENSION
  5
7D8B
330
19
100
AcDbEntity
  8
3
100
AcDbDimension
280
     0
  2
*D15
 10
871.057683866436
 20
8295.446054598915
 30
0.0
 11
871.0576838664346
 21
7718.999691342702
 31
0.0
 70
   160
 71
     5
 42
-1.0
 73
     0
 74
     0
 75
     0
  3
IGA
100
AcDbAlignedDimension
 13
1346.881188644271
 23
7195.446054598915
 33
0.0
 14
1346.881188644271
 24
8295.446054598915
 34
0.0
 50
270.0
100
AcDbRotatedDimension
1001
ACAD
1000
DSTYLE
1002
{
1070
   287
1070
     3
1070
    40
1040
45.0
1070
   143
1040
0.039
1070
   172
1070
     1
1070
   271
1070
     0
1070
   279
1070
     0
1070
   288
1070
     1
1002
}
  0
DIMENSION
  5
7D99
330
19
100
AcDbEntity
  8
3
100
AcDbDimension
280
     0
  2
*D16
 10
2546.881188644271
 20
9877.196207359389
 30
0.0
 11
3391.03318014252
 21
9877.196207359389
 31
0.0
 70
   160
 71
     5
 42
-1.0
 73
     0
 74
     0
 75
     0
  3
IGA
100
AcDbAlignedDimension
 13
4246.88118864427
 23
9555.446054598915
 33
0.0
 14
2546.881188644271
 24
9555.446054598915
 34
0.0
100
AcDbRotatedDimension
1001
ACAD
1000
DSTYLE
1002
{
1070
   287
1070
     3
1070
    40
1040
45.0
1070
   143
1040
0.039
1070
   172
1070
     1
1070
   271
1070
     0
1070
   279
1070
     0
1070
   288
1070
     1
1002
}
  0
DIMENSION
  5
7DA5
330
19
100
AcDbEntity
  8
3
100
AcDbDimension
280
     0
  2
*D17
 10
1346.881188644271
 20
9877.196207359389
 30
0.0
 11
1946.881188644271
 21
9989.69620735939
 31
0.0
 70
    32
 71
     5
 42
-1.0
 73
     0
 74
     0
 75
     0
  3
IGA
100
AcDbAlignedDimension
 13
2546.881188644271
 23
9555.446054598915
 33
0.0
 14
1346.881188644271
 24
8295.446054598915
 34
0.0
100
AcDbRotatedDimension
1001
ACAD
1000
DSTYLE
1002
{
1070
   287
1070
     4
1070
    40
1040
45.0
1070
    75
1070
     1
1070
   143
1040
0.039
1070
   172
1070
     1
1070
   271
1070
     0
1070
   279
1070
     1
1070
   288
1070
     1
1002
}
  0
LINE
  5
7DA6
330
19
100
AcDbEntity
  8
4
100
AcDbLine
 10
8325.0
 20
1815.173399113279
 30
0.0
 11
8325.0
 21
915.1733991132786
 31
0.0
  0
LINE
  5
7DA7
330
19
100
AcDbEntity
  8
4
100
AcDbLine
 10
5175.0
 20
1815.173399113279
 30
0.0
 11
5175.0
 21
915.1733991132786
 31
0.0
  0
LINE
  5
7DA8
330
19
100
AcDbEntity
  8
4
100
AcDbLine
 10
2925.0
 20
1815.173399113279
 30
0.0
 11
2925.0
 21
915.1733991132786
 31
0.0
  0
LINE
  5
7DAB
330
19
100
AcDbEntity
  8
4
100
AcDbLine
 10
2925.0
 20
915.1733991132786
 30
0.0
 11
8325.0
 21
915.1733991132786
 31
0.0
  0
LINE
  5
7DAC
330
19
100
AcDbEntity
  8
4
100
AcDbLine
 10
2925.0
 20
1365.173399113279
 30
0.0
 11
8325.0
 21
1365.173399113279
 31
0.0
  0
TEXT
  5
7DAD
330
19
100
AcDbEntity
  8
4
100
AcDbText
 10
3098.259363811058
 20
1507.117015513037
 30
0.0
 40
225.0
  1
機器名称
100
AcDbText
  0
TEXT
  5
7DAE
330
19
100
AcDbEntity
  8
4
100
AcDbText
 10
3088.161477111589
 20
1012.576604407328
 30
0.0
 40
225.0
  1
機器型番
100
AcDbText
  0
TEXT
  5
7DAF
330
19
100
AcDbEntity
  8
4
100
AcDbText
 10
5304.530570434284
 20
1474.110266434693
 30
0.0
 40
191.25
  1
ミツヤリミットロードファン
100
AcDbText
  0
TEXT
  5
7DB0
330
19
100
AcDbEntity
  8
4
100
AcDbText
 10
5339.945230134663
 20
992.3915283730238
 30
0.0
 40
225.0
  1
LL#9-5
100
AcDbText
  0
TEXT
  5
7DB2
330
19
100
AcDbEntity
  8
4
100
AcDbText
 10
3678.460096728246
 20
10725.42978599632
 30
0.0
 40
243.0
  1
床置防振ベット
100
AcDbText
  0
TEXT
  5
7DB3
330
19
100
AcDbEntity
  8
4
100
AcDbText
 10
1265.523862720598
 20
11402.46439289684
 30
0.0
 40
324.0
  1
遠心式両吸込両持リミットロードファン
100
AcDbText
  0
LINE
  5
7DB4
330
19
100
AcDbEntity
  8
4
100
AcDbLine
 10
1125.0
 20
11112.33939419162
 30
0.0
 11
8325.0
 21
11112.33939419162
 31
0.0
  0
LINE
  5
7DB5
330
19
100
AcDbEntity
  8
4
100
AcDbLine
 10
1125.0
 20
12012.33939419162
 30
0.0
 11
8325.0
 21
12012.33939419162
 31
0.0
  0
LINE
  5
7DB6
330
19
100
AcDbEntity
  8
4
100
AcDbLine
 10
2925.0
 20
1815.173399113279
 30
0.0
 11
8325.0
 21
1815.173399113279
 31
0.0
  0
LINE
  5
7DB7
330
19
100
AcDbEntity
  8
4
100
AcDbLine
 10
1125.0
 20
12012.33939419162
 30
0.0
 11
1125.0
 21
11112.33939419162
 31
0.0
  0
TEXT
  5
7DB8
330
19
100
AcDbEntity
  8
4
100
AcDbText
 10
1717.095351636086
 20
10720.43764895854
 30
0.0
 40
243.0
  1
右回転上向
100
AcDbText
  0
TEXT
  5
7DB9
330
19
100
AcDbEntity
  8
4
100
AcDbText
 10
6610.363016621803
 20
12177.27486672889
 30
0.0
 40
252.0
  1
No.
100
AcDbText
  0
TEXT
  5
7DBA
330
19
100
AcDbEntity
  8
4
100
AcDbText
 10
5900.832281700059
 20
10725.42978599632
 30
0.0
 40
243.0
  1
縮尺：1/45
100
AcDbText
  0
LINE
  5
7DBB
330
19
100
AcDbEntity
  8
4
100
AcDbLine
 10
8325.0
 20
12012.33939419162
 30
0.0
 11
8325.0
 21
11112.33939419162
 31
0.0
  0
LINE
  5
7DBC
330
19
100
AcDbEntity
  8
4
100
AcDbLine
 10
9450.0
 20
13275.0
 30
0.0
 11
9450.0
 21
13275.0
 31
0.0
  0
LINE
  5
7DBD
330
19
100
AcDbEntity
  8
4
100
AcDbLine
 10
6482.778400619391
 20
12065.6861240643
 30
0.0
 11
6482.778400619391
 21
12539.93517697388
 31
0.0
  0
LINE
  5
7DBE
330
19
100
AcDbEntity
  8
4
100
AcDbLine
 10
6482.778400619391
 20
12539.93517697388
 30
0.0
 11
8325.0
 21
12539.93517697388
 31
0.0
  0
LINE
  5
7DBF
330
19
100
AcDbEntity
  8
4
100
AcDbLine
 10
8325.0
 20
12539.93517697388
 30
0.0
 11
8325.0
 21
12065.6861240643
 31
0.0
  0
LINE
  5
7DC0
330
19
100
AcDbEntity
  8
4
100
AcDbLine
 10
8325.0
 20
12065.6861240643
 30
0.0
 11
6482.778400619391
 21
12065.6861240643
 31
0.0
  0
LINE
  5
7DC1
330
19
100
AcDbEntity
  8
4
100
AcDbLine
 10
0.0
 20
0.0
 30
0.0
 11
0.0
 21
13275.0
 31
0.0
  0
LINE
  5
7DC2
330
19
100
AcDbEntity
  8
4
100
AcDbLine
 10
0.0
 20
13275.0
 30
0.0
 11
9450.0
 21
13275.0
 31
0.0
  0
LINE
  5
7DC3
330
19
100
AcDbEntity
  8
4
100
AcDbLine
 10
9450.0
 20
13275.0
 30
0.0
 11
9450.0
 21
0.0
 31
0.0
  0
LINE
  5
7DC4
330
19
100
AcDbEntity
  8
4
100
AcDbLine
 10
9450.0
 20
0.0
 30
0.0
 11
0.0
 21
0.0
 31
0.0
  0
LINE
  5
7DCE
330
19
100
AcDbEntity
  8
1
100
AcDbLine
 10
8188.23724964476
 20
5419.933204501324
 30
0.0
 11
6188.23724964476
 21
5419.933204501323
 31
0.0
  0
DIMENSION
  5
7EA6
330
19
100
AcDbEntity
  8
3
100
AcDbDimension
280
     0
  2
*D18
 10
3396.881188644271
 20
2915.058125784894
 30
0.0
 11
2371.881188644271
 21
3027.558125784894
 31
0.0
 70
    32
 71
     5
 42
-1.0
 73
     0
 74
     0
 75
     0
  3
IGA
100
AcDbAlignedDimension
 13
1346.881188644271
 23
3204.933204501324
 33
0.0
 14
3396.881188644271
 24
3204.933204501324
 34
0.0
100
AcDbRotatedDimension
1001
ACAD
1000
DSTYLE
1002
{
1070
   172
1070
     1
1070
    40
1040
45.0
1070
   271
1070
     0
1070
   143
1040
0.039
1002
}
  0
DIMENSION
  5
7EB3
330
19
100
AcDbEntity
  8
3
100
AcDbDimension
280
     0
  2
*D19
 10
4246.88118864427
 20
2915.058125784894
 30
0.0
 11
3821.881188644271
 21
3027.558125784894
 31
0.0
 70
    32
 71
     5
 42
-1.0
 73
     0
 74
     0
 75
     0
  3
IGA
100
AcDbAlignedDimension
 13
3396.881188644271
 23
3204.933204501324
 33
0.0
 14
4246.88118864427
 24
3204.933204501324
 34
0.0
100
AcDbRotatedDimension
1001
ACAD
1000
DSTYLE
1002
{
1070
   172
1070
     1
1070
    40
1040
45.0
1070
   271
1070
     0
1070
   143
1040
0.039
1002
}
  0
DIMENSION
  5
7EC0
330
19
100
AcDbEntity
  8
3
100
AcDbDimension
280
     0
  2
*D20
 10
7188.23724964476
 20
2915.058125784894
 30
0.0
 11
6522.73724964476
 21
3027.558125784894
 31
0.0
 70
    32
 71
     5
 42
-1.0
 73
     0
 74
     0
 75
     0
  3
IGA
100
AcDbAlignedDimension
 13
5857.237249644761
 23
3204.933204501324
 33
0.0
 14
7188.23724964476
 24
3204.933204501324
 34
0.0
100
AcDbRotatedDimension
1001
ACAD
1000
DSTYLE
1002
{
1070
   172
1070
     1
1070
    40
1040
45.0
1070
   271
1070
     0
1070
   143
1040
0.039
1002
}
  0
DIMENSION
  5
7ECD
330
19
100
AcDbEntity
  8
3
100
AcDbDimension
280
     0
  2
*D21
 10
8217.23724964476
 20
2915.058125784894
 30
0.0
 11
7702.737249644761
 21
3027.558125784894
 31
0.0
 70
    32
 71
     5
 42
-1.0
 73
     0
 74
     0
 75
     0
  3
IGA
100
AcDbAlignedDimension
 13
7188.23724964476
 23
3204.933204501324
 33
0.0
 14
8217.23724964476
 24
3204.933204501325
 34
0.0
100
AcDbRotatedDimension
1001
ACAD
1000
DSTYLE
1002
{
1070
   172
1070
     1
1070
    40
1040
45.0
1070
   271
1070
     0
1070
   143
1040
0.039
1002
}
  0
DIMENSION
  5
7EDC
330
19
100
AcDbEntity
  8
3
100
AcDbDimension
280
     0
  2
*D23
 10
4733.049447725599
 20
3299.933204501324
 30
0.0
 11
4948.406590582743
 21
3289.933204501323
 31
0.0
 70
    32
  1
   <>
 71
     5
 42
-1.0
 73
     0
 74
     0
 75
     0
  3
IGA
100
AcDbAlignedDimension
 13
4246.88118864427
 23
3279.933204501324
 33
0.0
 14
4246.88118864427
 24
3299.933204501324
 34
0.0
 50
90.0
100
AcDbRotatedDimension
1001
ACAD
1000
DSTYLE
1002
{
1070
   172
1070
     1
1070
    76
1070
     1
1070
    75
1070
     1
1070
    40
1040
45.0
1070
     3
1000
(<>)
1070
   271
1070
     0
1070
     7
1000
_NONE
1070
     6
1000
_NONE
1070
   143
1040
0.039
1002
}
  0
DIMENSION
  5
7EE9
330
19
100
AcDbEntity
  8
3
100
AcDbDimension
280
     0
  2
*D24
 10
5125.4151388428
 20
3204.933204501324
 30
0.0
 11
4977.557995985657
 21
4337.433204501323
 31
0.0
 70
    32
 71
     5
 42
-1.0
 73
     0
 74
     0
 75
     0
  3
IGA
100
AcDbAlignedDimension
 13
3409.881188644271
 23
5469.933204501323
 33
0.0
 14
4246.88118864427
 24
3204.933204501324
 34
0.0
 50
90.0
100
AcDbRotatedDimension
1001
ACAD
1000
DSTYLE
1002
{
1070
   172
1070
     1
1070
    40
1040
45.0
1070
     3
1000
(<>)
1070
   271
1070
     0
1070
   143
1040
0.039
1002
}
  0
ENDSEC
  0
SECTION
  2
OBJECTS
  0
DICTIONARY
  5
C
330
0
100
AcDbDictionary
281
     1
  3
ACAD_CIP_PREVIOUS_PRODUCT_INFO
350
8033
  3
ACAD_COLOR
350
8016
  3
ACAD_DETAILVIEWSTYLE
350
802F
  3
ACAD_GROUP
350
D
  3
ACAD_LAYOUT
350
7F15
  3
ACAD_MATERIAL
350
7FE4
  3
ACAD_MLEADERSTYLE
350
802B
  3
ACAD_MLINESTYLE
350
E
  3
ACAD_PLOTSETTINGS
350
7F16
  3
ACAD_PLOTSTYLENAME
350
7F13
  3
ACAD_SCALELIST
350
8019
  3
ACAD_SECTIONVIEWSTYLE
350
802D
  3
ACAD_TABLESTYLE
350
8017
  3
ACAD_VISUALSTYLE
350
7FFD
  3
ACDB_RECOMPOSE_DATA
350
808A
  3
AcDbVariableDictionary
350
7FDB
  3
AcDsDecomposeData
350
8090
  0
DICTIONARY
  5
806E
330
2
100
AcDbDictionary
280
     1
281
     1
  3
ACAD_LAYERSTATES
360
806F
  0
DICTIONARY
  5
8061
330
F
100
AcDbDictionary
280
     1
281
     1
  3
ADSK_XREC_LAYER_RECONCILED
360
8062
  0
DICTIONARY
  5
8063
330
31
100
AcDbDictionary
280
     1
281
     1
  3
ADSK_XREC_LAYER_RECONCILED
360
8064
  0
DICTIONARY
  5
8065
330
76D0
100
AcDbDictionary
280
     1
281
     1
  3
ADSK_XREC_LAYER_RECONCILED
360
8066
  0
DICTIONARY
  5
8067
330
76D1
100
AcDbDictionary
280
     1
281
     1
  3
ADSK_XREC_LAYER_RECONCILED
360
8068
  0
DICTIONARY
  5
8069
330
76D2
100
AcDbDictionary
280
     1
281
     1
  3
ADSK_XREC_LAYER_RECONCILED
360
806A
  0
DICTIONARY
  5
7F42
330
19
100
AcDbDictionary
280
     1
281
     1
  3
ACAD_LAYOUTSELFREF
360
7F43
  0
DICTIONARY
  5
7F40
330
16
100
AcDbDictionary
280
     1
281
     1
  3
ACAD_LAYOUTSELFREF
360
7F41
  0
XRECORD
  5
8033
102
{ACAD_REACTORS
330
C
102
}
330
C
100
AcDbXrecord
280
     1
300
ACDLT
300
2023
300

  0
DICTIONARY
  5
8016
102
{ACAD_REACTORS
330
C
102
}
330
C
100
AcDbDictionary
281
     1
  0
DICTIONARY
  5
802F
102
{ACAD_REACTORS
330
C
102
}
330
C
100
AcDbDictionary
281
     1
  3
Metric50
350
8030
  0
DICTIONARY
  5
D
102
{ACAD_REACTORS
330
C
102
}
330
C
100
AcDbDictionary
281
     1
  0
DICTIONARY
  5
7F15
102
{ACAD_REACTORS
330
C
102
}
330
C
100
AcDbDictionary
281
     1
  3
Model
350
7F17
  3
ﾚｲｱｳﾄ1
350
7F18
  0
DICTIONARY
  5
7FE4
102
{ACAD_REACTORS
330
C
102
}
330
C
100
AcDbDictionary
281
     1
  3
ByBlock
350
7FED
  3
ByLayer
350
7FE5
  3
Global
350
7FF5
  0
DICTIONARY
  5
802B
102
{ACAD_REACTORS
330
C
102
}
330
C
100
AcDbDictionary
281
     1
  3
Standard
350
802C
  0
DICTIONARY
  5
E
102
{ACAD_REACTORS
330
C
102
}
330
C
100
AcDbDictionary
281
     1
  3
STANDARD
350
1C
  0
DICTIONARY
  5
7F16
102
{ACAD_REACTORS
330
C
102
}
330
C
100
AcDbDictionary
281
     1
  0
ACDBDICTIONARYWDFLT
  5
7F13
102
{ACAD_REACTORS
330
C
102
}
330
C
100
AcDbDictionary
281
     1
  3
Normal
350
7F14
100
AcDbDictionaryWithDefault
340
7F14
  0
DICTIONARY
  5
8019
102
{ACAD_REACTORS
330
C
102
}
330
C
100
AcDbDictionary
281
     1
  3
A0
350
801A
  3
A1
350
801B
  3
A2
350
801C
  3
A3
350
801D
  3
A4
350
801E
  3
A5
350
801F
  3
A6
350
8020
  3
A7
350
8021
  3
A8
350
8022
  3
A9
350
8023
  3
B0
350
8024
  3
B1
350
8025
  3
B2
350
8026
  3
B3
350
8027
  3
B4
350
8028
  3
B5
350
8029
  3
B6
350
802A
  0
DICTIONARY
  5
802D
102
{ACAD_REACTORS
330
C
102
}
330
C
100
AcDbDictionary
281
     1
  3
Metric50
350
802E
  0
DICTIONARY
  5
8017
102
{ACAD_REACTORS
330
C
102
}
330
C
100
AcDbDictionary
281
     1
  3
Standard
350
8018
  0
DICTIONARY
  5
7FFD
102
{ACAD_REACTORS
330
C
102
}
330
C
100
AcDbDictionary
281
     1
  3
2dWireframe
350
8003
  3
Basic
350
8002
  3
Brighten
350
8009
  3
ColorChange
350
800D
  3
Conceptual
350
8006
  3
Dim
350
8008
  3
EdgeColorOff
350
8015
  3
Facepattern
350
800C
  3
Flat
350
7FFE
  3
FlatWithEdges
350
7FFF
  3
Gouraud
350
8000
  3
GouraudWithEdges
350
8001
  3
Hidden
350
8005
  3
JitterOff
350
8013
  3
Linepattern
350
800B
  3
OverhangOff
350
8014
  3
Realistic
350
8007
  3
Shaded
350
8012
  3
Shaded with edges
350
8011
  3
Shades of Gray
350
800E
  3
Sketchy
350
800F
  3
Thicken
350
800A
  3
Wireframe
350
8004
  3
X-Ray
350
8010
  0
XRECORD
  5
808A
102
{ACAD_REACTORS
330
C
102
}
330
C
100
AcDbXrecord
280
     1
 90
        1
330
8018
  0
DICTIONARY
  5
7FDB
102
{ACAD_REACTORS
330
C
102
}
330
C
100
AcDbDictionary
281
     1
  3
CANNOSCALE
350
807F
  3
CMLEADERSTYLE
350
807B
  3
CTABLESTYLE
350
807A
  3
CVIEWDETAILSTYLE
350
807C
  3
CVIEWSECTIONSTYLE
350
807D
  3
DIMASSOC
350
7FDC
  3
LAYEREVAL
350
8081
  3
LAYERNOTIFY
350
8082
  3
LIGHTINGUNITS
350
8080
  3
MARKUPASSISTMODE
350
8087
  3
MSLTSCALE
350
807E
  0
DICTIONARY
  5
8090
102
{ACAD_REACTORS
330
C
102
}
330
C
100
AcDbDictionary
281
     1
  3
AcDsRecords
350
8092
  3
AcDsSchemas
350
8091
1001
ACAD
1070
     2
  0
DICTIONARY
  5
806F
102
{ACAD_REACTORS
330
806E
102
}
330
806E
100
AcDbDictionary
281
     1
  0
XRECORD
  5
8062
102
{ACAD_REACTORS
330
8061
102
}
330
8061
100
AcDbXrecord
280
     1
290
     1
  0
XRECORD
  5
8064
102
{ACAD_REACTORS
330
8063
102
}
330
8063
100
AcDbXrecord
280
     1
290
     1
  0
XRECORD
  5
8066
102
{ACAD_REACTORS
330
8065
102
}
330
8065
100
AcDbXrecord
280
     1
290
     1
  0
XRECORD
  5
8068
102
{ACAD_REACTORS
330
8067
102
}
330
8067
100
AcDbXrecord
280
     1
290
     1
  0
XRECORD
  5
806A
102
{ACAD_REACTORS
330
8069
102
}
330
8069
100
AcDbXrecord
280
     1
290
     1
  0
XRECORD
  5
7F43
102
{ACAD_REACTORS
330
7F42
102
}
330
7F42
100
AcDbXrecord
280
     1
340
19
  0
XRECORD
  5
7F41
102
{ACAD_REACTORS
330
7F40
102
}
330
7F40
100
AcDbXrecord
280
     1
340
16
  0
ACDBDETAILVIEWSTYLE
  5
8030
102
{ACAD_XDICTIONARY
360
8095
102
}
102
{ACAD_REACTORS
330
802F
102
}
330
802F
100
AcDbModelDocViewStyle
 70
     0
  3
Metric50
290
     0
100
AcDbDetailViewStyle
 70
     0
 71
     0
 90
        3
 71
     1
340
10
 62
   256
 40
5.0
340
0
 62
   256
 40
5.0
300

 40
0.0
280
     1
 71
     2
340
15
 90
       25
 62
   256
 71
     3
340
10
 62
   256
 40
5.0
 90
        0
 40
15.0
 90
        1
300
%<\AcVar ViewDetailId>% (%<\AcVar ViewScale \f "%sn">%)
 71
     4
340
15
 90
       25
 62
   256
340
15
 90
       25
 62
   256
280
     0
  0
LAYOUT
  5
7F17
102
{ACAD_REACTORS
330
7F15
102
}
330
7F15
100
AcDbPlotSettings
  1

  2
\\Txbo34x8944cqyd\EPSON LP-6100
  4

  6

 40
0.0
 41
0.0
 42
0.0
 43
0.0
 44
0.0
 45
0.0
 46
0.0
 47
0.0
 48
0.0
 49
0.0
140
0.0
141
0.0
142
1.0
143
1.0
 70
  1712
 72
     0
 73
     0
 74
     0
  7
GOD2000TABLE.ctb
 75
     0
147
1.0
 76
     0
 77
     2
 78
   300
148
0.0
149
0.0
100
AcDbLayout
  1
Model
 70
     1
 71
     0
 10
0.0
 20
0.0
 11
12.0
 21
9.0
 12
0.0
 22
0.0
 32
0.0
 14
0.0
 24
0.0
 34
0.0
 15
0.0
 25
0.0
 35
0.0
146
0.0
 13
0.0
 23
0.0
 33
0.0
 16
1.0
 26
0.0
 36
0.0
 17
0.0
 27
1.0
 37
0.0
 76
     0
330
19
331
7FE2
  0
LAYOUT
  5
7F18
102
{ACAD_REACTORS
330
7F15
102
}
330
7F15
100
AcDbPlotSettings
  1

  2
\\Txbo34x8944cqyd\EPSON LP-6100
  4

  6

 40
0.0
 41
0.0
 42
0.0
 43
0.0
 44
0.0
 45
0.0
 46
0.0
 47
0.0
 48
0.0
 49
0.0
140
0.0
141
0.0
142
1.0
143
1.0
 70
   688
 72
     0
 73
     0
 74
     5
  7
GOD2000TABLE.ctb
 75
    16
147
1.0
 76
     0
 77
     2
 78
   300
148
0.0
149
0.0
100
AcDbLayout
  1
ﾚｲｱｳﾄ1
 70
     1
 71
     1
 10
0.0
 20
0.0
 11
12.0
 21
9.0
 12
0.0
 22
0.0
 32
0.0
 14
1.000000000000000E+20
 24
1.000000000000000E+20
 34
1.000000000000000E+20
 15
-1.000000000000000E+20
 25
-1.000000000000000E+20
 35
-1.000000000000000E+20
146
0.0
 13
0.0
 23
0.0
 33
0.0
 16
1.0
 26
0.0
 36
0.0
 17
0.0
 27
1.0
 37
0.0
 76
     0
330
16
  0
MATERIAL
  5
7FED
102
{ACAD_XDICTIONARY
360
7FEE
102
}
102
{ACAD_REACTORS
330
7FE4
102
}
330
7FE4
100
AcDbMaterial
  1
ByBlock
 72
     0
 43
0.0208333333333333
 43
0.0
 43
0.0
 43
0.0
 43
0.0
 43
0.0208333333333333
 43
0.0
 43
0.0
 43
0.0
 43
0.0
 43
1.0
 43
0.0
 43
0.0
 43
0.0
 43
0.0
 43
1.0
 77
     0
 47
0.0208333333333333
 47
0.0
 47
0.0
 47
0.0
 47
0.0
 47
0.0208333333333333
 47
0.0
 47
0.0
 47
0.0
 47
0.0
 47
1.0
 47
0.0
 47
0.0
 47
0.0
 47
0.0
 47
1.0
171
     0
 49
0.0208333333333333
 49
0.0
 49
0.0
 49
0.0
 49
0.0
 49
0.0208333333333333
 49
0.0
 49
0.0
 49
0.0
 49
0.0
 49
1.0
 49
0.0
 49
0.0
 49
0.0
 49
0.0
 49
1.0
175
     0
142
0.0208333333333333
142
0.0
142
0.0
142
0.0
142
0.0
142
0.0208333333333333
142
0.0
142
0.0
142
0.0
142
0.0
142
1.0
142
0.0
142
0.0
142
0.0
142
0.0
142
1.0
179
     0
144
0.0208333333333333
144
0.0
144
0.0
144
0.0
144
0.0
144
0.0208333333333333
144
0.0
144
0.0
144
0.0
144
0.0
144
1.0
144
0.0
144
0.0
144
0.0
144
0.0
144
1.0
147
0.0208333333333333
147
0.0
147
0.0
147
0.0
147
0.0
147
0.0208333333333333
147
0.0
147
0.0
147
0.0
147
0.0
147
1.0
147
0.0
147
0.0
147
0.0
147
0.0
147
1.0
  0
MATERIAL
  5
7FE5
102
{ACAD_XDICTIONARY
360
7FE6
102
}
102
{ACAD_REACTORS
330
7FE4
102
}
330
7FE4
100
AcDbMaterial
  1
ByLayer
 72
     0
 43
0.0208333333333333
 43
0.0
 43
0.0
 43
0.0
 43
0.0
 43
0.0208333333333333
 43
0.0
 43
0.0
 43
0.0
 43
0.0
 43
1.0
 43
0.0
 43
0.0
 43
0.0
 43
0.0
 43
1.0
 77
     0
 47
0.0208333333333333
 47
0.0
 47
0.0
 47
0.0
 47
0.0
 47
0.0208333333333333
 47
0.0
 47
0.0
 47
0.0
 47
0.0
 47
1.0
 47
0.0
 47
0.0
 47
0.0
 47
0.0
 47
1.0
171
     0
 49
0.0208333333333333
 49
0.0
 49
0.0
 49
0.0
 49
0.0
 49
0.0208333333333333
 49
0.0
 49
0.0
 49
0.0
 49
0.0
 49
1.0
 49
0.0
 49
0.0
 49
0.0
 49
0.0
 49
1.0
175
     0
142
0.0208333333333333
142
0.0
142
0.0
142
0.0
142
0.0
142
0.0208333333333333
142
0.0
142
0.0
142
0.0
142
0.0
142
1.0
142
0.0
142
0.0
142
0.0
142
0.0
142
1.0
179
     0
144
0.0208333333333333
144
0.0
144
0.0
144
0.0
144
0.0
144
0.0208333333333333
144
0.0
144
0.0
144
0.0
144
0.0
144
1.0
144
0.0
144
0.0
144
0.0
144
0.0
144
1.0
147
0.0208333333333333
147
0.0
147
0.0
147
0.0
147
0.0
147
0.0208333333333333
147
0.0
147
0.0
147
0.0
147
0.0
147
1.0
147
0.0
147
0.0
147
0.0
147
0.0
147
1.0
  0
MATERIAL
  5
7FF5
102
{ACAD_XDICTIONARY
360
7FF6
102
}
102
{ACAD_REACTORS
330
7FE4
102
}
330
7FE4
100
AcDbMaterial
  1
Global
 72
     0
 43
0.0208333333333333
 43
0.0
 43
0.0
 43
0.0
 43
0.0
 43
0.0208333333333333
 43
0.0
 43
0.0
 43
0.0
 43
0.0
 43
1.0
 43
0.0
 43
0.0
 43
0.0
 43
0.0
 43
1.0
 77
     0
 47
0.0208333333333333
 47
0.0
 47
0.0
 47
0.0
 47
0.0
 47
0.0208333333333333
 47
0.0
 47
0.0
 47
0.0
 47
0.0
 47
1.0
 47
0.0
 47
0.0
 47
0.0
 47
0.0
 47
1.0
171
     0
 49
0.0208333333333333
 49
0.0
 49
0.0
 49
0.0
 49
0.0
 49
0.0208333333333333
 49
0.0
 49
0.0
 49
0.0
 49
0.0
 49
1.0
 49
0.0
 49
0.0
 49
0.0
 49
0.0
 49
1.0
175
     0
142
0.0208333333333333
142
0.0
142
0.0
142
0.0
142
0.0
142
0.0208333333333333
142
0.0
142
0.0
142
0.0
142
0.0
142
1.0
142
0.0
142
0.0
142
0.0
142
0.0
142
1.0
179
     0
144
0.0208333333333333
144
0.0
144
0.0
144
0.0
144
0.0
144
0.0208333333333333
144
0.0
144
0.0
144
0.0
144
0.0
144
1.0
144
0.0
144
0.0
144
0.0
144
0.0
144
1.0
147
0.0208333333333333
147
0.0
147
0.0
147
0.0
147
0.0
147
0.0208333333333333
147
0.0
147
0.0
147
0.0
147
0.0
147
1.0
147
0.0
147
0.0
147
0.0
147
0.0
147
1.0
  0
MLEADERSTYLE
  5
802C
102
{ACAD_REACTORS
330
802B
102
}
330
802B
100
AcDbMLeaderStyle
179
     2
170
     2
171
     1
172
     0
 90
        2
 40
0.0
 41
0.0
173
     1
 91
-1056964608
340
13
 92
       -2
290
     1
 42
2.0
291
     1
 43
0.36
  3
Standard
 44
4.0
300

342
10
174
     1
178
     6
175
     1
176
     0
 93
-1056964608
 45
4.0
292
     0
297
     0
 46
4.0
 94
-1056964608
 47
1.0
 49
1.0
140
1.0
293
     1
141
0.0
294
     1
177
     0
142
1.0
295
     0
296
     0
143
0.125
271
     0
272
     9
273
     9
298
     1
  0
MLINESTYLE
  5
1C
102
{ACAD_REACTORS
330
E
102
}
330
E
100
AcDbMlineStyle
  2
STANDARD
 70
     0
  3

 62
     0
 51
90.0
 52
90.0
 71
     2
 49
0.5
 62
   256
  6
BYLAYER
 49
-0.5
 62
   256
  6
BYLAYER
  0
ACDBPLACEHOLDER
  5
7F14
102
{ACAD_REACTORS
330
7F13
102
}
330
7F13
  0
SCALE
  5
801A
102
{ACAD_REACTORS
330
8019
102
}
330
8019
100
AcDbScale
 70
     0
300
1:1
140
1.0
141
1.0
290
     1
  0
SCALE
  5
801B
102
{ACAD_REACTORS
330
8019
102
}
330
8019
100
AcDbScale
 70
     0
300
1:2
140
1.0
141
2.0
290
     0
  0
SCALE
  5
801C
102
{ACAD_REACTORS
330
8019
102
}
330
8019
100
AcDbScale
 70
     0
300
1:4
140
1.0
141
4.0
290
     0
  0
SCALE
  5
801D
102
{ACAD_REACTORS
330
8019
102
}
330
8019
100
AcDbScale
 70
     0
300
1:5
140
1.0
141
5.0
290
     0
  0
SCALE
  5
801E
102
{ACAD_REACTORS
330
8019
102
}
330
8019
100
AcDbScale
 70
     0
300
1:8
140
1.0
141
8.0
290
     0
  0
SCALE
  5
801F
102
{ACAD_REACTORS
330
8019
102
}
330
8019
100
AcDbScale
 70
     0
300
1:10
140
1.0
141
10.0
290
     0
  0
SCALE
  5
8020
102
{ACAD_REACTORS
330
8019
102
}
330
8019
100
AcDbScale
 70
     0
300
1:16
140
1.0
141
16.0
290
     0
  0
SCALE
  5
8021
102
{ACAD_REACTORS
330
8019
102
}
330
8019
100
AcDbScale
 70
     0
300
1:20
140
1.0
141
20.0
290
     0
  0
SCALE
  5
8022
102
{ACAD_REACTORS
330
8019
102
}
330
8019
100
AcDbScale
 70
     0
300
1:30
140
1.0
141
30.0
290
     0
  0
SCALE
  5
8023
102
{ACAD_REACTORS
330
8019
102
}
330
8019
100
AcDbScale
 70
     0
300
1:40
140
1.0
141
40.0
290
     0
  0
SCALE
  5
8024
102
{ACAD_REACTORS
330
8019
102
}
330
8019
100
AcDbScale
 70
     0
300
1:50
140
1.0
141
50.0
290
     0
  0
SCALE
  5
8025
102
{ACAD_REACTORS
330
8019
102
}
330
8019
100
AcDbScale
 70
     0
300
1:100
140
1.0
141
100.0
290
     0
  0
SCALE
  5
8026
102
{ACAD_REACTORS
330
8019
102
}
330
8019
100
AcDbScale
 70
     0
300
2:1
140
2.0
141
1.0
290
     0
  0
SCALE
  5
8027
102
{ACAD_REACTORS
330
8019
102
}
330
8019
100
AcDbScale
 70
     0
300
4:1
140
4.0
141
1.0
290
     0
  0
SCALE
  5
8028
102
{ACAD_REACTORS
330
8019
102
}
330
8019
100
AcDbScale
 70
     0
300
8:1
140
8.0
141
1.0
290
     0
  0
SCALE
  5
8029
102
{ACAD_REACTORS
330
8019
102
}
330
8019
100
AcDbScale
 70
     0
300
10:1
140
10.0
141
1.0
290
     0
  0
SCALE
  5
802A
102
{ACAD_REACTORS
330
8019
102
}
330
8019
100
AcDbScale
 70
     0
300
100:1
140
100.0
141
1.0
290
     0
  0
ACDBSECTIONVIEWSTYLE
  5
802E
102
{ACAD_XDICTIONARY
360
8093
102
}
102
{ACAD_REACTORS
330
802D
102
}
330
802D
100
AcDbModelDocViewStyle
 70
     0
  3
Metric50
290
     0
100
AcDbSectionViewStyle
 70
     0
 71
     0
 90
      102
 71
     1
340
10
 62
   256
 40
5.0
340
0
340
0
 62
   256
 40
5.0
300
I, O, Q, S, X, Z
 40
10.0
 90
        0
 40
2.5
 90
        0
 71
     2
340
15
 90
       25
 62
   256
340
15
 90
       50
 62
   256
 40
5.0
 40
2.5
 40
5.0
 71
     3
340
10
 62
   256
 40
5.0
 90
        0
 40
15.0
 90
        1
300
%<\AcVar ViewSectionStartId>%-%<\AcVar ViewSectionEndId>% (%<\AcVar ViewScale \f "%sn">%)
 71
     4
 62
   256
 62
   257
300
ANSI31
 40
1.0
 90
        0
290
     0
290
     0
 90
        6
 40
0.0
 40
1.570796326794896
 40
0.2617993877991494
 40
1.308996938995747
 40
-0.2617993877991494
 40
1.832595714594046
  0
TABLESTYLE
  5
8018
102
{ACAD_XDICTIONARY
360
8088
102
}
102
{ACAD_REACTORS
330
8017
102
}
330
8017
100
AcDbTableStyle
280
     0
  3
Standard
 70
     0
 71
     0
 40
1.5
 41
1.5
280
     0
281
     0
  7
STANDARD
140
4.5
170
     2
 62
     0
 63
     7
283
     0
 90
      512
 91
        0
  1

274
    -2
284
     1
 64
     0
275
    -2
285
     1
 65
     0
276
    -2
286
     1
 66
     0
277
    -2
287
     1
 67
     0
278
    -2
288
     1
 68
     0
279
    -2
289
     1
 69
     0
  7
STANDARD
140
6.0
170
     5
 62
     0
 63
     7
283
     0
 90
      512
 91
        0
  1

274
    -2
284
     1
 64
     0
275
    -2
285
     1
 65
     0
276
    -2
286
     1
 66
     0
277
    -2
287
     1
 67
     0
278
    -2
288
     1
 68
     0
279
    -2
289
     1
 69
     0
  7
STANDARD
140
4.5
170
     5
 62
     0
 63
     7
283
     0
 90
      512
 91
        0
  1

274
    -2
284
     1
 64
     0
275
    -2
285
     1
 65
     0
276
    -2
286
     1
 66
     0
277
    -2
287
     1
 67
     0
278
    -2
288
     1
 68
     0
279
    -2
289
     1
 69
     0
  0
VISUALSTYLE
  5
8003
102
{ACAD_REACTORS
330
7FFD
102
}
330
7FFD
100
AcDbVisualStyle
  2
2dWireframe
 70
     4
177
     3
291
     0
 70
    58
 90
        0
176
     1
 90
        2
176
     1
 90
        0
176
     1
 90
        0
176
     1
 40
0.6
176
     1
 40
30.0
176
     1
 62
     7
420
 16777215
176
     1
 90
        1
176
     1
 90
        4
176
     1
 62
     7
176
     1
 62
   257
176
     1
 90
        1
176
     1
 90
        1
176
     1
 40
1.0
176
     1
 90
        0
176
     1
 62
   257
176
     1
 40
1.0
176
     1
 90
        1
176
     1
 90
        6
176
     1
 90
        2
176
     1
 62
     7
176
     1
 90
        5
176
     1
 90
        0
176
     1
 90
        0
176
     1
290
     0
176
     1
 90
        1
176
     1
 40
0.0
176
     1
 90
        0
176
     1
290
     1
176
     1
290
     1
176
     1
290
     0
176
     1
290
     0
176
     1
290
     0
176
     1
290
     0
176
     1
290
     0
176
     1
290
     0
176
     1
290
     0
176
     1
 90
       50
176
     1
 40
0.0
176
     1
 40
1.0
176
     1
 90
        0
176
     1
 62
    18
420
        0
176
     1
 90
       50
176
     1
 90
        3
176
     1
 62
     5
420
      255
176
     1
290
     0
176
     1
 90
       50
176
     1
 90
       50
176
     1
 90
       50
176
     1
290
     0
176
     1
 90
       50
176
     1
 62
   256
176
     0
 40
1.0
176
     0
 90
        2
176
     1
  1
strokes_ogs.tif
176
     1
290
     0
176
     1
 40
1.0
176
     1
 40
1.0
176
     1
1001
ACAD
1000
AcDbSavedByObjectVersion
1070
     0
  0
VISUALSTYLE
  5
8002
102
{ACAD_REACTORS
330
7FFD
102
}
330
7FFD
100
AcDbVisualStyle
  2
Basic
 70
     7
177
     3
291
     1
 70
    58
 90
        1
176
     1
 90
        0
176
     1
 90
        1
176
     1
 90
        0
176
     1
 40
0.6
176
     1
 40
30.0
176
     1
 62
     7
420
 16777215
176
     1
 90
        0
176
     1
 90
        4
176
     1
 62
     7
176
     1
 62
   257
176
     1
 90
        1
176
     1
 90
        1
176
     1
 40
1.0
176
     1
 90
        8
176
     1
 62
     7
176
     1
 40
1.0
176
     1
 90
        1
176
     1
 90
        6
176
     1
 90
        2
176
     1
 62
     7
176
     1
 90
        5
176
     1
 90
        0
176
     1
 90
        0
176
     1
290
     0
176
     1
 90
        1
176
     1
 40
0.0
176
     1
 90
        0
176
     1
290
     0
176
     1
290
     1
176
     1
290
     1
176
     1
290
     0
176
     1
290
     0
176
     1
290
     0
176
     1
290
     0
176
     1
290
     0
176
     1
290
     0
176
     1
 90
       50
176
     1
 40
0.0
176
     1
 40
1.0
176
     1
 90
        0
176
     1
 62
    18
420
        0
176
     1
 90
       50
176
     1
 90
        3
176
     1
 62
     5
420
      255
176
     1
290
     0
176
     1
 90
       50
176
     1
 90
       50
176
     1
 90
       50
176
     1
290
     0
176
     1
 90
       50
176
     1
 62
   256
176
     0
 40
1.0
176
     0
 90
        2
176
     1
  1
strokes_ogs.tif
176
     1
290
     0
176
     1
 40
1.0
176
     1
 40
1.0
176
     1
1001
ACAD
1000
AcDbSavedByObjectVersion
1070
     0
  0
VISUALSTYLE
  5
8009
102
{ACAD_REACTORS
330
7FFD
102
}
330
7FFD
100
AcDbVisualStyle
  2
Brighten
 70
    12
177
     3
291
     1
 70
    58
 90
        2
176
     1
 90
        2
176
     1
 90
        0
176
     1
 90
        0
176
     1
 40
0.6
176
     1
 40
30.0
176
     1
 62
     7
420
 16777215
176
     1
 90
        1
176
     1
 90
        4
176
     1
 62
     7
176
     1
 62
   257
176
     1
 90
        1
176
     1
 90
        1
176
     1
 40
1.0
176
     1
 90
        8
176
     1
 62
     7
176
     1
 40
1.0
176
     1
 90
        1
176
     1
 90
        6
176
     1
 90
        2
176
     1
 62
     7
176
     1
 90
        5
176
     1
 90
        0
176
     1
 90
        0
176
     1
290
     0
176
     1
 90
        1
176
     1
 40
50.0
176
     1
 90
        0
176
     1
290
     0
176
     1
290
     1
176
     1
290
     1
176
     1
290
     0
176
     1
290
     0
176
     1
290
     0
176
     1
290
     0
176
     1
290
     0
176
     1
290
     0
176
     1
 90
       50
176
     1
 40
0.0
176
     1
 40
1.0
176
     1
 90
        0
176
     1
 62
    18
420
        0
176
     1
 90
       50
176
     1
 90
        3
176
     1
 62
     5
420
      255
176
     1
290
     0
176
     1
 90
       50
176
     1
 90
       50
176
     1
 90
       50
176
     1
290
     0
176
     1
 90
       50
176
     1
 62
   256
176
     0
 40
1.0
176
     0
 90
        2
176
     1
  1
strokes_ogs.tif
176
     1
290
     0
176
     1
 40
1.0
176
     1
 40
1.0
176
     1
1001
ACAD
1000
AcDbSavedByObjectVersion
1070
     0
  0
VISUALSTYLE
  5
800D
102
{ACAD_REACTORS
330
7FFD
102
}
330
7FFD
100
AcDbVisualStyle
  2
ColorChange
 70
    16
177
     3
291
     1
 70
    58
 90
        2
176
     1
 90
        2
176
     1
 90
        3
176
     1
 90
        0
176
     1
 40
0.6
176
     1
 40
30.0
176
     1
 62
     8
420
  8421504
176
     1
 90
        1
176
     1
 90
        4
176
     1
 62
     7
176
     1
 62
   257
176
     1
 90
        1
176
     1
 90
        1
176
     1
 40
1.0
176
     1
 90
        8
176
     1
 62
     8
420
  8421504
176
     1
 40
1.0
176
     1
 90
        1
176
     1
 90
        6
176
     1
 90
        2
176
     1
 62
     7
176
     1
 90
        5
176
     1
 90
        0
176
     1
 90
        0
176
     1
290
     0
176
     1
 90
        1
176
     1
 40
0.0
176
     1
 90
        0
176
     1
290
     0
176
     1
290
     1
176
     1
290
     1
176
     1
290
     0
176
     1
290
     0
176
     1
290
     0
176
     1
290
     0
176
     1
290
     0
176
     1
290
     0
176
     1
 90
       50
176
     1
 40
0.0
176
     1
 40
1.0
176
     1
 90
        0
176
     1
 62
    18
420
        0
176
     1
 90
       50
176
     1
 90
        3
176
     1
 62
     5
420
      255
176
     1
290
     0
176
     1
 90
       50
176
     1
 90
       50
176
     1
 90
       50
176
     1
290
     0
176
     1
 90
       50
176
     1
 62
   256
176
     0
 40
1.0
176
     0
 90
        2
176
     1
  1
strokes_ogs.tif
176
     1
290
     0
176
     1
 40
1.0
176
     1
 40
1.0
176
     1
1001
ACAD
1000
AcDbSavedByObjectVersion
1070
     0
  0
VISUALSTYLE
  5
8006
102
{ACAD_REACTORS
330
7FFD
102
}
330
7FFD
100
AcDbVisualStyle
  2
Conceptual
 70
     9
177
     3
291
     0
 70
    58
 90
        3
176
     1
 90
        2
176
     1
 90
        0
176
     1
 90
        0
176
     1
 40
0.6
176
     1
 40
30.0
176
     1
 62
     7
420
 16777215
176
     1
 90
        2
176
     1
 90
        2
176
     1
 62
     7
176
     1
 62
   257
176
     1
 90
        1
176
     1
 90
        1
176
     1
 40
179.0
176
     1
 90
        8
176
     1
 62
     7
176
     1
 40
1.0
176
     1
 90
        1
176
     1
 90
        6
176
     1
 90
        2
176
     1
 62
     7
176
     1
 90
        3
176
     1
 90
        0
176
     1
 90
        0
176
     1
290
     0
176
     1
 90
        1
176
     1
 40
0.0
176
     1
 90
        0
176
     1
290
     0
176
     1
290
     1
176
     1
290
     1
176
     1
290
     0
176
     1
290
     0
176
     1
290
     0
176
     1
290
     0
176
     1
290
     0
176
     1
290
     0
176
     1
 90
       50
176
     1
 40
0.0
176
     1
 40
1.0
176
     1
 90
        0
176
     1
 62
    18
420
        0
176
     1
 90
       50
176
     1
 90
        3
176
     1
 62
     5
420
      255
176
     1
290
     0
176
     1
 90
       50
176
     1
 90
       50
176
     1
 90
       50
176
     1
290
     0
176
     1
 90
       50
176
     1
 62
   256
176
     0
 40
1.0
176
     0
 90
        2
176
     1
  1
strokes_ogs.tif
176
     1
290
     0
176
     1
 40
1.0
176
     1
 40
1.0
176
     1
1001
ACAD
1000
AcDbSavedByObjectVersion
1070
     0
  0
VISUALSTYLE
  5
8008
102
{ACAD_REACTORS
330
7FFD
102
}
330
7FFD
100
AcDbVisualStyle
  2
Dim
 70
    11
177
     3
291
     1
 70
    58
 90
        2
176
     1
 90
        2
176
     1
 90
        0
176
     1
 90
        0
176
     1
 40
0.6
176
     1
 40
30.0
176
     1
 62
     7
420
 16777215
176
     1
 90
        1
176
     1
 90
        4
176
     1
 62
     7
176
     1
 62
   257
176
     1
 90
        1
176
     1
 90
        1
176
     1
 40
1.0
176
     1
 90
        8
176
     1
 62
     7
176
     1
 40
1.0
176
     1
 90
        1
176
     1
 90
        6
176
     1
 90
        2
176
     1
 62
     7
176
     1
 90
        5
176
     1
 90
        0
176
     1
 90
        0
176
     1
290
     0
176
     1
 90
        1
176
     1
 40
-50.0
176
     1
 90
        0
176
     1
290
     0
176
     1
290
     1
176
     1
290
     1
176
     1
290
     0
176
     1
290
     0
176
     1
290
     0
176
     1
290
     0
176
     1
290
     0
176
     1
290
     0
176
     1
 90
       50
176
     1
 40
0.0
176
     1
 40
1.0
176
     1
 90
        0
176
     1
 62
    18
420
        0
176
     1
 90
       50
176
     1
 90
        3
176
     1
 62
     5
420
      255
176
     1
290
     0
176
     1
 90
       50
176
     1
 90
       50
176
     1
 90
       50
176
     1
290
     0
176
     1
 90
       50
176
     1
 62
   256
176
     0
 40
1.0
176
     0
 90
        2
176
     1
  1
strokes_ogs.tif
176
     1
290
     0
176
     1
 40
1.0
176
     1
 40
1.0
176
     1
1001
ACAD
1000
AcDbSavedByObjectVersion
1070
     0
  0
VISUALSTYLE
  5
8015
102
{ACAD_REACTORS
330
7FFD
102
}
330
7FFD
100
AcDbVisualStyle
  2
EdgeColorOff
 70
    22
177
     3
291
     1
 70
    58
 90
        2
176
     0
 90
        2
176
     0
 90
        0
176
     0
 90
        0
176
     0
 40
0.6
176
     0
 40
30.0
176
     0
 62
     7
420
 16777215
176
     0
 90
        1
176
     0
 90
        4
176
     0
 62
     7
176
     0
 62
   257
176
     0
 90
        1
176
     0
 90
        1
176
     0
 40
1.0
176
     0
 90
        8
176
     2
 62
     7
176
     0
 40
1.0
176
     0
 90
        1
176
     0
 90
        6
176
     0
 90
        2
176
     0
 62
     7
176
     0
 90
        5
176
     0
 90
        0
176
     0
 90
        0
176
     0
290
     0
176
     0
 90
        1
176
     0
 40
0.0
176
     0
 90
        0
176
     0
290
     0
176
     0
290
     1
176
     0
290
     1
176
     0
290
     0
176
     0
290
     0
176
     0
290
     0
176
     0
290
     0
176
     0
290
     0
176
     0
290
     0
176
     0
 90
       50
176
     0
 40
0.0
176
     0
 40
1.0
176
     0
 90
        0
176
     0
 62
    18
420
        0
176
     0
 90
       50
176
     0
 90
        3
176
     0
 62
     5
420
      255
176
     0
290
     0
176
     0
 90
       50
176
     0
 90
       50
176
     0
 90
       50
176
     0
290
     0
176
     0
 90
       50
176
     0
 62
   256
176
     0
 40
1.0
176
     0
 90
        2
176
     0
  1
strokes_ogs.tif
176
     0
290
     0
176
     0
 40
1.0
176
     0
 40
1.0
176
     0
1001
ACAD
1000
AcDbSavedByObjectVersion
1070
     0
  0
VISUALSTYLE
  5
800C
102
{ACAD_REACTORS
330
7FFD
102
}
330
7FFD
100
AcDbVisualStyle
  2
Facepattern
 70
    15
177
     3
291
     1
 70
    58
 90
        2
176
     1
 90
        2
176
     1
 90
        0
176
     1
 90
        0
176
     1
 40
0.6
176
     1
 40
30.0
176
     1
 62
     7
420
 16777215
176
     1
 90
        1
176
     1
 90
        4
176
     1
 62
     7
176
     1
 62
   257
176
     1
 90
        1
176
     1
 90
        1
176
     1
 40
1.0
176
     1
 90
        8
176
     1
 62
     7
176
     1
 40
1.0
176
     1
 90
        1
176
     1
 90
        6
176
     1
 90
        2
176
     1
 62
     7
176
     1
 90
        5
176
     1
 90
        0
176
     1
 90
        0
176
     1
290
     0
176
     1
 90
        1
176
     1
 40
0.0
176
     1
 90
        0
176
     1
290
     0
176
     1
290
     1
176
     1
290
     1
176
     1
290
     0
176
     1
290
     0
176
     1
290
     0
176
     1
290
     0
176
     1
290
     0
176
     1
290
     0
176
     1
 90
       50
176
     1
 40
0.0
176
     1
 40
1.0
176
     1
 90
        0
176
     1
 62
    18
420
        0
176
     1
 90
       50
176
     1
 90
        3
176
     1
 62
     5
420
      255
176
     1
290
     0
176
     1
 90
       50
176
     1
 90
       50
176
     1
 90
       50
176
     1
290
     0
176
     1
 90
       50
176
     1
 62
   256
176
     0
 40
1.0
176
     0
 90
        2
176
     1
  1
strokes_ogs.tif
176
     1
290
     0
176
     1
 40
1.0
176
     1
 40
1.0
176
     1
1001
ACAD
1000
AcDbSavedByObjectVersion
1070
     0
  0
VISUALSTYLE
  5
7FFE
102
{ACAD_REACTORS
330
7FFD
102
}
330
7FFD
100
AcDbVisualStyle
  2
Flat
 70
     0
177
     3
291
     1
 70
    58
 90
        2
176
     1
 90
        1
176
     1
 90
        1
176
     1
 90
        2
176
     1
 40
0.6
176
     1
 40
30.0
176
     1
 62
     7
420
 16777215
176
     1
 90
        0
176
     1
 90
        0
176
     1
 62
     7
176
     1
 62
   257
176
     1
 90
        1
176
     1
 90
        1
176
     1
 40
1.0
176
     1
 90
        8
176
     1
 62
     7
176
     1
 40
1.0
176
     1
 90
        1
176
     1
 90
        6
176
     1
 90
        2
176
     1
 62
     7
176
     1
 90
        5
176
     1
 90
        0
176
     1
 90
        0
176
     1
290
     0
176
     1
 90
       13
176
     1
 40
0.0
176
     1
 90
        0
176
     1
290
     0
176
     1
290
     1
176
     1
290
     1
176
     1
290
     0
176
     1
290
     0
176
     1
290
     0
176
     1
290
     0
176
     1
290
     0
176
     1
290
     0
176
     1
 90
       50
176
     1
 40
0.0
176
     1
 40
1.0
176
     1
 90
        0
176
     1
 62
    18
420
        0
176
     1
 90
       50
176
     1
 90
        3
176
     1
 62
     5
420
      255
176
     1
290
     0
176
     1
 90
       50
176
     1
 90
       50
176
     1
 90
       50
176
     1
290
     0
176
     1
 90
       50
176
     1
 62
   256
176
     0
 40
1.0
176
     0
 90
        2
176
     1
  1
strokes_ogs.tif
176
     1
290
     0
176
     1
 40
1.0
176
     1
 40
1.0
176
     1
1001
ACAD
1000
AcDbSavedByObjectVersion
1070
     0
  0
VISUALSTYLE
  5
7FFF
102
{ACAD_REACTORS
330
7FFD
102
}
330
7FFD
100
AcDbVisualStyle
  2
FlatWithEdges
 70
     1
177
     3
291
     1
 70
    58
 90
        2
176
     1
 90
        1
176
     1
 90
        1
176
     1
 90
        2
176
     1
 40
0.6
176
     1
 40
30.0
176
     1
 62
     7
420
 16777215
176
     1
 90
        1
176
     1
 90
        0
176
     1
 62
     7
176
     1
 62
   257
176
     1
 90
        1
176
     1
 90
        1
176
     1
 40
1.0
176
     1
 90
        0
176
     1
 62
   257
176
     1
 40
1.0
176
     1
 90
        1
176
     1
 90
        6
176
     1
 90
        2
176
     1
 62
     7
176
     1
 90
        5
176
     1
 90
        0
176
     1
 90
        0
176
     1
290
     0
176
     1
 90
       13
176
     1
 40
0.0
176
     1
 90
        0
176
     1
290
     0
176
     1
290
     1
176
     1
290
     1
176
     1
290
     0
176
     1
290
     0
176
     1
290
     0
176
     1
290
     0
176
     1
290
     0
176
     1
290
     0
176
     1
 90
       50
176
     1
 40
0.0
176
     1
 40
1.0
176
     1
 90
        0
176
     1
 62
    18
420
        0
176
     1
 90
       50
176
     1
 90
        3
176
     1
 62
     5
420
      255
176
     1
290
     0
176
     1
 90
       50
176
     1
 90
       50
176
     1
 90
       50
176
     1
290
     0
176
     1
 90
       50
176
     1
 62
   256
176
     0
 40
1.0
176
     0
 90
        2
176
     1
  1
strokes_ogs.tif
176
     1
290
     0
176
     1
 40
1.0
176
     1
 40
1.0
176
     1
1001
ACAD
1000
AcDbSavedByObjectVersion
1070
     0
  0
VISUALSTYLE
  5
8000
102
{ACAD_REACTORS
330
7FFD
102
}
330
7FFD
100
AcDbVisualStyle
  2
Gouraud
 70
     2
177
     3
291
     1
 70
    58
 90
        2
176
     1
 90
        2
176
     1
 90
        1
176
     1
 90
        2
176
     1
 40
0.6
176
     1
 40
30.0
176
     1
 62
     7
420
 16777215
176
     1
 90
        0
176
     1
 90
        0
176
     1
 62
     7
176
     1
 62
   257
176
     1
 90
        1
176
     1
 90
        1
176
     1
 40
1.0
176
     1
 90
        0
176
     1
 62
     7
176
     1
 40
1.0
176
     1
 90
        1
176
     1
 90
        6
176
     1
 90
        2
176
     1
 62
     7
176
     1
 90
        5
176
     1
 90
        0
176
     1
 90
        0
176
     1
290
     0
176
     1
 90
       13
176
     1
 40
0.0
176
     1
 90
        0
176
     1
290
     0
176
     1
290
     1
176
     1
290
     1
176
     1
290
     0
176
     1
290
     0
176
     1
290
     0
176
     1
290
     0
176
     1
290
     0
176
     1
290
     0
176
     1
 90
       50
176
     1
 40
0.0
176
     1
 40
1.0
176
     1
 90
        0
176
     1
 62
    18
420
        0
176
     1
 90
       50
176
     1
 90
        3
176
     1
 62
     5
420
      255
176
     1
290
     0
176
     1
 90
       50
176
     1
 90
       50
176
     1
 90
       50
176
     1
290
     0
176
     1
 90
       50
176
     1
 62
   256
176
     0
 40
1.0
176
     0
 90
        2
176
     1
  1
strokes_ogs.tif
176
     1
290
     0
176
     1
 40
1.0
176
     1
 40
1.0
176
     1
1001
ACAD
1000
AcDbSavedByObjectVersion
1070
     0
  0
VISUALSTYLE
  5
8001
102
{ACAD_REACTORS
330
7FFD
102
}
330
7FFD
100
AcDbVisualStyle
  2
GouraudWithEdges
 70
     3
177
     3
291
     1
 70
    58
 90
        2
176
     1
 90
        2
176
     1
 90
        1
176
     1
 90
        2
176
     1
 40
0.6
176
     1
 40
30.0
176
     1
 62
     7
420
 16777215
176
     1
 90
        1
176
     1
 90
        0
176
     1
 62
     7
176
     1
 62
   257
176
     1
 90
        1
176
     1
 90
        1
176
     1
 40
1.0
176
     1
 90
        0
176
     1
 62
   257
176
     1
 40
1.0
176
     1
 90
        1
176
     1
 90
        6
176
     1
 90
        2
176
     1
 62
     7
176
     1
 90
        5
176
     1
 90
        0
176
     1
 90
        0
176
     1
290
     0
176
     1
 90
       13
176
     1
 40
0.0
176
     1
 90
        0
176
     1
290
     0
176
     1
290
     1
176
     1
290
     1
176
     1
290
     0
176
     1
290
     0
176
     1
290
     0
176
     1
290
     0
176
     1
290
     0
176
     1
290
     0
176
     1
 90
       50
176
     1
 40
0.0
176
     1
 40
1.0
176
     1
 90
        0
176
     1
 62
    18
420
        0
176
     1
 90
       50
176
     1
 90
        3
176
     1
 62
     5
420
      255
176
     1
290
     0
176
     1
 90
       50
176
     1
 90
       50
176
     1
 90
       50
176
     1
290
     0
176
     1
 90
       50
176
     1
 62
   256
176
     0
 40
1.0
176
     0
 90
        2
176
     1
  1
strokes_ogs.tif
176
     1
290
     0
176
     1
 40
1.0
176
     1
 40
1.0
176
     1
1001
ACAD
1000
AcDbSavedByObjectVersion
1070
     0
  0
VISUALSTYLE
  5
8005
102
{ACAD_REACTORS
330
7FFD
102
}
330
7FFD
100
AcDbVisualStyle
  2
Hidden
 70
     6
177
     3
291
     0
 70
    58
 90
        1
176
     1
 90
        2
176
     1
 90
        2
176
     1
 90
        0
176
     1
 40
0.6
176
     1
 40
30.0
176
     1
 62
     7
420
 16777215
176
     1
 90
        2
176
     1
 90
        2
176
     1
 62
     7
176
     1
 62
   257
176
     1
 90
        2
176
     1
 90
        1
176
     1
 40
40.0
176
     1
 90
        0
176
     1
 62
   257
176
     1
 40
1.0
176
     1
 90
        1
176
     1
 90
        6
176
     1
 90
        2
176
     1
 62
     7
176
     1
 90
        3
176
     1
 90
        0
176
     1
 90
        0
176
     1
290
     0
176
     1
 90
        1
176
     1
 40
0.0
176
     1
 90
        0
176
     1
290
     0
176
     1
290
     1
176
     1
290
     1
176
     1
290
     0
176
     1
290
     0
176
     1
290
     0
176
     1
290
     0
176
     1
290
     0
176
     1
290
     0
176
     1
 90
       50
176
     1
 40
0.0
176
     1
 40
1.0
176
     1
 90
        0
176
     1
 62
    18
420
        0
176
     1
 90
       50
176
     1
 90
        3
176
     1
 62
     5
420
      255
176
     1
290
     0
176
     1
 90
       50
176
     1
 90
       50
176
     1
 90
       50
176
     1
290
     0
176
     1
 90
       50
176
     1
 62
   256
176
     0
 40
1.0
176
     0
 90
        2
176
     1
  1
strokes_ogs.tif
176
     1
290
     0
176
     1
 40
1.0
176
     1
 40
1.0
176
     1
1001
ACAD
1000
AcDbSavedByObjectVersion
1070
     0
  0
VISUALSTYLE
  5
8013
102
{ACAD_REACTORS
330
7FFD
102
}
330
7FFD
100
AcDbVisualStyle
  2
JitterOff
 70
    20
177
     3
291
     1
 70
    58
 90
        2
176
     0
 90
        2
176
     0
 90
        0
176
     0
 90
        0
176
     0
 40
0.6
176
     0
 40
30.0
176
     0
 62
     7
420
 16777215
176
     0
 90
        1
176
     0
 90
        4
176
     0
 62
     7
176
     0
 62
   257
176
     0
 90
        1
176
     0
 90
        1
176
     0
 40
1.0
176
     0
 90
       10
176
     2
 62
     7
176
     0
 40
1.0
176
     0
 90
        1
176
     0
 90
        6
176
     0
 90
        2
176
     0
 62
     7
176
     0
 90
        5
176
     0
 90
        0
176
     0
 90
        0
176
     0
290
     0
176
     0
 90
        1
176
     0
 40
0.0
176
     0
 90
        0
176
     0
290
     0
176
     0
290
     1
176
     0
290
     1
176
     0
290
     0
176
     0
290
     0
176
     0
290
     0
176
     0
290
     0
176
     0
290
     0
176
     0
290
     0
176
     0
 90
       50
176
     0
 40
0.0
176
     0
 40
1.0
176
     0
 90
        0
176
     0
 62
    18
420
        0
176
     0
 90
       50
176
     0
 90
        3
176
     0
 62
     5
420
      255
176
     0
290
     0
176
     0
 90
       50
176
     0
 90
       50
176
     0
 90
       50
176
     0
290
     0
176
     0
 90
       50
176
     0
 62
   256
176
     0
 40
1.0
176
     0
 90
        2
176
     0
  1
strokes_ogs.tif
176
     0
290
     0
176
     0
 40
1.0
176
     0
 40
1.0
176
     0
1001
ACAD
1000
AcDbSavedByObjectVersion
1070
     0
  0
VISUALSTYLE
  5
800B
102
{ACAD_REACTORS
330
7FFD
102
}
330
7FFD
100
AcDbVisualStyle
  2
Linepattern
 70
    14
177
     3
291
     1
 70
    58
 90
        2
176
     1
 90
        2
176
     1
 90
        0
176
     1
 90
        0
176
     1
 40
0.6
176
     1
 40
30.0
176
     1
 62
     7
420
 16777215
176
     1
 90
        1
176
     1
 90
        4
176
     1
 62
     7
176
     1
 62
   257
176
     1
 90
        7
176
     1
 90
        7
176
     1
 40
1.0
176
     1
 90
        8
176
     1
 62
     7
176
     1
 40
1.0
176
     1
 90
        1
176
     1
 90
        6
176
     1
 90
        2
176
     1
 62
     7
176
     1
 90
        5
176
     1
 90
        0
176
     1
 90
        0
176
     1
290
     0
176
     1
 90
        1
176
     1
 40
0.0
176
     1
 90
        0
176
     1
290
     0
176
     1
290
     1
176
     1
290
     1
176
     1
290
     0
176
     1
290
     0
176
     1
290
     0
176
     1
290
     0
176
     1
290
     0
176
     1
290
     0
176
     1
 90
       50
176
     1
 40
0.0
176
     1
 40
1.0
176
     1
 90
        0
176
     1
 62
    18
420
        0
176
     1
 90
       50
176
     1
 90
        3
176
     1
 62
     5
420
      255
176
     1
290
     0
176
     1
 90
       50
176
     1
 90
       50
176
     1
 90
       50
176
     1
290
     0
176
     1
 90
       50
176
     1
 62
   256
176
     0
 40
1.0
176
     0
 90
        2
176
     1
  1
strokes_ogs.tif
176
     1
290
     0
176
     1
 40
1.0
176
     1
 40
1.0
176
     1
1001
ACAD
1000
AcDbSavedByObjectVersion
1070
     0
  0
VISUALSTYLE
  5
8014
102
{ACAD_REACTORS
330
7FFD
102
}
330
7FFD
100
AcDbVisualStyle
  2
OverhangOff
 70
    21
177
     3
291
     1
 70
    58
 90
        2
176
     0
 90
        2
176
     0
 90
        0
176
     0
 90
        0
176
     0
 40
0.6
176
     0
 40
30.0
176
     0
 62
     7
420
 16777215
176
     0
 90
        1
176
     0
 90
        4
176
     0
 62
     7
176
     0
 62
   257
176
     0
 90
        1
176
     0
 90
        1
176
     0
 40
1.0
176
     0
 90
        9
176
     2
 62
     7
176
     0
 40
1.0
176
     0
 90
        1
176
     0
 90
        6
176
     0
 90
        2
176
     0
 62
     7
176
     0
 90
        5
176
     0
 90
        0
176
     0
 90
        0
176
     0
290
     0
176
     0
 90
        1
176
     0
 40
0.0
176
     0
 90
        0
176
     0
290
     0
176
     0
290
     1
176
     0
290
     1
176
     0
290
     0
176
     0
290
     0
176
     0
290
     0
176
     0
290
     0
176
     0
290
     0
176
     0
290
     0
176
     0
 90
       50
176
     0
 40
0.0
176
     0
 40
1.0
176
     0
 90
        0
176
     0
 62
    18
420
        0
176
     0
 90
       50
176
     0
 90
        3
176
     0
 62
     5
420
      255
176
     0
290
     0
176
     0
 90
       50
176
     0
 90
       50
176
     0
 90
       50
176
     0
290
     0
176
     0
 90
       50
176
     0
 62
   256
176
     0
 40
1.0
176
     0
 90
        2
176
     0
  1
strokes_ogs.tif
176
     0
290
     0
176
     0
 40
1.0
176
     0
 40
1.0
176
     0
1001
ACAD
1000
AcDbSavedByObjectVersion
1070
     0
  0
VISUALSTYLE
  5
8007
102
{ACAD_REACTORS
330
7FFD
102
}
330
7FFD
100
AcDbVisualStyle
  2
Realistic
 70
     8
177
     3
291
     0
 70
    58
 90
        2
176
     1
 90
        3
176
     1
 90
        0
176
     1
 90
        2
176
     1
 40
0.6
176
     1
 40
30.0
176
     1
 62
     7
420
 16777215
176
     1
 90
        0
176
     1
 90
        0
176
     1
 62
     7
176
     1
 62
   257
176
     1
 90
        1
176
     1
 90
        1
176
     1
 40
1.0
176
     1
 90
        8
176
     1
 62
   257
176
     1
 40
1.0
176
     1
 90
        1
176
     1
 90
        6
176
     1
 90
        2
176
     1
 62
     7
176
     1
 90
        3
176
     1
 90
        0
176
     1
 90
        0
176
     1
290
     0
176
     1
 90
       13
176
     1
 40
0.0
176
     1
 90
        0
176
     1
290
     0
176
     1
290
     1
176
     1
290
     1
176
     1
290
     0
176
     1
290
     0
176
     1
290
     0
176
     1
290
     0
176
     1
290
     0
176
     1
290
     0
176
     1
 90
       50
176
     1
 40
0.0
176
     1
 40
1.0
176
     1
 90
        0
176
     1
 62
    18
420
        0
176
     1
 90
       50
176
     1
 90
        3
176
     1
 62
     5
420
      255
176
     1
290
     0
176
     1
 90
       50
176
     1
 90
       50
176
     1
 90
       50
176
     1
290
     0
176
     1
 90
       50
176
     1
 62
   256
176
     0
 40
1.0
176
     0
 90
        2
176
     1
  1
strokes_ogs.tif
176
     1
290
     0
176
     1
 40
1.0
176
     1
 40
1.0
176
     1
1001
ACAD
1000
AcDbSavedByObjectVersion
1070
     0
  0
VISUALSTYLE
  5
8012
102
{ACAD_REACTORS
330
7FFD
102
}
330
7FFD
100
AcDbVisualStyle
  2
Shaded
 70
    27
177
     3
291
     0
 70
    58
 90
        2
176
     1
 90
        2
176
     1
 90
        1
176
     1
 90
        2
176
     1
 40
0.6
176
     1
 40
30.0
176
     1
 62
     7
420
 16777215
176
     1
 90
        0
176
     1
 90
        4
176
     1
 62
     7
176
     1
 62
   257
176
     1
 90
        1
176
     1
 90
        1
176
     1
 40
1.0
176
     1
 90
        8
176
     1
 62
   257
176
     1
 40
1.0
176
     1
 90
        1
176
     1
 90
        6
176
     1
 90
        2
176
     1
 62
     8
420
  7895160
176
     1
 90
        3
176
     1
 90
        0
176
     1
 90
        0
176
     1
290
     0
176
     1
 90
        5
176
     1
 40
0.0
176
     1
 90
        0
176
     1
290
     0
176
     1
290
     1
176
     1
290
     1
176
     1
290
     0
176
     1
290
     0
176
     1
290
     0
176
     1
290
     0
176
     1
290
     0
176
     1
290
     0
176
     1
 90
       50
176
     1
 40
0.0
176
     1
 40
1.0
176
     1
 90
        0
176
     1
 62
    18
420
        0
176
     1
 90
       50
176
     1
 90
        3
176
     1
 62
     5
420
      255
176
     1
290
     0
176
     1
 90
       50
176
     1
 90
       50
176
     1
 90
       50
176
     1
290
     0
176
     1
 90
       50
176
     1
 62
   256
176
     0
 40
1.0
176
     0
 90
        2
176
     1
  1
strokes_ogs.tif
176
     1
290
     0
176
     1
 40
1.0
176
     1
 40
1.0
176
     1
1001
ACAD
1000
AcDbSavedByObjectVersion
1070
     0
  0
VISUALSTYLE
  5
8011
102
{ACAD_REACTORS
330
7FFD
102
}
330
7FFD
100
AcDbVisualStyle
  2
Shaded with edges
 70
    26
177
     3
291
     0
 70
    58
 90
        2
176
     1
 90
        2
176
     1
 90
        1
176
     1
 90
        2
176
     1
 40
0.6
176
     1
 40
30.0
176
     1
 62
     7
420
 16777215
176
     1
 90
        1
176
     1
 90
        2
176
     1
 62
     7
176
     1
 62
   257
176
     1
 90
        2
176
     1
 90
        1
176
     1
 40
1.0
176
     1
 90
        8
176
     1
 62
   257
176
     1
 40
1.0
176
     1
 90
        1
176
     1
 90
        6
176
     1
 90
        2
176
     1
 62
     7
176
     1
 90
        3
176
     1
 90
        0
176
     1
 90
        0
176
     1
290
     0
176
     1
 90
        5
176
     1
 40
0.0
176
     1
 90
        0
176
     1
290
     0
176
     1
290
     1
176
     1
290
     1
176
     1
290
     0
176
     1
290
     0
176
     1
290
     0
176
     1
290
     0
176
     1
290
     0
176
     1
290
     0
176
     1
 90
       50
176
     1
 40
0.0
176
     1
 40
1.0
176
     1
 90
        0
176
     1
 62
    18
420
        0
176
     1
 90
       50
176
     1
 90
        3
176
     1
 62
     5
420
      255
176
     1
290
     0
176
     1
 90
       50
176
     1
 90
       50
176
     1
 90
       50
176
     1
290
     0
176
     1
 90
       50
176
     1
 62
   256
176
     0
 40
1.0
176
     0
 90
        2
176
     1
  1
strokes_ogs.tif
176
     1
290
     0
176
     1
 40
1.0
176
     1
 40
1.0
176
     1
1001
ACAD
1000
AcDbSavedByObjectVersion
1070
     0
  0
VISUALSTYLE
  5
800E
102
{ACAD_REACTORS
330
7FFD
102
}
330
7FFD
100
AcDbVisualStyle
  2
Shades of Gray
 70
    23
177
     3
291
     0
 70
    58
 90
        2
176
     1
 90
        2
176
     1
 90
        3
176
     1
 90
        0
176
     1
 40
0.6
176
     1
 40
30.0
176
     1
 62
     7
420
 16777215
176
     1
 90
        2
176
     1
 90
        2
176
     1
 62
     7
176
     1
 62
     7
176
     1
 90
        1
176
     1
 90
        1
176
     1
 40
40.0
176
     1
 90
        8
176
     1
 62
     7
176
     1
 40
1.0
176
     1
 90
        1
176
     1
 90
        6
176
     1
 90
        2
176
     1
 62
     7
176
     1
 90
        3
176
     1
 90
        0
176
     1
 90
        0
176
     1
290
     0
176
     1
 90
        1
176
     1
 40
0.0
176
     1
 90
        0
176
     1
290
     0
176
     1
290
     1
176
     1
290
     1
176
     1
290
     0
176
     1
290
     0
176
     1
290
     0
176
     1
290
     0
176
     1
290
     0
176
     1
290
     0
176
     1
 90
       50
176
     1
 40
0.0
176
     1
 40
1.0
176
     1
 90
        0
176
     1
 62
    18
420
        0
176
     1
 90
       50
176
     1
 90
        3
176
     1
 62
     5
420
      255
176
     1
290
     0
176
     1
 90
       50
176
     1
 90
       50
176
     1
 90
       50
176
     1
290
     0
176
     1
 90
       50
176
     1
 62
   256
176
     0
 40
1.0
176
     0
 90
        2
176
     1
  1
strokes_ogs.tif
176
     1
290
     0
176
     1
 40
1.0
176
     1
 40
1.0
176
     1
1001
ACAD
1000
AcDbSavedByObjectVersion
1070
     0
  0
VISUALSTYLE
  5
800F
102
{ACAD_REACTORS
330
7FFD
102
}
330
7FFD
100
AcDbVisualStyle
  2
Sketchy
 70
    24
177
     3
291
     0
 70
    58
 90
        1
176
     1
 90
        2
176
     1
 90
        2
176
     1
 90
        0
176
     1
 40
0.6
176
     1
 40
30.0
176
     1
 62
     7
420
 16777215
176
     1
 90
        2
176
     1
 90
        2
176
     1
 62
     7
176
     1
 62
     7
176
     1
 90
        1
176
     1
 90
        1
176
     1
 40
40.0
176
     1
 90
       11
176
     1
 62
     7
176
     1
 40
1.0
176
     1
 90
        1
176
     1
 90
        6
176
     1
 90
        2
176
     1
 62
     7
176
     1
 90
        6
176
     1
 90
        0
176
     1
 90
        0
176
     1
290
     0
176
     1
 90
        1
176
     1
 40
0.0
176
     1
 90
        0
176
     1
290
     0
176
     1
290
     1
176
     1
290
     1
176
     1
290
     0
176
     1
290
     0
176
     1
290
     0
176
     1
290
     0
176
     1
290
     0
176
     1
290
     0
176
     1
 90
       50
176
     1
 40
0.0
176
     1
 40
1.0
176
     1
 90
        0
176
     1
 62
    18
420
        0
176
     1
 90
       50
176
     1
 90
        3
176
     1
 62
     5
420
      255
176
     1
290
     0
176
     1
 90
       50
176
     1
 90
       50
176
     1
 90
       50
176
     1
290
     0
176
     1
 90
       50
176
     1
 62
   256
176
     0
 40
1.0
176
     0
 90
        2
176
     1
  1
strokes_ogs.tif
176
     1
290
     0
176
     1
 40
1.0
176
     1
 40
1.0
176
     1
1001
ACAD
1000
AcDbSavedByObjectVersion
1070
     0
  0
VISUALSTYLE
  5
800A
102
{ACAD_REACTORS
330
7FFD
102
}
330
7FFD
100
AcDbVisualStyle
  2
Thicken
 70
    13
177
     3
291
     1
 70
    58
 90
        2
176
     1
 90
        2
176
     1
 90
        0
176
     1
 90
        0
176
     1
 40
0.6
176
     1
 40
30.0
176
     1
 62
     7
420
 16777215
176
     1
 90
        1
176
     1
 90
        4
176
     1
 62
     7
176
     1
 62
   257
176
     1
 90
        1
176
     1
 90
        1
176
     1
 40
1.0
176
     1
 90
       12
176
     1
 62
     7
176
     1
 40
1.0
176
     1
 90
        1
176
     1
 90
        6
176
     1
 90
        2
176
     1
 62
     7
176
     1
 90
        5
176
     1
 90
        0
176
     1
 90
        0
176
     1
290
     0
176
     1
 90
        1
176
     1
 40
0.0
176
     1
 90
        0
176
     1
290
     0
176
     1
290
     1
176
     1
290
     1
176
     1
290
     0
176
     1
290
     0
176
     1
290
     0
176
     1
290
     0
176
     1
290
     0
176
     1
290
     0
176
     1
 90
       50
176
     1
 40
0.0
176
     1
 40
1.0
176
     1
 90
        0
176
     1
 62
    18
420
        0
176
     1
 90
       50
176
     1
 90
        3
176
     1
 62
     5
420
      255
176
     1
290
     0
176
     1
 90
       50
176
     1
 90
       50
176
     1
 90
       50
176
     1
290
     0
176
     1
 90
       50
176
     1
 62
   256
176
     0
 40
1.0
176
     0
 90
        2
176
     1
  1
strokes_ogs.tif
176
     1
290
     0
176
     1
 40
1.0
176
     1
 40
1.0
176
     1
1001
ACAD
1000
AcDbSavedByObjectVersion
1070
     0
  0
VISUALSTYLE
  5
8004
102
{ACAD_REACTORS
330
7FFD
102
}
330
7FFD
100
AcDbVisualStyle
  2
Wireframe
 70
     5
177
     3
291
     0
 70
    58
 90
        0
176
     1
 90
        2
176
     1
 90
        0
176
     1
 90
        0
176
     1
 40
0.6
176
     1
 40
30.0
176
     1
 62
     7
420
 16777215
176
     1
 90
        1
176
     1
 90
        4
176
     1
 62
     7
176
     1
 62
   257
176
     1
 90
        1
176
     1
 90
        1
176
     1
 40
1.0
176
     1
 90
        0
176
     1
 62
   257
176
     1
 40
1.0
176
     1
 90
        1
176
     1
 90
        6
176
     1
 90
        2
176
     1
 62
     7
176
     1
 90
        3
176
     1
 90
        0
176
     1
 90
        0
176
     1
290
     0
176
     1
 90
        1
176
     1
 40
0.0
176
     1
 90
        0
176
     1
290
     0
176
     1
290
     1
176
     1
290
     1
176
     1
290
     0
176
     1
290
     0
176
     1
290
     0
176
     1
290
     0
176
     1
290
     0
176
     1
290
     0
176
     1
 90
       50
176
     1
 40
0.0
176
     1
 40
1.0
176
     1
 90
        0
176
     1
 62
    18
420
        0
176
     1
 90
       50
176
     1
 90
        3
176
     1
 62
     5
420
      255
176
     1
290
     0
176
     1
 90
       50
176
     1
 90
       50
176
     1
 90
       50
176
     1
290
     0
176
     1
 90
       50
176
     1
 62
   256
176
     0
 40
1.0
176
     0
 90
        2
176
     1
  1
strokes_ogs.tif
176
     1
290
     0
176
     1
 40
1.0
176
     1
 40
1.0
176
     1
1001
ACAD
1000
AcDbSavedByObjectVersion
1070
     0
  0
VISUALSTYLE
  5
8010
102
{ACAD_REACTORS
330
7FFD
102
}
330
7FFD
100
AcDbVisualStyle
  2
X-Ray
 70
    25
177
     3
291
     0
 70
    58
 90
        2
176
     1
 90
        2
176
     1
 90
        1
176
     1
 90
        1
176
     1
 40
0.5
176
     1
 40
30.0
176
     1
 62
     7
420
 16777215
176
     1
 90
        1
176
     1
 90
        0
176
     1
 62
     7
176
     1
 62
   257
176
     1
 90
        1
176
     1
 90
        1
176
     1
 40
1.0
176
     1
 90
        8
176
     1
 62
     7
176
     1
 40
1.0
176
     1
 90
        1
176
     1
 90
        6
176
     1
 90
        2
176
     1
 62
     7
176
     1
 90
        3
176
     1
 90
        0
176
     1
 90
        0
176
     1
290
     0
176
     1
 90
       13
176
     1
 40
0.0
176
     1
 90
        0
176
     1
290
     0
176
     1
290
     1
176
     1
290
     1
176
     1
290
     0
176
     1
290
     0
176
     1
290
     0
176
     1
290
     0
176
     1
290
     0
176
     1
290
     0
176
     1
 90
       50
176
     1
 40
0.0
176
     1
 40
1.0
176
     1
 90
        0
176
     1
 62
    18
420
        0
176
     1
 90
       50
176
     1
 90
        3
176
     1
 62
     5
420
      255
176
     1
290
     0
176
     1
 90
       50
176
     1
 90
       50
176
     1
 90
       50
176
     1
290
     0
176
     1
 90
       50
176
     1
 62
   256
176
     0
 40
1.0
176
     0
 90
        2
176
     1
  1
strokes_ogs.tif
176
     1
290
     0
176
     1
 40
1.0
176
     1
 40
1.0
176
     1
1001
ACAD
1000
AcDbSavedByObjectVersion
1070
     0
  0
DICTIONARYVAR
  5
807F
102
{ACAD_REACTORS
330
7FDB
102
}
330
7FDB
100
DictionaryVariables
280
     0
  1
1:1
  0
DICTIONARYVAR
  5
807B
102
{ACAD_REACTORS
330
7FDB
102
}
330
7FDB
100
DictionaryVariables
280
     0
  1
STANDARD
  0
DICTIONARYVAR
  5
807A
102
{ACAD_REACTORS
330
7FDB
102
}
330
7FDB
100
DictionaryVariables
280
     0
  1
STANDARD
  0
DICTIONARYVAR
  5
807C
102
{ACAD_REACTORS
330
7FDB
102
}
330
7FDB
100
DictionaryVariables
280
     0
  1
Metric50
  0
DICTIONARYVAR
  5
807D
102
{ACAD_REACTORS
330
7FDB
102
}
330
7FDB
100
DictionaryVariables
280
     0
  1
Metric50
  0
DICTIONARYVAR
  5
7FDC
102
{ACAD_REACTORS
330
7FDB
102
}
330
7FDB
100
DictionaryVariables
280
     0
  1
1
  0
DICTIONARYVAR
  5
8081
102
{ACAD_REACTORS
330
7FDB
102
}
330
7FDB
100
DictionaryVariables
280
     0
  1
1
  0
DICTIONARYVAR
  5
8082
102
{ACAD_REACTORS
330
7FDB
102
}
330
7FDB
100
DictionaryVariables
280
     0
  1
15
  0
DICTIONARYVAR
  5
8080
102
{ACAD_REACTORS
330
7FDB
102
}
330
7FDB
100
DictionaryVariables
280
     0
  1
0
  0
DICTIONARYVAR
  5
8087
102
{ACAD_REACTORS
330
7FDB
102
}
330
7FDB
100
DictionaryVariables
280
     0
  1
0
  0
DICTIONARYVAR
  5
807E
102
{ACAD_REACTORS
330
7FDB
102
}
330
7FDB
100
DictionaryVariables
280
     0
  1
0
  0
DICTIONARY
  5
8092
102
{ACAD_REACTORS
330
8090
102
}
330
8090
100
AcDbDictionary
281
     1
  0
DICTIONARY
  5
8091
102
{ACAD_REACTORS
330
8090
102
}
330
8090
100
AcDbDictionary
281
     1
  3
2049118919216
350
808B
  3
2049118919232
350
808C
  3
2049118919248
350
808D
  3
2049118919264
350
808E
  3
2049118919280
350
808F
  0
DICTIONARY
  5
8095
330
8030
100
AcDbDictionary
280
     1
281
     1
  3
ACAD_XREC_ROUNDTRIP
360
8096
  0
DICTIONARY
  5
7FEE
330
7FED
100
AcDbDictionary
280
     1
281
     1
  3
BUMPTILE
360
7FF0
  3
DIFFUSETILE
360
7FEF
  3
OPACITYTILE
360
7FF3
  3
REFLECTIONTILE
360
7FF2
  3
REFRACTIONTILE
360
7FF4
  3
SPECULARTILE
360
7FF1
  0
DICTIONARY
  5
7FE6
330
7FE5
100
AcDbDictionary
280
     1
281
     1
  3
BUMPTILE
360
7FE8
  3
DIFFUSETILE
360
7FE7
  3
OPACITYTILE
360
7FEB
  3
REFLECTIONTILE
360
7FEA
  3
REFRACTIONTILE
360
7FEC
  3
SPECULARTILE
360
7FE9
  0
DICTIONARY
  5
7FF6
330
7FF5
100
AcDbDictionary
280
     1
281
     1
  3
BUMPTILE
360
7FF8
  3
DIFFUSETILE
360
7FF7
  3
OPACITYTILE
360
7FFB
  3
REFLECTIONTILE
360
7FFA
  3
REFRACTIONTILE
360
7FFC
  3
SPECULARTILE
360
7FF9
  0
DICTIONARY
  5
8093
330
802E
100
AcDbDictionary
280
     1
281
     1
  3
ACAD_XREC_ROUNDTRIP
360
8094
  0
DICTIONARY
  5
8088
330
8018
100
AcDbDictionary
280
     1
281
     1
  3
ACAD_ROUNDTRIP_2008_TABLESTYLE_CELLSTYLEMAP
360
8089
  0
XRECORD
  5
808B
102
{ACAD_REACTORS
330
8091
102
}
330
8091
100
AcDbXrecord
280
     1
  1
AcDb_Thumbnail_Schema
102
{ATTRRECORD
341
808C
  2
AcDbDs::TreatedAsObjectData
280
     1
291
     1
102
ATTRRECORD}
102
{ATTRRECORD
341
808D
  2
AcDbDs::Legacy
280
     1
291
     1
102
ATTRRECORD}
  2
AcDbDs::ID
280
    10
 91
        8
102
{ATTRRECORD
341
808E
  2
AcDs:Indexable
280
     1
291
     1
102
ATTRRECORD}
102
{ATTRRECORD
341
808F
  2
AcDbDs::HandleAttribute
280
     7
282
     1
102
ATTRRECORD}
  2
Thumbnail_Data
280
    15
 91
        0
  0
XRECORD
  5
808C
102
{ACAD_REACTORS
330
8091
102
}
330
8091
100
AcDbXrecord
280
     1
  1
AcDbDs::TreatedAsObjectDataSchema
  2
AcDbDs::TreatedAsObjectData
280
     1
 91
        0
  0
XRECORD
  5
808D
102
{ACAD_REACTORS
330
8091
102
}
330
8091
100
AcDbXrecord
280
     1
  1
AcDbDs::LegacySchema
  2
AcDbDs::Legacy
280
     1
 91
        0
  0
XRECORD
  5
808E
102
{ACAD_REACTORS
330
8091
102
}
330
8091
100
AcDbXrecord
280
     1
  1
AcDbDs::IndexedPropertySchema
  2
AcDs:Indexable
280
     1
 91
        0
  0
XRECORD
  5
808F
102
{ACAD_REACTORS
330
8091
102
}
330
8091
100
AcDbXrecord
280
     1
  1
AcDbDs::HandleAttributeSchema
  2
AcDbDs::HandleAttribute
280
     7
 91
        1
284
     1
  0
XRECORD
  5
8096
102
{ACAD_REACTORS
330
8095
102
}
330
8095
100
AcDbXrecord
280
     1
102
DISPLAYNAME
  1
Metric50
102
FLAGS
 90
        0
  0
XRECORD
  5
7FF0
102
{ACAD_REACTORS
330
7FEE
102
}
330
7FEE
100
AcDbXrecord
280
     1
270
     1
271
     1
  0
XRECORD
  5
7FEF
102
{ACAD_REACTORS
330
7FEE
102
}
330
7FEE
100
AcDbXrecord
280
     1
270
     1
271
     1
  0
XRECORD
  5
7FF3
102
{ACAD_REACTORS
330
7FEE
102
}
330
7FEE
100
AcDbXrecord
280
     1
270
     1
271
     1
  0
XRECORD
  5
7FF2
102
{ACAD_REACTORS
330
7FEE
102
}
330
7FEE
100
AcDbXrecord
280
     1
270
     1
271
     1
  0
XRECORD
  5
7FF4
102
{ACAD_REACTORS
330
7FEE
102
}
330
7FEE
100
AcDbXrecord
280
     1
270
     1
271
     1
  0
XRECORD
  5
7FF1
102
{ACAD_REACTORS
330
7FEE
102
}
330
7FEE
100
AcDbXrecord
280
     1
270
     1
271
     1
  0
XRECORD
  5
7FE8
102
{ACAD_REACTORS
330
7FE6
102
}
330
7FE6
100
AcDbXrecord
280
     1
270
     1
271
     1
  0
XRECORD
  5
7FE7
102
{ACAD_REACTORS
330
7FE6
102
}
330
7FE6
100
AcDbXrecord
280
     1
270
     1
271
     1
  0
XRECORD
  5
7FEB
102
{ACAD_REACTORS
330
7FE6
102
}
330
7FE6
100
AcDbXrecord
280
     1
270
     1
271
     1
  0
XRECORD
  5
7FEA
102
{ACAD_REACTORS
330
7FE6
102
}
330
7FE6
100
AcDbXrecord
280
     1
270
     1
271
     1
  0
XRECORD
  5
7FEC
102
{ACAD_REACTORS
330
7FE6
102
}
330
7FE6
100
AcDbXrecord
280
     1
270
     1
271
     1
  0
XRECORD
  5
7FE9
102
{ACAD_REACTORS
330
7FE6
102
}
330
7FE6
100
AcDbXrecord
280
     1
270
     1
271
     1
  0
XRECORD
  5
7FF8
102
{ACAD_REACTORS
330
7FF6
102
}
330
7FF6
100
AcDbXrecord
280
     1
270
     1
271
     1
  0
XRECORD
  5
7FF7
102
{ACAD_REACTORS
330
7FF6
102
}
330
7FF6
100
AcDbXrecord
280
     1
270
     1
271
     1
  0
XRECORD
  5
7FFB
102
{ACAD_REACTORS
330
7FF6
102
}
330
7FF6
100
AcDbXrecord
280
     1
270
     1
271
     1
  0
XRECORD
  5
7FFA
102
{ACAD_REACTORS
330
7FF6
102
}
330
7FF6
100
AcDbXrecord
280
     1
270
     1
271
     1
  0
XRECORD
  5
7FFC
102
{ACAD_REACTORS
330
7FF6
102
}
330
7FF6
100
AcDbXrecord
280
     1
270
     1
271
     1
  0
XRECORD
  5
7FF9
102
{ACAD_REACTORS
330
7FF6
102
}
330
7FF6
100
AcDbXrecord
280
     1
270
     1
271
     1
  0
XRECORD
  5
8094
102
{ACAD_REACTORS
330
8093
102
}
330
8093
100
AcDbXrecord
280
     1
102
DISPLAYNAME
  1
Metric50
102
FLAGS
 90
        0
  0
CELLSTYLEMAP
  5
8089
102
{ACAD_REACTORS
330
8088
102
}
330
8088
100
AcDbCellStyleMap
 90
        3
300
CELLSTYLE
  1
TABLEFORMAT_BEGIN
 90
        5
170
     1
 91
        0
 92
    32768
 62
   257
 93
        1
300
CONTENTFORMAT
  1
CONTENTFORMAT_BEGIN
 90
        0
 91
        0
 92
      512
 93
        0
300

 40
0.0
140
1.0
 94
        5
 62
     0
340
10
144
6.0
309
CONTENTFORMAT_END
171
     1
301
MARGIN
  1
CELLMARGIN_BEGIN
 40
1.5
 40
1.5
 40
1.5
 40
1.5
 40
4.5
 40
4.5
309
CELLMARGIN_END
 94
        6
 95
        1
302
GRIDFORMAT
  1
GRIDFORMAT_BEGIN
 90
        0
 91
        1
 62
     0
 92
       -2
340
0
 93
        0
 40
1.125
309
GRIDFORMAT_END
 95
        2
302
GRIDFORMAT
  1
GRIDFORMAT_BEGIN
 90
        0
 91
        1
 62
     0
 92
       -2
340
0
 93
        0
 40
1.125
309
GRIDFORMAT_END
 95
        4
302
GRIDFORMAT
  1
GRIDFORMAT_BEGIN
 90
        0
 91
        1
 62
     0
 92
       -2
340
0
 93
        0
 40
1.125
309
GRIDFORMAT_END
 95
        8
302
GRIDFORMAT
  1
GRIDFORMAT_BEGIN
 90
        0
 91
        1
 62
     0
 92
       -2
340
0
 93
        0
 40
1.125
309
GRIDFORMAT_END
 95
       16
302
GRIDFORMAT
  1
GRIDFORMAT_BEGIN
 90
        0
 91
        1
 62
     0
 92
       -2
340
0
 93
        0
 40
1.125
309
GRIDFORMAT_END
 95
       32
302
GRIDFORMAT
  1
GRIDFORMAT_BEGIN
 90
        0
 91
        1
 62
     0
 92
       -2
340
0
 93
        0
 40
1.125
309
GRIDFORMAT_END
309
TABLEFORMAT_END
  1
CELLSTYLE_BEGIN
 90
        1
 91
        1
300
_TITLE
309
CELLSTYLE_END
300
CELLSTYLE
  1
TABLEFORMAT_BEGIN
 90
        5
170
     1
 91
        0
 92
        0
 62
   257
 93
        1
300
CONTENTFORMAT
  1
CONTENTFORMAT_BEGIN
 90
        0
 91
        0
 92
      512
 93
        0
300

 40
0.0
140
1.0
 94
        5
 62
     0
340
10
144
4.5
309
CONTENTFORMAT_END
171
     1
301
MARGIN
  1
CELLMARGIN_BEGIN
 40
1.5
 40
1.5
 40
1.5
 40
1.5
 40
4.5
 40
4.5
309
CELLMARGIN_END
 94
        6
 95
        1
302
GRIDFORMAT
  1
GRIDFORMAT_BEGIN
 90
        0
 91
        1
 62
     0
 92
       -2
340
0
 93
        0
 40
1.125
309
GRIDFORMAT_END
 95
        2
302
GRIDFORMAT
  1
GRIDFORMAT_BEGIN
 90
        0
 91
        1
 62
     0
 92
       -2
340
0
 93
        0
 40
1.125
309
GRIDFORMAT_END
 95
        4
302
GRIDFORMAT
  1
GRIDFORMAT_BEGIN
 90
        0
 91
        1
 62
     0
 92
       -2
340
0
 93
        0
 40
1.125
309
GRIDFORMAT_END
 95
        8
302
GRIDFORMAT
  1
GRIDFORMAT_BEGIN
 90
        0
 91
        1
 62
     0
 92
       -2
340
0
 93
        0
 40
1.125
309
GRIDFORMAT_END
 95
       16
302
GRIDFORMAT
  1
GRIDFORMAT_BEGIN
 90
        0
 91
        1
 62
     0
 92
       -2
340
0
 93
        0
 40
1.125
309
GRIDFORMAT_END
 95
       32
302
GRIDFORMAT
  1
GRIDFORMAT_BEGIN
 90
        0
 91
        1
 62
     0
 92
       -2
340
0
 93
        0
 40
1.125
309
GRIDFORMAT_END
309
TABLEFORMAT_END
  1
CELLSTYLE_BEGIN
 90
        2
 91
        1
300
_HEADER
309
CELLSTYLE_END
300
CELLSTYLE
  1
TABLEFORMAT_BEGIN
 90
        5
170
     1
 91
        0
 92
        0
 62
   257
 93
        1
300
CONTENTFORMAT
  1
CONTENTFORMAT_BEGIN
 90
        0
 91
        0
 92
      512
 93
        0
300

 40
0.0
140
1.0
 94
        2
 62
     0
340
10
144
4.5
309
CONTENTFORMAT_END
171
     1
301
MARGIN
  1
CELLMARGIN_BEGIN
 40
1.5
 40
1.5
 40
1.5
 40
1.5
 40
4.5
 40
4.5
309
CELLMARGIN_END
 94
        6
 95
        1
302
GRIDFORMAT
  1
GRIDFORMAT_BEGIN
 90
        0
 91
        1
 62
     0
 92
       -2
340
0
 93
        0
 40
1.125
309
GRIDFORMAT_END
 95
        2
302
GRIDFORMAT
  1
GRIDFORMAT_BEGIN
 90
        0
 91
        1
 62
     0
 92
       -2
340
0
 93
        0
 40
1.125
309
GRIDFORMAT_END
 95
        4
302
GRIDFORMAT
  1
GRIDFORMAT_BEGIN
 90
        0
 91
        1
 62
     0
 92
       -2
340
0
 93
        0
 40
1.125
309
GRIDFORMAT_END
 95
        8
302
GRIDFORMAT
  1
GRIDFORMAT_BEGIN
 90
        0
 91
        1
 62
     0
 92
       -2
340
0
 93
        0
 40
1.125
309
GRIDFORMAT_END
 95
       16
302
GRIDFORMAT
  1
GRIDFORMAT_BEGIN
 90
        0
 91
        1
 62
     0
 92
       -2
340
0
 93
        0
 40
1.125
309
GRIDFORMAT_END
 95
       32
302
GRIDFORMAT
  1
GRIDFORMAT_BEGIN
 90
        0
 91
        1
 62
     0
 92
       -2
340
0
 93
        0
 40
1.125
309
GRIDFORMAT_END
309
TABLEFORMAT_END
  1
CELLSTYLE_BEGIN
 90
        3
 91
        2
300
_DATA
309
CELLSTYLE_END
  0
ENDSEC
  0
SECTION
  2
ACDSDATA
 70
     2
 71
     8
  0
ACDSSCHEMA
 90
        0
  1
AcDb_Thumbnail_Schema
  2
AcDbDs::ID
280
    10
 91
        8
  2
Thumbnail_Data
280
    15
 91
        0
101
ACDSRECORD
 95
        0
 90
        1
  2
AcDbDs::TreatedAsObjectData
280
     1
291
     1
101
ACDSRECORD
 95
        0
 90
        2
  2
AcDbDs::Legacy
280
     1
291
     1
101
ACDSRECORD
  1
AcDbDs::ID
 90
        3
  2
AcDs:Indexable
280
     1
291
     1
101
ACDSRECORD
  1
AcDbDs::ID
 90
        4
  2
AcDbDs::HandleAttribute
280
     7
282
     1
  0
ACDSSCHEMA
 90
        1
  1
AcDbDs::TreatedAsObjectDataSchema
  2
AcDbDs::TreatedAsObjectData
280
     1
 91
        0
  0
ACDSSCHEMA
 90
        2
  1
AcDbDs::LegacySchema
  2
AcDbDs::Legacy
280
     1
 91
        0
  0
ACDSSCHEMA
 90
        3
  1
AcDbDs::IndexedPropertySchema
  2
AcDs:Indexable
280
     1
 91
        0
  0
ACDSSCHEMA
 90
        4
  1
AcDbDs::HandleAttributeSchema
  2
AcDbDs::HandleAttribute
280
     7
 91
        1
284
     1
  0
ACDSRECORD
 90
        0
  2
AcDbDs::ID
280
    10
320
7F17
  2
Thumbnail_Data
280
    15
 94
     1729
310
89504E470D0A1A0A0000000D49484452000001000000007C0803000000B13B9E5A00000300504C5445000000000000C8C8C80000000000000000000000000000000000000000000000000000330000660000990000CC0000FF0033000033330033660033990033CC0033FF0066000066330066660066990066CC0066FF0099
310
000099330099660099990099CC0099FF00CC0000CC3300CC6600CC9900CCCC00CCFF00FF0000FF3300FF6600FF9900FFCC00FFFF3300003300333300663300993300CC3300FF3333003333333333663333993333CC3333FF3366003366333366663366993366CC3366FF3399003399333399663399993399CC3399FF33CC00
310
33CC3333CC6633CC9933CCCC33CCFF33FF0033FF3333FF6633FF9933FFCC33FFFF6600006600336600666600996600CC6600FF6633006633336633666633996633CC6633FF6666006666336666666666996666CC6666FF6699006699336699666699996699CC6699FF66CC0066CC3366CC6666CC9966CCCC66CCFF66FF0066
310
FF3366FF6666FF9966FFCC66FFFF9900009900339900669900999900CC9900FF9933009933339933669933999933CC9933FF9966009966339966669966999966CC9966FF9999009999339999669999999999CC9999FF99CC0099CC3399CC6699CC9999CCCC99CCFF99FF0099FF3399FF6699FF9999FFCC99FFFFCC0000CC00
310
33CC0066CC0099CC00CCCC00FFCC3300CC3333CC3366CC3399CC33CCCC33FFCC6600CC6633CC6666CC6699CC66CCCC66FFCC9900CC9933CC9966CC9999CC99CCCC99FFCCCC00CCCC33CCCC66CCCC99CCCCCCCCCCFFCCFF00CCFF33CCFF66CCFF99CCFFCCCCFFFFFF0000FF0033FF0066FF0099FF00CCFF00FFFF3300FF3333
310
FF3366FF3399FF33CCFF33FFFF6600FF6633FF6666FF6699FF66CCFF66FFFF9900FF9933FF9966FF9999FF99CCFF99FFFFCC00FFCC33FFCC66FFCC99FFCCCCFFCCFFFFFF00FFFF33FFFF66FFFF99FFFFCCFFFFFF0000000D0D0D1A1A1A2828283535354343435050505D5D5D6B6B6B787878868686939393A1A1A1AEAEAEBB
310
BBBBC9C9C9D6D6D6E4E4E4F1F1F1FFFFFF00000000000000000000000000000000000000000000000000000000000008F1915C0000037C4944415478DAED9D5B7603210840590E3FEC7F336EC3FF36BE4065264D4F1F11F0A3C7992473C29597680DC02FB4FC4B0D4E69F9A8C70680001000024000789F6F7A13FCBC00583E
310
9E5D6A807B00D93380C50ACE06F0A333802301BCD9C302C0BF9840B5EBA1D17CF5E842D7F17277090419B21D1F007BB70328D25661C75D182F1E6E02BB4F9B954102E81A001383C33580056CF1AD8FB218DB7CF79470829107789C0E6753D361E1F4608A745906BC11338BF703A5086C010087FA2D33008604E29D260A22BB
310
49CFD73DE6B1F8604A037EEAF351130C000120009C09203D9A7AE100406299D30220F90070D3DC68C0D2C5FDA500601C009596686EAF9AC1D100C41DBEA0D7B4E06400C004443F00380230A4165D5F009AD8DC730780650F004E010CF7C700DCE40178D1FC24423E35A04EF94AD67BE103CC039844F607002A80A6015A1EE0
310
0400A0CF4C302501C0E35C200008002EEB011300BD594F85390A480D182A40E0088032F8F601884C506D5E8AA234EAE0ADE13746FF68008472C8D33001770B23B02C88C5DAA00B00EFFFD800F087DFF4FB9B236CFA80E403003B7D16B98AEF0380AAFF1700A45EEC3A723080AF9A805D0093062435137AEE28EC68800E6081
310
B1DF3F1AC0855BD4014C98921913D845DD0128066003C05E07D86CA2544FB6EA41221300D48250794DEC2055DF474600F0B544901A84FD8DA8B90313001E9263F94B2337BC03404CC8048032F0583BE4084017AC1683911A811900910F00C5046A7F0240601FC063D4A968003500C209D29506587082034021807DB4939C22
310
925C41B2060049DF238522CA61299EAF6F21B4A101CDEAEB82183667B86B806602044600F066A9DA69E23E330122231A40D4A3C0E0D00C3CDD3B4130A10172F00939227E09C0F961B06F926A4A8E3D23021F00FA6E801A03C57E09822911527D8081C91096D5E196044D69214C003E23DE67105435004ED70024217E97AE29
310
F7D330783C009EFF770428257B9A099A01A0EF135A53E18BDAD1C1004ADCBBD923C43ECE2880B403485B7174D395A49404CFCE04A745AF66F909A61503F18FF662966013C0A8F86F5B860C02B8DD1E300178B6806A718BCC4B9B246CEE11720F00024000080001200004003700DC9F2A7B2359D62F5D00984F5D1DDDE57059
310
1B0040F9E934719C6C1EE7A98A0356C307D8D7807192F0DD61BA967D804B001776E14803E274F948850340000800012000040083000EFAE9ED0F5CBD57E8BC9F62EE0000000049454E44AE426082
  0
ENDSEC
  0
EOF
