  0
SECTION
  2
HEADER
  9
$ACADVER
  1
AC1027
  9
$ACADMAINTVER
 70
   125
  9
$DWGCODEPAGE
  3
ANSI_932
  9
$LASTSAVEDBY
  1
yasukiyo.ogawa
  9
$REQUIREDVERSIONS
160
                 0
  9
$INSBASE
 10
0.0
 20
0.0
 30
0.0
  9
$EXTMIN
 10
0.0
 20
0.0
 30
0.0
  9
$EXTMAX
 10
9450.0
 20
13275.0
 30
0.0
  9
$LIMMIN
 10
0.0
 20
0.0
  9
$LIMMAX
 10
297.0
 20
210.0
  9
$ORTHOMODE
 70
     1
  9
$REGENMODE
 70
     1
  9
$FILLMODE
 70
     0
  9
$QTEXTMODE
 70
     0
  9
$MIRRTEXT
 70
     1
  9
$LTSCALE
 40
100.0
  9
$ATTMODE
 70
     1
  9
$TEXTSIZE
 40
180.0
  9
$TRACEWID
 40
0.05
  9
$TEXTSTYLE
  7
STANDARD
  9
$CLAYER
  8
3
  9
$CELTYPE
  6
BYLAYER
  9
$CECOLOR
 62
   256
  9
$CELTSCALE
 40
1.0
  9
$DISPSILH
 70
     0
  9
$DIMSCALE
 40
45.0
  9
$DIMASZ
 40
2.0
  9
$DIMEXO
 40
0.5
  9
$DIMDLI
 40
10.0
  9
$DIMRND
 40
0.0
  9
$DIMDLE
 40
0.0
  9
$DIMEXE
 40
1.0
  9
$DIMTP
 40
1.0
  9
$DIMTM
 40
1.0
  9
$DIMTXT
 40
3.0
  9
$DIMCEN
 40
0.0
  9
$DIMTSZ
 40
0.0
  9
$DIMTOL
 70
     0
  9
$DIMLIM
 70
     0
  9
$DIMTIH
 70
     0
  9
$DIMTOH
 70
     0
  9
$DIMSE1
 70
     0
  9
$DIMSE2
 70
     0
  9
$DIMTAD
 70
     1
  9
$DIMZIN
 70
     8
  9
$DIMBLK
  1

  9
$DIMASO
 70
     1
  9
$DIMSHO
 70
     1
  9
$DIMPOST
  1

  9
$DIMAPOST
  1

  9
$DIMALT
 70
     0
  9
$DIMALTD
 70
     2
  9
$DIMALTF
 40
0.039
  9
$DIMLFAC
 40
1.0
  9
$DIMTOFL
 70
     1
  9
$DIMTVP
 40
0.0
  9
$DIMTIX
 70
     0
  9
$DIMSOXD
 70
     0
  9
$DIMSAH
 70
     1
  9
$DIMBLK1
  1
OPEN
  9
$DIMBLK2
  1
OPEN
  9
$DIMSTYLE
  2
IGA
  9
$DIMCLRD
 70
     0
  9
$DIMCLRE
 70
     0
  9
$DIMCLRT
 70
     0
  9
$DIMTFAC
 40
10.0
  9
$DIMGAP
 40
1.0
  9
$DIMJUST
 70
     0
  9
$DIMSD1
 70
     0
  9
$DIMSD2
 70
     0
  9
$DIMTOLJ
 70
     1
  9
$DIMTZIN
 70
     8
  9
$DIMALTZ
 70
     0
  9
$DIMALTTZ
 70
     0
  9
$DIMUPT
 70
     0
  9
$DIMDEC
 70
     0
  9
$DIMTDEC
 70
     0
  9
$DIMALTU
 70
     2
  9
$DIMALTTD
 70
     2
  9
$DIMTXSTY
  7
STANDARD
  9
$DIMAUNIT
 70
     0
  9
$DIMADEC
 70
     0
  9
$DIMALTRND
 40
0.0
  9
$DIMAZIN
 70
     0
  9
$DIMDSEP
 70
    46
  9
$DIMATFIT
 70
     3
  9
$DIMFRAC
 70
     0
  9
$DIMLDRBLK
  1
OPEN
  9
$DIMLUNIT
 70
     2
  9
$DIMLWD
 70
    -2
  9
$DIMLWE
 70
    -2
  9
$DIMTMOVE
 70
     2
  9
$DIMFXL
 40
1.0
  9
$DIMFXLON
 70
     0
  9
$DIMJOGANG
 40
0.7853981633974483
  9
$DIMTFILL
 70
     0
  9
$DIMTFILLCLR
 70
     0
  9
$DIMARCSYM
 70
     0
  9
$DIMLTYPE
  6

  9
$DIMLTEX1
  6

  9
$DIMLTEX2
  6

  9
$DIMTXTDIRECTION
 70
     0
  9
$LUNITS
 70
     2
  9
$LUPREC
 70
     3
  9
$SKETCHINC
 40
0.1
  9
$FILLETRAD
 40
50.0
  9
$AUNITS
 70
     0
  9
$AUPREC
 70
     0
  9
$MENU
  1
acad
  9
$ELEVATION
 40
0.0
  9
$PELEVATION
 40
0.0
  9
$THICKNESS
 40
0.0
  9
$LIMCHECK
 70
     0
  9
$CHAMFERA
 40
0.0
  9
$CHAMFERB
 40
0.0
  9
$CHAMFERC
 40
20.0
  9
$CHAMFERD
 40
0.0
  9
$SKPOLY
 70
     0
  9
$TDCREATE
 40
2452324.584189815
  9
$TDUCREATE
 40
2452324.209196759
  9
$TDUPDATE
 40
2460245.555937500
  9
$TDUUPDATE
 40
2460245.180939121
  9
$TDINDWG
 40
0.0797076852
  9
$TDUSRTIMER
 40
0.0797076852
  9
$USRTIMER
 70
     1
  9
$ANGBASE
 50
0.0
  9
$ANGDIR
 70
     0
  9
$PDMODE
 70
     0
  9
$PDSIZE
 40
0.0
  9
$PLINEWID
 40
0.0
  9
$SPLFRAME
 70
     0
  9
$SPLINETYPE
 70
     6
  9
$SPLINESEGS
 70
     8
  9
$HANDSEED
  5
8151
  9
$SURFTAB1
 70
     6
  9
$SURFTAB2
 70
     6
  9
$SURFTYPE
 70
     6
  9
$SURFU
 70
     6
  9
$SURFV
 70
     6
  9
$UCSBASE
  2

  9
$UCSNAME
  2

  9
$UCSORG
 10
0.0
 20
0.0
 30
0.0
  9
$UCSXDIR
 10
1.0
 20
0.0
 30
0.0
  9
$UCSYDIR
 10
0.0
 20
1.0
 30
0.0
  9
$UCSORTHOREF
  2

  9
$UCSORTHOVIEW
 70
     0
  9
$UCSORGTOP
 10
0.0
 20
0.0
 30
0.0
  9
$UCSORGBOTTOM
 10
0.0
 20
0.0
 30
0.0
  9
$UCSORGLEFT
 10
0.0
 20
0.0
 30
0.0
  9
$UCSORGRIGHT
 10
0.0
 20
0.0
 30
0.0
  9
$UCSORGFRONT
 10
0.0
 20
0.0
 30
0.0
  9
$UCSORGBACK
 10
0.0
 20
0.0
 30
0.0
  9
$PUCSBASE
  2

  9
$PUCSNAME
  2

  9
$PUCSORG
 10
0.0
 20
0.0
 30
0.0
  9
$PUCSXDIR
 10
1.0
 20
0.0
 30
0.0
  9
$PUCSYDIR
 10
0.0
 20
1.0
 30
0.0
  9
$PUCSORTHOREF
  2

  9
$PUCSORTHOVIEW
 70
     0
  9
$PUCSORGTOP
 10
0.0
 20
0.0
 30
0.0
  9
$PUCSORGBOTTOM
 10
0.0
 20
0.0
 30
0.0
  9
$PUCSORGLEFT
 10
0.0
 20
0.0
 30
0.0
  9
$PUCSORGRIGHT
 10
0.0
 20
0.0
 30
0.0
  9
$PUCSORGFRONT
 10
0.0
 20
0.0
 30
0.0
  9
$PUCSORGBACK
 10
0.0
 20
0.0
 30
0.0
  9
$USERI1
 70
     0
  9
$USERI2
 70
     0
  9
$USERI3
 70
     0
  9
$USERI4
 70
     0
  9
$USERI5
 70
     0
  9
$USERR1
 40
0.0
  9
$USERR2
 40
0.0
  9
$USERR3
 40
0.0
  9
$USERR4
 40
0.0
  9
$USERR5
 40
0.0
  9
$WORLDVIEW
 70
     1
  9
$SHADEDGE
 70
     3
  9
$SHADEDIF
 70
    70
  9
$TILEMODE
 70
     1
  9
$MAXACTVP
 70
    16
  9
$PINSBASE
 10
0.0
 20
0.0
 30
0.0
  9
$PLIMCHECK
 70
     0
  9
$PEXTMIN
 10
1.000000000000000E+20
 20
1.000000000000000E+20
 30
1.000000000000000E+20
  9
$PEXTMAX
 10
-1.000000000000000E+20
 20
-1.000000000000000E+20
 30
-1.000000000000000E+20
  9
$PLIMMIN
 10
0.0
 20
0.0
  9
$PLIMMAX
 10
12.0
 20
9.0
  9
$UNITMODE
 70
     0
  9
$VISRETAIN
 70
     0
  9
$PLINEGEN
 70
     0
  9
$PSLTSCALE
 70
     1
  9
$TREEDEPTH
 70
  3020
  9
$CMLSTYLE
  2
STANDARD
  9
$CMLJUST
 70
     0
  9
$CMLSCALE
 40
20.0
  9
$PROXYGRAPHICS
 70
     1
  9
$MEASUREMENT
 70
     1
  9
$CELWEIGHT
370
    -1
  9
$ENDCAPS
280
     0
  9
$JOINSTYLE
280
     0
  9
$LWDISPLAY
290
     0
  9
$INSUNITS
 70
     0
  9
$HYPERLINKBASE
  1

  9
$STYLESHEET
  1

  9
$XEDIT
290
     1
  9
$CEPSNTYPE
380
     0
  9
$PSTYLEMODE
290
     1
  9
$FINGERPRINTGUID
  2
{D514E9A8-BE51-411D-8910-405A0E378C50}
  9
$VERSIONGUID
  2
{5A37D2D8-48B1-495C-BACF-0C33D9BFEE1A}
  9
$EXTNAMES
290
     1
  9
$PSVPSCALE
 40
0.0
  9
$OLESTARTUP
290
     0
  9
$SORTENTS
280
   127
  9
$INDEXCTL
280
     0
  9
$HIDETEXT
280
     0
  9
$XCLIPFRAME
280
     2
  9
$HALOGAP
280
     0
  9
$OBSCOLOR
 70
   257
  9
$OBSLTYPE
280
     0
  9
$INTERSECTIONDISPLAY
280
     0
  9
$INTERSECTIONCOLOR
 70
   257
  9
$DIMASSOC
280
     1
  9
$PROJECTNAME
  1

  9
$CAMERADISPLAY
290
     0
  9
$LENSLENGTH
 40
50.0
  9
$CAMERAHEIGHT
 40
0.0
  9
$STEPSPERSEC
 40
2.0
  9
$STEPSIZE
 40
6.0
  9
$3DDWFPREC
 40
2.0
  9
$PSOLWIDTH
 40
0.25
  9
$PSOLHEIGHT
 40
4.0
  9
$LOFTANG1
 40
1.570796326794896
  9
$LOFTANG2
 40
1.570796326794896
  9
$LOFTMAG1
 40
0.0
  9
$LOFTMAG2
 40
0.0
  9
$LOFTPARAM
 70
     7
  9
$LOFTNORMALS
280
     1
  9
$LATITUDE
 40
37.795
  9
$LONGITUDE
 40
-122.394
  9
$NORTHDIRECTION
 40
0.0
  9
$TIMEZONE
 70
 -8000
  9
$LIGHTGLYPHDISPLAY
280
     1
  9
$TILEMODELIGHTSYNCH
280
     1
  9
$CMATERIAL
347
809F
  9
$SOLIDHIST
280
     0
  9
$SHOWHIST
280
     1
  9
$DWFFRAME
280
     2
  9
$DGNFRAME
280
     0
  9
$REALWORLDSCALE
290
     1
  9
$INTERFERECOLOR
 62
     1
  9
$INTERFEREOBJVS
345
80C1
  9
$INTERFEREVPVS
346
80BE
  9
$CSHADOW
280
     0
  9
$SHADOWPLANELOCATION
 40
0.0
  0
ENDSEC
  0
SECTION
  2
CLASSES
  0
CLASS
  1
ACDBDICTIONARYWDFLT
  2
AcDbDictionaryWithDefault
  3
ObjectDBX Classes
 90
        0
 91
        1
280
     0
281
     0
  0
CLASS
  1
DICTIONARYVAR
  2
AcDbDictionaryVar
  3
ObjectDBX Classes
 90
        0
 91
       11
280
     0
281
     0
  0
CLASS
  1
MATERIAL
  2
AcDbMaterial
  3
ObjectDBX Classes
 90
     1153
 91
        3
280
     0
281
     0
  0
CLASS
  1
VISUALSTYLE
  2
AcDbVisualStyle
  3
ObjectDBX Classes
 90
     4095
 91
       24
280
     0
281
     0
  0
CLASS
  1
TABLESTYLE
  2
AcDbTableStyle
  3
ObjectDBX Classes
 90
     4095
 91
        1
280
     0
281
     0
  0
CLASS
  1
SCALE
  2
AcDbScale
  3
ObjectDBX Classes
 90
     1153
 91
       17
280
     0
281
     0
  0
CLASS
  1
MLEADERSTYLE
  2
AcDbMLeaderStyle
  3
ACDB_MLEADERSTYLE_CLASS
 90
     4095
 91
        1
280
     0
281
     0
  0
CLASS
  1
ACDBSECTIONVIEWSTYLE
  2
AcDbSectionViewStyle
  3
ObjectDBX Classes
 90
     1025
 91
        1
280
     0
281
     0
  0
CLASS
  1
ACDBDETAILVIEWSTYLE
  2
AcDbDetailViewStyle
  3
ObjectDBX Classes
 90
     1025
 91
        1
280
     0
281
     0
  0
CLASS
  1
CELLSTYLEMAP
  2
AcDbCellStyleMap
  3
ObjectDBX Classes
 90
     1152
 91
        1
280
     0
281
     0
  0
ENDSEC
  0
SECTION
  2
TABLES
  0
TABLE
  2
VPORT
  5
8
330
0
100
AcDbSymbolTable
 70
     1
1001
ACAD
1000
DbSaveVer
1071
      278
  0
VPORT
  5
809C
330
8
100
AcDbSymbolTableRecord
100
AcDbViewportTableRecord
  2
*Active
 70
     0
 10
0.0
 20
0.0
 11
1.0
 21
1.0
 12
6061.755418487901
 22
6637.500030908269
 13
0.0
 23
0.0
 14
10.0
 24
10.0
 15
10.0
 25
10.0
 16
0.0
 26
0.0
 36
1.0
 17
0.0
 27
0.0
 37
0.0
 40
13360.82076619344
 41
2.250314465408805
 42
50.0
 43
0.0
 44
0.0
 50
0.0
 51
0.0
 71
     0
 72
   100
 73
     1
 74
     0
 75
     0
 76
     0
 77
     0
 78
     0
281
     0
 65
     1
110
0.0
120
0.0
130
0.0
111
1.0
121
0.0
131
0.0
112
0.0
122
1.0
132
0.0
 79
     0
146
0.0
348
80BD
 60
     3
 61
     5
292
     1
282
     1
141
0.0
142
0.0
 63
   250
421
  3355443
1001
ACAD_NAV_VCDISPLAY
1070
     3
  0
ENDTAB
  0
TABLE
  2
LTYPE
  5
5
330
0
100
AcDbSymbolTable
 70
     2
  0
LTYPE
  5
13
330
5
100
AcDbSymbolTableRecord
100
AcDbLinetypeTableRecord
  2
BYBLOCK
 70
     0
  3

 72
    65
 73
     0
 40
0.0
  0
LTYPE
  5
14
330
5
100
AcDbSymbolTableRecord
100
AcDbLinetypeTableRecord
  2
BYLAYER
 70
     0
  3

 72
    65
 73
     0
 40
0.0
  0
LTYPE
  5
15
330
5
100
AcDbSymbolTableRecord
100
AcDbLinetypeTableRecord
  2
CONTINUOUS
 70
     0
  3
Solid line
 72
    65
 73
     0
 40
0.0
  0
LTYPE
  5
1F
330
5
100
AcDbSymbolTableRecord
100
AcDbLinetypeTableRecord
  2
CENTER
 70
     0
  3
____ _ ____ _ ____ _ ____ _ ____ _ ____ _ ____ 
 72
    65
 73
     4
 40
2.0
 49
1.25
 74
     0
 49
-0.25
 74
     0
 49
0.25
 74
     0
 49
-0.25
 74
     0
  0
ENDTAB
  0
TABLE
  2
LAYER
  5
2
102
{ACAD_XDICTIONARY
360
8128
102
}
330
0
100
AcDbSymbolTable
 70
     6
  0
LAYER
  5
F
102
{ACAD_XDICTIONARY
360
811B
102
}
330
2
100
AcDbSymbolTableRecord
100
AcDbLayerTableRecord
  2
0
 70
     0
 62
     7
  6
CONTINUOUS
370
    -3
390
7FD9
347
80AF
348
0
  0
LAYER
  5
31
102
{ACAD_XDICTIONARY
360
811D
102
}
330
2
100
AcDbSymbolTableRecord
100
AcDbLayerTableRecord
  2
3
 70
     0
 62
     2
  6
CONTINUOUS
370
    -3
390
7FD9
347
80AF
348
0
  0
LAYER
  5
76D0
102
{ACAD_XDICTIONARY
360
811F
102
}
330
2
100
AcDbSymbolTableRecord
100
AcDbLayerTableRecord
  2
2
 70
     0
 62
     3
  6
CENTER
370
    -3
390
7FD9
347
80AF
348
0
  0
LAYER
  5
76D1
102
{ACAD_XDICTIONARY
360
8121
102
}
330
2
100
AcDbSymbolTableRecord
100
AcDbLayerTableRecord
  2
1
 70
     0
 62
     4
  6
CONTINUOUS
370
    -3
390
7FD9
347
80AF
348
0
  0
LAYER
  5
76D2
102
{ACAD_XDICTIONARY
360
8123
102
}
330
2
100
AcDbSymbolTableRecord
100
AcDbLayerTableRecord
  2
4
 70
     0
 62
     7
  6
CONTINUOUS
370
    -3
390
7FD9
347
80AF
348
0
  0
LAYER
  5
7A06
330
2
100
AcDbSymbolTableRecord
100
AcDbLayerTableRecord
  2
DEFPOINTS
 70
     0
 62
     7
  6
CONTINUOUS
290
     0
370
    -3
390
7FD9
347
80AF
348
0
  0
ENDTAB
  0
TABLE
  2
STYLE
  5
3
330
0
100
AcDbSymbolTable
 70
     1
  0
STYLE
  5
10
330
3
100
AcDbSymbolTableRecord
100
AcDbTextStyleTableRecord
  2
STANDARD
 70
     0
 40
0.0
 41
1.0
 50
0.0
 71
     0
 42
180.0
  3
simplex.shx
  4
extfont.shx
  0
ENDTAB
  0
TABLE
  2
VIEW
  5
6
330
0
100
AcDbSymbolTable
 70
     0
  0
ENDTAB
  0
TABLE
  2
UCS
  5
7
330
0
100
AcDbSymbolTable
 70
     0
  0
ENDTAB
  0
TABLE
  2
APPID
  5
9
330
0
100
AcDbSymbolTable
 70
     4
  0
APPID
  5
11
330
9
100
AcDbSymbolTableRecord
100
AcDbRegAppTableRecord
  2
ACAD
 70
     0
  0
APPID
  5
80EE
330
9
100
AcDbSymbolTableRecord
100
AcDbRegAppTableRecord
  2
AcadAnnoMonitorAlertIconDisabled
 70
     0
  0
APPID
  5
80EF
330
9
100
AcDbSymbolTableRecord
100
AcDbRegAppTableRecord
  2
ACAD_EXEMPT_FROM_CAD_STANDARDS
 70
     0
  0
APPID
  5
812E
330
9
100
AcDbSymbolTableRecord
100
AcDbRegAppTableRecord
  2
ACAD_NAV_VCDISPLAY
 70
     0
  0
ENDTAB
  0
TABLE
  2
DIMSTYLE
  5
A
330
0
100
AcDbSymbolTable
 70
     1
100
AcDbDimStyleTable
 71
     1
340
1D
  0
DIMSTYLE
105
1D
102
{ACAD_REACTORS
330
7BC8
330
7C78
330
7C84
330
7C91
330
7C9E
330
7CAB
330
7CD1
330
7CDE
330
7CEB
330
7D0E
330
7DC6
330
7DD3
330
7DED
330
7E05
330
7E11
330
7F90
330
7F9D
330
7FAA
330
7FB7
330
7FC5
102
}
330
A
100
AcDbSymbolTableRecord
100
AcDbDimStyleTableRecord
  2
IGA
 70
     0
 40
2.0
 41
2.0
 42
0.5
 43
10.0
 44
1.0
 47
1.0
 48
1.0
 73
     0
 74
     0
 77
     1
 78
     8
140
3.0
141
0.0
143
0.03937
146
10.0
147
1.0
173
     1
271
     1
272
     0
279
     2
284
     8
340
10
341
79FC
343
79FC
344
79FC
  0
ENDTAB
  0
TABLE
  2
BLOCK_RECORD
  5
1
330
0
100
AcDbSymbolTable
 70
    23
  0
BLOCK_RECORD
  5
19
102
{ACAD_XDICTIONARY
360
8007
102
}
330
1
100
AcDbSymbolTableRecord
100
AcDbBlockTableRecord
  2
*MODEL_SPACE
340
7FDC
 70
     0
280
     1
281
     0
  0
BLOCK_RECORD
  5
16
102
{ACAD_XDICTIONARY
360
8005
102
}
330
1
100
AcDbSymbolTableRecord
100
AcDbBlockTableRecord
  2
*PAPER_SPACE
340
7FDD
 70
     0
280
     1
281
     0
  0
BLOCK_RECORD
  5
79FC
330
1
100
AcDbSymbolTableRecord
100
AcDbBlockTableRecord
  2
_OPEN
340
0
102
{BLKREFS
331
7FB0
331
7FB1
331
7FBE
331
7FBF
331
8010
331
8011
331
8019
331
801A
331
8021
331
8022
331
802A
331
802B
331
8033
331
8034
331
803C
331
803D
331
8045
331
8046
331
804E
331
804F
331
7F89
331
7F8A
331
7F96
331
7F97
331
7FA3
331
7FA4
331
810D
331
810E
331
8115
331
8116
331
8057
331
8058
331
805F
331
8060
331
8067
331
8068
331
8070
331
8071
331
8079
331
807A
102
}
 70
     0
280
     1
281
     0
  0
BLOCK_RECORD
  5
7BBC
330
1
100
AcDbSymbolTableRecord
100
AcDbBlockTableRecord
  2
*D1
340
0
 70
     0
280
     1
281
     0
  0
BLOCK_RECORD
  5
7C6C
330
1
100
AcDbSymbolTableRecord
100
AcDbBlockTableRecord
  2
*D2
340
0
 70
     0
280
     1
281
     0
  0
BLOCK_RECORD
  5
7C79
330
1
100
AcDbSymbolTableRecord
100
AcDbBlockTableRecord
  2
*D3
340
0
 70
     0
280
     1
281
     0
  0
BLOCK_RECORD
  5
7C85
330
1
100
AcDbSymbolTableRecord
100
AcDbBlockTableRecord
  2
*D4
340
0
 70
     0
280
     1
281
     0
  0
BLOCK_RECORD
  5
7C92
330
1
100
AcDbSymbolTableRecord
100
AcDbBlockTableRecord
  2
*D5
340
0
 70
     0
280
     1
281
     0
  0
BLOCK_RECORD
  5
7C9F
330
1
100
AcDbSymbolTableRecord
100
AcDbBlockTableRecord
  2
*D6
340
0
 70
     0
280
     1
281
     0
  0
BLOCK_RECORD
  5
7CC5
330
1
100
AcDbSymbolTableRecord
100
AcDbBlockTableRecord
  2
*D7
340
0
 70
     0
280
     1
281
     0
  0
BLOCK_RECORD
  5
7CD2
330
1
100
AcDbSymbolTableRecord
100
AcDbBlockTableRecord
  2
*D8
340
0
 70
     0
280
     1
281
     0
  0
BLOCK_RECORD
  5
7CDF
330
1
100
AcDbSymbolTableRecord
100
AcDbBlockTableRecord
  2
*D9
340
0
 70
     0
280
     1
281
     0
  0
BLOCK_RECORD
  5
7D03
330
1
100
AcDbSymbolTableRecord
100
AcDbBlockTableRecord
  2
*D10
340
0
 70
     0
280
     1
281
     0
  0
BLOCK_RECORD
  5
7D5C
330
1
100
AcDbSymbolTableRecord
100
AcDbBlockTableRecord
  2
_DOT
340
0
 70
     0
280
     1
281
     0
  0
BLOCK_RECORD
  5
7DBB
330
1
100
AcDbSymbolTableRecord
100
AcDbBlockTableRecord
  2
*D12
340
0
 70
     0
280
     1
281
     0
  0
BLOCK_RECORD
  5
7DC7
330
1
100
AcDbSymbolTableRecord
100
AcDbBlockTableRecord
  2
*D13
340
0
 70
     0
280
     1
281
     0
  0
BLOCK_RECORD
  5
7DE1
330
1
100
AcDbSymbolTableRecord
100
AcDbBlockTableRecord
  2
*D14
340
0
 70
     0
280
     1
281
     0
  0
BLOCK_RECORD
  5
7DF9
330
1
100
AcDbSymbolTableRecord
100
AcDbBlockTableRecord
  2
*D15
340
0
 70
     0
280
     1
281
     0
  0
BLOCK_RECORD
  5
7E06
330
1
100
AcDbSymbolTableRecord
100
AcDbBlockTableRecord
  2
*D16
340
0
 70
     0
280
     1
281
     0
  0
BLOCK_RECORD
  5
7F50
330
1
100
AcDbSymbolTableRecord
100
AcDbBlockTableRecord
  2
_NONE
340
0
 70
     0
280
     1
281
     0
  0
BLOCK_RECORD
  5
7F84
330
1
100
AcDbSymbolTableRecord
100
AcDbBlockTableRecord
  2
*D18
340
0
 70
     0
280
     1
281
     0
  0
BLOCK_RECORD
  5
7F91
330
1
100
AcDbSymbolTableRecord
100
AcDbBlockTableRecord
  2
*D19
340
0
 70
     0
280
     1
281
     0
  0
BLOCK_RECORD
  5
7F9E
330
1
100
AcDbSymbolTableRecord
100
AcDbBlockTableRecord
  2
*D20
340
0
 70
     0
280
     1
281
     0
  0
BLOCK_RECORD
  5
7FAB
330
1
100
AcDbSymbolTableRecord
100
AcDbBlockTableRecord
  2
*D21
340
0
 70
     0
280
     1
281
     0
  0
BLOCK_RECORD
  5
7FB9
330
1
100
AcDbSymbolTableRecord
100
AcDbBlockTableRecord
  2
*D22
340
0
 70
     0
280
     1
281
     0
  0
ENDTAB
  0
ENDSEC
  0
SECTION
  2
BLOCKS
  0
BLOCK
  5
1A
330
19
100
AcDbEntity
  8
0
100
AcDbBlockBegin
  2
*MODEL_SPACE
 70
     0
 10
0.0
 20
0.0
 30
0.0
  3
*MODEL_SPACE
  1

  0
ENDBLK
  5
1B
330
19
100
AcDbEntity
  8
0
100
AcDbBlockEnd
  0
BLOCK
  5
17
330
16
100
AcDbEntity
 67
     1
  8
0
100
AcDbBlockBegin
  2
*PAPER_SPACE
 70
     0
 10
0.0
 20
0.0
 30
0.0
  3
*PAPER_SPACE
  1

  0
ENDBLK
  5
18
330
16
100
AcDbEntity
 67
     1
  8
0
100
AcDbBlockEnd
  0
BLOCK
  5
7A00
330
79FC
100
AcDbEntity
  8
0
100
AcDbBlockBegin
  2
_OPEN
 70
     0
 10
0.0
 20
0.0
 30
0.0
  3
_OPEN
  1

  0
LINE
  5
79FD
330
79FC
100
AcDbEntity
  8
0
  6
ByBlock
 62
     0
100
AcDbLine
 10
-1.0
 20
0.1666666666666666
 30
0.0
 11
0.0
 21
0.0
 31
0.0
  0
LINE
  5
79FE
330
79FC
100
AcDbEntity
  8
0
  6
ByBlock
 62
     0
100
AcDbLine
 10
0.0
 20
0.0
 30
0.0
 11
-1.0
 21
-0.1666666666666666
 31
0.0
  0
LINE
  5
79FF
330
79FC
100
AcDbEntity
  8
0
  6
ByBlock
 62
     0
100
AcDbLine
 10
0.0
 20
0.0
 30
0.0
 11
-1.0
 21
0.0
 31
0.0
  0
ENDBLK
  5
7A01
330
79FC
100
AcDbEntity
  8
0
100
AcDbBlockEnd
  0
BLOCK
  5
7BD4
330
7BBC
100
AcDbEntity
  8
0
100
AcDbBlockBegin
  2
*D1
 70
     1
 10
0.0
 20
0.0
 30
0.0
  3
*D1
  1

  0
LINE
  5
800D
330
7BBC
100
AcDbEntity
  8
3
 62
     0
440
 16777216
100
AcDbLine
 10
8098.660212244523
 20
4866.99655718295
 30
0.0
 11
8562.496371420204
 21
4866.99655718295
 31
0.0
  0
LINE
  5
800E
330
7BBC
100
AcDbEntity
  8
3
 62
     0
440
 16777216
100
AcDbLine
 10
8098.660212244523
 20
3466.996557182951
 30
0.0
 11
8562.496371420202
 21
3466.996557182951
 31
0.0
  0
LINE
  5
800F
330
7BBC
100
AcDbEntity
  8
3
 62
     0
440
 16777216
100
AcDbLine
 10
8517.496371420204
 20
4776.99655718295
 30
0.0
 11
8517.496371420202
 21
3556.996557182951
 31
0.0
  0
INSERT
  5
8010
330
7BBC
100
AcDbEntity
  8
3
 62
     0
440
 16777216
100
AcDbBlockReference
  2
_OPEN
 10
8517.496371420204
 20
4866.99655718295
 30
0.0
 41
90.0
 42
90.0
 43
90.0
 50
90.0
  0
INSERT
  5
8011
330
7BBC
100
AcDbEntity
  8
3
 62
     0
440
 16777216
100
AcDbBlockReference
  2
_OPEN
 10
8517.496371420202
 20
3466.996557182951
 30
0.0
 41
90.0
 42
90.0
 43
90.0
 50
270.0
  0
MTEXT
  5
8012
330
7BBC
100
AcDbEntity
  8
3
 62
     0
440
 16777216
100
AcDbMText
 10
8404.996371420201
 20
4140.468183248682
 30
0.0
 40
135.0
 41
0.0
 46
0.0
 71
     5
 72
     5
  1
\A1;φ1400
 11
0.0000000000000001
 21
1.0
 31
0.0
 73
     1
 44
1.0
  0
POINT
  5
8013
330
7BBC
100
AcDbEntity
  8
DEFPOINTS
 62
     0
440
 16777216
100
AcDbPoint
 10
8076.160212244522
 20
4866.99655718295
 30
0.0
  0
POINT
  5
8014
330
7BBC
100
AcDbEntity
  8
DEFPOINTS
 62
     0
440
 16777216
100
AcDbPoint
 10
8076.160212244522
 20
3466.996557182951
 30
0.0
  0
POINT
  5
8015
330
7BBC
100
AcDbEntity
  8
DEFPOINTS
 62
     0
440
 16777216
100
AcDbPoint
 10
8517.496371420202
 20
3466.996557182951
 30
0.0
  0
ENDBLK
  5
7BDE
330
7BBC
100
AcDbEntity
  8
0
100
AcDbBlockEnd
  0
BLOCK
  5
7ED4
330
7C6C
100
AcDbEntity
  8
0
100
AcDbBlockBegin
  2
*D2
 70
     1
 10
0.0
 20
0.0
 30
0.0
  3
*D2
  1

  0
LINE
  5
8016
330
7C6C
100
AcDbEntity
  8
3
 62
     0
440
 16777216
100
AcDbLine
 10
4129.292085150598
 20
9459.096247207856
 30
0.0
 11
4129.292085150598
 21
9770.36328127567
 31
0.0
  0
LINE
  5
8017
330
7C6C
100
AcDbEntity
  8
3
 62
     0
440
 16777216
100
AcDbLine
 10
2429.292085150599
 20
9459.096247207856
 30
0.0
 11
2429.292085150599
 21
9770.36328127567
 31
0.0
  0
LINE
  5
8018
330
7C6C
100
AcDbEntity
  8
3
 62
     0
440
 16777216
100
AcDbLine
 10
4039.292085150599
 20
9725.363281275669
 30
0.0
 11
2519.292085150599
 21
9725.363281275669
 31
0.0
  0
INSERT
  5
8019
330
7C6C
100
AcDbEntity
  8
3
 62
     0
440
 16777216
100
AcDbBlockReference
  2
_OPEN
 10
4129.292085150598
 20
9725.363281275669
 30
0.0
 41
90.0
 42
90.0
 43
90.0
  0
INSERT
  5
801A
330
7C6C
100
AcDbEntity
  8
3
 62
     0
440
 16777216
100
AcDbBlockReference
  2
_OPEN
 10
2429.292085150599
 20
9725.363281275669
 30
0.0
 41
90.0
 42
90.0
 43
90.0
 50
180.0
  0
MTEXT
  5
801B
330
7C6C
100
AcDbEntity
  8
3
 62
     0
440
 16777216
100
AcDbMText
 10
3276.853016895046
 20
9837.863281275669
 30
0.0
 40
135.0
 41
0.0
 46
0.0
 71
     5
 72
     5
  1
\A1;1700
 73
     1
 44
1.0
  0
POINT
  5
801C
330
7C6C
100
AcDbEntity
  8
DEFPOINTS
 62
     0
440
 16777216
100
AcDbPoint
 10
4129.292085150598
 20
9436.596247207855
 30
0.0
  0
POINT
  5
801D
330
7C6C
100
AcDbEntity
  8
DEFPOINTS
 62
     0
440
 16777216
100
AcDbPoint
 10
2429.292085150599
 20
9436.596247207855
 30
0.0
  0
POINT
  5
801E
330
7C6C
100
AcDbEntity
  8
DEFPOINTS
 62
     0
440
 16777216
100
AcDbPoint
 10
2429.292085150599
 20
9725.363281275669
 30
0.0
  0
ENDBLK
  5
7EDE
330
7C6C
100
AcDbEntity
  8
0
100
AcDbBlockEnd
  0
BLOCK
  5
7EEA
330
7C79
100
AcDbEntity
  8
0
100
AcDbBlockBegin
  2
*D3
 70
     1
 10
0.0
 20
0.0
 30
0.0
  3
*D3
  1

  0
LINE
  5
801F
330
7C79
100
AcDbEntity
  8
3
 62
     0
440
 16777216
100
AcDbLine
 10
1229.292085150599
 20
8199.096247207855
 30
0.0
 11
1229.292085150599
 21
9770.36328127567
 31
0.0
  0
LINE
  5
8020
330
7C79
100
AcDbEntity
  8
3
 62
     0
440
 16777216
100
AcDbLine
 10
2339.292085150599
 20
9725.363281275669
 30
0.0
 11
1319.292085150599
 21
9725.363281275669
 31
0.0
  0
INSERT
  5
8021
330
7C79
100
AcDbEntity
  8
3
 62
     0
440
 16777216
100
AcDbBlockReference
  2
_OPEN
 10
2429.292085150599
 20
9725.363281275669
 30
0.0
 41
90.0
 42
90.0
 43
90.0
  0
INSERT
  5
8022
330
7C79
100
AcDbEntity
  8
3
 62
     0
440
 16777216
100
AcDbBlockReference
  2
_OPEN
 10
1229.292085150599
 20
9725.363281275669
 30
0.0
 41
90.0
 42
90.0
 43
90.0
 50
180.0
  0
MTEXT
  5
8023
330
7C79
100
AcDbEntity
  8
3
 62
     0
440
 16777216
100
AcDbMText
 10
1829.292085150598
 20
9837.863281275669
 30
0.0
 40
135.0
 41
0.0
 46
0.0
 71
     5
 72
     5
  1
\A1;1200
 73
     1
 44
1.0
  0
POINT
  5
8024
330
7C79
100
AcDbEntity
  8
DEFPOINTS
 62
     0
440
 16777216
100
AcDbPoint
 10
2429.292085150599
 20
9436.596247207855
 30
0.0
  0
POINT
  5
8025
330
7C79
100
AcDbEntity
  8
DEFPOINTS
 62
     0
440
 16777216
100
AcDbPoint
 10
1229.292085150599
 20
8176.596247207855
 30
0.0
  0
POINT
  5
8026
330
7C79
100
AcDbEntity
  8
DEFPOINTS
 62
     0
440
 16777216
100
AcDbPoint
 10
1229.292085150599
 20
9725.363281275669
 30
0.0
  0
ENDBLK
  5
7EF3
330
7C79
100
AcDbEntity
  8
0
100
AcDbBlockEnd
  0
BLOCK
  5
7EF4
330
7C85
100
AcDbEntity
  8
0
100
AcDbBlockBegin
  2
*D4
 70
     1
 10
0.0
 20
0.0
 30
0.0
  3
*D4
  1

  0
LINE
  5
8027
330
7C85
100
AcDbEntity
  8
3
 62
     0
440
 16777216
100
AcDbLine
 10
1206.792085150599
 20
8176.596247207855
 30
0.0
 11
742.6310464974972
 21
8176.596247207855
 31
0.0
  0
LINE
  5
8028
330
7C85
100
AcDbEntity
  8
3
 62
     0
440
 16777216
100
AcDbLine
 10
1206.792085150599
 20
7076.596247207856
 30
0.0
 11
742.6310464974969
 21
7076.596247207856
 31
0.0
  0
LINE
  5
8029
330
7C85
100
AcDbEntity
  8
3
 62
     0
440
 16777216
100
AcDbLine
 10
787.6310464974972
 20
8086.596247207856
 30
0.0
 11
787.6310464974969
 21
7166.596247207856
 31
0.0
  0
INSERT
  5
802A
330
7C85
100
AcDbEntity
  8
3
 62
     0
440
 16777216
100
AcDbBlockReference
  2
_OPEN
 10
787.6310464974972
 20
8176.596247207855
 30
0.0
 41
90.0
 42
90.0
 43
90.0
 50
90.0
  0
INSERT
  5
802B
330
7C85
100
AcDbEntity
  8
3
 62
     0
440
 16777216
100
AcDbBlockReference
  2
_OPEN
 10
787.6310464974969
 20
7076.596247207856
 30
0.0
 41
90.0
 42
90.0
 43
90.0
 50
270.0
  0
MTEXT
  5
802C
330
7C85
100
AcDbEntity
  8
3
 62
     0
440
 16777216
100
AcDbMText
 10
675.1310464974958
 20
7626.815414619574
 30
0.0
 40
135.0
 41
0.0
 46
0.0
 71
     5
 72
     5
  1
\A1;1100
 11
0.0000000000000001
 21
1.0
 31
0.0
 73
     1
 44
1.0
  0
POINT
  5
802D
330
7C85
100
AcDbEntity
  8
DEFPOINTS
 62
     0
440
 16777216
100
AcDbPoint
 10
1229.292085150599
 20
8176.596247207855
 30
0.0
  0
POINT
  5
802E
330
7C85
100
AcDbEntity
  8
DEFPOINTS
 62
     0
440
 16777216
100
AcDbPoint
 10
1229.292085150599
 20
7076.596247207856
 30
0.0
  0
POINT
  5
802F
330
7C85
100
AcDbEntity
  8
DEFPOINTS
 62
     0
440
 16777216
100
AcDbPoint
 10
787.6310464974969
 20
7076.596247207856
 30
0.0
  0
ENDBLK
  5
7EFE
330
7C85
100
AcDbEntity
  8
0
100
AcDbBlockEnd
  0
BLOCK
  5
7EDF
330
7C92
100
AcDbEntity
  8
0
100
AcDbBlockBegin
  2
*D5
 70
     1
 10
0.0
 20
0.0
 30
0.0
  3
*D5
  1

  0
LINE
  5
8030
330
7C92
100
AcDbEntity
  8
3
 62
     0
440
 16777216
100
AcDbLine
 10
4151.792085150598
 20
9436.596247207855
 30
0.0
 11
4544.238840213417
 21
9436.596247207855
 31
0.0
  0
LINE
  5
8031
330
7C92
100
AcDbEntity
  8
3
 62
     0
440
 16777216
100
AcDbLine
 10
4151.792085150598
 20
7076.596247207856
 30
0.0
 11
4544.238840213417
 21
7076.596247207856
 31
0.0
  0
LINE
  5
8032
330
7C92
100
AcDbEntity
  8
3
 62
     0
440
 16777216
100
AcDbLine
 10
4499.238840213418
 20
9346.596247207855
 30
0.0
 11
4499.238840213418
 21
7166.596247207856
 31
0.0
  0
INSERT
  5
8033
330
7C92
100
AcDbEntity
  8
3
 62
     0
440
 16777216
100
AcDbBlockReference
  2
_OPEN
 10
4499.238840213418
 20
9436.596247207855
 30
0.0
 41
90.0
 42
90.0
 43
90.0
 50
90.0
  0
INSERT
  5
8034
330
7C92
100
AcDbEntity
  8
3
 62
     0
440
 16777216
100
AcDbBlockReference
  2
_OPEN
 10
4499.238840213418
 20
7076.596247207856
 30
0.0
 41
90.0
 42
90.0
 43
90.0
 50
270.0
  0
MTEXT
  5
8035
330
7C92
100
AcDbEntity
  8
3
 62
     0
440
 16777216
100
AcDbMText
 10
4386.738840213417
 20
8215.297096239032
 30
0.0
 40
135.0
 41
0.0
 46
0.0
 71
     5
 72
     5
  1
\A1;2360
 11
0.0000000000000001
 21
1.0
 31
0.0
 73
     1
 44
1.0
  0
POINT
  5
8036
330
7C92
100
AcDbEntity
  8
DEFPOINTS
 62
     0
440
 16777216
100
AcDbPoint
 10
4129.292085150598
 20
9436.596247207855
 30
0.0
  0
POINT
  5
8037
330
7C92
100
AcDbEntity
  8
DEFPOINTS
 62
     0
440
 16777216
100
AcDbPoint
 10
4129.292085150598
 20
7076.596247207856
 30
0.0
  0
POINT
  5
8038
330
7C92
100
AcDbEntity
  8
DEFPOINTS
 62
     0
440
 16777216
100
AcDbPoint
 10
4499.238840213418
 20
7076.596247207856
 30
0.0
  0
ENDBLK
  5
7EE9
330
7C92
100
AcDbEntity
  8
0
100
AcDbBlockEnd
  0
BLOCK
  5
7E50
330
7C9F
100
AcDbEntity
  8
0
100
AcDbBlockBegin
  2
*D6
 70
     1
 10
0.0
 20
0.0
 30
0.0
  3
*D6
  1

  0
LINE
  5
8039
330
7C9F
100
AcDbEntity
  8
3
 62
     0
440
 16777216
100
AcDbLine
 10
4129.292085150598
 20
7054.096247207856
 30
0.0
 11
4129.292085150598
 21
6571.403462279537
 31
0.0
  0
LINE
  5
803A
330
7C9F
100
AcDbEntity
  8
3
 62
     0
440
 16777216
100
AcDbLine
 10
1229.292085150599
 20
7054.096247207856
 30
0.0
 11
1229.292085150599
 21
6571.403462279537
 31
0.0
  0
LINE
  5
803B
330
7C9F
100
AcDbEntity
  8
3
 62
     0
440
 16777216
100
AcDbLine
 10
4039.292085150599
 20
6616.403462279537
 30
0.0
 11
1319.292085150599
 21
6616.403462279537
 31
0.0
  0
INSERT
  5
803C
330
7C9F
100
AcDbEntity
  8
3
 62
     0
440
 16777216
100
AcDbBlockReference
  2
_OPEN
 10
4129.292085150598
 20
6616.403462279537
 30
0.0
 41
90.0
 42
90.0
 43
90.0
  0
INSERT
  5
803D
330
7C9F
100
AcDbEntity
  8
3
 62
     0
440
 16777216
100
AcDbBlockReference
  2
_OPEN
 10
1229.292085150599
 20
6616.403462279537
 30
0.0
 41
90.0
 42
90.0
 43
90.0
 50
180.0
  0
MTEXT
  5
803E
330
7C9F
100
AcDbEntity
  8
3
 62
     0
440
 16777216
100
AcDbMText
 10
2765.673496150427
 20
6728.903462279537
 30
0.0
 40
135.0
 41
0.0
 46
0.0
 71
     5
 72
     5
  1
\A1;2900
 73
     1
 44
1.0
  0
POINT
  5
803F
330
7C9F
100
AcDbEntity
  8
DEFPOINTS
 62
     0
440
 16777216
100
AcDbPoint
 10
4129.292085150598
 20
7076.596247207856
 30
0.0
  0
POINT
  5
8040
330
7C9F
100
AcDbEntity
  8
DEFPOINTS
 62
     0
440
 16777216
100
AcDbPoint
 10
1229.292085150599
 20
7076.596247207856
 30
0.0
  0
POINT
  5
8041
330
7C9F
100
AcDbEntity
  8
DEFPOINTS
 62
     0
440
 16777216
100
AcDbPoint
 10
1229.292085150599
 20
6616.403462279537
 30
0.0
  0
ENDBLK
  5
7E5A
330
7C9F
100
AcDbEntity
  8
0
100
AcDbBlockEnd
  0
BLOCK
  5
7E5B
330
7CC5
100
AcDbEntity
  8
0
100
AcDbBlockBegin
  2
*D7
 70
     1
 10
0.0
 20
0.0
 30
0.0
  3
*D7
  1

  0
LINE
  5
8042
330
7CC5
100
AcDbEntity
  8
3
 62
     0
440
 16777216
100
AcDbLine
 10
4209.292085150599
 20
5734.49655718295
 30
0.0
 11
4209.292085150599
 21
5963.772537330951
 31
0.0
  0
LINE
  5
8043
330
7CC5
100
AcDbEntity
  8
3
 62
     0
440
 16777216
100
AcDbLine
 10
3279.292085150599
 20
5745.933844594347
 30
0.0
 11
3279.292085150599
 21
5963.772537330951
 31
0.0
  0
LINE
  5
8044
330
7CC5
100
AcDbEntity
  8
3
 62
     0
440
 16777216
100
AcDbLine
 10
4119.292085150599
 20
5918.772537330951
 30
0.0
 11
3369.292085150599
 21
5918.772537330951
 31
0.0
  0
INSERT
  5
8045
330
7CC5
100
AcDbEntity
  8
3
 62
     0
440
 16777216
100
AcDbBlockReference
  2
_OPEN
 10
4209.292085150599
 20
5918.772537330951
 30
0.0
 41
90.0
 42
90.0
 43
90.0
  0
INSERT
  5
8046
330
7CC5
100
AcDbEntity
  8
3
 62
     0
440
 16777216
100
AcDbBlockReference
  2
_OPEN
 10
3279.292085150599
 20
5918.772537330951
 30
0.0
 41
90.0
 42
90.0
 43
90.0
 50
180.0
  0
MTEXT
  5
8047
330
7CC5
100
AcDbEntity
  8
3
 62
     0
440
 16777216
100
AcDbMText
 10
3723.739643227272
 20
6031.272537330951
 30
0.0
 40
135.0
 41
0.0
 46
0.0
 71
     5
 72
     5
  1
\A1;930
 73
     1
 44
1.0
  0
POINT
  5
8048
330
7CC5
100
AcDbEntity
  8
DEFPOINTS
 62
     0
440
 16777216
100
AcDbPoint
 10
4209.292085150599
 20
5711.996557182951
 30
0.0
  0
POINT
  5
8049
330
7CC5
100
AcDbEntity
  8
DEFPOINTS
 62
     0
440
 16777216
100
AcDbPoint
 10
3279.292085150599
 20
5723.433844594347
 30
0.0
  0
POINT
  5
804A
330
7CC5
100
AcDbEntity
  8
DEFPOINTS
 62
     0
440
 16777216
100
AcDbPoint
 10
3279.292085150599
 20
5918.772537330951
 30
0.0
  0
ENDBLK
  5
7E65
330
7CC5
100
AcDbEntity
  8
0
100
AcDbBlockEnd
  0
BLOCK
  5
7E93
330
7CD2
100
AcDbEntity
  8
0
100
AcDbBlockBegin
  2
*D8
 70
     1
 10
0.0
 20
0.0
 30
0.0
  3
*D8
  1

  0
LINE
  5
804B
330
7CD2
100
AcDbEntity
  8
3
 62
     0
440
 16777216
100
AcDbLine
 10
4231.792085150599
 20
5657.996557182951
 30
0.0
 11
4530.322250820602
 21
5657.996557182951
 31
0.0
  0
LINE
  5
804C
330
7CD2
100
AcDbEntity
  8
3
 62
     0
440
 16777216
100
AcDbLine
 10
4231.792085150599
 20
4207.99655718295
 30
0.0
 11
4530.322250820602
 21
4207.99655718295
 31
0.0
  0
LINE
  5
804D
330
7CD2
100
AcDbEntity
  8
3
 62
     0
440
 16777216
100
AcDbLine
 10
4485.322250820603
 20
5567.996557182951
 30
0.0
 11
4485.322250820603
 21
4297.99655718295
 31
0.0
  0
INSERT
  5
804E
330
7CD2
100
AcDbEntity
  8
3
 62
     0
440
 16777216
100
AcDbBlockReference
  2
_OPEN
 10
4485.322250820603
 20
5657.996557182951
 30
0.0
 41
90.0
 42
90.0
 43
90.0
 50
90.0
  0
INSERT
  5
804F
330
7CD2
100
AcDbEntity
  8
3
 62
     0
440
 16777216
100
AcDbBlockReference
  2
_OPEN
 10
4485.322250820603
 20
4207.99655718295
 30
0.0
 41
90.0
 42
90.0
 43
90.0
 50
270.0
  0
MTEXT
  5
8050
330
7CD2
100
AcDbEntity
  8
3
 62
     0
440
 16777216
100
AcDbMText
 10
4372.822250820601
 20
4959.249367929726
 30
0.0
 40
135.0
 41
0.0
 46
0.0
 71
     5
 72
     5
  1
\A1;1450
 11
0.0000000000000001
 21
1.0
 31
0.0
 73
     1
 44
1.0
  0
POINT
  5
8051
330
7CD2
100
AcDbEntity
  8
DEFPOINTS
 62
     0
440
 16777216
100
AcDbPoint
 10
4209.292085150599
 20
5657.996557182951
 30
0.0
  0
POINT
  5
8052
330
7CD2
100
AcDbEntity
  8
DEFPOINTS
 62
     0
440
 16777216
100
AcDbPoint
 10
4209.292085150599
 20
4207.99655718295
 30
0.0
  0
POINT
  5
8053
330
7CD2
100
AcDbEntity
  8
DEFPOINTS
 62
     0
440
 16777216
100
AcDbPoint
 10
4485.322250820603
 20
4207.99655718295
 30
0.0
  0
ENDBLK
  5
7E9D
330
7CD2
100
AcDbEntity
  8
0
100
AcDbBlockEnd
  0
BLOCK
  5
7E9E
330
7CDF
100
AcDbEntity
  8
0
100
AcDbBlockBegin
  2
*D9
 70
     1
 10
0.0
 20
0.0
 30
0.0
  3
*D9
  1

  0
LINE
  5
8054
330
7CDF
100
AcDbEntity
  8
3
 62
     0
440
 16777216
100
AcDbLine
 10
4231.792085150599
 20
5657.996557182951
 30
0.0
 11
4774.835509533515
 21
5657.996557182951
 31
0.0
  0
LINE
  5
8055
330
7CDF
100
AcDbEntity
  8
3
 62
     0
440
 16777216
100
AcDbLine
 10
4472.079932482389
 20
4166.99655718295
 30
0.0
 11
4774.835509533515
 21
4166.99655718295
 31
0.0
  0
LINE
  5
8056
330
7CDF
100
AcDbEntity
  8
3
 62
     0
440
 16777216
100
AcDbLine
 10
4729.835509533514
 20
5567.996557182951
 30
0.0
 11
4729.835509533514
 21
4256.99655718295
 31
0.0
  0
INSERT
  5
8057
330
7CDF
100
AcDbEntity
  8
3
 62
     0
440
 16777216
100
AcDbBlockReference
  2
_OPEN
 10
4729.835509533514
 20
5657.996557182951
 30
0.0
 41
90.0
 42
90.0
 43
90.0
 50
90.0
  0
INSERT
  5
8058
330
7CDF
100
AcDbEntity
  8
3
 62
     0
440
 16777216
100
AcDbBlockReference
  2
_OPEN
 10
4729.835509533514
 20
4166.99655718295
 30
0.0
 41
90.0
 42
90.0
 43
90.0
 50
270.0
  0
MTEXT
  5
8059
330
7CDF
100
AcDbEntity
  8
3
 62
     0
440
 16777216
100
AcDbMText
 10
4617.335509533513
 20
4951.614646971757
 30
0.0
 40
135.0
 41
0.0
 46
0.0
 71
     5
 72
     5
  1
\A1;1491
 11
0.0000000000000001
 21
1.0
 31
0.0
 73
     1
 44
1.0
  0
POINT
  5
805A
330
7CDF
100
AcDbEntity
  8
DEFPOINTS
 62
     0
440
 16777216
100
AcDbPoint
 10
4209.292085150599
 20
5657.996557182951
 30
0.0
  0
POINT
  5
805B
330
7CDF
100
AcDbEntity
  8
DEFPOINTS
 62
     0
440
 16777216
100
AcDbPoint
 10
4449.579932482389
 20
4166.99655718295
 30
0.0
  0
POINT
  5
805C
330
7CDF
100
AcDbEntity
  8
DEFPOINTS
 62
     0
440
 16777216
100
AcDbPoint
 10
4729.835509533514
 20
4166.99655718295
 30
0.0
  0
ENDBLK
  5
7EA8
330
7CDF
100
AcDbEntity
  8
0
100
AcDbBlockEnd
  0
BLOCK
  5
7EA9
330
7D03
100
AcDbEntity
  8
0
100
AcDbBlockBegin
  2
*D10
 70
     1
 10
0.0
 20
0.0
 30
0.0
  3
*D10
  1

  0
LINE
  5
805D
330
7D03
100
AcDbEntity
  8
3
 62
     0
440
 16777216
100
AcDbLine
 10
4151.792085150598
 20
3126.996557182951
 30
0.0
 11
4774.835509533513
 21
3126.996557182951
 31
0.0
  0
LINE
  5
805E
330
7D03
100
AcDbEntity
  8
3
 62
     0
440
 16777216
100
AcDbLine
 10
4729.835509533514
 20
4076.99655718295
 30
0.0
 11
4729.835509533514
 21
3216.996557182951
 31
0.0
  0
INSERT
  5
805F
330
7D03
100
AcDbEntity
  8
3
 62
     0
440
 16777216
100
AcDbBlockReference
  2
_OPEN
 10
4729.835509533514
 20
4166.99655718295
 30
0.0
 41
90.0
 42
90.0
 43
90.0
 50
90.0
  0
INSERT
  5
8060
330
7D03
100
AcDbEntity
  8
3
 62
     0
440
 16777216
100
AcDbBlockReference
  2
_OPEN
 10
4729.835509533514
 20
3126.996557182951
 30
0.0
 41
90.0
 42
90.0
 43
90.0
 50
270.0
  0
MTEXT
  5
8061
330
7D03
100
AcDbEntity
  8
3
 62
     0
440
 16777216
100
AcDbMText
 10
4617.335509533512
 20
3646.996557182951
 30
0.0
 40
135.0
 41
0.0
 46
0.0
 71
     5
 72
     5
  1
\A1;1040
 11
0.0000000000000001
 21
1.0
 31
0.0
 73
     1
 44
1.0
  0
POINT
  5
8062
330
7D03
100
AcDbEntity
  8
DEFPOINTS
 62
     0
440
 16777216
100
AcDbPoint
 10
4449.579932482389
 20
4166.99655718295
 30
0.0
  0
POINT
  5
8063
330
7D03
100
AcDbEntity
  8
DEFPOINTS
 62
     0
440
 16777216
100
AcDbPoint
 10
4129.292085150598
 20
3126.996557182951
 30
0.0
  0
POINT
  5
8064
330
7D03
100
AcDbEntity
  8
DEFPOINTS
 62
     0
440
 16777216
100
AcDbPoint
 10
4729.835509533514
 20
3126.996557182951
 30
0.0
  0
ENDBLK
  5
7EB2
330
7D03
100
AcDbEntity
  8
0
100
AcDbBlockEnd
  0
BLOCK
  5
7D5D
330
7D5C
100
AcDbEntity
  8
0
100
AcDbBlockBegin
  2
_DOT
 70
     0
 10
0.0
 20
0.0
 30
0.0
  3
_DOT
  1

  0
LINE
  5
7E31
330
7D5C
100
AcDbEntity
  8
0
  6
ByBlock
 62
     0
100
AcDbLine
 10
0.0
 20
0.0
 30
0.0
 11
-1.0
 21
-0.0000000000000284
 31
0.0
  0
LWPOLYLINE
  5
7E32
330
7D5C
100
AcDbEntity
  8
0
  6
ByBlock
 62
     0
100
AcDbPolyline
 90
        2
 70
     1
 43
0.1666666666666666
 10
-0.0833333333333286
 20
-0.0000000000000284
 42
1.0
 10
0.0833333333333286
 20
-0.0000000000000284
 42
1.0
  0
ENDBLK
  5
7D63
330
7D5C
100
AcDbEntity
  8
0
100
AcDbBlockEnd
  0
BLOCK
  5
7ECA
330
7DBB
100
AcDbEntity
  8
0
100
AcDbBlockBegin
  2
*D12
 70
     1
 10
0.0
 20
0.0
 30
0.0
  3
*D12
  1

  0
LINE
  5
8065
330
7DBB
100
AcDbEntity
  8
3
 62
     0
440
 16777216
100
AcDbLine
 10
2072.292085150599
 20
4291.49655718295
 30
0.0
 11
2072.292085150599
 21
5963.772537330951
 31
0.0
  0
LINE
  5
8066
330
7DBB
100
AcDbEntity
  8
3
 62
     0
440
 16777216
100
AcDbLine
 10
3189.292085150599
 20
5918.772537330951
 30
0.0
 11
2162.292085150599
 21
5918.772537330951
 31
0.0
  0
INSERT
  5
8067
330
7DBB
100
AcDbEntity
  8
3
 62
     0
440
 16777216
100
AcDbBlockReference
  2
_OPEN
 10
3279.292085150599
 20
5918.772537330951
 30
0.0
 41
90.0
 42
90.0
 43
90.0
  0
INSERT
  5
8068
330
7DBB
100
AcDbEntity
  8
3
 62
     0
440
 16777216
100
AcDbBlockReference
  2
_OPEN
 10
2072.292085150599
 20
5918.772537330951
 30
0.0
 41
90.0
 42
90.0
 43
90.0
 50
180.0
  0
MTEXT
  5
8069
330
7DBB
100
AcDbEntity
  8
3
 62
     0
440
 16777216
100
AcDbMText
 10
2675.792085150599
 20
6031.272537330951
 30
0.0
 40
135.0
 41
0.0
 46
0.0
 71
     5
 72
     5
  1
\A1;1207
 73
     1
 44
1.0
  0
POINT
  5
806A
330
7DBB
100
AcDbEntity
  8
DEFPOINTS
 62
     0
440
 16777216
100
AcDbPoint
 10
3279.292085150599
 20
5723.433844594347
 30
0.0
  0
POINT
  5
806B
330
7DBB
100
AcDbEntity
  8
DEFPOINTS
 62
     0
440
 16777216
100
AcDbPoint
 10
2072.292085150599
 20
4268.99655718295
 30
0.0
  0
POINT
  5
806C
330
7DBB
100
AcDbEntity
  8
DEFPOINTS
 62
     0
440
 16777216
100
AcDbPoint
 10
2072.292085150599
 20
5918.772537330951
 30
0.0
  0
ENDBLK
  5
7ED3
330
7DBB
100
AcDbEntity
  8
0
100
AcDbBlockEnd
  0
BLOCK
  5
7E71
330
7DC7
100
AcDbEntity
  8
0
100
AcDbBlockBegin
  2
*D13
 70
     1
 10
0.0
 20
0.0
 30
0.0
  3
*D13
  1

  0
LINE
  5
806D
330
7DC7
100
AcDbEntity
  8
3
 62
     0
440
 16777216
100
AcDbLine
 10
4209.292085150599
 20
5734.49655718295
 30
0.0
 11
4209.292085150599
 21
6231.236040501462
 31
0.0
  0
LINE
  5
806E
330
7DC7
100
AcDbEntity
  8
3
 62
     0
440
 16777216
100
AcDbLine
 10
1229.292085150599
 20
3299.496557182951
 30
0.0
 11
1229.292085150599
 21
6231.236040501462
 31
0.0
  0
LINE
  5
806F
330
7DC7
100
AcDbEntity
  8
3
 62
     0
440
 16777216
100
AcDbLine
 10
4119.292085150599
 20
6186.236040501462
 30
0.0
 11
1319.292085150599
 21
6186.236040501462
 31
0.0
  0
INSERT
  5
8070
330
7DC7
100
AcDbEntity
  8
3
 62
     0
440
 16777216
100
AcDbBlockReference
  2
_OPEN
 10
4209.292085150599
 20
6186.236040501462
 30
0.0
 41
90.0
 42
90.0
 43
90.0
  0
INSERT
  5
8071
330
7DC7
100
AcDbEntity
  8
3
 62
     0
440
 16777216
100
AcDbBlockReference
  2
_OPEN
 10
1229.292085150599
 20
6186.236040501462
 30
0.0
 41
90.0
 42
90.0
 43
90.0
 50
180.0
  0
MTEXT
  5
8072
330
7DC7
100
AcDbEntity
  8
3
 62
     0
440
 16777216
100
AcDbMText
 10
2736.909965185718
 20
6298.736040501463
 30
0.0
 40
135.0
 41
0.0
 46
0.0
 71
     5
 72
     5
  1
\A1;2980
 73
     1
 44
1.0
  0
POINT
  5
8073
330
7DC7
100
AcDbEntity
  8
DEFPOINTS
 62
     0
440
 16777216
100
AcDbPoint
 10
4209.292085150599
 20
5711.996557182951
 30
0.0
  0
POINT
  5
8074
330
7DC7
100
AcDbEntity
  8
DEFPOINTS
 62
     0
440
 16777216
100
AcDbPoint
 10
1229.292085150599
 20
3276.996557182951
 30
0.0
  0
POINT
  5
8075
330
7DC7
100
AcDbEntity
  8
DEFPOINTS
 62
     0
440
 16777216
100
AcDbPoint
 10
1229.292085150599
 20
6186.236040501462
 30
0.0
  0
ENDBLK
  5
7E7B
330
7DC7
100
AcDbEntity
  8
0
100
AcDbBlockEnd
  0
BLOCK
  5
7DEE
330
7DE1
100
AcDbEntity
  8
0
100
AcDbBlockBegin
  2
*D14
 70
     1
 10
0.0
 20
0.0
 30
0.0
  3
*D14
  1

  0
LINE
  5
8076
330
7DE1
100
AcDbEntity
  8
3
 62
     0
440
 16777216
100
AcDbLine
 10
6176.160212244521
 20
5680.496557182951
 30
0.0
 11
6176.160212244521
 21
5917.138140551641
 31
0.0
  0
LINE
  5
8077
330
7DE1
100
AcDbEntity
  8
3
 62
     0
440
 16777216
100
AcDbLine
 10
8076.160212244522
 20
5680.496557182951
 30
0.0
 11
8076.160212244522
 21
5917.138140551641
 31
0.0
  0
LINE
  5
8078
330
7DE1
100
AcDbEntity
  8
3
 62
     0
440
 16777216
100
AcDbLine
 10
6266.160212244521
 20
5872.138140551641
 30
0.0
 11
7986.16021224452
 21
5872.138140551641
 31
0.0
  0
INSERT
  5
8079
330
7DE1
100
AcDbEntity
  8
3
 62
     0
440
 16777216
100
AcDbBlockReference
  2
_OPEN
 10
6176.160212244521
 20
5872.138140551641
 30
0.0
 41
90.0
 42
90.0
 43
90.0
 50
180.0
  0
INSERT
  5
807A
330
7DE1
100
AcDbEntity
  8
3
 62
     0
440
 16777216
100
AcDbBlockReference
  2
_OPEN
 10
8076.160212244522
 20
5872.138140551641
 30
0.0
 41
90.0
 42
90.0
 43
90.0
  0
MTEXT
  5
807B
330
7DE1
100
AcDbEntity
  8
3
 62
     0
440
 16777216
100
AcDbMText
 10
7124.029820553587
 20
5984.63814055164
 30
0.0
 40
135.0
 41
0.0
 46
0.0
 71
     5
 72
     5
  1
\A1;1900
 73
     1
 44
1.0
  0
POINT
  5
807C
330
7DE1
100
AcDbEntity
  8
DEFPOINTS
 62
     0
440
 16777216
100
AcDbPoint
 10
6176.160212244521
 20
5657.996557182951
 30
0.0
  0
POINT
  5
807D
330
7DE1
100
AcDbEntity
  8
DEFPOINTS
 62
     0
440
 16777216
100
AcDbPoint
 10
8076.160212244522
 20
5657.996557182952
 30
0.0
  0
POINT
  5
807E
330
7DE1
100
AcDbEntity
  8
DEFPOINTS
 62
     0
440
 16777216
100
AcDbPoint
 10
8076.160212244522
 20
5872.138140551641
 30
0.0
  0
ENDBLK
  5
7DF8
330
7DE1
100
AcDbEntity
  8
0
100
AcDbBlockEnd
  0
BLOCK
  5
7F09
330
7DF9
100
AcDbEntity
  8
0
100
AcDbBlockBegin
  2
*D15
 70
     1
 10
0.0
 20
0.0
 30
0.0
  3
*D15
  1

  0
LINE
  5
810A
330
7DF9
100
AcDbEntity
  8
3
 62
     0
440
 16777216
370
    -2
100
AcDbLine
 10
8256.360212244521
 20
4119.496557182951
 30
0.0
 11
8256.360212244521
 21
6285.123695632322
 31
0.0
  0
LINE
  5
810B
330
7DF9
100
AcDbEntity
  8
3
 62
     0
440
 16777216
370
    -2
100
AcDbLine
 10
7126.160212244521
 20
6083.890702675977
 30
0.0
 11
7126.160212244521
 21
6285.123695632322
 31
0.0
  0
LINE
  5
810C
330
7DF9
100
AcDbEntity
  8
3
 62
     0
440
 16777216
370
    -2
100
AcDbLine
 10
8166.360212244521
 20
6240.123695632323
 30
0.0
 11
7216.160212244521
 21
6240.123695632323
 31
0.0
  0
INSERT
  5
810D
330
7DF9
100
AcDbEntity
  8
3
 62
     0
440
 16777216
370
    -2
100
AcDbBlockReference
  2
_OPEN
 10
8256.360212244521
 20
6240.123695632323
 30
0.0
 41
90.0
 42
90.0
 43
90.0
  0
INSERT
  5
810E
330
7DF9
100
AcDbEntity
  8
3
 62
     0
440
 16777216
370
    -2
100
AcDbBlockReference
  2
_OPEN
 10
7126.160212244521
 20
6240.123695632323
 30
0.0
 41
90.0
 42
90.0
 43
90.0
 50
180.0
  0
MTEXT
  5
810F
330
7DF9
100
AcDbEntity
  8
3
 62
     0
440
 16777216
100
AcDbMText
 10
7657.036440957061
 20
6387.980838489466
 30
0.0
 40
135.0
 41
0.0
 46
0.0
 71
     5
 72
     1
  1
\A1;(1130)
 73
     1
 44
1.0
  0
POINT
  5
8110
330
7DF9
100
AcDbEntity
  8
DEFPOINTS
 62
     0
440
 16777216
100
AcDbPoint
 10
8256.360212244521
 20
4096.99655718295
 30
0.0
  0
POINT
  5
8111
330
7DF9
100
AcDbEntity
  8
DEFPOINTS
 62
     0
440
 16777216
100
AcDbPoint
 10
7126.160212244521
 20
6061.390702675977
 30
0.0
  0
POINT
  5
8112
330
7DF9
100
AcDbEntity
  8
DEFPOINTS
 62
     0
440
 16777216
100
AcDbPoint
 10
7126.160212244521
 20
6240.123695632323
 30
0.0
  0
ENDBLK
  5
7F13
330
7DF9
100
AcDbEntity
  8
0
100
AcDbBlockEnd
  0
BLOCK
  5
7E42
330
7E06
100
AcDbEntity
  8
0
100
AcDbBlockBegin
  2
*D16
 70
     1
 10
0.0
 20
0.0
 30
0.0
  3
*D16
  1

  0
LINE
  5
8113
330
7E06
100
AcDbEntity
  8
3
 62
     0
440
 16777216
370
    -2
100
AcDbLine
 10
5656.160212244522
 20
4569.49655718295
 30
0.0
 11
5656.160212244522
 21
6285.123695632322
 31
0.0
  0
LINE
  5
8114
330
7E06
100
AcDbEntity
  8
3
 62
     0
440
 16777216
370
    -2
100
AcDbLine
 10
7036.160212244521
 20
6240.123695632323
 30
0.0
 11
5746.160212244522
 21
6240.123695632323
 31
0.0
  0
INSERT
  5
8115
330
7E06
100
AcDbEntity
  8
3
 62
     0
440
 16777216
370
    -2
100
AcDbBlockReference
  2
_OPEN
 10
7126.160212244521
 20
6240.123695632323
 30
0.0
 41
90.0
 42
90.0
 43
90.0
  0
INSERT
  5
8116
330
7E06
100
AcDbEntity
  8
3
 62
     0
440
 16777216
370
    -2
100
AcDbBlockReference
  2
_OPEN
 10
5656.160212244522
 20
6240.123695632323
 30
0.0
 41
90.0
 42
90.0
 43
90.0
 50
180.0
  0
MTEXT
  5
8117
330
7E06
100
AcDbEntity
  8
3
 62
     0
440
 16777216
100
AcDbMText
 10
6391.160212244522
 20
6387.980838489466
 30
0.0
 40
135.0
 41
0.0
 46
0.0
 71
     5
 72
     1
  1
\A1;(1470)
 73
     1
 44
1.0
  0
POINT
  5
8118
330
7E06
100
AcDbEntity
  8
DEFPOINTS
 62
     0
440
 16777216
100
AcDbPoint
 10
7126.160212244521
 20
6061.390702675977
 30
0.0
  0
POINT
  5
8119
330
7E06
100
AcDbEntity
  8
DEFPOINTS
 62
     0
440
 16777216
100
AcDbPoint
 10
5656.160212244522
 20
4546.99655718295
 30
0.0
  0
POINT
  5
811A
330
7E06
100
AcDbEntity
  8
DEFPOINTS
 62
     0
440
 16777216
100
AcDbPoint
 10
5656.160212244522
 20
6240.123695632323
 30
0.0
  0
ENDBLK
  5
7E4B
330
7E06
100
AcDbEntity
  8
0
100
AcDbBlockEnd
  0
BLOCK
  5
7F51
330
7F50
100
AcDbEntity
  8
0
100
AcDbBlockBegin
  2
_NONE
 70
     0
 10
0.0
 20
0.0
 30
0.0
  3
_NONE
  1

  0
CIRCLE
  5
7F52
330
7F50
100
AcDbEntity
  8
0
  6
ByBlock
 62
     0
100
AcDbCircle
 10
0.0
 20
0.0
 30
0.0
 40
0.25
  0
ENDBLK
  5
7F53
330
7F50
100
AcDbEntity
  8
0
100
AcDbBlockEnd
  0
BLOCK
  5
7F85
330
7F84
100
AcDbEntity
  8
0
100
AcDbBlockBegin
  2
*D18
 70
     1
 10
0.0
 20
0.0
 30
0.0
  3
*D18
  1

  0
LINE
  5
7F86
330
7F84
100
AcDbEntity
  8
0
  6
ByBlock
 62
     0
440
 16777216
100
AcDbLine
 10
1229.292085150599
 20
3104.496557182951
 30
0.0
 11
1229.292085150599
 21
2786.10400652498
 31
0.0
  0
LINE
  5
7F87
330
7F84
100
AcDbEntity
  8
0
  6
ByBlock
 62
     0
440
 16777216
100
AcDbLine
 10
3279.292085150599
 20
3104.496557182951
 30
0.0
 11
3279.292085150599
 21
2786.10400652498
 31
0.0
  0
LINE
  5
7F88
330
7F84
100
AcDbEntity
  8
0
  6
ByBlock
 62
     0
440
 16777216
100
AcDbLine
 10
1319.292085150599
 20
2831.10400652498
 30
0.0
 11
3189.292085150599
 21
2831.10400652498
 31
0.0
  0
INSERT
  5
7F89
330
7F84
100
AcDbEntity
  8
0
  6
ByBlock
 62
     0
440
 16777216
100
AcDbBlockReference
  2
_OPEN
 10
1229.292085150599
 20
2831.10400652498
 30
0.0
 41
90.0
 42
90.0
 43
90.0
 50
180.0
  0
INSERT
  5
7F8A
330
7F84
100
AcDbEntity
  8
0
  6
ByBlock
 62
     0
440
 16777216
100
AcDbBlockReference
  2
_OPEN
 10
3279.292085150599
 20
2831.10400652498
 30
0.0
 41
90.0
 42
90.0
 43
90.0
  0
MTEXT
  5
7F8B
330
7F84
100
AcDbEntity
  8
0
  6
ByBlock
 62
     0
440
 16777216
100
AcDbMText
 10
2254.292085150598
 20
2943.60400652498
 30
0.0
 40
135.0
 41
0.0
 46
0.0
 71
     5
 72
     5
  1
\A1;2050
 73
     1
 44
1.0
  0
POINT
  5
7F8C
330
7F84
100
AcDbEntity
  8
DEFPOINTS
  6
ByBlock
 62
     0
440
 16777216
100
AcDbPoint
 10
1229.292085150599
 20
3126.996557182951
 30
0.0
  0
POINT
  5
7F8D
330
7F84
100
AcDbEntity
  8
DEFPOINTS
  6
ByBlock
 62
     0
440
 16777216
100
AcDbPoint
 10
3279.292085150599
 20
3126.996557182951
 30
0.0
  0
POINT
  5
7F8E
330
7F84
100
AcDbEntity
  8
DEFPOINTS
  6
ByBlock
 62
     0
440
 16777216
100
AcDbPoint
 10
3279.292085150599
 20
2831.10400652498
 30
0.0
  0
ENDBLK
  5
7F8F
330
7F84
100
AcDbEntity
  8
0
100
AcDbBlockEnd
  0
BLOCK
  5
7F92
330
7F91
100
AcDbEntity
  8
0
100
AcDbBlockBegin
  2
*D19
 70
     1
 10
0.0
 20
0.0
 30
0.0
  3
*D19
  1

  0
LINE
  5
7F93
330
7F91
100
AcDbEntity
  8
0
  6
ByBlock
 62
     0
440
 16777216
100
AcDbLine
 10
3279.292085150599
 20
3104.496557182951
 30
0.0
 11
3279.292085150599
 21
2786.10400652498
 31
0.0
  0
LINE
  5
7F94
330
7F91
100
AcDbEntity
  8
0
  6
ByBlock
 62
     0
440
 16777216
100
AcDbLine
 10
4129.292085150598
 20
3104.496557182951
 30
0.0
 11
4129.292085150598
 21
2786.10400652498
 31
0.0
  0
LINE
  5
7F95
330
7F91
100
AcDbEntity
  8
0
  6
ByBlock
 62
     0
440
 16777216
100
AcDbLine
 10
3369.292085150599
 20
2831.10400652498
 30
0.0
 11
4039.292085150599
 21
2831.10400652498
 31
0.0
  0
INSERT
  5
7F96
330
7F91
100
AcDbEntity
  8
0
  6
ByBlock
 62
     0
440
 16777216
100
AcDbBlockReference
  2
_OPEN
 10
3279.292085150599
 20
2831.10400652498
 30
0.0
 41
90.0
 42
90.0
 43
90.0
 50
180.0
  0
INSERT
  5
7F97
330
7F91
100
AcDbEntity
  8
0
  6
ByBlock
 62
     0
440
 16777216
100
AcDbBlockReference
  2
_OPEN
 10
4129.292085150598
 20
2831.10400652498
 30
0.0
 41
90.0
 42
90.0
 43
90.0
  0
MTEXT
  5
7F98
330
7F91
100
AcDbEntity
  8
0
  6
ByBlock
 62
     0
440
 16777216
100
AcDbMText
 10
3704.292085150599
 20
2943.60400652498
 30
0.0
 40
135.0
 41
0.0
 46
0.0
 71
     5
 72
     5
  1
\A1;850
 73
     1
 44
1.0
  0
POINT
  5
7F99
330
7F91
100
AcDbEntity
  8
DEFPOINTS
  6
ByBlock
 62
     0
440
 16777216
100
AcDbPoint
 10
3279.292085150599
 20
3126.996557182951
 30
0.0
  0
POINT
  5
7F9A
330
7F91
100
AcDbEntity
  8
DEFPOINTS
  6
ByBlock
 62
     0
440
 16777216
100
AcDbPoint
 10
4129.292085150598
 20
3126.996557182951
 30
0.0
  0
POINT
  5
7F9B
330
7F91
100
AcDbEntity
  8
DEFPOINTS
  6
ByBlock
 62
     0
440
 16777216
100
AcDbPoint
 10
4129.292085150598
 20
2831.10400652498
 30
0.0
  0
ENDBLK
  5
7F9C
330
7F91
100
AcDbEntity
  8
0
100
AcDbBlockEnd
  0
BLOCK
  5
7F9F
330
7F9E
100
AcDbEntity
  8
0
100
AcDbBlockBegin
  2
*D20
 70
     1
 10
0.0
 20
0.0
 30
0.0
  3
*D20
  1

  0
LINE
  5
7FA0
330
7F9E
100
AcDbEntity
  8
0
  6
ByBlock
 62
     0
440
 16777216
100
AcDbLine
 10
5795.160212244522
 20
3104.496557182951
 30
0.0
 11
5795.160212244522
 21
2786.10400652498
 31
0.0
  0
LINE
  5
7FA1
330
7F9E
100
AcDbEntity
  8
0
  6
ByBlock
 62
     0
440
 16777216
100
AcDbLine
 10
7126.16021224452
 20
3104.496557182951
 30
0.0
 11
7126.16021224452
 21
2786.10400652498
 31
0.0
  0
LINE
  5
7FA2
330
7F9E
100
AcDbEntity
  8
0
  6
ByBlock
 62
     0
440
 16777216
100
AcDbLine
 10
5885.160212244522
 20
2831.10400652498
 30
0.0
 11
7036.160212244521
 21
2831.10400652498
 31
0.0
  0
INSERT
  5
7FA3
330
7F9E
100
AcDbEntity
  8
0
  6
ByBlock
 62
     0
440
 16777216
100
AcDbBlockReference
  2
_OPEN
 10
5795.160212244522
 20
2831.10400652498
 30
0.0
 41
90.0
 42
90.0
 43
90.0
 50
180.0
  0
INSERT
  5
7FA4
330
7F9E
100
AcDbEntity
  8
0
  6
ByBlock
 62
     0
440
 16777216
100
AcDbBlockReference
  2
_OPEN
 10
7126.16021224452
 20
2831.10400652498
 30
0.0
 41
90.0
 42
90.0
 43
90.0
  0
MTEXT
  5
7FA5
330
7F9E
100
AcDbEntity
  8
0
  6
ByBlock
 62
     0
440
 16777216
100
AcDbMText
 10
6460.660212244521
 20
2943.60400652498
 30
0.0
 40
135.0
 41
0.0
 46
0.0
 71
     5
 72
     5
  1
\A1;1331
 73
     1
 44
1.0
  0
POINT
  5
7FA6
330
7F9E
100
AcDbEntity
  8
DEFPOINTS
  6
ByBlock
 62
     0
440
 16777216
100
AcDbPoint
 10
5795.160212244522
 20
3126.996557182951
 30
0.0
  0
POINT
  5
7FA7
330
7F9E
100
AcDbEntity
  8
DEFPOINTS
  6
ByBlock
 62
     0
440
 16777216
100
AcDbPoint
 10
7126.16021224452
 20
3126.996557182951
 30
0.0
  0
POINT
  5
7FA8
330
7F9E
100
AcDbEntity
  8
DEFPOINTS
  6
ByBlock
 62
     0
440
 16777216
100
AcDbPoint
 10
7126.16021224452
 20
2831.10400652498
 30
0.0
  0
ENDBLK
  5
7FA9
330
7F9E
100
AcDbEntity
  8
0
100
AcDbBlockEnd
  0
BLOCK
  5
7FAC
330
7FAB
100
AcDbEntity
  8
0
100
AcDbBlockBegin
  2
*D21
 70
     1
 10
0.0
 20
0.0
 30
0.0
  3
*D21
  1

  0
LINE
  5
7FAD
330
7FAB
100
AcDbEntity
  8
0
  6
ByBlock
 62
     0
440
 16777216
100
AcDbLine
 10
7126.16021224452
 20
3104.496557182951
 30
0.0
 11
7126.16021224452
 21
2786.10400652498
 31
0.0
  0
LINE
  5
7FAE
330
7FAB
100
AcDbEntity
  8
0
  6
ByBlock
 62
     0
440
 16777216
100
AcDbLine
 10
8155.160212244522
 20
3104.496557182951
 30
0.0
 11
8155.160212244522
 21
2786.10400652498
 31
0.0
  0
LINE
  5
7FAF
330
7FAB
100
AcDbEntity
  8
0
  6
ByBlock
 62
     0
440
 16777216
100
AcDbLine
 10
7216.16021224452
 20
2831.10400652498
 30
0.0
 11
8065.160212244522
 21
2831.10400652498
 31
0.0
  0
INSERT
  5
7FB0
330
7FAB
100
AcDbEntity
  8
0
  6
ByBlock
 62
     0
440
 16777216
100
AcDbBlockReference
  2
_OPEN
 10
7126.16021224452
 20
2831.10400652498
 30
0.0
 41
90.0
 42
90.0
 43
90.0
 50
180.0
  0
INSERT
  5
7FB1
330
7FAB
100
AcDbEntity
  8
0
  6
ByBlock
 62
     0
440
 16777216
100
AcDbBlockReference
  2
_OPEN
 10
8155.160212244522
 20
2831.10400652498
 30
0.0
 41
90.0
 42
90.0
 43
90.0
  0
MTEXT
  5
7FB2
330
7FAB
100
AcDbEntity
  8
0
  6
ByBlock
 62
     0
440
 16777216
100
AcDbMText
 10
7640.660212244521
 20
2943.60400652498
 30
0.0
 40
135.0
 41
0.0
 46
0.0
 71
     5
 72
     5
  1
\A1;1029
 73
     1
 44
1.0
  0
POINT
  5
7FB3
330
7FAB
100
AcDbEntity
  8
DEFPOINTS
  6
ByBlock
 62
     0
440
 16777216
100
AcDbPoint
 10
7126.16021224452
 20
3126.996557182951
 30
0.0
  0
POINT
  5
7FB4
330
7FAB
100
AcDbEntity
  8
DEFPOINTS
  6
ByBlock
 62
     0
440
 16777216
100
AcDbPoint
 10
8155.160212244522
 20
3126.996557182951
 30
0.0
  0
POINT
  5
7FB5
330
7FAB
100
AcDbEntity
  8
DEFPOINTS
  6
ByBlock
 62
     0
440
 16777216
100
AcDbPoint
 10
8155.160212244522
 20
2831.10400652498
 30
0.0
  0
ENDBLK
  5
7FB6
330
7FAB
100
AcDbEntity
  8
0
100
AcDbBlockEnd
  0
BLOCK
  5
7FBA
330
7FB9
100
AcDbEntity
  8
0
100
AcDbBlockBegin
  2
*D22
 70
     1
 10
0.0
 20
0.0
 30
0.0
  3
*D22
  1

  0
LINE
  5
7FBB
330
7FB9
100
AcDbEntity
  8
0
  6
ByBlock
 62
     0
440
 16777216
100
AcDbLine
 10
4231.792085150599
 20
5657.996557182951
 30
0.0
 11
5087.256358891289
 21
5657.996557182951
 31
0.0
  0
LINE
  5
7FBC
330
7FB9
100
AcDbEntity
  8
0
  6
ByBlock
 62
     0
440
 16777216
100
AcDbLine
 10
4151.792085150598
 20
3126.996557182951
 30
0.0
 11
5087.256358891289
 21
3126.996557182951
 31
0.0
  0
LINE
  5
7FBD
330
7FB9
100
AcDbEntity
  8
0
  6
ByBlock
 62
     0
440
 16777216
100
AcDbLine
 10
5042.25635889129
 20
5567.996557182951
 30
0.0
 11
5042.25635889129
 21
3216.996557182951
 31
0.0
  0
INSERT
  5
7FBE
330
7FB9
100
AcDbEntity
  8
0
  6
ByBlock
 62
     0
440
 16777216
100
AcDbBlockReference
  2
_OPEN
 10
5042.25635889129
 20
5657.996557182951
 30
0.0
 41
90.0
 42
90.0
 43
90.0
 50
90.0
  0
INSERT
  5
7FBF
330
7FB9
100
AcDbEntity
  8
0
  6
ByBlock
 62
     0
440
 16777216
100
AcDbBlockReference
  2
_OPEN
 10
5042.25635889129
 20
3126.996557182951
 30
0.0
 41
90.0
 42
90.0
 43
90.0
 50
270.0
  0
MTEXT
  5
7FC0
330
7FB9
100
AcDbEntity
  8
0
  6
ByBlock
 62
     0
440
 16777216
100
AcDbMText
 10
4929.756358891289
 20
4392.49655718295
 30
0.0
 40
135.0
 41
0.0
 46
0.0
 71
     5
 72
     5
  1
\A1;2531
 11
0.0
 21
1.0
 31
0.0
 73
     1
 44
1.0
  0
POINT
  5
7FC1
330
7FB9
100
AcDbEntity
  8
DEFPOINTS
  6
ByBlock
 62
     0
440
 16777216
100
AcDbPoint
 10
4209.292085150599
 20
5657.996557182951
 30
0.0
  0
POINT
  5
7FC2
330
7FB9
100
AcDbEntity
  8
DEFPOINTS
  6
ByBlock
 62
     0
440
 16777216
100
AcDbPoint
 10
4129.292085150598
 20
3126.996557182951
 30
0.0
  0
POINT
  5
7FC3
330
7FB9
100
AcDbEntity
  8
DEFPOINTS
  6
ByBlock
 62
     0
440
 16777216
100
AcDbPoint
 10
5042.25635889129
 20
3126.996557182951
 30
0.0
  0
ENDBLK
  5
7FC4
330
7FB9
100
AcDbEntity
  8
0
100
AcDbBlockEnd
  0
ENDSEC
  0
SECTION
  2
ENTITIES
  0
CIRCLE
  5
7AD3
330
19
100
AcDbEntity
  8
1
100
AcDbCircle
 10
3279.292085150599
 20
4166.99655718295
 30
0.0
 40
225.0
  0
ARC
  5
7AD4
330
19
100
AcDbEntity
  8
1
100
AcDbCircle
 10
3279.292085150599
 20
4166.99655718295
 30
0.0
 40
380.0
100
AcDbArc
 50
292.4131951629104
 51
120.9943680510207
  0
LINE
  5
7AD6
330
19
100
AcDbEntity
  8
2
100
AcDbLine
 10
3279.292085150599
 20
5723.433844594347
 30
0.0
 11
3279.292085150599
 21
3126.996557182951
 31
0.0
  0
LINE
  5
7AD7
330
19
100
AcDbEntity
  8
1
100
AcDbLine
 10
3083.609634971952
 20
4492.739367835897
 30
0.0
 11
1504.767457445972
 21
3744.286491395166
 31
0.0
  0
LINE
  5
7AD8
330
19
100
AcDbEntity
  8
1
100
AcDbLine
 10
3168.242490544772
 20
4362.682498266825
 30
0.0
 11
1563.896212771611
 21
3652.23383359901
 31
0.0
  0
ARC
  5
7AD9
330
19
100
AcDbEntity
  8
1
100
AcDbCircle
 10
3381.292085150599
 20
4268.99655718295
 30
0.0
 40
1309.0
100
AcDbArc
 50
94.46913665552111
 51
180.0
  0
CIRCLE
  5
7ADA
330
19
100
AcDbEntity
  8
1
100
AcDbCircle
 10
3279.292085150599
 20
4166.99655718295
 30
0.0
 40
750.0
  0
CIRCLE
  5
7ADB
330
19
100
AcDbEntity
  8
1
100
AcDbCircle
 10
3279.292085150599
 20
4166.99655718295
 30
0.0
 40
700.0
  0
ARC
  5
7ADC
330
19
100
AcDbEntity
  8
1
100
AcDbCircle
 10
3177.292085150599
 20
4268.99655718295
 30
0.0
 40
1105.0
100
AcDbArc
 50
180.0
 51
243.8622545268918
  0
LINE
  5
7ADF
330
19
100
AcDbEntity
  8
1
100
AcDbLine
 10
4129.292085150598
 20
3276.996557182951
 30
0.0
 11
1229.292085150599
 21
3276.996557182951
 31
0.0
  0
LINE
  5
7AE0
330
19
100
AcDbEntity
  8
1
100
AcDbLine
 10
4129.292085150598
 20
3126.996557182951
 30
0.0
 11
1229.292085150599
 21
3126.996557182951
 31
0.0
  0
LINE
  5
7AE2
330
19
100
AcDbEntity
  8
1
100
AcDbLine
 10
4129.292085150598
 20
3276.996557182951
 30
0.0
 11
4129.292085150598
 21
3126.996557182951
 31
0.0
  0
LINE
  5
7AE4
330
19
100
AcDbEntity
  8
2
100
AcDbLine
 10
1629.292085150598
 20
3818.342748182951
 30
0.0
 11
1629.292085150598
 21
3126.996557182951
 31
0.0
  0
LINE
  5
7AE7
330
19
100
AcDbEntity
  8
2
100
AcDbLine
 10
1885.799166883757
 20
3536.996557182951
 30
0.0
 11
1361.160759211722
 21
3536.996557182951
 31
0.0
  0
LINE
  5
7AE8
330
19
100
AcDbEntity
  8
1
100
AcDbLine
 10
1879.248282063281
 20
3336.996557182951
 30
0.0
 11
1728.687638125039
 21
3336.996557182951
 31
0.0
  0
ARC
  5
7AE9
330
19
100
AcDbEntity
  8
1
100
AcDbCircle
 10
1629.292085150598
 20
3536.996557182951
 30
0.0
 40
203.5
100
AcDbArc
 50
285.6036990000001
 51
254.39624
  0
LINE
  5
7AEA
330
19
100
AcDbEntity
  8
1
100
AcDbLine
 10
3424.179734706535
 20
3815.702422580399
 30
0.0
 11
1721.49289622732
 21
3313.446763697304
 31
0.0
  0
LINE
  5
7AEB
330
19
100
AcDbEntity
  8
1
100
AcDbLine
 10
1682.83193800681
 20
3415.795343673617
 30
0.0
 11
3370.208816415863
 21
3961.183175752005
 31
0.0
  0
LINE
  5
7AEE
330
19
100
AcDbEntity
  8
1
100
AcDbLine
 10
1889.292085150598
 20
3276.996557182951
 30
0.0
 11
1879.248282063281
 21
3336.996557182951
 31
0.0
  0
ARC
  5
7AF6
330
19
100
AcDbEntity
  8
1
100
AcDbCircle
 10
1629.292085150598
 20
3536.996557182951
 30
0.0
 40
241.8170790715176
100
AcDbArc
 50
120.9943680510208
 51
292.4131951629103
  0
LINE
  5
7AF7
330
19
100
AcDbEntity
  8
1
100
AcDbLine
 10
1440.292085150599
 20
3411.323217182952
 30
0.0
 11
1440.292085150599
 21
3336.996557182951
 31
0.0
  0
LINE
  5
7AF8
330
19
100
AcDbEntity
  8
1
100
AcDbLine
 10
1818.292085150599
 20
3411.323217182952
 30
0.0
 11
1818.292085150599
 21
3336.996557182951
 31
0.0
  0
LINE
  5
7AFA
330
19
100
AcDbEntity
  8
1
100
AcDbLine
 10
1574.554048150599
 20
3340.996557182951
 30
0.0
 11
1684.030122150598
 21
3340.996557182951
 31
0.0
  0
LINE
  5
7AFB
330
19
100
AcDbEntity
  8
1
100
AcDbLine
 10
1629.292085150598
 20
3327.147917791815
 30
0.0
 11
1529.896532176159
 21
3327.147917791815
 31
0.0
  0
LINE
  5
7AFC
330
19
100
AcDbEntity
  8
1
100
AcDbLine
 10
1733.394655150598
 20
3362.139745182951
 30
0.0
 11
1740.131850732889
 21
3336.996557182951
 31
0.0
  0
LINE
  5
7AFD
330
19
100
AcDbEntity
  8
1
100
AcDbLine
 10
1728.687638125039
 20
3336.996557182951
 30
0.0
 11
1728.687638125039
 21
3327.147917791815
 31
0.0
  0
LINE
  5
7AFF
330
19
100
AcDbEntity
  8
1
100
AcDbLine
 10
1818.292085150599
 20
3336.996557182951
 30
0.0
 11
1738.792085150599
 21
3336.996557182951
 31
0.0
  0
LINE
  5
7B00
330
19
100
AcDbEntity
  8
1
100
AcDbLine
 10
1629.292085150598
 20
3327.147917791815
 30
0.0
 11
1728.687638125039
 21
3327.147917791815
 31
0.0
  0
LINE
  5
7B04
330
19
100
AcDbEntity
  8
1
100
AcDbLine
 10
1369.292085150599
 20
3276.996557182951
 30
0.0
 11
1379.335888237916
 21
3336.996557182951
 31
0.0
  0
LINE
  5
7B06
330
19
100
AcDbEntity
  8
1
100
AcDbLine
 10
1525.189302150598
 20
3362.13986718295
 30
0.0
 11
1518.452380553886
 21
3336.996557182951
 31
0.0
  0
LINE
  5
7B07
330
19
100
AcDbEntity
  8
1
100
AcDbLine
 10
1529.896532176159
 20
3336.996557182951
 30
0.0
 11
1529.896532176159
 21
3327.147917791815
 31
0.0
  0
LINE
  5
7B08
330
19
100
AcDbEntity
  8
1
100
AcDbLine
 10
1440.292085150599
 20
3336.996557182951
 30
0.0
 11
1519.792085150599
 21
3336.996557182951
 31
0.0
  0
LINE
  5
7B09
330
19
100
AcDbEntity
  8
1
100
AcDbLine
 10
1440.292085150599
 20
3336.996557182951
 30
0.0
 11
1520.292085150599
 21
3336.996557182951
 31
0.0
  0
LINE
  5
7B0B
330
19
100
AcDbEntity
  8
1
100
AcDbLine
 10
1379.335888237916
 20
3336.996557182951
 30
0.0
 11
1529.896532176159
 21
3336.996557182951
 31
0.0
  0
LINE
  5
7B0C
330
19
100
AcDbEntity
  8
1
100
AcDbLine
 10
1229.292085150599
 20
3276.996557182951
 30
0.0
 11
1229.292085150599
 21
3126.996557182951
 31
0.0
  0
POINT
  5
7B0D
330
19
100
AcDbEntity
  8
1
100
AcDbPoint
 10
1229.292085150599
 20
3126.996557182951
 30
0.0
  0
POINT
  5
7B0E
330
19
100
AcDbEntity
  8
1
100
AcDbPoint
 10
1229.292085150599
 20
3126.996557182951
 30
0.0
  0
CIRCLE
  5
7B17
330
19
100
AcDbEntity
  8
1
100
AcDbCircle
 10
1629.292085150598
 20
3536.996557182951
 30
0.0
 40
132.5
  0
ARC
  5
7B18
330
19
100
AcDbEntity
  8
1
100
AcDbCircle
 10
1813.292085150598
 20
3411.323217182952
 30
0.0
 40
5.000066999999999
100
AcDbArc
 50
0.0
 51
55.056335
  0
LINE
  5
7B19
330
19
100
AcDbEntity
  8
1
100
AcDbLine
 10
1816.155855150599
 20
3415.421850182951
 30
0.0
 11
1800.217988150598
 21
3426.558080182951
 31
0.0
  0
ARC
  5
7B1A
330
19
100
AcDbEntity
  8
1
100
AcDbCircle
 10
1445.292085150598
 20
3411.323217182952
 30
0.0
 40
5.0
100
AcDbArc
 50
124.943661
 51
180.0
  0
LINE
  5
7B1C
330
19
100
AcDbEntity
  8
1
100
AcDbLine
 10
1442.428193150599
 20
3415.421850182951
 30
0.0
 11
1458.366060150598
 21
3426.558080182951
 31
0.0
  0
ARC
  5
7B1D
330
19
100
AcDbEntity
  8
1
100
AcDbCircle
 10
3193.792085150599
 20
4081.49655718295
 30
0.0
 40
917.5
100
AcDbArc
 50
298.7365982716541
 51
5.347037803486264
  0
LINE
  5
7B1E
330
19
100
AcDbEntity
  8
2
100
AcDbLine
 10
4449.579932482389
 20
4166.99655718295
 30
0.0
 11
1798.788256205858
 21
4166.99655718295
 31
0.0
  0
LINE
  5
7B1F
330
19
100
AcDbEntity
  8
1
100
AcDbLine
 10
4209.292085150599
 20
5657.996557182951
 30
0.0
 11
3279.292085150599
 21
5574.110410480661
 31
0.0
  0
LINE
  5
7B20
330
19
100
AcDbEntity
  8
1
100
AcDbLine
 10
4159.292085150599
 20
4207.99655718295
 30
0.0
 11
4159.292085150599
 21
5653.486549295731
 31
0.0
  0
LINE
  5
7B21
330
19
100
AcDbEntity
  8
1
100
AcDbLine
 10
4203.292085150598
 20
4153.99655718295
 30
0.0
 11
4203.292085150598
 21
5711.996557182951
 31
0.0
  0
LINE
  5
7B22
330
19
100
AcDbEntity
  8
1
100
AcDbLine
 10
4209.292085150599
 20
4153.99655718295
 30
0.0
 11
4209.292085150599
 21
5711.996557182951
 31
0.0
  0
LINE
  5
7B23
330
19
100
AcDbEntity
  8
1
100
AcDbLine
 10
4209.292085150599
 20
4207.99655718295
 30
0.0
 11
4100.195829873976
 21
4207.99655718295
 31
0.0
  0
ARC
  5
7B24
330
19
100
AcDbEntity
  8
1
100
AcDbCircle
 10
3364.4920851506
 20
4081.49655718295
 30
0.0
 40
746.4999999999999
100
AcDbArc
 50
6.576776130256077
 51
9.756276618116617
  0
LINE
  5
7B25
330
19
100
AcDbEntity
  8
1
100
AcDbLine
 10
4209.292085150599
 20
4153.99655718295
 30
0.0
 11
4203.292085150598
 21
4153.996557182952
 31
0.0
  0
LINE
  5
7B26
330
19
100
AcDbEntity
  8
1
100
AcDbLine
 10
4209.292085150599
 20
5711.996557182951
 30
0.0
 11
4203.292085150598
 21
5711.996557182951
 31
0.0
  0
LINE
  5
7B28
330
19
100
AcDbEntity
  8
2
100
AcDbLine
 10
7126.160212244521
 20
5841.114832004405
 30
0.0
 11
7126.16021224452
 21
3126.996557182951
 31
0.0
  0
LINE
  5
7B29
330
19
100
AcDbEntity
  8
1
100
AcDbLine
 10
5907.160212244522
 20
4086.996557182951
 30
0.0
 11
5907.160212244522
 21
4246.99655718295
 31
0.0
  0
LINE
  5
7B2B
330
19
100
AcDbEntity
  8
1
100
AcDbLine
 10
5656.160212244522
 20
3296.99655718295
 30
0.0
 11
5656.160212244522
 21
4546.99655718295
 31
0.0
  0
LINE
  5
7B2C
330
19
100
AcDbEntity
  8
1
100
AcDbLine
 10
5892.560212244521
 20
3404.496557182951
 30
0.0
 11
5892.560212244521
 21
4391.996557182951
 31
0.0
  0
LINE
  5
7B2D
330
19
100
AcDbEntity
  8
1
100
AcDbLine
 10
5807.160212244522
 20
3404.496557182951
 30
0.0
 11
5807.160212244522
 21
4391.996557182951
 31
0.0
  0
LINE
  5
7B31
330
19
100
AcDbEntity
  8
1
100
AcDbLine
 10
8155.160212244522
 20
3126.996557182951
 30
0.0
 11
5795.160212244522
 21
3126.996557182951
 31
0.0
  0
LINE
  5
7B32
330
19
100
AcDbEntity
  8
1
100
AcDbLine
 10
8081.160212244521
 20
3276.996557182951
 30
0.0
 11
5795.160212244522
 21
3276.996557182951
 31
0.0
  0
LINE
  5
7B34
330
19
100
AcDbEntity
  8
1
100
AcDbLine
 10
5993.528239267252
 20
3737.392175775477
 30
0.0
 11
5993.528239267252
 21
3537.392175775476
 31
0.0
  0
LINE
  5
7B36
330
19
100
AcDbEntity
  8
1
100
AcDbLine
 10
5983.528239267252
 20
3567.392175775476
 30
0.0
 11
5843.528239267253
 21
3567.392175775476
 31
0.0
  0
LINE
  5
7B37
330
19
100
AcDbEntity
  8
1
100
AcDbLine
 10
5983.528239267252
 20
3507.392175775476
 30
0.0
 11
5843.528239267253
 21
3507.392175775476
 31
0.0
  0
LINE
  5
7B3A
330
19
100
AcDbEntity
  8
2
100
AcDbLine
 10
5656.160212244522
 20
3537.392175775476
 30
0.0
 11
6176.16021224452
 21
3537.392175775476
 31
0.0
  0
LINE
  5
7B3B
330
19
100
AcDbEntity
  8
1
100
AcDbLine
 10
5942.560212244522
 20
3296.99655718295
 30
0.0
 11
5656.160212244522
 21
3296.99655718295
 31
0.0
  0
LINE
  5
7B3C
330
19
100
AcDbEntity
  8
1
100
AcDbLine
 10
5795.160212244521
 20
3276.996557182951
 30
0.0
 11
5795.160212244522
 21
3126.996557182951
 31
0.0
  0
LINE
  5
7B3D
330
19
100
AcDbEntity
  8
1
100
AcDbLine
 10
5843.528239267253
 20
3507.392175775476
 30
0.0
 11
5843.528239267253
 21
3567.392175775476
 31
0.0
  0
LINE
  5
7B3E
330
19
100
AcDbEntity
  8
1
100
AcDbLine
 10
5892.560212244521
 20
3404.496557182951
 30
0.0
 11
5807.160212244522
 21
3404.496557182951
 31
0.0
  0
LINE
  5
7B3F
330
19
100
AcDbEntity
  8
1
100
AcDbLine
 10
5892.560212244521
 20
3669.496557182951
 30
0.0
 11
5807.160212244522
 21
3669.496557182951
 31
0.0
  0
LINE
  5
7B40
330
19
100
AcDbEntity
  8
1
100
AcDbLine
 10
5993.528239267252
 20
3327.392175775476
 30
0.0
 11
5993.528239267252
 21
3537.392175775476
 31
0.0
  0
LINE
  5
7B41
330
19
100
AcDbEntity
  8
1
100
AcDbLine
 10
5942.560212244522
 20
3296.99655718295
 30
0.0
 11
5942.560212244522
 21
3473.317850130752
 31
0.0
  0
LINE
  5
7B43
330
19
100
AcDbEntity
  8
1
100
AcDbLine
 10
5993.528239267252
 20
3327.392175775476
 30
0.0
 11
6176.160212244523
 21
3327.392175775476
 31
0.0
  0
LINE
  5
7B44
330
19
100
AcDbEntity
  8
1
100
AcDbLine
 10
6176.160212244521
 20
3327.392175775476
 30
0.0
 11
6176.160212244521
 21
3276.996557182951
 31
0.0
  0
LINE
  5
7B45
330
19
100
AcDbEntity
  8
1
100
AcDbLine
 10
5983.528239267252
 20
3569.892175775476
 30
0.0
 11
5983.528239267252
 21
3504.892175775476
 31
0.0
  0
LINE
  5
7B46
330
19
100
AcDbEntity
  8
1
100
AcDbLine
 10
5983.528239267252
 20
3504.892175775476
 30
0.0
 11
5993.528239267252
 21
3504.892175775476
 31
0.0
  0
LINE
  5
7B48
330
19
100
AcDbEntity
  8
1
100
AcDbLine
 10
5983.528239267252
 20
3569.892175775476
 30
0.0
 11
5993.528239267252
 21
3569.892175775476
 31
0.0
  0
LINE
  5
7B49
330
19
100
AcDbEntity
  8
1
100
AcDbLine
 10
5907.160212244522
 20
4086.996557182951
 30
0.0
 11
5892.560212244521
 21
4086.996557182951
 31
0.0
  0
LINE
  5
7B4A
330
19
100
AcDbEntity
  8
1
100
AcDbLine
 10
5892.560212244521
 20
3941.996557182951
 30
0.0
 11
5807.160212244522
 21
3941.996557182951
 31
0.0
  0
LINE
  5
7B4B
330
19
100
AcDbEntity
  8
1
100
AcDbLine
 10
6176.160212244523
 20
3737.392175775476
 30
0.0
 11
5993.528239267252
 21
3737.392175775477
 31
0.0
  0
LINE
  5
7B4C
330
19
100
AcDbEntity
  8
1
100
AcDbLine
 10
5972.960212244522
 20
4096.99655718295
 30
0.0
 11
5972.960212244522
 21
3926.996557182951
 31
0.0
  0
LINE
  5
7B4D
330
19
100
AcDbEntity
  8
1
100
AcDbLine
 10
6016.360212244522
 20
3926.996557182951
 30
0.0
 11
6176.160212244521
 21
3926.996557182951
 31
0.0
  0
LINE
  5
7B4E
330
19
100
AcDbEntity
  8
1
100
AcDbLine
 10
6097.960212244522
 20
3926.996557182951
 30
0.0
 11
5972.960212244522
 21
3926.996557182951
 31
0.0
  0
LINE
  5
7B4F
330
19
100
AcDbEntity
  8
1
100
AcDbLine
 10
6016.360212244522
 20
4096.99655718295
 30
0.0
 11
6176.160212244521
 21
4096.99655718295
 31
0.0
  0
LINE
  5
7B50
330
19
100
AcDbEntity
  8
1
100
AcDbLine
 10
6097.960212244522
 20
4096.99655718295
 30
0.0
 11
5972.960212244522
 21
4096.99655718295
 31
0.0
  0
LINE
  5
7B51
330
19
100
AcDbEntity
  8
1
100
AcDbLine
 10
8155.160212244522
 20
3276.996557182951
 30
0.0
 11
8155.160212244522
 21
3126.996557182951
 31
0.0
  0
LINE
  5
7B52
330
19
100
AcDbEntity
  8
1
100
AcDbLine
 10
8081.160212244522
 20
3276.996557182951
 30
0.0
 11
8155.160212244522
 21
3276.996557182951
 31
0.0
  0
LINE
  5
7B53
330
19
100
AcDbEntity
  8
1
100
AcDbLine
 10
8256.360212244521
 20
4096.99655718295
 30
0.0
 11
8256.360212244523
 21
3926.996557182951
 31
0.0
  0
LINE
  5
7B54
330
19
100
AcDbEntity
  8
1
100
AcDbLine
 10
8154.360212244522
 20
3926.996557182951
 30
0.0
 11
8256.360212244523
 21
3926.996557182951
 31
0.0
  0
LINE
  5
7B55
330
19
100
AcDbEntity
  8
1
100
AcDbLine
 10
8209.360212244519
 20
3926.996557182951
 30
0.0
 11
8076.160212244522
 21
3926.996557182951
 31
0.0
  0
LINE
  5
7B56
330
19
100
AcDbEntity
  8
1
100
AcDbLine
 10
8256.360212244521
 20
4096.99655718295
 30
0.0
 11
8181.86021224452
 21
4096.99655718295
 31
0.0
  0
LINE
  5
7B57
330
19
100
AcDbEntity
  8
1
100
AcDbLine
 10
8076.160212244522
 20
4096.99655718295
 30
0.0
 11
8181.86021224452
 21
4096.99655718295
 31
0.0
  0
LINE
  5
7B59
330
19
100
AcDbEntity
  8
1
100
AcDbLine
 10
8076.16021224452
 20
5657.996557182952
 30
0.0
 11
6176.16021224452
 21
5657.996557182951
 31
0.0
  0
LINE
  5
7B5A
330
19
100
AcDbEntity
  8
2
100
AcDbLine
 10
8182.257736729297
 20
4166.99655718295
 30
0.0
 11
5656.160212244523
 21
4166.99655718295
 31
0.0
  0
LINE
  5
7B5B
330
19
100
AcDbEntity
  8
1
100
AcDbLine
 10
6176.160212244521
 20
5607.996557182951
 30
0.0
 11
6176.160212244518
 21
3276.996557182951
 31
0.0
  0
LINE
  5
7B5C
330
19
100
AcDbEntity
  8
1
100
AcDbLine
 10
5942.560212244522
 20
4546.99655718295
 30
0.0
 11
5656.160212244522
 21
4546.99655718295
 31
0.0
  0
LINE
  5
7B5D
330
19
100
AcDbEntity
  8
1
100
AcDbLine
 10
5907.160212244522
 20
4246.99655718295
 30
0.0
 11
5892.560212244522
 21
4246.99655718295
 31
0.0
  0
LINE
  5
7B5E
330
19
100
AcDbEntity
  8
1
100
AcDbLine
 10
5892.560212244522
 20
4391.996557182951
 30
0.0
 11
5807.160212244522
 21
4391.996557182951
 31
0.0
  0
LINE
  5
7B5F
330
19
100
AcDbEntity
  8
1
100
AcDbLine
 10
5942.560212244522
 20
4320.324850248366
 30
0.0
 11
5942.560212244522
 21
4546.99655718295
 31
0.0
  0
LINE
  5
7B60
330
19
100
AcDbEntity
  8
1
100
AcDbLine
 10
6176.16021224452
 20
4214.49655718295
 30
0.0
 11
5907.160212244522
 21
4214.49655718295
 31
0.0
  0
LINE
  5
7B61
330
19
100
AcDbEntity
  8
1
100
AcDbLine
 10
6176.160212244521
 20
4119.496557182951
 30
0.0
 11
5907.160212244522
 21
4119.496557182951
 31
0.0
  0
LINE
  5
7B63
330
19
100
AcDbEntity
  8
1
100
AcDbLine
 10
6176.160212244521
 20
5657.996557182951
 30
0.0
 11
6176.160212244521
 21
5607.996557182951
 31
0.0
  0
LINE
  5
7B64
330
19
100
AcDbEntity
  8
1
100
AcDbLine
 10
8076.160212244522
 20
5607.996557182951
 30
0.0
 11
8076.160212244522
 21
3276.996557182951
 31
0.0
  0
LINE
  5
7B67
330
19
100
AcDbEntity
  8
1
100
AcDbLine
 10
8076.160212244522
 20
5657.996557182951
 30
0.0
 11
8076.160212244522
 21
5607.996557182951
 31
0.0
  0
LINE
  5
7B68
330
19
100
AcDbEntity
  8
1
100
AcDbLine
 10
1229.292085150599
 20
8176.596247207855
 30
0.0
 11
1229.292085150599
 21
7076.596247207856
 31
0.0
  0
LINE
  5
7B69
330
19
100
AcDbEntity
  8
1
100
AcDbLine
 10
2072.292085150599
 20
9357.596247207856
 30
0.0
 11
2072.292085150599
 21
7457.596247207856
 31
0.0
  0
LINE
  5
7B6A
330
19
100
AcDbEntity
  8
2
100
AcDbLine
 10
3279.292085150599
 20
9577.282663178429
 30
0.0
 11
3279.292085150599
 21
6937.596247207856
 31
0.0
  0
LINE
  5
7B6B
330
19
100
AcDbEntity
  8
1
100
AcDbLine
 10
4209.292085150599
 20
9407.596247207857
 30
0.0
 11
4209.292085150599
 21
7407.596247207855
 31
0.0
  0
LINE
  5
7B6C
330
19
100
AcDbEntity
  8
1
100
AcDbLine
 10
3279.292085150599
 20
7457.596247207856
 30
0.0
 11
4203.292085150598
 21
7457.596247207856
 31
0.0
  0
LINE
  5
7B6D
330
19
100
AcDbEntity
  8
1
100
AcDbLine
 10
1229.292085150599
 20
7076.596247207856
 30
0.0
 11
4129.292085150598
 21
7076.596247207856
 31
0.0
  0
LINE
  5
7B6E
330
19
100
AcDbEntity
  8
1
100
AcDbLine
 10
4129.292085150598
 20
7457.596247207854
 30
0.0
 11
4129.292085150598
 21
7076.596247207856
 31
0.0
  0
LINE
  5
7B6F
330
19
100
AcDbEntity
  8
1
100
AcDbLine
 10
1389.292085150598
 20
7223.996247207854
 30
0.0
 11
3668.292085150599
 21
7223.996247207854
 31
0.0
  0
LINE
  5
7B70
330
19
100
AcDbEntity
  8
1
100
AcDbLine
 10
1389.292085150598
 20
6937.596247207856
 30
0.0
 11
3668.292085150599
 21
6937.596247207856
 31
0.0
  0
LINE
  5
7B71
330
19
100
AcDbEntity
  8
1
100
AcDbLine
 10
1496.792085150598
 20
7173.996247207854
 30
0.0
 11
3513.292085150599
 21
7173.996247207856
 31
0.0
  0
LINE
  5
7B72
330
19
100
AcDbEntity
  8
1
100
AcDbLine
 10
1496.792085150598
 20
7088.596247207856
 30
0.0
 11
3513.292085150599
 21
7088.596247207856
 31
0.0
  0
LINE
  5
7B73
330
19
100
AcDbEntity
  8
1
100
AcDbLine
 10
2072.292085150599
 20
7457.596247207856
 30
0.0
 11
3279.292085150599
 21
7457.596247207856
 31
0.0
  0
LINE
  5
7B74
330
19
100
AcDbEntity
  8
1
100
AcDbLine
 10
3231.792085150599
 20
7457.596247207856
 30
0.0
 11
3231.792085150599
 21
7188.596247207856
 31
0.0
  0
LINE
  5
7B75
330
19
100
AcDbEntity
  8
1
100
AcDbLine
 10
3326.792085150599
 20
7457.596247207856
 30
0.0
 11
3326.792085150599
 21
7188.596247207856
 31
0.0
  0
LINE
  5
7B76
330
19
100
AcDbEntity
  8
1
100
AcDbLine
 10
3199.292085150599
 20
7188.596247207856
 30
0.0
 11
3359.292085150599
 21
7188.596247207856
 31
0.0
  0
LINE
  5
7B77
330
19
100
AcDbEntity
  8
1
100
AcDbLine
 10
3513.292085150599
 20
7173.996247207857
 30
0.0
 11
3513.292085150599
 21
7088.596247207856
 31
0.0
  0
LINE
  5
7B78
330
19
100
AcDbEntity
  8
1
100
AcDbLine
 10
3668.292085150599
 20
7223.996247207856
 30
0.0
 11
3668.292085150599
 21
6937.596247207856
 31
0.0
  0
LINE
  5
7B79
330
19
100
AcDbEntity
  8
1
100
AcDbLine
 10
3359.292085150599
 20
7188.596247207856
 30
0.0
 11
3359.292085150599
 21
7173.996247207857
 31
0.0
  0
LINE
  5
7B7A
330
19
100
AcDbEntity
  8
1
100
AcDbLine
 10
3063.292085150599
 20
7173.996247207856
 30
0.0
 11
3063.292085150599
 21
7088.596247207856
 31
0.0
  0
LINE
  5
7B7B
330
19
100
AcDbEntity
  8
1
100
AcDbLine
 10
3199.292085150599
 20
7188.596247207856
 30
0.0
 11
3199.292085150599
 21
7173.996247207854
 31
0.0
  0
LINE
  5
7B7C
330
19
100
AcDbEntity
  8
1
100
AcDbLine
 10
1419.292085150599
 20
7281.296247207855
 30
0.0
 11
1419.292085150599
 21
7556.796247207855
 31
0.0
  0
LINE
  5
7B7D
330
19
100
AcDbEntity
  8
2
100
AcDbLine
 10
1629.292085150599
 20
6937.596247207856
 30
0.0
 11
1629.292085150599
 21
7930.796247207855
 31
0.0
  0
LINE
  5
7B7F
330
19
100
AcDbEntity
  8
1
100
AcDbLine
 10
1599.292085150598
 20
7271.296247207856
 30
0.0
 11
1599.292085150598
 21
7131.296247207855
 31
0.0
  0
LINE
  5
7B80
330
19
100
AcDbEntity
  8
1
100
AcDbLine
 10
1659.292085150599
 20
7271.296247207856
 30
0.0
 11
1659.292085150599
 21
7131.296247207855
 31
0.0
  0
LINE
  5
7B81
330
19
100
AcDbEntity
  8
1
100
AcDbLine
 10
1389.292085150598
 20
7223.996247207854
 30
0.0
 11
1389.292085150598
 21
6937.596247207856
 31
0.0
  0
LINE
  5
7B82
330
19
100
AcDbEntity
  8
1
100
AcDbLine
 10
1496.792085150598
 20
7173.996247207854
 30
0.0
 11
1496.792085150598
 21
7088.596247207856
 31
0.0
  0
LINE
  5
7B83
330
19
100
AcDbEntity
  8
1
100
AcDbLine
 10
1761.792085150599
 20
7173.996247207854
 30
0.0
 11
1761.792085150599
 21
7088.596247207856
 31
0.0
  0
LINE
  5
7B84
330
19
100
AcDbEntity
  8
1
100
AcDbLine
 10
1599.292085150598
 20
7131.296247207855
 30
0.0
 11
1659.292085150599
 21
7131.296247207855
 31
0.0
  0
LINE
  5
7B85
330
19
100
AcDbEntity
  8
1
100
AcDbLine
 10
1829.292085150598
 20
7930.796247207855
 30
0.0
 11
1829.292085150598
 21
7281.296247207855
 31
0.0
  0
LINE
  5
7B86
330
19
100
AcDbEntity
  8
1
100
AcDbLine
 10
1419.292085150599
 20
7281.296247207855
 30
0.0
 11
1629.292085150598
 21
7281.296247207855
 31
0.0
  0
LINE
  5
7B87
330
19
100
AcDbEntity
  8
1
100
AcDbLine
 10
1596.792085150599
 20
7271.296247207856
 30
0.0
 11
1596.792085150599
 21
7281.296247207855
 31
0.0
  0
LINE
  5
7B89
330
19
100
AcDbEntity
  8
1
100
AcDbLine
 10
1661.792085150599
 20
7271.296247207856
 30
0.0
 11
1661.792085150599
 21
7281.296247207855
 31
0.0
  0
LINE
  5
7B8A
330
19
100
AcDbEntity
  8
1
100
AcDbLine
 10
1661.792085150599
 20
7271.296247207856
 30
0.0
 11
1596.792085150599
 21
7271.296247207856
 31
0.0
  0
LINE
  5
7B8B
330
19
100
AcDbEntity
  8
1
100
AcDbLine
 10
1829.292085150598
 20
7281.296247207855
 30
0.0
 11
1629.292085150598
 21
7281.296247207855
 31
0.0
  0
LINE
  5
7B8C
330
19
100
AcDbEntity
  8
1
100
AcDbLine
 10
1419.292085150599
 20
7930.796247207855
 30
0.0
 11
1419.292085150599
 21
7556.796247207855
 31
0.0
  0
LINE
  5
7B8D
330
19
100
AcDbEntity
  8
1
100
AcDbLine
 10
1419.292085150599
 20
7930.796247207855
 30
0.0
 11
1829.292085150598
 21
7930.796247207855
 31
0.0
  0
LINE
  5
7B8E
330
19
100
AcDbEntity
  8
1
100
AcDbLine
 10
3279.292085150599
 20
9357.596247207856
 30
0.0
 11
4203.292085150598
 21
9357.596247207856
 31
0.0
  0
LINE
  5
7B8F
330
19
100
AcDbEntity
  8
2
100
AcDbLine
 10
2072.292085150599
 20
8407.596247207855
 30
0.0
 11
4266.813219063213
 21
8407.596247207855
 31
0.0
  0
LINE
  5
7B90
330
19
100
AcDbEntity
  8
1
100
AcDbLine
 10
2429.292085150599
 20
9436.596247207855
 30
0.0
 11
4129.292085150598
 21
9436.596247207855
 31
0.0
  0
LINE
  5
7B91
330
19
100
AcDbEntity
  8
1
100
AcDbLine
 10
4129.292085150598
 20
9436.596247207855
 30
0.0
 11
4129.292085150598
 21
9357.596247207856
 31
0.0
  0
LINE
  5
7B92
330
19
100
AcDbEntity
  8
1
100
AcDbLine
 10
1229.292085150599
 20
8176.596247207855
 30
0.0
 11
2072.292085150599
 21
8176.596247207855
 31
0.0
  0
LINE
  5
7B93
330
19
100
AcDbEntity
  8
1
100
AcDbLine
 10
2072.292085150599
 20
9357.596247207856
 30
0.0
 11
3279.292085150599
 21
9357.596247207856
 31
0.0
  0
LINE
  5
7B94
330
19
100
AcDbEntity
  8
1
100
AcDbLine
 10
2429.292085150599
 20
9436.596247207855
 30
0.0
 11
2429.292085150599
 21
9357.596247207856
 31
0.0
  0
LINE
  5
7B96
330
19
100
AcDbEntity
  8
1
100
AcDbLine
 10
4203.292085150598
 20
9407.596247207855
 30
0.0
 11
4209.292085150599
 21
9407.596247207857
 31
0.0
  0
LINE
  5
7B97
330
19
100
AcDbEntity
  8
1
100
AcDbLine
 10
4203.292085150598
 20
7407.596247207855
 30
0.0
 11
4209.292085150599
 21
7407.596247207855
 31
0.0
  0
LINE
  5
7B99
330
19
100
AcDbEntity
  8
1
100
AcDbLine
 10
4203.292085150598
 20
9407.596247207857
 30
0.0
 11
4203.292085150598
 21
7407.596247207855
 31
0.0
  0
LINE
  5
7B9A
330
19
100
AcDbEntity
  8
4
100
AcDbLine
 10
8325.0
 20
1800.126048841164
 30
0.0
 11
8325.0
 21
900.1260488411643
 31
0.0
  0
LINE
  5
7B9B
330
19
100
AcDbEntity
  8
4
100
AcDbLine
 10
5175.0
 20
1800.126048841164
 30
0.0
 11
5175.0
 21
900.1260488411643
 31
0.0
  0
LINE
  5
7B9C
330
19
100
AcDbEntity
  8
4
100
AcDbLine
 10
2925.0
 20
1800.126048841164
 30
0.0
 11
2925.0
 21
900.1260488411643
 31
0.0
  0
LINE
  5
7B9F
330
19
100
AcDbEntity
  8
4
100
AcDbLine
 10
2925.0
 20
900.1260488411643
 30
0.0
 11
8325.0
 21
900.1260488411643
 31
0.0
  0
LINE
  5
7BA0
330
19
100
AcDbEntity
  8
4
100
AcDbLine
 10
2925.0
 20
1350.126048841164
 30
0.0
 11
8325.0
 21
1350.126048841164
 31
0.0
  0
TEXT
  5
7BA1
330
19
100
AcDbEntity
  8
4
100
AcDbText
 10
3098.259363811058
 20
1492.069665240922
 30
0.0
 40
225.0
  1
機器名称
100
AcDbText
  0
TEXT
  5
7BA2
330
19
100
AcDbEntity
  8
4
100
AcDbText
 10
3088.161477111589
 20
997.5292541352137
 30
0.0
 40
225.0
  1
機器型番
100
AcDbText
  0
TEXT
  5
7BA3
330
19
100
AcDbEntity
  8
4
100
AcDbText
 10
5300.599814599531
 20
1455.135397155815
 30
0.0
 40
191.25
  1
ミツヤリミットロードファン
100
AcDbText
  0
TEXT
  5
7BA4
330
19
100
AcDbEntity
  8
4
100
AcDbText
 10
5339.945230134663
 20
977.3441781009095
 30
0.0
 40
225.0
  1
LL#9-5
100
AcDbText
  0
TEXT
  5
7BA6
330
19
100
AcDbEntity
  8
4
100
AcDbText
 10
3652.255063188619
 20
10725.42978599632
 30
0.0
 40
243.0
  1
床置ベット
100
AcDbText
  0
TEXT
  5
7BA7
330
19
100
AcDbEntity
  8
4
100
AcDbText
 10
1317.933979167283
 20
11402.46439289684
 30
0.0
 40
324.0
  1
遠心式両吸込両持リミットロードファン
100
AcDbText
  0
LINE
  5
7BA8
330
19
100
AcDbEntity
  8
4
100
AcDbLine
 10
1125.0
 20
11112.33939419162
 30
0.0
 11
8325.0
 21
11112.33939419162
 31
0.0
  0
LINE
  5
7BA9
330
19
100
AcDbEntity
  8
4
100
AcDbLine
 10
1125.0
 20
12012.33939419162
 30
0.0
 11
8325.0
 21
12012.33939419162
 31
0.0
  0
LINE
  5
7BAA
330
19
100
AcDbEntity
  8
4
100
AcDbLine
 10
2925.0
 20
1800.126048841164
 30
0.0
 11
8325.0
 21
1800.126048841164
 31
0.0
  0
LINE
  5
7BAB
330
19
100
AcDbEntity
  8
4
100
AcDbLine
 10
1125.0
 20
12012.33939419162
 30
0.0
 11
1125.0
 21
11112.33939419162
 31
0.0
  0
TEXT
  5
7BAC
330
19
100
AcDbEntity
  8
4
100
AcDbText
 10
1690.890318096459
 20
10720.43764895854
 30
0.0
 40
243.0
  1
右回転右横向
100
AcDbText
  0
TEXT
  5
7BAD
330
19
100
AcDbEntity
  8
4
100
AcDbText
 10
6610.363016621803
 20
12177.27486672889
 30
0.0
 40
252.0
  1
No.
100
AcDbText
  0
TEXT
  5
7BAE
330
19
100
AcDbEntity
  8
4
100
AcDbText
 10
5900.832281700059
 20
10725.42978599632
 30
0.0
 40
243.0
  1
縮尺：1/45
100
AcDbText
  0
LINE
  5
7BAF
330
19
100
AcDbEntity
  8
4
100
AcDbLine
 10
8325.0
 20
12012.33939419162
 30
0.0
 11
8325.0
 21
11112.33939419162
 31
0.0
  0
LINE
  5
7BB0
330
19
100
AcDbEntity
  8
4
100
AcDbLine
 10
9450.0
 20
13275.0
 30
0.0
 11
9450.0
 21
13275.0
 31
0.0
  0
LINE
  5
7BB1
330
19
100
AcDbEntity
  8
4
100
AcDbLine
 10
6482.778400619391
 20
12065.6861240643
 30
0.0
 11
6482.778400619391
 21
12539.93517697388
 31
0.0
  0
LINE
  5
7BB2
330
19
100
AcDbEntity
  8
4
100
AcDbLine
 10
6482.778400619391
 20
12539.93517697388
 30
0.0
 11
8325.0
 21
12539.93517697388
 31
0.0
  0
LINE
  5
7BB3
330
19
100
AcDbEntity
  8
4
100
AcDbLine
 10
8325.0
 20
12539.93517697388
 30
0.0
 11
8325.0
 21
12065.6861240643
 31
0.0
  0
LINE
  5
7BB4
330
19
100
AcDbEntity
  8
4
100
AcDbLine
 10
8325.0
 20
12065.6861240643
 30
0.0
 11
6482.778400619391
 21
12065.6861240643
 31
0.0
  0
LINE
  5
7BB5
330
19
100
AcDbEntity
  8
4
100
AcDbLine
 10
0.0
 20
0.0
 30
0.0
 11
0.0
 21
13275.0
 31
0.0
  0
LINE
  5
7BB6
330
19
100
AcDbEntity
  8
4
100
AcDbLine
 10
0.0
 20
13275.0
 30
0.0
 11
9450.0
 21
13275.0
 31
0.0
  0
LINE
  5
7BB7
330
19
100
AcDbEntity
  8
4
100
AcDbLine
 10
9450.0
 20
13275.0
 30
0.0
 11
9450.0
 21
0.0
 31
0.0
  0
LINE
  5
7BB8
330
19
100
AcDbEntity
  8
4
100
AcDbLine
 10
9450.0
 20
0.0
 30
0.0
 11
0.0
 21
0.0
 31
0.0
  0
DIMENSION
  5
7BC8
330
19
100
AcDbEntity
  8
3
100
AcDbDimension
280
     0
  2
*D1
 10
8517.496371420202
 20
3466.996557182951
 30
0.0
 11
8517.496371420202
 21
4140.468183248682
 31
0.0
 70
   160
 71
     5
 42
-1.0
 73
     0
 74
     0
 75
     0
  3
IGA
100
AcDbAlignedDimension
 13
8076.160212244522
 23
4866.99655718295
 33
0.0
 14
8076.160212244522
 24
3466.996557182951
 34
0.0
 50
90.0
100
AcDbRotatedDimension
1001
ACAD
1000
DSTYLE
1002
{
1070
   287
1070
     3
1070
     3
1000
φ<>
1070
    40
1040
45.0
1070
   143
1040
0.039
1070
   172
1070
     1
1070
   271
1070
     0
1070
   279
1070
     0
1070
   288
1070
     1
1002
}
  0
DIMENSION
  5
7C78
330
19
100
AcDbEntity
  8
3
100
AcDbDimension
280
     0
  2
*D2
 10
2429.292085150599
 20
9725.363281275669
 30
0.0
 11
3276.853016895046
 21
9725.363281275669
 31
0.0
 70
   160
 71
     5
 42
-1.0
 73
     0
 74
     0
 75
     0
  3
IGA
100
AcDbAlignedDimension
 13
4129.292085150598
 23
9436.596247207855
 33
0.0
 14
2429.292085150599
 24
9436.596247207855
 34
0.0
100
AcDbRotatedDimension
1001
ACAD
1000
DSTYLE
1002
{
1070
   287
1070
     3
1070
    40
1040
45.0
1070
   143
1040
0.039
1070
   172
1070
     1
1070
   271
1070
     0
1070
   279
1070
     0
1070
   288
1070
     1
1002
}
  0
DIMENSION
  5
7C84
330
19
100
AcDbEntity
  8
3
100
AcDbDimension
280
     0
  2
*D3
 10
1229.292085150599
 20
9725.363281275669
 30
0.0
 11
1829.292085150598
 21
9837.863281275669
 31
0.0
 70
    32
 71
     5
 42
-1.0
 73
     0
 74
     0
 75
     0
  3
IGA
100
AcDbAlignedDimension
 13
2429.292085150599
 23
9436.596247207855
 33
0.0
 14
1229.292085150599
 24
8176.596247207855
 34
0.0
100
AcDbRotatedDimension
1001
ACAD
1000
DSTYLE
1002
{
1070
   287
1070
     4
1070
    40
1040
45.0
1070
    75
1070
     1
1070
   143
1040
0.039
1070
   172
1070
     1
1070
   271
1070
     0
1070
   279
1070
     1
1070
   288
1070
     1
1002
}
  0
DIMENSION
  5
7C91
330
19
100
AcDbEntity
  8
3
100
AcDbDimension
280
     0
  2
*D4
 10
787.6310464974969
 20
7076.596247207856
 30
0.0
 11
787.6310464974958
 21
7626.815414619574
 31
0.0
 70
   160
 71
     5
 42
-1.0
 73
     0
 74
     0
 75
     0
  3
IGA
100
AcDbAlignedDimension
 13
1229.292085150599
 23
8176.596247207855
 33
0.0
 14
1229.292085150599
 24
7076.596247207856
 34
0.0
 50
270.0
100
AcDbRotatedDimension
1001
ACAD
1000
DSTYLE
1002
{
1070
   287
1070
     3
1070
    40
1040
45.0
1070
   143
1040
0.039
1070
   172
1070
     1
1070
   271
1070
     0
1070
   279
1070
     0
1070
   288
1070
     1
1002
}
  0
DIMENSION
  5
7C9E
330
19
100
AcDbEntity
  8
3
100
AcDbDimension
280
     0
  2
*D5
 10
4499.238840213418
 20
7076.596247207856
 30
0.0
 11
4499.238840213417
 21
8215.297096239032
 31
0.0
 70
   160
 71
     5
 42
-1.0
 73
     0
 74
     0
 75
     0
  3
IGA
100
AcDbAlignedDimension
 13
4129.292085150598
 23
9436.596247207855
 33
0.0
 14
4129.292085150598
 24
7076.596247207856
 34
0.0
 50
270.0
100
AcDbRotatedDimension
1001
ACAD
1000
DSTYLE
1002
{
1070
   287
1070
     3
1070
    40
1040
45.0
1070
   143
1040
0.039
1070
   172
1070
     1
1070
   271
1070
     0
1070
   279
1070
     0
1070
   288
1070
     1
1002
}
  0
DIMENSION
  5
7CAB
330
19
100
AcDbEntity
  8
3
100
AcDbDimension
280
     0
  2
*D6
 10
1229.292085150599
 20
6616.403462279537
 30
0.0
 11
2765.673496150427
 21
6616.403462279537
 31
0.0
 70
   160
 71
     5
 42
-1.0
 73
     0
 74
     0
 75
     0
  3
IGA
100
AcDbAlignedDimension
 13
4129.292085150598
 23
7076.596247207856
 33
0.0
 14
1229.292085150599
 24
7076.596247207856
 34
0.0
100
AcDbRotatedDimension
1001
ACAD
1000
DSTYLE
1002
{
1070
   287
1070
     3
1070
    40
1040
45.0
1070
   143
1040
0.039
1070
   172
1070
     1
1070
   271
1070
     0
1070
   279
1070
     0
1070
   288
1070
     1
1002
}
  0
DIMENSION
  5
7CD1
330
19
100
AcDbEntity
  8
3
100
AcDbDimension
280
     0
  2
*D7
 10
3279.292085150599
 20
5918.772537330951
 30
0.0
 11
3723.739643227272
 21
5918.772537330951
 31
0.0
 70
   160
 71
     5
 42
-1.0
 73
     0
 74
     0
 75
     0
  3
IGA
100
AcDbAlignedDimension
 13
4209.292085150599
 23
5711.996557182951
 33
0.0
 14
3279.292085150599
 24
5723.433844594347
 34
0.0
100
AcDbRotatedDimension
1001
ACAD
1000
DSTYLE
1002
{
1070
   287
1070
     3
1070
    40
1040
45.0
1070
   143
1040
0.039
1070
   172
1070
     1
1070
   271
1070
     0
1070
   279
1070
     0
1070
   288
1070
     1
1002
}
  0
DIMENSION
  5
7CDE
330
19
100
AcDbEntity
  8
3
100
AcDbDimension
280
     0
  2
*D8
 10
4485.322250820603
 20
4207.99655718295
 30
0.0
 11
4485.322250820601
 21
4959.249367929726
 31
0.0
 70
   160
 71
     5
 42
-1.0
 73
     0
 74
     0
 75
     0
  3
IGA
100
AcDbAlignedDimension
 13
4209.292085150599
 23
5657.996557182951
 33
0.0
 14
4209.292085150599
 24
4207.99655718295
 34
0.0
 50
270.0
100
AcDbRotatedDimension
1001
ACAD
1000
DSTYLE
1002
{
1070
   287
1070
     3
1070
    40
1040
45.0
1070
   143
1040
0.039
1070
   172
1070
     1
1070
   271
1070
     0
1070
   279
1070
     0
1070
   288
1070
     1
1002
}
  0
DIMENSION
  5
7CEB
330
19
100
AcDbEntity
  8
3
100
AcDbDimension
280
     0
  2
*D9
 10
4729.835509533514
 20
4166.99655718295
 30
0.0
 11
4729.835509533514
 21
4951.614646971757
 31
0.0
 70
   160
 71
     5
 42
-1.0
 73
     0
 74
     0
 75
     0
  3
IGA
100
AcDbAlignedDimension
 13
4209.292085150599
 23
5657.996557182951
 33
0.0
 14
4449.579932482389
 24
4166.99655718295
 34
0.0
 50
270.0
100
AcDbRotatedDimension
1001
ACAD
1000
DSTYLE
1002
{
1070
   287
1070
     3
1070
    40
1040
45.0
1070
   143
1040
0.039
1070
   172
1070
     1
1070
   271
1070
     0
1070
   279
1070
     0
1070
   288
1070
     1
1002
}
  0
DIMENSION
  5
7D0E
330
19
100
AcDbEntity
  8
3
100
AcDbDimension
280
     0
  2
*D10
 10
4729.835509533514
 20
3126.996557182951
 30
0.0
 11
4617.335509533512
 21
3646.996557182951
 31
0.0
 70
    32
 71
     5
 42
-1.0
 73
     0
 74
     0
 75
     0
  3
IGA
100
AcDbAlignedDimension
 13
4449.579932482389
 23
4166.99655718295
 33
0.0
 14
4129.292085150598
 24
3126.996557182951
 34
0.0
 50
270.0
100
AcDbRotatedDimension
1001
ACAD
1000
DSTYLE
1002
{
1070
   287
1070
     4
1070
    40
1040
45.0
1070
    75
1070
     1
1070
   143
1040
0.039
1070
   172
1070
     1
1070
   271
1070
     0
1070
   279
1070
     1
1070
   288
1070
     1
1002
}
  0
DIMENSION
  5
7DC6
330
19
100
AcDbEntity
  8
3
100
AcDbDimension
280
     0
  2
*D12
 10
2072.292085150599
 20
5918.772537330951
 30
0.0
 11
2675.792085150599
 21
6031.272537330951
 31
0.0
 70
    32
 71
     5
 42
-1.0
 73
     0
 74
     0
 75
     0
  3
IGA
100
AcDbAlignedDimension
 13
3279.292085150599
 23
5723.433844594347
 33
0.0
 14
2072.292085150599
 24
4268.99655718295
 34
0.0
100
AcDbRotatedDimension
1001
ACAD
1000
DSTYLE
1002
{
1070
   287
1070
     4
1070
    40
1040
45.0
1070
    75
1070
     1
1070
   143
1040
0.039
1070
   172
1070
     1
1070
   271
1070
     0
1070
   279
1070
     1
1070
   288
1070
     1
1002
}
  0
DIMENSION
  5
7DD3
330
19
100
AcDbEntity
  8
3
100
AcDbDimension
280
     0
  2
*D13
 10
1229.292085150599
 20
6186.236040501462
 30
0.0
 11
2736.909965185718
 21
6186.236040501462
 31
0.0
 70
   160
 71
     5
 42
-1.0
 73
     0
 74
     0
 75
     0
  3
IGA
100
AcDbAlignedDimension
 13
4209.292085150599
 23
5711.996557182951
 33
0.0
 14
1229.292085150599
 24
3276.996557182951
 34
0.0
100
AcDbRotatedDimension
1001
ACAD
1000
DSTYLE
1002
{
1070
   287
1070
     3
1070
    40
1040
45.0
1070
   143
1040
0.039
1070
   172
1070
     1
1070
   271
1070
     0
1070
   279
1070
     0
1070
   288
1070
     1
1002
}
  0
LINE
  5
7DD9
330
19
100
AcDbEntity
  8
1
100
AcDbLine
 10
8076.160212244522
 20
4207.996557182951
 30
0.0
 11
6176.160212244521
 21
4207.99655718295
 31
0.0
  0
LINE
  5
7DDA
330
19
100
AcDbEntity
  8
1
100
AcDbLine
 10
8076.160212244522
 20
5657.996557182952
 30
0.0
 11
6176.160212244521
 21
4207.99655718295
 31
0.0
  0
LINE
  5
7DDB
330
19
100
AcDbEntity
  8
1
100
AcDbLine
 10
6176.160212244521
 20
5657.996557182951
 30
0.0
 11
8076.160212244522
 21
4207.996557182951
 31
0.0
  0
LINE
  5
7DDF
330
19
100
AcDbEntity
  8
1
100
AcDbLine
 10
4159.292085150599
 20
9357.596247207858
 30
0.0
 11
4159.292085150599
 21
7457.596247207856
 31
0.0
  0
DIMENSION
  5
7DED
330
19
100
AcDbEntity
  8
3
100
AcDbDimension
280
     0
  2
*D14
 10
8076.160212244522
 20
5872.138140551641
 30
0.0
 11
7124.029820553587
 21
5872.138140551641
 31
0.0
 70
   160
 71
     5
 42
-1.0
 73
     0
 74
     0
 75
     0
  3
IGA
100
AcDbAlignedDimension
 13
6176.160212244521
 23
5657.996557182951
 33
0.0
 14
8076.160212244522
 24
5657.996557182952
 34
0.0
100
AcDbRotatedDimension
1001
ACAD
1000
DSTYLE
1002
{
1070
   287
1070
     3
1070
    40
1040
45.0
1070
   143
1040
0.039
1070
   172
1070
     1
1070
   271
1070
     0
1070
   279
1070
     0
1070
   288
1070
     1
1002
}
  0
DIMENSION
  5
7E05
330
19
100
AcDbEntity
  8
3
100
AcDbDimension
280
     0
  2
*D15
 10
7126.160212244521
 20
6240.123695632323
 30
0.0
 11
7657.036440957061
 21
6240.123695632323
 31
0.0
 70
   160
  1
(<>)
 71
     5
 42
1130.2
 73
     0
 74
     0
 75
     0
  3
IGA
100
AcDbAlignedDimension
 13
8256.360212244521
 23
4096.99655718295
 33
0.0
 14
7126.160212244521
 24
6061.390702675977
 34
0.0
100
AcDbRotatedDimension
1001
ACAD
1000
DSTYLE
1002
{
1070
   287
1070
     3
1070
    40
1040
45.0
1070
   143
1040
0.039
1070
   172
1070
     1
1070
   271
1070
     0
1070
   279
1070
     0
1070
   288
1070
     1
1002
}
  0
DIMENSION
  5
7E11
330
19
100
AcDbEntity
  8
3
100
AcDbDimension
280
     0
  2
*D16
 10
5656.160212244522
 20
6240.123695632323
 30
0.0
 11
6391.160212244522
 21
6387.980838489466
 31
0.0
 70
    32
  1
(<>)
 71
     5
 42
1469.999999999999
 73
     0
 74
     0
 75
     0
  3
IGA
100
AcDbAlignedDimension
 13
7126.160212244521
 23
6061.390702675977
 33
0.0
 14
5656.160212244522
 24
4546.99655718295
 34
0.0
100
AcDbRotatedDimension
1001
ACAD
1000
DSTYLE
1002
{
1070
   287
1070
     4
1070
    40
1040
45.0
1070
    75
1070
     1
1070
   143
1040
0.039
1070
   172
1070
     1
1070
   271
1070
     0
1070
   279
1070
     1
1070
   288
1070
     1
1002
}
  0
DIMENSION
  5
7F90
330
19
100
AcDbEntity
  8
3
100
AcDbDimension
280
     0
  2
*D18
 10
3279.292085150599
 20
2831.10400652498
 30
0.0
 11
2254.292085150598
 21
2943.60400652498
 31
0.0
 70
    32
 71
     5
 42
-1.0
 73
     0
 74
     0
 75
     0
  3
IGA
100
AcDbAlignedDimension
 13
1229.292085150599
 23
3126.996557182951
 33
0.0
 14
3279.292085150599
 24
3126.996557182951
 34
0.0
100
AcDbRotatedDimension
1001
ACAD
1000
DSTYLE
1002
{
1070
   172
1070
     1
1070
    40
1040
45.0
1070
   271
1070
     0
1070
   143
1040
0.039
1002
}
  0
DIMENSION
  5
7F9D
330
19
100
AcDbEntity
  8
3
100
AcDbDimension
280
     0
  2
*D19
 10
4129.292085150598
 20
2831.10400652498
 30
0.0
 11
3704.292085150599
 21
2943.60400652498
 31
0.0
 70
    32
 71
     5
 42
-1.0
 73
     0
 74
     0
 75
     0
  3
IGA
100
AcDbAlignedDimension
 13
3279.292085150599
 23
3126.996557182951
 33
0.0
 14
4129.292085150598
 24
3126.996557182951
 34
0.0
100
AcDbRotatedDimension
1001
ACAD
1000
DSTYLE
1002
{
1070
   172
1070
     1
1070
    40
1040
45.0
1070
   271
1070
     0
1070
   143
1040
0.039
1002
}
  0
DIMENSION
  5
7FAA
330
19
100
AcDbEntity
  8
3
100
AcDbDimension
280
     0
  2
*D20
 10
7126.16021224452
 20
2831.10400652498
 30
0.0
 11
6460.660212244521
 21
2943.60400652498
 31
0.0
 70
    32
 71
     5
 42
-1.0
 73
     0
 74
     0
 75
     0
  3
IGA
100
AcDbAlignedDimension
 13
5795.160212244522
 23
3126.996557182951
 33
0.0
 14
7126.16021224452
 24
3126.996557182951
 34
0.0
100
AcDbRotatedDimension
1001
ACAD
1000
DSTYLE
1002
{
1070
   172
1070
     1
1070
    40
1040
45.0
1070
   271
1070
     0
1070
   143
1040
0.039
1002
}
  0
DIMENSION
  5
7FB7
330
19
100
AcDbEntity
  8
3
100
AcDbDimension
280
     0
  2
*D21
 10
8155.160212244522
 20
2831.10400652498
 30
0.0
 11
7640.660212244521
 21
2943.60400652498
 31
0.0
 70
    32
 71
     5
 42
-1.0
 73
     0
 74
     0
 75
     0
  3
IGA
100
AcDbAlignedDimension
 13
7126.16021224452
 23
3126.996557182951
 33
0.0
 14
8155.160212244522
 24
3126.996557182951
 34
0.0
100
AcDbRotatedDimension
1001
ACAD
1000
DSTYLE
1002
{
1070
   172
1070
     1
1070
    40
1040
45.0
1070
   271
1070
     0
1070
   143
1040
0.039
1002
}
  0
DIMENSION
  5
7FC5
330
19
100
AcDbEntity
  8
3
100
AcDbDimension
280
     0
  2
*D22
 10
5042.25635889129
 20
3126.996557182951
 30
0.0
 11
4929.756358891289
 21
4392.49655718295
 31
0.0
 70
    32
 71
     5
 42
-1.0
 73
     0
 74
     0
 75
     0
  3
IGA
100
AcDbAlignedDimension
 13
4209.292085150599
 23
5657.996557182951
 33
0.0
 14
4129.292085150598
 24
3126.996557182951
 34
0.0
 50
90.0
100
AcDbRotatedDimension
1001
ACAD
1000
DSTYLE
1002
{
1070
   172
1070
     1
1070
    40
1040
45.0
1070
   271
1070
     0
1070
   143
1040
0.039
1002
}
  0
ENDSEC
  0
SECTION
  2
OBJECTS
  0
DICTIONARY
  5
C
330
0
100
AcDbDictionary
281
     1
  3
ACAD_CIP_PREVIOUS_PRODUCT_INFO
350
80ED
  3
ACAD_COLOR
350
80D0
  3
ACAD_DETAILVIEWSTYLE
350
80E9
  3
ACAD_GROUP
350
D
  3
ACAD_LAYOUT
350
7FDA
  3
ACAD_MATERIAL
350
809E
  3
ACAD_MLEADERSTYLE
350
80E5
  3
ACAD_MLINESTYLE
350
E
  3
ACAD_PLOTSETTINGS
350
7FDB
  3
ACAD_PLOTSTYLENAME
350
7FD8
  3
ACAD_SCALELIST
350
80D3
  3
ACAD_SECTIONVIEWSTYLE
350
80E7
  3
ACAD_TABLESTYLE
350
80D1
  3
ACAD_VISUALSTYLE
350
80B7
  3
ACDB_RECOMPOSE_DATA
350
8144
  3
AcDbVariableDictionary
350
8095
  3
AcDsDecomposeData
350
814A
  0
DICTIONARY
  5
8128
330
2
100
AcDbDictionary
280
     1
281
     1
  3
ACAD_LAYERSTATES
360
8129
  0
DICTIONARY
  5
811B
330
F
100
AcDbDictionary
280
     1
281
     1
  3
ADSK_XREC_LAYER_RECONCILED
360
811C
  0
DICTIONARY
  5
811D
330
31
100
AcDbDictionary
280
     1
281
     1
  3
ADSK_XREC_LAYER_RECONCILED
360
811E
  0
DICTIONARY
  5
811F
330
76D0
100
AcDbDictionary
280
     1
281
     1
  3
ADSK_XREC_LAYER_RECONCILED
360
8120
  0
DICTIONARY
  5
8121
330
76D1
100
AcDbDictionary
280
     1
281
     1
  3
ADSK_XREC_LAYER_RECONCILED
360
8122
  0
DICTIONARY
  5
8123
330
76D2
100
AcDbDictionary
280
     1
281
     1
  3
ADSK_XREC_LAYER_RECONCILED
360
8124
  0
DICTIONARY
  5
8007
330
19
100
AcDbDictionary
280
     1
281
     1
  3
ACAD_LAYOUTSELFREF
360
8008
  0
DICTIONARY
  5
8005
330
16
100
AcDbDictionary
280
     1
281
     1
  3
ACAD_LAYOUTSELFREF
360
8006
  0
XRECORD
  5
80ED
102
{ACAD_REACTORS
330
C
102
}
330
C
100
AcDbXrecord
280
     1
300
ACDLT
300
2023
300

  0
DICTIONARY
  5
80D0
102
{ACAD_REACTORS
330
C
102
}
330
C
100
AcDbDictionary
281
     1
  0
DICTIONARY
  5
80E9
102
{ACAD_REACTORS
330
C
102
}
330
C
100
AcDbDictionary
281
     1
  3
Metric50
350
80EA
  0
DICTIONARY
  5
D
102
{ACAD_REACTORS
330
C
102
}
330
C
100
AcDbDictionary
281
     1
  0
DICTIONARY
  5
7FDA
102
{ACAD_REACTORS
330
C
102
}
330
C
100
AcDbDictionary
281
     1
  3
Model
350
7FDC
  3
ﾚｲｱｳﾄ1
350
7FDD
  0
DICTIONARY
  5
809E
102
{ACAD_REACTORS
330
C
102
}
330
C
100
AcDbDictionary
281
     1
  3
ByBlock
350
80A7
  3
ByLayer
350
809F
  3
Global
350
80AF
  0
DICTIONARY
  5
80E5
102
{ACAD_REACTORS
330
C
102
}
330
C
100
AcDbDictionary
281
     1
  3
Standard
350
80E6
  0
DICTIONARY
  5
E
102
{ACAD_REACTORS
330
C
102
}
330
C
100
AcDbDictionary
281
     1
  3
STANDARD
350
1C
  0
DICTIONARY
  5
7FDB
102
{ACAD_REACTORS
330
C
102
}
330
C
100
AcDbDictionary
281
     1
  0
ACDBDICTIONARYWDFLT
  5
7FD8
102
{ACAD_REACTORS
330
C
102
}
330
C
100
AcDbDictionary
281
     1
  3
Normal
350
7FD9
100
AcDbDictionaryWithDefault
340
7FD9
  0
DICTIONARY
  5
80D3
102
{ACAD_REACTORS
330
C
102
}
330
C
100
AcDbDictionary
281
     1
  3
A0
350
80D4
  3
A1
350
80D5
  3
A2
350
80D6
  3
A3
350
80D7
  3
A4
350
80D8
  3
A5
350
80D9
  3
A6
350
80DA
  3
A7
350
80DB
  3
A8
350
80DC
  3
A9
350
80DD
  3
B0
350
80DE
  3
B1
350
80DF
  3
B2
350
80E0
  3
B3
350
80E1
  3
B4
350
80E2
  3
B5
350
80E3
  3
B6
350
80E4
  0
DICTIONARY
  5
80E7
102
{ACAD_REACTORS
330
C
102
}
330
C
100
AcDbDictionary
281
     1
  3
Metric50
350
80E8
  0
DICTIONARY
  5
80D1
102
{ACAD_REACTORS
330
C
102
}
330
C
100
AcDbDictionary
281
     1
  3
Standard
350
80D2
  0
DICTIONARY
  5
80B7
102
{ACAD_REACTORS
330
C
102
}
330
C
100
AcDbDictionary
281
     1
  3
2dWireframe
350
80BD
  3
Basic
350
80BC
  3
Brighten
350
80C3
  3
ColorChange
350
80C7
  3
Conceptual
350
80C0
  3
Dim
350
80C2
  3
EdgeColorOff
350
80CF
  3
Facepattern
350
80C6
  3
Flat
350
80B8
  3
FlatWithEdges
350
80B9
  3
Gouraud
350
80BA
  3
GouraudWithEdges
350
80BB
  3
Hidden
350
80BF
  3
JitterOff
350
80CD
  3
Linepattern
350
80C5
  3
OverhangOff
350
80CE
  3
Realistic
350
80C1
  3
Shaded
350
80CC
  3
Shaded with edges
350
80CB
  3
Shades of Gray
350
80C8
  3
Sketchy
350
80C9
  3
Thicken
350
80C4
  3
Wireframe
350
80BE
  3
X-Ray
350
80CA
  0
XRECORD
  5
8144
102
{ACAD_REACTORS
330
C
102
}
330
C
100
AcDbXrecord
280
     1
 90
        1
330
80D2
  0
DICTIONARY
  5
8095
102
{ACAD_REACTORS
330
C
102
}
330
C
100
AcDbDictionary
281
     1
  3
CANNOSCALE
350
8139
  3
CMLEADERSTYLE
350
8135
  3
CTABLESTYLE
350
8134
  3
CVIEWDETAILSTYLE
350
8136
  3
CVIEWSECTIONSTYLE
350
8137
  3
DIMASSOC
350
8096
  3
LAYEREVAL
350
813B
  3
LAYERNOTIFY
350
813C
  3
LIGHTINGUNITS
350
813A
  3
MARKUPASSISTMODE
350
8141
  3
MSLTSCALE
350
8138
  0
DICTIONARY
  5
814A
102
{ACAD_REACTORS
330
C
102
}
330
C
100
AcDbDictionary
281
     1
  3
AcDsRecords
350
814C
  3
AcDsSchemas
350
814B
1001
ACAD
1070
     2
  0
DICTIONARY
  5
8129
102
{ACAD_REACTORS
330
8128
102
}
330
8128
100
AcDbDictionary
281
     1
  0
XRECORD
  5
811C
102
{ACAD_REACTORS
330
811B
102
}
330
811B
100
AcDbXrecord
280
     1
290
     1
  0
XRECORD
  5
811E
102
{ACAD_REACTORS
330
811D
102
}
330
811D
100
AcDbXrecord
280
     1
290
     1
  0
XRECORD
  5
8120
102
{ACAD_REACTORS
330
811F
102
}
330
811F
100
AcDbXrecord
280
     1
290
     1
  0
XRECORD
  5
8122
102
{ACAD_REACTORS
330
8121
102
}
330
8121
100
AcDbXrecord
280
     1
290
     1
  0
XRECORD
  5
8124
102
{ACAD_REACTORS
330
8123
102
}
330
8123
100
AcDbXrecord
280
     1
290
     1
  0
XRECORD
  5
8008
102
{ACAD_REACTORS
330
8007
102
}
330
8007
100
AcDbXrecord
280
     1
340
19
  0
XRECORD
  5
8006
102
{ACAD_REACTORS
330
8005
102
}
330
8005
100
AcDbXrecord
280
     1
340
16
  0
ACDBDETAILVIEWSTYLE
  5
80EA
102
{ACAD_XDICTIONARY
360
814F
102
}
102
{ACAD_REACTORS
330
80E9
102
}
330
80E9
100
AcDbModelDocViewStyle
 70
     0
  3
Metric50
290
     0
100
AcDbDetailViewStyle
 70
     0
 71
     0
 90
        3
 71
     1
340
10
 62
   256
 40
5.0
340
0
 62
   256
 40
5.0
300

 40
0.0
280
     1
 71
     2
340
15
 90
       25
 62
   256
 71
     3
340
10
 62
   256
 40
5.0
 90
        0
 40
15.0
 90
        1
300
%<\AcVar ViewDetailId>% (%<\AcVar ViewScale \f "%sn">%)
 71
     4
340
15
 90
       25
 62
   256
340
15
 90
       25
 62
   256
280
     0
  0
LAYOUT
  5
7FDC
102
{ACAD_REACTORS
330
7FDA
102
}
330
7FDA
100
AcDbPlotSettings
  1

  2
\\Txbo34x8944cqyd\EPSON LP-6100
  4

  6

 40
0.0
 41
0.0
 42
0.0
 43
0.0
 44
0.0
 45
0.0
 46
0.0
 47
0.0
 48
0.0
 49
0.0
140
0.0
141
0.0
142
1.0
143
1.0
 70
  1712
 72
     0
 73
     0
 74
     0
  7
GOD2000TABLE.ctb
 75
     0
147
1.0
 76
     0
 77
     2
 78
   300
148
0.0
149
0.0
100
AcDbLayout
  1
Model
 70
     1
 71
     0
 10
0.0
 20
0.0
 11
12.0
 21
9.0
 12
0.0
 22
0.0
 32
0.0
 14
0.0
 24
0.0
 34
0.0
 15
0.0
 25
0.0
 35
0.0
146
0.0
 13
0.0
 23
0.0
 33
0.0
 16
1.0
 26
0.0
 36
0.0
 17
0.0
 27
1.0
 37
0.0
 76
     0
330
19
331
809C
  0
LAYOUT
  5
7FDD
102
{ACAD_REACTORS
330
7FDA
102
}
330
7FDA
100
AcDbPlotSettings
  1

  2
\\Txbo34x8944cqyd\EPSON LP-6100
  4

  6

 40
0.0
 41
0.0
 42
0.0
 43
0.0
 44
0.0
 45
0.0
 46
0.0
 47
0.0
 48
0.0
 49
0.0
140
0.0
141
0.0
142
1.0
143
1.0
 70
   688
 72
     0
 73
     0
 74
     5
  7
GOD2000TABLE.ctb
 75
    16
147
1.0
 76
     0
 77
     2
 78
   300
148
0.0
149
0.0
100
AcDbLayout
  1
ﾚｲｱｳﾄ1
 70
     1
 71
     1
 10
0.0
 20
0.0
 11
12.0
 21
9.0
 12
0.0
 22
0.0
 32
0.0
 14
1.000000000000000E+20
 24
1.000000000000000E+20
 34
1.000000000000000E+20
 15
-1.000000000000000E+20
 25
-1.000000000000000E+20
 35
-1.000000000000000E+20
146
0.0
 13
0.0
 23
0.0
 33
0.0
 16
1.0
 26
0.0
 36
0.0
 17
0.0
 27
1.0
 37
0.0
 76
     0
330
16
  0
MATERIAL
  5
80A7
102
{ACAD_XDICTIONARY
360
80A8
102
}
102
{ACAD_REACTORS
330
809E
102
}
330
809E
100
AcDbMaterial
  1
ByBlock
 72
     0
 43
0.0208333333333333
 43
0.0
 43
0.0
 43
0.0
 43
0.0
 43
0.0208333333333333
 43
0.0
 43
0.0
 43
0.0
 43
0.0
 43
1.0
 43
0.0
 43
0.0
 43
0.0
 43
0.0
 43
1.0
 77
     0
 47
0.0208333333333333
 47
0.0
 47
0.0
 47
0.0
 47
0.0
 47
0.0208333333333333
 47
0.0
 47
0.0
 47
0.0
 47
0.0
 47
1.0
 47
0.0
 47
0.0
 47
0.0
 47
0.0
 47
1.0
171
     0
 49
0.0208333333333333
 49
0.0
 49
0.0
 49
0.0
 49
0.0
 49
0.0208333333333333
 49
0.0
 49
0.0
 49
0.0
 49
0.0
 49
1.0
 49
0.0
 49
0.0
 49
0.0
 49
0.0
 49
1.0
175
     0
142
0.0208333333333333
142
0.0
142
0.0
142
0.0
142
0.0
142
0.0208333333333333
142
0.0
142
0.0
142
0.0
142
0.0
142
1.0
142
0.0
142
0.0
142
0.0
142
0.0
142
1.0
179
     0
144
0.0208333333333333
144
0.0
144
0.0
144
0.0
144
0.0
144
0.0208333333333333
144
0.0
144
0.0
144
0.0
144
0.0
144
1.0
144
0.0
144
0.0
144
0.0
144
0.0
144
1.0
147
0.0208333333333333
147
0.0
147
0.0
147
0.0
147
0.0
147
0.0208333333333333
147
0.0
147
0.0
147
0.0
147
0.0
147
1.0
147
0.0
147
0.0
147
0.0
147
0.0
147
1.0
  0
MATERIAL
  5
809F
102
{ACAD_XDICTIONARY
360
80A0
102
}
102
{ACAD_REACTORS
330
809E
102
}
330
809E
100
AcDbMaterial
  1
ByLayer
 72
     0
 43
0.0208333333333333
 43
0.0
 43
0.0
 43
0.0
 43
0.0
 43
0.0208333333333333
 43
0.0
 43
0.0
 43
0.0
 43
0.0
 43
1.0
 43
0.0
 43
0.0
 43
0.0
 43
0.0
 43
1.0
 77
     0
 47
0.0208333333333333
 47
0.0
 47
0.0
 47
0.0
 47
0.0
 47
0.0208333333333333
 47
0.0
 47
0.0
 47
0.0
 47
0.0
 47
1.0
 47
0.0
 47
0.0
 47
0.0
 47
0.0
 47
1.0
171
     0
 49
0.0208333333333333
 49
0.0
 49
0.0
 49
0.0
 49
0.0
 49
0.0208333333333333
 49
0.0
 49
0.0
 49
0.0
 49
0.0
 49
1.0
 49
0.0
 49
0.0
 49
0.0
 49
0.0
 49
1.0
175
     0
142
0.0208333333333333
142
0.0
142
0.0
142
0.0
142
0.0
142
0.0208333333333333
142
0.0
142
0.0
142
0.0
142
0.0
142
1.0
142
0.0
142
0.0
142
0.0
142
0.0
142
1.0
179
     0
144
0.0208333333333333
144
0.0
144
0.0
144
0.0
144
0.0
144
0.0208333333333333
144
0.0
144
0.0
144
0.0
144
0.0
144
1.0
144
0.0
144
0.0
144
0.0
144
0.0
144
1.0
147
0.0208333333333333
147
0.0
147
0.0
147
0.0
147
0.0
147
0.0208333333333333
147
0.0
147
0.0
147
0.0
147
0.0
147
1.0
147
0.0
147
0.0
147
0.0
147
0.0
147
1.0
  0
MATERIAL
  5
80AF
102
{ACAD_XDICTIONARY
360
80B0
102
}
102
{ACAD_REACTORS
330
809E
102
}
330
809E
100
AcDbMaterial
  1
Global
 72
     0
 43
0.0208333333333333
 43
0.0
 43
0.0
 43
0.0
 43
0.0
 43
0.0208333333333333
 43
0.0
 43
0.0
 43
0.0
 43
0.0
 43
1.0
 43
0.0
 43
0.0
 43
0.0
 43
0.0
 43
1.0
 77
     0
 47
0.0208333333333333
 47
0.0
 47
0.0
 47
0.0
 47
0.0
 47
0.0208333333333333
 47
0.0
 47
0.0
 47
0.0
 47
0.0
 47
1.0
 47
0.0
 47
0.0
 47
0.0
 47
0.0
 47
1.0
171
     0
 49
0.0208333333333333
 49
0.0
 49
0.0
 49
0.0
 49
0.0
 49
0.0208333333333333
 49
0.0
 49
0.0
 49
0.0
 49
0.0
 49
1.0
 49
0.0
 49
0.0
 49
0.0
 49
0.0
 49
1.0
175
     0
142
0.0208333333333333
142
0.0
142
0.0
142
0.0
142
0.0
142
0.0208333333333333
142
0.0
142
0.0
142
0.0
142
0.0
142
1.0
142
0.0
142
0.0
142
0.0
142
0.0
142
1.0
179
     0
144
0.0208333333333333
144
0.0
144
0.0
144
0.0
144
0.0
144
0.0208333333333333
144
0.0
144
0.0
144
0.0
144
0.0
144
1.0
144
0.0
144
0.0
144
0.0
144
0.0
144
1.0
147
0.0208333333333333
147
0.0
147
0.0
147
0.0
147
0.0
147
0.0208333333333333
147
0.0
147
0.0
147
0.0
147
0.0
147
1.0
147
0.0
147
0.0
147
0.0
147
0.0
147
1.0
  0
MLEADERSTYLE
  5
80E6
102
{ACAD_REACTORS
330
80E5
102
}
330
80E5
100
AcDbMLeaderStyle
179
     2
170
     2
171
     1
172
     0
 90
        2
 40
0.0
 41
0.0
173
     1
 91
-1056964608
340
13
 92
       -2
290
     1
 42
2.0
291
     1
 43
0.36
  3
Standard
 44
4.0
300

342
10
174
     1
178
     6
175
     1
176
     0
 93
-1056964608
 45
4.0
292
     0
297
     0
 46
4.0
 94
-1056964608
 47
1.0
 49
1.0
140
1.0
293
     1
141
0.0
294
     1
177
     0
142
1.0
295
     0
296
     0
143
0.125
271
     0
272
     9
273
     9
298
     1
  0
MLINESTYLE
  5
1C
102
{ACAD_REACTORS
330
E
102
}
330
E
100
AcDbMlineStyle
  2
STANDARD
 70
     0
  3

 62
     0
 51
90.0
 52
90.0
 71
     2
 49
0.5
 62
   256
  6
BYLAYER
 49
-0.5
 62
   256
  6
BYLAYER
  0
ACDBPLACEHOLDER
  5
7FD9
102
{ACAD_REACTORS
330
7FD8
102
}
330
7FD8
  0
SCALE
  5
80D4
102
{ACAD_REACTORS
330
80D3
102
}
330
80D3
100
AcDbScale
 70
     0
300
1:1
140
1.0
141
1.0
290
     1
  0
SCALE
  5
80D5
102
{ACAD_REACTORS
330
80D3
102
}
330
80D3
100
AcDbScale
 70
     0
300
1:2
140
1.0
141
2.0
290
     0
  0
SCALE
  5
80D6
102
{ACAD_REACTORS
330
80D3
102
}
330
80D3
100
AcDbScale
 70
     0
300
1:4
140
1.0
141
4.0
290
     0
  0
SCALE
  5
80D7
102
{ACAD_REACTORS
330
80D3
102
}
330
80D3
100
AcDbScale
 70
     0
300
1:5
140
1.0
141
5.0
290
     0
  0
SCALE
  5
80D8
102
{ACAD_REACTORS
330
80D3
102
}
330
80D3
100
AcDbScale
 70
     0
300
1:8
140
1.0
141
8.0
290
     0
  0
SCALE
  5
80D9
102
{ACAD_REACTORS
330
80D3
102
}
330
80D3
100
AcDbScale
 70
     0
300
1:10
140
1.0
141
10.0
290
     0
  0
SCALE
  5
80DA
102
{ACAD_REACTORS
330
80D3
102
}
330
80D3
100
AcDbScale
 70
     0
300
1:16
140
1.0
141
16.0
290
     0
  0
SCALE
  5
80DB
102
{ACAD_REACTORS
330
80D3
102
}
330
80D3
100
AcDbScale
 70
     0
300
1:20
140
1.0
141
20.0
290
     0
  0
SCALE
  5
80DC
102
{ACAD_REACTORS
330
80D3
102
}
330
80D3
100
AcDbScale
 70
     0
300
1:30
140
1.0
141
30.0
290
     0
  0
SCALE
  5
80DD
102
{ACAD_REACTORS
330
80D3
102
}
330
80D3
100
AcDbScale
 70
     0
300
1:40
140
1.0
141
40.0
290
     0
  0
SCALE
  5
80DE
102
{ACAD_REACTORS
330
80D3
102
}
330
80D3
100
AcDbScale
 70
     0
300
1:50
140
1.0
141
50.0
290
     0
  0
SCALE
  5
80DF
102
{ACAD_REACTORS
330
80D3
102
}
330
80D3
100
AcDbScale
 70
     0
300
1:100
140
1.0
141
100.0
290
     0
  0
SCALE
  5
80E0
102
{ACAD_REACTORS
330
80D3
102
}
330
80D3
100
AcDbScale
 70
     0
300
2:1
140
2.0
141
1.0
290
     0
  0
SCALE
  5
80E1
102
{ACAD_REACTORS
330
80D3
102
}
330
80D3
100
AcDbScale
 70
     0
300
4:1
140
4.0
141
1.0
290
     0
  0
SCALE
  5
80E2
102
{ACAD_REACTORS
330
80D3
102
}
330
80D3
100
AcDbScale
 70
     0
300
8:1
140
8.0
141
1.0
290
     0
  0
SCALE
  5
80E3
102
{ACAD_REACTORS
330
80D3
102
}
330
80D3
100
AcDbScale
 70
     0
300
10:1
140
10.0
141
1.0
290
     0
  0
SCALE
  5
80E4
102
{ACAD_REACTORS
330
80D3
102
}
330
80D3
100
AcDbScale
 70
     0
300
100:1
140
100.0
141
1.0
290
     0
  0
ACDBSECTIONVIEWSTYLE
  5
80E8
102
{ACAD_XDICTIONARY
360
814D
102
}
102
{ACAD_REACTORS
330
80E7
102
}
330
80E7
100
AcDbModelDocViewStyle
 70
     0
  3
Metric50
290
     0
100
AcDbSectionViewStyle
 70
     0
 71
     0
 90
      102
 71
     1
340
10
 62
   256
 40
5.0
340
0
340
0
 62
   256
 40
5.0
300
I, O, Q, S, X, Z
 40
10.0
 90
        0
 40
2.5
 90
        0
 71
     2
340
15
 90
       25
 62
   256
340
15
 90
       50
 62
   256
 40
5.0
 40
2.5
 40
5.0
 71
     3
340
10
 62
   256
 40
5.0
 90
        0
 40
15.0
 90
        1
300
%<\AcVar ViewSectionStartId>%-%<\AcVar ViewSectionEndId>% (%<\AcVar ViewScale \f "%sn">%)
 71
     4
 62
   256
 62
   257
300
ANSI31
 40
1.0
 90
        0
290
     0
290
     0
 90
        6
 40
0.0
 40
1.570796326794896
 40
0.2617993877991494
 40
1.308996938995747
 40
-0.2617993877991494
 40
1.832595714594046
  0
TABLESTYLE
  5
80D2
102
{ACAD_XDICTIONARY
360
8142
102
}
102
{ACAD_REACTORS
330
80D1
102
}
330
80D1
100
AcDbTableStyle
280
     0
  3
Standard
 70
     0
 71
     0
 40
1.5
 41
1.5
280
     0
281
     0
  7
STANDARD
140
4.5
170
     2
 62
     0
 63
     7
283
     0
 90
      512
 91
        0
  1

274
    -2
284
     1
 64
     0
275
    -2
285
     1
 65
     0
276
    -2
286
     1
 66
     0
277
    -2
287
     1
 67
     0
278
    -2
288
     1
 68
     0
279
    -2
289
     1
 69
     0
  7
STANDARD
140
6.0
170
     5
 62
     0
 63
     7
283
     0
 90
      512
 91
        0
  1

274
    -2
284
     1
 64
     0
275
    -2
285
     1
 65
     0
276
    -2
286
     1
 66
     0
277
    -2
287
     1
 67
     0
278
    -2
288
     1
 68
     0
279
    -2
289
     1
 69
     0
  7
STANDARD
140
4.5
170
     5
 62
     0
 63
     7
283
     0
 90
      512
 91
        0
  1

274
    -2
284
     1
 64
     0
275
    -2
285
     1
 65
     0
276
    -2
286
     1
 66
     0
277
    -2
287
     1
 67
     0
278
    -2
288
     1
 68
     0
279
    -2
289
     1
 69
     0
  0
VISUALSTYLE
  5
80BD
102
{ACAD_REACTORS
330
80B7
102
}
330
80B7
100
AcDbVisualStyle
  2
2dWireframe
 70
     4
177
     3
291
     0
 70
    58
 90
        0
176
     1
 90
        2
176
     1
 90
        0
176
     1
 90
        0
176
     1
 40
0.6
176
     1
 40
30.0
176
     1
 62
     7
420
 16777215
176
     1
 90
        1
176
     1
 90
        4
176
     1
 62
     7
176
     1
 62
   257
176
     1
 90
        1
176
     1
 90
        1
176
     1
 40
1.0
176
     1
 90
        0
176
     1
 62
   257
176
     1
 40
1.0
176
     1
 90
        1
176
     1
 90
        6
176
     1
 90
        2
176
     1
 62
     7
176
     1
 90
        5
176
     1
 90
        0
176
     1
 90
        0
176
     1
290
     0
176
     1
 90
        1
176
     1
 40
0.0
176
     1
 90
        0
176
     1
290
     1
176
     1
290
     1
176
     1
290
     0
176
     1
290
     0
176
     1
290
     0
176
     1
290
     0
176
     1
290
     0
176
     1
290
     0
176
     1
290
     0
176
     1
 90
       50
176
     1
 40
0.0
176
     1
 40
1.0
176
     1
 90
        0
176
     1
 62
    18
420
        0
176
     1
 90
       50
176
     1
 90
        3
176
     1
 62
     5
420
      255
176
     1
290
     0
176
     1
 90
       50
176
     1
 90
       50
176
     1
 90
       50
176
     1
290
     0
176
     1
 90
       50
176
     1
 62
   256
176
     0
 40
1.0
176
     0
 90
        2
176
     1
  1
strokes_ogs.tif
176
     1
290
     0
176
     1
 40
1.0
176
     1
 40
1.0
176
     1
1001
ACAD
1000
AcDbSavedByObjectVersion
1070
     0
  0
VISUALSTYLE
  5
80BC
102
{ACAD_REACTORS
330
80B7
102
}
330
80B7
100
AcDbVisualStyle
  2
Basic
 70
     7
177
     3
291
     1
 70
    58
 90
        1
176
     1
 90
        0
176
     1
 90
        1
176
     1
 90
        0
176
     1
 40
0.6
176
     1
 40
30.0
176
     1
 62
     7
420
 16777215
176
     1
 90
        0
176
     1
 90
        4
176
     1
 62
     7
176
     1
 62
   257
176
     1
 90
        1
176
     1
 90
        1
176
     1
 40
1.0
176
     1
 90
        8
176
     1
 62
     7
176
     1
 40
1.0
176
     1
 90
        1
176
     1
 90
        6
176
     1
 90
        2
176
     1
 62
     7
176
     1
 90
        5
176
     1
 90
        0
176
     1
 90
        0
176
     1
290
     0
176
     1
 90
        1
176
     1
 40
0.0
176
     1
 90
        0
176
     1
290
     0
176
     1
290
     1
176
     1
290
     1
176
     1
290
     0
176
     1
290
     0
176
     1
290
     0
176
     1
290
     0
176
     1
290
     0
176
     1
290
     0
176
     1
 90
       50
176
     1
 40
0.0
176
     1
 40
1.0
176
     1
 90
        0
176
     1
 62
    18
420
        0
176
     1
 90
       50
176
     1
 90
        3
176
     1
 62
     5
420
      255
176
     1
290
     0
176
     1
 90
       50
176
     1
 90
       50
176
     1
 90
       50
176
     1
290
     0
176
     1
 90
       50
176
     1
 62
   256
176
     0
 40
1.0
176
     0
 90
        2
176
     1
  1
strokes_ogs.tif
176
     1
290
     0
176
     1
 40
1.0
176
     1
 40
1.0
176
     1
1001
ACAD
1000
AcDbSavedByObjectVersion
1070
     0
  0
VISUALSTYLE
  5
80C3
102
{ACAD_REACTORS
330
80B7
102
}
330
80B7
100
AcDbVisualStyle
  2
Brighten
 70
    12
177
     3
291
     1
 70
    58
 90
        2
176
     1
 90
        2
176
     1
 90
        0
176
     1
 90
        0
176
     1
 40
0.6
176
     1
 40
30.0
176
     1
 62
     7
420
 16777215
176
     1
 90
        1
176
     1
 90
        4
176
     1
 62
     7
176
     1
 62
   257
176
     1
 90
        1
176
     1
 90
        1
176
     1
 40
1.0
176
     1
 90
        8
176
     1
 62
     7
176
     1
 40
1.0
176
     1
 90
        1
176
     1
 90
        6
176
     1
 90
        2
176
     1
 62
     7
176
     1
 90
        5
176
     1
 90
        0
176
     1
 90
        0
176
     1
290
     0
176
     1
 90
        1
176
     1
 40
50.0
176
     1
 90
        0
176
     1
290
     0
176
     1
290
     1
176
     1
290
     1
176
     1
290
     0
176
     1
290
     0
176
     1
290
     0
176
     1
290
     0
176
     1
290
     0
176
     1
290
     0
176
     1
 90
       50
176
     1
 40
0.0
176
     1
 40
1.0
176
     1
 90
        0
176
     1
 62
    18
420
        0
176
     1
 90
       50
176
     1
 90
        3
176
     1
 62
     5
420
      255
176
     1
290
     0
176
     1
 90
       50
176
     1
 90
       50
176
     1
 90
       50
176
     1
290
     0
176
     1
 90
       50
176
     1
 62
   256
176
     0
 40
1.0
176
     0
 90
        2
176
     1
  1
strokes_ogs.tif
176
     1
290
     0
176
     1
 40
1.0
176
     1
 40
1.0
176
     1
1001
ACAD
1000
AcDbSavedByObjectVersion
1070
     0
  0
VISUALSTYLE
  5
80C7
102
{ACAD_REACTORS
330
80B7
102
}
330
80B7
100
AcDbVisualStyle
  2
ColorChange
 70
    16
177
     3
291
     1
 70
    58
 90
        2
176
     1
 90
        2
176
     1
 90
        3
176
     1
 90
        0
176
     1
 40
0.6
176
     1
 40
30.0
176
     1
 62
     8
420
  8421504
176
     1
 90
        1
176
     1
 90
        4
176
     1
 62
     7
176
     1
 62
   257
176
     1
 90
        1
176
     1
 90
        1
176
     1
 40
1.0
176
     1
 90
        8
176
     1
 62
     8
420
  8421504
176
     1
 40
1.0
176
     1
 90
        1
176
     1
 90
        6
176
     1
 90
        2
176
     1
 62
     7
176
     1
 90
        5
176
     1
 90
        0
176
     1
 90
        0
176
     1
290
     0
176
     1
 90
        1
176
     1
 40
0.0
176
     1
 90
        0
176
     1
290
     0
176
     1
290
     1
176
     1
290
     1
176
     1
290
     0
176
     1
290
     0
176
     1
290
     0
176
     1
290
     0
176
     1
290
     0
176
     1
290
     0
176
     1
 90
       50
176
     1
 40
0.0
176
     1
 40
1.0
176
     1
 90
        0
176
     1
 62
    18
420
        0
176
     1
 90
       50
176
     1
 90
        3
176
     1
 62
     5
420
      255
176
     1
290
     0
176
     1
 90
       50
176
     1
 90
       50
176
     1
 90
       50
176
     1
290
     0
176
     1
 90
       50
176
     1
 62
   256
176
     0
 40
1.0
176
     0
 90
        2
176
     1
  1
strokes_ogs.tif
176
     1
290
     0
176
     1
 40
1.0
176
     1
 40
1.0
176
     1
1001
ACAD
1000
AcDbSavedByObjectVersion
1070
     0
  0
VISUALSTYLE
  5
80C0
102
{ACAD_REACTORS
330
80B7
102
}
330
80B7
100
AcDbVisualStyle
  2
Conceptual
 70
     9
177
     3
291
     0
 70
    58
 90
        3
176
     1
 90
        2
176
     1
 90
        0
176
     1
 90
        0
176
     1
 40
0.6
176
     1
 40
30.0
176
     1
 62
     7
420
 16777215
176
     1
 90
        2
176
     1
 90
        2
176
     1
 62
     7
176
     1
 62
   257
176
     1
 90
        1
176
     1
 90
        1
176
     1
 40
179.0
176
     1
 90
        8
176
     1
 62
     7
176
     1
 40
1.0
176
     1
 90
        1
176
     1
 90
        6
176
     1
 90
        2
176
     1
 62
     7
176
     1
 90
        3
176
     1
 90
        0
176
     1
 90
        0
176
     1
290
     0
176
     1
 90
        1
176
     1
 40
0.0
176
     1
 90
        0
176
     1
290
     0
176
     1
290
     1
176
     1
290
     1
176
     1
290
     0
176
     1
290
     0
176
     1
290
     0
176
     1
290
     0
176
     1
290
     0
176
     1
290
     0
176
     1
 90
       50
176
     1
 40
0.0
176
     1
 40
1.0
176
     1
 90
        0
176
     1
 62
    18
420
        0
176
     1
 90
       50
176
     1
 90
        3
176
     1
 62
     5
420
      255
176
     1
290
     0
176
     1
 90
       50
176
     1
 90
       50
176
     1
 90
       50
176
     1
290
     0
176
     1
 90
       50
176
     1
 62
   256
176
     0
 40
1.0
176
     0
 90
        2
176
     1
  1
strokes_ogs.tif
176
     1
290
     0
176
     1
 40
1.0
176
     1
 40
1.0
176
     1
1001
ACAD
1000
AcDbSavedByObjectVersion
1070
     0
  0
VISUALSTYLE
  5
80C2
102
{ACAD_REACTORS
330
80B7
102
}
330
80B7
100
AcDbVisualStyle
  2
Dim
 70
    11
177
     3
291
     1
 70
    58
 90
        2
176
     1
 90
        2
176
     1
 90
        0
176
     1
 90
        0
176
     1
 40
0.6
176
     1
 40
30.0
176
     1
 62
     7
420
 16777215
176
     1
 90
        1
176
     1
 90
        4
176
     1
 62
     7
176
     1
 62
   257
176
     1
 90
        1
176
     1
 90
        1
176
     1
 40
1.0
176
     1
 90
        8
176
     1
 62
     7
176
     1
 40
1.0
176
     1
 90
        1
176
     1
 90
        6
176
     1
 90
        2
176
     1
 62
     7
176
     1
 90
        5
176
     1
 90
        0
176
     1
 90
        0
176
     1
290
     0
176
     1
 90
        1
176
     1
 40
-50.0
176
     1
 90
        0
176
     1
290
     0
176
     1
290
     1
176
     1
290
     1
176
     1
290
     0
176
     1
290
     0
176
     1
290
     0
176
     1
290
     0
176
     1
290
     0
176
     1
290
     0
176
     1
 90
       50
176
     1
 40
0.0
176
     1
 40
1.0
176
     1
 90
        0
176
     1
 62
    18
420
        0
176
     1
 90
       50
176
     1
 90
        3
176
     1
 62
     5
420
      255
176
     1
290
     0
176
     1
 90
       50
176
     1
 90
       50
176
     1
 90
       50
176
     1
290
     0
176
     1
 90
       50
176
     1
 62
   256
176
     0
 40
1.0
176
     0
 90
        2
176
     1
  1
strokes_ogs.tif
176
     1
290
     0
176
     1
 40
1.0
176
     1
 40
1.0
176
     1
1001
ACAD
1000
AcDbSavedByObjectVersion
1070
     0
  0
VISUALSTYLE
  5
80CF
102
{ACAD_REACTORS
330
80B7
102
}
330
80B7
100
AcDbVisualStyle
  2
EdgeColorOff
 70
    22
177
     3
291
     1
 70
    58
 90
        2
176
     0
 90
        2
176
     0
 90
        0
176
     0
 90
        0
176
     0
 40
0.6
176
     0
 40
30.0
176
     0
 62
     7
420
 16777215
176
     0
 90
        1
176
     0
 90
        4
176
     0
 62
     7
176
     0
 62
   257
176
     0
 90
        1
176
     0
 90
        1
176
     0
 40
1.0
176
     0
 90
        8
176
     2
 62
     7
176
     0
 40
1.0
176
     0
 90
        1
176
     0
 90
        6
176
     0
 90
        2
176
     0
 62
     7
176
     0
 90
        5
176
     0
 90
        0
176
     0
 90
        0
176
     0
290
     0
176
     0
 90
        1
176
     0
 40
0.0
176
     0
 90
        0
176
     0
290
     0
176
     0
290
     1
176
     0
290
     1
176
     0
290
     0
176
     0
290
     0
176
     0
290
     0
176
     0
290
     0
176
     0
290
     0
176
     0
290
     0
176
     0
 90
       50
176
     0
 40
0.0
176
     0
 40
1.0
176
     0
 90
        0
176
     0
 62
    18
420
        0
176
     0
 90
       50
176
     0
 90
        3
176
     0
 62
     5
420
      255
176
     0
290
     0
176
     0
 90
       50
176
     0
 90
       50
176
     0
 90
       50
176
     0
290
     0
176
     0
 90
       50
176
     0
 62
   256
176
     0
 40
1.0
176
     0
 90
        2
176
     0
  1
strokes_ogs.tif
176
     0
290
     0
176
     0
 40
1.0
176
     0
 40
1.0
176
     0
1001
ACAD
1000
AcDbSavedByObjectVersion
1070
     0
  0
VISUALSTYLE
  5
80C6
102
{ACAD_REACTORS
330
80B7
102
}
330
80B7
100
AcDbVisualStyle
  2
Facepattern
 70
    15
177
     3
291
     1
 70
    58
 90
        2
176
     1
 90
        2
176
     1
 90
        0
176
     1
 90
        0
176
     1
 40
0.6
176
     1
 40
30.0
176
     1
 62
     7
420
 16777215
176
     1
 90
        1
176
     1
 90
        4
176
     1
 62
     7
176
     1
 62
   257
176
     1
 90
        1
176
     1
 90
        1
176
     1
 40
1.0
176
     1
 90
        8
176
     1
 62
     7
176
     1
 40
1.0
176
     1
 90
        1
176
     1
 90
        6
176
     1
 90
        2
176
     1
 62
     7
176
     1
 90
        5
176
     1
 90
        0
176
     1
 90
        0
176
     1
290
     0
176
     1
 90
        1
176
     1
 40
0.0
176
     1
 90
        0
176
     1
290
     0
176
     1
290
     1
176
     1
290
     1
176
     1
290
     0
176
     1
290
     0
176
     1
290
     0
176
     1
290
     0
176
     1
290
     0
176
     1
290
     0
176
     1
 90
       50
176
     1
 40
0.0
176
     1
 40
1.0
176
     1
 90
        0
176
     1
 62
    18
420
        0
176
     1
 90
       50
176
     1
 90
        3
176
     1
 62
     5
420
      255
176
     1
290
     0
176
     1
 90
       50
176
     1
 90
       50
176
     1
 90
       50
176
     1
290
     0
176
     1
 90
       50
176
     1
 62
   256
176
     0
 40
1.0
176
     0
 90
        2
176
     1
  1
strokes_ogs.tif
176
     1
290
     0
176
     1
 40
1.0
176
     1
 40
1.0
176
     1
1001
ACAD
1000
AcDbSavedByObjectVersion
1070
     0
  0
VISUALSTYLE
  5
80B8
102
{ACAD_REACTORS
330
80B7
102
}
330
80B7
100
AcDbVisualStyle
  2
Flat
 70
     0
177
     3
291
     1
 70
    58
 90
        2
176
     1
 90
        1
176
     1
 90
        1
176
     1
 90
        2
176
     1
 40
0.6
176
     1
 40
30.0
176
     1
 62
     7
420
 16777215
176
     1
 90
        0
176
     1
 90
        0
176
     1
 62
     7
176
     1
 62
   257
176
     1
 90
        1
176
     1
 90
        1
176
     1
 40
1.0
176
     1
 90
        8
176
     1
 62
     7
176
     1
 40
1.0
176
     1
 90
        1
176
     1
 90
        6
176
     1
 90
        2
176
     1
 62
     7
176
     1
 90
        5
176
     1
 90
        0
176
     1
 90
        0
176
     1
290
     0
176
     1
 90
       13
176
     1
 40
0.0
176
     1
 90
        0
176
     1
290
     0
176
     1
290
     1
176
     1
290
     1
176
     1
290
     0
176
     1
290
     0
176
     1
290
     0
176
     1
290
     0
176
     1
290
     0
176
     1
290
     0
176
     1
 90
       50
176
     1
 40
0.0
176
     1
 40
1.0
176
     1
 90
        0
176
     1
 62
    18
420
        0
176
     1
 90
       50
176
     1
 90
        3
176
     1
 62
     5
420
      255
176
     1
290
     0
176
     1
 90
       50
176
     1
 90
       50
176
     1
 90
       50
176
     1
290
     0
176
     1
 90
       50
176
     1
 62
   256
176
     0
 40
1.0
176
     0
 90
        2
176
     1
  1
strokes_ogs.tif
176
     1
290
     0
176
     1
 40
1.0
176
     1
 40
1.0
176
     1
1001
ACAD
1000
AcDbSavedByObjectVersion
1070
     0
  0
VISUALSTYLE
  5
80B9
102
{ACAD_REACTORS
330
80B7
102
}
330
80B7
100
AcDbVisualStyle
  2
FlatWithEdges
 70
     1
177
     3
291
     1
 70
    58
 90
        2
176
     1
 90
        1
176
     1
 90
        1
176
     1
 90
        2
176
     1
 40
0.6
176
     1
 40
30.0
176
     1
 62
     7
420
 16777215
176
     1
 90
        1
176
     1
 90
        0
176
     1
 62
     7
176
     1
 62
   257
176
     1
 90
        1
176
     1
 90
        1
176
     1
 40
1.0
176
     1
 90
        0
176
     1
 62
   257
176
     1
 40
1.0
176
     1
 90
        1
176
     1
 90
        6
176
     1
 90
        2
176
     1
 62
     7
176
     1
 90
        5
176
     1
 90
        0
176
     1
 90
        0
176
     1
290
     0
176
     1
 90
       13
176
     1
 40
0.0
176
     1
 90
        0
176
     1
290
     0
176
     1
290
     1
176
     1
290
     1
176
     1
290
     0
176
     1
290
     0
176
     1
290
     0
176
     1
290
     0
176
     1
290
     0
176
     1
290
     0
176
     1
 90
       50
176
     1
 40
0.0
176
     1
 40
1.0
176
     1
 90
        0
176
     1
 62
    18
420
        0
176
     1
 90
       50
176
     1
 90
        3
176
     1
 62
     5
420
      255
176
     1
290
     0
176
     1
 90
       50
176
     1
 90
       50
176
     1
 90
       50
176
     1
290
     0
176
     1
 90
       50
176
     1
 62
   256
176
     0
 40
1.0
176
     0
 90
        2
176
     1
  1
strokes_ogs.tif
176
     1
290
     0
176
     1
 40
1.0
176
     1
 40
1.0
176
     1
1001
ACAD
1000
AcDbSavedByObjectVersion
1070
     0
  0
VISUALSTYLE
  5
80BA
102
{ACAD_REACTORS
330
80B7
102
}
330
80B7
100
AcDbVisualStyle
  2
Gouraud
 70
     2
177
     3
291
     1
 70
    58
 90
        2
176
     1
 90
        2
176
     1
 90
        1
176
     1
 90
        2
176
     1
 40
0.6
176
     1
 40
30.0
176
     1
 62
     7
420
 16777215
176
     1
 90
        0
176
     1
 90
        0
176
     1
 62
     7
176
     1
 62
   257
176
     1
 90
        1
176
     1
 90
        1
176
     1
 40
1.0
176
     1
 90
        0
176
     1
 62
     7
176
     1
 40
1.0
176
     1
 90
        1
176
     1
 90
        6
176
     1
 90
        2
176
     1
 62
     7
176
     1
 90
        5
176
     1
 90
        0
176
     1
 90
        0
176
     1
290
     0
176
     1
 90
       13
176
     1
 40
0.0
176
     1
 90
        0
176
     1
290
     0
176
     1
290
     1
176
     1
290
     1
176
     1
290
     0
176
     1
290
     0
176
     1
290
     0
176
     1
290
     0
176
     1
290
     0
176
     1
290
     0
176
     1
 90
       50
176
     1
 40
0.0
176
     1
 40
1.0
176
     1
 90
        0
176
     1
 62
    18
420
        0
176
     1
 90
       50
176
     1
 90
        3
176
     1
 62
     5
420
      255
176
     1
290
     0
176
     1
 90
       50
176
     1
 90
       50
176
     1
 90
       50
176
     1
290
     0
176
     1
 90
       50
176
     1
 62
   256
176
     0
 40
1.0
176
     0
 90
        2
176
     1
  1
strokes_ogs.tif
176
     1
290
     0
176
     1
 40
1.0
176
     1
 40
1.0
176
     1
1001
ACAD
1000
AcDbSavedByObjectVersion
1070
     0
  0
VISUALSTYLE
  5
80BB
102
{ACAD_REACTORS
330
80B7
102
}
330
80B7
100
AcDbVisualStyle
  2
GouraudWithEdges
 70
     3
177
     3
291
     1
 70
    58
 90
        2
176
     1
 90
        2
176
     1
 90
        1
176
     1
 90
        2
176
     1
 40
0.6
176
     1
 40
30.0
176
     1
 62
     7
420
 16777215
176
     1
 90
        1
176
     1
 90
        0
176
     1
 62
     7
176
     1
 62
   257
176
     1
 90
        1
176
     1
 90
        1
176
     1
 40
1.0
176
     1
 90
        0
176
     1
 62
   257
176
     1
 40
1.0
176
     1
 90
        1
176
     1
 90
        6
176
     1
 90
        2
176
     1
 62
     7
176
     1
 90
        5
176
     1
 90
        0
176
     1
 90
        0
176
     1
290
     0
176
     1
 90
       13
176
     1
 40
0.0
176
     1
 90
        0
176
     1
290
     0
176
     1
290
     1
176
     1
290
     1
176
     1
290
     0
176
     1
290
     0
176
     1
290
     0
176
     1
290
     0
176
     1
290
     0
176
     1
290
     0
176
     1
 90
       50
176
     1
 40
0.0
176
     1
 40
1.0
176
     1
 90
        0
176
     1
 62
    18
420
        0
176
     1
 90
       50
176
     1
 90
        3
176
     1
 62
     5
420
      255
176
     1
290
     0
176
     1
 90
       50
176
     1
 90
       50
176
     1
 90
       50
176
     1
290
     0
176
     1
 90
       50
176
     1
 62
   256
176
     0
 40
1.0
176
     0
 90
        2
176
     1
  1
strokes_ogs.tif
176
     1
290
     0
176
     1
 40
1.0
176
     1
 40
1.0
176
     1
1001
ACAD
1000
AcDbSavedByObjectVersion
1070
     0
  0
VISUALSTYLE
  5
80BF
102
{ACAD_REACTORS
330
80B7
102
}
330
80B7
100
AcDbVisualStyle
  2
Hidden
 70
     6
177
     3
291
     0
 70
    58
 90
        1
176
     1
 90
        2
176
     1
 90
        2
176
     1
 90
        0
176
     1
 40
0.6
176
     1
 40
30.0
176
     1
 62
     7
420
 16777215
176
     1
 90
        2
176
     1
 90
        2
176
     1
 62
     7
176
     1
 62
   257
176
     1
 90
        2
176
     1
 90
        1
176
     1
 40
40.0
176
     1
 90
        0
176
     1
 62
   257
176
     1
 40
1.0
176
     1
 90
        1
176
     1
 90
        6
176
     1
 90
        2
176
     1
 62
     7
176
     1
 90
        3
176
     1
 90
        0
176
     1
 90
        0
176
     1
290
     0
176
     1
 90
        1
176
     1
 40
0.0
176
     1
 90
        0
176
     1
290
     0
176
     1
290
     1
176
     1
290
     1
176
     1
290
     0
176
     1
290
     0
176
     1
290
     0
176
     1
290
     0
176
     1
290
     0
176
     1
290
     0
176
     1
 90
       50
176
     1
 40
0.0
176
     1
 40
1.0
176
     1
 90
        0
176
     1
 62
    18
420
        0
176
     1
 90
       50
176
     1
 90
        3
176
     1
 62
     5
420
      255
176
     1
290
     0
176
     1
 90
       50
176
     1
 90
       50
176
     1
 90
       50
176
     1
290
     0
176
     1
 90
       50
176
     1
 62
   256
176
     0
 40
1.0
176
     0
 90
        2
176
     1
  1
strokes_ogs.tif
176
     1
290
     0
176
     1
 40
1.0
176
     1
 40
1.0
176
     1
1001
ACAD
1000
AcDbSavedByObjectVersion
1070
     0
  0
VISUALSTYLE
  5
80CD
102
{ACAD_REACTORS
330
80B7
102
}
330
80B7
100
AcDbVisualStyle
  2
JitterOff
 70
    20
177
     3
291
     1
 70
    58
 90
        2
176
     0
 90
        2
176
     0
 90
        0
176
     0
 90
        0
176
     0
 40
0.6
176
     0
 40
30.0
176
     0
 62
     7
420
 16777215
176
     0
 90
        1
176
     0
 90
        4
176
     0
 62
     7
176
     0
 62
   257
176
     0
 90
        1
176
     0
 90
        1
176
     0
 40
1.0
176
     0
 90
       10
176
     2
 62
     7
176
     0
 40
1.0
176
     0
 90
        1
176
     0
 90
        6
176
     0
 90
        2
176
     0
 62
     7
176
     0
 90
        5
176
     0
 90
        0
176
     0
 90
        0
176
     0
290
     0
176
     0
 90
        1
176
     0
 40
0.0
176
     0
 90
        0
176
     0
290
     0
176
     0
290
     1
176
     0
290
     1
176
     0
290
     0
176
     0
290
     0
176
     0
290
     0
176
     0
290
     0
176
     0
290
     0
176
     0
290
     0
176
     0
 90
       50
176
     0
 40
0.0
176
     0
 40
1.0
176
     0
 90
        0
176
     0
 62
    18
420
        0
176
     0
 90
       50
176
     0
 90
        3
176
     0
 62
     5
420
      255
176
     0
290
     0
176
     0
 90
       50
176
     0
 90
       50
176
     0
 90
       50
176
     0
290
     0
176
     0
 90
       50
176
     0
 62
   256
176
     0
 40
1.0
176
     0
 90
        2
176
     0
  1
strokes_ogs.tif
176
     0
290
     0
176
     0
 40
1.0
176
     0
 40
1.0
176
     0
1001
ACAD
1000
AcDbSavedByObjectVersion
1070
     0
  0
VISUALSTYLE
  5
80C5
102
{ACAD_REACTORS
330
80B7
102
}
330
80B7
100
AcDbVisualStyle
  2
Linepattern
 70
    14
177
     3
291
     1
 70
    58
 90
        2
176
     1
 90
        2
176
     1
 90
        0
176
     1
 90
        0
176
     1
 40
0.6
176
     1
 40
30.0
176
     1
 62
     7
420
 16777215
176
     1
 90
        1
176
     1
 90
        4
176
     1
 62
     7
176
     1
 62
   257
176
     1
 90
        7
176
     1
 90
        7
176
     1
 40
1.0
176
     1
 90
        8
176
     1
 62
     7
176
     1
 40
1.0
176
     1
 90
        1
176
     1
 90
        6
176
     1
 90
        2
176
     1
 62
     7
176
     1
 90
        5
176
     1
 90
        0
176
     1
 90
        0
176
     1
290
     0
176
     1
 90
        1
176
     1
 40
0.0
176
     1
 90
        0
176
     1
290
     0
176
     1
290
     1
176
     1
290
     1
176
     1
290
     0
176
     1
290
     0
176
     1
290
     0
176
     1
290
     0
176
     1
290
     0
176
     1
290
     0
176
     1
 90
       50
176
     1
 40
0.0
176
     1
 40
1.0
176
     1
 90
        0
176
     1
 62
    18
420
        0
176
     1
 90
       50
176
     1
 90
        3
176
     1
 62
     5
420
      255
176
     1
290
     0
176
     1
 90
       50
176
     1
 90
       50
176
     1
 90
       50
176
     1
290
     0
176
     1
 90
       50
176
     1
 62
   256
176
     0
 40
1.0
176
     0
 90
        2
176
     1
  1
strokes_ogs.tif
176
     1
290
     0
176
     1
 40
1.0
176
     1
 40
1.0
176
     1
1001
ACAD
1000
AcDbSavedByObjectVersion
1070
     0
  0
VISUALSTYLE
  5
80CE
102
{ACAD_REACTORS
330
80B7
102
}
330
80B7
100
AcDbVisualStyle
  2
OverhangOff
 70
    21
177
     3
291
     1
 70
    58
 90
        2
176
     0
 90
        2
176
     0
 90
        0
176
     0
 90
        0
176
     0
 40
0.6
176
     0
 40
30.0
176
     0
 62
     7
420
 16777215
176
     0
 90
        1
176
     0
 90
        4
176
     0
 62
     7
176
     0
 62
   257
176
     0
 90
        1
176
     0
 90
        1
176
     0
 40
1.0
176
     0
 90
        9
176
     2
 62
     7
176
     0
 40
1.0
176
     0
 90
        1
176
     0
 90
        6
176
     0
 90
        2
176
     0
 62
     7
176
     0
 90
        5
176
     0
 90
        0
176
     0
 90
        0
176
     0
290
     0
176
     0
 90
        1
176
     0
 40
0.0
176
     0
 90
        0
176
     0
290
     0
176
     0
290
     1
176
     0
290
     1
176
     0
290
     0
176
     0
290
     0
176
     0
290
     0
176
     0
290
     0
176
     0
290
     0
176
     0
290
     0
176
     0
 90
       50
176
     0
 40
0.0
176
     0
 40
1.0
176
     0
 90
        0
176
     0
 62
    18
420
        0
176
     0
 90
       50
176
     0
 90
        3
176
     0
 62
     5
420
      255
176
     0
290
     0
176
     0
 90
       50
176
     0
 90
       50
176
     0
 90
       50
176
     0
290
     0
176
     0
 90
       50
176
     0
 62
   256
176
     0
 40
1.0
176
     0
 90
        2
176
     0
  1
strokes_ogs.tif
176
     0
290
     0
176
     0
 40
1.0
176
     0
 40
1.0
176
     0
1001
ACAD
1000
AcDbSavedByObjectVersion
1070
     0
  0
VISUALSTYLE
  5
80C1
102
{ACAD_REACTORS
330
80B7
102
}
330
80B7
100
AcDbVisualStyle
  2
Realistic
 70
     8
177
     3
291
     0
 70
    58
 90
        2
176
     1
 90
        3
176
     1
 90
        0
176
     1
 90
        2
176
     1
 40
0.6
176
     1
 40
30.0
176
     1
 62
     7
420
 16777215
176
     1
 90
        0
176
     1
 90
        0
176
     1
 62
     7
176
     1
 62
   257
176
     1
 90
        1
176
     1
 90
        1
176
     1
 40
1.0
176
     1
 90
        8
176
     1
 62
   257
176
     1
 40
1.0
176
     1
 90
        1
176
     1
 90
        6
176
     1
 90
        2
176
     1
 62
     7
176
     1
 90
        3
176
     1
 90
        0
176
     1
 90
        0
176
     1
290
     0
176
     1
 90
       13
176
     1
 40
0.0
176
     1
 90
        0
176
     1
290
     0
176
     1
290
     1
176
     1
290
     1
176
     1
290
     0
176
     1
290
     0
176
     1
290
     0
176
     1
290
     0
176
     1
290
     0
176
     1
290
     0
176
     1
 90
       50
176
     1
 40
0.0
176
     1
 40
1.0
176
     1
 90
        0
176
     1
 62
    18
420
        0
176
     1
 90
       50
176
     1
 90
        3
176
     1
 62
     5
420
      255
176
     1
290
     0
176
     1
 90
       50
176
     1
 90
       50
176
     1
 90
       50
176
     1
290
     0
176
     1
 90
       50
176
     1
 62
   256
176
     0
 40
1.0
176
     0
 90
        2
176
     1
  1
strokes_ogs.tif
176
     1
290
     0
176
     1
 40
1.0
176
     1
 40
1.0
176
     1
1001
ACAD
1000
AcDbSavedByObjectVersion
1070
     0
  0
VISUALSTYLE
  5
80CC
102
{ACAD_REACTORS
330
80B7
102
}
330
80B7
100
AcDbVisualStyle
  2
Shaded
 70
    27
177
     3
291
     0
 70
    58
 90
        2
176
     1
 90
        2
176
     1
 90
        1
176
     1
 90
        2
176
     1
 40
0.6
176
     1
 40
30.0
176
     1
 62
     7
420
 16777215
176
     1
 90
        0
176
     1
 90
        4
176
     1
 62
     7
176
     1
 62
   257
176
     1
 90
        1
176
     1
 90
        1
176
     1
 40
1.0
176
     1
 90
        8
176
     1
 62
   257
176
     1
 40
1.0
176
     1
 90
        1
176
     1
 90
        6
176
     1
 90
        2
176
     1
 62
     8
420
  7895160
176
     1
 90
        3
176
     1
 90
        0
176
     1
 90
        0
176
     1
290
     0
176
     1
 90
        5
176
     1
 40
0.0
176
     1
 90
        0
176
     1
290
     0
176
     1
290
     1
176
     1
290
     1
176
     1
290
     0
176
     1
290
     0
176
     1
290
     0
176
     1
290
     0
176
     1
290
     0
176
     1
290
     0
176
     1
 90
       50
176
     1
 40
0.0
176
     1
 40
1.0
176
     1
 90
        0
176
     1
 62
    18
420
        0
176
     1
 90
       50
176
     1
 90
        3
176
     1
 62
     5
420
      255
176
     1
290
     0
176
     1
 90
       50
176
     1
 90
       50
176
     1
 90
       50
176
     1
290
     0
176
     1
 90
       50
176
     1
 62
   256
176
     0
 40
1.0
176
     0
 90
        2
176
     1
  1
strokes_ogs.tif
176
     1
290
     0
176
     1
 40
1.0
176
     1
 40
1.0
176
     1
1001
ACAD
1000
AcDbSavedByObjectVersion
1070
     0
  0
VISUALSTYLE
  5
80CB
102
{ACAD_REACTORS
330
80B7
102
}
330
80B7
100
AcDbVisualStyle
  2
Shaded with edges
 70
    26
177
     3
291
     0
 70
    58
 90
        2
176
     1
 90
        2
176
     1
 90
        1
176
     1
 90
        2
176
     1
 40
0.6
176
     1
 40
30.0
176
     1
 62
     7
420
 16777215
176
     1
 90
        1
176
     1
 90
        2
176
     1
 62
     7
176
     1
 62
   257
176
     1
 90
        2
176
     1
 90
        1
176
     1
 40
1.0
176
     1
 90
        8
176
     1
 62
   257
176
     1
 40
1.0
176
     1
 90
        1
176
     1
 90
        6
176
     1
 90
        2
176
     1
 62
     7
176
     1
 90
        3
176
     1
 90
        0
176
     1
 90
        0
176
     1
290
     0
176
     1
 90
        5
176
     1
 40
0.0
176
     1
 90
        0
176
     1
290
     0
176
     1
290
     1
176
     1
290
     1
176
     1
290
     0
176
     1
290
     0
176
     1
290
     0
176
     1
290
     0
176
     1
290
     0
176
     1
290
     0
176
     1
 90
       50
176
     1
 40
0.0
176
     1
 40
1.0
176
     1
 90
        0
176
     1
 62
    18
420
        0
176
     1
 90
       50
176
     1
 90
        3
176
     1
 62
     5
420
      255
176
     1
290
     0
176
     1
 90
       50
176
     1
 90
       50
176
     1
 90
       50
176
     1
290
     0
176
     1
 90
       50
176
     1
 62
   256
176
     0
 40
1.0
176
     0
 90
        2
176
     1
  1
strokes_ogs.tif
176
     1
290
     0
176
     1
 40
1.0
176
     1
 40
1.0
176
     1
1001
ACAD
1000
AcDbSavedByObjectVersion
1070
     0
  0
VISUALSTYLE
  5
80C8
102
{ACAD_REACTORS
330
80B7
102
}
330
80B7
100
AcDbVisualStyle
  2
Shades of Gray
 70
    23
177
     3
291
     0
 70
    58
 90
        2
176
     1
 90
        2
176
     1
 90
        3
176
     1
 90
        0
176
     1
 40
0.6
176
     1
 40
30.0
176
     1
 62
     7
420
 16777215
176
     1
 90
        2
176
     1
 90
        2
176
     1
 62
     7
176
     1
 62
     7
176
     1
 90
        1
176
     1
 90
        1
176
     1
 40
40.0
176
     1
 90
        8
176
     1
 62
     7
176
     1
 40
1.0
176
     1
 90
        1
176
     1
 90
        6
176
     1
 90
        2
176
     1
 62
     7
176
     1
 90
        3
176
     1
 90
        0
176
     1
 90
        0
176
     1
290
     0
176
     1
 90
        1
176
     1
 40
0.0
176
     1
 90
        0
176
     1
290
     0
176
     1
290
     1
176
     1
290
     1
176
     1
290
     0
176
     1
290
     0
176
     1
290
     0
176
     1
290
     0
176
     1
290
     0
176
     1
290
     0
176
     1
 90
       50
176
     1
 40
0.0
176
     1
 40
1.0
176
     1
 90
        0
176
     1
 62
    18
420
        0
176
     1
 90
       50
176
     1
 90
        3
176
     1
 62
     5
420
      255
176
     1
290
     0
176
     1
 90
       50
176
     1
 90
       50
176
     1
 90
       50
176
     1
290
     0
176
     1
 90
       50
176
     1
 62
   256
176
     0
 40
1.0
176
     0
 90
        2
176
     1
  1
strokes_ogs.tif
176
     1
290
     0
176
     1
 40
1.0
176
     1
 40
1.0
176
     1
1001
ACAD
1000
AcDbSavedByObjectVersion
1070
     0
  0
VISUALSTYLE
  5
80C9
102
{ACAD_REACTORS
330
80B7
102
}
330
80B7
100
AcDbVisualStyle
  2
Sketchy
 70
    24
177
     3
291
     0
 70
    58
 90
        1
176
     1
 90
        2
176
     1
 90
        2
176
     1
 90
        0
176
     1
 40
0.6
176
     1
 40
30.0
176
     1
 62
     7
420
 16777215
176
     1
 90
        2
176
     1
 90
        2
176
     1
 62
     7
176
     1
 62
     7
176
     1
 90
        1
176
     1
 90
        1
176
     1
 40
40.0
176
     1
 90
       11
176
     1
 62
     7
176
     1
 40
1.0
176
     1
 90
        1
176
     1
 90
        6
176
     1
 90
        2
176
     1
 62
     7
176
     1
 90
        6
176
     1
 90
        0
176
     1
 90
        0
176
     1
290
     0
176
     1
 90
        1
176
     1
 40
0.0
176
     1
 90
        0
176
     1
290
     0
176
     1
290
     1
176
     1
290
     1
176
     1
290
     0
176
     1
290
     0
176
     1
290
     0
176
     1
290
     0
176
     1
290
     0
176
     1
290
     0
176
     1
 90
       50
176
     1
 40
0.0
176
     1
 40
1.0
176
     1
 90
        0
176
     1
 62
    18
420
        0
176
     1
 90
       50
176
     1
 90
        3
176
     1
 62
     5
420
      255
176
     1
290
     0
176
     1
 90
       50
176
     1
 90
       50
176
     1
 90
       50
176
     1
290
     0
176
     1
 90
       50
176
     1
 62
   256
176
     0
 40
1.0
176
     0
 90
        2
176
     1
  1
strokes_ogs.tif
176
     1
290
     0
176
     1
 40
1.0
176
     1
 40
1.0
176
     1
1001
ACAD
1000
AcDbSavedByObjectVersion
1070
     0
  0
VISUALSTYLE
  5
80C4
102
{ACAD_REACTORS
330
80B7
102
}
330
80B7
100
AcDbVisualStyle
  2
Thicken
 70
    13
177
     3
291
     1
 70
    58
 90
        2
176
     1
 90
        2
176
     1
 90
        0
176
     1
 90
        0
176
     1
 40
0.6
176
     1
 40
30.0
176
     1
 62
     7
420
 16777215
176
     1
 90
        1
176
     1
 90
        4
176
     1
 62
     7
176
     1
 62
   257
176
     1
 90
        1
176
     1
 90
        1
176
     1
 40
1.0
176
     1
 90
       12
176
     1
 62
     7
176
     1
 40
1.0
176
     1
 90
        1
176
     1
 90
        6
176
     1
 90
        2
176
     1
 62
     7
176
     1
 90
        5
176
     1
 90
        0
176
     1
 90
        0
176
     1
290
     0
176
     1
 90
        1
176
     1
 40
0.0
176
     1
 90
        0
176
     1
290
     0
176
     1
290
     1
176
     1
290
     1
176
     1
290
     0
176
     1
290
     0
176
     1
290
     0
176
     1
290
     0
176
     1
290
     0
176
     1
290
     0
176
     1
 90
       50
176
     1
 40
0.0
176
     1
 40
1.0
176
     1
 90
        0
176
     1
 62
    18
420
        0
176
     1
 90
       50
176
     1
 90
        3
176
     1
 62
     5
420
      255
176
     1
290
     0
176
     1
 90
       50
176
     1
 90
       50
176
     1
 90
       50
176
     1
290
     0
176
     1
 90
       50
176
     1
 62
   256
176
     0
 40
1.0
176
     0
 90
        2
176
     1
  1
strokes_ogs.tif
176
     1
290
     0
176
     1
 40
1.0
176
     1
 40
1.0
176
     1
1001
ACAD
1000
AcDbSavedByObjectVersion
1070
     0
  0
VISUALSTYLE
  5
80BE
102
{ACAD_REACTORS
330
80B7
102
}
330
80B7
100
AcDbVisualStyle
  2
Wireframe
 70
     5
177
     3
291
     0
 70
    58
 90
        0
176
     1
 90
        2
176
     1
 90
        0
176
     1
 90
        0
176
     1
 40
0.6
176
     1
 40
30.0
176
     1
 62
     7
420
 16777215
176
     1
 90
        1
176
     1
 90
        4
176
     1
 62
     7
176
     1
 62
   257
176
     1
 90
        1
176
     1
 90
        1
176
     1
 40
1.0
176
     1
 90
        0
176
     1
 62
   257
176
     1
 40
1.0
176
     1
 90
        1
176
     1
 90
        6
176
     1
 90
        2
176
     1
 62
     7
176
     1
 90
        3
176
     1
 90
        0
176
     1
 90
        0
176
     1
290
     0
176
     1
 90
        1
176
     1
 40
0.0
176
     1
 90
        0
176
     1
290
     0
176
     1
290
     1
176
     1
290
     1
176
     1
290
     0
176
     1
290
     0
176
     1
290
     0
176
     1
290
     0
176
     1
290
     0
176
     1
290
     0
176
     1
 90
       50
176
     1
 40
0.0
176
     1
 40
1.0
176
     1
 90
        0
176
     1
 62
    18
420
        0
176
     1
 90
       50
176
     1
 90
        3
176
     1
 62
     5
420
      255
176
     1
290
     0
176
     1
 90
       50
176
     1
 90
       50
176
     1
 90
       50
176
     1
290
     0
176
     1
 90
       50
176
     1
 62
   256
176
     0
 40
1.0
176
     0
 90
        2
176
     1
  1
strokes_ogs.tif
176
     1
290
     0
176
     1
 40
1.0
176
     1
 40
1.0
176
     1
1001
ACAD
1000
AcDbSavedByObjectVersion
1070
     0
  0
VISUALSTYLE
  5
80CA
102
{ACAD_REACTORS
330
80B7
102
}
330
80B7
100
AcDbVisualStyle
  2
X-Ray
 70
    25
177
     3
291
     0
 70
    58
 90
        2
176
     1
 90
        2
176
     1
 90
        1
176
     1
 90
        1
176
     1
 40
0.5
176
     1
 40
30.0
176
     1
 62
     7
420
 16777215
176
     1
 90
        1
176
     1
 90
        0
176
     1
 62
     7
176
     1
 62
   257
176
     1
 90
        1
176
     1
 90
        1
176
     1
 40
1.0
176
     1
 90
        8
176
     1
 62
     7
176
     1
 40
1.0
176
     1
 90
        1
176
     1
 90
        6
176
     1
 90
        2
176
     1
 62
     7
176
     1
 90
        3
176
     1
 90
        0
176
     1
 90
        0
176
     1
290
     0
176
     1
 90
       13
176
     1
 40
0.0
176
     1
 90
        0
176
     1
290
     0
176
     1
290
     1
176
     1
290
     1
176
     1
290
     0
176
     1
290
     0
176
     1
290
     0
176
     1
290
     0
176
     1
290
     0
176
     1
290
     0
176
     1
 90
       50
176
     1
 40
0.0
176
     1
 40
1.0
176
     1
 90
        0
176
     1
 62
    18
420
        0
176
     1
 90
       50
176
     1
 90
        3
176
     1
 62
     5
420
      255
176
     1
290
     0
176
     1
 90
       50
176
     1
 90
       50
176
     1
 90
       50
176
     1
290
     0
176
     1
 90
       50
176
     1
 62
   256
176
     0
 40
1.0
176
     0
 90
        2
176
     1
  1
strokes_ogs.tif
176
     1
290
     0
176
     1
 40
1.0
176
     1
 40
1.0
176
     1
1001
ACAD
1000
AcDbSavedByObjectVersion
1070
     0
  0
DICTIONARYVAR
  5
8139
102
{ACAD_REACTORS
330
8095
102
}
330
8095
100
DictionaryVariables
280
     0
  1
1:1
  0
DICTIONARYVAR
  5
8135
102
{ACAD_REACTORS
330
8095
102
}
330
8095
100
DictionaryVariables
280
     0
  1
STANDARD
  0
DICTIONARYVAR
  5
8134
102
{ACAD_REACTORS
330
8095
102
}
330
8095
100
DictionaryVariables
280
     0
  1
STANDARD
  0
DICTIONARYVAR
  5
8136
102
{ACAD_REACTORS
330
8095
102
}
330
8095
100
DictionaryVariables
280
     0
  1
Metric50
  0
DICTIONARYVAR
  5
8137
102
{ACAD_REACTORS
330
8095
102
}
330
8095
100
DictionaryVariables
280
     0
  1
Metric50
  0
DICTIONARYVAR
  5
8096
102
{ACAD_REACTORS
330
8095
102
}
330
8095
100
DictionaryVariables
280
     0
  1
1
  0
DICTIONARYVAR
  5
813B
102
{ACAD_REACTORS
330
8095
102
}
330
8095
100
DictionaryVariables
280
     0
  1
1
  0
DICTIONARYVAR
  5
813C
102
{ACAD_REACTORS
330
8095
102
}
330
8095
100
DictionaryVariables
280
     0
  1
15
  0
DICTIONARYVAR
  5
813A
102
{ACAD_REACTORS
330
8095
102
}
330
8095
100
DictionaryVariables
280
     0
  1
0
  0
DICTIONARYVAR
  5
8141
102
{ACAD_REACTORS
330
8095
102
}
330
8095
100
DictionaryVariables
280
     0
  1
0
  0
DICTIONARYVAR
  5
8138
102
{ACAD_REACTORS
330
8095
102
}
330
8095
100
DictionaryVariables
280
     0
  1
0
  0
DICTIONARY
  5
814C
102
{ACAD_REACTORS
330
814A
102
}
330
814A
100
AcDbDictionary
281
     1
  0
DICTIONARY
  5
814B
102
{ACAD_REACTORS
330
814A
102
}
330
814A
100
AcDbDictionary
281
     1
  3
2049354112336
350
8145
  3
2049354112352
350
8146
  3
2049354112368
350
8147
  3
2049354112384
350
8148
  3
2049354112400
350
8149
  0
DICTIONARY
  5
814F
330
80EA
100
AcDbDictionary
280
     1
281
     1
  3
ACAD_XREC_ROUNDTRIP
360
8150
  0
DICTIONARY
  5
80A8
330
80A7
100
AcDbDictionary
280
     1
281
     1
  3
BUMPTILE
360
80AA
  3
DIFFUSETILE
360
80A9
  3
OPACITYTILE
360
80AD
  3
REFLECTIONTILE
360
80AC
  3
REFRACTIONTILE
360
80AE
  3
SPECULARTILE
360
80AB
  0
DICTIONARY
  5
80A0
330
809F
100
AcDbDictionary
280
     1
281
     1
  3
BUMPTILE
360
80A2
  3
DIFFUSETILE
360
80A1
  3
OPACITYTILE
360
80A5
  3
REFLECTIONTILE
360
80A4
  3
REFRACTIONTILE
360
80A6
  3
SPECULARTILE
360
80A3
  0
DICTIONARY
  5
80B0
330
80AF
100
AcDbDictionary
280
     1
281
     1
  3
BUMPTILE
360
80B2
  3
DIFFUSETILE
360
80B1
  3
OPACITYTILE
360
80B5
  3
REFLECTIONTILE
360
80B4
  3
REFRACTIONTILE
360
80B6
  3
SPECULARTILE
360
80B3
  0
DICTIONARY
  5
814D
330
80E8
100
AcDbDictionary
280
     1
281
     1
  3
ACAD_XREC_ROUNDTRIP
360
814E
  0
DICTIONARY
  5
8142
330
80D2
100
AcDbDictionary
280
     1
281
     1
  3
ACAD_ROUNDTRIP_2008_TABLESTYLE_CELLSTYLEMAP
360
8143
  0
XRECORD
  5
8145
102
{ACAD_REACTORS
330
814B
102
}
330
814B
100
AcDbXrecord
280
     1
  1
AcDb_Thumbnail_Schema
102
{ATTRRECORD
341
8146
  2
AcDbDs::TreatedAsObjectData
280
     1
291
     1
102
ATTRRECORD}
102
{ATTRRECORD
341
8147
  2
AcDbDs::Legacy
280
     1
291
     1
102
ATTRRECORD}
  2
AcDbDs::ID
280
    10
 91
        8
102
{ATTRRECORD
341
8148
  2
AcDs:Indexable
280
     1
291
     1
102
ATTRRECORD}
102
{ATTRRECORD
341
8149
  2
AcDbDs::HandleAttribute
280
     7
282
     1
102
ATTRRECORD}
  2
Thumbnail_Data
280
    15
 91
        0
  0
XRECORD
  5
8146
102
{ACAD_REACTORS
330
814B
102
}
330
814B
100
AcDbXrecord
280
     1
  1
AcDbDs::TreatedAsObjectDataSchema
  2
AcDbDs::TreatedAsObjectData
280
     1
 91
        0
  0
XRECORD
  5
8147
102
{ACAD_REACTORS
330
814B
102
}
330
814B
100
AcDbXrecord
280
     1
  1
AcDbDs::LegacySchema
  2
AcDbDs::Legacy
280
     1
 91
        0
  0
XRECORD
  5
8148
102
{ACAD_REACTORS
330
814B
102
}
330
814B
100
AcDbXrecord
280
     1
  1
AcDbDs::IndexedPropertySchema
  2
AcDs:Indexable
280
     1
 91
        0
  0
XRECORD
  5
8149
102
{ACAD_REACTORS
330
814B
102
}
330
814B
100
AcDbXrecord
280
     1
  1
AcDbDs::HandleAttributeSchema
  2
AcDbDs::HandleAttribute
280
     7
 91
        1
284
     1
  0
XRECORD
  5
8150
102
{ACAD_REACTORS
330
814F
102
}
330
814F
100
AcDbXrecord
280
     1
102
DISPLAYNAME
  1
Metric50
102
FLAGS
 90
        0
  0
XRECORD
  5
80AA
102
{ACAD_REACTORS
330
80A8
102
}
330
80A8
100
AcDbXrecord
280
     1
270
     1
271
     1
  0
XRECORD
  5
80A9
102
{ACAD_REACTORS
330
80A8
102
}
330
80A8
100
AcDbXrecord
280
     1
270
     1
271
     1
  0
XRECORD
  5
80AD
102
{ACAD_REACTORS
330
80A8
102
}
330
80A8
100
AcDbXrecord
280
     1
270
     1
271
     1
  0
XRECORD
  5
80AC
102
{ACAD_REACTORS
330
80A8
102
}
330
80A8
100
AcDbXrecord
280
     1
270
     1
271
     1
  0
XRECORD
  5
80AE
102
{ACAD_REACTORS
330
80A8
102
}
330
80A8
100
AcDbXrecord
280
     1
270
     1
271
     1
  0
XRECORD
  5
80AB
102
{ACAD_REACTORS
330
80A8
102
}
330
80A8
100
AcDbXrecord
280
     1
270
     1
271
     1
  0
XRECORD
  5
80A2
102
{ACAD_REACTORS
330
80A0
102
}
330
80A0
100
AcDbXrecord
280
     1
270
     1
271
     1
  0
XRECORD
  5
80A1
102
{ACAD_REACTORS
330
80A0
102
}
330
80A0
100
AcDbXrecord
280
     1
270
     1
271
     1
  0
XRECORD
  5
80A5
102
{ACAD_REACTORS
330
80A0
102
}
330
80A0
100
AcDbXrecord
280
     1
270
     1
271
     1
  0
XRECORD
  5
80A4
102
{ACAD_REACTORS
330
80A0
102
}
330
80A0
100
AcDbXrecord
280
     1
270
     1
271
     1
  0
XRECORD
  5
80A6
102
{ACAD_REACTORS
330
80A0
102
}
330
80A0
100
AcDbXrecord
280
     1
270
     1
271
     1
  0
XRECORD
  5
80A3
102
{ACAD_REACTORS
330
80A0
102
}
330
80A0
100
AcDbXrecord
280
     1
270
     1
271
     1
  0
XRECORD
  5
80B2
102
{ACAD_REACTORS
330
80B0
102
}
330
80B0
100
AcDbXrecord
280
     1
270
     1
271
     1
  0
XRECORD
  5
80B1
102
{ACAD_REACTORS
330
80B0
102
}
330
80B0
100
AcDbXrecord
280
     1
270
     1
271
     1
  0
XRECORD
  5
80B5
102
{ACAD_REACTORS
330
80B0
102
}
330
80B0
100
AcDbXrecord
280
     1
270
     1
271
     1
  0
XRECORD
  5
80B4
102
{ACAD_REACTORS
330
80B0
102
}
330
80B0
100
AcDbXrecord
280
     1
270
     1
271
     1
  0
XRECORD
  5
80B6
102
{ACAD_REACTORS
330
80B0
102
}
330
80B0
100
AcDbXrecord
280
     1
270
     1
271
     1
  0
XRECORD
  5
80B3
102
{ACAD_REACTORS
330
80B0
102
}
330
80B0
100
AcDbXrecord
280
     1
270
     1
271
     1
  0
XRECORD
  5
814E
102
{ACAD_REACTORS
330
814D
102
}
330
814D
100
AcDbXrecord
280
     1
102
DISPLAYNAME
  1
Metric50
102
FLAGS
 90
        0
  0
CELLSTYLEMAP
  5
8143
102
{ACAD_REACTORS
330
8142
102
}
330
8142
100
AcDbCellStyleMap
 90
        3
300
CELLSTYLE
  1
TABLEFORMAT_BEGIN
 90
        5
170
     1
 91
        0
 92
    32768
 62
   257
 93
        1
300
CONTENTFORMAT
  1
CONTENTFORMAT_BEGIN
 90
        0
 91
        0
 92
      512
 93
        0
300

 40
0.0
140
1.0
 94
        5
 62
     0
340
10
144
6.0
309
CONTENTFORMAT_END
171
     1
301
MARGIN
  1
CELLMARGIN_BEGIN
 40
1.5
 40
1.5
 40
1.5
 40
1.5
 40
4.5
 40
4.5
309
CELLMARGIN_END
 94
        6
 95
        1
302
GRIDFORMAT
  1
GRIDFORMAT_BEGIN
 90
        0
 91
        1
 62
     0
 92
       -2
340
0
 93
        0
 40
1.125
309
GRIDFORMAT_END
 95
        2
302
GRIDFORMAT
  1
GRIDFORMAT_BEGIN
 90
        0
 91
        1
 62
     0
 92
       -2
340
0
 93
        0
 40
1.125
309
GRIDFORMAT_END
 95
        4
302
GRIDFORMAT
  1
GRIDFORMAT_BEGIN
 90
        0
 91
        1
 62
     0
 92
       -2
340
0
 93
        0
 40
1.125
309
GRIDFORMAT_END
 95
        8
302
GRIDFORMAT
  1
GRIDFORMAT_BEGIN
 90
        0
 91
        1
 62
     0
 92
       -2
340
0
 93
        0
 40
1.125
309
GRIDFORMAT_END
 95
       16
302
GRIDFORMAT
  1
GRIDFORMAT_BEGIN
 90
        0
 91
        1
 62
     0
 92
       -2
340
0
 93
        0
 40
1.125
309
GRIDFORMAT_END
 95
       32
302
GRIDFORMAT
  1
GRIDFORMAT_BEGIN
 90
        0
 91
        1
 62
     0
 92
       -2
340
0
 93
        0
 40
1.125
309
GRIDFORMAT_END
309
TABLEFORMAT_END
  1
CELLSTYLE_BEGIN
 90
        1
 91
        1
300
_TITLE
309
CELLSTYLE_END
300
CELLSTYLE
  1
TABLEFORMAT_BEGIN
 90
        5
170
     1
 91
        0
 92
        0
 62
   257
 93
        1
300
CONTENTFORMAT
  1
CONTENTFORMAT_BEGIN
 90
        0
 91
        0
 92
      512
 93
        0
300

 40
0.0
140
1.0
 94
        5
 62
     0
340
10
144
4.5
309
CONTENTFORMAT_END
171
     1
301
MARGIN
  1
CELLMARGIN_BEGIN
 40
1.5
 40
1.5
 40
1.5
 40
1.5
 40
4.5
 40
4.5
309
CELLMARGIN_END
 94
        6
 95
        1
302
GRIDFORMAT
  1
GRIDFORMAT_BEGIN
 90
        0
 91
        1
 62
     0
 92
       -2
340
0
 93
        0
 40
1.125
309
GRIDFORMAT_END
 95
        2
302
GRIDFORMAT
  1
GRIDFORMAT_BEGIN
 90
        0
 91
        1
 62
     0
 92
       -2
340
0
 93
        0
 40
1.125
309
GRIDFORMAT_END
 95
        4
302
GRIDFORMAT
  1
GRIDFORMAT_BEGIN
 90
        0
 91
        1
 62
     0
 92
       -2
340
0
 93
        0
 40
1.125
309
GRIDFORMAT_END
 95
        8
302
GRIDFORMAT
  1
GRIDFORMAT_BEGIN
 90
        0
 91
        1
 62
     0
 92
       -2
340
0
 93
        0
 40
1.125
309
GRIDFORMAT_END
 95
       16
302
GRIDFORMAT
  1
GRIDFORMAT_BEGIN
 90
        0
 91
        1
 62
     0
 92
       -2
340
0
 93
        0
 40
1.125
309
GRIDFORMAT_END
 95
       32
302
GRIDFORMAT
  1
GRIDFORMAT_BEGIN
 90
        0
 91
        1
 62
     0
 92
       -2
340
0
 93
        0
 40
1.125
309
GRIDFORMAT_END
309
TABLEFORMAT_END
  1
CELLSTYLE_BEGIN
 90
        2
 91
        1
300
_HEADER
309
CELLSTYLE_END
300
CELLSTYLE
  1
TABLEFORMAT_BEGIN
 90
        5
170
     1
 91
        0
 92
        0
 62
   257
 93
        1
300
CONTENTFORMAT
  1
CONTENTFORMAT_BEGIN
 90
        0
 91
        0
 92
      512
 93
        0
300

 40
0.0
140
1.0
 94
        2
 62
     0
340
10
144
4.5
309
CONTENTFORMAT_END
171
     1
301
MARGIN
  1
CELLMARGIN_BEGIN
 40
1.5
 40
1.5
 40
1.5
 40
1.5
 40
4.5
 40
4.5
309
CELLMARGIN_END
 94
        6
 95
        1
302
GRIDFORMAT
  1
GRIDFORMAT_BEGIN
 90
        0
 91
        1
 62
     0
 92
       -2
340
0
 93
        0
 40
1.125
309
GRIDFORMAT_END
 95
        2
302
GRIDFORMAT
  1
GRIDFORMAT_BEGIN
 90
        0
 91
        1
 62
     0
 92
       -2
340
0
 93
        0
 40
1.125
309
GRIDFORMAT_END
 95
        4
302
GRIDFORMAT
  1
GRIDFORMAT_BEGIN
 90
        0
 91
        1
 62
     0
 92
       -2
340
0
 93
        0
 40
1.125
309
GRIDFORMAT_END
 95
        8
302
GRIDFORMAT
  1
GRIDFORMAT_BEGIN
 90
        0
 91
        1
 62
     0
 92
       -2
340
0
 93
        0
 40
1.125
309
GRIDFORMAT_END
 95
       16
302
GRIDFORMAT
  1
GRIDFORMAT_BEGIN
 90
        0
 91
        1
 62
     0
 92
       -2
340
0
 93
        0
 40
1.125
309
GRIDFORMAT_END
 95
       32
302
GRIDFORMAT
  1
GRIDFORMAT_BEGIN
 90
        0
 91
        1
 62
     0
 92
       -2
340
0
 93
        0
 40
1.125
309
GRIDFORMAT_END
309
TABLEFORMAT_END
  1
CELLSTYLE_BEGIN
 90
        3
 91
        2
300
_DATA
309
CELLSTYLE_END
  0
ENDSEC
  0
SECTION
  2
ACDSDATA
 70
     2
 71
     8
  0
ACDSSCHEMA
 90
        0
  1
AcDb_Thumbnail_Schema
  2
AcDbDs::ID
280
    10
 91
        8
  2
Thumbnail_Data
280
    15
 91
        0
101
ACDSRECORD
 95
        0
 90
        1
  2
AcDbDs::TreatedAsObjectData
280
     1
291
     1
101
ACDSRECORD
 95
        0
 90
        2
  2
AcDbDs::Legacy
280
     1
291
     1
101
ACDSRECORD
  1
AcDbDs::ID
 90
        3
  2
AcDs:Indexable
280
     1
291
     1
101
ACDSRECORD
  1
AcDbDs::ID
 90
        4
  2
AcDbDs::HandleAttribute
280
     7
282
     1
  0
ACDSSCHEMA
 90
        1
  1
AcDbDs::TreatedAsObjectDataSchema
  2
AcDbDs::TreatedAsObjectData
280
     1
 91
        0
  0
ACDSSCHEMA
 90
        2
  1
AcDbDs::LegacySchema
  2
AcDbDs::Legacy
280
     1
 91
        0
  0
ACDSSCHEMA
 90
        3
  1
AcDbDs::IndexedPropertySchema
  2
AcDs:Indexable
280
     1
 91
        0
  0
ACDSSCHEMA
 90
        4
  1
AcDbDs::HandleAttributeSchema
  2
AcDbDs::HandleAttribute
280
     7
 91
        1
284
     1
  0
ACDSRECORD
 90
        0
  2
AcDbDs::ID
280
    10
320
7FDC
  2
Thumbnail_Data
280
    15
 94
     1709
310
89504E470D0A1A0A0000000D49484452000001000000007C0803000000B13B9E5A00000300504C5445000000000000C8C8C80000000000000000000000000000000000000000000000000000330000660000990000CC0000FF0033000033330033660033990033CC0033FF0066000066330066660066990066CC0066FF0099
310
000099330099660099990099CC0099FF00CC0000CC3300CC6600CC9900CCCC00CCFF00FF0000FF3300FF6600FF9900FFCC00FFFF3300003300333300663300993300CC3300FF3333003333333333663333993333CC3333FF3366003366333366663366993366CC3366FF3399003399333399663399993399CC3399FF33CC00
310
33CC3333CC6633CC9933CCCC33CCFF33FF0033FF3333FF6633FF9933FFCC33FFFF6600006600336600666600996600CC6600FF6633006633336633666633996633CC6633FF6666006666336666666666996666CC6666FF6699006699336699666699996699CC6699FF66CC0066CC3366CC6666CC9966CCCC66CCFF66FF0066
310
FF3366FF6666FF9966FFCC66FFFF9900009900339900669900999900CC9900FF9933009933339933669933999933CC9933FF9966009966339966669966999966CC9966FF9999009999339999669999999999CC9999FF99CC0099CC3399CC6699CC9999CCCC99CCFF99FF0099FF3399FF6699FF9999FFCC99FFFFCC0000CC00
310
33CC0066CC0099CC00CCCC00FFCC3300CC3333CC3366CC3399CC33CCCC33FFCC6600CC6633CC6666CC6699CC66CCCC66FFCC9900CC9933CC9966CC9999CC99CCCC99FFCCCC00CCCC33CCCC66CCCC99CCCCCCCCCCFFCCFF00CCFF33CCFF66CCFF99CCFFCCCCFFFFFF0000FF0033FF0066FF0099FF00CCFF00FFFF3300FF3333
310
FF3366FF3399FF33CCFF33FFFF6600FF6633FF6666FF6699FF66CCFF66FFFF9900FF9933FF9966FF9999FF99CCFF99FFFFCC00FFCC33FFCC66FFCC99FFCCCCFFCCFFFFFF00FFFF33FFFF66FFFF99FFFFCCFFFFFF0000000D0D0D1A1A1A2828283535354343435050505D5D5D6B6B6B787878868686939393A1A1A1AEAEAEBB
310
BBBBC9C9C9D6D6D6E4E4E4F1F1F1FFFFFF00000000000000000000000000000000000000000000000000000000000008F1915C000003684944415478DAED9D4D72C3200C85751C36DCFF325C837D638C40C8E038336D27488FE9C28E71A6FA7812E26708D11F94FC4785762979ABAF0500000000000080EFF94F6F3A3F2F00
310
D4EBD9A502DC03C89E01282FD81BC0AF8E00B604F0655F0600FF0FA0CA78A1EEF38F5F62BD77E5F7C73B03A818A89B4DF596435ECE3501C87C29DEB4A08095005801A7C55D01F2811117E01C6FF0897BD3328220F2008F83A1F73EB11F8069F0CBDC032AB9943851FB00EB000405310EECA1D2CE8488CE7E7AAA934565693E
310
9952C06FBD8F39410000000000801D01A457196E922F0069B039912F00E9A6F80070BD0CD74700601F408C3145553E7583BD01F48F42634200400000000000000000000E00846B393221E70A300EE01CF271DEEB104069FDE85801DE019C43BD48A70338EC051A8097C500000000302BE4A217380188223A060F0016C50380
310
3113BC96E4635234F6A82782602437D3E2AFA60E731770B730A2D74501C00700EF8BA31F9594FA5E8209A4ED01BC6D7669B415003731600C020F1CC55C0C1801D0FC2ED9514031B9EB5B2B6021152B009E2940FA3FF521A5090093B69E01B017033E03A0274DC82000351CE4464E3C72D043465B008E61D03825D6E2223F96
310
0A38085802709A770780E78B02CF19990230B6EE02007548E5CE1080481A4092A9019B5C7412582E8600447A0880E43CAA41002DD0AD01500CEDCA0C803874820C801600DA72BACC850C002876857AF1D8056C0050DDE0B1607CF602E96D103405A04C12B32F0C007811FDDA0D9A01706E143866C927008A226689909518D0
310
0470F8772540620E30F2639D0A5B0010A6250E03DE10D60B681614D09A5728A00E77BB02E225593A62800500759F1047BFE2DCD5DA7700A20105846E7B4F84EAFAA05400D10400ED0FA01ADCB2C0960768005305D0F6DD206F87886C62686EA001904500AF160F3502541104B171B003386A05B30A186360BB7EA080FD0743
310
EB2D32AA17B8ABB4318048D32D326DE4935A3F1F6775687B00932D3249CF8AA7AB56DA4DDA1E807065BE26390F30D614AB04D74A9BAE0E6B00AB1D22E5BE7E9C52B203E0E91699F795708608000000000000000000006C0DC0FDA9B29F5B660D00CD00881356B3388D5B1D2E6B4D01EA436AF6F279ABED8055C4008B2E30FF
310
1911073160DAB4E34F0B3806707F9E346200324100000000000000000000F87E001BFDF4F60FE8EB27CDCACE5BE60000000049454E44AE426082
  0
ENDSEC
  0
EOF
