  0
SECTION
  2
HEADER
  9
$ACADVER
  1
AC1027
  9
$ACADMAINTVER
 70
   125
  9
$DWGCODEPAGE
  3
ANSI_932
  9
$LASTSAVEDBY
  1
yasukiyo.ogawa
  9
$REQUIREDVERSIONS
160
                 0
  9
$INSBASE
 10
0.0
 20
0.0
 30
0.0
  9
$EXTMIN
 10
0.0
 20
0.0
 30
0.0
  9
$EXTMAX
 10
9450.0
 20
13275.0
 30
0.0
  9
$LIMMIN
 10
0.0
 20
0.0
  9
$LIMMAX
 10
297.0
 20
210.0
  9
$ORTHOMODE
 70
     1
  9
$REGENMODE
 70
     1
  9
$FILLMODE
 70
     0
  9
$QTEXTMODE
 70
     0
  9
$MIRRTEXT
 70
     1
  9
$LTSCALE
 40
100.0
  9
$ATTMODE
 70
     1
  9
$TEXTSIZE
 40
180.0
  9
$TRACEWID
 40
0.05
  9
$TEXTSTYLE
  7
STANDARD
  9
$CLAYER
  8
3
  9
$CELTYPE
  6
BYLAYER
  9
$CECOLOR
 62
   256
  9
$CELTSCALE
 40
1.0
  9
$DISPSILH
 70
     0
  9
$DIMSCALE
 40
45.0
  9
$DIMASZ
 40
2.0
  9
$DIMEXO
 40
0.5
  9
$DIMDLI
 40
10.0
  9
$DIMRND
 40
0.0
  9
$DIMDLE
 40
0.0
  9
$DIMEXE
 40
1.0
  9
$DIMTP
 40
1.0
  9
$DIMTM
 40
1.0
  9
$DIMTXT
 40
3.0
  9
$DIMCEN
 40
0.0
  9
$DIMTSZ
 40
0.0
  9
$DIMTOL
 70
     0
  9
$DIMLIM
 70
     0
  9
$DIMTIH
 70
     0
  9
$DIMTOH
 70
     0
  9
$DIMSE1
 70
     0
  9
$DIMSE2
 70
     0
  9
$DIMTAD
 70
     1
  9
$DIMZIN
 70
     8
  9
$DIMBLK
  1

  9
$DIMASO
 70
     1
  9
$DIMSHO
 70
     1
  9
$DIMPOST
  1

  9
$DIMAPOST
  1

  9
$DIMALT
 70
     0
  9
$DIMALTD
 70
     2
  9
$DIMALTF
 40
0.039
  9
$DIMLFAC
 40
1.0
  9
$DIMTOFL
 70
     1
  9
$DIMTVP
 40
0.0
  9
$DIMTIX
 70
     0
  9
$DIMSOXD
 70
     0
  9
$DIMSAH
 70
     1
  9
$DIMBLK1
  1
OPEN
  9
$DIMBLK2
  1
OPEN
  9
$DIMSTYLE
  2
IGA
  9
$DIMCLRD
 70
     0
  9
$DIMCLRE
 70
     0
  9
$DIMCLRT
 70
     0
  9
$DIMTFAC
 40
10.0
  9
$DIMGAP
 40
1.0
  9
$DIMJUST
 70
     0
  9
$DIMSD1
 70
     0
  9
$DIMSD2
 70
     0
  9
$DIMTOLJ
 70
     1
  9
$DIMTZIN
 70
     8
  9
$DIMALTZ
 70
     0
  9
$DIMALTTZ
 70
     0
  9
$DIMUPT
 70
     0
  9
$DIMDEC
 70
     0
  9
$DIMTDEC
 70
     0
  9
$DIMALTU
 70
     2
  9
$DIMALTTD
 70
     2
  9
$DIMTXSTY
  7
STANDARD
  9
$DIMAUNIT
 70
     0
  9
$DIMADEC
 70
     0
  9
$DIMALTRND
 40
0.0
  9
$DIMAZIN
 70
     0
  9
$DIMDSEP
 70
    46
  9
$DIMATFIT
 70
     3
  9
$DIMFRAC
 70
     0
  9
$DIMLDRBLK
  1
OPEN
  9
$DIMLUNIT
 70
     2
  9
$DIMLWD
 70
    -2
  9
$DIMLWE
 70
    -2
  9
$DIMTMOVE
 70
     2
  9
$DIMFXL
 40
1.0
  9
$DIMFXLON
 70
     0
  9
$DIMJOGANG
 40
0.7853981633974483
  9
$DIMTFILL
 70
     0
  9
$DIMTFILLCLR
 70
     0
  9
$DIMARCSYM
 70
     0
  9
$DIMLTYPE
  6

  9
$DIMLTEX1
  6

  9
$DIMLTEX2
  6

  9
$DIMTXTDIRECTION
 70
     0
  9
$LUNITS
 70
     2
  9
$LUPREC
 70
     3
  9
$SKETCHINC
 40
0.1
  9
$FILLETRAD
 40
50.0
  9
$AUNITS
 70
     0
  9
$AUPREC
 70
     0
  9
$MENU
  1
acad
  9
$ELEVATION
 40
0.0
  9
$PELEVATION
 40
0.0
  9
$THICKNESS
 40
0.0
  9
$LIMCHECK
 70
     0
  9
$CHAMFERA
 40
0.5
  9
$CHAMFERB
 40
0.5
  9
$CHAMFERC
 40
20.0
  9
$CHAMFERD
 40
0.0
  9
$SKPOLY
 70
     0
  9
$TDCREATE
 40
2452324.584189815
  9
$TDUCREATE
 40
2452324.209196759
  9
$TDUPDATE
 40
2460245.555092593
  9
$TDUUPDATE
 40
2460245.180095833
  9
$TDINDWG
 40
0.1469337731
  9
$TDUSRTIMER
 40
0.1469337731
  9
$USRTIMER
 70
     1
  9
$ANGBASE
 50
0.0
  9
$ANGDIR
 70
     0
  9
$PDMODE
 70
     0
  9
$PDSIZE
 40
0.0
  9
$PLINEWID
 40
0.0
  9
$SPLFRAME
 70
     0
  9
$SPLINETYPE
 70
     6
  9
$SPLINESEGS
 70
     8
  9
$HANDSEED
  5
82FF
  9
$SURFTAB1
 70
     6
  9
$SURFTAB2
 70
     6
  9
$SURFTYPE
 70
     6
  9
$SURFU
 70
     6
  9
$SURFV
 70
     6
  9
$UCSBASE
  2

  9
$UCSNAME
  2

  9
$UCSORG
 10
0.0
 20
0.0
 30
0.0
  9
$UCSXDIR
 10
1.0
 20
0.0
 30
0.0
  9
$UCSYDIR
 10
0.0
 20
1.0
 30
0.0
  9
$UCSORTHOREF
  2

  9
$UCSORTHOVIEW
 70
     0
  9
$UCSORGTOP
 10
0.0
 20
0.0
 30
0.0
  9
$UCSORGBOTTOM
 10
0.0
 20
0.0
 30
0.0
  9
$UCSORGLEFT
 10
0.0
 20
0.0
 30
0.0
  9
$UCSORGRIGHT
 10
0.0
 20
0.0
 30
0.0
  9
$UCSORGFRONT
 10
0.0
 20
0.0
 30
0.0
  9
$UCSORGBACK
 10
0.0
 20
0.0
 30
0.0
  9
$PUCSBASE
  2

  9
$PUCSNAME
  2

  9
$PUCSORG
 10
0.0
 20
0.0
 30
0.0
  9
$PUCSXDIR
 10
1.0
 20
0.0
 30
0.0
  9
$PUCSYDIR
 10
0.0
 20
1.0
 30
0.0
  9
$PUCSORTHOREF
  2

  9
$PUCSORTHOVIEW
 70
     0
  9
$PUCSORGTOP
 10
0.0
 20
0.0
 30
0.0
  9
$PUCSORGBOTTOM
 10
0.0
 20
0.0
 30
0.0
  9
$PUCSORGLEFT
 10
0.0
 20
0.0
 30
0.0
  9
$PUCSORGRIGHT
 10
0.0
 20
0.0
 30
0.0
  9
$PUCSORGFRONT
 10
0.0
 20
0.0
 30
0.0
  9
$PUCSORGBACK
 10
0.0
 20
0.0
 30
0.0
  9
$USERI1
 70
     0
  9
$USERI2
 70
     0
  9
$USERI3
 70
     0
  9
$USERI4
 70
     0
  9
$USERI5
 70
     0
  9
$USERR1
 40
0.0
  9
$USERR2
 40
0.0
  9
$USERR3
 40
0.0
  9
$USERR4
 40
0.0
  9
$USERR5
 40
0.0
  9
$WORLDVIEW
 70
     1
  9
$SHADEDGE
 70
     3
  9
$SHADEDIF
 70
    70
  9
$TILEMODE
 70
     1
  9
$MAXACTVP
 70
    16
  9
$PINSBASE
 10
0.0
 20
0.0
 30
0.0
  9
$PLIMCHECK
 70
     0
  9
$PEXTMIN
 10
1.000000000000000E+20
 20
1.000000000000000E+20
 30
1.000000000000000E+20
  9
$PEXTMAX
 10
-1.000000000000000E+20
 20
-1.000000000000000E+20
 30
-1.000000000000000E+20
  9
$PLIMMIN
 10
0.0
 20
0.0
  9
$PLIMMAX
 10
12.0
 20
9.0
  9
$UNITMODE
 70
     0
  9
$VISRETAIN
 70
     0
  9
$PLINEGEN
 70
     0
  9
$PSLTSCALE
 70
     1
  9
$TREEDEPTH
 70
  3020
  9
$CMLSTYLE
  2
STANDARD
  9
$CMLJUST
 70
     0
  9
$CMLSCALE
 40
20.0
  9
$PROXYGRAPHICS
 70
     1
  9
$MEASUREMENT
 70
     1
  9
$CELWEIGHT
370
    -1
  9
$ENDCAPS
280
     0
  9
$JOINSTYLE
280
     0
  9
$LWDISPLAY
290
     0
  9
$INSUNITS
 70
     0
  9
$HYPERLINKBASE
  1

  9
$STYLESHEET
  1

  9
$XEDIT
290
     1
  9
$CEPSNTYPE
380
     0
  9
$PSTYLEMODE
290
     1
  9
$FINGERPRINTGUID
  2
{A8045161-DDC7-46BB-806A-DEAF1FE3CB27}
  9
$VERSIONGUID
  2
{91887133-153E-42C1-ACFD-459CF9DB685C}
  9
$EXTNAMES
290
     1
  9
$PSVPSCALE
 40
0.0
  9
$OLESTARTUP
290
     0
  9
$SORTENTS
280
   127
  9
$INDEXCTL
280
     0
  9
$HIDETEXT
280
     0
  9
$XCLIPFRAME
280
     2
  9
$HALOGAP
280
     0
  9
$OBSCOLOR
 70
   257
  9
$OBSLTYPE
280
     0
  9
$INTERSECTIONDISPLAY
280
     0
  9
$INTERSECTIONCOLOR
 70
   257
  9
$DIMASSOC
280
     1
  9
$PROJECTNAME
  1

  9
$CAMERADISPLAY
290
     0
  9
$LENSLENGTH
 40
50.0
  9
$CAMERAHEIGHT
 40
0.0
  9
$STEPSPERSEC
 40
2.0
  9
$STEPSIZE
 40
6.0
  9
$3DDWFPREC
 40
2.0
  9
$PSOLWIDTH
 40
0.25
  9
$PSOLHEIGHT
 40
4.0
  9
$LOFTANG1
 40
1.570796326794896
  9
$LOFTANG2
 40
1.570796326794896
  9
$LOFTMAG1
 40
0.0
  9
$LOFTMAG2
 40
0.0
  9
$LOFTPARAM
 70
     7
  9
$LOFTNORMALS
280
     1
  9
$LATITUDE
 40
37.795
  9
$LONGITUDE
 40
-122.394
  9
$NORTHDIRECTION
 40
0.0
  9
$TIMEZONE
 70
 -8000
  9
$LIGHTGLYPHDISPLAY
280
     1
  9
$TILEMODELIGHTSYNCH
280
     1
  9
$CMATERIAL
347
824D
  9
$SOLIDHIST
280
     0
  9
$SHOWHIST
280
     1
  9
$DWFFRAME
280
     2
  9
$DGNFRAME
280
     0
  9
$REALWORLDSCALE
290
     1
  9
$INTERFERECOLOR
 62
     1
  9
$INTERFEREOBJVS
345
826F
  9
$INTERFEREVPVS
346
826C
  9
$CSHADOW
280
     0
  9
$SHADOWPLANELOCATION
 40
0.0
  0
ENDSEC
  0
SECTION
  2
CLASSES
  0
CLASS
  1
ACDBDICTIONARYWDFLT
  2
AcDbDictionaryWithDefault
  3
ObjectDBX Classes
 90
        0
 91
        1
280
     0
281
     0
  0
CLASS
  1
DICTIONARYVAR
  2
AcDbDictionaryVar
  3
ObjectDBX Classes
 90
        0
 91
       11
280
     0
281
     0
  0
CLASS
  1
MATERIAL
  2
AcDbMaterial
  3
ObjectDBX Classes
 90
     1153
 91
        3
280
     0
281
     0
  0
CLASS
  1
VISUALSTYLE
  2
AcDbVisualStyle
  3
ObjectDBX Classes
 90
     4095
 91
       24
280
     0
281
     0
  0
CLASS
  1
TABLESTYLE
  2
AcDbTableStyle
  3
ObjectDBX Classes
 90
     4095
 91
        1
280
     0
281
     0
  0
CLASS
  1
SCALE
  2
AcDbScale
  3
ObjectDBX Classes
 90
     1153
 91
       17
280
     0
281
     0
  0
CLASS
  1
MLEADERSTYLE
  2
AcDbMLeaderStyle
  3
ACDB_MLEADERSTYLE_CLASS
 90
     4095
 91
        1
280
     0
281
     0
  0
CLASS
  1
ACDBSECTIONVIEWSTYLE
  2
AcDbSectionViewStyle
  3
ObjectDBX Classes
 90
     1025
 91
        1
280
     0
281
     0
  0
CLASS
  1
ACDBDETAILVIEWSTYLE
  2
AcDbDetailViewStyle
  3
ObjectDBX Classes
 90
     1025
 91
        1
280
     0
281
     0
  0
CLASS
  1
CELLSTYLEMAP
  2
AcDbCellStyleMap
  3
ObjectDBX Classes
 90
     1152
 91
        1
280
     0
281
     0
  0
ENDSEC
  0
SECTION
  2
TABLES
  0
TABLE
  2
VPORT
  5
8
330
0
100
AcDbSymbolTable
 70
     1
1001
ACAD
1000
DbSaveVer
1071
      278
  0
VPORT
  5
824A
330
8
100
AcDbSymbolTableRecord
100
AcDbViewportTableRecord
  2
*Active
 70
     0
 10
0.0
 20
0.0
 11
1.0
 21
1.0
 12
6061.755418487901
 22
6637.500030908269
 13
0.0
 23
0.0
 14
10.0
 24
10.0
 15
10.0
 25
10.0
 16
0.0
 26
0.0
 36
1.0
 17
0.0
 27
0.0
 37
0.0
 40
13360.82076619344
 41
2.250314465408805
 42
50.0
 43
0.0
 44
0.0
 50
0.0
 51
0.0
 71
     0
 72
   100
 73
     1
 74
     0
 75
     0
 76
     0
 77
     0
 78
     0
281
     0
 65
     1
110
0.0
120
0.0
130
0.0
111
1.0
121
0.0
131
0.0
112
0.0
122
1.0
132
0.0
 79
     0
146
0.0
348
826B
 60
     3
 61
     5
292
     1
282
     1
141
0.0
142
0.0
 63
   250
421
  3355443
1001
ACAD_NAV_VCDISPLAY
1070
     3
  0
ENDTAB
  0
TABLE
  2
LTYPE
  5
5
330
0
100
AcDbSymbolTable
 70
     2
  0
LTYPE
  5
13
330
5
100
AcDbSymbolTableRecord
100
AcDbLinetypeTableRecord
  2
BYBLOCK
 70
     0
  3

 72
    65
 73
     0
 40
0.0
  0
LTYPE
  5
14
330
5
100
AcDbSymbolTableRecord
100
AcDbLinetypeTableRecord
  2
BYLAYER
 70
     0
  3

 72
    65
 73
     0
 40
0.0
  0
LTYPE
  5
15
330
5
100
AcDbSymbolTableRecord
100
AcDbLinetypeTableRecord
  2
CONTINUOUS
 70
     0
  3
Solid line
 72
    65
 73
     0
 40
0.0
  0
LTYPE
  5
1F
330
5
100
AcDbSymbolTableRecord
100
AcDbLinetypeTableRecord
  2
CENTER
 70
     0
  3
____ _ ____ _ ____ _ ____ _ ____ _ ____ _ ____ 
 72
    65
 73
     4
 40
2.0
 49
1.25
 74
     0
 49
-0.25
 74
     0
 49
0.25
 74
     0
 49
-0.25
 74
     0
  0
ENDTAB
  0
TABLE
  2
LAYER
  5
2
102
{ACAD_XDICTIONARY
360
82D6
102
}
330
0
100
AcDbSymbolTable
 70
     6
  0
LAYER
  5
F
102
{ACAD_XDICTIONARY
360
82C9
102
}
330
2
100
AcDbSymbolTableRecord
100
AcDbLayerTableRecord
  2
0
 70
     0
 62
     7
  6
CONTINUOUS
370
    -3
390
817D
347
825D
348
0
  0
LAYER
  5
31
102
{ACAD_XDICTIONARY
360
82CB
102
}
330
2
100
AcDbSymbolTableRecord
100
AcDbLayerTableRecord
  2
3
 70
     0
 62
     2
  6
CONTINUOUS
370
    -3
390
817D
347
825D
348
0
  0
LAYER
  5
76D0
102
{ACAD_XDICTIONARY
360
82CD
102
}
330
2
100
AcDbSymbolTableRecord
100
AcDbLayerTableRecord
  2
2
 70
     0
 62
     3
  6
CENTER
370
    -3
390
817D
347
825D
348
0
  0
LAYER
  5
76D1
102
{ACAD_XDICTIONARY
360
82CF
102
}
330
2
100
AcDbSymbolTableRecord
100
AcDbLayerTableRecord
  2
1
 70
     0
 62
     4
  6
CONTINUOUS
370
    -3
390
817D
347
825D
348
0
  0
LAYER
  5
76D2
102
{ACAD_XDICTIONARY
360
82D1
102
}
330
2
100
AcDbSymbolTableRecord
100
AcDbLayerTableRecord
  2
4
 70
     0
 62
     7
  6
CONTINUOUS
370
    -3
390
817D
347
825D
348
0
  0
LAYER
  5
7A06
330
2
100
AcDbSymbolTableRecord
100
AcDbLayerTableRecord
  2
DEFPOINTS
 70
     0
 62
     7
  6
CONTINUOUS
290
     0
370
    -3
390
817D
347
825D
348
0
  0
ENDTAB
  0
TABLE
  2
STYLE
  5
3
330
0
100
AcDbSymbolTable
 70
     1
  0
STYLE
  5
10
330
3
100
AcDbSymbolTableRecord
100
AcDbTextStyleTableRecord
  2
STANDARD
 70
     0
 40
0.0
 41
1.0
 50
0.0
 71
     0
 42
180.0
  3
simplex.shx
  4
extfont.shx
  0
ENDTAB
  0
TABLE
  2
VIEW
  5
6
330
0
100
AcDbSymbolTable
 70
     0
  0
ENDTAB
  0
TABLE
  2
UCS
  5
7
330
0
100
AcDbSymbolTable
 70
     0
  0
ENDTAB
  0
TABLE
  2
APPID
  5
9
330
0
100
AcDbSymbolTable
 70
     4
  0
APPID
  5
11
330
9
100
AcDbSymbolTableRecord
100
AcDbRegAppTableRecord
  2
ACAD
 70
     0
  0
APPID
  5
829C
330
9
100
AcDbSymbolTableRecord
100
AcDbRegAppTableRecord
  2
AcadAnnoMonitorAlertIconDisabled
 70
     0
  0
APPID
  5
829D
330
9
100
AcDbSymbolTableRecord
100
AcDbRegAppTableRecord
  2
ACAD_EXEMPT_FROM_CAD_STANDARDS
 70
     0
  0
APPID
  5
82DC
330
9
100
AcDbSymbolTableRecord
100
AcDbRegAppTableRecord
  2
ACAD_NAV_VCDISPLAY
 70
     0
  0
ENDTAB
  0
TABLE
  2
DIMSTYLE
  5
A
330
0
100
AcDbSymbolTable
 70
     1
100
AcDbDimStyleTable
 71
     1
340
1D
  0
DIMSTYLE
105
1D
102
{ACAD_REACTORS
330
7BC8
330
7C78
330
7C84
330
7C91
330
7C9E
330
7CAB
330
7CDE
330
7DED
330
7E05
330
7E11
330
7E77
330
7E90
330
7EB3
330
7EC0
330
7F01
330
7F0D
330
813C
330
8149
330
8156
330
8163
330
8170
102
}
330
A
100
AcDbSymbolTableRecord
100
AcDbDimStyleTableRecord
  2
IGA
 70
     0
 40
2.0
 41
2.0
 42
0.5
 43
10.0
 44
1.0
 47
1.0
 48
1.0
 73
     0
 74
     0
 77
     1
 78
     8
140
3.0
141
0.0
143
0.03937
146
10.0
147
1.0
173
     1
271
     1
272
     0
279
     2
284
     8
340
10
341
79FC
343
79FC
344
79FC
  0
ENDTAB
  0
TABLE
  2
BLOCK_RECORD
  5
1
330
0
100
AcDbSymbolTable
 70
    24
  0
BLOCK_RECORD
  5
19
102
{ACAD_XDICTIONARY
360
81AB
102
}
330
1
100
AcDbSymbolTableRecord
100
AcDbBlockTableRecord
  2
*MODEL_SPACE
340
8180
 70
     0
280
     1
281
     0
  0
BLOCK_RECORD
  5
16
102
{ACAD_XDICTIONARY
360
81A9
102
}
330
1
100
AcDbSymbolTableRecord
100
AcDbBlockTableRecord
  2
*PAPER_SPACE
340
8181
 70
     0
280
     1
281
     0
  0
BLOCK_RECORD
  5
79FC
330
1
100
AcDbSymbolTableRecord
100
AcDbBlockTableRecord
  2
_OPEN
340
0
102
{BLKREFS
331
8135
331
8136
331
8142
331
8143
331
814F
331
8150
331
815C
331
815D
331
8169
331
816A
331
8238
331
82BB
331
82BC
331
82C3
331
82C4
331
81B4
331
81B5
331
81BD
331
81BE
331
81C5
331
81C6
331
81CE
331
81CF
331
81D7
331
81D8
331
81E0
331
81E1
331
81E9
331
81EA
331
81F2
331
81F3
331
820C
331
820D
331
8215
331
8216
331
821D
331
821E
331
8226
331
8227
331
822F
331
8230
331
8237
102
}
 70
     0
280
     1
281
     0
  0
BLOCK_RECORD
  5
7BBC
330
1
100
AcDbSymbolTableRecord
100
AcDbBlockTableRecord
  2
*D1
340
0
 70
     0
280
     1
281
     0
  0
BLOCK_RECORD
  5
7C6C
330
1
100
AcDbSymbolTableRecord
100
AcDbBlockTableRecord
  2
*D2
340
0
 70
     0
280
     1
281
     0
  0
BLOCK_RECORD
  5
7C79
330
1
100
AcDbSymbolTableRecord
100
AcDbBlockTableRecord
  2
*D3
340
0
 70
     0
280
     1
281
     0
  0
BLOCK_RECORD
  5
7C85
330
1
100
AcDbSymbolTableRecord
100
AcDbBlockTableRecord
  2
*D4
340
0
 70
     0
280
     1
281
     0
  0
BLOCK_RECORD
  5
7C92
330
1
100
AcDbSymbolTableRecord
100
AcDbBlockTableRecord
  2
*D5
340
0
 70
     0
280
     1
281
     0
  0
BLOCK_RECORD
  5
7C9F
330
1
100
AcDbSymbolTableRecord
100
AcDbBlockTableRecord
  2
*D6
340
0
 70
     0
280
     1
281
     0
  0
BLOCK_RECORD
  5
7CD2
330
1
100
AcDbSymbolTableRecord
100
AcDbBlockTableRecord
  2
*D7
340
0
 70
     0
280
     1
281
     0
  0
BLOCK_RECORD
  5
7DE1
330
1
100
AcDbSymbolTableRecord
100
AcDbBlockTableRecord
  2
*D8
340
0
 70
     0
280
     1
281
     0
  0
BLOCK_RECORD
  5
7DF9
330
1
100
AcDbSymbolTableRecord
100
AcDbBlockTableRecord
  2
*D9
340
0
 70
     0
280
     1
281
     0
  0
BLOCK_RECORD
  5
7E06
330
1
100
AcDbSymbolTableRecord
100
AcDbBlockTableRecord
  2
*D10
340
0
 70
     0
280
     1
281
     0
  0
BLOCK_RECORD
  5
7E6B
330
1
100
AcDbSymbolTableRecord
100
AcDbBlockTableRecord
  2
*D11
340
0
 70
     0
280
     1
281
     0
  0
BLOCK_RECORD
  5
7E84
330
1
100
AcDbSymbolTableRecord
100
AcDbBlockTableRecord
  2
*D12
340
0
 70
     0
280
     1
281
     0
  0
BLOCK_RECORD
  5
7EA8
330
1
100
AcDbSymbolTableRecord
100
AcDbBlockTableRecord
  2
*D13
340
0
 70
     0
280
     1
281
     0
  0
BLOCK_RECORD
  5
7EB4
330
1
100
AcDbSymbolTableRecord
100
AcDbBlockTableRecord
  2
*D14
340
0
 70
     0
280
     1
281
     0
  0
BLOCK_RECORD
  5
7EF5
330
1
100
AcDbSymbolTableRecord
100
AcDbBlockTableRecord
  2
*D15
340
0
 70
     0
280
     1
281
     0
  0
BLOCK_RECORD
  5
7F02
330
1
100
AcDbSymbolTableRecord
100
AcDbBlockTableRecord
  2
*D16
340
0
 70
     0
280
     1
281
     0
  0
BLOCK_RECORD
  5
7F7B
330
1
100
AcDbSymbolTableRecord
100
AcDbBlockTableRecord
  2
_DOT
340
0
 70
     0
280
     1
281
     0
  0
BLOCK_RECORD
  5
80FA
330
1
100
AcDbSymbolTableRecord
100
AcDbBlockTableRecord
  2
_NONE
340
0
 70
     0
280
     1
281
     0
  0
BLOCK_RECORD
  5
8130
330
1
100
AcDbSymbolTableRecord
100
AcDbBlockTableRecord
  2
*D19
340
0
 70
     0
280
     1
281
     0
  0
BLOCK_RECORD
  5
813D
330
1
100
AcDbSymbolTableRecord
100
AcDbBlockTableRecord
  2
*D20
340
0
 70
     0
280
     1
281
     0
  0
BLOCK_RECORD
  5
814A
330
1
100
AcDbSymbolTableRecord
100
AcDbBlockTableRecord
  2
*D21
340
0
 70
     0
280
     1
281
     0
  0
BLOCK_RECORD
  5
8157
330
1
100
AcDbSymbolTableRecord
100
AcDbBlockTableRecord
  2
*D22
340
0
 70
     0
280
     1
281
     0
  0
BLOCK_RECORD
  5
8164
330
1
100
AcDbSymbolTableRecord
100
AcDbBlockTableRecord
  2
*D23
340
0
 70
     0
280
     1
281
     0
  0
ENDTAB
  0
ENDSEC
  0
SECTION
  2
BLOCKS
  0
BLOCK
  5
1A
330
19
100
AcDbEntity
  8
0
100
AcDbBlockBegin
  2
*MODEL_SPACE
 70
     0
 10
0.0
 20
0.0
 30
0.0
  3
*MODEL_SPACE
  1

  0
ENDBLK
  5
1B
330
19
100
AcDbEntity
  8
0
100
AcDbBlockEnd
  0
BLOCK
  5
17
330
16
100
AcDbEntity
 67
     1
  8
0
100
AcDbBlockBegin
  2
*PAPER_SPACE
 70
     0
 10
0.0
 20
0.0
 30
0.0
  3
*PAPER_SPACE
  1

  0
ENDBLK
  5
18
330
16
100
AcDbEntity
 67
     1
  8
0
100
AcDbBlockEnd
  0
BLOCK
  5
7A00
330
79FC
100
AcDbEntity
  8
0
100
AcDbBlockBegin
  2
_OPEN
 70
     0
 10
0.0
 20
0.0
 30
0.0
  3
_OPEN
  1

  0
LINE
  5
79FD
330
79FC
100
AcDbEntity
  8
0
  6
ByBlock
 62
     0
100
AcDbLine
 10
-1.0
 20
0.1666666666666666
 30
0.0
 11
0.0
 21
0.0
 31
0.0
  0
LINE
  5
79FE
330
79FC
100
AcDbEntity
  8
0
  6
ByBlock
 62
     0
100
AcDbLine
 10
0.0
 20
0.0
 30
0.0
 11
-1.0
 21
-0.1666666666666666
 31
0.0
  0
LINE
  5
79FF
330
79FC
100
AcDbEntity
  8
0
  6
ByBlock
 62
     0
100
AcDbLine
 10
0.0
 20
0.0
 30
0.0
 11
-1.0
 21
0.0
 31
0.0
  0
ENDBLK
  5
7A01
330
79FC
100
AcDbEntity
  8
0
100
AcDbBlockEnd
  0
BLOCK
  5
7BD4
330
7BBC
100
AcDbEntity
  8
0
100
AcDbBlockBegin
  2
*D1
 70
     1
 10
0.0
 20
0.0
 30
0.0
  3
*D1
  1

  0
LINE
  5
81B1
330
7BBC
100
AcDbEntity
  8
3
 62
     0
440
 16777216
100
AcDbLine
 10
8302.201649781626
 20
5286.757788277331
 30
0.0
 11
8766.037808957308
 21
5286.757788277331
 31
0.0
  0
LINE
  5
81B2
330
7BBC
100
AcDbEntity
  8
3
 62
     0
440
 16777216
100
AcDbLine
 10
8302.201649781626
 20
3886.757788277331
 30
0.0
 11
8766.037808957305
 21
3886.757788277331
 31
0.0
  0
LINE
  5
81B3
330
7BBC
100
AcDbEntity
  8
3
 62
     0
440
 16777216
100
AcDbLine
 10
8721.037808957309
 20
5196.757788277331
 30
0.0
 11
8721.037808957305
 21
3976.757788277331
 31
0.0
  0
INSERT
  5
81B4
330
7BBC
100
AcDbEntity
  8
3
 62
     0
440
 16777216
100
AcDbBlockReference
  2
_OPEN
 10
8721.037808957309
 20
5286.757788277331
 30
0.0
 41
90.0
 42
90.0
 43
90.0
 50
90.0
  0
INSERT
  5
81B5
330
7BBC
100
AcDbEntity
  8
3
 62
     0
440
 16777216
100
AcDbBlockReference
  2
_OPEN
 10
8721.037808957305
 20
3886.757788277331
 30
0.0
 41
90.0
 42
90.0
 43
90.0
 50
270.0
  0
MTEXT
  5
81B6
330
7BBC
100
AcDbEntity
  8
3
 62
     0
440
 16777216
100
AcDbMText
 10
8608.537808957306
 20
4560.229414343062
 30
0.0
 40
135.0
 41
0.0
 46
0.0
 71
     5
 72
     5
  1
\A1;φ1400
 11
0.0000000000000001
 21
1.0
 31
0.0
 73
     1
 44
1.0
  0
POINT
  5
81B7
330
7BBC
100
AcDbEntity
  8
DEFPOINTS
 62
     0
440
 16777216
100
AcDbPoint
 10
8279.701649781626
 20
5286.757788277331
 30
0.0
  0
POINT
  5
81B8
330
7BBC
100
AcDbEntity
  8
DEFPOINTS
 62
     0
440
 16777216
100
AcDbPoint
 10
8279.701649781626
 20
3886.757788277331
 30
0.0
  0
POINT
  5
81B9
330
7BBC
100
AcDbEntity
  8
DEFPOINTS
 62
     0
440
 16777216
100
AcDbPoint
 10
8721.037808957305
 20
3886.757788277331
 30
0.0
  0
ENDBLK
  5
7BDE
330
7BBC
100
AcDbEntity
  8
0
100
AcDbBlockEnd
  0
BLOCK
  5
8073
330
7C6C
100
AcDbEntity
  8
0
100
AcDbBlockBegin
  2
*D2
 70
     1
 10
0.0
 20
0.0
 30
0.0
  3
*D2
  1

  0
LINE
  5
81BA
330
7C6C
100
AcDbEntity
  8
3
 62
     0
440
 16777216
100
AcDbLine
 10
4271.171493262285
 20
9878.857478302236
 30
0.0
 11
4271.171493262285
 21
10190.12451237005
 31
0.0
  0
LINE
  5
81BB
330
7C6C
100
AcDbEntity
  8
3
 62
     0
440
 16777216
100
AcDbLine
 10
2571.171493262286
 20
9878.857478302236
 30
0.0
 11
2571.171493262286
 21
10190.12451237005
 31
0.0
  0
LINE
  5
81BC
330
7C6C
100
AcDbEntity
  8
3
 62
     0
440
 16777216
100
AcDbLine
 10
4181.171493262286
 20
10145.12451237005
 30
0.0
 11
2661.171493262286
 21
10145.12451237005
 31
0.0
  0
INSERT
  5
81BD
330
7C6C
100
AcDbEntity
  8
3
 62
     0
440
 16777216
100
AcDbBlockReference
  2
_OPEN
 10
4271.171493262285
 20
10145.12451237005
 30
0.0
 41
90.0
 42
90.0
 43
90.0
  0
INSERT
  5
81BE
330
7C6C
100
AcDbEntity
  8
3
 62
     0
440
 16777216
100
AcDbBlockReference
  2
_OPEN
 10
2571.171493262286
 20
10145.12451237005
 30
0.0
 41
90.0
 42
90.0
 43
90.0
 50
180.0
  0
MTEXT
  5
81BF
330
7C6C
100
AcDbEntity
  8
3
 62
     0
440
 16777216
100
AcDbMText
 10
3418.732425006732
 20
10257.62451237005
 30
0.0
 40
135.0
 41
0.0
 46
0.0
 71
     5
 72
     5
  1
\A1;1700
 73
     1
 44
1.0
  0
POINT
  5
81C0
330
7C6C
100
AcDbEntity
  8
DEFPOINTS
 62
     0
440
 16777216
100
AcDbPoint
 10
4271.171493262285
 20
9856.357478302236
 30
0.0
  0
POINT
  5
81C1
330
7C6C
100
AcDbEntity
  8
DEFPOINTS
 62
     0
440
 16777216
100
AcDbPoint
 10
2571.171493262286
 20
9856.357478302236
 30
0.0
  0
POINT
  5
81C2
330
7C6C
100
AcDbEntity
  8
DEFPOINTS
 62
     0
440
 16777216
100
AcDbPoint
 10
2571.171493262286
 20
10145.12451237005
 30
0.0
  0
ENDBLK
  5
807D
330
7C6C
100
AcDbEntity
  8
0
100
AcDbBlockEnd
  0
BLOCK
  5
8094
330
7C79
100
AcDbEntity
  8
0
100
AcDbBlockBegin
  2
*D3
 70
     1
 10
0.0
 20
0.0
 30
0.0
  3
*D3
  1

  0
LINE
  5
81C3
330
7C79
100
AcDbEntity
  8
3
 62
     0
440
 16777216
100
AcDbLine
 10
1371.171493262285
 20
8618.857478302237
 30
0.0
 11
1371.171493262285
 21
10190.12451237005
 31
0.0
  0
LINE
  5
81C4
330
7C79
100
AcDbEntity
  8
3
 62
     0
440
 16777216
100
AcDbLine
 10
2481.171493262286
 20
10145.12451237005
 30
0.0
 11
1461.171493262285
 21
10145.12451237005
 31
0.0
  0
INSERT
  5
81C5
330
7C79
100
AcDbEntity
  8
3
 62
     0
440
 16777216
100
AcDbBlockReference
  2
_OPEN
 10
2571.171493262286
 20
10145.12451237005
 30
0.0
 41
90.0
 42
90.0
 43
90.0
  0
INSERT
  5
81C6
330
7C79
100
AcDbEntity
  8
3
 62
     0
440
 16777216
100
AcDbBlockReference
  2
_OPEN
 10
1371.171493262285
 20
10145.12451237005
 30
0.0
 41
90.0
 42
90.0
 43
90.0
 50
180.0
  0
MTEXT
  5
81C7
330
7C79
100
AcDbEntity
  8
3
 62
     0
440
 16777216
100
AcDbMText
 10
1971.171493262285
 20
10257.62451237005
 30
0.0
 40
135.0
 41
0.0
 46
0.0
 71
     5
 72
     5
  1
\A1;1200
 73
     1
 44
1.0
  0
POINT
  5
81C8
330
7C79
100
AcDbEntity
  8
DEFPOINTS
 62
     0
440
 16777216
100
AcDbPoint
 10
2571.171493262286
 20
9856.357478302236
 30
0.0
  0
POINT
  5
81C9
330
7C79
100
AcDbEntity
  8
DEFPOINTS
 62
     0
440
 16777216
100
AcDbPoint
 10
1371.171493262285
 20
8596.357478302236
 30
0.0
  0
POINT
  5
81CA
330
7C79
100
AcDbEntity
  8
DEFPOINTS
 62
     0
440
 16777216
100
AcDbPoint
 10
1371.171493262285
 20
10145.12451237005
 30
0.0
  0
ENDBLK
  5
809D
330
7C79
100
AcDbEntity
  8
0
100
AcDbBlockEnd
  0
BLOCK
  5
80A4
330
7C85
100
AcDbEntity
  8
0
100
AcDbBlockBegin
  2
*D4
 70
     1
 10
0.0
 20
0.0
 30
0.0
  3
*D4
  1

  0
LINE
  5
81CB
330
7C85
100
AcDbEntity
  8
3
 62
     0
440
 16777216
100
AcDbLine
 10
1348.671493262285
 20
8596.357478302236
 30
0.0
 11
1015.53573723211
 21
8596.357478302236
 31
0.0
  0
LINE
  5
81CC
330
7C85
100
AcDbEntity
  8
3
 62
     0
440
 16777216
100
AcDbLine
 10
1348.671493262285
 20
7496.357478302236
 30
0.0
 11
1015.53573723211
 21
7496.357478302236
 31
0.0
  0
LINE
  5
81CD
330
7C85
100
AcDbEntity
  8
3
 62
     0
440
 16777216
100
AcDbLine
 10
1060.53573723211
 20
8506.357478302236
 30
0.0
 11
1060.53573723211
 21
7586.357478302236
 31
0.0
  0
INSERT
  5
81CE
330
7C85
100
AcDbEntity
  8
3
 62
     0
440
 16777216
100
AcDbBlockReference
  2
_OPEN
 10
1060.53573723211
 20
8596.357478302236
 30
0.0
 41
90.0
 42
90.0
 43
90.0
 50
90.0
  0
INSERT
  5
81CF
330
7C85
100
AcDbEntity
  8
3
 62
     0
440
 16777216
100
AcDbBlockReference
  2
_OPEN
 10
1060.53573723211
 20
7496.357478302236
 30
0.0
 41
90.0
 42
90.0
 43
90.0
 50
270.0
  0
MTEXT
  5
81D0
330
7C85
100
AcDbEntity
  8
3
 62
     0
440
 16777216
100
AcDbMText
 10
948.0357372321087
 20
8046.576645713955
 30
0.0
 40
135.0
 41
0.0
 46
0.0
 71
     5
 72
     5
  1
\A1;1100
 11
0.0000000000000001
 21
1.0
 31
0.0
 73
     1
 44
1.0
  0
POINT
  5
81D1
330
7C85
100
AcDbEntity
  8
DEFPOINTS
 62
     0
440
 16777216
100
AcDbPoint
 10
1371.171493262285
 20
8596.357478302236
 30
0.0
  0
POINT
  5
81D2
330
7C85
100
AcDbEntity
  8
DEFPOINTS
 62
     0
440
 16777216
100
AcDbPoint
 10
1371.171493262285
 20
7496.357478302236
 30
0.0
  0
POINT
  5
81D3
330
7C85
100
AcDbEntity
  8
DEFPOINTS
 62
     0
440
 16777216
100
AcDbPoint
 10
1060.53573723211
 20
7496.357478302236
 30
0.0
  0
ENDBLK
  5
80AE
330
7C85
100
AcDbEntity
  8
0
100
AcDbBlockEnd
  0
BLOCK
  5
8089
330
7C92
100
AcDbEntity
  8
0
100
AcDbBlockBegin
  2
*D5
 70
     1
 10
0.0
 20
0.0
 30
0.0
  3
*D5
  1

  0
LINE
  5
81D4
330
7C92
100
AcDbEntity
  8
3
 62
     0
440
 16777216
100
AcDbLine
 10
4293.671493262285
 20
9856.357478302236
 30
0.0
 11
4686.118248325104
 21
9856.357478302236
 31
0.0
  0
LINE
  5
81D5
330
7C92
100
AcDbEntity
  8
3
 62
     0
440
 16777216
100
AcDbLine
 10
4293.671493262285
 20
7496.357478302236
 30
0.0
 11
4686.118248325104
 21
7496.357478302236
 31
0.0
  0
LINE
  5
81D6
330
7C92
100
AcDbEntity
  8
3
 62
     0
440
 16777216
100
AcDbLine
 10
4641.118248325104
 20
9766.357478302236
 30
0.0
 11
4641.118248325104
 21
7586.357478302236
 31
0.0
  0
INSERT
  5
81D7
330
7C92
100
AcDbEntity
  8
3
 62
     0
440
 16777216
100
AcDbBlockReference
  2
_OPEN
 10
4641.118248325104
 20
9856.357478302236
 30
0.0
 41
90.0
 42
90.0
 43
90.0
 50
90.0
  0
INSERT
  5
81D8
330
7C92
100
AcDbEntity
  8
3
 62
     0
440
 16777216
100
AcDbBlockReference
  2
_OPEN
 10
4641.118248325104
 20
7496.357478302236
 30
0.0
 41
90.0
 42
90.0
 43
90.0
 50
270.0
  0
MTEXT
  5
81D9
330
7C92
100
AcDbEntity
  8
3
 62
     0
440
 16777216
100
AcDbMText
 10
4528.618248325103
 20
8635.058327333412
 30
0.0
 40
135.0
 41
0.0
 46
0.0
 71
     5
 72
     5
  1
\A1;2360
 11
0.0000000000000001
 21
1.0
 31
0.0
 73
     1
 44
1.0
  0
POINT
  5
81DA
330
7C92
100
AcDbEntity
  8
DEFPOINTS
 62
     0
440
 16777216
100
AcDbPoint
 10
4271.171493262285
 20
9856.357478302236
 30
0.0
  0
POINT
  5
81DB
330
7C92
100
AcDbEntity
  8
DEFPOINTS
 62
     0
440
 16777216
100
AcDbPoint
 10
4271.171493262285
 20
7496.357478302236
 30
0.0
  0
POINT
  5
81DC
330
7C92
100
AcDbEntity
  8
DEFPOINTS
 62
     0
440
 16777216
100
AcDbPoint
 10
4641.118248325104
 20
7496.357478302236
 30
0.0
  0
ENDBLK
  5
8093
330
7C92
100
AcDbEntity
  8
0
100
AcDbBlockEnd
  0
BLOCK
  5
807E
330
7C9F
100
AcDbEntity
  8
0
100
AcDbBlockBegin
  2
*D6
 70
     1
 10
0.0
 20
0.0
 30
0.0
  3
*D6
  1

  0
LINE
  5
81DD
330
7C9F
100
AcDbEntity
  8
3
 62
     0
440
 16777216
100
AcDbLine
 10
4271.171493262285
 20
7473.857478302235
 30
0.0
 11
4271.171493262285
 21
6991.164693373917
 31
0.0
  0
LINE
  5
81DE
330
7C9F
100
AcDbEntity
  8
3
 62
     0
440
 16777216
100
AcDbLine
 10
1371.171493262285
 20
7473.857478302235
 30
0.0
 11
1371.171493262285
 21
6991.164693373917
 31
0.0
  0
LINE
  5
81DF
330
7C9F
100
AcDbEntity
  8
3
 62
     0
440
 16777216
100
AcDbLine
 10
4181.171493262286
 20
7036.164693373918
 30
0.0
 11
1461.171493262285
 21
7036.164693373918
 31
0.0
  0
INSERT
  5
81E0
330
7C9F
100
AcDbEntity
  8
3
 62
     0
440
 16777216
100
AcDbBlockReference
  2
_OPEN
 10
4271.171493262285
 20
7036.164693373918
 30
0.0
 41
90.0
 42
90.0
 43
90.0
  0
INSERT
  5
81E1
330
7C9F
100
AcDbEntity
  8
3
 62
     0
440
 16777216
100
AcDbBlockReference
  2
_OPEN
 10
1371.171493262285
 20
7036.164693373918
 30
0.0
 41
90.0
 42
90.0
 43
90.0
 50
180.0
  0
MTEXT
  5
81E2
330
7C9F
100
AcDbEntity
  8
3
 62
     0
440
 16777216
100
AcDbMText
 10
2907.552904262113
 20
7148.664693373918
 30
0.0
 40
135.0
 41
0.0
 46
0.0
 71
     5
 72
     5
  1
\A1;2900
 73
     1
 44
1.0
  0
POINT
  5
81E3
330
7C9F
100
AcDbEntity
  8
DEFPOINTS
 62
     0
440
 16777216
100
AcDbPoint
 10
4271.171493262285
 20
7496.357478302236
 30
0.0
  0
POINT
  5
81E4
330
7C9F
100
AcDbEntity
  8
DEFPOINTS
 62
     0
440
 16777216
100
AcDbPoint
 10
1371.171493262285
 20
7496.357478302236
 30
0.0
  0
POINT
  5
81E5
330
7C9F
100
AcDbEntity
  8
DEFPOINTS
 62
     0
440
 16777216
100
AcDbPoint
 10
1371.171493262285
 20
7036.164693373918
 30
0.0
  0
ENDBLK
  5
8088
330
7C9F
100
AcDbEntity
  8
0
100
AcDbBlockEnd
  0
BLOCK
  5
803D
330
7CD2
100
AcDbEntity
  8
0
100
AcDbBlockBegin
  2
*D7
 70
     1
 10
0.0
 20
0.0
 30
0.0
  3
*D7
  1

  0
LINE
  5
81E6
330
7CD2
100
AcDbEntity
  8
3
 62
     0
440
 16777216
100
AcDbLine
 10
4373.671493262285
 20
3095.757788277331
 30
0.0
 11
4672.201658932289
 21
3095.757788277331
 31
0.0
  0
LINE
  5
81E7
330
7CD2
100
AcDbEntity
  8
3
 62
     0
440
 16777216
100
AcDbLine
 10
4373.671493262285
 20
4545.757788277331
 30
0.0
 11
4672.201658932289
 21
4545.757788277331
 31
0.0
  0
LINE
  5
81E8
330
7CD2
100
AcDbEntity
  8
3
 62
     0
440
 16777216
100
AcDbLine
 10
4627.201658932289
 20
3185.757788277332
 30
0.0
 11
4627.201658932289
 21
4455.757788277331
 31
0.0
  0
INSERT
  5
81E9
330
7CD2
100
AcDbEntity
  8
3
 62
     0
440
 16777216
100
AcDbBlockReference
  2
_OPEN
 10
4627.201658932289
 20
3095.757788277331
 30
0.0
 41
90.0
 42
90.0
 43
90.0
 50
270.0
  0
INSERT
  5
81EA
330
7CD2
100
AcDbEntity
  8
3
 62
     0
440
 16777216
100
AcDbBlockReference
  2
_OPEN
 10
4627.201658932289
 20
4545.757788277331
 30
0.0
 41
90.0
 42
90.0
 43
90.0
 50
90.0
  0
MTEXT
  5
81EB
330
7CD2
100
AcDbEntity
  8
3
 62
     0
440
 16777216
100
AcDbMText
 10
4514.701658932288
 20
3794.504977530556
 30
0.0
 40
135.0
 41
0.0
 46
0.0
 71
     5
 72
     5
  1
\A1;1450
 11
0.0000000000000001
 21
1.0
 31
0.0
 73
     1
 44
1.0
  0
POINT
  5
81EC
330
7CD2
100
AcDbEntity
  8
DEFPOINTS
 62
     0
440
 16777216
100
AcDbPoint
 10
4351.171493262285
 20
3095.757788277331
 30
0.0
  0
POINT
  5
81ED
330
7CD2
100
AcDbEntity
  8
DEFPOINTS
 62
     0
440
 16777216
100
AcDbPoint
 10
4351.171493262285
 20
4545.757788277331
 30
0.0
  0
POINT
  5
81EE
330
7CD2
100
AcDbEntity
  8
DEFPOINTS
 62
     0
440
 16777216
100
AcDbPoint
 10
4627.201658932289
 20
4545.757788277331
 30
0.0
  0
ENDBLK
  5
8047
330
7CD2
100
AcDbEntity
  8
0
100
AcDbBlockEnd
  0
BLOCK
  5
7DEE
330
7DE1
100
AcDbEntity
  8
0
100
AcDbBlockBegin
  2
*D8
 70
     1
 10
0.0
 20
0.0
 30
0.0
  3
*D8
  1

  0
LINE
  5
81EF
330
7DE1
100
AcDbEntity
  8
3
 62
     0
440
 16777216
100
AcDbLine
 10
6379.701649781625
 20
5596.841597618153
 30
0.0
 11
6379.701649781625
 21
5833.483180986843
 31
0.0
  0
LINE
  5
81F0
330
7DE1
100
AcDbEntity
  8
3
 62
     0
440
 16777216
100
AcDbLine
 10
8279.701649781626
 20
5596.841597618154
 30
0.0
 11
8279.701649781626
 21
5833.483180986843
 31
0.0
  0
LINE
  5
81F1
330
7DE1
100
AcDbEntity
  8
3
 62
     0
440
 16777216
100
AcDbLine
 10
6469.701649781625
 20
5788.483180986843
 30
0.0
 11
8189.701649781625
 21
5788.483180986843
 31
0.0
  0
INSERT
  5
81F2
330
7DE1
100
AcDbEntity
  8
3
 62
     0
440
 16777216
100
AcDbBlockReference
  2
_OPEN
 10
6379.701649781625
 20
5788.483180986843
 30
0.0
 41
90.0
 42
90.0
 43
90.0
 50
180.0
  0
INSERT
  5
81F3
330
7DE1
100
AcDbEntity
  8
3
 62
     0
440
 16777216
100
AcDbBlockReference
  2
_OPEN
 10
8279.701649781626
 20
5788.483180986843
 30
0.0
 41
90.0
 42
90.0
 43
90.0
  0
MTEXT
  5
81F4
330
7DE1
100
AcDbEntity
  8
3
 62
     0
440
 16777216
100
AcDbMText
 10
7327.571258090691
 20
5900.983180986843
 30
0.0
 40
135.0
 41
0.0
 46
0.0
 71
     5
 72
     5
  1
\A1;1900
 73
     1
 44
1.0
  0
POINT
  5
81F5
330
7DE1
100
AcDbEntity
  8
DEFPOINTS
 62
     0
440
 16777216
100
AcDbPoint
 10
6379.701649781625
 20
5574.341597618153
 30
0.0
  0
POINT
  5
81F6
330
7DE1
100
AcDbEntity
  8
DEFPOINTS
 62
     0
440
 16777216
100
AcDbPoint
 10
8279.701649781626
 20
5574.341597618154
 30
0.0
  0
POINT
  5
81F7
330
7DE1
100
AcDbEntity
  8
DEFPOINTS
 62
     0
440
 16777216
100
AcDbPoint
 10
8279.701649781626
 20
5788.483180986843
 30
0.0
  0
ENDBLK
  5
7DF8
330
7DE1
100
AcDbEntity
  8
0
100
AcDbBlockEnd
  0
BLOCK
  5
80B3
330
7DF9
100
AcDbEntity
  8
0
100
AcDbBlockBegin
  2
*D9
 70
     1
 10
0.0
 20
0.0
 30
0.0
  3
*D9
  1

  0
LINE
  5
82B8
330
7DF9
100
AcDbEntity
  8
3
 62
     0
440
 16777216
370
    -2
100
AcDbLine
 10
8459.901649781626
 20
4539.257788277331
 30
0.0
 11
8459.901649781626
 21
6201.468736067525
 31
0.0
  0
LINE
  5
82B9
330
7DF9
100
AcDbEntity
  8
3
 62
     0
440
 16777216
370
    -2
100
AcDbLine
 10
7329.701649781624
 20
6000.235743111179
 30
0.0
 11
7329.701649781624
 21
6201.468736067525
 31
0.0
  0
LINE
  5
82BA
330
7DF9
100
AcDbEntity
  8
3
 62
     0
440
 16777216
370
    -2
100
AcDbLine
 10
8369.901649781624
 20
6156.468736067525
 30
0.0
 11
7419.701649781625
 21
6156.468736067525
 31
0.0
  0
INSERT
  5
82BB
330
7DF9
100
AcDbEntity
  8
3
 62
     0
440
 16777216
370
    -2
100
AcDbBlockReference
  2
_OPEN
 10
8459.901649781626
 20
6156.468736067525
 30
0.0
 41
90.0
 42
90.0
 43
90.0
  0
INSERT
  5
82BC
330
7DF9
100
AcDbEntity
  8
3
 62
     0
440
 16777216
370
    -2
100
AcDbBlockReference
  2
_OPEN
 10
7329.701649781624
 20
6156.468736067525
 30
0.0
 41
90.0
 42
90.0
 43
90.0
 50
180.0
  0
MTEXT
  5
82BD
330
7DF9
100
AcDbEntity
  8
3
 62
     0
440
 16777216
100
AcDbMText
 10
7860.577878494165
 20
6304.325878924668
 30
0.0
 40
135.0
 41
0.0
 46
0.0
 71
     5
 72
     1
  1
\A1;(1130)
 73
     1
 44
1.0
  0
POINT
  5
82BE
330
7DF9
100
AcDbEntity
  8
DEFPOINTS
 62
     0
440
 16777216
100
AcDbPoint
 10
8459.901649781626
 20
4516.757788277331
 30
0.0
  0
POINT
  5
82BF
330
7DF9
100
AcDbEntity
  8
DEFPOINTS
 62
     0
440
 16777216
100
AcDbPoint
 10
7329.701649781624
 20
5977.735743111179
 30
0.0
  0
POINT
  5
82C0
330
7DF9
100
AcDbEntity
  8
DEFPOINTS
 62
     0
440
 16777216
100
AcDbPoint
 10
7329.701649781624
 20
6156.468736067525
 30
0.0
  0
ENDBLK
  5
80BD
330
7DF9
100
AcDbEntity
  8
0
100
AcDbBlockEnd
  0
BLOCK
  5
7EC7
330
7E06
100
AcDbEntity
  8
0
100
AcDbBlockBegin
  2
*D10
 70
     1
 10
0.0
 20
0.0
 30
0.0
  3
*D10
  1

  0
LINE
  5
82C1
330
7E06
100
AcDbEntity
  8
3
 62
     0
440
 16777216
370
    -2
100
AcDbLine
 10
5859.701649781626
 20
4989.257788277331
 30
0.0
 11
5859.701649781626
 21
6201.468736067525
 31
0.0
  0
LINE
  5
82C2
330
7E06
100
AcDbEntity
  8
3
 62
     0
440
 16777216
370
    -2
100
AcDbLine
 10
7239.701649781626
 20
6156.468736067525
 30
0.0
 11
5949.701649781626
 21
6156.468736067525
 31
0.0
  0
INSERT
  5
82C3
330
7E06
100
AcDbEntity
  8
3
 62
     0
440
 16777216
370
    -2
100
AcDbBlockReference
  2
_OPEN
 10
7329.701649781624
 20
6156.468736067525
 30
0.0
 41
90.0
 42
90.0
 43
90.0
  0
INSERT
  5
82C4
330
7E06
100
AcDbEntity
  8
3
 62
     0
440
 16777216
370
    -2
100
AcDbBlockReference
  2
_OPEN
 10
5859.701649781626
 20
6156.468736067525
 30
0.0
 41
90.0
 42
90.0
 43
90.0
 50
180.0
  0
MTEXT
  5
82C5
330
7E06
100
AcDbEntity
  8
3
 62
     0
440
 16777216
100
AcDbMText
 10
6594.701649781626
 20
6304.325878924668
 30
0.0
 40
135.0
 41
0.0
 46
0.0
 71
     5
 72
     1
  1
\A1;(1470)
 73
     1
 44
1.0
  0
POINT
  5
82C6
330
7E06
100
AcDbEntity
  8
DEFPOINTS
 62
     0
440
 16777216
100
AcDbPoint
 10
7329.701649781624
 20
5977.735743111179
 30
0.0
  0
POINT
  5
82C7
330
7E06
100
AcDbEntity
  8
DEFPOINTS
 62
     0
440
 16777216
100
AcDbPoint
 10
5859.701649781626
 20
4966.757788277331
 30
0.0
  0
POINT
  5
82C8
330
7E06
100
AcDbEntity
  8
DEFPOINTS
 62
     0
440
 16777216
100
AcDbPoint
 10
5859.701649781626
 20
6156.468736067525
 30
0.0
  0
ENDBLK
  5
7ED0
330
7E06
100
AcDbEntity
  8
0
100
AcDbBlockEnd
  0
BLOCK
  5
8028
330
7E6B
100
AcDbEntity
  8
0
100
AcDbBlockBegin
  2
*D11
 70
     1
 10
0.0
 20
0.0
 30
0.0
  3
*D11
  1

  0
LINE
  5
8209
330
7E6B
100
AcDbEntity
  8
3
 62
     0
440
 16777216
100
AcDbLine
 10
4373.671493262285
 20
3095.757788277331
 30
0.0
 11
4920.067876964961
 21
3095.757788277331
 31
0.0
  0
LINE
  5
820A
330
7E6B
100
AcDbEntity
  8
3
 62
     0
440
 16777216
100
AcDbLine
 10
4613.959340594075
 20
4586.75778827733
 30
0.0
 11
4920.067876964961
 21
4586.75778827733
 31
0.0
  0
LINE
  5
820B
330
7E6B
100
AcDbEntity
  8
3
 62
     0
440
 16777216
100
AcDbLine
 10
4875.067876964961
 20
3185.757788277332
 30
0.0
 11
4875.067876964961
 21
4496.757788277331
 31
0.0
  0
INSERT
  5
820C
330
7E6B
100
AcDbEntity
  8
3
 62
     0
440
 16777216
100
AcDbBlockReference
  2
_OPEN
 10
4875.067876964961
 20
3095.757788277331
 30
0.0
 41
90.0
 42
90.0
 43
90.0
 50
270.0
  0
INSERT
  5
820D
330
7E6B
100
AcDbEntity
  8
3
 62
     0
440
 16777216
100
AcDbBlockReference
  2
_OPEN
 10
4875.067876964961
 20
4586.75778827733
 30
0.0
 41
90.0
 42
90.0
 43
90.0
 50
90.0
  0
MTEXT
  5
820E
330
7E6B
100
AcDbEntity
  8
3
 62
     0
440
 16777216
100
AcDbMText
 10
4762.56787696496
 20
3781.416753458474
 30
0.0
 40
135.0
 41
0.0
 46
0.0
 71
     5
 72
     5
  1
\A1;1491
 11
0.0000000000000001
 21
1.0
 31
0.0
 73
     1
 44
1.0
  0
POINT
  5
820F
330
7E6B
100
AcDbEntity
  8
DEFPOINTS
 62
     0
440
 16777216
100
AcDbPoint
 10
4351.171493262285
 20
3095.757788277331
 30
0.0
  0
POINT
  5
8210
330
7E6B
100
AcDbEntity
  8
DEFPOINTS
 62
     0
440
 16777216
100
AcDbPoint
 10
4591.459340594076
 20
4586.75778827733
 30
0.0
  0
POINT
  5
8211
330
7E6B
100
AcDbEntity
  8
DEFPOINTS
 62
     0
440
 16777216
100
AcDbPoint
 10
4875.067876964961
 20
4586.75778827733
 30
0.0
  0
ENDBLK
  5
8032
330
7E6B
100
AcDbEntity
  8
0
100
AcDbBlockEnd
  0
BLOCK
  5
7FE4
330
7E84
100
AcDbEntity
  8
0
100
AcDbBlockBegin
  2
*D12
 70
     1
 10
0.0
 20
0.0
 30
0.0
  3
*D12
  1

  0
LINE
  5
8212
330
7E84
100
AcDbEntity
  8
3
 62
     0
440
 16777216
100
AcDbLine
 10
4351.171493262285
 20
4622.257788277331
 30
0.0
 11
4351.171493262285
 21
5902.846961055508
 31
0.0
  0
LINE
  5
8213
330
7E84
100
AcDbEntity
  8
3
 62
     0
440
 16777216
100
AcDbLine
 10
3421.171493262285
 20
5734.032337836612
 30
0.0
 11
3421.171493262285
 21
5902.846961055508
 31
0.0
  0
LINE
  5
8214
330
7E84
100
AcDbEntity
  8
3
 62
     0
440
 16777216
100
AcDbLine
 10
4261.171493262285
 20
5857.846961055507
 30
0.0
 11
3511.171493262285
 21
5857.846961055507
 31
0.0
  0
INSERT
  5
8215
330
7E84
100
AcDbEntity
  8
3
 62
     0
440
 16777216
100
AcDbBlockReference
  2
_OPEN
 10
4351.171493262285
 20
5857.846961055507
 30
0.0
 41
90.0
 42
90.0
 43
90.0
  0
INSERT
  5
8216
330
7E84
100
AcDbEntity
  8
3
 62
     0
440
 16777216
100
AcDbBlockReference
  2
_OPEN
 10
3421.171493262285
 20
5857.846961055507
 30
0.0
 41
90.0
 42
90.0
 43
90.0
 50
180.0
  0
MTEXT
  5
8217
330
7E84
100
AcDbEntity
  8
3
 62
     0
440
 16777216
100
AcDbMText
 10
3940.631274025597
 20
5970.346961055508
 30
0.0
 40
135.0
 41
0.0
 46
0.0
 71
     5
 72
     5
  1
\A1;930
 73
     1
 44
1.0
  0
POINT
  5
8218
330
7E84
100
AcDbEntity
  8
DEFPOINTS
 62
     0
440
 16777216
100
AcDbPoint
 10
4351.171493262285
 20
4599.757788277331
 30
0.0
  0
POINT
  5
8219
330
7E84
100
AcDbEntity
  8
DEFPOINTS
 62
     0
440
 16777216
100
AcDbPoint
 10
3421.171493262285
 20
5711.532337836612
 30
0.0
  0
POINT
  5
821A
330
7E84
100
AcDbEntity
  8
DEFPOINTS
 62
     0
440
 16777216
100
AcDbPoint
 10
3421.171493262285
 20
5857.846961055507
 30
0.0
  0
ENDBLK
  5
7FEE
330
7E84
100
AcDbEntity
  8
0
100
AcDbBlockEnd
  0
BLOCK
  5
8054
330
7EA8
100
AcDbEntity
  8
0
100
AcDbBlockBegin
  2
*D13
 70
     1
 10
0.0
 20
0.0
 30
0.0
  3
*D13
  1

  0
LINE
  5
821B
330
7EA8
100
AcDbEntity
  8
3
 62
     0
440
 16777216
100
AcDbLine
 10
2214.171493262286
 20
4507.257788277331
 30
0.0
 11
2214.171493262286
 21
5902.846961055508
 31
0.0
  0
LINE
  5
821C
330
7EA8
100
AcDbEntity
  8
3
 62
     0
440
 16777216
100
AcDbLine
 10
3331.171493262286
 20
5857.846961055507
 30
0.0
 11
2304.171493262285
 21
5857.846961055507
 31
0.0
  0
INSERT
  5
821D
330
7EA8
100
AcDbEntity
  8
3
 62
     0
440
 16777216
100
AcDbBlockReference
  2
_OPEN
 10
3421.171493262285
 20
5857.846961055507
 30
0.0
 41
90.0
 42
90.0
 43
90.0
  0
INSERT
  5
821E
330
7EA8
100
AcDbEntity
  8
3
 62
     0
440
 16777216
100
AcDbBlockReference
  2
_OPEN
 10
2214.171493262286
 20
5857.846961055507
 30
0.0
 41
90.0
 42
90.0
 43
90.0
 50
180.0
  0
MTEXT
  5
821F
330
7EA8
100
AcDbEntity
  8
3
 62
     0
440
 16777216
100
AcDbMText
 10
2817.671493262285
 20
5970.346961055508
 30
0.0
 40
135.0
 41
0.0
 46
0.0
 71
     5
 72
     5
  1
\A1;1207
 73
     1
 44
1.0
  0
POINT
  5
8220
330
7EA8
100
AcDbEntity
  8
DEFPOINTS
 62
     0
440
 16777216
100
AcDbPoint
 10
3421.171493262285
 20
5711.532337836612
 30
0.0
  0
POINT
  5
8221
330
7EA8
100
AcDbEntity
  8
DEFPOINTS
 62
     0
440
 16777216
100
AcDbPoint
 10
2214.171493262286
 20
4484.757788277331
 30
0.0
  0
POINT
  5
8222
330
7EA8
100
AcDbEntity
  8
DEFPOINTS
 62
     0
440
 16777216
100
AcDbPoint
 10
2214.171493262286
 20
5857.846961055507
 30
0.0
  0
ENDBLK
  5
805D
330
7EA8
100
AcDbEntity
  8
0
100
AcDbBlockEnd
  0
BLOCK
  5
8010
330
7EB4
100
AcDbEntity
  8
0
100
AcDbBlockBegin
  2
*D14
 70
     1
 10
0.0
 20
0.0
 30
0.0
  3
*D14
  1

  0
LINE
  5
8223
330
7EB4
100
AcDbEntity
  8
3
 62
     0
440
 16777216
100
AcDbLine
 10
4351.171493262285
 20
4622.257788277331
 30
0.0
 11
4351.171493262285
 21
6214.045682635901
 31
0.0
  0
LINE
  5
8224
330
7EB4
100
AcDbEntity
  8
3
 62
     0
440
 16777216
100
AcDbLine
 10
1371.171493262285
 20
3169.257788277331
 30
0.0
 11
1371.171493262285
 21
6214.045682635901
 31
0.0
  0
LINE
  5
8225
330
7EB4
100
AcDbEntity
  8
3
 62
     0
440
 16777216
100
AcDbLine
 10
4261.171493262285
 20
6169.0456826359
 30
0.0
 11
1461.171493262285
 21
6169.0456826359
 31
0.0
  0
INSERT
  5
8226
330
7EB4
100
AcDbEntity
  8
3
 62
     0
440
 16777216
100
AcDbBlockReference
  2
_OPEN
 10
4351.171493262285
 20
6169.0456826359
 30
0.0
 41
90.0
 42
90.0
 43
90.0
  0
INSERT
  5
8227
330
7EB4
100
AcDbEntity
  8
3
 62
     0
440
 16777216
100
AcDbBlockReference
  2
_OPEN
 10
1371.171493262285
 20
6169.0456826359
 30
0.0
 41
90.0
 42
90.0
 43
90.0
 50
180.0
  0
MTEXT
  5
8228
330
7EB4
100
AcDbEntity
  8
3
 62
     0
440
 16777216
100
AcDbMText
 10
2895.747507331638
 20
6281.545682635901
 30
0.0
 40
135.0
 41
0.0
 46
0.0
 71
     5
 72
     5
  1
\A1;2980
 73
     1
 44
1.0
  0
POINT
  5
8229
330
7EB4
100
AcDbEntity
  8
DEFPOINTS
 62
     0
440
 16777216
100
AcDbPoint
 10
4351.171493262285
 20
4599.757788277331
 30
0.0
  0
POINT
  5
822A
330
7EB4
100
AcDbEntity
  8
DEFPOINTS
 62
     0
440
 16777216
100
AcDbPoint
 10
1371.171493262285
 20
3146.757788277331
 30
0.0
  0
POINT
  5
822B
330
7EB4
100
AcDbEntity
  8
DEFPOINTS
 62
     0
440
 16777216
100
AcDbPoint
 10
1371.171493262285
 20
6169.0456826359
 30
0.0
  0
ENDBLK
  5
801A
330
7EB4
100
AcDbEntity
  8
0
100
AcDbBlockEnd
  0
BLOCK
  5
8005
330
7EF5
100
AcDbEntity
  8
0
100
AcDbBlockBegin
  2
*D15
 70
     1
 10
0.0
 20
0.0
 30
0.0
  3
*D15
  1

  0
LINE
  5
822C
330
7EF5
100
AcDbEntity
  8
3
 62
     0
440
 16777216
100
AcDbLine
 10
3386.671493262286
 20
5589.757788277331
 30
0.0
 11
5191.09535359456
 21
5589.757788277331
 31
0.0
  0
LINE
  5
822D
330
7EF5
100
AcDbEntity
  8
3
 62
     0
440
 16777216
100
AcDbLine
 10
4613.959340594075
 20
4586.75778827733
 30
0.0
 11
5191.09535359456
 21
4586.75778827733
 31
0.0
  0
LINE
  5
822E
330
7EF5
100
AcDbEntity
  8
3
 62
     0
440
 16777216
100
AcDbLine
 10
5146.09535359456
 20
5499.757788277332
 30
0.0
 11
5146.09535359456
 21
4676.75778827733
 31
0.0
  0
INSERT
  5
822F
330
7EF5
100
AcDbEntity
  8
3
 62
     0
440
 16777216
100
AcDbBlockReference
  2
_OPEN
 10
5146.09535359456
 20
5589.757788277331
 30
0.0
 41
90.0
 42
90.0
 43
90.0
 50
90.0
  0
INSERT
  5
8230
330
7EF5
100
AcDbEntity
  8
3
 62
     0
440
 16777216
100
AcDbBlockReference
  2
_OPEN
 10
5146.09535359456
 20
4586.75778827733
 30
0.0
 41
90.0
 42
90.0
 43
90.0
 50
270.0
  0
MTEXT
  5
8231
330
7EF5
100
AcDbEntity
  8
3
 62
     0
440
 16777216
100
AcDbMText
 10
5033.595353594559
 20
5100.294987304638
 30
0.0
 40
135.0
 41
0.0
 46
0.0
 71
     5
 72
     5
  1
\A1;1003
 11
0.0000000000000001
 21
1.0
 31
0.0
 73
     1
 44
1.0
  0
POINT
  5
8232
330
7EF5
100
AcDbEntity
  8
DEFPOINTS
 62
     0
440
 16777216
100
AcDbPoint
 10
3364.171493262285
 20
5589.757788277331
 30
0.0
  0
POINT
  5
8233
330
7EF5
100
AcDbEntity
  8
DEFPOINTS
 62
     0
440
 16777216
100
AcDbPoint
 10
4591.459340594076
 20
4586.75778827733
 30
0.0
  0
POINT
  5
8234
330
7EF5
100
AcDbEntity
  8
DEFPOINTS
 62
     0
440
 16777216
100
AcDbPoint
 10
5146.09535359456
 20
4586.75778827733
 30
0.0
  0
ENDBLK
  5
800F
330
7EF5
100
AcDbEntity
  8
0
100
AcDbBlockEnd
  0
BLOCK
  5
8033
330
7F02
100
AcDbEntity
  8
0
100
AcDbBlockBegin
  2
*D16
 70
     1
 10
0.0
 20
0.0
 30
0.0
  3
*D16
  1

  0
LINE
  5
8235
330
7F02
100
AcDbEntity
  8
3
 62
     0
440
 16777216
100
AcDbLine
 10
4293.671493262285
 20
2996.757788277331
 30
0.0
 11
5191.095353594559
 21
2996.757788277331
 31
0.0
  0
LINE
  5
8236
330
7F02
100
AcDbEntity
  8
3
 62
     0
440
 16777216
100
AcDbLine
 10
5146.095353594559
 20
4496.757788277331
 30
0.0
 11
5146.095353594559
 21
3086.757788277331
 31
0.0
  0
INSERT
  5
8237
330
7F02
100
AcDbEntity
  8
3
 62
     0
440
 16777216
100
AcDbBlockReference
  2
_OPEN
 10
5146.095353594559
 20
4586.75778827733
 30
0.0
 41
90.0
 42
90.0
 43
90.0
 50
90.0
  0
INSERT
  5
8238
330
7F02
100
AcDbEntity
  8
3
 62
     0
440
 16777216
100
AcDbBlockReference
  2
_OPEN
 10
5146.095353594559
 20
2996.757788277331
 30
0.0
 41
90.0
 42
90.0
 43
90.0
 50
270.0
  0
MTEXT
  5
8239
330
7F02
100
AcDbEntity
  8
3
 62
     0
440
 16777216
100
AcDbMText
 10
5033.595353594559
 20
3791.757788277332
 30
0.0
 40
135.0
 41
0.0
 46
0.0
 71
     5
 72
     5
  1
\A1;1590
 11
0.0000000000000001
 21
1.0
 31
0.0
 73
     1
 44
1.0
  0
POINT
  5
823A
330
7F02
100
AcDbEntity
  8
DEFPOINTS
 62
     0
440
 16777216
100
AcDbPoint
 10
4591.459340594076
 20
4586.75778827733
 30
0.0
  0
POINT
  5
823B
330
7F02
100
AcDbEntity
  8
DEFPOINTS
 62
     0
440
 16777216
100
AcDbPoint
 10
4271.171493262285
 20
2996.757788277331
 30
0.0
  0
POINT
  5
823C
330
7F02
100
AcDbEntity
  8
DEFPOINTS
 62
     0
440
 16777216
100
AcDbPoint
 10
5146.095353594559
 20
2996.757788277331
 30
0.0
  0
ENDBLK
  5
803C
330
7F02
100
AcDbEntity
  8
0
100
AcDbBlockEnd
  0
BLOCK
  5
7F7C
330
7F7B
100
AcDbEntity
  8
0
100
AcDbBlockBegin
  2
_DOT
 70
     0
 10
0.0
 20
0.0
 30
0.0
  3
_DOT
  1

  0
LINE
  5
7FB6
330
7F7B
100
AcDbEntity
  8
0
  6
ByBlock
 62
     0
100
AcDbLine
 10
0.0
 20
0.0
 30
0.0
 11
-1.0
 21
-0.0000000000000284
 31
0.0
  0
LWPOLYLINE
  5
7FB7
330
7F7B
100
AcDbEntity
  8
0
  6
ByBlock
 62
     0
100
AcDbPolyline
 90
        2
 70
     1
 43
0.1666666666666666
 10
-0.0833333333333286
 20
-0.0000000000000284
 42
1.0
 10
0.0833333333333286
 20
-0.0000000000000284
 42
1.0
  0
ENDBLK
  5
7F82
330
7F7B
100
AcDbEntity
  8
0
100
AcDbBlockEnd
  0
BLOCK
  5
80FB
330
80FA
100
AcDbEntity
  8
0
100
AcDbBlockBegin
  2
_NONE
 70
     0
 10
0.0
 20
0.0
 30
0.0
  3
_NONE
  1

  0
CIRCLE
  5
80FC
330
80FA
100
AcDbEntity
  8
0
  6
ByBlock
 62
     0
100
AcDbCircle
 10
0.0
 20
0.0
 30
0.0
 40
0.25
  0
ENDBLK
  5
80FD
330
80FA
100
AcDbEntity
  8
0
100
AcDbBlockEnd
  0
BLOCK
  5
8131
330
8130
100
AcDbEntity
  8
0
100
AcDbBlockBegin
  2
*D19
 70
     1
 10
0.0
 20
0.0
 30
0.0
  3
*D19
  1

  0
LINE
  5
8132
330
8130
100
AcDbEntity
  8
0
  6
ByBlock
 62
     0
440
 16777216
100
AcDbLine
 10
1371.171493262285
 20
2974.257788277331
 30
0.0
 11
1371.171493262285
 21
2664.842433306461
 31
0.0
  0
LINE
  5
8133
330
8130
100
AcDbEntity
  8
0
  6
ByBlock
 62
     0
440
 16777216
100
AcDbLine
 10
3421.171493262286
 20
2974.257788277331
 30
0.0
 11
3421.171493262286
 21
2664.842433306461
 31
0.0
  0
LINE
  5
8134
330
8130
100
AcDbEntity
  8
0
  6
ByBlock
 62
     0
440
 16777216
100
AcDbLine
 10
1461.171493262285
 20
2709.842433306461
 30
0.0
 11
3331.171493262286
 21
2709.842433306461
 31
0.0
  0
INSERT
  5
8135
330
8130
100
AcDbEntity
  8
0
  6
ByBlock
 62
     0
440
 16777216
100
AcDbBlockReference
  2
_OPEN
 10
1371.171493262285
 20
2709.842433306461
 30
0.0
 41
90.0
 42
90.0
 43
90.0
 50
180.0
  0
INSERT
  5
8136
330
8130
100
AcDbEntity
  8
0
  6
ByBlock
 62
     0
440
 16777216
100
AcDbBlockReference
  2
_OPEN
 10
3421.171493262286
 20
2709.842433306461
 30
0.0
 41
90.0
 42
90.0
 43
90.0
  0
MTEXT
  5
8137
330
8130
100
AcDbEntity
  8
0
  6
ByBlock
 62
     0
440
 16777216
100
AcDbMText
 10
2396.171493262285
 20
2822.342433306462
 30
0.0
 40
135.0
 41
0.0
 46
0.0
 71
     5
 72
     5
  1
\A1;2050
 73
     1
 44
1.0
  0
POINT
  5
8138
330
8130
100
AcDbEntity
  8
DEFPOINTS
  6
ByBlock
 62
     0
440
 16777216
100
AcDbPoint
 10
1371.171493262285
 20
2996.757788277331
 30
0.0
  0
POINT
  5
8139
330
8130
100
AcDbEntity
  8
DEFPOINTS
  6
ByBlock
 62
     0
440
 16777216
100
AcDbPoint
 10
3421.171493262286
 20
2996.757788277331
 30
0.0
  0
POINT
  5
813A
330
8130
100
AcDbEntity
  8
DEFPOINTS
  6
ByBlock
 62
     0
440
 16777216
100
AcDbPoint
 10
3421.171493262286
 20
2709.842433306461
 30
0.0
  0
ENDBLK
  5
813B
330
8130
100
AcDbEntity
  8
0
100
AcDbBlockEnd
  0
BLOCK
  5
813E
330
813D
100
AcDbEntity
  8
0
100
AcDbBlockBegin
  2
*D20
 70
     1
 10
0.0
 20
0.0
 30
0.0
  3
*D20
  1

  0
LINE
  5
813F
330
813D
100
AcDbEntity
  8
0
  6
ByBlock
 62
     0
440
 16777216
100
AcDbLine
 10
3421.171493262286
 20
2974.257788277331
 30
0.0
 11
3421.171493262286
 21
2664.842433306461
 31
0.0
  0
LINE
  5
8140
330
813D
100
AcDbEntity
  8
0
  6
ByBlock
 62
     0
440
 16777216
100
AcDbLine
 10
4271.171493262285
 20
2974.257788277331
 30
0.0
 11
4271.171493262285
 21
2664.842433306461
 31
0.0
  0
LINE
  5
8141
330
813D
100
AcDbEntity
  8
0
  6
ByBlock
 62
     0
440
 16777216
100
AcDbLine
 10
3511.171493262286
 20
2709.842433306461
 30
0.0
 11
4181.171493262286
 21
2709.842433306461
 31
0.0
  0
INSERT
  5
8142
330
813D
100
AcDbEntity
  8
0
  6
ByBlock
 62
     0
440
 16777216
100
AcDbBlockReference
  2
_OPEN
 10
3421.171493262286
 20
2709.842433306461
 30
0.0
 41
90.0
 42
90.0
 43
90.0
 50
180.0
  0
INSERT
  5
8143
330
813D
100
AcDbEntity
  8
0
  6
ByBlock
 62
     0
440
 16777216
100
AcDbBlockReference
  2
_OPEN
 10
4271.171493262285
 20
2709.842433306461
 30
0.0
 41
90.0
 42
90.0
 43
90.0
  0
MTEXT
  5
8144
330
813D
100
AcDbEntity
  8
0
  6
ByBlock
 62
     0
440
 16777216
100
AcDbMText
 10
3846.171493262286
 20
2822.342433306462
 30
0.0
 40
135.0
 41
0.0
 46
0.0
 71
     5
 72
     5
  1
\A1;850
 73
     1
 44
1.0
  0
POINT
  5
8145
330
813D
100
AcDbEntity
  8
DEFPOINTS
  6
ByBlock
 62
     0
440
 16777216
100
AcDbPoint
 10
3421.171493262286
 20
2996.757788277331
 30
0.0
  0
POINT
  5
8146
330
813D
100
AcDbEntity
  8
DEFPOINTS
  6
ByBlock
 62
     0
440
 16777216
100
AcDbPoint
 10
4271.171493262285
 20
2996.757788277331
 30
0.0
  0
POINT
  5
8147
330
813D
100
AcDbEntity
  8
DEFPOINTS
  6
ByBlock
 62
     0
440
 16777216
100
AcDbPoint
 10
4271.171493262285
 20
2709.842433306461
 30
0.0
  0
ENDBLK
  5
8148
330
813D
100
AcDbEntity
  8
0
100
AcDbBlockEnd
  0
BLOCK
  5
814B
330
814A
100
AcDbEntity
  8
0
100
AcDbBlockBegin
  2
*D21
 70
     1
 10
0.0
 20
0.0
 30
0.0
  3
*D21
  1

  0
LINE
  5
814C
330
814A
100
AcDbEntity
  8
0
  6
ByBlock
 62
     0
440
 16777216
100
AcDbLine
 10
5998.701649781626
 20
2974.079022556838
 30
0.0
 11
5998.701649781626
 21
2664.842433306461
 31
0.0
  0
LINE
  5
814D
330
814A
100
AcDbEntity
  8
0
  6
ByBlock
 62
     0
440
 16777216
100
AcDbLine
 10
7329.701649781624
 20
2974.079022556839
 30
0.0
 11
7329.701649781624
 21
2664.842433306461
 31
0.0
  0
LINE
  5
814E
330
814A
100
AcDbEntity
  8
0
  6
ByBlock
 62
     0
440
 16777216
100
AcDbLine
 10
6088.701649781626
 20
2709.842433306461
 30
0.0
 11
7239.701649781624
 21
2709.842433306461
 31
0.0
  0
INSERT
  5
814F
330
814A
100
AcDbEntity
  8
0
  6
ByBlock
 62
     0
440
 16777216
100
AcDbBlockReference
  2
_OPEN
 10
5998.701649781626
 20
2709.842433306461
 30
0.0
 41
90.0
 42
90.0
 43
90.0
 50
180.0
  0
INSERT
  5
8150
330
814A
100
AcDbEntity
  8
0
  6
ByBlock
 62
     0
440
 16777216
100
AcDbBlockReference
  2
_OPEN
 10
7329.701649781624
 20
2709.842433306461
 30
0.0
 41
90.0
 42
90.0
 43
90.0
  0
MTEXT
  5
8151
330
814A
100
AcDbEntity
  8
0
  6
ByBlock
 62
     0
440
 16777216
100
AcDbMText
 10
6664.201649781624
 20
2822.342433306462
 30
0.0
 40
135.0
 41
0.0
 46
0.0
 71
     5
 72
     5
  1
\A1;1331
 73
     1
 44
1.0
  0
POINT
  5
8152
330
814A
100
AcDbEntity
  8
DEFPOINTS
  6
ByBlock
 62
     0
440
 16777216
100
AcDbPoint
 10
5998.701649781626
 20
2996.579022556838
 30
0.0
  0
POINT
  5
8153
330
814A
100
AcDbEntity
  8
DEFPOINTS
  6
ByBlock
 62
     0
440
 16777216
100
AcDbPoint
 10
7329.701649781624
 20
2996.579022556839
 30
0.0
  0
POINT
  5
8154
330
814A
100
AcDbEntity
  8
DEFPOINTS
  6
ByBlock
 62
     0
440
 16777216
100
AcDbPoint
 10
7329.701649781624
 20
2709.842433306461
 30
0.0
  0
ENDBLK
  5
8155
330
814A
100
AcDbEntity
  8
0
100
AcDbBlockEnd
  0
BLOCK
  5
8158
330
8157
100
AcDbEntity
  8
0
100
AcDbBlockBegin
  2
*D22
 70
     1
 10
0.0
 20
0.0
 30
0.0
  3
*D22
  1

  0
LINE
  5
8159
330
8157
100
AcDbEntity
  8
0
  6
ByBlock
 62
     0
440
 16777216
100
AcDbLine
 10
7329.701649781624
 20
2974.079022556839
 30
0.0
 11
7329.701649781624
 21
2664.842433306461
 31
0.0
  0
LINE
  5
815A
330
8157
100
AcDbEntity
  8
0
  6
ByBlock
 62
     0
440
 16777216
100
AcDbLine
 10
8358.701649781627
 20
2974.079022556838
 30
0.0
 11
8358.701649781627
 21
2664.842433306461
 31
0.0
  0
LINE
  5
815B
330
8157
100
AcDbEntity
  8
0
  6
ByBlock
 62
     0
440
 16777216
100
AcDbLine
 10
7419.701649781623
 20
2709.842433306461
 30
0.0
 11
8268.701649781625
 21
2709.842433306461
 31
0.0
  0
INSERT
  5
815C
330
8157
100
AcDbEntity
  8
0
  6
ByBlock
 62
     0
440
 16777216
100
AcDbBlockReference
  2
_OPEN
 10
7329.701649781624
 20
2709.842433306461
 30
0.0
 41
90.0
 42
90.0
 43
90.0
 50
180.0
  0
INSERT
  5
815D
330
8157
100
AcDbEntity
  8
0
  6
ByBlock
 62
     0
440
 16777216
100
AcDbBlockReference
  2
_OPEN
 10
8358.701649781627
 20
2709.842433306461
 30
0.0
 41
90.0
 42
90.0
 43
90.0
  0
MTEXT
  5
815E
330
8157
100
AcDbEntity
  8
0
  6
ByBlock
 62
     0
440
 16777216
100
AcDbMText
 10
7844.201649781625
 20
2822.342433306462
 30
0.0
 40
135.0
 41
0.0
 46
0.0
 71
     5
 72
     5
  1
\A1;1029
 73
     1
 44
1.0
  0
POINT
  5
815F
330
8157
100
AcDbEntity
  8
DEFPOINTS
  6
ByBlock
 62
     0
440
 16777216
100
AcDbPoint
 10
7329.701649781624
 20
2996.579022556839
 30
0.0
  0
POINT
  5
8160
330
8157
100
AcDbEntity
  8
DEFPOINTS
  6
ByBlock
 62
     0
440
 16777216
100
AcDbPoint
 10
8358.701649781627
 20
2996.579022556838
 30
0.0
  0
POINT
  5
8161
330
8157
100
AcDbEntity
  8
DEFPOINTS
  6
ByBlock
 62
     0
440
 16777216
100
AcDbPoint
 10
8358.701649781627
 20
2709.842433306461
 30
0.0
  0
ENDBLK
  5
8162
330
8157
100
AcDbEntity
  8
0
100
AcDbBlockEnd
  0
BLOCK
  5
8165
330
8164
100
AcDbEntity
  8
0
100
AcDbBlockBegin
  2
*D23
 70
     1
 10
0.0
 20
0.0
 30
0.0
  3
*D23
  1

  0
LINE
  5
8166
330
8164
100
AcDbEntity
  8
0
  6
ByBlock
 62
     0
440
 16777216
100
AcDbLine
 10
3358.171493262287
 20
5589.634591364444
 30
0.0
 11
5474.985630090981
 21
5589.634591364444
 31
0.0
  0
LINE
  5
8167
330
8164
100
AcDbEntity
  8
0
  6
ByBlock
 62
     0
440
 16777216
100
AcDbLine
 10
4293.671493262285
 20
2996.757788277331
 30
0.0
 11
5474.985630090981
 21
2996.757788277331
 31
0.0
  0
LINE
  5
8168
330
8164
100
AcDbEntity
  8
0
  6
ByBlock
 62
     0
440
 16777216
100
AcDbLine
 10
5429.985630090982
 20
5499.634591364444
 30
0.0
 11
5429.985630090982
 21
3086.757788277331
 31
0.0
  0
INSERT
  5
8169
330
8164
100
AcDbEntity
  8
0
  6
ByBlock
 62
     0
440
 16777216
100
AcDbBlockReference
  2
_OPEN
 10
5429.985630090982
 20
5589.634591364444
 30
0.0
 41
90.0
 42
90.0
 43
90.0
 50
90.0
  0
INSERT
  5
816A
330
8164
100
AcDbEntity
  8
0
  6
ByBlock
 62
     0
440
 16777216
100
AcDbBlockReference
  2
_OPEN
 10
5429.985630090982
 20
2996.757788277331
 30
0.0
 41
90.0
 42
90.0
 43
90.0
 50
270.0
  0
MTEXT
  5
816B
330
8164
100
AcDbEntity
  8
0
  6
ByBlock
 62
     0
440
 16777216
100
AcDbMText
 10
5317.485630090981
 20
4293.196189820888
 30
0.0
 40
135.0
 41
0.0
 46
0.0
 71
     5
 72
     5
  1
\A1;2593
 11
0.0
 21
1.0
 31
0.0
 73
     1
 44
1.0
  0
POINT
  5
816C
330
8164
100
AcDbEntity
  8
DEFPOINTS
  6
ByBlock
 62
     0
440
 16777216
100
AcDbPoint
 10
3335.671493262287
 20
5589.634591364444
 30
0.0
  0
POINT
  5
816D
330
8164
100
AcDbEntity
  8
DEFPOINTS
  6
ByBlock
 62
     0
440
 16777216
100
AcDbPoint
 10
4271.171493262285
 20
2996.757788277331
 30
0.0
  0
POINT
  5
816E
330
8164
100
AcDbEntity
  8
DEFPOINTS
  6
ByBlock
 62
     0
440
 16777216
100
AcDbPoint
 10
5429.985630090982
 20
2996.757788277331
 30
0.0
  0
ENDBLK
  5
816F
330
8164
100
AcDbEntity
  8
0
100
AcDbBlockEnd
  0
ENDSEC
  0
SECTION
  2
ENTITIES
  0
CIRCLE
  5
7AD3
330
19
100
AcDbEntity
  8
1
100
AcDbCircle
 10
3421.171493262285
 20
4586.75778827733
 30
0.0
 40
225.0
  0
ARC
  5
7AD4
330
19
100
AcDbEntity
  8
1
100
AcDbCircle
 10
3421.171493262285
 20
4586.75778827733
 30
0.0
 40
380.0
100
AcDbArc
 50
292.4131951629104
 51
120.9943680510207
  0
ARC
  5
7AD5
330
19
100
AcDbEntity
  8
1
100
AcDbCircle
 10
3335.671493262287
 20
4672.134591364445
 30
0.0
 40
917.5
100
AcDbArc
 50
84.65296219651374
 51
90.0
  0
LINE
  5
7AD6
330
19
100
AcDbEntity
  8
2
100
AcDbLine
 10
3421.171493262285
 20
5711.532337836612
 30
0.0
 11
3421.171493262286
 21
2996.757788277331
 31
0.0
  0
LINE
  5
7AD7
330
19
100
AcDbEntity
  8
1
100
AcDbLine
 10
3225.489043083638
 20
4912.500598930277
 30
0.0
 11
1646.646865557659
 21
3614.047722489547
 31
0.0
  0
LINE
  5
7AD8
330
19
100
AcDbEntity
  8
1
100
AcDbLine
 10
3310.121898656458
 20
4782.443729361205
 30
0.0
 11
1705.775620883298
 21
3521.995064693391
 31
0.0
  0
ARC
  5
7AD9
330
19
100
AcDbEntity
  8
1
100
AcDbCircle
 10
3523.171493262286
 20
4484.757788277331
 30
0.0
 40
1309.0
100
AcDbArc
 50
180.0
 51
265.5308633444789
  0
CIRCLE
  5
7ADA
330
19
100
AcDbEntity
  8
1
100
AcDbCircle
 10
3421.171493262285
 20
4586.75778827733
 30
0.0
 40
750.0
  0
CIRCLE
  5
7ADB
330
19
100
AcDbEntity
  8
1
100
AcDbCircle
 10
3421.171493262285
 20
4586.75778827733
 30
0.0
 40
700.0
  0
ARC
  5
7ADC
330
19
100
AcDbEntity
  8
1
100
AcDbCircle
 10
3319.171493262285
 20
4484.757788277331
 30
0.0
 40
1105.0
100
AcDbArc
 50
89.1444203645698
 51
180.0
  0
LINE
  5
7ADF
330
19
100
AcDbEntity
  8
1
100
AcDbLine
 10
4271.171493262285
 20
3146.757788277331
 30
0.0
 11
1371.171493262285
 21
3146.757788277331
 31
0.0
  0
LINE
  5
7AE0
330
19
100
AcDbEntity
  8
1
100
AcDbLine
 10
4271.171493262285
 20
2996.757788277331
 30
0.0
 11
1371.171493262285
 21
2996.757788277331
 31
0.0
  0
LINE
  5
7AE2
330
19
100
AcDbEntity
  8
1
100
AcDbLine
 10
4271.171493262285
 20
3146.757788277331
 30
0.0
 11
4271.171493262285
 21
2996.757788277331
 31
0.0
  0
LINE
  5
7AE4
330
19
100
AcDbEntity
  8
2
100
AcDbLine
 10
1771.171493262284
 20
3799.919988081008
 30
0.0
 11
1771.171493262285
 21
2996.757788277331
 31
0.0
  0
LINE
  5
7AE7
330
19
100
AcDbEntity
  8
2
100
AcDbLine
 10
2027.678574995444
 20
3406.757788277332
 30
0.0
 11
1503.040167323408
 21
3406.757788277332
 31
0.0
  0
LINE
  5
7AE8
330
19
100
AcDbEntity
  8
1
100
AcDbLine
 10
2021.127690174968
 20
3206.757788277331
 30
0.0
 11
1870.567046236725
 21
3206.757788277331
 31
0.0
  0
ARC
  5
7AE9
330
19
100
AcDbEntity
  8
1
100
AcDbCircle
 10
1771.171493262285
 20
3406.757788277332
 30
0.0
 40
203.5
100
AcDbArc
 50
285.6036990000001
 51
254.39624
  0
LINE
  5
7AEA
330
19
100
AcDbEntity
  8
1
100
AcDbLine
 10
3566.059142818222
 20
4235.46365367478
 30
0.0
 11
1863.372304339007
 21
3183.207994791685
 31
0.0
  0
LINE
  5
7AEB
330
19
100
AcDbEntity
  8
1
100
AcDbLine
 10
1824.711346118496
 20
3285.556574767997
 30
0.0
 11
3512.088224527549
 21
4380.944406846385
 31
0.0
  0
LINE
  5
7AEE
330
19
100
AcDbEntity
  8
1
100
AcDbLine
 10
2031.171493262286
 20
3146.757788277331
 30
0.0
 11
2021.127690174968
 21
3206.757788277331
 31
0.0
  0
ARC
  5
7AF6
330
19
100
AcDbEntity
  8
1
100
AcDbCircle
 10
1771.171493262285
 20
3406.757788277332
 30
0.0
 40
241.8170790715176
100
AcDbArc
 50
120.9943680510208
 51
292.4131951629103
  0
LINE
  5
7AF7
330
19
100
AcDbEntity
  8
1
100
AcDbLine
 10
1582.171493262285
 20
3281.084448277332
 30
0.0
 11
1582.171493262285
 21
3206.757788277331
 31
0.0
  0
LINE
  5
7AF8
330
19
100
AcDbEntity
  8
1
100
AcDbLine
 10
1960.171493262285
 20
3281.084448277332
 30
0.0
 11
1960.171493262285
 21
3206.757788277331
 31
0.0
  0
LINE
  5
7AFA
330
19
100
AcDbEntity
  8
1
100
AcDbLine
 10
1716.433456262285
 20
3210.757788277331
 30
0.0
 11
1825.909530262285
 21
3210.757788277331
 31
0.0
  0
LINE
  5
7AFB
330
19
100
AcDbEntity
  8
1
100
AcDbLine
 10
1771.171493262285
 20
3196.909148886196
 30
0.0
 11
1671.775940287846
 21
3196.909148886196
 31
0.0
  0
LINE
  5
7AFC
330
19
100
AcDbEntity
  8
1
100
AcDbLine
 10
1875.274063262285
 20
3231.900976277331
 30
0.0
 11
1882.011258844575
 21
3206.757788277331
 31
0.0
  0
LINE
  5
7AFD
330
19
100
AcDbEntity
  8
1
100
AcDbLine
 10
1870.567046236725
 20
3206.757788277331
 30
0.0
 11
1870.567046236725
 21
3196.909148886196
 31
0.0
  0
LINE
  5
7AFF
330
19
100
AcDbEntity
  8
1
100
AcDbLine
 10
1960.171493262285
 20
3206.757788277331
 30
0.0
 11
1880.671493262285
 21
3206.757788277331
 31
0.0
  0
LINE
  5
7B00
330
19
100
AcDbEntity
  8
1
100
AcDbLine
 10
1771.171493262285
 20
3196.909148886196
 30
0.0
 11
1870.567046236725
 21
3196.909148886196
 31
0.0
  0
LINE
  5
7B04
330
19
100
AcDbEntity
  8
1
100
AcDbLine
 10
1511.171493262285
 20
3146.757788277331
 30
0.0
 11
1521.215296349603
 21
3206.757788277331
 31
0.0
  0
LINE
  5
7B06
330
19
100
AcDbEntity
  8
1
100
AcDbLine
 10
1667.068710262285
 20
3231.901098277331
 30
0.0
 11
1660.331788665573
 21
3206.757788277331
 31
0.0
  0
LINE
  5
7B07
330
19
100
AcDbEntity
  8
1
100
AcDbLine
 10
1671.775940287846
 20
3206.757788277331
 30
0.0
 11
1671.775940287846
 21
3196.909148886196
 31
0.0
  0
LINE
  5
7B08
330
19
100
AcDbEntity
  8
1
100
AcDbLine
 10
1582.171493262285
 20
3206.757788277331
 30
0.0
 11
1661.671493262285
 21
3206.757788277331
 31
0.0
  0
LINE
  5
7B09
330
19
100
AcDbEntity
  8
1
100
AcDbLine
 10
1582.171493262285
 20
3206.757788277331
 30
0.0
 11
1662.171493262285
 21
3206.757788277331
 31
0.0
  0
LINE
  5
7B0B
330
19
100
AcDbEntity
  8
1
100
AcDbLine
 10
1521.215296349603
 20
3206.757788277331
 30
0.0
 11
1671.775940287846
 21
3206.757788277331
 31
0.0
  0
LINE
  5
7B0C
330
19
100
AcDbEntity
  8
1
100
AcDbLine
 10
1371.171493262285
 20
3146.757788277331
 30
0.0
 11
1371.171493262285
 21
2996.757788277331
 31
0.0
  0
POINT
  5
7B0D
330
19
100
AcDbEntity
  8
1
100
AcDbPoint
 10
1371.171493262285
 20
2996.757788277331
 30
0.0
  0
POINT
  5
7B0E
330
19
100
AcDbEntity
  8
1
100
AcDbPoint
 10
1371.171493262285
 20
2996.757788277331
 30
0.0
  0
CIRCLE
  5
7B17
330
19
100
AcDbEntity
  8
1
100
AcDbCircle
 10
1771.171493262285
 20
3406.757788277332
 30
0.0
 40
132.5
  0
ARC
  5
7B18
330
19
100
AcDbEntity
  8
1
100
AcDbCircle
 10
1955.171493262285
 20
3281.084448277332
 30
0.0
 40
5.000066999999999
100
AcDbArc
 50
0.0
 51
55.056335
  0
LINE
  5
7B19
330
19
100
AcDbEntity
  8
1
100
AcDbLine
 10
1958.035263262285
 20
3285.183081277331
 30
0.0
 11
1942.097396262285
 21
3296.319311277332
 31
0.0
  0
ARC
  5
7B1A
330
19
100
AcDbEntity
  8
1
100
AcDbCircle
 10
1587.171493262285
 20
3281.084448277332
 30
0.0
 40
5.0
100
AcDbArc
 50
124.943661
 51
180.0
  0
LINE
  5
7B1C
330
19
100
AcDbEntity
  8
1
100
AcDbLine
 10
1584.307601262286
 20
3285.183081277331
 30
0.0
 11
1600.245468262286
 21
3296.319311277332
 31
0.0
  0
ARC
  5
7B1D
330
19
100
AcDbEntity
  8
1
100
AcDbCircle
 10
3335.671493262286
 20
4672.257788277331
 30
0.0
 40
917.5
100
AcDbArc
 50
354.6529621965137
 51
84.65296219651374
  0
LINE
  5
7B1E
330
19
100
AcDbEntity
  8
2
100
AcDbLine
 10
4591.459340594076
 20
4586.75778827733
 30
0.0
 11
2088.631939370418
 21
4586.75778827733
 31
0.0
  0
LINE
  5
7B1F
330
19
100
AcDbEntity
  8
1
100
AcDbLine
 10
4351.171493262285
 20
3095.757788277331
 30
0.0
 11
3421.171493262285
 21
3179.643934979621
 31
0.0
  0
LINE
  5
7B20
330
19
100
AcDbEntity
  8
1
100
AcDbLine
 10
4301.171493262285
 20
4545.757788277331
 30
0.0
 11
4301.171493262287
 21
3100.267796164552
 31
0.0
  0
LINE
  5
7B21
330
19
100
AcDbEntity
  8
1
100
AcDbLine
 10
4345.171493262285
 20
4599.757788277331
 30
0.0
 11
4345.171493262286
 21
3041.757788277331
 31
0.0
  0
LINE
  5
7B22
330
19
100
AcDbEntity
  8
1
100
AcDbLine
 10
4351.171493262285
 20
4599.757788277331
 30
0.0
 11
4351.171493262286
 21
3041.757788277331
 31
0.0
  0
LINE
  5
7B23
330
19
100
AcDbEntity
  8
1
100
AcDbLine
 10
4351.171493262285
 20
4545.757788277331
 30
0.0
 11
4242.075237985662
 21
4545.757788277331
 31
0.0
  0
ARC
  5
7B24
330
19
100
AcDbEntity
  8
1
100
AcDbCircle
 10
3506.371493262287
 20
4672.257788277331
 30
0.0
 40
746.4999999999999
100
AcDbArc
 50
350.2437233818834
 51
353.4232238697439
  0
LINE
  5
7B25
330
19
100
AcDbEntity
  8
1
100
AcDbLine
 10
4351.171493262285
 20
4599.757788277331
 30
0.0
 11
4345.171493262285
 21
4599.75778827733
 31
0.0
  0
LINE
  5
7B26
330
19
100
AcDbEntity
  8
1
100
AcDbLine
 10
4351.171493262286
 20
3041.757788277331
 30
0.0
 11
4345.171493262286
 21
3041.757788277331
 31
0.0
  0
LINE
  5
7B27
330
19
100
AcDbEntity
  8
1
100
AcDbLine
 10
8279.701649781626
 20
4586.75778827733
 30
0.0
 11
8279.701649781626
 21
5589.757788277331
 31
0.0
  0
LINE
  5
7B28
330
19
100
AcDbEntity
  8
2
100
AcDbLine
 10
7329.701649781624
 20
5757.459872439607
 30
0.0
 11
7329.701649781624
 21
2996.579022556839
 31
0.0
  0
LINE
  5
7B29
330
19
100
AcDbEntity
  8
1
100
AcDbLine
 10
6110.701649781626
 20
4506.757788277331
 30
0.0
 11
6110.701649781626
 21
4666.757788277331
 31
0.0
  0
LINE
  5
7B2A
330
19
100
AcDbEntity
  8
1
100
AcDbLine
 10
6379.701649781626
 20
4586.75778827733
 30
0.0
 11
6379.701649781626
 21
5589.757788277331
 31
0.0
  0
LINE
  5
7B2B
330
19
100
AcDbEntity
  8
1
100
AcDbLine
 10
5859.701649781626
 20
3166.579022556838
 30
0.0
 11
5859.701649781626
 21
4966.757788277331
 31
0.0
  0
LINE
  5
7B2C
330
19
100
AcDbEntity
  8
1
100
AcDbLine
 10
6096.101649781625
 20
3274.079022556839
 30
0.0
 11
6096.101649781625
 21
4811.757788277331
 31
0.0
  0
LINE
  5
7B2D
330
19
100
AcDbEntity
  8
1
100
AcDbLine
 10
6010.701649781626
 20
3274.079022556839
 30
0.0
 11
6010.701649781626
 21
4811.757788277331
 31
0.0
  0
LINE
  5
7B31
330
19
100
AcDbEntity
  8
1
100
AcDbLine
 10
8358.701649781627
 20
2996.579022556838
 30
0.0
 11
5998.701649781626
 21
2996.579022556838
 31
0.0
  0
LINE
  5
7B32
330
19
100
AcDbEntity
  8
1
100
AcDbLine
 10
8284.701649781625
 20
3146.579022556838
 30
0.0
 11
8279.701649781626
 21
3146.579022556838
 31
0.0
  0
LINE
  5
7B34
330
19
100
AcDbEntity
  8
1
100
AcDbLine
 10
6197.069676804357
 20
3606.974641149363
 30
0.0
 11
6197.069676804357
 21
3406.974641149363
 31
0.0
  0
LINE
  5
7B36
330
19
100
AcDbEntity
  8
1
100
AcDbLine
 10
6187.069676804356
 20
3436.974641149364
 30
0.0
 11
6047.069676804357
 21
3436.974641149364
 31
0.0
  0
LINE
  5
7B37
330
19
100
AcDbEntity
  8
1
100
AcDbLine
 10
6187.069676804356
 20
3376.974641149363
 30
0.0
 11
6047.069676804357
 21
3376.974641149363
 31
0.0
  0
LINE
  5
7B3A
330
19
100
AcDbEntity
  8
2
100
AcDbLine
 10
5859.701649781626
 20
3406.974641149363
 30
0.0
 11
6379.701649781623
 21
3406.974641149364
 31
0.0
  0
LINE
  5
7B3B
330
19
100
AcDbEntity
  8
1
100
AcDbLine
 10
6146.101649781625
 20
3166.579022556838
 30
0.0
 11
5859.701649781626
 21
3166.579022556838
 31
0.0
  0
LINE
  5
7B3C
330
19
100
AcDbEntity
  8
1
100
AcDbLine
 10
5998.701649781625
 20
3146.579022556838
 30
0.0
 11
5998.701649781626
 21
2996.579022556838
 31
0.0
  0
LINE
  5
7B3D
330
19
100
AcDbEntity
  8
1
100
AcDbLine
 10
6047.069676804357
 20
3376.974641149363
 30
0.0
 11
6047.069676804357
 21
3436.974641149364
 31
0.0
  0
LINE
  5
7B3E
330
19
100
AcDbEntity
  8
1
100
AcDbLine
 10
6096.101649781625
 20
3274.079022556839
 30
0.0
 11
6010.701649781625
 21
3274.079022556839
 31
0.0
  0
LINE
  5
7B3F
330
19
100
AcDbEntity
  8
1
100
AcDbLine
 10
6096.101649781624
 20
3539.079022556838
 30
0.0
 11
6010.701649781626
 21
3539.079022556838
 31
0.0
  0
LINE
  5
7B40
330
19
100
AcDbEntity
  8
1
100
AcDbLine
 10
6197.069676804357
 20
3196.974641149364
 30
0.0
 11
6197.069676804357
 21
3406.974641149363
 31
0.0
  0
LINE
  5
7B41
330
19
100
AcDbEntity
  8
1
100
AcDbLine
 10
6146.101649781625
 20
3166.579022556838
 30
0.0
 11
6146.101649781625
 21
3342.900315504639
 31
0.0
  0
LINE
  5
7B43
330
19
100
AcDbEntity
  8
1
100
AcDbLine
 10
6197.069676804357
 20
3196.974641149364
 30
0.0
 11
6379.701649781623
 21
3196.974641149365
 31
0.0
  0
LINE
  5
7B45
330
19
100
AcDbEntity
  8
1
100
AcDbLine
 10
6187.069676804356
 20
3439.474641149363
 30
0.0
 11
6187.069676804356
 21
3374.474641149364
 31
0.0
  0
LINE
  5
7B46
330
19
100
AcDbEntity
  8
1
100
AcDbLine
 10
6187.069676804356
 20
3374.474641149364
 30
0.0
 11
6197.069676804357
 21
3374.474641149364
 31
0.0
  0
LINE
  5
7B48
330
19
100
AcDbEntity
  8
1
100
AcDbLine
 10
6187.069676804356
 20
3439.474641149363
 30
0.0
 11
6197.069676804357
 21
3439.474641149363
 31
0.0
  0
LINE
  5
7B49
330
19
100
AcDbEntity
  8
1
100
AcDbLine
 10
6110.701649781626
 20
4506.757788277331
 30
0.0
 11
6096.101649781625
 21
4506.757788277331
 31
0.0
  0
LINE
  5
7B4A
330
19
100
AcDbEntity
  8
1
100
AcDbLine
 10
6096.101649781625
 20
4361.757788277331
 30
0.0
 11
6010.701649781626
 21
4361.757788277331
 31
0.0
  0
LINE
  5
7B4B
330
19
100
AcDbEntity
  8
1
100
AcDbLine
 10
6379.701649781623
 20
3606.974641149363
 30
0.0
 11
6197.069676804357
 21
3606.974641149363
 31
0.0
  0
LINE
  5
7B4C
330
19
100
AcDbEntity
  8
1
100
AcDbLine
 10
6176.501649781627
 20
4516.757788277331
 30
0.0
 11
6176.501649781626
 21
4346.757788277331
 31
0.0
  0
LINE
  5
7B4D
330
19
100
AcDbEntity
  8
1
100
AcDbLine
 10
6219.901649781625
 20
4346.757788277331
 30
0.0
 11
6379.701649781626
 21
4346.757788277331
 31
0.0
  0
LINE
  5
7B4E
330
19
100
AcDbEntity
  8
1
100
AcDbLine
 10
6301.501649781626
 20
4346.757788277331
 30
0.0
 11
6176.501649781626
 21
4346.757788277331
 31
0.0
  0
LINE
  5
7B4F
330
19
100
AcDbEntity
  8
1
100
AcDbLine
 10
6219.901649781625
 20
4516.757788277331
 30
0.0
 11
6379.701649781626
 21
4516.757788277331
 31
0.0
  0
LINE
  5
7B50
330
19
100
AcDbEntity
  8
1
100
AcDbLine
 10
6301.501649781626
 20
4516.757788277331
 30
0.0
 11
6176.501649781626
 21
4516.757788277331
 31
0.0
  0
LINE
  5
7B51
330
19
100
AcDbEntity
  8
1
100
AcDbLine
 10
8358.701649781627
 20
3146.579022556838
 30
0.0
 11
8358.701649781627
 21
2996.579022556838
 31
0.0
  0
LINE
  5
7B52
330
19
100
AcDbEntity
  8
1
100
AcDbLine
 10
8284.701649781625
 20
3146.579022556838
 30
0.0
 11
8358.701649781627
 21
3146.579022556838
 31
0.0
  0
LINE
  5
7B53
330
19
100
AcDbEntity
  8
1
100
AcDbLine
 10
8459.901649781626
 20
4516.757788277331
 30
0.0
 11
8459.901649781626
 21
4346.757788277331
 31
0.0
  0
LINE
  5
7B54
330
19
100
AcDbEntity
  8
1
100
AcDbLine
 10
8357.901649781627
 20
4346.757788277331
 30
0.0
 11
8459.901649781626
 21
4346.757788277331
 31
0.0
  0
LINE
  5
7B55
330
19
100
AcDbEntity
  8
1
100
AcDbLine
 10
8412.901649781622
 20
4346.757788277331
 30
0.0
 11
8279.701649781626
 21
4346.757788277331
 31
0.0
  0
LINE
  5
7B56
330
19
100
AcDbEntity
  8
1
100
AcDbLine
 10
8459.901649781626
 20
4516.757788277331
 30
0.0
 11
8385.401649781625
 21
4516.757788277331
 31
0.0
  0
LINE
  5
7B57
330
19
100
AcDbEntity
  8
1
100
AcDbLine
 10
8279.701649781626
 20
4516.757788277331
 30
0.0
 11
8385.401649781625
 21
4516.757788277331
 31
0.0
  0
LINE
  5
7B5A
330
19
100
AcDbEntity
  8
2
100
AcDbLine
 10
8385.7991742664
 20
4586.75778827733
 30
0.0
 11
5859.701649781626
 21
4586.757788277332
 31
0.0
  0
LINE
  5
7B5B
330
19
100
AcDbEntity
  8
1
100
AcDbLine
 10
6379.701649781623
 20
3095.757788277331
 30
0.0
 11
6379.701649781625
 21
4586.75778827733
 31
0.0
  0
LINE
  5
7B5C
330
19
100
AcDbEntity
  8
1
100
AcDbLine
 10
6146.101649781625
 20
4966.757788277331
 30
0.0
 11
5859.701649781626
 21
4966.757788277331
 31
0.0
  0
LINE
  5
7B5D
330
19
100
AcDbEntity
  8
1
100
AcDbLine
 10
6110.701649781626
 20
4666.757788277331
 30
0.0
 11
6096.101649781626
 21
4666.757788277331
 31
0.0
  0
LINE
  5
7B5E
330
19
100
AcDbEntity
  8
1
100
AcDbLine
 10
6096.101649781626
 20
4811.757788277331
 30
0.0
 11
6010.701649781626
 21
4811.757788277331
 31
0.0
  0
LINE
  5
7B5F
330
19
100
AcDbEntity
  8
1
100
AcDbLine
 10
6146.101649781625
 20
4740.086081342746
 30
0.0
 11
6146.101649781625
 21
4966.757788277331
 31
0.0
  0
LINE
  5
7B60
330
19
100
AcDbEntity
  8
1
100
AcDbLine
 10
6379.701649781625
 20
4634.257788277331
 30
0.0
 11
6110.701649781626
 21
4634.257788277331
 31
0.0
  0
LINE
  5
7B61
330
19
100
AcDbEntity
  8
1
100
AcDbLine
 10
6379.701649781626
 20
4539.257788277331
 30
0.0
 11
6110.701649781626
 21
4539.257788277331
 31
0.0
  0
LINE
  5
7B64
330
19
100
AcDbEntity
  8
1
100
AcDbLine
 10
8279.701649781626
 20
3095.757788277331
 30
0.0
 11
8279.701649781626
 21
4586.75778827733
 31
0.0
  0
LINE
  5
7B68
330
19
100
AcDbEntity
  8
1
100
AcDbLine
 10
1371.171493262285
 20
8596.357478302236
 30
0.0
 11
1371.171493262285
 21
7496.357478302236
 31
0.0
  0
LINE
  5
7B69
330
19
100
AcDbEntity
  8
1
100
AcDbLine
 10
2214.171493262286
 20
9777.357478302239
 30
0.0
 11
2214.171493262286
 21
7877.357478302235
 31
0.0
  0
LINE
  5
7B6A
330
19
100
AcDbEntity
  8
2
100
AcDbLine
 10
3421.171493262285
 20
9997.043894272811
 30
0.0
 11
3421.171493262285
 21
7357.357478302237
 31
0.0
  0
LINE
  5
7B6B
330
19
100
AcDbEntity
  8
1
100
AcDbLine
 10
4351.171493262285
 20
9827.357478302239
 30
0.0
 11
4351.171493262285
 21
7827.357478302236
 31
0.0
  0
LINE
  5
7B6C
330
19
100
AcDbEntity
  8
1
100
AcDbLine
 10
3421.171493262285
 20
7877.357478302235
 30
0.0
 11
4345.171493262285
 21
7877.357478302235
 31
0.0
  0
LINE
  5
7B6D
330
19
100
AcDbEntity
  8
1
100
AcDbLine
 10
1371.171493262285
 20
7496.357478302236
 30
0.0
 11
4271.171493262285
 21
7496.357478302236
 31
0.0
  0
LINE
  5
7B6E
330
19
100
AcDbEntity
  8
1
100
AcDbLine
 10
4271.171493262285
 20
7877.357478302235
 30
0.0
 11
4271.171493262285
 21
7496.357478302236
 31
0.0
  0
LINE
  5
7B6F
330
19
100
AcDbEntity
  8
1
100
AcDbLine
 10
1531.171493262285
 20
7643.757478302235
 30
0.0
 11
3810.171493262286
 21
7643.757478302235
 31
0.0
  0
LINE
  5
7B70
330
19
100
AcDbEntity
  8
1
100
AcDbLine
 10
1531.171493262285
 20
7357.357478302237
 30
0.0
 11
3810.171493262286
 21
7357.357478302237
 31
0.0
  0
LINE
  5
7B71
330
19
100
AcDbEntity
  8
1
100
AcDbLine
 10
1638.671493262285
 20
7593.757478302236
 30
0.0
 11
3655.171493262287
 21
7593.757478302237
 31
0.0
  0
LINE
  5
7B72
330
19
100
AcDbEntity
  8
1
100
AcDbLine
 10
1638.671493262285
 20
7508.357478302236
 30
0.0
 11
3655.171493262287
 21
7508.357478302237
 31
0.0
  0
LINE
  5
7B73
330
19
100
AcDbEntity
  8
1
100
AcDbLine
 10
2214.171493262286
 20
7877.357478302235
 30
0.0
 11
3421.171493262285
 21
7877.357478302235
 31
0.0
  0
LINE
  5
7B74
330
19
100
AcDbEntity
  8
1
100
AcDbLine
 10
3373.671493262285
 20
7877.357478302235
 30
0.0
 11
3373.671493262285
 21
7608.357478302235
 31
0.0
  0
LINE
  5
7B75
330
19
100
AcDbEntity
  8
1
100
AcDbLine
 10
3468.671493262286
 20
7877.357478302235
 30
0.0
 11
3468.671493262286
 21
7608.357478302235
 31
0.0
  0
LINE
  5
7B76
330
19
100
AcDbEntity
  8
1
100
AcDbLine
 10
3341.171493262286
 20
7608.357478302237
 30
0.0
 11
3501.171493262285
 21
7608.357478302235
 31
0.0
  0
LINE
  5
7B77
330
19
100
AcDbEntity
  8
1
100
AcDbLine
 10
3655.171493262287
 20
7593.757478302237
 30
0.0
 11
3655.171493262286
 21
7508.357478302236
 31
0.0
  0
LINE
  5
7B78
330
19
100
AcDbEntity
  8
1
100
AcDbLine
 10
3810.171493262286
 20
7643.757478302237
 30
0.0
 11
3810.171493262286
 21
7357.357478302237
 31
0.0
  0
LINE
  5
7B79
330
19
100
AcDbEntity
  8
1
100
AcDbLine
 10
3501.171493262285
 20
7608.357478302235
 30
0.0
 11
3501.171493262285
 21
7593.757478302237
 31
0.0
  0
LINE
  5
7B7A
330
19
100
AcDbEntity
  8
1
100
AcDbLine
 10
3205.171493262286
 20
7593.757478302237
 30
0.0
 11
3205.171493262286
 21
7508.357478302236
 31
0.0
  0
LINE
  5
7B7B
330
19
100
AcDbEntity
  8
1
100
AcDbLine
 10
3341.171493262286
 20
7608.357478302237
 30
0.0
 11
3341.171493262286
 21
7593.757478302236
 31
0.0
  0
LINE
  5
7B7C
330
19
100
AcDbEntity
  8
1
100
AcDbLine
 10
1561.171493262285
 20
7701.057478302236
 30
0.0
 11
1561.171493262285
 21
7976.557478302236
 31
0.0
  0
LINE
  5
7B7D
330
19
100
AcDbEntity
  8
2
100
AcDbLine
 10
1771.171493262285
 20
7357.357478302235
 30
0.0
 11
1771.171493262285
 21
8350.557478302235
 31
0.0
  0
LINE
  5
7B7F
330
19
100
AcDbEntity
  8
1
100
AcDbLine
 10
1741.171493262285
 20
7691.057478302235
 30
0.0
 11
1741.171493262285
 21
7551.057478302237
 31
0.0
  0
LINE
  5
7B80
330
19
100
AcDbEntity
  8
1
100
AcDbLine
 10
1801.171493262285
 20
7691.057478302235
 30
0.0
 11
1801.171493262285
 21
7551.057478302237
 31
0.0
  0
LINE
  5
7B81
330
19
100
AcDbEntity
  8
1
100
AcDbLine
 10
1531.171493262285
 20
7643.757478302235
 30
0.0
 11
1531.171493262285
 21
7357.357478302237
 31
0.0
  0
LINE
  5
7B82
330
19
100
AcDbEntity
  8
1
100
AcDbLine
 10
1638.671493262285
 20
7593.757478302236
 30
0.0
 11
1638.671493262285
 21
7508.357478302236
 31
0.0
  0
LINE
  5
7B83
330
19
100
AcDbEntity
  8
1
100
AcDbLine
 10
1903.671493262285
 20
7593.757478302236
 30
0.0
 11
1903.671493262285
 21
7508.357478302236
 31
0.0
  0
LINE
  5
7B84
330
19
100
AcDbEntity
  8
1
100
AcDbLine
 10
1741.171493262285
 20
7551.057478302235
 30
0.0
 11
1801.171493262285
 21
7551.057478302237
 31
0.0
  0
LINE
  5
7B85
330
19
100
AcDbEntity
  8
1
100
AcDbLine
 10
1971.171493262285
 20
8350.557478302237
 30
0.0
 11
1971.171493262285
 21
7701.057478302236
 31
0.0
  0
LINE
  5
7B86
330
19
100
AcDbEntity
  8
1
100
AcDbLine
 10
1561.171493262285
 20
7701.057478302236
 30
0.0
 11
1771.171493262285
 21
7701.057478302236
 31
0.0
  0
LINE
  5
7B87
330
19
100
AcDbEntity
  8
1
100
AcDbLine
 10
1738.671493262285
 20
7691.057478302235
 30
0.0
 11
1738.671493262285
 21
7701.057478302236
 31
0.0
  0
LINE
  5
7B89
330
19
100
AcDbEntity
  8
1
100
AcDbLine
 10
1803.671493262285
 20
7691.057478302235
 30
0.0
 11
1803.671493262285
 21
7701.057478302236
 31
0.0
  0
LINE
  5
7B8A
330
19
100
AcDbEntity
  8
1
100
AcDbLine
 10
1803.671493262285
 20
7691.057478302235
 30
0.0
 11
1738.671493262285
 21
7691.057478302235
 31
0.0
  0
LINE
  5
7B8B
330
19
100
AcDbEntity
  8
1
100
AcDbLine
 10
1971.171493262285
 20
7701.057478302236
 30
0.0
 11
1771.171493262285
 21
7701.057478302236
 31
0.0
  0
LINE
  5
7B8C
330
19
100
AcDbEntity
  8
1
100
AcDbLine
 10
1561.171493262285
 20
8350.557478302235
 30
0.0
 11
1561.171493262285
 21
7976.557478302236
 31
0.0
  0
LINE
  5
7B8D
330
19
100
AcDbEntity
  8
1
100
AcDbLine
 10
1561.171493262285
 20
8350.557478302235
 30
0.0
 11
1971.171493262285
 21
8350.557478302237
 31
0.0
  0
LINE
  5
7B8E
330
19
100
AcDbEntity
  8
1
100
AcDbLine
 10
3421.171493262285
 20
9777.357478302239
 30
0.0
 11
4345.171493262285
 21
9777.357478302239
 31
0.0
  0
LINE
  5
7B8F
330
19
100
AcDbEntity
  8
2
100
AcDbLine
 10
2214.171493262286
 20
8827.357478302234
 30
0.0
 11
4408.692627174899
 21
8827.357478302236
 31
0.0
  0
LINE
  5
7B90
330
19
100
AcDbEntity
  8
1
100
AcDbLine
 10
2571.171493262286
 20
9856.357478302236
 30
0.0
 11
4271.171493262285
 21
9856.357478302236
 31
0.0
  0
LINE
  5
7B91
330
19
100
AcDbEntity
  8
1
100
AcDbLine
 10
4271.171493262285
 20
9856.357478302236
 30
0.0
 11
4271.171493262285
 21
9777.357478302239
 31
0.0
  0
LINE
  5
7B92
330
19
100
AcDbEntity
  8
1
100
AcDbLine
 10
1371.171493262285
 20
8596.357478302236
 30
0.0
 11
2214.171493262286
 21
8596.357478302236
 31
0.0
  0
LINE
  5
7B93
330
19
100
AcDbEntity
  8
1
100
AcDbLine
 10
2214.171493262286
 20
9777.357478302235
 30
0.0
 11
3421.171493262285
 21
9777.357478302239
 31
0.0
  0
LINE
  5
7B94
330
19
100
AcDbEntity
  8
1
100
AcDbLine
 10
2571.171493262286
 20
9856.357478302236
 30
0.0
 11
2571.171493262286
 21
9777.357478302235
 31
0.0
  0
LINE
  5
7B96
330
19
100
AcDbEntity
  8
1
100
AcDbLine
 10
4345.171493262285
 20
9827.357478302236
 30
0.0
 11
4351.171493262285
 21
9827.357478302239
 31
0.0
  0
LINE
  5
7B97
330
19
100
AcDbEntity
  8
1
100
AcDbLine
 10
4345.171493262285
 20
7827.357478302236
 30
0.0
 11
4351.171493262285
 21
7827.357478302236
 31
0.0
  0
LINE
  5
7B99
330
19
100
AcDbEntity
  8
1
100
AcDbLine
 10
4345.171493262285
 20
9827.357478302239
 30
0.0
 11
4345.171493262285
 21
7827.357478302236
 31
0.0
  0
LINE
  5
7B9A
330
19
100
AcDbEntity
  8
4
100
AcDbLine
 10
8325.0
 20
1815.173430021546
 30
0.0
 11
8325.0
 21
915.1734300215466
 31
0.0
  0
LINE
  5
7B9B
330
19
100
AcDbEntity
  8
4
100
AcDbLine
 10
5175.0
 20
1815.173430021546
 30
0.0
 11
5175.0
 21
915.1734300215466
 31
0.0
  0
LINE
  5
7B9C
330
19
100
AcDbEntity
  8
4
100
AcDbLine
 10
2925.0
 20
1815.173430021546
 30
0.0
 11
2925.0
 21
915.1734300215466
 31
0.0
  0
LINE
  5
7B9F
330
19
100
AcDbEntity
  8
4
100
AcDbLine
 10
2925.0
 20
915.1734300215466
 30
0.0
 11
8325.0
 21
915.1734300215466
 31
0.0
  0
LINE
  5
7BA0
330
19
100
AcDbEntity
  8
4
100
AcDbLine
 10
2925.0
 20
1365.173430021547
 30
0.0
 11
8325.0
 21
1365.173430021547
 31
0.0
  0
TEXT
  5
7BA1
330
19
100
AcDbEntity
  8
4
100
AcDbText
 10
3098.259363811058
 20
1507.117046421305
 30
0.0
 40
225.0
  1
機器名称
100
AcDbText
  0
TEXT
  5
7BA2
330
19
100
AcDbEntity
  8
4
100
AcDbText
 10
3088.161477111589
 20
1012.576635315596
 30
0.0
 40
225.0
  1
機器型番
100
AcDbText
  0
TEXT
  5
7BA3
330
19
100
AcDbEntity
  8
4
100
AcDbText
 10
5300.599814599531
 20
1470.182778336197
 30
0.0
 40
191.25
  1
ミツヤリミットロードファン
100
AcDbText
  0
TEXT
  5
7BA4
330
19
100
AcDbEntity
  8
4
100
AcDbText
 10
5339.945230134663
 20
992.3915592812917
 30
0.0
 40
225.0
  1
LL#9-5
100
AcDbText
  0
TEXT
  5
7BA6
330
19
100
AcDbEntity
  8
4
100
AcDbText
 10
3652.255063188619
 20
10725.42978599632
 30
0.0
 40
243.0
  1
床置ベット
100
AcDbText
  0
TEXT
  5
7BA7
330
19
100
AcDbEntity
  8
4
100
AcDbText
 10
1317.933979167283
 20
11402.46439289684
 30
0.0
 40
324.0
  1
遠心式両吸込両持リミットロードファン
100
AcDbText
  0
LINE
  5
7BA8
330
19
100
AcDbEntity
  8
4
100
AcDbLine
 10
1125.0
 20
11112.33939419162
 30
0.0
 11
8325.0
 21
11112.33939419162
 31
0.0
  0
LINE
  5
7BA9
330
19
100
AcDbEntity
  8
4
100
AcDbLine
 10
1125.0
 20
12012.33939419162
 30
0.0
 11
8325.0
 21
12012.33939419162
 31
0.0
  0
LINE
  5
7BAA
330
19
100
AcDbEntity
  8
4
100
AcDbLine
 10
2925.0
 20
1815.173430021546
 30
0.0
 11
8325.0
 21
1815.173430021546
 31
0.0
  0
LINE
  5
7BAB
330
19
100
AcDbEntity
  8
4
100
AcDbLine
 10
1125.0
 20
12012.33939419162
 30
0.0
 11
1125.0
 21
11112.33939419162
 31
0.0
  0
TEXT
  5
7BAC
330
19
100
AcDbEntity
  8
4
100
AcDbText
 10
1690.890318096459
 20
10720.43764895854
 30
0.0
 40
243.0
  1
左回転右横向
100
AcDbText
  0
TEXT
  5
7BAD
330
19
100
AcDbEntity
  8
4
100
AcDbText
 10
6610.363016621803
 20
12177.27486672889
 30
0.0
 40
252.0
  1
No.
100
AcDbText
  0
TEXT
  5
7BAE
330
19
100
AcDbEntity
  8
4
100
AcDbText
 10
5900.832281700059
 20
10725.42978599632
 30
0.0
 40
243.0
  1
縮尺：1/45
100
AcDbText
  0
LINE
  5
7BAF
330
19
100
AcDbEntity
  8
4
100
AcDbLine
 10
8325.0
 20
12012.33939419162
 30
0.0
 11
8325.0
 21
11112.33939419162
 31
0.0
  0
LINE
  5
7BB0
330
19
100
AcDbEntity
  8
4
100
AcDbLine
 10
9450.0
 20
13275.0
 30
0.0
 11
9450.0
 21
13275.0
 31
0.0
  0
LINE
  5
7BB1
330
19
100
AcDbEntity
  8
4
100
AcDbLine
 10
6482.778400619391
 20
12065.6861240643
 30
0.0
 11
6482.778400619391
 21
12539.93517697388
 31
0.0
  0
LINE
  5
7BB2
330
19
100
AcDbEntity
  8
4
100
AcDbLine
 10
6482.778400619391
 20
12539.93517697388
 30
0.0
 11
8325.0
 21
12539.93517697388
 31
0.0
  0
LINE
  5
7BB3
330
19
100
AcDbEntity
  8
4
100
AcDbLine
 10
8325.0
 20
12539.93517697388
 30
0.0
 11
8325.0
 21
12065.6861240643
 31
0.0
  0
LINE
  5
7BB4
330
19
100
AcDbEntity
  8
4
100
AcDbLine
 10
8325.0
 20
12065.6861240643
 30
0.0
 11
6482.778400619391
 21
12065.6861240643
 31
0.0
  0
LINE
  5
7BB5
330
19
100
AcDbEntity
  8
4
100
AcDbLine
 10
0.0
 20
0.0
 30
0.0
 11
0.0
 21
13275.0
 31
0.0
  0
LINE
  5
7BB6
330
19
100
AcDbEntity
  8
4
100
AcDbLine
 10
0.0
 20
13275.0
 30
0.0
 11
9450.0
 21
13275.0
 31
0.0
  0
LINE
  5
7BB7
330
19
100
AcDbEntity
  8
4
100
AcDbLine
 10
9450.0
 20
13275.0
 30
0.0
 11
9450.0
 21
0.0
 31
0.0
  0
LINE
  5
7BB8
330
19
100
AcDbEntity
  8
4
100
AcDbLine
 10
9450.0
 20
0.0
 30
0.0
 11
0.0
 21
0.0
 31
0.0
  0
DIMENSION
  5
7BC8
330
19
100
AcDbEntity
  8
3
100
AcDbDimension
280
     0
  2
*D1
 10
8721.037808957305
 20
3886.757788277331
 30
0.0
 11
8721.037808957305
 21
4560.229414343062
 31
0.0
 70
   160
 71
     5
 42
-1.0
 73
     0
 74
     0
 75
     0
  3
IGA
100
AcDbAlignedDimension
 13
8279.701649781626
 23
5286.757788277331
 33
0.0
 14
8279.701649781626
 24
3886.757788277331
 34
0.0
 50
90.0
100
AcDbRotatedDimension
1001
ACAD
1000
DSTYLE
1002
{
1070
   287
1070
     3
1070
     3
1000
φ<>
1070
    40
1040
45.0
1070
   143
1040
0.039
1070
   172
1070
     1
1070
   271
1070
     0
1070
   279
1070
     0
1070
   288
1070
     1
1002
}
  0
DIMENSION
  5
7C78
330
19
100
AcDbEntity
  8
3
100
AcDbDimension
280
     0
  2
*D2
 10
2571.171493262286
 20
10145.12451237005
 30
0.0
 11
3418.732425006732
 21
10145.12451237005
 31
0.0
 70
   160
 71
     5
 42
-1.0
 73
     0
 74
     0
 75
     0
  3
IGA
100
AcDbAlignedDimension
 13
4271.171493262285
 23
9856.357478302236
 33
0.0
 14
2571.171493262286
 24
9856.357478302236
 34
0.0
100
AcDbRotatedDimension
1001
ACAD
1000
DSTYLE
1002
{
1070
   287
1070
     3
1070
    40
1040
45.0
1070
   143
1040
0.039
1070
   172
1070
     1
1070
   271
1070
     0
1070
   279
1070
     0
1070
   288
1070
     1
1002
}
  0
DIMENSION
  5
7C84
330
19
100
AcDbEntity
  8
3
100
AcDbDimension
280
     0
  2
*D3
 10
1371.171493262285
 20
10145.12451237005
 30
0.0
 11
1971.171493262285
 21
10257.62451237005
 31
0.0
 70
    32
 71
     5
 42
-1.0
 73
     0
 74
     0
 75
     0
  3
IGA
100
AcDbAlignedDimension
 13
2571.171493262286
 23
9856.357478302236
 33
0.0
 14
1371.171493262285
 24
8596.357478302236
 34
0.0
100
AcDbRotatedDimension
1001
ACAD
1000
DSTYLE
1002
{
1070
   287
1070
     4
1070
    40
1040
45.0
1070
    75
1070
     1
1070
   143
1040
0.039
1070
   172
1070
     1
1070
   271
1070
     0
1070
   279
1070
     1
1070
   288
1070
     1
1002
}
  0
DIMENSION
  5
7C91
330
19
100
AcDbEntity
  8
3
100
AcDbDimension
280
     0
  2
*D4
 10
1060.53573723211
 20
7496.357478302236
 30
0.0
 11
1060.535737232108
 21
8046.576645713955
 31
0.0
 70
   160
 71
     5
 42
-1.0
 73
     0
 74
     0
 75
     0
  3
IGA
100
AcDbAlignedDimension
 13
1371.171493262285
 23
8596.357478302236
 33
0.0
 14
1371.171493262285
 24
7496.357478302236
 34
0.0
 50
270.0
100
AcDbRotatedDimension
1001
ACAD
1000
DSTYLE
1002
{
1070
   287
1070
     3
1070
    40
1040
45.0
1070
   143
1040
0.039
1070
   172
1070
     1
1070
   271
1070
     0
1070
   279
1070
     0
1070
   288
1070
     1
1002
}
  0
DIMENSION
  5
7C9E
330
19
100
AcDbEntity
  8
3
100
AcDbDimension
280
     0
  2
*D5
 10
4641.118248325104
 20
7496.357478302236
 30
0.0
 11
4641.118248325103
 21
8635.058327333412
 31
0.0
 70
   160
 71
     5
 42
-1.0
 73
     0
 74
     0
 75
     0
  3
IGA
100
AcDbAlignedDimension
 13
4271.171493262285
 23
9856.357478302236
 33
0.0
 14
4271.171493262285
 24
7496.357478302236
 34
0.0
 50
270.0
100
AcDbRotatedDimension
1001
ACAD
1000
DSTYLE
1002
{
1070
   287
1070
     3
1070
    40
1040
45.0
1070
   143
1040
0.039
1070
   172
1070
     1
1070
   271
1070
     0
1070
   279
1070
     0
1070
   288
1070
     1
1002
}
  0
DIMENSION
  5
7CAB
330
19
100
AcDbEntity
  8
3
100
AcDbDimension
280
     0
  2
*D6
 10
1371.171493262285
 20
7036.164693373918
 30
0.0
 11
2907.552904262113
 21
7036.164693373918
 31
0.0
 70
   160
 71
     5
 42
-1.0
 73
     0
 74
     0
 75
     0
  3
IGA
100
AcDbAlignedDimension
 13
4271.171493262285
 23
7496.357478302236
 33
0.0
 14
1371.171493262285
 24
7496.357478302236
 34
0.0
100
AcDbRotatedDimension
1001
ACAD
1000
DSTYLE
1002
{
1070
   287
1070
     3
1070
    40
1040
45.0
1070
   143
1040
0.039
1070
   172
1070
     1
1070
   271
1070
     0
1070
   279
1070
     0
1070
   288
1070
     1
1002
}
  0
DIMENSION
  5
7CDE
330
19
100
AcDbEntity
  8
3
100
AcDbDimension
280
     0
  2
*D7
 10
4627.201658932289
 20
4545.757788277331
 30
0.0
 11
4627.201658932288
 21
3794.504977530556
 31
0.0
 70
   160
 71
     5
 42
-1.0
 73
     0
 74
     0
 75
     0
  3
IGA
100
AcDbAlignedDimension
 13
4351.171493262285
 23
3095.757788277331
 33
0.0
 14
4351.171493262285
 24
4545.757788277331
 34
0.0
 50
270.0
100
AcDbRotatedDimension
1001
ACAD
1000
DSTYLE
1002
{
1070
   287
1070
     3
1070
    40
1040
45.0
1070
   143
1040
0.039
1070
   172
1070
     1
1070
   271
1070
     0
1070
   279
1070
     0
1070
   288
1070
     1
1002
}
  0
LINE
  5
7DD9
330
19
100
AcDbEntity
  8
1
100
AcDbLine
 10
8279.701649781626
 20
4545.75778827733
 30
0.0
 11
6379.701649781625
 21
4545.757788277331
 31
0.0
  0
LINE
  5
7DDA
330
19
100
AcDbEntity
  8
1
100
AcDbLine
 10
8279.701649781621
 20
3095.757788277331
 30
0.0
 11
6379.701649781625
 21
4545.757788277331
 31
0.0
  0
LINE
  5
7DDB
330
19
100
AcDbEntity
  8
1
100
AcDbLine
 10
6379.701649781625
 20
3095.757788277331
 30
0.0
 11
8279.701649781626
 21
4545.75778827733
 31
0.0
  0
LINE
  5
7DDF
330
19
100
AcDbEntity
  8
1
100
AcDbLine
 10
4301.171493262285
 20
9777.35747830224
 30
0.0
 11
4301.171493262285
 21
7877.357478302236
 31
0.0
  0
DIMENSION
  5
7DED
330
19
100
AcDbEntity
  8
3
100
AcDbDimension
280
     0
  2
*D8
 10
8279.701649781626
 20
5788.483180986843
 30
0.0
 11
7327.571258090691
 21
5788.483180986843
 31
0.0
 70
   160
 71
     5
 42
-1.0
 73
     0
 74
     0
 75
     0
  3
IGA
100
AcDbAlignedDimension
 13
6379.701649781625
 23
5574.341597618153
 33
0.0
 14
8279.701649781626
 24
5574.341597618154
 34
0.0
100
AcDbRotatedDimension
1001
ACAD
1000
DSTYLE
1002
{
1070
   287
1070
     3
1070
    40
1040
45.0
1070
   143
1040
0.039
1070
   172
1070
     1
1070
   271
1070
     0
1070
   279
1070
     0
1070
   288
1070
     1
1002
}
  0
DIMENSION
  5
7E05
330
19
100
AcDbEntity
  8
3
100
AcDbDimension
280
     0
  2
*D9
 10
7329.701649781624
 20
6156.468736067525
 30
0.0
 11
7860.577878494165
 21
6156.468736067525
 31
0.0
 70
   160
  1
(<>)
 71
     5
 42
1130.2
 73
     0
 74
     0
 75
     0
  3
IGA
100
AcDbAlignedDimension
 13
8459.901649781626
 23
4516.757788277331
 33
0.0
 14
7329.701649781624
 24
5977.735743111179
 34
0.0
100
AcDbRotatedDimension
1001
ACAD
1000
DSTYLE
1002
{
1070
   287
1070
     3
1070
    40
1040
45.0
1070
   143
1040
0.039
1070
   172
1070
     1
1070
   271
1070
     0
1070
   279
1070
     0
1070
   288
1070
     1
1002
}
  0
DIMENSION
  5
7E11
330
19
100
AcDbEntity
  8
3
100
AcDbDimension
280
     0
  2
*D10
 10
5859.701649781626
 20
6156.468736067525
 30
0.0
 11
6594.701649781626
 21
6304.325878924668
 31
0.0
 70
    32
  1
(<>)
 71
     5
 42
1469.999999999999
 73
     0
 74
     0
 75
     0
  3
IGA
100
AcDbAlignedDimension
 13
7329.701649781624
 23
5977.735743111179
 33
0.0
 14
5859.701649781626
 24
4966.757788277331
 34
0.0
100
AcDbRotatedDimension
1001
ACAD
1000
DSTYLE
1002
{
1070
   287
1070
     4
1070
    40
1040
45.0
1070
    75
1070
     1
1070
   143
1040
0.039
1070
   172
1070
     1
1070
   271
1070
     0
1070
   279
1070
     1
1070
   288
1070
     1
1002
}
  0
DIMENSION
  5
7E77
330
19
100
AcDbEntity
  8
3
100
AcDbDimension
280
     0
  2
*D11
 10
4875.067876964961
 20
4586.75778827733
 30
0.0
 11
4875.06787696496
 21
3781.416753458474
 31
0.0
 70
   160
 71
     5
 42
-1.0
 73
     0
 74
     0
 75
     0
  3
IGA
100
AcDbAlignedDimension
 13
4351.171493262285
 23
3095.757788277331
 33
0.0
 14
4591.459340594076
 24
4586.75778827733
 34
0.0
 50
270.0
100
AcDbRotatedDimension
1001
ACAD
1000
DSTYLE
1002
{
1070
   287
1070
     3
1070
    40
1040
45.0
1070
   143
1040
0.039
1070
   172
1070
     1
1070
   271
1070
     0
1070
   279
1070
     0
1070
   288
1070
     1
1002
}
  0
DIMENSION
  5
7E90
330
19
100
AcDbEntity
  8
3
100
AcDbDimension
280
     0
  2
*D12
 10
3421.171493262285
 20
5857.846961055507
 30
0.0
 11
3940.631274025597
 21
5857.846961055507
 31
0.0
 70
   160
 71
     5
 42
-1.0
 73
     0
 74
     0
 75
     0
  3
IGA
100
AcDbAlignedDimension
 13
4351.171493262285
 23
4599.757788277331
 33
0.0
 14
3421.171493262285
 24
5711.532337836612
 34
0.0
100
AcDbRotatedDimension
1001
ACAD
1000
DSTYLE
1002
{
1070
   287
1070
     3
1070
    40
1040
45.0
1070
   143
1040
0.039
1070
   172
1070
     1
1070
   271
1070
     0
1070
   279
1070
     0
1070
   288
1070
     1
1002
}
  0
DIMENSION
  5
7EB3
330
19
100
AcDbEntity
  8
3
100
AcDbDimension
280
     0
  2
*D13
 10
2214.171493262286
 20
5857.846961055507
 30
0.0
 11
2817.671493262285
 21
5970.346961055508
 31
0.0
 70
    32
 71
     5
 42
-1.0
 73
     0
 74
     0
 75
     0
  3
IGA
100
AcDbAlignedDimension
 13
3421.171493262285
 23
5711.532337836612
 33
0.0
 14
2214.171493262286
 24
4484.757788277331
 34
0.0
100
AcDbRotatedDimension
1001
ACAD
1000
DSTYLE
1002
{
1070
   287
1070
     4
1070
    40
1040
45.0
1070
    75
1070
     1
1070
   143
1040
0.039
1070
   172
1070
     1
1070
   271
1070
     0
1070
   279
1070
     1
1070
   288
1070
     1
1002
}
  0
DIMENSION
  5
7EC0
330
19
100
AcDbEntity
  8
3
100
AcDbDimension
280
     0
  2
*D14
 10
1371.171493262285
 20
6169.0456826359
 30
0.0
 11
2895.747507331638
 21
6169.0456826359
 31
0.0
 70
   160
 71
     5
 42
-1.0
 73
     0
 74
     0
 75
     0
  3
IGA
100
AcDbAlignedDimension
 13
4351.171493262285
 23
4599.757788277331
 33
0.0
 14
1371.171493262285
 24
3146.757788277331
 34
0.0
100
AcDbRotatedDimension
1001
ACAD
1000
DSTYLE
1002
{
1070
   287
1070
     3
1070
    40
1040
45.0
1070
   143
1040
0.039
1070
   172
1070
     1
1070
   271
1070
     0
1070
   279
1070
     0
1070
   288
1070
     1
1002
}
  0
LINE
  5
7EC3
330
19
100
AcDbEntity
  8
1
100
AcDbLine
 10
8279.701649781626
 20
5589.757788277331
 30
0.0
 11
6379.701649781626
 21
5589.757788277331
 31
0.0
  0
DIMENSION
  5
7F01
330
19
100
AcDbEntity
  8
3
100
AcDbDimension
280
     0
  2
*D15
 10
5146.09535359456
 20
4586.75778827733
 30
0.0
 11
5146.095353594559
 21
5100.294987304638
 31
0.0
 70
   160
 71
     5
 42
-1.0
 73
     0
 74
     0
 75
     0
  3
IGA
100
AcDbAlignedDimension
 13
3364.171493262285
 23
5589.757788277331
 33
0.0
 14
4591.459340594076
 24
4586.75778827733
 34
0.0
 50
270.0
100
AcDbRotatedDimension
1001
ACAD
1000
DSTYLE
1002
{
1070
   287
1070
     3
1070
    40
1040
45.0
1070
   143
1040
0.039
1070
   172
1070
     1
1070
   271
1070
     0
1070
   279
1070
     0
1070
   288
1070
     1
1002
}
  0
DIMENSION
  5
7F0D
330
19
100
AcDbEntity
  8
3
100
AcDbDimension
280
     0
  2
*D16
 10
5146.095353594559
 20
2996.757788277331
 30
0.0
 11
5033.595353594559
 21
3791.757788277332
 31
0.0
 70
    32
 71
     5
 42
-1.0
 73
     0
 74
     0
 75
     0
  3
IGA
100
AcDbAlignedDimension
 13
4591.459340594076
 23
4586.75778827733
 33
0.0
 14
4271.171493262285
 24
2996.757788277331
 34
0.0
 50
270.0
100
AcDbRotatedDimension
1001
ACAD
1000
DSTYLE
1002
{
1070
   287
1070
     4
1070
    40
1040
45.0
1070
    75
1070
     1
1070
   143
1040
0.039
1070
   172
1070
     1
1070
   271
1070
     0
1070
   279
1070
     1
1070
   288
1070
     1
1002
}
  0
LINE
  5
8117
330
19
100
AcDbEntity
  8
1
100
AcDbLine
 10
6379.701649781623
 20
3095.757788277331
 30
0.0
 11
8279.701649781626
 21
3095.757788277331
 31
0.0
  0
LINE
  5
8118
330
19
100
AcDbEntity
  8
1
100
AcDbLine
 10
6379.701649781623
 20
3146.579022556838
 30
0.0
 11
5998.701649781626
 21
3146.579022556838
 31
0.0
  0
DIMENSION
  5
813C
330
19
100
AcDbEntity
  8
3
100
AcDbDimension
280
     0
  2
*D19
 10
3421.171493262286
 20
2709.842433306461
 30
0.0
 11
2396.171493262285
 21
2822.342433306462
 31
0.0
 70
    32
 71
     5
 42
-1.0
 73
     0
 74
     0
 75
     0
  3
IGA
100
AcDbAlignedDimension
 13
1371.171493262285
 23
2996.757788277331
 33
0.0
 14
3421.171493262286
 24
2996.757788277331
 34
0.0
100
AcDbRotatedDimension
1001
ACAD
1000
DSTYLE
1002
{
1070
   172
1070
     1
1070
    40
1040
45.0
1070
   271
1070
     0
1070
   143
1040
0.039
1002
}
  0
DIMENSION
  5
8149
330
19
100
AcDbEntity
  8
3
100
AcDbDimension
280
     0
  2
*D20
 10
4271.171493262285
 20
2709.842433306461
 30
0.0
 11
3846.171493262286
 21
2822.342433306462
 31
0.0
 70
    32
 71
     5
 42
-1.0
 73
     0
 74
     0
 75
     0
  3
IGA
100
AcDbAlignedDimension
 13
3421.171493262286
 23
2996.757788277331
 33
0.0
 14
4271.171493262285
 24
2996.757788277331
 34
0.0
100
AcDbRotatedDimension
1001
ACAD
1000
DSTYLE
1002
{
1070
   172
1070
     1
1070
    40
1040
45.0
1070
   271
1070
     0
1070
   143
1040
0.039
1002
}
  0
DIMENSION
  5
8156
330
19
100
AcDbEntity
  8
3
100
AcDbDimension
280
     0
  2
*D21
 10
7329.701649781624
 20
2709.842433306461
 30
0.0
 11
6664.201649781624
 21
2822.342433306462
 31
0.0
 70
    32
 71
     5
 42
-1.0
 73
     0
 74
     0
 75
     0
  3
IGA
100
AcDbAlignedDimension
 13
5998.701649781626
 23
2996.579022556838
 33
0.0
 14
7329.701649781624
 24
2996.579022556839
 34
0.0
100
AcDbRotatedDimension
1001
ACAD
1000
DSTYLE
1002
{
1070
   172
1070
     1
1070
    40
1040
45.0
1070
   271
1070
     0
1070
   143
1040
0.039
1002
}
  0
DIMENSION
  5
8163
330
19
100
AcDbEntity
  8
3
100
AcDbDimension
280
     0
  2
*D22
 10
8358.701649781627
 20
2709.842433306461
 30
0.0
 11
7844.201649781625
 21
2822.342433306462
 31
0.0
 70
    32
 71
     5
 42
-1.0
 73
     0
 74
     0
 75
     0
  3
IGA
100
AcDbAlignedDimension
 13
7329.701649781624
 23
2996.579022556839
 33
0.0
 14
8358.701649781627
 24
2996.579022556838
 34
0.0
100
AcDbRotatedDimension
1001
ACAD
1000
DSTYLE
1002
{
1070
   172
1070
     1
1070
    40
1040
45.0
1070
   271
1070
     0
1070
   143
1040
0.039
1002
}
  0
DIMENSION
  5
8170
330
19
100
AcDbEntity
  8
3
100
AcDbDimension
280
     0
  2
*D23
 10
5429.985630090982
 20
2996.757788277331
 30
0.0
 11
5317.485630090981
 21
4293.196189820888
 31
0.0
 70
    32
 71
     5
 42
-1.0
 73
     0
 74
     0
 75
     0
  3
IGA
100
AcDbAlignedDimension
 13
3335.671493262287
 23
5589.634591364444
 33
0.0
 14
4271.171493262285
 24
2996.757788277331
 34
0.0
 50
90.0
100
AcDbRotatedDimension
1001
ACAD
1000
DSTYLE
1002
{
1070
   172
1070
     1
1070
    40
1040
45.0
1070
   271
1070
     0
1070
   143
1040
0.039
1002
}
  0
ENDSEC
  0
SECTION
  2
OBJECTS
  0
DICTIONARY
  5
C
330
0
100
AcDbDictionary
281
     1
  3
ACAD_CIP_PREVIOUS_PRODUCT_INFO
350
829B
  3
ACAD_COLOR
350
827E
  3
ACAD_DETAILVIEWSTYLE
350
8297
  3
ACAD_GROUP
350
D
  3
ACAD_LAYOUT
350
817E
  3
ACAD_MATERIAL
350
824C
  3
ACAD_MLEADERSTYLE
350
8293
  3
ACAD_MLINESTYLE
350
E
  3
ACAD_PLOTSETTINGS
350
817F
  3
ACAD_PLOTSTYLENAME
350
817C
  3
ACAD_SCALELIST
350
8281
  3
ACAD_SECTIONVIEWSTYLE
350
8295
  3
ACAD_TABLESTYLE
350
827F
  3
ACAD_VISUALSTYLE
350
8265
  3
ACDB_RECOMPOSE_DATA
350
82F2
  3
AcDbVariableDictionary
350
8242
  3
AcDsDecomposeData
350
82F8
  0
DICTIONARY
  5
82D6
330
2
100
AcDbDictionary
280
     1
281
     1
  3
ACAD_LAYERSTATES
360
82D7
  0
DICTIONARY
  5
82C9
330
F
100
AcDbDictionary
280
     1
281
     1
  3
ADSK_XREC_LAYER_RECONCILED
360
82CA
  0
DICTIONARY
  5
82CB
330
31
100
AcDbDictionary
280
     1
281
     1
  3
ADSK_XREC_LAYER_RECONCILED
360
82CC
  0
DICTIONARY
  5
82CD
330
76D0
100
AcDbDictionary
280
     1
281
     1
  3
ADSK_XREC_LAYER_RECONCILED
360
82CE
  0
DICTIONARY
  5
82CF
330
76D1
100
AcDbDictionary
280
     1
281
     1
  3
ADSK_XREC_LAYER_RECONCILED
360
82D0
  0
DICTIONARY
  5
82D1
330
76D2
100
AcDbDictionary
280
     1
281
     1
  3
ADSK_XREC_LAYER_RECONCILED
360
82D2
  0
DICTIONARY
  5
81AB
330
19
100
AcDbDictionary
280
     1
281
     1
  3
ACAD_LAYOUTSELFREF
360
81AC
  0
DICTIONARY
  5
81A9
330
16
100
AcDbDictionary
280
     1
281
     1
  3
ACAD_LAYOUTSELFREF
360
81AA
  0
XRECORD
  5
829B
102
{ACAD_REACTORS
330
C
102
}
330
C
100
AcDbXrecord
280
     1
300
ACDLT
300
2023
300

  0
DICTIONARY
  5
827E
102
{ACAD_REACTORS
330
C
102
}
330
C
100
AcDbDictionary
281
     1
  0
DICTIONARY
  5
8297
102
{ACAD_REACTORS
330
C
102
}
330
C
100
AcDbDictionary
281
     1
  3
Metric50
350
8298
  0
DICTIONARY
  5
D
102
{ACAD_REACTORS
330
C
102
}
330
C
100
AcDbDictionary
281
     1
  0
DICTIONARY
  5
817E
102
{ACAD_REACTORS
330
C
102
}
330
C
100
AcDbDictionary
281
     1
  3
Model
350
8180
  3
ﾚｲｱｳﾄ1
350
8181
  0
DICTIONARY
  5
824C
102
{ACAD_REACTORS
330
C
102
}
330
C
100
AcDbDictionary
281
     1
  3
ByBlock
350
8255
  3
ByLayer
350
824D
  3
Global
350
825D
  0
DICTIONARY
  5
8293
102
{ACAD_REACTORS
330
C
102
}
330
C
100
AcDbDictionary
281
     1
  3
Standard
350
8294
  0
DICTIONARY
  5
E
102
{ACAD_REACTORS
330
C
102
}
330
C
100
AcDbDictionary
281
     1
  3
STANDARD
350
1C
  0
DICTIONARY
  5
817F
102
{ACAD_REACTORS
330
C
102
}
330
C
100
AcDbDictionary
281
     1
  0
ACDBDICTIONARYWDFLT
  5
817C
102
{ACAD_REACTORS
330
C
102
}
330
C
100
AcDbDictionary
281
     1
  3
Normal
350
817D
100
AcDbDictionaryWithDefault
340
817D
  0
DICTIONARY
  5
8281
102
{ACAD_REACTORS
330
C
102
}
330
C
100
AcDbDictionary
281
     1
  3
A0
350
8282
  3
A1
350
8283
  3
A2
350
8284
  3
A3
350
8285
  3
A4
350
8286
  3
A5
350
8287
  3
A6
350
8288
  3
A7
350
8289
  3
A8
350
828A
  3
A9
350
828B
  3
B0
350
828C
  3
B1
350
828D
  3
B2
350
828E
  3
B3
350
828F
  3
B4
350
8290
  3
B5
350
8291
  3
B6
350
8292
  0
DICTIONARY
  5
8295
102
{ACAD_REACTORS
330
C
102
}
330
C
100
AcDbDictionary
281
     1
  3
Metric50
350
8296
  0
DICTIONARY
  5
827F
102
{ACAD_REACTORS
330
C
102
}
330
C
100
AcDbDictionary
281
     1
  3
Standard
350
8280
  0
DICTIONARY
  5
8265
102
{ACAD_REACTORS
330
C
102
}
330
C
100
AcDbDictionary
281
     1
  3
2dWireframe
350
826B
  3
Basic
350
826A
  3
Brighten
350
8271
  3
ColorChange
350
8275
  3
Conceptual
350
826E
  3
Dim
350
8270
  3
EdgeColorOff
350
827D
  3
Facepattern
350
8274
  3
Flat
350
8266
  3
FlatWithEdges
350
8267
  3
Gouraud
350
8268
  3
GouraudWithEdges
350
8269
  3
Hidden
350
826D
  3
JitterOff
350
827B
  3
Linepattern
350
8273
  3
OverhangOff
350
827C
  3
Realistic
350
826F
  3
Shaded
350
827A
  3
Shaded with edges
350
8279
  3
Shades of Gray
350
8276
  3
Sketchy
350
8277
  3
Thicken
350
8272
  3
Wireframe
350
826C
  3
X-Ray
350
8278
  0
XRECORD
  5
82F2
102
{ACAD_REACTORS
330
C
102
}
330
C
100
AcDbXrecord
280
     1
 90
        1
330
8280
  0
DICTIONARY
  5
8242
102
{ACAD_REACTORS
330
C
102
}
330
C
100
AcDbDictionary
281
     1
  3
CANNOSCALE
350
82E7
  3
CMLEADERSTYLE
350
82E3
  3
CTABLESTYLE
350
82E2
  3
CVIEWDETAILSTYLE
350
82E4
  3
CVIEWSECTIONSTYLE
350
82E5
  3
DIMASSOC
350
8243
  3
LAYEREVAL
350
82E9
  3
LAYERNOTIFY
350
82EA
  3
LIGHTINGUNITS
350
82E8
  3
MARKUPASSISTMODE
350
82EF
  3
MSLTSCALE
350
82E6
  0
DICTIONARY
  5
82F8
102
{ACAD_REACTORS
330
C
102
}
330
C
100
AcDbDictionary
281
     1
  3
AcDsRecords
350
82FA
  3
AcDsSchemas
350
82F9
1001
ACAD
1070
     2
  0
DICTIONARY
  5
82D7
102
{ACAD_REACTORS
330
82D6
102
}
330
82D6
100
AcDbDictionary
281
     1
  0
XRECORD
  5
82CA
102
{ACAD_REACTORS
330
82C9
102
}
330
82C9
100
AcDbXrecord
280
     1
290
     1
  0
XRECORD
  5
82CC
102
{ACAD_REACTORS
330
82CB
102
}
330
82CB
100
AcDbXrecord
280
     1
290
     1
  0
XRECORD
  5
82CE
102
{ACAD_REACTORS
330
82CD
102
}
330
82CD
100
AcDbXrecord
280
     1
290
     1
  0
XRECORD
  5
82D0
102
{ACAD_REACTORS
330
82CF
102
}
330
82CF
100
AcDbXrecord
280
     1
290
     1
  0
XRECORD
  5
82D2
102
{ACAD_REACTORS
330
82D1
102
}
330
82D1
100
AcDbXrecord
280
     1
290
     1
  0
XRECORD
  5
81AC
102
{ACAD_REACTORS
330
81AB
102
}
330
81AB
100
AcDbXrecord
280
     1
340
19
  0
XRECORD
  5
81AA
102
{ACAD_REACTORS
330
81A9
102
}
330
81A9
100
AcDbXrecord
280
     1
340
16
  0
ACDBDETAILVIEWSTYLE
  5
8298
102
{ACAD_XDICTIONARY
360
82FD
102
}
102
{ACAD_REACTORS
330
8297
102
}
330
8297
100
AcDbModelDocViewStyle
 70
     0
  3
Metric50
290
     0
100
AcDbDetailViewStyle
 70
     0
 71
     0
 90
        3
 71
     1
340
10
 62
   256
 40
5.0
340
0
 62
   256
 40
5.0
300

 40
0.0
280
     1
 71
     2
340
15
 90
       25
 62
   256
 71
     3
340
10
 62
   256
 40
5.0
 90
        0
 40
15.0
 90
        1
300
%<\AcVar ViewDetailId>% (%<\AcVar ViewScale \f "%sn">%)
 71
     4
340
15
 90
       25
 62
   256
340
15
 90
       25
 62
   256
280
     0
  0
LAYOUT
  5
8180
102
{ACAD_REACTORS
330
817E
102
}
330
817E
100
AcDbPlotSettings
  1

  2
\\Txbo34x8944cqyd\EPSON LP-6100
  4

  6

 40
0.0
 41
0.0
 42
0.0
 43
0.0
 44
0.0
 45
0.0
 46
0.0
 47
0.0
 48
0.0
 49
0.0
140
0.0
141
0.0
142
1.0
143
1.0
 70
  1712
 72
     0
 73
     0
 74
     0
  7
GOD2000TABLE.ctb
 75
     0
147
1.0
 76
     0
 77
     2
 78
   300
148
0.0
149
0.0
100
AcDbLayout
  1
Model
 70
     1
 71
     0
 10
0.0
 20
0.0
 11
12.0
 21
9.0
 12
0.0
 22
0.0
 32
0.0
 14
0.0
 24
0.0
 34
0.0
 15
0.0
 25
0.0
 35
0.0
146
0.0
 13
0.0
 23
0.0
 33
0.0
 16
1.0
 26
0.0
 36
0.0
 17
0.0
 27
1.0
 37
0.0
 76
     0
330
19
331
824A
  0
LAYOUT
  5
8181
102
{ACAD_REACTORS
330
817E
102
}
330
817E
100
AcDbPlotSettings
  1

  2
\\Txbo34x8944cqyd\EPSON LP-6100
  4

  6

 40
0.0
 41
0.0
 42
0.0
 43
0.0
 44
0.0
 45
0.0
 46
0.0
 47
0.0
 48
0.0
 49
0.0
140
0.0
141
0.0
142
1.0
143
1.0
 70
   688
 72
     0
 73
     0
 74
     5
  7
GOD2000TABLE.ctb
 75
    16
147
1.0
 76
     0
 77
     2
 78
   300
148
0.0
149
0.0
100
AcDbLayout
  1
ﾚｲｱｳﾄ1
 70
     1
 71
     1
 10
0.0
 20
0.0
 11
12.0
 21
9.0
 12
0.0
 22
0.0
 32
0.0
 14
1.000000000000000E+20
 24
1.000000000000000E+20
 34
1.000000000000000E+20
 15
-1.000000000000000E+20
 25
-1.000000000000000E+20
 35
-1.000000000000000E+20
146
0.0
 13
0.0
 23
0.0
 33
0.0
 16
1.0
 26
0.0
 36
0.0
 17
0.0
 27
1.0
 37
0.0
 76
     0
330
16
  0
MATERIAL
  5
8255
102
{ACAD_XDICTIONARY
360
8256
102
}
102
{ACAD_REACTORS
330
824C
102
}
330
824C
100
AcDbMaterial
  1
ByBlock
 72
     0
 43
0.0208333333333333
 43
0.0
 43
0.0
 43
0.0
 43
0.0
 43
0.0208333333333333
 43
0.0
 43
0.0
 43
0.0
 43
0.0
 43
1.0
 43
0.0
 43
0.0
 43
0.0
 43
0.0
 43
1.0
 77
     0
 47
0.0208333333333333
 47
0.0
 47
0.0
 47
0.0
 47
0.0
 47
0.0208333333333333
 47
0.0
 47
0.0
 47
0.0
 47
0.0
 47
1.0
 47
0.0
 47
0.0
 47
0.0
 47
0.0
 47
1.0
171
     0
 49
0.0208333333333333
 49
0.0
 49
0.0
 49
0.0
 49
0.0
 49
0.0208333333333333
 49
0.0
 49
0.0
 49
0.0
 49
0.0
 49
1.0
 49
0.0
 49
0.0
 49
0.0
 49
0.0
 49
1.0
175
     0
142
0.0208333333333333
142
0.0
142
0.0
142
0.0
142
0.0
142
0.0208333333333333
142
0.0
142
0.0
142
0.0
142
0.0
142
1.0
142
0.0
142
0.0
142
0.0
142
0.0
142
1.0
179
     0
144
0.0208333333333333
144
0.0
144
0.0
144
0.0
144
0.0
144
0.0208333333333333
144
0.0
144
0.0
144
0.0
144
0.0
144
1.0
144
0.0
144
0.0
144
0.0
144
0.0
144
1.0
147
0.0208333333333333
147
0.0
147
0.0
147
0.0
147
0.0
147
0.0208333333333333
147
0.0
147
0.0
147
0.0
147
0.0
147
1.0
147
0.0
147
0.0
147
0.0
147
0.0
147
1.0
  0
MATERIAL
  5
824D
102
{ACAD_XDICTIONARY
360
824E
102
}
102
{ACAD_REACTORS
330
824C
102
}
330
824C
100
AcDbMaterial
  1
ByLayer
 72
     0
 43
0.0208333333333333
 43
0.0
 43
0.0
 43
0.0
 43
0.0
 43
0.0208333333333333
 43
0.0
 43
0.0
 43
0.0
 43
0.0
 43
1.0
 43
0.0
 43
0.0
 43
0.0
 43
0.0
 43
1.0
 77
     0
 47
0.0208333333333333
 47
0.0
 47
0.0
 47
0.0
 47
0.0
 47
0.0208333333333333
 47
0.0
 47
0.0
 47
0.0
 47
0.0
 47
1.0
 47
0.0
 47
0.0
 47
0.0
 47
0.0
 47
1.0
171
     0
 49
0.0208333333333333
 49
0.0
 49
0.0
 49
0.0
 49
0.0
 49
0.0208333333333333
 49
0.0
 49
0.0
 49
0.0
 49
0.0
 49
1.0
 49
0.0
 49
0.0
 49
0.0
 49
0.0
 49
1.0
175
     0
142
0.0208333333333333
142
0.0
142
0.0
142
0.0
142
0.0
142
0.0208333333333333
142
0.0
142
0.0
142
0.0
142
0.0
142
1.0
142
0.0
142
0.0
142
0.0
142
0.0
142
1.0
179
     0
144
0.0208333333333333
144
0.0
144
0.0
144
0.0
144
0.0
144
0.0208333333333333
144
0.0
144
0.0
144
0.0
144
0.0
144
1.0
144
0.0
144
0.0
144
0.0
144
0.0
144
1.0
147
0.0208333333333333
147
0.0
147
0.0
147
0.0
147
0.0
147
0.0208333333333333
147
0.0
147
0.0
147
0.0
147
0.0
147
1.0
147
0.0
147
0.0
147
0.0
147
0.0
147
1.0
  0
MATERIAL
  5
825D
102
{ACAD_XDICTIONARY
360
825E
102
}
102
{ACAD_REACTORS
330
824C
102
}
330
824C
100
AcDbMaterial
  1
Global
 72
     0
 43
0.0208333333333333
 43
0.0
 43
0.0
 43
0.0
 43
0.0
 43
0.0208333333333333
 43
0.0
 43
0.0
 43
0.0
 43
0.0
 43
1.0
 43
0.0
 43
0.0
 43
0.0
 43
0.0
 43
1.0
 77
     0
 47
0.0208333333333333
 47
0.0
 47
0.0
 47
0.0
 47
0.0
 47
0.0208333333333333
 47
0.0
 47
0.0
 47
0.0
 47
0.0
 47
1.0
 47
0.0
 47
0.0
 47
0.0
 47
0.0
 47
1.0
171
     0
 49
0.0208333333333333
 49
0.0
 49
0.0
 49
0.0
 49
0.0
 49
0.0208333333333333
 49
0.0
 49
0.0
 49
0.0
 49
0.0
 49
1.0
 49
0.0
 49
0.0
 49
0.0
 49
0.0
 49
1.0
175
     0
142
0.0208333333333333
142
0.0
142
0.0
142
0.0
142
0.0
142
0.0208333333333333
142
0.0
142
0.0
142
0.0
142
0.0
142
1.0
142
0.0
142
0.0
142
0.0
142
0.0
142
1.0
179
     0
144
0.0208333333333333
144
0.0
144
0.0
144
0.0
144
0.0
144
0.0208333333333333
144
0.0
144
0.0
144
0.0
144
0.0
144
1.0
144
0.0
144
0.0
144
0.0
144
0.0
144
1.0
147
0.0208333333333333
147
0.0
147
0.0
147
0.0
147
0.0
147
0.0208333333333333
147
0.0
147
0.0
147
0.0
147
0.0
147
1.0
147
0.0
147
0.0
147
0.0
147
0.0
147
1.0
  0
MLEADERSTYLE
  5
8294
102
{ACAD_REACTORS
330
8293
102
}
330
8293
100
AcDbMLeaderStyle
179
     2
170
     2
171
     1
172
     0
 90
        2
 40
0.0
 41
0.0
173
     1
 91
-1056964608
340
13
 92
       -2
290
     1
 42
2.0
291
     1
 43
0.36
  3
Standard
 44
4.0
300

342
10
174
     1
178
     6
175
     1
176
     0
 93
-1056964608
 45
4.0
292
     0
297
     0
 46
4.0
 94
-1056964608
 47
1.0
 49
1.0
140
1.0
293
     1
141
0.0
294
     1
177
     0
142
1.0
295
     0
296
     0
143
0.125
271
     0
272
     9
273
     9
298
     1
  0
MLINESTYLE
  5
1C
102
{ACAD_REACTORS
330
E
102
}
330
E
100
AcDbMlineStyle
  2
STANDARD
 70
     0
  3

 62
     0
 51
90.0
 52
90.0
 71
     2
 49
0.5
 62
   256
  6
BYLAYER
 49
-0.5
 62
   256
  6
BYLAYER
  0
ACDBPLACEHOLDER
  5
817D
102
{ACAD_REACTORS
330
817C
102
}
330
817C
  0
SCALE
  5
8282
102
{ACAD_REACTORS
330
8281
102
}
330
8281
100
AcDbScale
 70
     0
300
1:1
140
1.0
141
1.0
290
     1
  0
SCALE
  5
8283
102
{ACAD_REACTORS
330
8281
102
}
330
8281
100
AcDbScale
 70
     0
300
1:2
140
1.0
141
2.0
290
     0
  0
SCALE
  5
8284
102
{ACAD_REACTORS
330
8281
102
}
330
8281
100
AcDbScale
 70
     0
300
1:4
140
1.0
141
4.0
290
     0
  0
SCALE
  5
8285
102
{ACAD_REACTORS
330
8281
102
}
330
8281
100
AcDbScale
 70
     0
300
1:5
140
1.0
141
5.0
290
     0
  0
SCALE
  5
8286
102
{ACAD_REACTORS
330
8281
102
}
330
8281
100
AcDbScale
 70
     0
300
1:8
140
1.0
141
8.0
290
     0
  0
SCALE
  5
8287
102
{ACAD_REACTORS
330
8281
102
}
330
8281
100
AcDbScale
 70
     0
300
1:10
140
1.0
141
10.0
290
     0
  0
SCALE
  5
8288
102
{ACAD_REACTORS
330
8281
102
}
330
8281
100
AcDbScale
 70
     0
300
1:16
140
1.0
141
16.0
290
     0
  0
SCALE
  5
8289
102
{ACAD_REACTORS
330
8281
102
}
330
8281
100
AcDbScale
 70
     0
300
1:20
140
1.0
141
20.0
290
     0
  0
SCALE
  5
828A
102
{ACAD_REACTORS
330
8281
102
}
330
8281
100
AcDbScale
 70
     0
300
1:30
140
1.0
141
30.0
290
     0
  0
SCALE
  5
828B
102
{ACAD_REACTORS
330
8281
102
}
330
8281
100
AcDbScale
 70
     0
300
1:40
140
1.0
141
40.0
290
     0
  0
SCALE
  5
828C
102
{ACAD_REACTORS
330
8281
102
}
330
8281
100
AcDbScale
 70
     0
300
1:50
140
1.0
141
50.0
290
     0
  0
SCALE
  5
828D
102
{ACAD_REACTORS
330
8281
102
}
330
8281
100
AcDbScale
 70
     0
300
1:100
140
1.0
141
100.0
290
     0
  0
SCALE
  5
828E
102
{ACAD_REACTORS
330
8281
102
}
330
8281
100
AcDbScale
 70
     0
300
2:1
140
2.0
141
1.0
290
     0
  0
SCALE
  5
828F
102
{ACAD_REACTORS
330
8281
102
}
330
8281
100
AcDbScale
 70
     0
300
4:1
140
4.0
141
1.0
290
     0
  0
SCALE
  5
8290
102
{ACAD_REACTORS
330
8281
102
}
330
8281
100
AcDbScale
 70
     0
300
8:1
140
8.0
141
1.0
290
     0
  0
SCALE
  5
8291
102
{ACAD_REACTORS
330
8281
102
}
330
8281
100
AcDbScale
 70
     0
300
10:1
140
10.0
141
1.0
290
     0
  0
SCALE
  5
8292
102
{ACAD_REACTORS
330
8281
102
}
330
8281
100
AcDbScale
 70
     0
300
100:1
140
100.0
141
1.0
290
     0
  0
ACDBSECTIONVIEWSTYLE
  5
8296
102
{ACAD_XDICTIONARY
360
82FB
102
}
102
{ACAD_REACTORS
330
8295
102
}
330
8295
100
AcDbModelDocViewStyle
 70
     0
  3
Metric50
290
     0
100
AcDbSectionViewStyle
 70
     0
 71
     0
 90
      102
 71
     1
340
10
 62
   256
 40
5.0
340
0
340
0
 62
   256
 40
5.0
300
I, O, Q, S, X, Z
 40
10.0
 90
        0
 40
2.5
 90
        0
 71
     2
340
15
 90
       25
 62
   256
340
15
 90
       50
 62
   256
 40
5.0
 40
2.5
 40
5.0
 71
     3
340
10
 62
   256
 40
5.0
 90
        0
 40
15.0
 90
        1
300
%<\AcVar ViewSectionStartId>%-%<\AcVar ViewSectionEndId>% (%<\AcVar ViewScale \f "%sn">%)
 71
     4
 62
   256
 62
   257
300
ANSI31
 40
1.0
 90
        0
290
     0
290
     0
 90
        6
 40
0.0
 40
1.570796326794896
 40
0.2617993877991494
 40
1.308996938995747
 40
-0.2617993877991494
 40
1.832595714594046
  0
TABLESTYLE
  5
8280
102
{ACAD_XDICTIONARY
360
82F0
102
}
102
{ACAD_REACTORS
330
827F
102
}
330
827F
100
AcDbTableStyle
280
     0
  3
Standard
 70
     0
 71
     0
 40
1.5
 41
1.5
280
     0
281
     0
  7
STANDARD
140
4.5
170
     2
 62
     0
 63
     7
283
     0
 90
      512
 91
        0
  1

274
    -2
284
     1
 64
     0
275
    -2
285
     1
 65
     0
276
    -2
286
     1
 66
     0
277
    -2
287
     1
 67
     0
278
    -2
288
     1
 68
     0
279
    -2
289
     1
 69
     0
  7
STANDARD
140
6.0
170
     5
 62
     0
 63
     7
283
     0
 90
      512
 91
        0
  1

274
    -2
284
     1
 64
     0
275
    -2
285
     1
 65
     0
276
    -2
286
     1
 66
     0
277
    -2
287
     1
 67
     0
278
    -2
288
     1
 68
     0
279
    -2
289
     1
 69
     0
  7
STANDARD
140
4.5
170
     5
 62
     0
 63
     7
283
     0
 90
      512
 91
        0
  1

274
    -2
284
     1
 64
     0
275
    -2
285
     1
 65
     0
276
    -2
286
     1
 66
     0
277
    -2
287
     1
 67
     0
278
    -2
288
     1
 68
     0
279
    -2
289
     1
 69
     0
  0
VISUALSTYLE
  5
826B
102
{ACAD_REACTORS
330
8265
102
}
330
8265
100
AcDbVisualStyle
  2
2dWireframe
 70
     4
177
     3
291
     0
 70
    58
 90
        0
176
     1
 90
        2
176
     1
 90
        0
176
     1
 90
        0
176
     1
 40
0.6
176
     1
 40
30.0
176
     1
 62
     7
420
 16777215
176
     1
 90
        1
176
     1
 90
        4
176
     1
 62
     7
176
     1
 62
   257
176
     1
 90
        1
176
     1
 90
        1
176
     1
 40
1.0
176
     1
 90
        0
176
     1
 62
   257
176
     1
 40
1.0
176
     1
 90
        1
176
     1
 90
        6
176
     1
 90
        2
176
     1
 62
     7
176
     1
 90
        5
176
     1
 90
        0
176
     1
 90
        0
176
     1
290
     0
176
     1
 90
        1
176
     1
 40
0.0
176
     1
 90
        0
176
     1
290
     1
176
     1
290
     1
176
     1
290
     0
176
     1
290
     0
176
     1
290
     0
176
     1
290
     0
176
     1
290
     0
176
     1
290
     0
176
     1
290
     0
176
     1
 90
       50
176
     1
 40
0.0
176
     1
 40
1.0
176
     1
 90
        0
176
     1
 62
    18
420
        0
176
     1
 90
       50
176
     1
 90
        3
176
     1
 62
     5
420
      255
176
     1
290
     0
176
     1
 90
       50
176
     1
 90
       50
176
     1
 90
       50
176
     1
290
     0
176
     1
 90
       50
176
     1
 62
   256
176
     0
 40
1.0
176
     0
 90
        2
176
     1
  1
strokes_ogs.tif
176
     1
290
     0
176
     1
 40
1.0
176
     1
 40
1.0
176
     1
1001
ACAD
1000
AcDbSavedByObjectVersion
1070
     0
  0
VISUALSTYLE
  5
826A
102
{ACAD_REACTORS
330
8265
102
}
330
8265
100
AcDbVisualStyle
  2
Basic
 70
     7
177
     3
291
     1
 70
    58
 90
        1
176
     1
 90
        0
176
     1
 90
        1
176
     1
 90
        0
176
     1
 40
0.6
176
     1
 40
30.0
176
     1
 62
     7
420
 16777215
176
     1
 90
        0
176
     1
 90
        4
176
     1
 62
     7
176
     1
 62
   257
176
     1
 90
        1
176
     1
 90
        1
176
     1
 40
1.0
176
     1
 90
        8
176
     1
 62
     7
176
     1
 40
1.0
176
     1
 90
        1
176
     1
 90
        6
176
     1
 90
        2
176
     1
 62
     7
176
     1
 90
        5
176
     1
 90
        0
176
     1
 90
        0
176
     1
290
     0
176
     1
 90
        1
176
     1
 40
0.0
176
     1
 90
        0
176
     1
290
     0
176
     1
290
     1
176
     1
290
     1
176
     1
290
     0
176
     1
290
     0
176
     1
290
     0
176
     1
290
     0
176
     1
290
     0
176
     1
290
     0
176
     1
 90
       50
176
     1
 40
0.0
176
     1
 40
1.0
176
     1
 90
        0
176
     1
 62
    18
420
        0
176
     1
 90
       50
176
     1
 90
        3
176
     1
 62
     5
420
      255
176
     1
290
     0
176
     1
 90
       50
176
     1
 90
       50
176
     1
 90
       50
176
     1
290
     0
176
     1
 90
       50
176
     1
 62
   256
176
     0
 40
1.0
176
     0
 90
        2
176
     1
  1
strokes_ogs.tif
176
     1
290
     0
176
     1
 40
1.0
176
     1
 40
1.0
176
     1
1001
ACAD
1000
AcDbSavedByObjectVersion
1070
     0
  0
VISUALSTYLE
  5
8271
102
{ACAD_REACTORS
330
8265
102
}
330
8265
100
AcDbVisualStyle
  2
Brighten
 70
    12
177
     3
291
     1
 70
    58
 90
        2
176
     1
 90
        2
176
     1
 90
        0
176
     1
 90
        0
176
     1
 40
0.6
176
     1
 40
30.0
176
     1
 62
     7
420
 16777215
176
     1
 90
        1
176
     1
 90
        4
176
     1
 62
     7
176
     1
 62
   257
176
     1
 90
        1
176
     1
 90
        1
176
     1
 40
1.0
176
     1
 90
        8
176
     1
 62
     7
176
     1
 40
1.0
176
     1
 90
        1
176
     1
 90
        6
176
     1
 90
        2
176
     1
 62
     7
176
     1
 90
        5
176
     1
 90
        0
176
     1
 90
        0
176
     1
290
     0
176
     1
 90
        1
176
     1
 40
50.0
176
     1
 90
        0
176
     1
290
     0
176
     1
290
     1
176
     1
290
     1
176
     1
290
     0
176
     1
290
     0
176
     1
290
     0
176
     1
290
     0
176
     1
290
     0
176
     1
290
     0
176
     1
 90
       50
176
     1
 40
0.0
176
     1
 40
1.0
176
     1
 90
        0
176
     1
 62
    18
420
        0
176
     1
 90
       50
176
     1
 90
        3
176
     1
 62
     5
420
      255
176
     1
290
     0
176
     1
 90
       50
176
     1
 90
       50
176
     1
 90
       50
176
     1
290
     0
176
     1
 90
       50
176
     1
 62
   256
176
     0
 40
1.0
176
     0
 90
        2
176
     1
  1
strokes_ogs.tif
176
     1
290
     0
176
     1
 40
1.0
176
     1
 40
1.0
176
     1
1001
ACAD
1000
AcDbSavedByObjectVersion
1070
     0
  0
VISUALSTYLE
  5
8275
102
{ACAD_REACTORS
330
8265
102
}
330
8265
100
AcDbVisualStyle
  2
ColorChange
 70
    16
177
     3
291
     1
 70
    58
 90
        2
176
     1
 90
        2
176
     1
 90
        3
176
     1
 90
        0
176
     1
 40
0.6
176
     1
 40
30.0
176
     1
 62
     8
420
  8421504
176
     1
 90
        1
176
     1
 90
        4
176
     1
 62
     7
176
     1
 62
   257
176
     1
 90
        1
176
     1
 90
        1
176
     1
 40
1.0
176
     1
 90
        8
176
     1
 62
     8
420
  8421504
176
     1
 40
1.0
176
     1
 90
        1
176
     1
 90
        6
176
     1
 90
        2
176
     1
 62
     7
176
     1
 90
        5
176
     1
 90
        0
176
     1
 90
        0
176
     1
290
     0
176
     1
 90
        1
176
     1
 40
0.0
176
     1
 90
        0
176
     1
290
     0
176
     1
290
     1
176
     1
290
     1
176
     1
290
     0
176
     1
290
     0
176
     1
290
     0
176
     1
290
     0
176
     1
290
     0
176
     1
290
     0
176
     1
 90
       50
176
     1
 40
0.0
176
     1
 40
1.0
176
     1
 90
        0
176
     1
 62
    18
420
        0
176
     1
 90
       50
176
     1
 90
        3
176
     1
 62
     5
420
      255
176
     1
290
     0
176
     1
 90
       50
176
     1
 90
       50
176
     1
 90
       50
176
     1
290
     0
176
     1
 90
       50
176
     1
 62
   256
176
     0
 40
1.0
176
     0
 90
        2
176
     1
  1
strokes_ogs.tif
176
     1
290
     0
176
     1
 40
1.0
176
     1
 40
1.0
176
     1
1001
ACAD
1000
AcDbSavedByObjectVersion
1070
     0
  0
VISUALSTYLE
  5
826E
102
{ACAD_REACTORS
330
8265
102
}
330
8265
100
AcDbVisualStyle
  2
Conceptual
 70
     9
177
     3
291
     0
 70
    58
 90
        3
176
     1
 90
        2
176
     1
 90
        0
176
     1
 90
        0
176
     1
 40
0.6
176
     1
 40
30.0
176
     1
 62
     7
420
 16777215
176
     1
 90
        2
176
     1
 90
        2
176
     1
 62
     7
176
     1
 62
   257
176
     1
 90
        1
176
     1
 90
        1
176
     1
 40
179.0
176
     1
 90
        8
176
     1
 62
     7
176
     1
 40
1.0
176
     1
 90
        1
176
     1
 90
        6
176
     1
 90
        2
176
     1
 62
     7
176
     1
 90
        3
176
     1
 90
        0
176
     1
 90
        0
176
     1
290
     0
176
     1
 90
        1
176
     1
 40
0.0
176
     1
 90
        0
176
     1
290
     0
176
     1
290
     1
176
     1
290
     1
176
     1
290
     0
176
     1
290
     0
176
     1
290
     0
176
     1
290
     0
176
     1
290
     0
176
     1
290
     0
176
     1
 90
       50
176
     1
 40
0.0
176
     1
 40
1.0
176
     1
 90
        0
176
     1
 62
    18
420
        0
176
     1
 90
       50
176
     1
 90
        3
176
     1
 62
     5
420
      255
176
     1
290
     0
176
     1
 90
       50
176
     1
 90
       50
176
     1
 90
       50
176
     1
290
     0
176
     1
 90
       50
176
     1
 62
   256
176
     0
 40
1.0
176
     0
 90
        2
176
     1
  1
strokes_ogs.tif
176
     1
290
     0
176
     1
 40
1.0
176
     1
 40
1.0
176
     1
1001
ACAD
1000
AcDbSavedByObjectVersion
1070
     0
  0
VISUALSTYLE
  5
8270
102
{ACAD_REACTORS
330
8265
102
}
330
8265
100
AcDbVisualStyle
  2
Dim
 70
    11
177
     3
291
     1
 70
    58
 90
        2
176
     1
 90
        2
176
     1
 90
        0
176
     1
 90
        0
176
     1
 40
0.6
176
     1
 40
30.0
176
     1
 62
     7
420
 16777215
176
     1
 90
        1
176
     1
 90
        4
176
     1
 62
     7
176
     1
 62
   257
176
     1
 90
        1
176
     1
 90
        1
176
     1
 40
1.0
176
     1
 90
        8
176
     1
 62
     7
176
     1
 40
1.0
176
     1
 90
        1
176
     1
 90
        6
176
     1
 90
        2
176
     1
 62
     7
176
     1
 90
        5
176
     1
 90
        0
176
     1
 90
        0
176
     1
290
     0
176
     1
 90
        1
176
     1
 40
-50.0
176
     1
 90
        0
176
     1
290
     0
176
     1
290
     1
176
     1
290
     1
176
     1
290
     0
176
     1
290
     0
176
     1
290
     0
176
     1
290
     0
176
     1
290
     0
176
     1
290
     0
176
     1
 90
       50
176
     1
 40
0.0
176
     1
 40
1.0
176
     1
 90
        0
176
     1
 62
    18
420
        0
176
     1
 90
       50
176
     1
 90
        3
176
     1
 62
     5
420
      255
176
     1
290
     0
176
     1
 90
       50
176
     1
 90
       50
176
     1
 90
       50
176
     1
290
     0
176
     1
 90
       50
176
     1
 62
   256
176
     0
 40
1.0
176
     0
 90
        2
176
     1
  1
strokes_ogs.tif
176
     1
290
     0
176
     1
 40
1.0
176
     1
 40
1.0
176
     1
1001
ACAD
1000
AcDbSavedByObjectVersion
1070
     0
  0
VISUALSTYLE
  5
827D
102
{ACAD_REACTORS
330
8265
102
}
330
8265
100
AcDbVisualStyle
  2
EdgeColorOff
 70
    22
177
     3
291
     1
 70
    58
 90
        2
176
     0
 90
        2
176
     0
 90
        0
176
     0
 90
        0
176
     0
 40
0.6
176
     0
 40
30.0
176
     0
 62
     7
420
 16777215
176
     0
 90
        1
176
     0
 90
        4
176
     0
 62
     7
176
     0
 62
   257
176
     0
 90
        1
176
     0
 90
        1
176
     0
 40
1.0
176
     0
 90
        8
176
     2
 62
     7
176
     0
 40
1.0
176
     0
 90
        1
176
     0
 90
        6
176
     0
 90
        2
176
     0
 62
     7
176
     0
 90
        5
176
     0
 90
        0
176
     0
 90
        0
176
     0
290
     0
176
     0
 90
        1
176
     0
 40
0.0
176
     0
 90
        0
176
     0
290
     0
176
     0
290
     1
176
     0
290
     1
176
     0
290
     0
176
     0
290
     0
176
     0
290
     0
176
     0
290
     0
176
     0
290
     0
176
     0
290
     0
176
     0
 90
       50
176
     0
 40
0.0
176
     0
 40
1.0
176
     0
 90
        0
176
     0
 62
    18
420
        0
176
     0
 90
       50
176
     0
 90
        3
176
     0
 62
     5
420
      255
176
     0
290
     0
176
     0
 90
       50
176
     0
 90
       50
176
     0
 90
       50
176
     0
290
     0
176
     0
 90
       50
176
     0
 62
   256
176
     0
 40
1.0
176
     0
 90
        2
176
     0
  1
strokes_ogs.tif
176
     0
290
     0
176
     0
 40
1.0
176
     0
 40
1.0
176
     0
1001
ACAD
1000
AcDbSavedByObjectVersion
1070
     0
  0
VISUALSTYLE
  5
8274
102
{ACAD_REACTORS
330
8265
102
}
330
8265
100
AcDbVisualStyle
  2
Facepattern
 70
    15
177
     3
291
     1
 70
    58
 90
        2
176
     1
 90
        2
176
     1
 90
        0
176
     1
 90
        0
176
     1
 40
0.6
176
     1
 40
30.0
176
     1
 62
     7
420
 16777215
176
     1
 90
        1
176
     1
 90
        4
176
     1
 62
     7
176
     1
 62
   257
176
     1
 90
        1
176
     1
 90
        1
176
     1
 40
1.0
176
     1
 90
        8
176
     1
 62
     7
176
     1
 40
1.0
176
     1
 90
        1
176
     1
 90
        6
176
     1
 90
        2
176
     1
 62
     7
176
     1
 90
        5
176
     1
 90
        0
176
     1
 90
        0
176
     1
290
     0
176
     1
 90
        1
176
     1
 40
0.0
176
     1
 90
        0
176
     1
290
     0
176
     1
290
     1
176
     1
290
     1
176
     1
290
     0
176
     1
290
     0
176
     1
290
     0
176
     1
290
     0
176
     1
290
     0
176
     1
290
     0
176
     1
 90
       50
176
     1
 40
0.0
176
     1
 40
1.0
176
     1
 90
        0
176
     1
 62
    18
420
        0
176
     1
 90
       50
176
     1
 90
        3
176
     1
 62
     5
420
      255
176
     1
290
     0
176
     1
 90
       50
176
     1
 90
       50
176
     1
 90
       50
176
     1
290
     0
176
     1
 90
       50
176
     1
 62
   256
176
     0
 40
1.0
176
     0
 90
        2
176
     1
  1
strokes_ogs.tif
176
     1
290
     0
176
     1
 40
1.0
176
     1
 40
1.0
176
     1
1001
ACAD
1000
AcDbSavedByObjectVersion
1070
     0
  0
VISUALSTYLE
  5
8266
102
{ACAD_REACTORS
330
8265
102
}
330
8265
100
AcDbVisualStyle
  2
Flat
 70
     0
177
     3
291
     1
 70
    58
 90
        2
176
     1
 90
        1
176
     1
 90
        1
176
     1
 90
        2
176
     1
 40
0.6
176
     1
 40
30.0
176
     1
 62
     7
420
 16777215
176
     1
 90
        0
176
     1
 90
        0
176
     1
 62
     7
176
     1
 62
   257
176
     1
 90
        1
176
     1
 90
        1
176
     1
 40
1.0
176
     1
 90
        8
176
     1
 62
     7
176
     1
 40
1.0
176
     1
 90
        1
176
     1
 90
        6
176
     1
 90
        2
176
     1
 62
     7
176
     1
 90
        5
176
     1
 90
        0
176
     1
 90
        0
176
     1
290
     0
176
     1
 90
       13
176
     1
 40
0.0
176
     1
 90
        0
176
     1
290
     0
176
     1
290
     1
176
     1
290
     1
176
     1
290
     0
176
     1
290
     0
176
     1
290
     0
176
     1
290
     0
176
     1
290
     0
176
     1
290
     0
176
     1
 90
       50
176
     1
 40
0.0
176
     1
 40
1.0
176
     1
 90
        0
176
     1
 62
    18
420
        0
176
     1
 90
       50
176
     1
 90
        3
176
     1
 62
     5
420
      255
176
     1
290
     0
176
     1
 90
       50
176
     1
 90
       50
176
     1
 90
       50
176
     1
290
     0
176
     1
 90
       50
176
     1
 62
   256
176
     0
 40
1.0
176
     0
 90
        2
176
     1
  1
strokes_ogs.tif
176
     1
290
     0
176
     1
 40
1.0
176
     1
 40
1.0
176
     1
1001
ACAD
1000
AcDbSavedByObjectVersion
1070
     0
  0
VISUALSTYLE
  5
8267
102
{ACAD_REACTORS
330
8265
102
}
330
8265
100
AcDbVisualStyle
  2
FlatWithEdges
 70
     1
177
     3
291
     1
 70
    58
 90
        2
176
     1
 90
        1
176
     1
 90
        1
176
     1
 90
        2
176
     1
 40
0.6
176
     1
 40
30.0
176
     1
 62
     7
420
 16777215
176
     1
 90
        1
176
     1
 90
        0
176
     1
 62
     7
176
     1
 62
   257
176
     1
 90
        1
176
     1
 90
        1
176
     1
 40
1.0
176
     1
 90
        0
176
     1
 62
   257
176
     1
 40
1.0
176
     1
 90
        1
176
     1
 90
        6
176
     1
 90
        2
176
     1
 62
     7
176
     1
 90
        5
176
     1
 90
        0
176
     1
 90
        0
176
     1
290
     0
176
     1
 90
       13
176
     1
 40
0.0
176
     1
 90
        0
176
     1
290
     0
176
     1
290
     1
176
     1
290
     1
176
     1
290
     0
176
     1
290
     0
176
     1
290
     0
176
     1
290
     0
176
     1
290
     0
176
     1
290
     0
176
     1
 90
       50
176
     1
 40
0.0
176
     1
 40
1.0
176
     1
 90
        0
176
     1
 62
    18
420
        0
176
     1
 90
       50
176
     1
 90
        3
176
     1
 62
     5
420
      255
176
     1
290
     0
176
     1
 90
       50
176
     1
 90
       50
176
     1
 90
       50
176
     1
290
     0
176
     1
 90
       50
176
     1
 62
   256
176
     0
 40
1.0
176
     0
 90
        2
176
     1
  1
strokes_ogs.tif
176
     1
290
     0
176
     1
 40
1.0
176
     1
 40
1.0
176
     1
1001
ACAD
1000
AcDbSavedByObjectVersion
1070
     0
  0
VISUALSTYLE
  5
8268
102
{ACAD_REACTORS
330
8265
102
}
330
8265
100
AcDbVisualStyle
  2
Gouraud
 70
     2
177
     3
291
     1
 70
    58
 90
        2
176
     1
 90
        2
176
     1
 90
        1
176
     1
 90
        2
176
     1
 40
0.6
176
     1
 40
30.0
176
     1
 62
     7
420
 16777215
176
     1
 90
        0
176
     1
 90
        0
176
     1
 62
     7
176
     1
 62
   257
176
     1
 90
        1
176
     1
 90
        1
176
     1
 40
1.0
176
     1
 90
        0
176
     1
 62
     7
176
     1
 40
1.0
176
     1
 90
        1
176
     1
 90
        6
176
     1
 90
        2
176
     1
 62
     7
176
     1
 90
        5
176
     1
 90
        0
176
     1
 90
        0
176
     1
290
     0
176
     1
 90
       13
176
     1
 40
0.0
176
     1
 90
        0
176
     1
290
     0
176
     1
290
     1
176
     1
290
     1
176
     1
290
     0
176
     1
290
     0
176
     1
290
     0
176
     1
290
     0
176
     1
290
     0
176
     1
290
     0
176
     1
 90
       50
176
     1
 40
0.0
176
     1
 40
1.0
176
     1
 90
        0
176
     1
 62
    18
420
        0
176
     1
 90
       50
176
     1
 90
        3
176
     1
 62
     5
420
      255
176
     1
290
     0
176
     1
 90
       50
176
     1
 90
       50
176
     1
 90
       50
176
     1
290
     0
176
     1
 90
       50
176
     1
 62
   256
176
     0
 40
1.0
176
     0
 90
        2
176
     1
  1
strokes_ogs.tif
176
     1
290
     0
176
     1
 40
1.0
176
     1
 40
1.0
176
     1
1001
ACAD
1000
AcDbSavedByObjectVersion
1070
     0
  0
VISUALSTYLE
  5
8269
102
{ACAD_REACTORS
330
8265
102
}
330
8265
100
AcDbVisualStyle
  2
GouraudWithEdges
 70
     3
177
     3
291
     1
 70
    58
 90
        2
176
     1
 90
        2
176
     1
 90
        1
176
     1
 90
        2
176
     1
 40
0.6
176
     1
 40
30.0
176
     1
 62
     7
420
 16777215
176
     1
 90
        1
176
     1
 90
        0
176
     1
 62
     7
176
     1
 62
   257
176
     1
 90
        1
176
     1
 90
        1
176
     1
 40
1.0
176
     1
 90
        0
176
     1
 62
   257
176
     1
 40
1.0
176
     1
 90
        1
176
     1
 90
        6
176
     1
 90
        2
176
     1
 62
     7
176
     1
 90
        5
176
     1
 90
        0
176
     1
 90
        0
176
     1
290
     0
176
     1
 90
       13
176
     1
 40
0.0
176
     1
 90
        0
176
     1
290
     0
176
     1
290
     1
176
     1
290
     1
176
     1
290
     0
176
     1
290
     0
176
     1
290
     0
176
     1
290
     0
176
     1
290
     0
176
     1
290
     0
176
     1
 90
       50
176
     1
 40
0.0
176
     1
 40
1.0
176
     1
 90
        0
176
     1
 62
    18
420
        0
176
     1
 90
       50
176
     1
 90
        3
176
     1
 62
     5
420
      255
176
     1
290
     0
176
     1
 90
       50
176
     1
 90
       50
176
     1
 90
       50
176
     1
290
     0
176
     1
 90
       50
176
     1
 62
   256
176
     0
 40
1.0
176
     0
 90
        2
176
     1
  1
strokes_ogs.tif
176
     1
290
     0
176
     1
 40
1.0
176
     1
 40
1.0
176
     1
1001
ACAD
1000
AcDbSavedByObjectVersion
1070
     0
  0
VISUALSTYLE
  5
826D
102
{ACAD_REACTORS
330
8265
102
}
330
8265
100
AcDbVisualStyle
  2
Hidden
 70
     6
177
     3
291
     0
 70
    58
 90
        1
176
     1
 90
        2
176
     1
 90
        2
176
     1
 90
        0
176
     1
 40
0.6
176
     1
 40
30.0
176
     1
 62
     7
420
 16777215
176
     1
 90
        2
176
     1
 90
        2
176
     1
 62
     7
176
     1
 62
   257
176
     1
 90
        2
176
     1
 90
        1
176
     1
 40
40.0
176
     1
 90
        0
176
     1
 62
   257
176
     1
 40
1.0
176
     1
 90
        1
176
     1
 90
        6
176
     1
 90
        2
176
     1
 62
     7
176
     1
 90
        3
176
     1
 90
        0
176
     1
 90
        0
176
     1
290
     0
176
     1
 90
        1
176
     1
 40
0.0
176
     1
 90
        0
176
     1
290
     0
176
     1
290
     1
176
     1
290
     1
176
     1
290
     0
176
     1
290
     0
176
     1
290
     0
176
     1
290
     0
176
     1
290
     0
176
     1
290
     0
176
     1
 90
       50
176
     1
 40
0.0
176
     1
 40
1.0
176
     1
 90
        0
176
     1
 62
    18
420
        0
176
     1
 90
       50
176
     1
 90
        3
176
     1
 62
     5
420
      255
176
     1
290
     0
176
     1
 90
       50
176
     1
 90
       50
176
     1
 90
       50
176
     1
290
     0
176
     1
 90
       50
176
     1
 62
   256
176
     0
 40
1.0
176
     0
 90
        2
176
     1
  1
strokes_ogs.tif
176
     1
290
     0
176
     1
 40
1.0
176
     1
 40
1.0
176
     1
1001
ACAD
1000
AcDbSavedByObjectVersion
1070
     0
  0
VISUALSTYLE
  5
827B
102
{ACAD_REACTORS
330
8265
102
}
330
8265
100
AcDbVisualStyle
  2
JitterOff
 70
    20
177
     3
291
     1
 70
    58
 90
        2
176
     0
 90
        2
176
     0
 90
        0
176
     0
 90
        0
176
     0
 40
0.6
176
     0
 40
30.0
176
     0
 62
     7
420
 16777215
176
     0
 90
        1
176
     0
 90
        4
176
     0
 62
     7
176
     0
 62
   257
176
     0
 90
        1
176
     0
 90
        1
176
     0
 40
1.0
176
     0
 90
       10
176
     2
 62
     7
176
     0
 40
1.0
176
     0
 90
        1
176
     0
 90
        6
176
     0
 90
        2
176
     0
 62
     7
176
     0
 90
        5
176
     0
 90
        0
176
     0
 90
        0
176
     0
290
     0
176
     0
 90
        1
176
     0
 40
0.0
176
     0
 90
        0
176
     0
290
     0
176
     0
290
     1
176
     0
290
     1
176
     0
290
     0
176
     0
290
     0
176
     0
290
     0
176
     0
290
     0
176
     0
290
     0
176
     0
290
     0
176
     0
 90
       50
176
     0
 40
0.0
176
     0
 40
1.0
176
     0
 90
        0
176
     0
 62
    18
420
        0
176
     0
 90
       50
176
     0
 90
        3
176
     0
 62
     5
420
      255
176
     0
290
     0
176
     0
 90
       50
176
     0
 90
       50
176
     0
 90
       50
176
     0
290
     0
176
     0
 90
       50
176
     0
 62
   256
176
     0
 40
1.0
176
     0
 90
        2
176
     0
  1
strokes_ogs.tif
176
     0
290
     0
176
     0
 40
1.0
176
     0
 40
1.0
176
     0
1001
ACAD
1000
AcDbSavedByObjectVersion
1070
     0
  0
VISUALSTYLE
  5
8273
102
{ACAD_REACTORS
330
8265
102
}
330
8265
100
AcDbVisualStyle
  2
Linepattern
 70
    14
177
     3
291
     1
 70
    58
 90
        2
176
     1
 90
        2
176
     1
 90
        0
176
     1
 90
        0
176
     1
 40
0.6
176
     1
 40
30.0
176
     1
 62
     7
420
 16777215
176
     1
 90
        1
176
     1
 90
        4
176
     1
 62
     7
176
     1
 62
   257
176
     1
 90
        7
176
     1
 90
        7
176
     1
 40
1.0
176
     1
 90
        8
176
     1
 62
     7
176
     1
 40
1.0
176
     1
 90
        1
176
     1
 90
        6
176
     1
 90
        2
176
     1
 62
     7
176
     1
 90
        5
176
     1
 90
        0
176
     1
 90
        0
176
     1
290
     0
176
     1
 90
        1
176
     1
 40
0.0
176
     1
 90
        0
176
     1
290
     0
176
     1
290
     1
176
     1
290
     1
176
     1
290
     0
176
     1
290
     0
176
     1
290
     0
176
     1
290
     0
176
     1
290
     0
176
     1
290
     0
176
     1
 90
       50
176
     1
 40
0.0
176
     1
 40
1.0
176
     1
 90
        0
176
     1
 62
    18
420
        0
176
     1
 90
       50
176
     1
 90
        3
176
     1
 62
     5
420
      255
176
     1
290
     0
176
     1
 90
       50
176
     1
 90
       50
176
     1
 90
       50
176
     1
290
     0
176
     1
 90
       50
176
     1
 62
   256
176
     0
 40
1.0
176
     0
 90
        2
176
     1
  1
strokes_ogs.tif
176
     1
290
     0
176
     1
 40
1.0
176
     1
 40
1.0
176
     1
1001
ACAD
1000
AcDbSavedByObjectVersion
1070
     0
  0
VISUALSTYLE
  5
827C
102
{ACAD_REACTORS
330
8265
102
}
330
8265
100
AcDbVisualStyle
  2
OverhangOff
 70
    21
177
     3
291
     1
 70
    58
 90
        2
176
     0
 90
        2
176
     0
 90
        0
176
     0
 90
        0
176
     0
 40
0.6
176
     0
 40
30.0
176
     0
 62
     7
420
 16777215
176
     0
 90
        1
176
     0
 90
        4
176
     0
 62
     7
176
     0
 62
   257
176
     0
 90
        1
176
     0
 90
        1
176
     0
 40
1.0
176
     0
 90
        9
176
     2
 62
     7
176
     0
 40
1.0
176
     0
 90
        1
176
     0
 90
        6
176
     0
 90
        2
176
     0
 62
     7
176
     0
 90
        5
176
     0
 90
        0
176
     0
 90
        0
176
     0
290
     0
176
     0
 90
        1
176
     0
 40
0.0
176
     0
 90
        0
176
     0
290
     0
176
     0
290
     1
176
     0
290
     1
176
     0
290
     0
176
     0
290
     0
176
     0
290
     0
176
     0
290
     0
176
     0
290
     0
176
     0
290
     0
176
     0
 90
       50
176
     0
 40
0.0
176
     0
 40
1.0
176
     0
 90
        0
176
     0
 62
    18
420
        0
176
     0
 90
       50
176
     0
 90
        3
176
     0
 62
     5
420
      255
176
     0
290
     0
176
     0
 90
       50
176
     0
 90
       50
176
     0
 90
       50
176
     0
290
     0
176
     0
 90
       50
176
     0
 62
   256
176
     0
 40
1.0
176
     0
 90
        2
176
     0
  1
strokes_ogs.tif
176
     0
290
     0
176
     0
 40
1.0
176
     0
 40
1.0
176
     0
1001
ACAD
1000
AcDbSavedByObjectVersion
1070
     0
  0
VISUALSTYLE
  5
826F
102
{ACAD_REACTORS
330
8265
102
}
330
8265
100
AcDbVisualStyle
  2
Realistic
 70
     8
177
     3
291
     0
 70
    58
 90
        2
176
     1
 90
        3
176
     1
 90
        0
176
     1
 90
        2
176
     1
 40
0.6
176
     1
 40
30.0
176
     1
 62
     7
420
 16777215
176
     1
 90
        0
176
     1
 90
        0
176
     1
 62
     7
176
     1
 62
   257
176
     1
 90
        1
176
     1
 90
        1
176
     1
 40
1.0
176
     1
 90
        8
176
     1
 62
   257
176
     1
 40
1.0
176
     1
 90
        1
176
     1
 90
        6
176
     1
 90
        2
176
     1
 62
     7
176
     1
 90
        3
176
     1
 90
        0
176
     1
 90
        0
176
     1
290
     0
176
     1
 90
       13
176
     1
 40
0.0
176
     1
 90
        0
176
     1
290
     0
176
     1
290
     1
176
     1
290
     1
176
     1
290
     0
176
     1
290
     0
176
     1
290
     0
176
     1
290
     0
176
     1
290
     0
176
     1
290
     0
176
     1
 90
       50
176
     1
 40
0.0
176
     1
 40
1.0
176
     1
 90
        0
176
     1
 62
    18
420
        0
176
     1
 90
       50
176
     1
 90
        3
176
     1
 62
     5
420
      255
176
     1
290
     0
176
     1
 90
       50
176
     1
 90
       50
176
     1
 90
       50
176
     1
290
     0
176
     1
 90
       50
176
     1
 62
   256
176
     0
 40
1.0
176
     0
 90
        2
176
     1
  1
strokes_ogs.tif
176
     1
290
     0
176
     1
 40
1.0
176
     1
 40
1.0
176
     1
1001
ACAD
1000
AcDbSavedByObjectVersion
1070
     0
  0
VISUALSTYLE
  5
827A
102
{ACAD_REACTORS
330
8265
102
}
330
8265
100
AcDbVisualStyle
  2
Shaded
 70
    27
177
     3
291
     0
 70
    58
 90
        2
176
     1
 90
        2
176
     1
 90
        1
176
     1
 90
        2
176
     1
 40
0.6
176
     1
 40
30.0
176
     1
 62
     7
420
 16777215
176
     1
 90
        0
176
     1
 90
        4
176
     1
 62
     7
176
     1
 62
   257
176
     1
 90
        1
176
     1
 90
        1
176
     1
 40
1.0
176
     1
 90
        8
176
     1
 62
   257
176
     1
 40
1.0
176
     1
 90
        1
176
     1
 90
        6
176
     1
 90
        2
176
     1
 62
     8
420
  7895160
176
     1
 90
        3
176
     1
 90
        0
176
     1
 90
        0
176
     1
290
     0
176
     1
 90
        5
176
     1
 40
0.0
176
     1
 90
        0
176
     1
290
     0
176
     1
290
     1
176
     1
290
     1
176
     1
290
     0
176
     1
290
     0
176
     1
290
     0
176
     1
290
     0
176
     1
290
     0
176
     1
290
     0
176
     1
 90
       50
176
     1
 40
0.0
176
     1
 40
1.0
176
     1
 90
        0
176
     1
 62
    18
420
        0
176
     1
 90
       50
176
     1
 90
        3
176
     1
 62
     5
420
      255
176
     1
290
     0
176
     1
 90
       50
176
     1
 90
       50
176
     1
 90
       50
176
     1
290
     0
176
     1
 90
       50
176
     1
 62
   256
176
     0
 40
1.0
176
     0
 90
        2
176
     1
  1
strokes_ogs.tif
176
     1
290
     0
176
     1
 40
1.0
176
     1
 40
1.0
176
     1
1001
ACAD
1000
AcDbSavedByObjectVersion
1070
     0
  0
VISUALSTYLE
  5
8279
102
{ACAD_REACTORS
330
8265
102
}
330
8265
100
AcDbVisualStyle
  2
Shaded with edges
 70
    26
177
     3
291
     0
 70
    58
 90
        2
176
     1
 90
        2
176
     1
 90
        1
176
     1
 90
        2
176
     1
 40
0.6
176
     1
 40
30.0
176
     1
 62
     7
420
 16777215
176
     1
 90
        1
176
     1
 90
        2
176
     1
 62
     7
176
     1
 62
   257
176
     1
 90
        2
176
     1
 90
        1
176
     1
 40
1.0
176
     1
 90
        8
176
     1
 62
   257
176
     1
 40
1.0
176
     1
 90
        1
176
     1
 90
        6
176
     1
 90
        2
176
     1
 62
     7
176
     1
 90
        3
176
     1
 90
        0
176
     1
 90
        0
176
     1
290
     0
176
     1
 90
        5
176
     1
 40
0.0
176
     1
 90
        0
176
     1
290
     0
176
     1
290
     1
176
     1
290
     1
176
     1
290
     0
176
     1
290
     0
176
     1
290
     0
176
     1
290
     0
176
     1
290
     0
176
     1
290
     0
176
     1
 90
       50
176
     1
 40
0.0
176
     1
 40
1.0
176
     1
 90
        0
176
     1
 62
    18
420
        0
176
     1
 90
       50
176
     1
 90
        3
176
     1
 62
     5
420
      255
176
     1
290
     0
176
     1
 90
       50
176
     1
 90
       50
176
     1
 90
       50
176
     1
290
     0
176
     1
 90
       50
176
     1
 62
   256
176
     0
 40
1.0
176
     0
 90
        2
176
     1
  1
strokes_ogs.tif
176
     1
290
     0
176
     1
 40
1.0
176
     1
 40
1.0
176
     1
1001
ACAD
1000
AcDbSavedByObjectVersion
1070
     0
  0
VISUALSTYLE
  5
8276
102
{ACAD_REACTORS
330
8265
102
}
330
8265
100
AcDbVisualStyle
  2
Shades of Gray
 70
    23
177
     3
291
     0
 70
    58
 90
        2
176
     1
 90
        2
176
     1
 90
        3
176
     1
 90
        0
176
     1
 40
0.6
176
     1
 40
30.0
176
     1
 62
     7
420
 16777215
176
     1
 90
        2
176
     1
 90
        2
176
     1
 62
     7
176
     1
 62
     7
176
     1
 90
        1
176
     1
 90
        1
176
     1
 40
40.0
176
     1
 90
        8
176
     1
 62
     7
176
     1
 40
1.0
176
     1
 90
        1
176
     1
 90
        6
176
     1
 90
        2
176
     1
 62
     7
176
     1
 90
        3
176
     1
 90
        0
176
     1
 90
        0
176
     1
290
     0
176
     1
 90
        1
176
     1
 40
0.0
176
     1
 90
        0
176
     1
290
     0
176
     1
290
     1
176
     1
290
     1
176
     1
290
     0
176
     1
290
     0
176
     1
290
     0
176
     1
290
     0
176
     1
290
     0
176
     1
290
     0
176
     1
 90
       50
176
     1
 40
0.0
176
     1
 40
1.0
176
     1
 90
        0
176
     1
 62
    18
420
        0
176
     1
 90
       50
176
     1
 90
        3
176
     1
 62
     5
420
      255
176
     1
290
     0
176
     1
 90
       50
176
     1
 90
       50
176
     1
 90
       50
176
     1
290
     0
176
     1
 90
       50
176
     1
 62
   256
176
     0
 40
1.0
176
     0
 90
        2
176
     1
  1
strokes_ogs.tif
176
     1
290
     0
176
     1
 40
1.0
176
     1
 40
1.0
176
     1
1001
ACAD
1000
AcDbSavedByObjectVersion
1070
     0
  0
VISUALSTYLE
  5
8277
102
{ACAD_REACTORS
330
8265
102
}
330
8265
100
AcDbVisualStyle
  2
Sketchy
 70
    24
177
     3
291
     0
 70
    58
 90
        1
176
     1
 90
        2
176
     1
 90
        2
176
     1
 90
        0
176
     1
 40
0.6
176
     1
 40
30.0
176
     1
 62
     7
420
 16777215
176
     1
 90
        2
176
     1
 90
        2
176
     1
 62
     7
176
     1
 62
     7
176
     1
 90
        1
176
     1
 90
        1
176
     1
 40
40.0
176
     1
 90
       11
176
     1
 62
     7
176
     1
 40
1.0
176
     1
 90
        1
176
     1
 90
        6
176
     1
 90
        2
176
     1
 62
     7
176
     1
 90
        6
176
     1
 90
        0
176
     1
 90
        0
176
     1
290
     0
176
     1
 90
        1
176
     1
 40
0.0
176
     1
 90
        0
176
     1
290
     0
176
     1
290
     1
176
     1
290
     1
176
     1
290
     0
176
     1
290
     0
176
     1
290
     0
176
     1
290
     0
176
     1
290
     0
176
     1
290
     0
176
     1
 90
       50
176
     1
 40
0.0
176
     1
 40
1.0
176
     1
 90
        0
176
     1
 62
    18
420
        0
176
     1
 90
       50
176
     1
 90
        3
176
     1
 62
     5
420
      255
176
     1
290
     0
176
     1
 90
       50
176
     1
 90
       50
176
     1
 90
       50
176
     1
290
     0
176
     1
 90
       50
176
     1
 62
   256
176
     0
 40
1.0
176
     0
 90
        2
176
     1
  1
strokes_ogs.tif
176
     1
290
     0
176
     1
 40
1.0
176
     1
 40
1.0
176
     1
1001
ACAD
1000
AcDbSavedByObjectVersion
1070
     0
  0
VISUALSTYLE
  5
8272
102
{ACAD_REACTORS
330
8265
102
}
330
8265
100
AcDbVisualStyle
  2
Thicken
 70
    13
177
     3
291
     1
 70
    58
 90
        2
176
     1
 90
        2
176
     1
 90
        0
176
     1
 90
        0
176
     1
 40
0.6
176
     1
 40
30.0
176
     1
 62
     7
420
 16777215
176
     1
 90
        1
176
     1
 90
        4
176
     1
 62
     7
176
     1
 62
   257
176
     1
 90
        1
176
     1
 90
        1
176
     1
 40
1.0
176
     1
 90
       12
176
     1
 62
     7
176
     1
 40
1.0
176
     1
 90
        1
176
     1
 90
        6
176
     1
 90
        2
176
     1
 62
     7
176
     1
 90
        5
176
     1
 90
        0
176
     1
 90
        0
176
     1
290
     0
176
     1
 90
        1
176
     1
 40
0.0
176
     1
 90
        0
176
     1
290
     0
176
     1
290
     1
176
     1
290
     1
176
     1
290
     0
176
     1
290
     0
176
     1
290
     0
176
     1
290
     0
176
     1
290
     0
176
     1
290
     0
176
     1
 90
       50
176
     1
 40
0.0
176
     1
 40
1.0
176
     1
 90
        0
176
     1
 62
    18
420
        0
176
     1
 90
       50
176
     1
 90
        3
176
     1
 62
     5
420
      255
176
     1
290
     0
176
     1
 90
       50
176
     1
 90
       50
176
     1
 90
       50
176
     1
290
     0
176
     1
 90
       50
176
     1
 62
   256
176
     0
 40
1.0
176
     0
 90
        2
176
     1
  1
strokes_ogs.tif
176
     1
290
     0
176
     1
 40
1.0
176
     1
 40
1.0
176
     1
1001
ACAD
1000
AcDbSavedByObjectVersion
1070
     0
  0
VISUALSTYLE
  5
826C
102
{ACAD_REACTORS
330
8265
102
}
330
8265
100
AcDbVisualStyle
  2
Wireframe
 70
     5
177
     3
291
     0
 70
    58
 90
        0
176
     1
 90
        2
176
     1
 90
        0
176
     1
 90
        0
176
     1
 40
0.6
176
     1
 40
30.0
176
     1
 62
     7
420
 16777215
176
     1
 90
        1
176
     1
 90
        4
176
     1
 62
     7
176
     1
 62
   257
176
     1
 90
        1
176
     1
 90
        1
176
     1
 40
1.0
176
     1
 90
        0
176
     1
 62
   257
176
     1
 40
1.0
176
     1
 90
        1
176
     1
 90
        6
176
     1
 90
        2
176
     1
 62
     7
176
     1
 90
        3
176
     1
 90
        0
176
     1
 90
        0
176
     1
290
     0
176
     1
 90
        1
176
     1
 40
0.0
176
     1
 90
        0
176
     1
290
     0
176
     1
290
     1
176
     1
290
     1
176
     1
290
     0
176
     1
290
     0
176
     1
290
     0
176
     1
290
     0
176
     1
290
     0
176
     1
290
     0
176
     1
 90
       50
176
     1
 40
0.0
176
     1
 40
1.0
176
     1
 90
        0
176
     1
 62
    18
420
        0
176
     1
 90
       50
176
     1
 90
        3
176
     1
 62
     5
420
      255
176
     1
290
     0
176
     1
 90
       50
176
     1
 90
       50
176
     1
 90
       50
176
     1
290
     0
176
     1
 90
       50
176
     1
 62
   256
176
     0
 40
1.0
176
     0
 90
        2
176
     1
  1
strokes_ogs.tif
176
     1
290
     0
176
     1
 40
1.0
176
     1
 40
1.0
176
     1
1001
ACAD
1000
AcDbSavedByObjectVersion
1070
     0
  0
VISUALSTYLE
  5
8278
102
{ACAD_REACTORS
330
8265
102
}
330
8265
100
AcDbVisualStyle
  2
X-Ray
 70
    25
177
     3
291
     0
 70
    58
 90
        2
176
     1
 90
        2
176
     1
 90
        1
176
     1
 90
        1
176
     1
 40
0.5
176
     1
 40
30.0
176
     1
 62
     7
420
 16777215
176
     1
 90
        1
176
     1
 90
        0
176
     1
 62
     7
176
     1
 62
   257
176
     1
 90
        1
176
     1
 90
        1
176
     1
 40
1.0
176
     1
 90
        8
176
     1
 62
     7
176
     1
 40
1.0
176
     1
 90
        1
176
     1
 90
        6
176
     1
 90
        2
176
     1
 62
     7
176
     1
 90
        3
176
     1
 90
        0
176
     1
 90
        0
176
     1
290
     0
176
     1
 90
       13
176
     1
 40
0.0
176
     1
 90
        0
176
     1
290
     0
176
     1
290
     1
176
     1
290
     1
176
     1
290
     0
176
     1
290
     0
176
     1
290
     0
176
     1
290
     0
176
     1
290
     0
176
     1
290
     0
176
     1
 90
       50
176
     1
 40
0.0
176
     1
 40
1.0
176
     1
 90
        0
176
     1
 62
    18
420
        0
176
     1
 90
       50
176
     1
 90
        3
176
     1
 62
     5
420
      255
176
     1
290
     0
176
     1
 90
       50
176
     1
 90
       50
176
     1
 90
       50
176
     1
290
     0
176
     1
 90
       50
176
     1
 62
   256
176
     0
 40
1.0
176
     0
 90
        2
176
     1
  1
strokes_ogs.tif
176
     1
290
     0
176
     1
 40
1.0
176
     1
 40
1.0
176
     1
1001
ACAD
1000
AcDbSavedByObjectVersion
1070
     0
  0
DICTIONARYVAR
  5
82E7
102
{ACAD_REACTORS
330
8242
102
}
330
8242
100
DictionaryVariables
280
     0
  1
1:1
  0
DICTIONARYVAR
  5
82E3
102
{ACAD_REACTORS
330
8242
102
}
330
8242
100
DictionaryVariables
280
     0
  1
STANDARD
  0
DICTIONARYVAR
  5
82E2
102
{ACAD_REACTORS
330
8242
102
}
330
8242
100
DictionaryVariables
280
     0
  1
STANDARD
  0
DICTIONARYVAR
  5
82E4
102
{ACAD_REACTORS
330
8242
102
}
330
8242
100
DictionaryVariables
280
     0
  1
Metric50
  0
DICTIONARYVAR
  5
82E5
102
{ACAD_REACTORS
330
8242
102
}
330
8242
100
DictionaryVariables
280
     0
  1
Metric50
  0
DICTIONARYVAR
  5
8243
102
{ACAD_REACTORS
330
8242
102
}
330
8242
100
DictionaryVariables
280
     0
  1
1
  0
DICTIONARYVAR
  5
82E9
102
{ACAD_REACTORS
330
8242
102
}
330
8242
100
DictionaryVariables
280
     0
  1
1
  0
DICTIONARYVAR
  5
82EA
102
{ACAD_REACTORS
330
8242
102
}
330
8242
100
DictionaryVariables
280
     0
  1
15
  0
DICTIONARYVAR
  5
82E8
102
{ACAD_REACTORS
330
8242
102
}
330
8242
100
DictionaryVariables
280
     0
  1
0
  0
DICTIONARYVAR
  5
82EF
102
{ACAD_REACTORS
330
8242
102
}
330
8242
100
DictionaryVariables
280
     0
  1
0
  0
DICTIONARYVAR
  5
82E6
102
{ACAD_REACTORS
330
8242
102
}
330
8242
100
DictionaryVariables
280
     0
  1
0
  0
DICTIONARY
  5
82FA
102
{ACAD_REACTORS
330
82F8
102
}
330
82F8
100
AcDbDictionary
281
     1
  0
DICTIONARY
  5
82F9
102
{ACAD_REACTORS
330
82F8
102
}
330
82F8
100
AcDbDictionary
281
     1
  3
2049354021552
350
82F3
  3
2049354021568
350
82F4
  3
2049354021584
350
82F5
  3
2049354021600
350
82F6
  3
2049354021616
350
82F7
  0
DICTIONARY
  5
82FD
330
8298
100
AcDbDictionary
280
     1
281
     1
  3
ACAD_XREC_ROUNDTRIP
360
82FE
  0
DICTIONARY
  5
8256
330
8255
100
AcDbDictionary
280
     1
281
     1
  3
BUMPTILE
360
8258
  3
DIFFUSETILE
360
8257
  3
OPACITYTILE
360
825B
  3
REFLECTIONTILE
360
825A
  3
REFRACTIONTILE
360
825C
  3
SPECULARTILE
360
8259
  0
DICTIONARY
  5
824E
330
824D
100
AcDbDictionary
280
     1
281
     1
  3
BUMPTILE
360
8250
  3
DIFFUSETILE
360
824F
  3
OPACITYTILE
360
8253
  3
REFLECTIONTILE
360
8252
  3
REFRACTIONTILE
360
8254
  3
SPECULARTILE
360
8251
  0
DICTIONARY
  5
825E
330
825D
100
AcDbDictionary
280
     1
281
     1
  3
BUMPTILE
360
8260
  3
DIFFUSETILE
360
825F
  3
OPACITYTILE
360
8263
  3
REFLECTIONTILE
360
8262
  3
REFRACTIONTILE
360
8264
  3
SPECULARTILE
360
8261
  0
DICTIONARY
  5
82FB
330
8296
100
AcDbDictionary
280
     1
281
     1
  3
ACAD_XREC_ROUNDTRIP
360
82FC
  0
DICTIONARY
  5
82F0
330
8280
100
AcDbDictionary
280
     1
281
     1
  3
ACAD_ROUNDTRIP_2008_TABLESTYLE_CELLSTYLEMAP
360
82F1
  0
XRECORD
  5
82F3
102
{ACAD_REACTORS
330
82F9
102
}
330
82F9
100
AcDbXrecord
280
     1
  1
AcDb_Thumbnail_Schema
102
{ATTRRECORD
341
82F4
  2
AcDbDs::TreatedAsObjectData
280
     1
291
     1
102
ATTRRECORD}
102
{ATTRRECORD
341
82F5
  2
AcDbDs::Legacy
280
     1
291
     1
102
ATTRRECORD}
  2
AcDbDs::ID
280
    10
 91
        8
102
{ATTRRECORD
341
82F6
  2
AcDs:Indexable
280
     1
291
     1
102
ATTRRECORD}
102
{ATTRRECORD
341
82F7
  2
AcDbDs::HandleAttribute
280
     7
282
     1
102
ATTRRECORD}
  2
Thumbnail_Data
280
    15
 91
        0
  0
XRECORD
  5
82F4
102
{ACAD_REACTORS
330
82F9
102
}
330
82F9
100
AcDbXrecord
280
     1
  1
AcDbDs::TreatedAsObjectDataSchema
  2
AcDbDs::TreatedAsObjectData
280
     1
 91
        0
  0
XRECORD
  5
82F5
102
{ACAD_REACTORS
330
82F9
102
}
330
82F9
100
AcDbXrecord
280
     1
  1
AcDbDs::LegacySchema
  2
AcDbDs::Legacy
280
     1
 91
        0
  0
XRECORD
  5
82F6
102
{ACAD_REACTORS
330
82F9
102
}
330
82F9
100
AcDbXrecord
280
     1
  1
AcDbDs::IndexedPropertySchema
  2
AcDs:Indexable
280
     1
 91
        0
  0
XRECORD
  5
82F7
102
{ACAD_REACTORS
330
82F9
102
}
330
82F9
100
AcDbXrecord
280
     1
  1
AcDbDs::HandleAttributeSchema
  2
AcDbDs::HandleAttribute
280
     7
 91
        1
284
     1
  0
XRECORD
  5
82FE
102
{ACAD_REACTORS
330
82FD
102
}
330
82FD
100
AcDbXrecord
280
     1
102
DISPLAYNAME
  1
Metric50
102
FLAGS
 90
        0
  0
XRECORD
  5
8258
102
{ACAD_REACTORS
330
8256
102
}
330
8256
100
AcDbXrecord
280
     1
270
     1
271
     1
  0
XRECORD
  5
8257
102
{ACAD_REACTORS
330
8256
102
}
330
8256
100
AcDbXrecord
280
     1
270
     1
271
     1
  0
XRECORD
  5
825B
102
{ACAD_REACTORS
330
8256
102
}
330
8256
100
AcDbXrecord
280
     1
270
     1
271
     1
  0
XRECORD
  5
825A
102
{ACAD_REACTORS
330
8256
102
}
330
8256
100
AcDbXrecord
280
     1
270
     1
271
     1
  0
XRECORD
  5
825C
102
{ACAD_REACTORS
330
8256
102
}
330
8256
100
AcDbXrecord
280
     1
270
     1
271
     1
  0
XRECORD
  5
8259
102
{ACAD_REACTORS
330
8256
102
}
330
8256
100
AcDbXrecord
280
     1
270
     1
271
     1
  0
XRECORD
  5
8250
102
{ACAD_REACTORS
330
824E
102
}
330
824E
100
AcDbXrecord
280
     1
270
     1
271
     1
  0
XRECORD
  5
824F
102
{ACAD_REACTORS
330
824E
102
}
330
824E
100
AcDbXrecord
280
     1
270
     1
271
     1
  0
XRECORD
  5
8253
102
{ACAD_REACTORS
330
824E
102
}
330
824E
100
AcDbXrecord
280
     1
270
     1
271
     1
  0
XRECORD
  5
8252
102
{ACAD_REACTORS
330
824E
102
}
330
824E
100
AcDbXrecord
280
     1
270
     1
271
     1
  0
XRECORD
  5
8254
102
{ACAD_REACTORS
330
824E
102
}
330
824E
100
AcDbXrecord
280
     1
270
     1
271
     1
  0
XRECORD
  5
8251
102
{ACAD_REACTORS
330
824E
102
}
330
824E
100
AcDbXrecord
280
     1
270
     1
271
     1
  0
XRECORD
  5
8260
102
{ACAD_REACTORS
330
825E
102
}
330
825E
100
AcDbXrecord
280
     1
270
     1
271
     1
  0
XRECORD
  5
825F
102
{ACAD_REACTORS
330
825E
102
}
330
825E
100
AcDbXrecord
280
     1
270
     1
271
     1
  0
XRECORD
  5
8263
102
{ACAD_REACTORS
330
825E
102
}
330
825E
100
AcDbXrecord
280
     1
270
     1
271
     1
  0
XRECORD
  5
8262
102
{ACAD_REACTORS
330
825E
102
}
330
825E
100
AcDbXrecord
280
     1
270
     1
271
     1
  0
XRECORD
  5
8264
102
{ACAD_REACTORS
330
825E
102
}
330
825E
100
AcDbXrecord
280
     1
270
     1
271
     1
  0
XRECORD
  5
8261
102
{ACAD_REACTORS
330
825E
102
}
330
825E
100
AcDbXrecord
280
     1
270
     1
271
     1
  0
XRECORD
  5
82FC
102
{ACAD_REACTORS
330
82FB
102
}
330
82FB
100
AcDbXrecord
280
     1
102
DISPLAYNAME
  1
Metric50
102
FLAGS
 90
        0
  0
CELLSTYLEMAP
  5
82F1
102
{ACAD_REACTORS
330
82F0
102
}
330
82F0
100
AcDbCellStyleMap
 90
        3
300
CELLSTYLE
  1
TABLEFORMAT_BEGIN
 90
        5
170
     1
 91
        0
 92
    32768
 62
   257
 93
        1
300
CONTENTFORMAT
  1
CONTENTFORMAT_BEGIN
 90
        0
 91
        0
 92
      512
 93
        0
300

 40
0.0
140
1.0
 94
        5
 62
     0
340
10
144
6.0
309
CONTENTFORMAT_END
171
     1
301
MARGIN
  1
CELLMARGIN_BEGIN
 40
1.5
 40
1.5
 40
1.5
 40
1.5
 40
4.5
 40
4.5
309
CELLMARGIN_END
 94
        6
 95
        1
302
GRIDFORMAT
  1
GRIDFORMAT_BEGIN
 90
        0
 91
        1
 62
     0
 92
       -2
340
0
 93
        0
 40
1.125
309
GRIDFORMAT_END
 95
        2
302
GRIDFORMAT
  1
GRIDFORMAT_BEGIN
 90
        0
 91
        1
 62
     0
 92
       -2
340
0
 93
        0
 40
1.125
309
GRIDFORMAT_END
 95
        4
302
GRIDFORMAT
  1
GRIDFORMAT_BEGIN
 90
        0
 91
        1
 62
     0
 92
       -2
340
0
 93
        0
 40
1.125
309
GRIDFORMAT_END
 95
        8
302
GRIDFORMAT
  1
GRIDFORMAT_BEGIN
 90
        0
 91
        1
 62
     0
 92
       -2
340
0
 93
        0
 40
1.125
309
GRIDFORMAT_END
 95
       16
302
GRIDFORMAT
  1
GRIDFORMAT_BEGIN
 90
        0
 91
        1
 62
     0
 92
       -2
340
0
 93
        0
 40
1.125
309
GRIDFORMAT_END
 95
       32
302
GRIDFORMAT
  1
GRIDFORMAT_BEGIN
 90
        0
 91
        1
 62
     0
 92
       -2
340
0
 93
        0
 40
1.125
309
GRIDFORMAT_END
309
TABLEFORMAT_END
  1
CELLSTYLE_BEGIN
 90
        1
 91
        1
300
_TITLE
309
CELLSTYLE_END
300
CELLSTYLE
  1
TABLEFORMAT_BEGIN
 90
        5
170
     1
 91
        0
 92
        0
 62
   257
 93
        1
300
CONTENTFORMAT
  1
CONTENTFORMAT_BEGIN
 90
        0
 91
        0
 92
      512
 93
        0
300

 40
0.0
140
1.0
 94
        5
 62
     0
340
10
144
4.5
309
CONTENTFORMAT_END
171
     1
301
MARGIN
  1
CELLMARGIN_BEGIN
 40
1.5
 40
1.5
 40
1.5
 40
1.5
 40
4.5
 40
4.5
309
CELLMARGIN_END
 94
        6
 95
        1
302
GRIDFORMAT
  1
GRIDFORMAT_BEGIN
 90
        0
 91
        1
 62
     0
 92
       -2
340
0
 93
        0
 40
1.125
309
GRIDFORMAT_END
 95
        2
302
GRIDFORMAT
  1
GRIDFORMAT_BEGIN
 90
        0
 91
        1
 62
     0
 92
       -2
340
0
 93
        0
 40
1.125
309
GRIDFORMAT_END
 95
        4
302
GRIDFORMAT
  1
GRIDFORMAT_BEGIN
 90
        0
 91
        1
 62
     0
 92
       -2
340
0
 93
        0
 40
1.125
309
GRIDFORMAT_END
 95
        8
302
GRIDFORMAT
  1
GRIDFORMAT_BEGIN
 90
        0
 91
        1
 62
     0
 92
       -2
340
0
 93
        0
 40
1.125
309
GRIDFORMAT_END
 95
       16
302
GRIDFORMAT
  1
GRIDFORMAT_BEGIN
 90
        0
 91
        1
 62
     0
 92
       -2
340
0
 93
        0
 40
1.125
309
GRIDFORMAT_END
 95
       32
302
GRIDFORMAT
  1
GRIDFORMAT_BEGIN
 90
        0
 91
        1
 62
     0
 92
       -2
340
0
 93
        0
 40
1.125
309
GRIDFORMAT_END
309
TABLEFORMAT_END
  1
CELLSTYLE_BEGIN
 90
        2
 91
        1
300
_HEADER
309
CELLSTYLE_END
300
CELLSTYLE
  1
TABLEFORMAT_BEGIN
 90
        5
170
     1
 91
        0
 92
        0
 62
   257
 93
        1
300
CONTENTFORMAT
  1
CONTENTFORMAT_BEGIN
 90
        0
 91
        0
 92
      512
 93
        0
300

 40
0.0
140
1.0
 94
        2
 62
     0
340
10
144
4.5
309
CONTENTFORMAT_END
171
     1
301
MARGIN
  1
CELLMARGIN_BEGIN
 40
1.5
 40
1.5
 40
1.5
 40
1.5
 40
4.5
 40
4.5
309
CELLMARGIN_END
 94
        6
 95
        1
302
GRIDFORMAT
  1
GRIDFORMAT_BEGIN
 90
        0
 91
        1
 62
     0
 92
       -2
340
0
 93
        0
 40
1.125
309
GRIDFORMAT_END
 95
        2
302
GRIDFORMAT
  1
GRIDFORMAT_BEGIN
 90
        0
 91
        1
 62
     0
 92
       -2
340
0
 93
        0
 40
1.125
309
GRIDFORMAT_END
 95
        4
302
GRIDFORMAT
  1
GRIDFORMAT_BEGIN
 90
        0
 91
        1
 62
     0
 92
       -2
340
0
 93
        0
 40
1.125
309
GRIDFORMAT_END
 95
        8
302
GRIDFORMAT
  1
GRIDFORMAT_BEGIN
 90
        0
 91
        1
 62
     0
 92
       -2
340
0
 93
        0
 40
1.125
309
GRIDFORMAT_END
 95
       16
302
GRIDFORMAT
  1
GRIDFORMAT_BEGIN
 90
        0
 91
        1
 62
     0
 92
       -2
340
0
 93
        0
 40
1.125
309
GRIDFORMAT_END
 95
       32
302
GRIDFORMAT
  1
GRIDFORMAT_BEGIN
 90
        0
 91
        1
 62
     0
 92
       -2
340
0
 93
        0
 40
1.125
309
GRIDFORMAT_END
309
TABLEFORMAT_END
  1
CELLSTYLE_BEGIN
 90
        3
 91
        2
300
_DATA
309
CELLSTYLE_END
  0
ENDSEC
  0
SECTION
  2
ACDSDATA
 70
     2
 71
     8
  0
ACDSSCHEMA
 90
        0
  1
AcDb_Thumbnail_Schema
  2
AcDbDs::ID
280
    10
 91
        8
  2
Thumbnail_Data
280
    15
 91
        0
101
ACDSRECORD
 95
        0
 90
        1
  2
AcDbDs::TreatedAsObjectData
280
     1
291
     1
101
ACDSRECORD
 95
        0
 90
        2
  2
AcDbDs::Legacy
280
     1
291
     1
101
ACDSRECORD
  1
AcDbDs::ID
 90
        3
  2
AcDs:Indexable
280
     1
291
     1
101
ACDSRECORD
  1
AcDbDs::ID
 90
        4
  2
AcDbDs::HandleAttribute
280
     7
282
     1
  0
ACDSSCHEMA
 90
        1
  1
AcDbDs::TreatedAsObjectDataSchema
  2
AcDbDs::TreatedAsObjectData
280
     1
 91
        0
  0
ACDSSCHEMA
 90
        2
  1
AcDbDs::LegacySchema
  2
AcDbDs::Legacy
280
     1
 91
        0
  0
ACDSSCHEMA
 90
        3
  1
AcDbDs::IndexedPropertySchema
  2
AcDs:Indexable
280
     1
 91
        0
  0
ACDSSCHEMA
 90
        4
  1
AcDbDs::HandleAttributeSchema
  2
AcDbDs::HandleAttribute
280
     7
 91
        1
284
     1
  0
ACDSRECORD
 90
        0
  2
AcDbDs::ID
280
    10
320
8180
  2
Thumbnail_Data
280
    15
 94
     1712
310
89504E470D0A1A0A0000000D49484452000001000000007C0803000000B13B9E5A00000300504C5445000000000000C8C8C80000000000000000000000000000000000000000000000000000330000660000990000CC0000FF0033000033330033660033990033CC0033FF0066000066330066660066990066CC0066FF0099
310
000099330099660099990099CC0099FF00CC0000CC3300CC6600CC9900CCCC00CCFF00FF0000FF3300FF6600FF9900FFCC00FFFF3300003300333300663300993300CC3300FF3333003333333333663333993333CC3333FF3366003366333366663366993366CC3366FF3399003399333399663399993399CC3399FF33CC00
310
33CC3333CC6633CC9933CCCC33CCFF33FF0033FF3333FF6633FF9933FFCC33FFFF6600006600336600666600996600CC6600FF6633006633336633666633996633CC6633FF6666006666336666666666996666CC6666FF6699006699336699666699996699CC6699FF66CC0066CC3366CC6666CC9966CCCC66CCFF66FF0066
310
FF3366FF6666FF9966FFCC66FFFF9900009900339900669900999900CC9900FF9933009933339933669933999933CC9933FF9966009966339966669966999966CC9966FF9999009999339999669999999999CC9999FF99CC0099CC3399CC6699CC9999CCCC99CCFF99FF0099FF3399FF6699FF9999FFCC99FFFFCC0000CC00
310
33CC0066CC0099CC00CCCC00FFCC3300CC3333CC3366CC3399CC33CCCC33FFCC6600CC6633CC6666CC6699CC66CCCC66FFCC9900CC9933CC9966CC9999CC99CCCC99FFCCCC00CCCC33CCCC66CCCC99CCCCCCCCCCFFCCFF00CCFF33CCFF66CCFF99CCFFCCCCFFFFFF0000FF0033FF0066FF0099FF00CCFF00FFFF3300FF3333
310
FF3366FF3399FF33CCFF33FFFF6600FF6633FF6666FF6699FF66CCFF66FFFF9900FF9933FF9966FF9999FF99CCFF99FFFFCC00FFCC33FFCC66FFCC99FFCCCCFFCCFFFFFF00FFFF33FFFF66FFFF99FFFFCCFFFFFF0000000D0D0D1A1A1A2828283535354343435050505D5D5D6B6B6B787878868686939393A1A1A1AEAEAEBB
310
BBBBC9C9C9D6D6D6E4E4E4F1F1F1FFFFFF00000000000000000000000000000000000000000000000000000000000008F1915C0000036B4944415478DAED9D5B6EC4200C45BD1C7EBCFFCDB00DFEDB040C864032953AA3C1BEA8554343A2F1C198CBA394E80D29BD29D12E296DF55A00000000000000F89E4F7AD3F9790130
310
3C9E5C7A807B00C93380A115EC0DE05F47005B02F8B29701C0E70114375E7877FE9287C4DF9BE7B7DB3B032818A8994D252B212FA52200925CAA272D78C0CA01C403B2C5CD03F40D234D40345ED726EE4D4B0882D0011E0743CF6D623F00D3E097A4071CDCE58C13A50F30331FB000A028A871600B95563D8052933A4915D6
310
E6932D0FF8A7E731270800BB0288479A661C008837C90780E9E534EF0640700B80FBF4D766B037009EA5BF79C1E600DAAFA4091000000000000000008013006192D895109A7980790087D66DAACF25805AF34E011000701E06F9EC056206F06B3100000000B89C10510054124DE006C0A2F24F2A1E84906F00A7140E73065E
310
6685E700C8E1BA000D0B6200E00380F7C5D1EF7F2D0000000000C0873EE973ECD7DDC3A5B4391D3011021601BC2C041E4B19F180763978C02A67044014ABD5E51A80AE792B009E9BC0AA981D0F182F67002417D4A48A25007522E45ACB51EE8FF3268600E4E9D04065ADB406446A002E1E6009008B1350372118C90900563E
310
AE5645E23D8016074D00384C0FF927BF0680A3BC647700627FB6EDF0025F0058EC3B268933810140B78A6E1340FE0ED21A7A00BC02602606E475B2EC01DC00900B0021CE76C905914147A970AE9F4CF7D259F18052F365BB409684BF378A85CCEB15340300B849A09055C0D9110E00A8EEA70B9D743601A02E0AB344C3530B
310
0D1E203D61106C660064B7A7BA5F42C4A0062064AA58E834F3F67F3324C3216E3DE21480C845AED2C100806AFF11E8AB6D752CDC0320BDADC60480621BB7ED22740FA005431383A1403AF80D1A6701205CF7D86E0B4082BFD4EA1A40ADF7A109EC0D806B03E0EB38E70C81A314BE04C1DD0104BD2F6CDC291A652C7048E130
310
EF06F7F700BD377205403C6014423600D4BCEE06440AEB187095C2BB0358EF1364190AC6E594389B04103BFBDBEA4F9C156A93C21696C6DA04C8756950AD8DE58C9A2AF009808C00787D9FE05329EC11020000000000000000D81B80FB53656F2C4BF3AC0B00EA84D5A44EE31E0E97B5018026FF3A4D1D279BEA79AAEA8055
310
C400FB1ED09DACBF7A99E518E012C0A25D38F2009C2E0F290C00000000000000006010C046FF7AFB0795114F32ECEA486C0000000049454E44AE426082
  0
ENDSEC
  0
EOF
