  0
SECTION
  2
HEADER
  9
$ACADVER
  1
AC1009
  9
$INSBASE
 10
0.0
 20
0.0
 30
0.0
  9
$EXTMIN
 10
0.0
 20
0.0
 30
0.0
  9
$EXTMAX
 10
10500.0
 20
14750.0
 30
0.0
  9
$LIMMIN
 10
0.0
 20
0.0
  9
$LIMMAX
 10
297.0
 20
210.0
  9
$ORTHOMODE
 70
     0
  9
$REGENMODE
 70
     1
  9
$FILLMODE
 70
     0
  9
$QTEXTMODE
 70
     0
  9
$MIRRTEXT
 70
     1
  9
$DRAGMODE
 70
     2
  9
$LTSCALE
 40
100.0
  9
$OSMODE
 70
    37
  9
$ATTMODE
 70
     1
  9
$TEXTSIZE
 40
180.0
  9
$TRACEWID
 40
0.05
  9
$TEXTSTYLE
  7
STANDARD
  9
$CLAYER
  8
3
  9
$CELTYPE
  6
BYLAYER
  9
$CECOLOR
 62
   256
  9
$DIMSCALE
 40
50.0
  9
$DIMASZ
 40
2.0
  9
$DIMEXO
 40
0.5
  9
$DIMDLI
 40
10.0
  9
$DIMRND
 40
0.0
  9
$DIMDLE
 40
0.0
  9
$DIMEXE
 40
1.0
  9
$DIMTP
 40
1.0
  9
$DIMTM
 40
1.0
  9
$DIMTXT
 40
3.0
  9
$DIMCEN
 40
0.0
  9
$DIMTSZ
 40
0.0
  9
$DIMTOL
 70
     0
  9
$DIMLIM
 70
     0
  9
$DIMTIH
 70
     0
  9
$DIMTOH
 70
     0
  9
$DIMSE1
 70
     0
  9
$DIMSE2
 70
     0
  9
$DIMTAD
 70
     1
  9
$DIMZIN
 70
     8
  9
$DIMBLK
  1

  9
$DIMASO
 70
     1
  9
$DIMSHO
 70
     1
  9
$DIMPOST
  1

  9
$DIMAPOST
  1

  9
$DIMALT
 70
     0
  9
$DIMALTD
 70
     2
  9
$DIMALTF
 40
0.039
  9
$DIMLFAC
 40
1.0
  9
$DIMTOFL
 70
     1
  9
$DIMTVP
 40
0.0
  9
$DIMTIX
 70
     0
  9
$DIMSOXD
 70
     0
  9
$DIMSAH
 70
     1
  9
$DIMBLK1
  1
OPEN
  9
$DIMBLK2
  1
OPEN
  9
$DIMSTYLE
  2
IGA
  9
$DIMCLRD
 70
     0
  9
$DIMCLRE
 70
     0
  9
$DIMCLRT
 70
     0
  9
$DIMTFAC
 40
10.0
  9
$DIMGAP
 40
1.0
  9
$LUNITS
 70
     2
  9
$LUPREC
 70
     3
  9
$SKETCHINC
 40
0.1
  9
$FILLETRAD
 40
50.0
  9
$AUNITS
 70
     0
  9
$AUPREC
 70
     0
  9
$MENU
  1
acad
  9
$ELEVATION
 40
0.0
  9
$PELEVATION
 40
0.0
  9
$THICKNESS
 40
0.0
  9
$LIMCHECK
 70
     0
  9
$BLIPMODE
 70
     0
  9
$CHAMFERA
 40
0.5
  9
$CHAMFERB
 40
0.5
  9
$SKPOLY
 70
     0
  9
$TDCREATE
 40
2451408.5501913191
  9
$TDUPDATE
 40
2454953.6626730668
  9
$TDINDWG
 40
0.0191194676
  9
$TDUSRTIMER
 40
0.0191194676
  9
$USRTIMER
 70
     1
  9
$ANGBASE
 50
0.0
  9
$ANGDIR
 70
     0
  9
$PDMODE
 70
     0
  9
$PDSIZE
 40
0.0
  9
$PLINEWID
 40
0.0
  9
$COORDS
 70
     1
  9
$SPLFRAME
 70
     0
  9
$SPLINETYPE
 70
     6
  9
$SPLINESEGS
 70
     8
  9
$ATTDIA
 70
     0
  9
$ATTREQ
 70
     1
  9
$HANDLING
 70
 10241
  9
$HANDSEED
  5
8339
  9
$SURFTAB1
 70
     6
  9
$SURFTAB2
 70
     6
  9
$SURFTYPE
 70
     6
  9
$SURFU
 70
     6
  9
$SURFV
 70
     6
  9
$UCSNAME
  2

  9
$UCSORG
 10
0.0
 20
0.0
 30
0.0
  9
$UCSXDIR
 10
1.0
 20
0.0
 30
0.0
  9
$UCSYDIR
 10
0.0
 20
1.0
 30
0.0
  9
$PUCSNAME
  2

  9
$PUCSORG
 10
0.0
 20
0.0
 30
0.0
  9
$PUCSXDIR
 10
1.0
 20
0.0
 30
0.0
  9
$PUCSYDIR
 10
0.0
 20
1.0
 30
0.0
  9
$USERI1
 70
     0
  9
$USERI2
 70
     0
  9
$USERI3
 70
     0
  9
$USERI4
 70
     0
  9
$USERI5
 70
     0
  9
$USERR1
 40
0.0
  9
$USERR2
 40
0.0
  9
$USERR3
 40
0.0
  9
$USERR4
 40
0.0
  9
$USERR5
 40
0.0
  9
$WORLDVIEW
 70
     1
  9
$SHADEDGE
 70
     3
  9
$SHADEDIF
 70
    70
  9
$TILEMODE
 70
     1
  9
$MAXACTVP
 70
    16
  9
$PLIMCHECK
 70
     0
  9
$PEXTMIN
 10
1.0000000000000000E+020
 20
1.0000000000000000E+020
 30
1.0000000000000000E+020
  9
$PEXTMAX
 10
-1.0000000000000000E+020
 20
-1.0000000000000000E+020
 30
-1.0000000000000000E+020
  9
$PLIMMIN
 10
0.0
 20
0.0
  9
$PLIMMAX
 10
12.0
 20
9.0
  9
$UNITMODE
 70
     0
  9
$VISRETAIN
 70
     0
  9
$PLINEGEN
 70
     0
  9
$PSLTSCALE
 70
     1
  0
ENDSEC
  0
SECTION
  2
TABLES
  0
TABLE
  2
VPORT
 70
     2
  0
VPORT
  2
*ACTIVE
 70
     0
 10
0.0
 20
0.0
 11
1.0
 21
1.0
 12
23752.160816728901
 22
7223.4836609869299
 13
0.0
 23
0.0
 14
10.0
 24
10.0
 15
10.0
 25
10.0
 16
0.0
 26
0.0
 36
1.0
 17
0.0
 27
0.0
 37
0.0
 40
18791.929380994228
 41
3.1666666666666661
 42
50.0
 43
0.0
 44
0.0
 50
0.0
 51
0.0
 71
     0
 72
   100
 73
     1
 74
     0
 75
     0
 76
     0
 77
     0
 78
     0
  0
ENDTAB
  0
TABLE
  2
LTYPE
 70
     2
  0
LTYPE
  2
CONTINUOUS
 70
     0
  3
Solid line
 72
    65
 73
     0
 40
0.0
  0
LTYPE
  2
CENTER
 70
     0
  3
____ _ ____ _ ____ _ ____ _ ____ _ ____ _ ____ 
 72
    65
 73
     4
 40
2.0
 49
1.25
 49
-0.25
 49
0.25
 49
-0.25
  0
ENDTAB
  0
TABLE
  2
LAYER
 70
     6
  0
LAYER
  2
0
 70
     0
 62
     7
  6
CONTINUOUS
  0
LAYER
  2
3
 70
     0
 62
     2
  6
CONTINUOUS
  0
LAYER
  2
2
 70
     0
 62
     3
  6
CENTER
  0
LAYER
  2
1
 70
     0
 62
     4
  6
CONTINUOUS
  0
LAYER
  2
4
 70
     0
 62
     7
  6
CONTINUOUS
  0
LAYER
  2
DEFPOINTS
 70
     0
 62
     7
  6
CONTINUOUS
  0
ENDTAB
  0
TABLE
  2
STYLE
 70
     1
  0
STYLE
  2
STANDARD
 70
     0
 40
0.0
 41
1.0
 50
0.0
 71
     0
 42
180.0
  3
simplex.shx
  4
extfont.shx
  0
ENDTAB
  0
TABLE
  2
VIEW
 70
     0
  0
ENDTAB
  0
TABLE
  2
UCS
 70
     0
  0
ENDTAB
  0
TABLE
  2
APPID
 70
     1
  0
APPID
  2
ACAD
 70
     0
  0
ENDTAB
  0
TABLE
  2
DIMSTYLE
 70
     1
  0
DIMSTYLE
  2
IGA
 70
     0
  3

  4

  5

  6
OPEN
  7
OPEN
 40
2.0
 41
2.0
 42
0.5
 43
10.0
 44
1.0
 45
0.0
 46
0.0
 47
1.0
 48
1.0
140
3.0
141
0.0
142
0.0
143
0.03937
144
1.0
145
0.0
146
10.0
147
1.0
 71
     0
 72
     0
 73
     0
 74
     0
 75
     0
 76
     0
 77
     1
 78
     8
170
     0
171
     2
172
     0
173
     1
174
     0
175
     0
176
     0
177
     0
178
     0
  0
ENDTAB
  0
ENDSEC
  0
SECTION
  2
BLOCKS
  0
BLOCK
  8
0
  2
$MODEL_SPACE
 70
     0
 10
0.0
 20
0.0
 30
0.0
  3
$MODEL_SPACE
  1

  0
ENDBLK
  5
1B
  8
0
  0
BLOCK
 67
     1
  8
0
  2
$PAPER_SPACE
 70
     0
 10
0.0
 20
0.0
 30
0.0
  3
$PAPER_SPACE
  1

  0
ENDBLK
  5
18
 67
     1
  8
0
  0
BLOCK
  8
0
  2
_OPEN
 70
     0
 10
0.0
 20
0.0
 30
0.0
  3
_OPEN
  1

  0
LINE
  5
79FD
  8
0
  6
BYBLOCK
 62
     0
 10
-1.0
 20
0.1666666666666666
 30
0.0
 11
0.0
 21
0.0
 31
0.0
  0
LINE
  5
79FE
  8
0
  6
BYBLOCK
 62
     0
 10
0.0
 20
0.0
 30
0.0
 11
-1.0
 21
-0.1666666666666666
 31
0.0
  0
LINE
  5
79FF
  8
0
  6
BYBLOCK
 62
     0
 10
0.0
 20
0.0
 30
0.0
 11
-1.0
 21
0.0
 31
0.0
  0
ENDBLK
  5
7A01
  8
0
  0
BLOCK
  8
0
  2
YA_N
 70
     0
 10
0.0
 20
0.0
 30
0.0
  3
YA_N
  1

  0
ENDBLK
  5
7A0C
  8
0
  0
BLOCK
  8
0
  2
*D2
 70
     1
 10
0.0
 20
0.0
 30
0.0
  3
*D2
  1

  0
LINE
  5
826E
  8
3
 62
     0
 10
8121.2308159442791
 20
7166.2876129198703
 30
0.0
 11
8121.2308159442791
 21
7493.6338922271689
 31
0.0
  0
LINE
  5
826F
  8
3
 62
     0
 10
7061.2308159442809
 20
7166.2876129198703
 30
0.0
 11
7061.2308159442809
 21
7493.6338922271689
 31
0.0
  0
LINE
  5
8270
  8
3
 62
     0
 10
8021.23081594428
 20
7443.633892227168
 30
0.0
 11
7161.23081594428
 21
7443.633892227168
 31
0.0
  0
INSERT
  5
8271
  8
3
 62
     0
  2
_OPEN
 10
8121.2308159442791
 20
7443.633892227168
 30
0.0
 41
100.0
 42
100.0
 43
100.0
  0
INSERT
  5
8272
  8
3
 62
     0
  2
_OPEN
 10
7061.2308159442809
 20
7443.633892227168
 30
0.0
 41
100.0
 42
100.0
 43
100.0
 50
180.0
  0
TEXT
  8
3
  40
150
  5
8324
  62
0
  72
0
  71
0
 10
7291.23
 20
7303.13
 30
0.000000
  1
1060
  0
POINT
  5
8274
  8
DEFPOINTS
 62
     0
 10
8121.2308159442791
 20
7141.2876129198712
 30
0.0
  0
POINT
  5
8275
  8
DEFPOINTS
 62
     0
 10
7061.2308159442809
 20
7141.2876129198712
 30
0.0
  0
POINT
  5
8276
  8
DEFPOINTS
 62
     0
 10
7061.2308159442809
 20
7443.633892227168
 30
0.0
  0
ENDBLK
  5
81B9
  8
0
  0
BLOCK
  8
0
  2
*D3
 70
     1
 10
0.0
 20
0.0
 30
0.0
  3
*D3
  1

  0
LINE
  5
81FD
  8
0
  6
BYBLOCK
 62
     0
 10
8225.23081594428
 20
6969.1642034400802
 30
0.0
 11
8225.23081594428
 21
7817.8075905773167
 31
0.0
  0
LINE
  5
81FE
  8
0
  6
BYBLOCK
 62
     0
 10
7591.23081594428
 20
7630.2280464883552
 30
0.0
 11
7591.23081594428
 21
7817.8075905773167
 31
0.0
  0
LINE
  5
81FF
  8
0
  6
BYBLOCK
 62
     0
 10
8125.2308159442809
 20
7767.8075905773167
 30
0.0
 11
7691.23081594428
 21
7767.8075905773167
 31
0.0
  0
TEXT
  5
8200
  8
3
 62
     0
 10
7711.8022445157076
 20
7892.8075905773167
 30
0.0
 40
150.0
  1
634
  0
INSERT
  5
8201
  8
0
  6
BYBLOCK
 62
     0
  2
_OPEN
 10
8225.23081594428
 20
7767.8075905773167
 30
0.0
 41
100.0
 42
100.0
 43
100.0
  0
INSERT
  5
8202
  8
0
  6
BYBLOCK
 62
     0
  2
_OPEN
 10
7591.23081594428
 20
7767.8075905773167
 30
0.0
 41
100.0
 42
100.0
 43
100.0
 50
180.0
  0
POINT
  5
8203
  8
DEFPOINTS
  6
BYBLOCK
 62
     0
 10
8225.23081594428
 20
6944.1642034400802
 30
0.0
  0
POINT
  5
8204
  8
DEFPOINTS
  6
BYBLOCK
 62
     0
 10
7591.23081594428
 20
7605.2280464883552
 30
0.0
  0
POINT
  5
8205
  8
DEFPOINTS
  6
BYBLOCK
 62
     0
 10
7591.23081594428
 20
7767.8075905773167
 30
0.0
  0
ENDBLK
  5
8206
  8
0
  0
BLOCK
  8
0
  2
*D4
 70
     1
 10
0.0
 20
0.0
 30
0.0
  3
*D4
  1

  0
LINE
  5
8277
  8
3
 62
     0
 10
7591.23081594428
 20
7630.2280464883552
 30
0.0
 11
7591.23081594428
 21
7817.8075905773167
 31
0.0
  0
LINE
  5
8278
  8
3
 62
     0
 10
6621.2308159442791
 20
6599.1642034400793
 30
0.0
 11
6621.2308159442791
 21
7817.8075905773167
 31
0.0
  0
LINE
  5
8279
  8
3
 62
     0
 10
7491.23081594428
 20
7767.8075905773167
 30
0.0
 11
6721.23081594428
 21
7767.8075905773167
 31
0.0
  0
INSERT
  5
827A
  8
3
 62
     0
  2
_OPEN
 10
7591.23081594428
 20
7767.8075905773167
 30
0.0
 41
100.0
 42
100.0
 43
100.0
  0
INSERT
  5
827B
  8
3
 62
     0
  2
_OPEN
 10
6621.2308159442791
 20
7767.8075905773167
 30
0.0
 41
100.0
 42
100.0
 43
100.0
 50
180.0
  0
TEXT
  8
3
  40
150
  5
8325
  62
0
  72
0
  71
0
 10
6806.23
 20
7752.31
 30
0.000000
  1
MAX
  0
TEXT
  8
3
  40
150
  5
8326
  62
0
  72
0
  71
0
 10
6806.23
 20
7557.31
 30
0.000000
  1
1030
  0
POINT
  5
827D
  8
DEFPOINTS
 62
     0
 10
7591.23081594428
 20
7605.2280464883552
 30
0.0
  0
POINT
  5
827E
  8
DEFPOINTS
 62
     0
 10
6621.2308159442791
 20
6574.1642034400802
 30
0.0
  0
POINT
  5
827F
  8
DEFPOINTS
 62
     0
 10
6621.2308159442791
 20
7767.8075905773167
 30
0.0
  0
ENDBLK
  5
8227
  8
0
  0
BLOCK
  8
0
  2
*D5
 70
     1
 10
0.0
 20
0.0
 30
0.0
  3
*D5
  1

  0
LINE
  5
8280
  8
3
 62
     0
 10
8250.2308159442819
 20
6894.1642034400802
 30
0.0
 11
8663.7830372526769
 21
6894.1642034400802
 31
0.0
  0
LINE
  5
8281
  8
3
 62
     0
 10
8250.2308159442819
 20
5494.1642034400793
 30
0.0
 11
8663.7830372526769
 21
5494.1642034400793
 31
0.0
  0
LINE
  5
8282
  8
3
 62
     0
 10
8613.7830372526769
 20
6794.1642034400802
 30
0.0
 11
8613.7830372526769
 21
5594.1642034400802
 31
0.0
  0
INSERT
  5
8283
  8
3
 62
     0
  2
_OPEN
 10
8613.7830372526769
 20
6894.1642034400802
 30
0.0
 41
100.0
 42
100.0
 43
100.0
 50
90.0
  0
INSERT
  5
8284
  8
3
 62
     0
  2
_OPEN
 10
8613.7830372526769
 20
5494.1642034400793
 30
0.0
 41
100.0
 42
100.0
 43
100.0
 50
270.0
  0
TEXT
  8
3
  40
150
  5
8327
  62
0
  72
0
  71
0
 10
8188.78
 20
5928.66
 30
0.000000
  1
φ1400
  0
POINT
  5
8286
  8
DEFPOINTS
 62
     0
 10
8225.23081594428
 20
6894.1642034400802
 30
0.0
  0
POINT
  5
8287
  8
DEFPOINTS
 62
     0
 10
8225.23081594428
 20
5494.1642034400793
 30
0.0
  0
POINT
  5
8288
  8
DEFPOINTS
 62
     0
 10
8613.7830372526769
 20
5494.1642034400793
 30
0.0
  0
ENDBLK
  5
821C
  8
0
  0
BLOCK
  8
0
  2
*D6
 70
     1
 10
0.0
 20
0.0
 30
0.0
  3
*D6
  1

  0
LINE
  5
8289
  8
3
 62
     0
 10
6800.2308159442809
 20
4484.1642034400793
 30
0.0
 11
6800.2308159442809
 21
4137.0777684607292
 31
0.0
  0
LINE
  5
828A
  8
3
 62
     0
 10
7591.23081594428
 20
4331.579949513336
 30
0.0
 11
7591.23081594428
 21
4137.0777684607292
 31
0.0
  0
LINE
  5
828B
  8
3
 62
     0
 10
6900.23081594428
 20
4187.0777684607292
 30
0.0
 11
7491.23081594428
 21
4187.0777684607292
 31
0.0
  0
INSERT
  5
828C
  8
3
 62
     0
  2
_OPEN
 10
6800.2308159442809
 20
4187.0777684607292
 30
0.0
 41
100.0
 42
100.0
 43
100.0
 50
180.0
  0
INSERT
  5
828D
  8
3
 62
     0
  2
_OPEN
 10
7591.23081594428
 20
4187.0777684607292
 30
0.0
 41
100.0
 42
100.0
 43
100.0
  0
TEXT
  8
3
  40
150
  5
8328
  62
0
  72
0
  71
0
 10
6895.73
 20
4046.58
 30
0.000000
  1
791
  0
POINT
  5
828F
  8
DEFPOINTS
 62
     0
 10
6800.2308159442809
 20
4509.1642034400793
 30
0.0
  0
POINT
  5
8290
  8
DEFPOINTS
 62
     0
 10
7591.23081594428
 20
4356.5799495133369
 30
0.0
  0
POINT
  5
8291
  8
DEFPOINTS
 62
     0
 10
7591.23081594428
 20
4187.0777684607292
 30
0.0
  0
ENDBLK
  5
818B
  8
0
  0
BLOCK
  8
0
  2
*D7
 70
     1
 10
0.0
 20
0.0
 30
0.0
  3
*D7
  1

  0
LINE
  5
8208
  8
0
  6
BYBLOCK
 62
     0
 10
7591.23081594428
 20
4331.579949513336
 30
0.0
 11
7591.23081594428
 21
4137.0777684607292
 31
0.0
  0
LINE
  5
8209
  8
0
  6
BYBLOCK
 62
     0
 10
8200.23081594428
 20
4484.1642034400802
 30
0.0
 11
8200.23081594428
 21
4137.0777684607292
 31
0.0
  0
LINE
  5
820A
  8
0
  6
BYBLOCK
 62
     0
 10
7691.23081594428
 20
4187.0777684607292
 30
0.0
 11
8100.23081594428
 21
4187.0777684607292
 31
0.0
  0
TEXT
  5
820B
  8
3
 62
     0
 10
7706.4451016585654
 20
4236.056441393258
 30
0.0
 40
150.0
  1
609
  0
INSERT
  5
820C
  8
0
  6
BYBLOCK
 62
     0
  2
_OPEN
 10
7591.23081594428
 20
4187.0777684607292
 30
0.0
 41
100.0
 42
100.0
 43
100.0
 50
180.0
  0
INSERT
  5
820D
  8
0
  6
BYBLOCK
 62
     0
  2
_OPEN
 10
8200.23081594428
 20
4187.0777684607292
 30
0.0
 41
100.0
 42
100.0
 43
100.0
  0
POINT
  5
820E
  8
DEFPOINTS
  6
BYBLOCK
 62
     0
 10
7591.23081594428
 20
4356.5799495133369
 30
0.0
  0
POINT
  5
820F
  8
DEFPOINTS
  6
BYBLOCK
 62
     0
 10
8200.23081594428
 20
4509.1642034400802
 30
0.0
  0
POINT
  5
8210
  8
DEFPOINTS
  6
BYBLOCK
 62
     0
 10
8200.23081594428
 20
4187.0777684607292
 30
0.0
  0
ENDBLK
  5
8211
  8
0
  0
BLOCK
  8
0
  2
*D8
 70
     1
 10
0.0
 20
0.0
 30
0.0
  3
*D8
  1

  0
LINE
  5
8292
  8
3
 62
     0
 10
2517.0752595381268
 20
10550.228611053801
 30
0.0
 11
2517.0752595381268
 21
10939.74484152968
 31
0.0
  0
LINE
  5
8293
  8
3
 62
     0
 10
4217.0752595381273
 20
10550.228611053801
 30
0.0
 11
4217.0752595381273
 21
10939.74484152968
 31
0.0
  0
LINE
  5
8294
  8
3
 62
     0
 10
2617.0752595381268
 20
10889.74484152968
 30
0.0
 11
4117.0752595381273
 21
10889.74484152968
 31
0.0
  0
INSERT
  5
8295
  8
3
 62
     0
  2
_OPEN
 10
2517.0752595381268
 20
10889.74484152968
 30
0.0
 41
100.0
 42
100.0
 43
100.0
 50
180.0
  0
INSERT
  5
8296
  8
3
 62
     0
  2
_OPEN
 10
4217.0752595381273
 20
10889.74484152968
 30
0.0
 41
100.0
 42
100.0
 43
100.0
  0
TEXT
  8
3
  40
150
  5
8329
  62
0
  72
0
  71
0
 10
3067.08
 20
10749.2
 30
0.000000
  1
1700
  0
POINT
  5
8298
  8
DEFPOINTS
 62
     0
 10
2517.0752595381268
 20
10525.228611053801
 30
0.0
  0
POINT
  5
8299
  8
DEFPOINTS
 62
     0
 10
4217.0752595381273
 20
10525.228611053801
 30
0.0
  0
POINT
  5
829A
  8
DEFPOINTS
 62
     0
 10
4217.0752595381273
 20
10889.74484152968
 30
0.0
  0
ENDBLK
  5
8168
  8
0
  0
BLOCK
  8
0
  2
*D9
 70
     1
 10
0.0
 20
0.0
 30
0.0
  3
*D9
  1

  0
LINE
  5
829B
  8
3
 62
     0
 10
4217.0752595381273
 20
10550.228611053801
 30
0.0
 11
4217.0752595381273
 21
10939.74484152968
 31
0.0
  0
LINE
  5
829C
  8
3
 62
     0
 10
5267.0752595381282
 20
10250.228611053801
 30
0.0
 11
5267.0752595381282
 21
10939.74484152968
 31
0.0
  0
LINE
  5
829D
  8
3
 62
     0
 10
4317.0752595381273
 20
10889.74484152968
 30
0.0
 11
5167.0752595381273
 21
10889.74484152968
 31
0.0
  0
INSERT
  5
829E
  8
3
 62
     0
  2
_OPEN
 10
4217.0752595381273
 20
10889.74484152968
 30
0.0
 41
100.0
 42
100.0
 43
100.0
 50
180.0
  0
INSERT
  5
829F
  8
3
 62
     0
  2
_OPEN
 10
5267.0752595381282
 20
10889.74484152968
 30
0.0
 41
100.0
 42
100.0
 43
100.0
  0
TEXT
  8
3
  40
150
  5
832A
  62
0
  72
0
  71
0
 10
4442.08
 20
10749.2
 30
0.000000
  1
1050
  0
POINT
  5
82A1
  8
DEFPOINTS
 62
     0
 10
4217.0752595381273
 20
10525.228611053801
 30
0.0
  0
POINT
  5
82A2
  8
DEFPOINTS
 62
     0
 10
5267.0752595381282
 20
10225.228611053801
 30
0.0
  0
POINT
  5
82A3
  8
DEFPOINTS
 62
     0
 10
5267.0752595381282
 20
10889.74484152968
 30
0.0
  0
ENDBLK
  5
815D
  8
0
  0
BLOCK
  8
0
  2
*D10
 70
     1
 10
0.0
 20
0.0
 30
0.0
  3
*D10
  1

  0
LINE
  5
82A4
  8
3
 62
     0
 10
5292.0752595381273
 20
10225.228611053801
 30
0.0
 11
5781.4798985858206
 21
10225.228611053801
 31
0.0
  0
LINE
  5
82A5
  8
3
 62
     0
 10
5292.0752595381273
 20
9125.2286110538062
 30
0.0
 11
5781.4798985858206
 21
9125.2286110538062
 31
0.0
  0
LINE
  5
82A6
  8
3
 62
     0
 10
5731.4798985858206
 20
10125.228611053801
 30
0.0
 11
5731.4798985858206
 21
9225.2286110538062
 31
0.0
  0
INSERT
  5
82A7
  8
3
 62
     0
  2
_OPEN
 10
5731.4798985858206
 20
10225.228611053801
 30
0.0
 41
100.0
 42
100.0
 43
100.0
 50
90.0
  0
INSERT
  5
82A8
  8
3
 62
     0
  2
_OPEN
 10
5731.4798985858206
 20
9125.2286110538062
 30
0.0
 41
100.0
 42
100.0
 43
100.0
 50
270.0
  0
TEXT
  8
3
  40
150
  5
832B
  62
0
  72
0
  71
0
 10
5306.48
 20
9409.73
 30
0.000000
  1
1100
  0
POINT
  5
82AA
  8
DEFPOINTS
 62
     0
 10
5267.0752595381282
 20
10225.228611053801
 30
0.0
  0
POINT
  5
82AB
  8
DEFPOINTS
 62
     0
 10
5267.0752595381282
 20
9125.2286110538062
 30
0.0
  0
POINT
  5
82AC
  8
DEFPOINTS
 62
     0
 10
5731.4798985858206
 20
9125.2286110538062
 30
0.0
  0
ENDBLK
  5
8152
  8
0
  0
BLOCK
  8
0
  2
*D11
 70
     1
 10
0.0
 20
0.0
 30
0.0
  3
*D11
  1

  0
LINE
  5
82AD
  8
3
 62
     0
 10
2517.0752595381268
 20
9100.2286110538062
 30
0.0
 11
2517.0752595381268
 21
8490.9437633553807
 31
0.0
  0
LINE
  5
82AE
  8
3
 62
     0
 10
5267.0752595381282
 20
9100.2286110538062
 30
0.0
 11
5267.0752595381282
 21
8490.9437633553807
 31
0.0
  0
LINE
  5
82AF
  8
3
 62
     0
 10
2617.0752595381268
 20
8540.9437633553789
 30
0.0
 11
5167.0752595381273
 21
8540.9437633553789
 31
0.0
  0
INSERT
  5
82B0
  8
3
 62
     0
  2
_OPEN
 10
2517.0752595381268
 20
8540.9437633553789
 30
0.0
 41
100.0
 42
100.0
 43
100.0
 50
180.0
  0
INSERT
  5
82B1
  8
3
 62
     0
  2
_OPEN
 10
5267.0752595381282
 20
8540.9437633553789
 30
0.0
 41
100.0
 42
100.0
 43
100.0
  0
TEXT
  8
3
  40
150
  5
832C
  62
0
  72
0
  71
0
 10
3592.08
 20
8400.44
 30
0.000000
  1
2750
  0
POINT
  5
82B3
  8
DEFPOINTS
 62
     0
 10
2517.0752595381268
 20
9125.2286110538062
 30
0.0
  0
POINT
  5
82B4
  8
DEFPOINTS
 62
     0
 10
5267.0752595381282
 20
9125.2286110538062
 30
0.0
  0
POINT
  5
82B5
  8
DEFPOINTS
 62
     0
 10
5267.0752595381282
 20
8540.9437633553789
 30
0.0
  0
ENDBLK
  5
8147
  8
0
  0
BLOCK
  8
0
  2
*D12
 70
     1
 10
0.0
 20
0.0
 30
0.0
  3
*D12
  1

  0
LINE
  5
82B6
  8
3
 62
     0
 10
2412.0752595381268
 20
4703.1642034400802
 30
0.0
 11
2011.580257188938
 21
4703.1642034400802
 31
0.0
  0
LINE
  5
82B7
  8
3
 62
     0
 10
2412.0752595381268
 20
6153.1642034400802
 30
0.0
 11
2011.580257188938
 21
6153.1642034400811
 31
0.0
  0
LINE
  5
82B8
  8
3
 62
     0
 10
2061.580257188938
 20
4803.1642034400793
 30
0.0
 11
2061.580257188939
 21
6053.1642034400793
 31
0.0
  0
INSERT
  5
82B9
  8
3
 62
     0
  2
_OPEN
 10
2061.580257188938
 20
4703.1642034400802
 30
0.0
 41
100.0
 42
100.0
 43
100.0
 50
270.0
  0
INSERT
  5
82BA
  8
3
 62
     0
  2
_OPEN
 10
2061.580257188939
 20
6153.1642034400802
 30
0.0
 41
100.0
 42
100.0
 43
100.0
 50
90.0
  0
TEXT
  8
3
  40
150
  5
832D
  62
0
  72
0
  71
0
 10
1636.58
 20
5162.66
 30
0.000000
  1
1450
  0
POINT
  5
82BC
  8
DEFPOINTS
 62
     0
 10
2437.0752595381268
 20
4703.1642034400802
 30
0.0
  0
POINT
  5
82BD
  8
DEFPOINTS
 62
     0
 10
2437.0752595381268
 20
6153.1642034400802
 30
0.0
  0
POINT
  5
82BE
  8
DEFPOINTS
 62
     0
 10
2061.580257188939
 20
6153.1642034400802
 30
0.0
  0
ENDBLK
  5
813C
  8
0
  0
BLOCK
  8
0
  2
*D13
 70
     1
 10
0.0
 20
0.0
 30
0.0
  3
*D13
  1

  0
LINE
  5
82BF
  8
3
 62
     0
 10
2517.0752595381268
 20
4484.1642034400793
 30
0.0
 11
2517.0752595381268
 21
4132.7377629306166
 31
0.0
  0
LINE
  5
82C0
  8
3
 62
     0
 10
3367.0752595381268
 20
4331.579949513336
 30
0.0
 11
3367.0752595381268
 21
4132.7377629306166
 31
0.0
  0
LINE
  5
82C1
  8
3
 62
     0
 10
2617.0752595381268
 20
4182.7377629306166
 30
0.0
 11
3267.0752595381268
 21
4182.7377629306166
 31
0.0
  0
INSERT
  5
82C2
  8
3
 62
     0
  2
_OPEN
 10
2517.0752595381268
 20
4182.7377629306166
 30
0.0
 41
100.0
 42
100.0
 43
100.0
 50
180.0
  0
INSERT
  5
82C3
  8
3
 62
     0
  2
_OPEN
 10
3367.0752595381268
 20
4182.7377629306166
 30
0.0
 41
100.0
 42
100.0
 43
100.0
  0
TEXT
  8
3
  40
150
  5
832E
  62
0
  72
0
  71
0
 10
2642.08
 20
4042.24
 30
0.000000
  1
850
  0
POINT
  5
82C5
  8
DEFPOINTS
 62
     0
 10
2517.0752595381268
 20
4509.1642034400793
 30
0.0
  0
POINT
  5
82C6
  8
DEFPOINTS
 62
     0
 10
3367.0752595381268
 20
4356.5799495133369
 30
0.0
  0
POINT
  5
82C7
  8
DEFPOINTS
 62
     0
 10
3367.0752595381268
 20
4182.7377629306166
 30
0.0
  0
ENDBLK
  5
8131
  8
0
  0
BLOCK
  8
0
  2
*D14
 70
     1
 10
0.0
 20
0.0
 30
0.0
  3
*D14
  1

  0
LINE
  5
82C8
  8
3
 62
     0
 10
3367.0752595381268
 20
4331.579949513336
 30
0.0
 11
3367.0752595381268
 21
4132.7377629306166
 31
0.0
  0
LINE
  5
82C9
  8
3
 62
     0
 10
5267.0752595381282
 20
4484.1642034400793
 30
0.0
 11
5267.0752595381282
 21
4132.7377629306166
 31
0.0
  0
LINE
  5
82CA
  8
3
 62
     0
 10
3467.0752595381268
 20
4182.7377629306166
 30
0.0
 11
5167.0752595381273
 21
4182.7377629306166
 31
0.0
  0
INSERT
  5
82CB
  8
3
 62
     0
  2
_OPEN
 10
3367.0752595381268
 20
4182.7377629306166
 30
0.0
 41
100.0
 42
100.0
 43
100.0
 50
180.0
  0
INSERT
  5
82CC
  8
3
 62
     0
  2
_OPEN
 10
5267.0752595381282
 20
4182.7377629306166
 30
0.0
 41
100.0
 42
100.0
 43
100.0
  0
TEXT
  8
3
  40
150
  5
832F
  62
0
  72
0
  71
0
 10
4017.08
 20
4042.24
 30
0.000000
  1
1900
  0
POINT
  5
82CE
  8
DEFPOINTS
 62
     0
 10
3367.0752595381268
 20
4356.5799495133369
 30
0.0
  0
POINT
  5
82CF
  8
DEFPOINTS
 62
     0
 10
5267.0752595381282
 20
4509.1642034400793
 30
0.0
  0
POINT
  5
82D0
  8
DEFPOINTS
 62
     0
 10
5267.0752595381282
 20
4182.7377629306166
 30
0.0
  0
ENDBLK
  5
8126
  8
0
  0
BLOCK
  8
0
  2
*D15
 70
     1
 10
0.0
 20
0.0
 30
0.0
  3
*D15
  1

  0
LINE
  5
82D1
  8
3
 62
     0
 10
2437.0752595381268
 20
6160.4732943820582
 30
0.0
 11
2437.0752595381268
 21
7608.9762380798684
 31
0.0
  0
LINE
  5
82D2
  8
3
 62
     0
 10
3367.0752595381268
 20
7336.5711817025904
 30
0.0
 11
3367.0752595381268
 21
7608.9762380798684
 31
0.0
  0
LINE
  5
82D3
  8
3
 62
     0
 10
2537.0752595381268
 20
7558.9762380798684
 30
0.0
 11
3267.0752595381268
 21
7558.9762380798684
 31
0.0
  0
INSERT
  5
82D4
  8
3
 62
     0
  2
_OPEN
 10
2437.0752595381268
 20
7558.9762380798684
 30
0.0
 41
100.0
 42
100.0
 43
100.0
 50
180.0
  0
INSERT
  5
82D5
  8
3
 62
     0
  2
_OPEN
 10
3367.0752595381268
 20
7558.9762380798684
 30
0.0
 41
100.0
 42
100.0
 43
100.0
  0
TEXT
  8
3
  40
150
  5
8330
  62
0
  72
0
  71
0
 10
2602.08
 20
7418.48
 30
0.000000
  1
930
  0
POINT
  5
82D7
  8
DEFPOINTS
 62
     0
 10
2437.0752595381268
 20
6135.4732943820582
 30
0.0
  0
POINT
  5
82D8
  8
DEFPOINTS
 62
     0
 10
3367.0752595381268
 20
7311.5711817025885
 30
0.0
  0
POINT
  5
82D9
  8
DEFPOINTS
 62
     0
 10
3367.0752595381268
 20
7558.9762380798684
 30
0.0
  0
ENDBLK
  5
80F6
  8
0
  0
BLOCK
  8
0
  2
*D16
 70
     1
 10
0.0
 20
0.0
 30
0.0
  3
*D16
  1

  0
LINE
  5
82DA
  8
3
 62
     0
 10
3367.0752595381268
 20
7336.5711817025904
 30
0.0
 11
3367.0752595381268
 21
7608.9762380798684
 31
0.0
  0
LINE
  5
82DB
  8
3
 62
     0
 10
4574.0752595381273
 20
6205.513419396385
 30
0.0
 11
4574.0752595381273
 21
7608.9762380798684
 31
0.0
  0
LINE
  5
82DC
  8
3
 62
     0
 10
3467.0752595381268
 20
7558.9762380798684
 30
0.0
 11
4474.0752595381273
 21
7558.9762380798684
 31
0.0
  0
INSERT
  5
82DD
  8
3
 62
     0
  2
_OPEN
 10
3367.0752595381268
 20
7558.9762380798684
 30
0.0
 41
100.0
 42
100.0
 43
100.0
 50
180.0
  0
INSERT
  5
82DE
  8
3
 62
     0
  2
_OPEN
 10
4574.0752595381273
 20
7558.9762380798684
 30
0.0
 41
100.0
 42
100.0
 43
100.0
  0
TEXT
  8
3
  40
150
  5
8331
  62
0
  72
0
  71
0
 10
3670.58
 20
7418.48
 30
0.000000
  1
1207
  0
POINT
  5
82E0
  8
DEFPOINTS
 62
     0
 10
3367.0752595381268
 20
7311.5711817025885
 30
0.0
  0
POINT
  5
82E1
  8
DEFPOINTS
 62
     0
 10
4574.0752595381273
 20
6180.5134193963841
 30
0.0
  0
POINT
  5
82E2
  8
DEFPOINTS
 62
     0
 10
4574.0752595381273
 20
7558.9762380798684
 30
0.0
  0
ENDBLK
  5
80EB
  8
0
  0
BLOCK
  8
0
  2
*D17
 70
     1
 10
0.0
 20
0.0
 30
0.0
  3
*D17
  1

  0
LINE
  5
82E3
  8
3
 62
     0
 10
3444.0752595381268
 20
7197.1642034400802
 30
0.0
 11
1469.6477516612781
 21
7197.1642034400802
 31
0.0
  0
LINE
  5
82E4
  8
3
 62
     0
 10
2283.8373089940828
 20
6194.1642034400793
 30
0.0
 11
1469.647751661277
 21
6194.1642034400802
 31
0.0
  0
LINE
  5
82E5
  8
3
 62
     0
 10
1519.6477516612781
 20
7097.1642034400802
 30
0.0
 11
1519.647751661277
 21
6294.1642034400802
 31
0.0
  0
INSERT
  5
82E6
  8
3
 62
     0
  2
_OPEN
 10
1519.6477516612781
 20
7197.1642034400802
 30
0.0
 41
100.0
 42
100.0
 43
100.0
 50
90.0
  0
INSERT
  5
82E7
  8
3
 62
     0
  2
_OPEN
 10
1519.647751661277
 20
6194.1642034400802
 30
0.0
 41
100.0
 42
100.0
 43
100.0
 50
270.0
  0
TEXT
  8
3
  40
150
  5
8332
  62
0
  72
0
  71
0
 10
1094.65
 20
6430.16
 30
0.000000
  1
1003
  0
POINT
  5
82E9
  8
DEFPOINTS
 62
     0
 10
3469.0752595381282
 20
7197.1642034400802
 30
0.0
  0
POINT
  5
82EA
  8
DEFPOINTS
 62
     0
 10
2308.8373089940828
 20
6194.1642034400793
 30
0.0
  0
POINT
  5
82EB
  8
DEFPOINTS
 62
     0
 10
1519.647751661277
 20
6194.1642034400802
 30
0.0
  0
ENDBLK
  5
80E0
  8
0
  0
BLOCK
  8
0
  2
*D18
 70
     1
 10
0.0
 20
0.0
 30
0.0
  3
*D18
  1

  0
LINE
  5
82EC
  8
3
 62
     0
 10
2283.8373089940828
 20
6194.1642034400793
 30
0.0
 11
1470.916111207926
 21
6194.1642034400802
 31
0.0
  0
LINE
  5
82ED
  8
3
 62
     0
 10
2492.0752595381268
 20
4604.1642034400793
 30
0.0
 11
1470.916111207925
 21
4604.1642034400802
 31
0.0
  0
LINE
  5
82EE
  8
3
 62
     0
 10
1520.916111207926
 20
6094.1642034400802
 30
0.0
 11
1520.916111207925
 21
4704.1642034400802
 31
0.0
  0
INSERT
  5
82EF
  8
3
 62
     0
  2
_OPEN
 10
1520.916111207926
 20
6194.1642034400802
 30
0.0
 41
100.0
 42
100.0
 43
100.0
 50
90.0
  0
INSERT
  5
82F0
  8
3
 62
     0
  2
_OPEN
 10
1520.916111207925
 20
4604.1642034400802
 30
0.0
 41
100.0
 42
100.0
 43
100.0
 50
270.0
  0
TEXT
  8
3
  40
150
  5
8333
  62
0
  72
0
  71
0
 10
1095.92
 20
5133.66
 30
0.000000
  1
1590
  0
POINT
  5
82F2
  8
DEFPOINTS
 62
     0
 10
2308.8373089940828
 20
6194.1642034400793
 30
0.0
  0
POINT
  5
82F3
  8
DEFPOINTS
 62
     0
 10
2517.0752595381268
 20
4604.1642034400793
 30
0.0
  0
POINT
  5
82F4
  8
DEFPOINTS
 62
     0
 10
1520.916111207925
 20
4604.1642034400802
 30
0.0
  0
ENDBLK
  5
80D5
  8
0
  0
BLOCK
  8
0
  2
*D19
 70
     1
 10
0.0
 20
0.0
 30
0.0
  3
*D19
  1

  0
LINE
  5
82F5
  8
3
 62
     0
 10
3444.0752595381268
 20
7197.1642034400802
 30
0.0
 11
1114.7732365600259
 21
7197.1642034400802
 31
0.0
  0
LINE
  5
82F6
  8
3
 62
     0
 10
2492.0752595381268
 20
4509.1642034400793
 30
0.0
 11
1114.7732365600259
 21
4509.1642034400802
 31
0.0
  0
LINE
  5
82F7
  8
3
 62
     0
 10
1164.7732365600259
 20
7097.1642034400802
 30
0.0
 11
1164.7732365600259
 21
4609.1642034400802
 31
0.0
  0
INSERT
  5
82F8
  8
3
 62
     0
  2
_OPEN
 10
1164.7732365600259
 20
7197.1642034400802
 30
0.0
 41
100.0
 42
100.0
 43
100.0
 50
90.0
  0
INSERT
  5
82F9
  8
3
 62
     0
  2
_OPEN
 10
1164.773236560025
 20
4509.1642034400802
 30
0.0
 41
100.0
 42
100.0
 43
100.0
 50
270.0
  0
TEXT
  8
3
  40
150
  5
8334
  62
0
  72
0
  71
0
 10
739.773
 20
5587.66
 30
0.000000
  1
2688
  0
POINT
  5
82FB
  8
DEFPOINTS
 62
     0
 10
3469.0752595381282
 20
7197.1642034400802
 30
0.0
  0
POINT
  5
82FC
  8
DEFPOINTS
 62
     0
 10
2517.0752595381268
 20
4509.1642034400793
 30
0.0
  0
POINT
  5
82FD
  8
DEFPOINTS
 62
     0
 10
1164.773236560025
 20
4509.1642034400802
 30
0.0
  0
ENDBLK
  5
80CA
  8
0
  0
BLOCK
  8
0
  2
*D20
 70
     1
 10
0.0
 20
0.0
 30
0.0
  3
*D20
  1

  0
LINE
  5
82FE
  8
3
 62
     0
 10
2283.8373089940828
 20
6194.1642034400793
 30
0.0
 11
1761.082502121933
 21
6194.1642034400802
 31
0.0
  0
LINE
  5
82FF
  8
3
 62
     0
 10
2412.0752595381268
 20
4703.1642034400802
 30
0.0
 11
1761.082502121933
 21
4703.1642034400802
 31
0.0
  0
LINE
  5
8300
  8
3
 62
     0
 10
1811.082502121933
 20
6094.1642034400802
 30
0.0
 11
1811.082502121933
 21
4803.1642034400802
 31
0.0
  0
INSERT
  5
8301
  8
3
 62
     0
  2
_OPEN
 10
1811.082502121933
 20
6194.1642034400802
 30
0.0
 41
100.0
 42
100.0
 43
100.0
 50
90.0
  0
INSERT
  5
8302
  8
3
 62
     0
  2
_OPEN
 10
1811.082502121933
 20
4703.1642034400802
 30
0.0
 41
100.0
 42
100.0
 43
100.0
 50
270.0
  0
TEXT
  8
3
  40
150
  5
8335
  62
0
  72
0
  71
0
 10
1386.08
 20
5183.16
 30
0.000000
  1
1491
  0
POINT
  5
8304
  8
DEFPOINTS
 62
     0
 10
2308.8373089940828
 20
6194.1642034400793
 30
0.0
  0
POINT
  5
8305
  8
DEFPOINTS
 62
     0
 10
2437.0752595381268
 20
4703.1642034400802
 30
0.0
  0
POINT
  5
8306
  8
DEFPOINTS
 62
     0
 10
1811.082502121933
 20
4703.1642034400802
 30
0.0
  0
ENDBLK
  5
80BF
  8
0
  0
BLOCK
  8
0
  2
*D21
 70
     1
 10
0.0
 20
0.0
 30
0.0
  3
*D21
  1

  0
LINE
  5
8307
  8
3
 62
     0
 10
2492.0752595381268
 20
10525.228611053801
 30
0.0
 11
2084.3600634905829
 21
10525.228611053801
 31
0.0
  0
LINE
  5
8308
  8
3
 62
     0
 10
2492.0752595381268
 20
9125.2286110538062
 30
0.0
 11
2084.3600634905829
 21
9125.2286110538062
 31
0.0
  0
LINE
  5
8309
  8
3
 62
     0
 10
2134.3600634905829
 20
10425.228611053801
 30
0.0
 11
2134.3600634905829
 21
9225.2286110538062
 31
0.0
  0
INSERT
  5
830A
  8
3
 62
     0
  2
_OPEN
 10
2134.3600634905829
 20
10525.228611053801
 30
0.0
 41
100.0
 42
100.0
 43
100.0
 50
90.0
  0
INSERT
  5
830B
  8
3
 62
     0
  2
_OPEN
 10
2134.3600634905829
 20
9125.2286110538062
 30
0.0
 41
100.0
 42
100.0
 43
100.0
 50
270.0
  0
TEXT
  8
3
  40
150
  5
8336
  62
0
  72
0
  71
0
 10
1709.36
 20
9458.71
 30
0.000000
  1
1400
  0
POINT
  5
830D
  8
DEFPOINTS
 62
     0
 10
2517.0752595381268
 20
10525.228611053801
 30
0.0
  0
POINT
  5
830E
  8
DEFPOINTS
 62
     0
 10
2517.0752595381268
 20
9125.2286110538062
 30
0.0
  0
POINT
  5
830F
  8
DEFPOINTS
 62
     0
 10
2134.3600634905829
 20
9125.2286110538062
 30
0.0
  0
ENDBLK
  5
80B4
  8
0
  0
BLOCK
  8
0
  2
*D22
 70
     1
 10
0.0
 20
0.0
 30
0.0
  3
*D22
  1

  0
LINE
  5
8310
  8
3
 62
     0
 10
2492.0752595381268
 20
4604.1642034400793
 30
0.0
 11
1470.916111207925
 21
4604.1642034400802
 31
0.0
  0
LINE
  5
8311
  8
3
 62
     0
 10
2492.0752595381268
 20
4509.1642034400793
 30
0.0
 11
1470.916111207925
 21
4509.1642034400802
 31
0.0
  0
LINE
  5
8312
  8
3
 62
     0
 10
1520.916111207925
 20
4704.1642034400802
 30
0.0
 11
1520.916111207925
 21
4804.1642034400802
 31
0.0
  0
LINE
  5
8313
  8
3
 62
     0
 10
1520.916111207925
 20
4409.1642034400802
 30
0.0
 11
1520.916111207925
 21
3966.3070605829362
 31
0.0
  0
LINE
  5
8314
  8
3
 62
     0
 10
1520.916111207925
 20
4604.1642034400802
 30
0.0
 11
1520.916111207925
 21
4509.1642034400802
 31
0.0
  0
INSERT
  5
8315
  8
3
 62
     0
  2
_OPEN
 10
1520.916111207925
 20
4604.1642034400802
 30
0.0
 41
100.0
 42
100.0
 43
100.0
 50
270.0
  0
INSERT
  5
8316
  8
3
 62
     0
  2
_OPEN
 10
1520.916111207925
 20
4509.1642034400802
 30
0.0
 41
100.0
 42
100.0
 43
100.0
 50
90.0
  0
TEXT
  8
3
  40
150
  5
8337
  62
0
  72
0
  71
0
 10
1095.92
 20
3872.24
 30
0.000000
  1
95
  0
POINT
  5
8318
  8
DEFPOINTS
 62
     0
 10
2517.0752595381268
 20
4604.1642034400793
 30
0.0
  0
POINT
  5
8319
  8
DEFPOINTS
 62
     0
 10
2517.0752595381268
 20
4509.1642034400793
 30
0.0
  0
POINT
  5
831A
  8
DEFPOINTS
 62
     0
 10
1520.916111207925
 20
4509.1642034400802
 30
0.0
  0
ENDBLK
  5
81F0
  8
0
  0
BLOCK
  8
0
  2
*D23
 70
     1
 10
0.0
 20
0.0
 30
0.0
  3
*D23
  1

  0
LINE
  5
831B
  8
3
 62
     0
 10
2437.0752595381268
 20
6232.1642034400793
 30
0.0
 11
2437.0752595381268
 21
7916.0469510858393
 31
0.0
  0
LINE
  5
831C
  8
3
 62
     0
 10
5267.0752595381282
 20
4779.1642034400793
 30
0.0
 11
5267.0752595381282
 21
7916.0469510858393
 31
0.0
  0
LINE
  5
831D
  8
3
 62
     0
 10
2537.0752595381268
 20
7866.0469510858393
 30
0.0
 11
5167.0752595381273
 21
7866.0469510858393
 31
0.0
  0
INSERT
  5
831E
  8
3
 62
     0
  2
_OPEN
 10
2437.0752595381268
 20
7866.0469510858393
 30
0.0
 41
100.0
 42
100.0
 43
100.0
 50
180.0
  0
INSERT
  5
831F
  8
3
 62
     0
  2
_OPEN
 10
5267.0752595381282
 20
7866.0469510858393
 30
0.0
 41
100.0
 42
100.0
 43
100.0
  0
TEXT
  8
3
  40
150
  5
8338
  62
0
  72
0
  71
0
 10
3573.67
 20
7725.55
 30
0.000000
  1
2830
  0
POINT
  5
8321
  8
DEFPOINTS
 62
     0
 10
2437.0752595381268
 20
6207.1642034400793
 30
0.0
  0
POINT
  5
8322
  8
DEFPOINTS
 62
     0
 10
5267.0752595381282
 20
4754.1642034400793
 30
0.0
  0
POINT
  5
8323
  8
DEFPOINTS
 62
     0
 10
5267.0752595381282
 20
7866.0469510858393
 30
0.0
  0
ENDBLK
  5
8233
  8
0
  0
ENDSEC
  0
SECTION
  2
ENTITIES
  0
INSERT
  5
7BD5
  8
0
  2
YA_N
 10
6.0
 20
5.0
 30
0.0
  0
INSERT
  5
7BD7
  8
0
  2
YA_N
 10
6.0
 20
5.0
 30
0.0
  0
LINE
  5
7BD9
  8
2
 10
3367.0752595381268
 20
10657.955257805579
 30
0.0
 11
3367.0752595381268
 21
8946.2286110538062
 31
0.0
  0
LINE
  5
7BDA
  8
1
 10
2437.0752595381268
 20
6207.1642034400793
 30
0.0
 11
2437.0752595381268
 21
4649.1642034400784
 31
0.0
  0
LINE
  5
7BDB
  8
1
 10
2437.0752595381268
 20
6153.1642034400802
 30
0.0
 11
2546.17151481475
 21
6153.1642034400802
 31
0.0
  0
ARC
  5
7BDC
  8
1
 10
3265.0752595381268
 20
6092.1642034400802
 30
0.0
 40
1309.0
 50
274.46913665552103
 51
0.0
  0
ARC
  5
7BDD
  8
1
 10
3469.0752595381282
 20
6092.1642034400802
 30
0.0
 40
1105.0
 50
0.0
 51
95.296380911852324
  0
ARC
  5
7BDE
  8
1
 10
3452.5752595381268
 20
6279.6642034400802
 30
0.0
 40
917.5
 50
95.347037803486259
 51
180.0
  0
ARC
  5
7BDF
  8
1
 10
3281.875259538127
 20
6279.6642034400802
 30
0.0
 40
746.49999999999989
 50
180.0
 51
189.7562766181166
  0
LINE
  5
7BE0
  8
1
 10
2437.0752595381268
 20
4703.1642034400802
 30
0.0
 11
3367.0752595381268
 21
4787.0503501423682
 31
0.0
  0
LINE
  5
7BE1
  8
1
 10
2517.0752595381268
 20
4604.1642034400793
 30
0.0
 11
5267.0752595381282
 21
4604.1642034400793
 31
0.0
  0
LINE
  5
7BE2
  8
1
 10
2517.0752595381268
 20
4754.1642034400793
 30
0.0
 11
5267.0752595381282
 21
4754.1642034400793
 31
0.0
  0
LINE
  5
7BE3
  8
1
 10
2517.0752595381268
 20
4754.1642034400793
 30
0.0
 11
2517.0752595381268
 21
4604.1642034400793
 31
0.0
  0
LINE
  5
7BE4
  8
1
 10
5267.0752595381282
 20
4754.1642034400793
 30
0.0
 11
5267.0752595381282
 21
4604.1642034400793
 31
0.0
  0
LINE
  5
7BE5
  8
1
 10
2487.0752595381268
 20
6153.1642034400802
 30
0.0
 11
2487.0752595381268
 21
4707.6742113272994
 31
0.0
  0
LINE
  5
7BE6
  8
2
 10
6454.4809722621649
 20
6194.1642034400793
 30
0.0
 11
8381.2556628811435
 21
6194.1642034400793
 31
0.0
  0
LINE
  5
7BE7
  8
2
 10
7591.23081594428
 20
7404.6586208991039
 30
0.0
 11
7591.23081594428
 21
4356.5799495133369
 31
0.0
  0
LINE
  5
7BE8
  8
1
 10
6800.2308159442809
 20
4754.1642034400793
 30
0.0
 11
8200.2308159442837
 21
4754.1642034400802
 31
0.0
  0
LINE
  5
7BE9
  8
1
 10
6800.2308159442809
 20
4604.1642034400793
 30
0.0
 11
8200.23081594428
 21
4604.1642034400802
 31
0.0
  0
LINE
  5
7BEB
  8
2
 10
3367.0752595381268
 20
4277.6608080605438
 30
0.0
 11
3367.0752595381268
 21
7311.5711817025885
 31
0.0
  0
LINE
  5
7BEC
  8
2
 10
4967.0752595381273
 20
5210.7784013713463
 30
0.0
 11
4967.0752595381273
 21
4667.4364492981049
 31
0.0
  0
LINE
  5
7BED
  8
2
 10
4724.4048208132808
 20
4989.1642034400793
 30
0.0
 11
5224.0410244847444
 21
4989.1642034400793
 31
0.0
  0
LINE
  5
7BEE
  8
2
 10
6619.6456853454883
 20
4989.1642034400793
 30
0.0
 11
7544.0758123510159
 21
4989.1642034400793
 31
0.0
  0
CIRCLE
  5
7BEF
  8
1
 10
3367.0752595381268
 20
6194.1642034400793
 30
0.0
 40
700.0
  0
CIRCLE
  5
7BF0
  8
1
 10
3367.0752595381268
 20
6194.1642034400793
 30
0.0
 40
750.0
  0
LINE
  5
7BF1
  8
1
 10
8121.2308159442791
 20
5494.1642034400793
 30
0.0
 11
8225.23081594428
 21
5494.1642034400793
 31
0.0
  0
LINE
  5
7BF2
  8
1
 10
8225.23081594428
 20
6944.1642034400802
 30
0.0
 11
8225.23081594428
 21
5444.1642034400793
 31
0.0
  0
LINE
  5
7BF3
  8
1
 10
5129.0752595381273
 20
4879.1667082108224
 30
0.0
 11
5119.4462056483762
 21
4888.7184729112632
 31
0.0
  0
LINE
  5
7BF4
  8
1
 10
4805.0752595381282
 20
4879.1667082108224
 30
0.0
 11
4814.7043134278792
 21
4888.7184729112632
 31
0.0
  0
LINE
  5
7BF5
  8
1
 10
5129.0752595381273
 20
4809.1642034400793
 30
0.0
 11
5129.0752595381273
 21
4879.1667082108224
 31
0.0
  0
LINE
  5
7BF6
  8
1
 10
5217.9009516202259
 20
4809.1642034400793
 30
0.0
 11
5050.4135791163762
 21
4809.1642034400793
 31
0.0
  0
ARC
  5
7BF7
  8
1
 10
4967.0752595381273
 20
4989.1642034400793
 30
0.0
 40
182.5
 50
285.78279193357162
 51
254.2172080664283
  0
LINE
  5
7BF8
  8
1
 10
4917.4368573807633
 20
4813.5445034310424
 30
0.0
 11
5016.7136616954922
 21
4813.5445034310424
 31
0.0
  0
LINE
  5
7BF9
  8
1
 10
4805.0752595381282
 20
4809.1642034400793
 30
0.0
 11
4805.0752595381282
 21
4879.1667082108233
 31
0.0
  0
LINE
  5
7BFA
  8
1
 10
4805.0752595381282
 20
4809.1642034400793
 30
0.0
 11
4865.0752595381273
 21
4809.1642034400793
 31
0.0
  0
CIRCLE
  5
7BFB
  8
1
 10
3367.0752595381268
 20
6194.1642034400793
 30
0.0
 40
250.0
  0
CIRCLE
  5
7BFC
  8
1
 10
4967.0752595381273
 20
4989.1642034400793
 30
0.0
 40
106.0
  0
ARC
  5
7BFD
  8
1
 10
3367.0752595381268
 20
6194.1642034400793
 30
0.0
 40
380.0
 50
56.821170030304152
 51
246.94096412820579
  0
ARC
  5
7BFE
  8
1
 10
4967.0752595381273
 20
4989.1642034400793
 30
0.0
 40
220.0
 50
246.94096412820579
 51
56.821170030304152
  0
LINE
  5
7BFF
  8
1
 10
3575.0317844065121
 20
6512.2115014393949
 30
0.0
 11
5087.471142356665
 21
5173.2968496502099
 31
0.0
  0
LINE
  5
7C00
  8
1
 10
3502.0314588435322
 20
6404.6085530174432
 30
0.0
 11
5024.2966880436179
 21
5078.3926076608823
 31
0.0
  0
LINE
  5
7C01
  8
1
 10
3267.1233522086268
 20
5965.0144353380902
 30
0.0
 11
4924.6956508304193
 21
4892.0047017648358
 31
0.0
  0
LINE
  5
7C02
  8
1
 10
3218.2370944512709
 20
5844.5255319325106
 30
0.0
 11
4880.9057955404733
 21
4786.7418146725404
 31
0.0
  0
LINE
  5
7C03
  8
1
 10
5227.0752595381282
 20
4754.1642034400793
 30
0.0
 11
5217.9009516202259
 21
4809.1642034400793
 31
0.0
  0
LINE
  5
7C04
  8
1
 10
5050.4135791163762
 20
4809.1642034400793
 30
0.0
 11
5050.4135791163762
 21
4799.6878588784793
 31
0.0
  0
LINE
  5
7C05
  8
1
 10
5050.4135791163762
 20
4799.6878588784793
 30
0.0
 11
4967.0624786506023
 21
4799.6878588784793
 31
0.0
  0
LINE
  5
7C06
  8
1
 10
4707.0752595381246
 20
4754.1642034400793
 30
0.0
 11
4716.2495674560296
 21
4809.1642034400793
 31
0.0
  0
LINE
  5
7C07
  8
1
 10
4716.2495674560287
 20
4809.1642034400793
 30
0.0
 11
4883.7369399598792
 21
4809.1642034400793
 31
0.0
  0
LINE
  5
7C08
  8
1
 10
4883.7369399598792
 20
4799.6878588784793
 30
0.0
 11
4967.0880404256541
 21
4799.6878588784793
 31
0.0
  0
LINE
  5
7C09
  8
1
 10
4883.7369399598792
 20
4809.1642034400793
 30
0.0
 11
4883.7369399598792
 21
4799.6878588784793
 31
0.0
  0
LINE
  5
7C0A
  8
1
 10
6791.5308159442802
 20
6274.1642034400793
 30
0.0
 11
6791.5308159442793
 21
6114.1642034400793
 31
0.0
  0
LINE
  5
7C0B
  8
1
 10
6691.5308159442793
 20
6444.1642034400802
 30
0.0
 11
6769.4308159442789
 21
6444.1642034400802
 31
0.0
  0
LINE
  5
7C0C
  8
1
 10
6691.5308159442793
 20
5944.1642034400793
 30
0.0
 11
6769.4308159442789
 21
5944.1642034400793
 31
0.0
  0
LINE
  5
7C0D
  8
1
 10
6691.5308159442793
 20
6444.1642034400802
 30
0.0
 11
6691.5308159442793
 21
5944.1642034400793
 31
0.0
  0
LINE
  5
7C0E
  8
1
 10
6769.4308159442789
 20
6444.1642034400802
 30
0.0
 11
6769.4308159442789
 21
5944.1642034400793
 31
0.0
  0
LINE
  5
7C0F
  8
1
 10
6769.4308159442789
 20
6274.1642034400793
 30
0.0
 11
6791.5308159442793
 21
6274.1642034400793
 31
0.0
  0
LINE
  5
7C10
  8
1
 10
6769.4308159442789
 20
6114.1642034400793
 30
0.0
 11
6791.5308159442793
 21
6114.1642034400793
 31
0.0
  0
LINE
  5
7C11
  8
1
 10
6691.5308159442793
 20
5095.1642034400811
 30
0.0
 11
6769.4308159442789
 21
5095.1642034400811
 31
0.0
  0
LINE
  5
7C12
  8
1
 10
6691.5308159442793
 20
4883.1642034400793
 30
0.0
 11
6769.4308159442789
 21
4883.1642034400793
 31
0.0
  0
LINE
  5
7C13
  8
1
 10
6784.5308159442793
 20
5049.1642034400802
 30
0.0
 11
6784.5308159442793
 21
4929.1642034400802
 31
0.0
  0
LINE
  5
7C14
  8
1
 10
6769.4308159442789
 20
5049.1642034400802
 30
0.0
 11
6784.5308159442793
 21
5049.1642034400802
 31
0.0
  0
LINE
  5
7C15
  8
1
 10
6769.4308159442789
 20
4929.1642034400793
 30
0.0
 11
6784.5308159442793
 21
4929.1642034400802
 31
0.0
  0
LINE
  5
7C16
  8
1
 10
6621.2308159442791
 20
4769.1642034400793
 30
0.0
 11
6841.5308159442802
 21
4769.1642034400793
 31
0.0
  0
LINE
  5
7C17
  8
1
 10
6621.2308159442791
 20
6574.1642034400802
 30
0.0
 11
6841.5308159442802
 21
6574.1642034400802
 31
0.0
  0
LINE
  5
7C18
  8
1
 10
6621.2308159442791
 20
6574.1642034400802
 30
0.0
 11
6621.2308159442791
 21
4769.1642034400793
 31
0.0
  0
LINE
  5
7C19
  8
1
 10
6841.5308159442802
 20
6574.1642034400802
 30
0.0
 11
6841.5308159442802
 21
4769.1642034400793
 31
0.0
  0
LINE
  5
7C1A
  8
1
 10
6791.5308159442802
 20
6236.6642034400802
 30
0.0
 11
7061.2308159442809
 21
6236.6642034400802
 31
0.0
  0
LINE
  5
7C1B
  8
1
 10
6791.5308159442793
 20
6151.6642034400802
 30
0.0
 11
7061.2308159442809
 21
6151.6642034400802
 31
0.0
  0
LINE
  5
7C1C
  8
1
 10
2517.0752595381268
 20
4584.1642034400793
 30
0.0
 11
2517.0752595381268
 21
4509.1642034400793
 31
0.0
  0
LINE
  5
7C1D
  8
1
 10
2517.0752595381268
 20
4584.1642034400793
 30
0.0
 11
5267.0752595381282
 21
4584.1642034400793
 31
0.0
  0
LINE
  5
7C1E
  8
1
 10
5267.0752595381282
 20
4584.1642034400793
 30
0.0
 11
5267.0752595381282
 21
4509.1642034400793
 31
0.0
  0
LINE
  5
7C1F
  8
1
 10
2517.0752595381268
 20
4509.1642034400793
 30
0.0
 11
5267.0752595381282
 21
4509.1642034400793
 31
0.0
  0
LINE
  5
7C20
  8
1
 10
6800.2308159442809
 20
4584.1642034400793
 30
0.0
 11
8200.23081594428
 21
4584.1642034400811
 31
0.0
  0
LINE
  5
7C21
  8
1
 10
6800.2308159442809
 20
4509.1642034400793
 30
0.0
 11
8200.23081594428
 21
4509.1642034400802
 31
0.0
  0
LINE
  5
7C22
  8
1
 10
6800.2308159442809
 20
4754.1642034400793
 30
0.0
 11
6800.2308159442809
 21
4604.1642034400793
 31
0.0
  0
LINE
  5
7C23
  8
1
 10
8200.2308159442819
 20
4754.1642034400793
 30
0.0
 11
8200.23081594428
 21
4604.1642034400802
 31
0.0
  0
POINT
  5
7C24
  8
1
 10
5267.0752595381282
 20
4604.1642034400793
 30
0.0
  0
POINT
  5
7C25
  8
1
 10
5267.0752595381282
 20
4584.1642034400793
 30
0.0
  0
POINT
  5
7C26
  8
1
 10
5267.0752595381282
 20
4584.1642034400793
 30
0.0
  0
POINT
  5
7C27
  8
1
 10
5267.0752595381282
 20
4509.1642034400793
 30
0.0
  0
LINE
  5
7C28
  8
1
 10
7061.2308159442809
 20
7197.1642034400802
 30
0.0
 11
7061.2308159442809
 21
5171.6642034400793
 31
0.0
  0
LINE
  5
7C29
  8
1
 10
8121.2308159442791
 20
7197.1642034400802
 30
0.0
 11
8121.2308159442828
 21
4754.1642034400811
 31
0.0
  0
POINT
  5
7C2A
  8
1
 10
7591.23081594428
 20
7605.2280464883552
 30
0.0
  0
INSERT
  5
7C2B
  8
0
  6
BYBLOCK
 62
     2
  2
YA_N
 10
5372.4018783245183
 20
-226.14356067562309
 30
0.0
 41
90.0
 42
90.0
 43
90.0
 50
210.0117675348119
  0
LINE
  5
7C2C
  8
1
 10
6800.2308159442809
 20
4584.1642034400793
 30
0.0
 11
6800.2308159442809
 21
4509.1642034400793
 31
0.0
  0
LINE
  5
7C2D
  8
1
 10
8200.23081594428
 20
4584.1642034400811
 30
0.0
 11
8200.23081594428
 21
4509.1642034400802
 31
0.0
  0
LINE
  5
7C30
  8
1
 10
6691.5308159442793
 20
5095.1642034400811
 30
0.0
 11
6691.5308159442793
 21
4883.1642034400793
 31
0.0
  0
LINE
  5
7C31
  8
1
 10
6769.4308159442789
 20
5095.1642034400811
 30
0.0
 11
6769.4308159442789
 21
4883.1642034400793
 31
0.0
  0
LINE
  5
7C32
  8
2
 10
2314.4042822702968
 20
9916.2286110538062
 30
0.0
 11
4692.1091919066976
 21
9916.2286110538062
 31
0.0
  0
LINE
  5
7C33
  8
1
 10
2517.0752595381268
 20
10525.228611053801
 30
0.0
 11
2667.0752595381268
 21
10525.228611053801
 31
0.0
  0
LINE
  5
7C34
  8
1
 10
2517.0752595381268
 20
9125.2286110538062
 30
0.0
 11
5267.0752595381282
 21
9125.2286110538062
 31
0.0
  0
LINE
  5
7C35
  8
1
 10
5267.0752595381282
 20
10225.228611053801
 30
0.0
 11
5267.0752595381282
 21
9125.2286110538062
 31
0.0
  0
LINE
  5
7C36
  8
1
 10
2517.0752595381268
 20
10525.228611053801
 30
0.0
 11
2517.0752595381268
 21
10446.228611053801
 31
0.0
  0
LINE
  5
7C37
  8
2
 10
2308.8373089940828
 20
6194.1642034400793
 30
0.0
 11
4854.6595134648696
 21
6194.1642034400793
 31
0.0
  0
LINE
  5
7C38
  8
1
 10
4217.0752595381273
 20
10525.228611053801
 30
0.0
 11
4217.0752595381273
 21
10446.228611053801
 31
0.0
  0
LINE
  5
7C39
  8
1
 10
4574.0752595381273
 20
10225.228611053801
 30
0.0
 11
5267.0752595381282
 21
10225.228611053801
 31
0.0
  0
LINE
  5
7C3A
  8
1
 10
2437.0752595381268
 20
10446.228611053801
 30
0.0
 11
4574.0752595381273
 21
10446.228611053801
 31
0.0
  0
LINE
  5
7C3B
  8
1
 10
2437.0752595381268
 20
9386.2286110538062
 30
0.0
 11
4574.0752595381273
 21
9386.2286110538062
 31
0.0
  0
LINE
  5
7C3C
  8
1
 10
2517.0752595381268
 20
9386.2286110538062
 30
0.0
 11
2517.0752595381268
 21
9125.2286110538062
 31
0.0
  0
LINE
  5
7C3D
  8
1
 10
2617.0752595381268
 20
10546.228611053801
 30
0.0
 11
4117.0752595381273
 21
10546.228611053801
 31
0.0
  0
LINE
  5
7C3E
  8
1
 10
4067.0752595381268
 20
10546.228611053801
 30
0.0
 11
4067.0752595381268
 21
10446.228611053801
 31
0.0
  0
LINE
  5
7C3F
  8
1
 10
2667.0752595381268
 20
10546.228611053801
 30
0.0
 11
2667.0752595381268
 21
10446.228611053801
 31
0.0
  0
LINE
  5
7C40
  8
1
 10
4067.0752595381268
 20
10525.228611053801
 30
0.0
 11
4217.0752595381273
 21
10525.228611053801
 31
0.0
  0
DIMENSION
  5
7C41
  8
3
  2
*D2
 10
7061.2308159442809
 20
7443.633892227168
 30
0.0
 11
7591.23081594428
 21
7568.633892227168
 31
0.0
 70
     0
 13
8121.2308159442791
 23
7141.2876129198712
 33
0.0
 14
7061.2308159442809
 24
7141.2876129198712
 34
0.0
1001
ACAD
1000
DSTYLE
1002
{
1070
   287
1070
     3
1070
    40
1040
50.0
1070
   143
1040
0.039
1070
   172
1070
     1
1070
   271
1070
     0
1070
   279
1070
     0
1070
   288
1070
     1
1002
}
  0
DIMENSION
  5
7C42
  8
3
  2
*D3
 10
7591.23081594428
 20
7767.8075905773167
 30
0.0
 11
7908.23081594428
 21
7967.8075905773167
 31
0.0
 70
     0
 13
8225.23081594428
 23
6944.1642034400802
 33
0.0
 14
7591.23081594428
 24
7605.2280464883552
 34
0.0
1001
ACAD
1000
DSTYLE
1002
{
1070
   288
1070
     1
1070
   172
1070
     1
1070
    40
1040
50.0
1070
   271
1070
     0
1070
   143
1040
0.039
1002
}
  0
DIMENSION
  5
7C43
  8
3
  2
*D4
 10
6621.2308159442791
 20
7767.8075905773167
 30
0.0
 11
7106.2308159442809
 21
8017.8075905773176
 31
0.0
 70
     0
  1
MAX\P1030
 13
7591.23081594428
 23
7605.2280464883552
 33
0.0
 14
6621.2308159442791
 24
6574.1642034400802
 34
0.0
1001
ACAD
1000
DSTYLE
1002
{
1070
   287
1070
     3
1070
    40
1040
50.0
1070
   143
1040
0.039
1070
   172
1070
     1
1070
   271
1070
     0
1070
   279
1070
     0
1070
   288
1070
     1
1002
}
  0
LINE
  5
7C44
  8
1
 10
8121.2308159442791
 20
6894.1642034400802
 30
0.0
 11
8225.23081594428
 21
6894.1642034400802
 31
0.0
  0
DIMENSION
  5
7C45
  8
3
  2
*D5
 10
8613.7830372526769
 20
5494.1642034400793
 30
0.0
 11
8488.7830372526751
 21
6194.1642034400802
 31
0.0
 70
     0
 13
8225.23081594428
 23
6894.1642034400802
 33
0.0
 14
8225.23081594428
 24
5494.1642034400793
 34
0.0
 50
90.0
1001
ACAD
1000
DSTYLE
1002
{
1070
   287
1070
     3
1070
     3
1000
φ<>
1070
    40
1040
50.0
1070
   143
1040
0.039
1070
   172
1070
     1
1070
   271
1070
     0
1070
   279
1070
     0
1070
   288
1070
     1
1002
}
  0
DIMENSION
  5
7C46
  8
3
  2
*D6
 10
7591.23081594428
 20
4187.0777684607292
 30
0.0
 11
7195.73081594428
 21
4312.0777684607292
 31
0.0
 70
     0
 13
6800.2308159442809
 23
4509.1642034400793
 33
0.0
 14
7591.23081594428
 24
4356.5799495133369
 34
0.0
1001
ACAD
1000
DSTYLE
1002
{
1070
   287
1070
     3
1070
    40
1040
50.0
1070
   143
1040
0.039
1070
   172
1070
     1
1070
   271
1070
     0
1070
   279
1070
     0
1070
   288
1070
     1
1002
}
  0
DIMENSION
  5
7C47
  8
3
  2
*D7
 10
8200.23081594428
 20
4187.0777684607292
 30
0.0
 11
7895.73081594428
 21
4311.056441393258
 31
0.0
 70
   128
 13
7591.23081594428
 23
4356.5799495133369
 33
0.0
 14
8200.23081594428
 24
4509.1642034400802
 34
0.0
1001
ACAD
1000
DSTYLE
1002
{
1070
   288
1070
     1
1070
   172
1070
     1
1070
    40
1040
50.0
1070
   271
1070
     0
1070
   143
1040
0.039
1002
}
  0
LINE
  5
7C49
  8
2
 10
4967.0752595381273
 20
8944.6434804550136
 30
0.0
 11
4967.0752595381273
 21
9833.8157606523127
 31
0.0
  0
LINE
  5
7C4A
  8
1
 10
3409.5752595381268
 20
9116.5286110538073
 30
0.0
 11
3409.5752595381268
 21
9386.2286110538062
 31
0.0
  0
LINE
  5
7C4B
  8
1
 10
3324.5752595381268
 20
9116.5286110538073
 30
0.0
 11
3324.5752595381268
 21
9386.2286110538062
 31
0.0
  0
LINE
  5
7C4C
  8
1
 10
4924.5752595381273
 20
9109.5286110538073
 30
0.0
 11
4924.5752595381273
 21
9209.4286110538069
 31
0.0
  0
LINE
  5
7C4D
  8
1
 10
5009.5752595381273
 20
9109.5286110538073
 30
0.0
 11
5009.5752595381273
 21
9209.4286110538069
 31
0.0
  0
LINE
  5
7C4E
  8
1
 10
2987.0752595381268
 20
8946.2286110538062
 30
0.0
 11
5187.0752595381273
 21
8946.2286110538062
 31
0.0
  0
LINE
  5
7C4F
  8
1
 10
2987.0752595381268
 20
9166.5286110538073
 30
0.0
 11
5187.0752595381273
 21
9166.5286110538073
 31
0.0
  0
LINE
  5
7C50
  8
1
 10
4907.0752595381273
 20
9109.5286110538073
 30
0.0
 11
5027.0752595381273
 21
9109.5286110538073
 31
0.0
  0
LINE
  5
7C51
  8
1
 10
4861.0752595381273
 20
9016.5286110538073
 30
0.0
 11
5073.0752595381282
 21
9016.5286110538073
 31
0.0
  0
LINE
  5
7C52
  8
1
 10
4861.0752595381273
 20
9094.4286110538069
 30
0.0
 11
5073.0752595381282
 21
9094.4286110538051
 31
0.0
  0
LINE
  5
7C53
  8
1
 10
5187.0752595381273
 20
8946.2286110538062
 30
0.0
 11
5187.0752595381273
 21
9166.5286110538073
 31
0.0
  0
LINE
  5
7C54
  8
1
 10
5027.0752595381273
 20
9094.4286110538051
 30
0.0
 11
5027.0752595381273
 21
9109.5286110538073
 31
0.0
  0
LINE
  5
7C55
  8
1
 10
5073.0752595381282
 20
9016.5286110538073
 30
0.0
 11
5073.0752595381282
 21
9094.4286110538051
 31
0.0
  0
LINE
  5
7C56
  8
1
 10
4907.0752595381273
 20
9094.4286110538051
 30
0.0
 11
4907.0752595381273
 21
9109.5286110538073
 31
0.0
  0
LINE
  5
7C57
  8
1
 10
4861.0752595381273
 20
9016.5286110538073
 30
0.0
 11
4861.0752595381273
 21
9094.4286110538051
 31
0.0
  0
LINE
  5
7C58
  8
1
 10
3117.0752595381268
 20
9016.5286110538073
 30
0.0
 11
3617.0752595381268
 21
9016.5286110538073
 31
0.0
  0
LINE
  5
7C59
  8
1
 10
3117.0752595381268
 20
9094.4286110538069
 30
0.0
 11
3617.0752595381268
 21
9094.4286110538069
 31
0.0
  0
LINE
  5
7C5A
  8
1
 10
3287.0752595381268
 20
9094.4286110538069
 30
0.0
 11
3287.0752595381268
 21
9116.5286110538073
 31
0.0
  0
LINE
  5
7C5B
  8
1
 10
3447.0752595381268
 20
9094.4286110538069
 30
0.0
 11
3447.0752595381268
 21
9116.5286110538073
 31
0.0
  0
LINE
  5
7C5C
  8
1
 10
3617.0752595381268
 20
9016.5286110538073
 30
0.0
 11
3617.0752595381268
 21
9094.4286110538069
 31
0.0
  0
LINE
  5
7C5D
  8
1
 10
3287.0752595381268
 20
9116.5286110538073
 30
0.0
 11
3447.0752595381268
 21
9116.5286110538073
 31
0.0
  0
LINE
  5
7C5E
  8
1
 10
2987.0752595381268
 20
8946.2286110538062
 30
0.0
 11
2987.0752595381268
 21
9166.5286110538054
 31
0.0
  0
LINE
  5
7C5F
  8
1
 10
3117.0752595381268
 20
9016.5286110538073
 30
0.0
 11
3117.0752595381268
 21
9094.4286110538069
 31
0.0
  0
LINE
  5
7C60
  8
1
 10
4784.5752595381273
 20
9808.9286110538087
 30
0.0
 11
5149.5752595381282
 21
9808.9286110538069
 31
0.0
  0
LINE
  5
7C61
  8
1
 10
4784.5752595381273
 20
9209.4286110538087
 30
0.0
 11
5149.5752595381282
 21
9209.4286110538051
 31
0.0
  0
LINE
  5
7C62
  8
1
 10
5149.5752595381282
 20
9209.4286110538051
 30
0.0
 11
5149.5752595381282
 21
9808.9286110538069
 31
0.0
  0
LINE
  5
7C63
  8
1
 10
4784.5752595381273
 20
9209.4286110538087
 30
0.0
 11
4784.5752595381273
 21
9808.9286110538087
 31
0.0
  0
DIMENSION
  5
7C64
  8
3
  2
*D8
 10
4217.0752595381273
 20
10889.74484152968
 30
0.0
 11
3367.0752595381268
 21
11014.74484152968
 31
0.0
 70
     0
 13
2517.0752595381268
 23
10525.228611053801
 33
0.0
 14
4217.0752595381273
 24
10525.228611053801
 34
0.0
1001
ACAD
1000
DSTYLE
1002
{
1070
   287
1070
     3
1070
    40
1040
50.0
1070
   143
1040
0.039
1070
   172
1070
     1
1070
   271
1070
     0
1070
   279
1070
     0
1070
   288
1070
     1
1002
}
  0
DIMENSION
  5
7C65
  8
3
  2
*D9
 10
5267.0752595381282
 20
10889.74484152968
 30
0.0
 11
4742.0752595381273
 21
11014.74484152968
 31
0.0
 70
     0
 13
4217.0752595381273
 23
10525.228611053801
 33
0.0
 14
5267.0752595381282
 24
10225.228611053801
 34
0.0
1001
ACAD
1000
DSTYLE
1002
{
1070
   287
1070
     3
1070
    40
1040
50.0
1070
   143
1040
0.039
1070
   172
1070
     1
1070
   271
1070
     0
1070
   279
1070
     0
1070
   288
1070
     1
1002
}
  0
DIMENSION
  5
7C66
  8
3
  2
*D10
 10
5731.4798985858206
 20
9125.2286110538062
 30
0.0
 11
5606.4798985858206
 21
9675.2286110538098
 31
0.0
 70
     0
 13
5267.0752595381282
 23
10225.228611053801
 33
0.0
 14
5267.0752595381282
 24
9125.2286110538062
 34
0.0
 50
90.0
1001
ACAD
1000
DSTYLE
1002
{
1070
   287
1070
     3
1070
    40
1040
50.0
1070
   143
1040
0.039
1070
   172
1070
     1
1070
   271
1070
     0
1070
   279
1070
     0
1070
   288
1070
     1
1002
}
  0
DIMENSION
  5
7C67
  8
3
  2
*D11
 10
5267.0752595381282
 20
8540.9437633553789
 30
0.0
 11
3892.0752595381268
 21
8665.9437633553789
 31
0.0
 70
     0
 13
2517.0752595381268
 23
9125.2286110538062
 33
0.0
 14
5267.0752595381282
 24
9125.2286110538062
 34
0.0
1001
ACAD
1000
DSTYLE
1002
{
1070
   287
1070
     3
1070
    40
1040
50.0
1070
   143
1040
0.039
1070
   172
1070
     1
1070
   271
1070
     0
1070
   279
1070
     0
1070
   288
1070
     1
1002
}
  0
DIMENSION
  5
7C68
  8
3
  2
*D12
 10
2061.580257188939
 20
6153.1642034400802
 30
0.0
 11
2061.580257188938
 21
5428.1642034400793
 31
0.0
 70
   128
 13
2437.0752595381268
 23
4703.1642034400802
 33
0.0
 14
2437.0752595381268
 24
6153.1642034400802
 34
0.0
 50
90.0
1001
ACAD
1000
DSTYLE
1002
{
1070
   287
1070
     3
1070
    40
1040
50.0
1070
   143
1040
0.039
1070
   172
1070
     1
1070
   271
1070
     0
1070
   279
1070
     0
1070
   288
1070
     1
1002
}
  0
DIMENSION
  5
7C69
  8
3
  2
*D13
 10
3367.0752595381268
 20
4182.7377629306166
 30
0.0
 11
2942.0752595381268
 21
4307.7377629306166
 31
0.0
 70
     0
 13
2517.0752595381268
 23
4509.1642034400793
 33
0.0
 14
3367.0752595381268
 24
4356.5799495133369
 34
0.0
1001
ACAD
1000
DSTYLE
1002
{
1070
   287
1070
     3
1070
    40
1040
50.0
1070
   143
1040
0.039
1070
   172
1070
     1
1070
   271
1070
     0
1070
   279
1070
     0
1070
   288
1070
     1
1002
}
  0
DIMENSION
  5
7C6A
  8
3
  2
*D14
 10
5267.0752595381282
 20
4182.7377629306166
 30
0.0
 11
4317.0752595381273
 21
4307.7377629306166
 31
0.0
 70
     0
 13
3367.0752595381268
 23
4356.5799495133369
 33
0.0
 14
5267.0752595381282
 24
4509.1642034400793
 34
0.0
1001
ACAD
1000
DSTYLE
1002
{
1070
   287
1070
     3
1070
    40
1040
50.0
1070
   143
1040
0.039
1070
   172
1070
     1
1070
   271
1070
     0
1070
   279
1070
     0
1070
   288
1070
     1
1002
}
  0
DIMENSION
  5
7C6E
  8
3
  2
*D15
 10
3367.0752595381268
 20
7558.9762380798684
 30
0.0
 11
2902.0752595381268
 21
7683.9762380798684
 31
0.0
 70
     0
 13
2437.0752595381268
 23
6135.4732943820582
 33
0.0
 14
3367.0752595381268
 24
7311.5711817025885
 34
0.0
1001
ACAD
1000
DSTYLE
1002
{
1070
   287
1070
     3
1070
    40
1040
50.0
1070
   143
1040
0.039
1070
   172
1070
     1
1070
   271
1070
     0
1070
   279
1070
     0
1070
   288
1070
     1
1002
}
  0
DIMENSION
  5
7C6F
  8
3
  2
*D16
 10
4574.0752595381273
 20
7558.9762380798684
 30
0.0
 11
3970.5752595381282
 21
7683.9762380798684
 31
0.0
 70
     0
 13
3367.0752595381268
 23
7311.5711817025885
 33
0.0
 14
4574.0752595381273
 24
6180.5134193963841
 34
0.0
1001
ACAD
1000
DSTYLE
1002
{
1070
   287
1070
     3
1070
    40
1040
50.0
1070
   143
1040
0.039
1070
   172
1070
     1
1070
   271
1070
     0
1070
   279
1070
     0
1070
   288
1070
     1
1002
}
  0
LINE
  5
7C70
  8
1
 10
2437.0752595381268
 20
10496.228611053801
 30
0.0
 11
2437.0752595381268
 21
9336.228611053808
 31
0.0
  0
LINE
  5
7C71
  8
1
 10
4574.0752595381273
 20
10446.228611053801
 30
0.0
 11
4574.0752595381273
 21
9386.2286110538062
 31
0.0
  0
LINE
  5
7C72
  8
1
 10
7061.2308159442809
 20
6153.1642034400802
 30
0.0
 11
8121.2308159442791
 21
6153.1642034400802
 31
0.0
  0
LINE
  5
7C73
  8
1
 10
8083.9480573235878
 20
4754.1642034400802
 30
0.0
 11
7061.2308159442809
 21
6153.1642034400802
 31
0.0
  0
LINE
  5
7C75
  8
1
 10
2487.0752595381268
 20
9386.2286110538062
 30
0.0
 11
2487.0752595381268
 21
10446.228611053801
 31
0.0
  0
DIMENSION
  5
7C76
  8
3
  2
*D17
 10
1519.647751661277
 20
6194.1642034400802
 30
0.0
 11
1394.6477516612761
 21
6695.6642034400802
 31
0.0
 70
     0
 13
3469.0752595381282
 23
7197.1642034400802
 33
0.0
 14
2308.8373089940828
 24
6194.1642034400793
 34
0.0
 50
270.0
1001
ACAD
1000
DSTYLE
1002
{
1070
   287
1070
     3
1070
    40
1040
50.0
1070
   143
1040
0.039
1070
   172
1070
     1
1070
   271
1070
     0
1070
   279
1070
     0
1070
   288
1070
     1
1002
}
  0
DIMENSION
  5
7C77
  8
3
  2
*D18
 10
1520.916111207925
 20
4604.1642034400802
 30
0.0
 11
1395.916111207925
 21
5399.1642034400802
 31
0.0
 70
     0
 13
2308.8373089940828
 23
6194.1642034400793
 33
0.0
 14
2517.0752595381268
 24
4604.1642034400793
 34
0.0
 50
270.0
1001
ACAD
1000
DSTYLE
1002
{
1070
   287
1070
     3
1070
    40
1040
50.0
1070
   143
1040
0.039
1070
   172
1070
     1
1070
   271
1070
     0
1070
   279
1070
     0
1070
   288
1070
     1
1002
}
  0
DIMENSION
  5
7C78
  8
3
  2
*D19
 10
1164.773236560025
 20
4509.1642034400802
 30
0.0
 11
1039.773236560025
 21
5853.1642034400802
 31
0.0
 70
     0
 13
3469.0752595381282
 23
7197.1642034400802
 33
0.0
 14
2517.0752595381268
 24
4509.1642034400793
 34
0.0
 50
270.0
1001
ACAD
1000
DSTYLE
1002
{
1070
   287
1070
     3
1070
    40
1040
50.0
1070
   143
1040
0.039
1070
   172
1070
     1
1070
   271
1070
     0
1070
   279
1070
     0
1070
   288
1070
     1
1002
}
  0
DIMENSION
  5
7C79
  8
3
  2
*D20
 10
1811.082502121933
 20
4703.1642034400802
 30
0.0
 11
1686.0825021219321
 21
5448.6642034400802
 31
0.0
 70
     0
 13
2308.8373089940828
 23
6194.1642034400793
 33
0.0
 14
2437.0752595381268
 24
4703.1642034400802
 34
0.0
 50
270.0
1001
ACAD
1000
DSTYLE
1002
{
1070
   287
1070
     3
1070
    40
1040
50.0
1070
   143
1040
0.039
1070
   172
1070
     1
1070
   271
1070
     0
1070
   279
1070
     0
1070
   288
1070
     1
1002
}
  0
LINE
  5
7C7A
  8
1
 10
7061.2308159442809
 20
7197.1642034400802
 30
0.0
 11
8121.2308159442791
 21
7197.1642034400802
 31
0.0
  0
LINE
  5
7E87
  8
4
 10
9250.0
 20
2500.0
 30
0.0
 11
9250.0
 21
1500.0
 31
0.0
  0
LINE
  5
7E88
  8
4
 10
5750.0
 20
2500.0
 30
0.0
 11
5750.0
 21
1500.0
 31
0.0
  0
LINE
  5
7E89
  8
4
 10
3250.0
 20
2500.0
 30
0.0
 11
3250.0
 21
1500.0
 31
0.0
  0
LINE
  5
7E8C
  8
4
 10
3250.0
 20
1500.0
 30
0.0
 11
9250.0
 21
1500.0
 31
0.0
  0
LINE
  5
7E8D
  8
4
 10
3250.0
 20
2000.0
 30
0.0
 11
9250.0
 21
2000.0
 31
0.0
  0
TEXT
  5
7E8E
  8
4
 10
3442.5104042345079
 20
2157.7151293330639
 30
0.0
 40
250.0
  1
機器名称
  0
TEXT
  5
7E8F
  8
4
 10
3431.2905301239871
 20
1608.225783660054
 30
0.0
 40
250.0
  1
機器型番
  0
TEXT
  5
7E90
  8
4
 10
5896.1731105725121
 20
2109.8309045216729
 30
0.0
 40
200.0
  1
ミツヤリミットロードファン
  0
TEXT
  5
7E91
  8
4
 10
5933.2724779274031
 20
1585.797921399716
 30
0.0
 40
250.0
  1
LL#9-4
  0
TEXT
  5
7E93
  8
4
 10
3837.472018486787
 20
11917.14420666257
 30
0.0
 40
269.99999999999989
  1
床置防振ベット
  0
TEXT
  5
7E94
  8
4
 10
1577.3740300895779
 20
12652.019295779261
 30
0.0
 40
306.0
  1
ベルト駆動式片吸込両持リミットロードファン
  0
LINE
  5
7E95
  8
4
 10
1250.0
 20
12347.043771324021
 30
0.0
 11
9250.0
 21
12347.043771324021
 31
0.0
  0
LINE
  5
7E96
  8
4
 10
1250.0
 20
13347.043771324021
 30
0.0
 11
9250.0
 21
13347.043771324021
 31
0.0
  0
LINE
  5
7E97
  8
4
 10
3250.0
 20
2500.0
 30
0.0
 11
9250.0
 21
2500.0
 31
0.0
  0
LINE
  5
7E98
  8
4
 10
1250.0
 20
13347.043771324021
 30
0.0
 11
1250.0
 21
12347.043771324021
 31
0.0
  0
TEXT
  5
7E99
  8
4
 10
1658.177857273276
 20
11911.59738773171
 30
0.0
 40
269.99999999999989
  1
右回転左横向
  0
TEXT
  5
7E9A
  8
4
 10
7344.8477962464494
 20
13530.30540747654
 30
0.0
 40
280.0
  1
No.
  0
TEXT
  5
7E9B
  8
4
 10
6556.4803130000646
 20
11917.14420666257
 30
0.0
 40
269.99999999999989
  1
縮尺：1/50
  0
LINE
  5
7E9C
  8
4
 10
9250.0
 20
13347.043771324021
 30
0.0
 11
9250.0
 21
12347.043771324021
 31
0.0
  0
LINE
  5
7E9D
  8
4
 10
10500.0
 20
14750.0
 30
0.0
 11
10500.0
 21
14750.0
 31
0.0
  0
LINE
  5
7E9E
  8
4
 10
7203.0871117993229
 20
13406.317915627
 30
0.0
 11
7203.0871117993229
 21
13933.26130774876
 31
0.0
  0
LINE
  5
7E9F
  8
4
 10
7203.0871117993229
 20
13933.26130774876
 30
0.0
 11
9250.0
 21
13933.26130774876
 31
0.0
  0
LINE
  5
7EA0
  8
4
 10
9250.0
 20
13933.26130774876
 30
0.0
 11
9250.0
 21
13406.317915627
 31
0.0
  0
LINE
  5
7EA1
  8
4
 10
9250.0
 20
13406.317915627
 30
0.0
 11
7203.0871117993229
 21
13406.317915627
 31
0.0
  0
LINE
  5
7EA2
  8
4
 10
0.0
 20
0.0
 30
0.0
 11
0.0
 21
14750.0
 31
0.0
  0
LINE
  5
7EA3
  8
4
 10
0.0
 20
14750.0
 30
0.0
 11
10500.0
 21
14750.0
 31
0.0
  0
LINE
  5
7EA4
  8
4
 10
10500.0
 20
14750.0
 30
0.0
 11
10500.0
 21
0.0
 31
0.0
  0
LINE
  5
7EA5
  8
4
 10
10500.0
 20
0.0
 30
0.0
 11
0.0
 21
0.0
 31
0.0
  0
DIMENSION
  5
8098
  8
3
  2
*D21
 10
2134.3600634905829
 20
9125.2286110538062
 30
0.0
 11
2134.3600634905811
 21
9724.2097522124877
 31
0.0
 70
   128
 13
2517.0752595381268
 23
10525.228611053801
 33
0.0
 14
2517.0752595381268
 24
9125.2286110538062
 34
0.0
 50
90.0
1001
ACAD
1000
DSTYLE
1002
{
1070
   287
1070
     3
1070
    40
1040
50.0
1070
   143
1040
0.039
1070
   172
1070
     1
1070
   271
1070
     0
1070
   279
1070
     0
1070
   288
1070
     1
1002
}
  0
DIMENSION
  5
81D6
  8
3
  2
*D22
 10
1520.916111207925
 20
4509.1642034400802
 30
0.0
 11
1395.916111207925
 21
4137.7356320115086
 31
0.0
 70
     0
 13
2517.0752595381268
 23
4604.1642034400793
 33
0.0
 14
2517.0752595381268
 24
4509.1642034400793
 34
0.0
 50
90.0
1001
ACAD
1000
DSTYLE
1002
{
1070
   287
1070
     3
1070
    40
1040
50.0
1070
   143
1040
0.039
1070
   172
1070
     1
1070
   271
1070
     0
1070
   279
1070
     0
1070
   288
1070
     1
1002
}
  0
DIMENSION
  5
8234
  8
3
  2
*D23
 10
5267.0752595381282
 20
7866.0469510858393
 30
0.0
 11
3873.6736868371731
 21
7866.0469510858393
 31
0.0
 70
   128
 13
2437.0752595381268
 23
6207.1642034400793
 33
0.0
 14
5267.0752595381282
 24
4754.1642034400793
 34
0.0
1001
ACAD
1000
DSTYLE
1002
{
1070
   287
1070
     3
1070
    40
1040
50.0
1070
   143
1040
0.039
1070
   172
1070
     1
1070
   271
1070
     0
1070
   279
1070
     0
1070
   288
1070
     1
1002
}
  0
LINE
  5
823D
  8
1
 10
6884.4308159442826
 20
5171.6642034400793
 30
0.0
 11
7483.9308159442799
 21
5171.6642034400793
 31
0.0
  0
LINE
  5
823E
  8
1
 10
6884.4308159442789
 20
4806.6642034400793
 30
0.0
 11
7483.9308159442799
 21
4806.6642034400793
 31
0.0
  0
LINE
  5
8240
  8
1
 10
7483.9308159442799
 20
5171.6642034400793
 30
0.0
 11
7483.9308159442799
 21
4806.6642034400793
 31
0.0
  0
LINE
  5
8241
  8
1
 10
6884.4308159442826
 20
5171.6642034400793
 30
0.0
 11
6884.4308159442789
 21
4806.6642034400793
 31
0.0
  0
LINE
  5
8242
  8
1
 10
6784.5308159442811
 20
5031.6642034400802
 30
0.0
 11
6884.4308159442789
 21
5031.6642034400802
 31
0.0
  0
LINE
  5
8243
  8
1
 10
6784.5308159442811
 20
4946.6642034400793
 30
0.0
 11
6884.4308159442789
 21
4946.6642034400793
 31
0.0
  0
LINE
  5
8244
  8
1
 10
6784.5308159442811
 20
5049.1642034400802
 30
0.0
 11
6784.5308159442811
 21
4929.1642034400793
 31
0.0
  0
LINE
  5
8245
  8
1
 10
6769.4308159442789
 20
4929.1642034400793
 30
0.0
 11
6784.5308159442811
 21
4929.1642034400793
 31
0.0
  0
LINE
  5
8246
  8
1
 10
6769.4308159442789
 20
5049.1642034400802
 30
0.0
 11
6784.5308159442811
 21
5049.1642034400802
 31
0.0
  0
LINE
  5
8247
  8
1
 10
6769.4308159442789
 20
5095.1642034400793
 30
0.0
 11
6769.4308159442789
 21
4883.1642034400793
 31
0.0
  0
LINE
  5
8248
  8
1
 10
7061.2308159442809
 20
4806.6642034400793
 30
0.0
 11
7061.2308159442809
 21
4754.1642034400802
 31
0.0
  0
LINE
  5
8249
  8
1
 10
7403.7204711166951
 20
5171.6642034400793
 30
0.0
 11
8121.2308159442791
 21
6153.1642034400802
 31
0.0
  0
ENDSEC
  0
EOF
