  0
SECTION
  2
HEADER
  9
$ACADVER
  1
AC1009
  9
$INSBASE
 10
0.0
 20
0.0
 30
0.0
  9
$EXTMIN
 10
0.0
 20
0.0
 30
0.0
  9
$EXTMAX
 10
10500.0
 20
14750.0
 30
0.0
  9
$LIMMIN
 10
0.0
 20
0.0
  9
$LIMMAX
 10
297.0
 20
210.0
  9
$ORTHOMODE
 70
     0
  9
$REGENMODE
 70
     1
  9
$FILLMODE
 70
     0
  9
$QTEXTMODE
 70
     0
  9
$MIRRTEXT
 70
     1
  9
$DRAGMODE
 70
     2
  9
$LTSCALE
 40
100.0
  9
$OSMODE
 70
    37
  9
$ATTMODE
 70
     1
  9
$TEXTSIZE
 40
180.0
  9
$TRACEWID
 40
0.05
  9
$TEXTSTYLE
  7
STANDARD
  9
$CLAYER
  8
3
  9
$CELTYPE
  6
BYLAYER
  9
$CECOLOR
 62
   256
  9
$DIMSCALE
 40
50.0
  9
$DIMASZ
 40
2.0
  9
$DIMEXO
 40
0.5
  9
$DIMDLI
 40
10.0
  9
$DIMRND
 40
0.0
  9
$DIMDLE
 40
0.0
  9
$DIMEXE
 40
1.0
  9
$DIMTP
 40
1.0
  9
$DIMTM
 40
1.0
  9
$DIMTXT
 40
3.0
  9
$DIMCEN
 40
0.0
  9
$DIMTSZ
 40
0.0
  9
$DIMTOL
 70
     0
  9
$DIMLIM
 70
     0
  9
$DIMTIH
 70
     0
  9
$DIMTOH
 70
     0
  9
$DIMSE1
 70
     0
  9
$DIMSE2
 70
     0
  9
$DIMTAD
 70
     1
  9
$DIMZIN
 70
     8
  9
$DIMBLK
  1

  9
$DIMASO
 70
     1
  9
$DIMSHO
 70
     1
  9
$DIMPOST
  1

  9
$DIMAPOST
  1

  9
$DIMALT
 70
     0
  9
$DIMALTD
 70
     2
  9
$DIMALTF
 40
0.039
  9
$DIMLFAC
 40
1.0
  9
$DIMTOFL
 70
     1
  9
$DIMTVP
 40
0.0
  9
$DIMTIX
 70
     0
  9
$DIMSOXD
 70
     0
  9
$DIMSAH
 70
     1
  9
$DIMBLK1
  1
OPEN
  9
$DIMBLK2
  1
OPEN
  9
$DIMSTYLE
  2
IGA
  9
$DIMCLRD
 70
     0
  9
$DIMCLRE
 70
     0
  9
$DIMCLRT
 70
     0
  9
$DIMTFAC
 40
10.0
  9
$DIMGAP
 40
1.0
  9
$LUNITS
 70
     2
  9
$LUPREC
 70
     3
  9
$SKETCHINC
 40
0.1
  9
$FILLETRAD
 40
50.0
  9
$AUNITS
 70
     0
  9
$AUPREC
 70
     0
  9
$MENU
  1
acad
  9
$ELEVATION
 40
0.0
  9
$PELEVATION
 40
0.0
  9
$THICKNESS
 40
0.0
  9
$LIMCHECK
 70
     0
  9
$BLIPMODE
 70
     0
  9
$CHAMFERA
 40
0.5
  9
$CHAMFERB
 40
0.5
  9
$SKPOLY
 70
     0
  9
$TDCREATE
 40
2451408.5004125
  9
$TDUPDATE
 40
2454953.66261971
  9
$TDINDWG
 40
0.0597815162
  9
$TDUSRTIMER
 40
0.0597815162
  9
$USRTIMER
 70
     1
  9
$ANGBASE
 50
0.0
  9
$ANGDIR
 70
     0
  9
$PDMODE
 70
     0
  9
$PDSIZE
 40
0.0
  9
$PLINEWID
 40
0.0
  9
$COORDS
 70
     1
  9
$SPLFRAME
 70
     0
  9
$SPLINETYPE
 70
     6
  9
$SPLINESEGS
 70
     8
  9
$ATTDIA
 70
     0
  9
$ATTREQ
 70
     1
  9
$HANDLING
 70
 10241
  9
$HANDSEED
  5
83E3
  9
$SURFTAB1
 70
     6
  9
$SURFTAB2
 70
     6
  9
$SURFTYPE
 70
     6
  9
$SURFU
 70
     6
  9
$SURFV
 70
     6
  9
$UCSNAME
  2

  9
$UCSORG
 10
0.0
 20
0.0
 30
0.0
  9
$UCSXDIR
 10
1.0
 20
0.0
 30
0.0
  9
$UCSYDIR
 10
0.0
 20
1.0
 30
0.0
  9
$PUCSNAME
  2

  9
$PUCSORG
 10
0.0
 20
0.0
 30
0.0
  9
$PUCSXDIR
 10
1.0
 20
0.0
 30
0.0
  9
$PUCSYDIR
 10
0.0
 20
1.0
 30
0.0
  9
$USERI1
 70
     0
  9
$USERI2
 70
     0
  9
$USERI3
 70
     0
  9
$USERI4
 70
     0
  9
$USERI5
 70
     0
  9
$USERR1
 40
0.0
  9
$USERR2
 40
0.0
  9
$USERR3
 40
0.0
  9
$USERR4
 40
0.0
  9
$USERR5
 40
0.0
  9
$WORLDVIEW
 70
     1
  9
$SHADEDGE
 70
     3
  9
$SHADEDIF
 70
    70
  9
$TILEMODE
 70
     1
  9
$MAXACTVP
 70
    16
  9
$PLIMCHECK
 70
     0
  9
$PEXTMIN
 10
1.0000000000000000E+020
 20
1.0000000000000000E+020
 30
1.0000000000000000E+020
  9
$PEXTMAX
 10
-1.0000000000000000E+020
 20
-1.0000000000000000E+020
 30
-1.0000000000000000E+020
  9
$PLIMMIN
 10
0.0
 20
0.0
  9
$PLIMMAX
 10
12.0
 20
9.0
  9
$UNITMODE
 70
     0
  9
$VISRETAIN
 70
     0
  9
$PLINEGEN
 70
     0
  9
$PSLTSCALE
 70
     1
  0
ENDSEC
  0
SECTION
  2
TABLES
  0
TABLE
  2
VPORT
 70
     2
  0
VPORT
  2
*ACTIVE
 70
     0
 10
0.0
 20
0.0
 11
1.0
 21
1.0
 12
20017.267697549611
 22
7079.1543176568885
 13
0.0
 23
0.0
 14
10.0
 24
10.0
 15
10.0
 25
10.0
 16
0.0
 26
0.0
 36
1.0
 17
0.0
 27
0.0
 37
0.0
 40
15435.2390809434
 41
3.1666666666666661
 42
50.0
 43
0.0
 44
0.0
 50
0.0
 51
0.0
 71
     0
 72
   100
 73
     1
 74
     0
 75
     0
 76
     0
 77
     0
 78
     0
  0
ENDTAB
  0
TABLE
  2
LTYPE
 70
     2
  0
LTYPE
  2
CONTINUOUS
 70
     0
  3
Solid line
 72
    65
 73
     0
 40
0.0
  0
LTYPE
  2
CENTER
 70
     0
  3
____ _ ____ _ ____ _ ____ _ ____ _ ____ _ ____ 
 72
    65
 73
     4
 40
2.0
 49
1.25
 49
-0.25
 49
0.25
 49
-0.25
  0
ENDTAB
  0
TABLE
  2
LAYER
 70
     6
  0
LAYER
  2
0
 70
     0
 62
     7
  6
CONTINUOUS
  0
LAYER
  2
3
 70
     0
 62
     2
  6
CONTINUOUS
  0
LAYER
  2
2
 70
     0
 62
     3
  6
CENTER
  0
LAYER
  2
1
 70
     0
 62
     4
  6
CONTINUOUS
  0
LAYER
  2
4
 70
     0
 62
     7
  6
CONTINUOUS
  0
LAYER
  2
DEFPOINTS
 70
     0
 62
     7
  6
CONTINUOUS
  0
ENDTAB
  0
TABLE
  2
STYLE
 70
     1
  0
STYLE
  2
STANDARD
 70
     0
 40
0.0
 41
1.0
 50
0.0
 71
     0
 42
180.0
  3
simplex.shx
  4
extfont.shx
  0
ENDTAB
  0
TABLE
  2
VIEW
 70
     0
  0
ENDTAB
  0
TABLE
  2
UCS
 70
     0
  0
ENDTAB
  0
TABLE
  2
APPID
 70
     1
  0
APPID
  2
ACAD
 70
     0
  0
ENDTAB
  0
TABLE
  2
DIMSTYLE
 70
     1
  0
DIMSTYLE
  2
IGA
 70
     0
  3

  4

  5

  6
OPEN
  7
OPEN
 40
2.0
 41
2.0
 42
0.5
 43
10.0
 44
1.0
 45
0.0
 46
0.0
 47
1.0
 48
1.0
140
3.0
141
0.0
142
0.0
143
0.03937
144
1.0
145
0.0
146
10.0
147
1.0
 71
     0
 72
     0
 73
     0
 74
     0
 75
     0
 76
     0
 77
     1
 78
     8
170
     0
171
     2
172
     0
173
     1
174
     0
175
     0
176
     0
177
     0
178
     0
  0
ENDTAB
  0
ENDSEC
  0
SECTION
  2
BLOCKS
  0
BLOCK
  8
0
  2
$MODEL_SPACE
 70
     0
 10
0.0
 20
0.0
 30
0.0
  3
$MODEL_SPACE
  1

  0
ENDBLK
  5
1B
  8
0
  0
BLOCK
 67
     1
  8
0
  2
$PAPER_SPACE
 70
     0
 10
0.0
 20
0.0
 30
0.0
  3
$PAPER_SPACE
  1

  0
ENDBLK
  5
18
 67
     1
  8
0
  0
BLOCK
  8
0
  2
_OPEN
 70
     0
 10
0.0
 20
0.0
 30
0.0
  3
_OPEN
  1

  0
LINE
  5
79FD
  8
0
  6
BYBLOCK
 62
     0
 10
-1.0
 20
0.1666666666666666
 30
0.0
 11
0.0
 21
0.0
 31
0.0
  0
LINE
  5
79FE
  8
0
  6
BYBLOCK
 62
     0
 10
0.0
 20
0.0
 30
0.0
 11
-1.0
 21
-0.1666666666666666
 31
0.0
  0
LINE
  5
79FF
  8
0
  6
BYBLOCK
 62
     0
 10
0.0
 20
0.0
 30
0.0
 11
-1.0
 21
0.0
 31
0.0
  0
ENDBLK
  5
7A01
  8
0
  0
BLOCK
  8
0
  2
YA_N
 70
     0
 10
0.0
 20
0.0
 30
0.0
  3
YA_N
  1

  0
ENDBLK
  5
7A0C
  8
0
  0
BLOCK
  8
0
  2
*D2
 70
     1
 10
0.0
 20
0.0
 30
0.0
  3
*D2
  1

  0
LINE
  5
8323
  8
3
 62
     0
 10
2702.2771722967841
 20
6564.6235255622414
 30
0.0
 11
2702.2771722967841
 21
6857.2696710759128
 31
0.0
  0
LINE
  5
8324
  8
3
 62
     0
 10
4152.2771722967836
 20
6564.6235255622414
 30
0.0
 11
4152.2771722967836
 21
6857.2696710759128
 31
0.0
  0
LINE
  5
8325
  8
3
 62
     0
 10
2802.2771722967841
 20
6807.2696710759128
 30
0.0
 11
4052.2771722967841
 21
6807.2696710759128
 31
0.0
  0
INSERT
  5
8326
  8
3
 62
     0
  2
_OPEN
 10
2702.2771722967841
 20
6807.2696710759128
 30
0.0
 41
100.0
 42
100.0
 43
100.0
 50
180.0
  0
INSERT
  5
8327
  8
3
 62
     0
  2
_OPEN
 10
4152.2771722967836
 20
6807.2696710759128
 30
0.0
 41
100.0
 42
100.0
 43
100.0
  0
TEXT
  8
3
  40
150
  5
83CF
  62
0
  72
0
  71
0
 10
3127.28
 20
6666.77
 30
0.000000
  1
1450
  0
POINT
  5
8329
  8
DEFPOINTS
 62
     0
 10
2702.2771722967841
 20
6539.6235255622414
 30
0.0
  0
POINT
  5
832A
  8
DEFPOINTS
 62
     0
 10
4152.2771722967836
 20
6539.6235255622414
 30
0.0
  0
POINT
  5
832B
  8
DEFPOINTS
 62
     0
 10
4152.2771722967836
 20
6807.2696710759128
 30
0.0
  0
ENDBLK
  5
823C
  8
0
  0
BLOCK
  8
0
  2
*D3
 70
     1
 10
0.0
 20
0.0
 30
0.0
  3
*D3
  1

  0
LINE
  5
832C
  8
3
 62
     0
 10
2702.2771722967841
 20
6564.6235255622414
 30
0.0
 11
2702.2771722967841
 21
7107.6222347844387
 31
0.0
  0
LINE
  5
832D
  8
3
 62
     0
 10
4193.2771722967836
 20
6652.618283413326
 30
0.0
 11
4193.2771722967836
 21
7107.6222347844387
 31
0.0
  0
LINE
  5
832E
  8
3
 62
     0
 10
2802.2771722967841
 20
7057.6222347844387
 30
0.0
 11
4093.277172296785
 21
7057.6222347844387
 31
0.0
  0
INSERT
  5
832F
  8
3
 62
     0
  2
_OPEN
 10
2702.2771722967841
 20
7057.6222347844387
 30
0.0
 41
100.0
 42
100.0
 43
100.0
 50
180.0
  0
INSERT
  5
8330
  8
3
 62
     0
  2
_OPEN
 10
4193.2771722967836
 20
7057.6222347844387
 30
0.0
 41
100.0
 42
100.0
 43
100.0
  0
TEXT
  8
3
  40
150
  5
83D0
  62
0
  72
0
  71
0
 10
3147.78
 20
6917.12
 30
0.000000
  1
1491
  0
POINT
  5
8332
  8
DEFPOINTS
 62
     0
 10
2702.2771722967841
 20
6539.6235255622414
 30
0.0
  0
POINT
  5
8333
  8
DEFPOINTS
 62
     0
 10
4193.2771722967836
 20
6627.618283413326
 30
0.0
  0
POINT
  5
8334
  8
DEFPOINTS
 62
     0
 10
4193.2771722967836
 20
7057.6222347844387
 30
0.0
  0
ENDBLK
  5
8231
  8
0
  0
BLOCK
  8
0
  2
*D4
 70
     1
 10
0.0
 20
0.0
 30
0.0
  3
*D4
  1

  0
LINE
  5
8335
  8
3
 62
     0
 10
4193.2771722967836
 20
6652.618283413326
 30
0.0
 11
4193.2771722967836
 21
7107.6222347844387
 31
0.0
  0
LINE
  5
8336
  8
3
 62
     0
 10
5196.2771722967846
 20
5532.6235255622414
 30
0.0
 11
5196.2771722967846
 21
7107.6222347844387
 31
0.0
  0
LINE
  5
8337
  8
3
 62
     0
 10
4293.2771722967846
 20
7057.6222347844387
 30
0.0
 11
5096.2771722967836
 21
7057.6222347844387
 31
0.0
  0
INSERT
  5
8338
  8
3
 62
     0
  2
_OPEN
 10
4193.2771722967836
 20
7057.6222347844387
 30
0.0
 41
100.0
 42
100.0
 43
100.0
 50
180.0
  0
INSERT
  5
8339
  8
3
 62
     0
  2
_OPEN
 10
5196.2771722967846
 20
7057.6222347844387
 30
0.0
 41
100.0
 42
100.0
 43
100.0
  0
TEXT
  8
3
  40
150
  5
83D1
  62
0
  72
0
  71
0
 10
4394.78
 20
6917.12
 30
0.000000
  1
1003
  0
POINT
  5
833B
  8
DEFPOINTS
 62
     0
 10
4193.2771722967836
 20
6627.618283413326
 30
0.0
  0
POINT
  5
833C
  8
DEFPOINTS
 62
     0
 10
5196.2771722967846
 20
5507.6235255622414
 30
0.0
  0
POINT
  5
833D
  8
DEFPOINTS
 62
     0
 10
5196.2771722967846
 20
7057.6222347844387
 30
0.0
  0
ENDBLK
  5
8226
  8
0
  0
BLOCK
  8
0
  2
*D5
 70
     1
 10
0.0
 20
0.0
 30
0.0
  3
*D5
  1

  0
LINE
  5
833E
  8
3
 62
     0
 10
5043.2771722967846
 20
4249.6235255622414
 30
0.0
 11
5043.2771722967846
 21
3877.8577398926441
 31
0.0
  0
LINE
  5
833F
  8
3
 62
     0
 10
4193.2771722967836
 20
4097.0392716354991
 30
0.0
 11
4193.2771722967836
 21
3877.8577398926441
 31
0.0
  0
LINE
  5
8340
  8
3
 62
     0
 10
4943.2771722967836
 20
3927.8577398926441
 30
0.0
 11
4293.2771722967846
 21
3927.8577398926441
 31
0.0
  0
INSERT
  5
8341
  8
3
 62
     0
  2
_OPEN
 10
5043.2771722967846
 20
3927.8577398926441
 30
0.0
 41
100.0
 42
100.0
 43
100.0
  0
INSERT
  5
8342
  8
3
 62
     0
  2
_OPEN
 10
4193.2771722967836
 20
3927.8577398926441
 30
0.0
 41
100.0
 42
100.0
 43
100.0
 50
180.0
  0
TEXT
  8
3
  40
150
  5
83D2
  62
0
  72
0
  71
0
 10
4318.28
 20
3787.36
 30
0.000000
  1
850
  0
POINT
  5
8344
  8
DEFPOINTS
 62
     0
 10
5043.2771722967846
 20
4274.6235255622414
 30
0.0
  0
POINT
  5
8345
  8
DEFPOINTS
 62
     0
 10
4193.2771722967836
 20
4122.0392716354991
 30
0.0
  0
POINT
  5
8346
  8
DEFPOINTS
 62
     0
 10
4193.2771722967836
 20
3927.8577398926441
 30
0.0
  0
ENDBLK
  5
81E0
  8
0
  0
BLOCK
  8
0
  2
*D6
 70
     1
 10
0.0
 20
0.0
 30
0.0
  3
*D6
  1

  0
LINE
  5
8347
  8
3
 62
     0
 10
4193.2771722967836
 20
4097.0392716354991
 30
0.0
 11
4193.2771722967836
 21
3877.8577398926441
 31
0.0
  0
LINE
  5
8348
  8
3
 62
     0
 10
2293.2771722967841
 20
4249.6235255622414
 30
0.0
 11
2293.2771722967841
 21
3877.8577398926441
 31
0.0
  0
LINE
  5
8349
  8
3
 62
     0
 10
4093.277172296785
 20
3927.8577398926441
 30
0.0
 11
2393.2771722967841
 21
3927.8577398926441
 31
0.0
  0
INSERT
  5
834A
  8
3
 62
     0
  2
_OPEN
 10
4193.2771722967836
 20
3927.8577398926441
 30
0.0
 41
100.0
 42
100.0
 43
100.0
  0
INSERT
  5
834B
  8
3
 62
     0
  2
_OPEN
 10
2293.2771722967841
 20
3927.8577398926441
 30
0.0
 41
100.0
 42
100.0
 43
100.0
 50
180.0
  0
TEXT
  8
3
  40
150
  5
83D3
  62
0
  72
0
  71
0
 10
2943.28
 20
3787.36
 30
0.000000
  1
1900
  0
POINT
  5
834D
  8
DEFPOINTS
 62
     0
 10
4193.2771722967836
 20
4122.0392716354991
 30
0.0
  0
POINT
  5
834E
  8
DEFPOINTS
 62
     0
 10
2293.2771722967841
 20
4274.6235255622414
 30
0.0
  0
POINT
  5
834F
  8
DEFPOINTS
 62
     0
 10
2293.2771722967841
 20
3927.8577398926441
 30
0.0
  0
ENDBLK
  5
81D5
  8
0
  0
BLOCK
  8
0
  2
*D7
 70
     1
 10
0.0
 20
0.0
 30
0.0
  3
*D7
  1

  0
LINE
  5
8350
  8
3
 62
     0
 10
7190.28441032924
 20
4249.6235255622414
 30
0.0
 11
7190.28441032924
 21
3908.6157422758638
 31
0.0
  0
LINE
  5
8351
  8
3
 62
     0
 10
7981.2844103292409
 20
4097.0392716354991
 30
0.0
 11
7981.2844103292409
 21
3908.6157422758638
 31
0.0
  0
LINE
  5
8352
  8
3
 62
     0
 10
7290.2844103292409
 20
3958.6157422758638
 30
0.0
 11
7881.28441032924
 21
3958.6157422758638
 31
0.0
  0
INSERT
  5
8353
  8
3
 62
     0
  2
_OPEN
 10
7190.28441032924
 20
3958.6157422758638
 30
0.0
 41
100.0
 42
100.0
 43
100.0
 50
180.0
  0
INSERT
  5
8354
  8
3
 62
     0
  2
_OPEN
 10
7981.2844103292409
 20
3958.6157422758638
 30
0.0
 41
100.0
 42
100.0
 43
100.0
  0
TEXT
  8
3
  40
150
  5
83D4
  62
0
  72
0
  71
0
 10
7285.78
 20
3818.12
 30
0.000000
  1
791
  0
POINT
  5
8356
  8
DEFPOINTS
 62
     0
 10
7190.28441032924
 20
4274.6235255622414
 30
0.0
  0
POINT
  5
8357
  8
DEFPOINTS
 62
     0
 10
7981.2844103292409
 20
4122.0392716354991
 30
0.0
  0
POINT
  5
8358
  8
DEFPOINTS
 62
     0
 10
7981.2844103292409
 20
3958.6157422758638
 30
0.0
  0
ENDBLK
  5
81BF
  8
0
  0
BLOCK
  8
0
  2
*D8
 70
     1
 10
0.0
 20
0.0
 30
0.0
  3
*D8
  1

  0
LINE
  5
8273
  8
0
  6
BYBLOCK
 62
     0
 10
7981.2844103292409
 20
4097.0392716354991
 30
0.0
 11
7981.2844103292409
 21
3908.6157422758638
 31
0.0
  0
LINE
  5
8274
  8
0
  6
BYBLOCK
 62
     0
 10
8590.2844103292409
 20
4249.6235255622423
 30
0.0
 11
8590.2844103292409
 21
3908.6157422758638
 31
0.0
  0
LINE
  5
8275
  8
0
  6
BYBLOCK
 62
     0
 10
8081.28441032924
 20
3958.6157422758638
 30
0.0
 11
8490.2844103292409
 21
3958.6157422758638
 31
0.0
  0
TEXT
  5
8276
  8
3
 62
     0
 10
8096.4986960435272
 20
4022.0459310775941
 30
0.0
 40
150.0
  1
609
  0
INSERT
  5
8277
  8
0
  6
BYBLOCK
 62
     0
  2
_OPEN
 10
7981.2844103292409
 20
3958.6157422758638
 30
0.0
 41
100.0
 42
100.0
 43
100.0
 50
180.0
  0
INSERT
  5
8278
  8
0
  6
BYBLOCK
 62
     0
  2
_OPEN
 10
8590.2844103292409
 20
3958.6157422758638
 30
0.0
 41
100.0
 42
100.0
 43
100.0
  0
POINT
  5
8279
  8
DEFPOINTS
  6
BYBLOCK
 62
     0
 10
7981.2844103292409
 20
4122.0392716354991
 30
0.0
  0
POINT
  5
827A
  8
DEFPOINTS
  6
BYBLOCK
 62
     0
 10
8590.2844103292409
 20
4274.6235255622423
 30
0.0
  0
POINT
  5
827B
  8
DEFPOINTS
  6
BYBLOCK
 62
     0
 10
8590.2844103292409
 20
3958.6157422758638
 30
0.0
  0
ENDBLK
  5
827C
  8
0
  0
BLOCK
  8
0
  2
*D9
 70
     1
 10
0.0
 20
0.0
 30
0.0
  3
*D9
  1

  0
LINE
  5
8359
  8
3
 62
     0
 10
5043.2771722967846
 20
10129.59573631708
 30
0.0
 11
5043.2771722967846
 21
10524.642291675849
 31
0.0
  0
LINE
  5
835A
  8
3
 62
     0
 10
3343.2771722967841
 20
10129.59573631708
 30
0.0
 11
3343.2771722967841
 21
10524.642291675849
 31
0.0
  0
LINE
  5
835B
  8
3
 62
     0
 10
4943.2771722967836
 20
10474.642291675849
 30
0.0
 11
3443.2771722967841
 21
10474.642291675849
 31
0.0
  0
INSERT
  5
835C
  8
3
 62
     0
  2
_OPEN
 10
5043.2771722967846
 20
10474.642291675849
 30
0.0
 41
100.0
 42
100.0
 43
100.0
  0
INSERT
  5
835D
  8
3
 62
     0
  2
_OPEN
 10
3343.2771722967841
 20
10474.642291675849
 30
0.0
 41
100.0
 42
100.0
 43
100.0
 50
180.0
  0
TEXT
  8
3
  40
150
  5
83D5
  62
0
  72
0
  71
0
 10
3893.28
 20
10334.1
 30
0.000000
  1
1700
  0
POINT
  5
835F
  8
DEFPOINTS
 62
     0
 10
5043.2771722967846
 20
10104.59573631708
 30
0.0
  0
POINT
  5
8360
  8
DEFPOINTS
 62
     0
 10
3343.2771722967841
 20
10104.59573631708
 30
0.0
  0
POINT
  5
8361
  8
DEFPOINTS
 62
     0
 10
3343.2771722967841
 20
10474.642291675849
 30
0.0
  0
ENDBLK
  5
819C
  8
0
  0
BLOCK
  8
0
  2
*D10
 70
     1
 10
0.0
 20
0.0
 30
0.0
  3
*D10
  1

  0
LINE
  5
8362
  8
3
 62
     0
 10
3343.2771722967841
 20
10129.59573631708
 30
0.0
 11
3343.2771722967841
 21
10524.642291675849
 31
0.0
  0
LINE
  5
8363
  8
3
 62
     0
 10
2293.2771722967841
 20
9829.5957363170837
 30
0.0
 11
2293.2771722967841
 21
10524.642291675849
 31
0.0
  0
LINE
  5
8364
  8
3
 62
     0
 10
3243.2771722967841
 20
10474.642291675849
 30
0.0
 11
2393.2771722967841
 21
10474.642291675849
 31
0.0
  0
INSERT
  5
8365
  8
3
 62
     0
  2
_OPEN
 10
3343.2771722967841
 20
10474.642291675849
 30
0.0
 41
100.0
 42
100.0
 43
100.0
  0
INSERT
  5
8366
  8
3
 62
     0
  2
_OPEN
 10
2293.2771722967841
 20
10474.642291675849
 30
0.0
 41
100.0
 42
100.0
 43
100.0
 50
180.0
  0
TEXT
  8
3
  40
150
  5
83D6
  62
0
  72
0
  71
0
 10
2518.28
 20
10334.1
 30
0.000000
  1
1050
  0
POINT
  5
8368
  8
DEFPOINTS
 62
     0
 10
3343.2771722967841
 20
10104.59573631708
 30
0.0
  0
POINT
  5
8369
  8
DEFPOINTS
 62
     0
 10
2293.2771722967841
 20
9804.5957363170819
 30
0.0
  0
POINT
  5
836A
  8
DEFPOINTS
 62
     0
 10
2293.2771722967841
 20
10474.642291675849
 30
0.0
  0
ENDBLK
  5
8191
  8
0
  0
BLOCK
  8
0
  2
*D11
 70
     1
 10
0.0
 20
0.0
 30
0.0
  3
*D11
  1

  0
LINE
  5
836B
  8
3
 62
     0
 10
2268.2771722967841
 20
9804.5957363170819
 30
0.0
 11
1762.4033959667611
 21
9804.5957363170819
 31
0.0
  0
LINE
  5
836C
  8
3
 62
     0
 10
2268.2771722967841
 20
8704.5957363170819
 30
0.0
 11
1762.4033959667611
 21
8704.5957363170819
 31
0.0
  0
LINE
  5
836D
  8
3
 62
     0
 10
1812.4033959667611
 20
9704.5957363170837
 30
0.0
 11
1812.4033959667611
 21
8804.5957363170819
 31
0.0
  0
INSERT
  5
836E
  8
3
 62
     0
  2
_OPEN
 10
1812.4033959667611
 20
9804.5957363170819
 30
0.0
 41
100.0
 42
100.0
 43
100.0
 50
90.0
  0
INSERT
  5
836F
  8
3
 62
     0
  2
_OPEN
 10
1812.4033959667611
 20
8704.5957363170819
 30
0.0
 41
100.0
 42
100.0
 43
100.0
 50
270.0
  0
TEXT
  8
3
  40
150
  5
83D7
  62
0
  72
0
  71
0
 10
1387.40
 20
8989.10
 30
0.000000
  1
1100
  0
POINT
  5
8371
  8
DEFPOINTS
 62
     0
 10
2293.2771722967841
 20
9804.5957363170819
 30
0.0
  0
POINT
  5
8372
  8
DEFPOINTS
 62
     0
 10
2293.2771722967841
 20
8704.5957363170819
 30
0.0
  0
POINT
  5
8373
  8
DEFPOINTS
 62
     0
 10
1812.4033959667611
 20
8704.5957363170819
 30
0.0
  0
ENDBLK
  5
8186
  8
0
  0
BLOCK
  8
0
  2
*D12
 70
     1
 10
0.0
 20
0.0
 30
0.0
  3
*D12
  1

  0
LINE
  5
8374
  8
3
 62
     0
 10
5068.2771722967836
 20
10104.59573631708
 30
0.0
 11
5519.5391325526871
 21
10104.59573631708
 31
0.0
  0
LINE
  5
8375
  8
3
 62
     0
 10
5068.2771722967836
 20
8704.5957363170819
 30
0.0
 11
5519.5391325526871
 21
8704.5957363170819
 31
0.0
  0
LINE
  5
8376
  8
3
 62
     0
 10
5469.5391325526871
 20
10004.59573631708
 30
0.0
 11
5469.5391325526871
 21
8804.5957363170819
 31
0.0
  0
INSERT
  5
8377
  8
3
 62
     0
  2
_OPEN
 10
5469.5391325526871
 20
10104.59573631708
 30
0.0
 41
100.0
 42
100.0
 43
100.0
 50
90.0
  0
INSERT
  5
8378
  8
3
 62
     0
  2
_OPEN
 10
5469.5391325526871
 20
8704.5957363170819
 30
0.0
 41
100.0
 42
100.0
 43
100.0
 50
270.0
  0
TEXT
  8
3
  40
150
  5
83D8
  62
0
  72
0
  71
0
 10
5044.54
 20
9139.10
 30
0.000000
  1
1400
  0
POINT
  5
837A
  8
DEFPOINTS
 62
     0
 10
5043.2771722967846
 20
10104.59573631708
 30
0.0
  0
POINT
  5
837B
  8
DEFPOINTS
 62
     0
 10
5043.2771722967846
 20
8704.5957363170819
 30
0.0
  0
POINT
  5
837C
  8
DEFPOINTS
 62
     0
 10
5469.5391325526871
 20
8704.5957363170819
 30
0.0
  0
ENDBLK
  5
817B
  8
0
  0
BLOCK
  8
0
  2
*D13
 70
     1
 10
0.0
 20
0.0
 30
0.0
  3
*D13
  1

  0
LINE
  5
837D
  8
3
 62
     0
 10
5043.2771722967846
 20
8679.5957363170819
 30
0.0
 11
5043.2771722967846
 21
8056.1186320403522
 31
0.0
  0
LINE
  5
837E
  8
3
 62
     0
 10
2293.2771722967841
 20
8679.5957363170819
 30
0.0
 11
2293.2771722967841
 21
8056.1186320403522
 31
0.0
  0
LINE
  5
837F
  8
3
 62
     0
 10
4943.2771722967836
 20
8106.1186320403522
 30
0.0
 11
2393.2771722967841
 21
8106.1186320403522
 31
0.0
  0
INSERT
  5
8380
  8
3
 62
     0
  2
_OPEN
 10
5043.2771722967846
 20
8106.1186320403522
 30
0.0
 41
100.0
 42
100.0
 43
100.0
  0
INSERT
  5
8381
  8
3
 62
     0
  2
_OPEN
 10
2293.2771722967841
 20
8106.1186320403522
 30
0.0
 41
100.0
 42
100.0
 43
100.0
 50
180.0
  0
TEXT
  8
3
  40
150
  5
83D9
  62
0
  72
0
  71
0
 10
3391.24
 20
7965.62
 30
0.000000
  1
2750
  0
POINT
  5
8383
  8
DEFPOINTS
 62
     0
 10
5043.2771722967846
 20
8704.5957363170819
 30
0.0
  0
POINT
  5
8384
  8
DEFPOINTS
 62
     0
 10
2293.2771722967841
 20
8704.5957363170819
 30
0.0
  0
POINT
  5
8385
  8
DEFPOINTS
 62
     0
 10
2293.2771722967841
 20
8106.1186320403522
 30
0.0
  0
ENDBLK
  5
8170
  8
0
  0
BLOCK
  8
0
  2
*D14
 70
     1
 10
0.0
 20
0.0
 30
0.0
  3
*D14
  1

  0
LINE
  5
8386
  8
3
 62
     0
 10
7451.2844103292409
 20
6564.6235255622414
 30
0.0
 11
7451.2844103292409
 21
6813.2491494556998
 31
0.0
  0
LINE
  5
8387
  8
3
 62
     0
 10
8511.2844103292427
 20
6564.6235255622414
 30
0.0
 11
8511.2844103292427
 21
6813.2491494556998
 31
0.0
  0
LINE
  5
8388
  8
3
 62
     0
 10
7551.2844103292409
 20
6763.2491494556998
 30
0.0
 11
8411.2844103292427
 21
6763.2491494556998
 31
0.0
  0
INSERT
  5
8389
  8
3
 62
     0
  2
_OPEN
 10
7451.2844103292409
 20
6763.2491494556998
 30
0.0
 41
100.0
 42
100.0
 43
100.0
 50
180.0
  0
INSERT
  5
838A
  8
3
 62
     0
  2
_OPEN
 10
8511.2844103292427
 20
6763.2491494556998
 30
0.0
 41
100.0
 42
100.0
 43
100.0
  0
TEXT
  8
3
  40
150
  5
83DA
  62
0
  72
0
  71
0
 10
7681.28
 20
6622.75
 30
0.000000
  1
1060
  0
POINT
  5
838C
  8
DEFPOINTS
 62
     0
 10
7451.2844103292409
 20
6539.6235255622414
 30
0.0
  0
POINT
  5
838D
  8
DEFPOINTS
 62
     0
 10
8511.2844103292427
 20
6539.6235255622414
 30
0.0
  0
POINT
  5
838E
  8
DEFPOINTS
 62
     0
 10
8511.2844103292427
 20
6763.2491494556998
 30
0.0
  0
ENDBLK
  5
8165
  8
0
  0
BLOCK
  8
0
  2
*D15
 70
     1
 10
0.0
 20
0.0
 30
0.0
  3
*D15
  1

  0
LINE
  5
8294
  8
0
  6
BYBLOCK
 62
     0
 10
8615.2844103292409
 20
6384.6235255622423
 30
0.0
 11
8615.2844103292409
 21
7150.1512029187043
 31
0.0
  0
LINE
  5
8295
  8
0
  6
BYBLOCK
 62
     0
 10
7981.2844103292409
 20
7009.9085665957127
 30
0.0
 11
7981.2844103292409
 21
7150.1512029187043
 31
0.0
  0
LINE
  5
8296
  8
0
  6
BYBLOCK
 62
     0
 10
8515.2844103292409
 20
7100.1512029187043
 30
0.0
 11
8081.28441032924
 21
7100.1512029187043
 31
0.0
  0
TEXT
  5
8297
  8
3
 62
     0
 10
8101.8558389006703
 20
7178.6665403318293
 30
0.0
 40
150.0
  1
634
  0
INSERT
  5
8298
  8
0
  6
BYBLOCK
 62
     0
  2
_OPEN
 10
8615.2844103292409
 20
7100.1512029187043
 30
0.0
 41
100.0
 42
100.0
 43
100.0
  0
INSERT
  5
8299
  8
0
  6
BYBLOCK
 62
     0
  2
_OPEN
 10
7981.2844103292409
 20
7100.1512029187043
 30
0.0
 41
100.0
 42
100.0
 43
100.0
 50
180.0
  0
POINT
  5
829A
  8
DEFPOINTS
  6
BYBLOCK
 62
     0
 10
8615.2844103292409
 20
6359.6235255622414
 30
0.0
  0
POINT
  5
829B
  8
DEFPOINTS
  6
BYBLOCK
 62
     0
 10
7981.2844103292409
 20
6984.9085665957127
 30
0.0
  0
POINT
  5
829C
  8
DEFPOINTS
  6
BYBLOCK
 62
     0
 10
7981.2844103292409
 20
7100.1512029187043
 30
0.0
  0
ENDBLK
  5
829D
  8
0
  0
BLOCK
  8
0
  2
*D16
 70
     1
 10
0.0
 20
0.0
 30
0.0
  3
*D16
  1

  0
LINE
  5
838F
  8
3
 62
     0
 10
7981.2844103292409
 20
7009.9085665957127
 30
0.0
 11
7981.2844103292409
 21
7150.1512029187043
 31
0.0
  0
LINE
  5
8390
  8
3
 62
     0
 10
7031.5844103292411
 20
6184.6235255622414
 30
0.0
 11
7031.5844103292411
 21
7150.1512029187043
 31
0.0
  0
LINE
  5
8391
  8
3
 62
     0
 10
7881.28441032924
 20
7100.1512029187043
 30
0.0
 11
7131.5844103292402
 21
7100.1512029187043
 31
0.0
  0
INSERT
  5
8392
  8
3
 62
     0
  2
_OPEN
 10
7981.2844103292409
 20
7100.1512029187043
 30
0.0
 41
100.0
 42
100.0
 43
100.0
  0
INSERT
  5
8393
  8
3
 62
     0
  2
_OPEN
 10
7031.5844103292411
 20
7100.1512029187043
 30
0.0
 41
100.0
 42
100.0
 43
100.0
 50
180.0
  0
TEXT
  8
3
  40
150
  5
83DB
  62
0
  72
0
  71
0
 10
7206.43
 20
7084.65
 30
0.000000
  1
MAX
  0
TEXT
  8
3
  40
150
  5
83DC
  62
0
  72
0
  71
0
 10
7206.43
 20
6889.65
 30
0.000000
  1
1030
  0
POINT
  5
8395
  8
DEFPOINTS
 62
     0
 10
7981.2844103292409
 20
6984.9085665957127
 30
0.0
  0
POINT
  5
8396
  8
DEFPOINTS
 62
     0
 10
7031.5844103292411
 20
6159.6235255622423
 30
0.0
  0
POINT
  5
8397
  8
DEFPOINTS
 62
     0
 10
7031.5844103292411
 20
7100.1512029187043
 30
0.0
  0
ENDBLK
  5
82A8
  8
0
  0
BLOCK
  8
0
  2
*D17
 70
     1
 10
0.0
 20
0.0
 30
0.0
  3
*D17
  1

  0
LINE
  5
8398
  8
3
 62
     0
 10
8640.2844103292409
 20
6309.6235255622414
 30
0.0
 11
9097.8750375091513
 21
6309.6235255622414
 31
0.0
  0
LINE
  5
8399
  8
3
 62
     0
 10
8640.2844103292409
 20
4909.6235255622423
 30
0.0
 11
9097.8750375091513
 21
4909.6235255622423
 31
0.0
  0
LINE
  5
839A
  8
3
 62
     0
 10
9047.8750375091495
 20
6209.6235255622423
 30
0.0
 11
9047.8750375091495
 21
5009.6235255622423
 31
0.0
  0
INSERT
  5
839B
  8
3
 62
     0
  2
_OPEN
 10
9047.8750375091495
 20
6309.6235255622414
 30
0.0
 41
100.0
 42
100.0
 43
100.0
 50
90.0
  0
INSERT
  5
839C
  8
3
 62
     0
  2
_OPEN
 10
9047.8750375091495
 20
4909.6235255622423
 30
0.0
 41
100.0
 42
100.0
 43
100.0
 50
270.0
  0
TEXT
  8
3
  40
150
  5
83DD
  62
0
  72
0
  71
0
 10
8622.88
 20
5344.12
 30
0.000000
  1
φ1400
  0
POINT
  5
839E
  8
DEFPOINTS
 62
     0
 10
8615.2844103292409
 20
6309.6235255622414
 30
0.0
  0
POINT
  5
839F
  8
DEFPOINTS
 62
     0
 10
8615.2844103292409
 20
4909.6235255622423
 30
0.0
  0
POINT
  5
83A0
  8
DEFPOINTS
 62
     0
 10
9047.8750375091495
 20
4909.6235255622423
 30
0.0
  0
ENDBLK
  5
8287
  8
0
  0
BLOCK
  8
0
  2
*D18
 70
     1
 10
0.0
 20
0.0
 30
0.0
  3
*D18
  1

  0
LINE
  5
83A1
  8
3
 62
     0
 10
5196.2771722967846
 20
5549.1235255622414
 30
0.0
 11
5196.2771722967846
 21
7356.906713245944
 31
0.0
  0
LINE
  5
83A2
  8
3
 62
     0
 10
2293.2771722967841
 20
4544.6235255622414
 30
0.0
 11
2293.2771722967841
 21
7356.906713245944
 31
0.0
  0
LINE
  5
83A3
  8
3
 62
     0
 10
5096.2771722967836
 20
7306.9067132459431
 30
0.0
 11
2393.2771722967841
 21
7306.9067132459431
 31
0.0
  0
INSERT
  5
83A4
  8
3
 62
     0
  2
_OPEN
 10
5196.2771722967846
 20
7306.9067132459431
 30
0.0
 41
100.0
 42
100.0
 43
100.0
  0
INSERT
  5
83A5
  8
3
 62
     0
  2
_OPEN
 10
2293.2771722967841
 20
7306.9067132459431
 30
0.0
 41
100.0
 42
100.0
 43
100.0
 50
180.0
  0
TEXT
  8
3
  40
150
  5
83DE
  62
0
  72
0
  71
0
 10
3444.78
 20
7166.41
 30
0.000000
  1
2903
  0
POINT
  5
83A7
  8
DEFPOINTS
 62
     0
 10
5196.2771722967846
 20
5524.1235255622423
 30
0.0
  0
POINT
  5
83A8
  8
DEFPOINTS
 62
     0
 10
2293.2771722967841
 20
4519.6235255622414
 30
0.0
  0
POINT
  5
83A9
  8
DEFPOINTS
 62
     0
 10
2293.2771722967841
 20
7306.9067132459431
 30
0.0
  0
ENDBLK
  5
8137
  8
0
  0
BLOCK
  8
0
  2
*D19
 70
     1
 10
0.0
 20
0.0
 30
0.0
  3
*D19
  1

  0
LINE
  5
83AA
  8
3
 62
     0
 10
4231.2771722967836
 20
6539.6235255622414
 30
0.0
 11
5873.5832224493734
 21
6539.6235255622414
 31
0.0
  0
LINE
  5
83AB
  8
3
 62
     0
 10
5300.0336991784498
 20
5609.6235255622414
 30
0.0
 11
5873.5832224493724
 21
5609.6235255622414
 31
0.0
  0
LINE
  5
83AC
  8
3
 62
     0
 10
5823.5832224493734
 20
6439.6235255622414
 30
0.0
 11
5823.5832224493724
 21
5709.6235255622423
 31
0.0
  0
INSERT
  5
83AD
  8
3
 62
     0
  2
_OPEN
 10
5823.5832224493734
 20
6539.6235255622414
 30
0.0
 41
100.0
 42
100.0
 43
100.0
 50
90.0
  0
INSERT
  5
83AE
  8
3
 62
     0
  2
_OPEN
 10
5823.5832224493724
 20
5609.6235255622414
 30
0.0
 41
100.0
 42
100.0
 43
100.0
 50
270.0
  0
TEXT
  8
3
  40
150
  5
83DF
  62
0
  72
0
  71
0
 10
5398.58
 20
5931.27
 30
0.000000
  1
930
  0
POINT
  5
83B0
  8
DEFPOINTS
 62
     0
 10
4206.2771722967836
 20
6539.6235255622414
 30
0.0
  0
POINT
  5
83B1
  8
DEFPOINTS
 62
     0
 10
5275.0336991784498
 20
5609.6235255622414
 30
0.0
  0
POINT
  5
83B2
  8
DEFPOINTS
 62
     0
 10
5823.5832224493724
 20
5609.6235255622414
 30
0.0
  0
ENDBLK
  5
82B4
  8
0
  0
BLOCK
  8
0
  2
*D20
 70
     1
 10
0.0
 20
0.0
 30
0.0
  3
*D20
  1

  0
LINE
  5
83B3
  8
3
 62
     0
 10
5068.2771722967836
 20
4369.6235255622414
 30
0.0
 11
5873.5832224493724
 21
4369.6235255622414
 31
0.0
  0
LINE
  5
83B4
  8
3
 62
     0
 10
5823.5832224493706
 20
5509.6235255622423
 30
0.0
 11
5823.5832224493706
 21
4469.6235255622414
 31
0.0
  0
INSERT
  5
83B5
  8
3
 62
     0
  2
_OPEN
 10
5823.5832224493706
 20
5609.6235255622414
 30
0.0
 41
100.0
 42
100.0
 43
100.0
 50
90.0
  0
INSERT
  5
83B6
  8
3
 62
     0
  2
_OPEN
 10
5823.5832224493706
 20
4369.6235255622414
 30
0.0
 41
100.0
 42
100.0
 43
100.0
 50
270.0
  0
TEXT
  8
3
  40
150
  5
83E0
  62
0
  72
0
  71
0
 10
5398.58
 20
4724.12
 30
0.000000
  1
1240
  0
POINT
  5
83B8
  8
DEFPOINTS
 62
     0
 10
5275.0336991784498
 20
5609.6235255622414
 30
0.0
  0
POINT
  5
83B9
  8
DEFPOINTS
 62
     0
 10
5043.2771722967846
 20
4369.6235255622414
 30
0.0
  0
POINT
  5
83BA
  8
DEFPOINTS
 62
     0
 10
5823.5832224493706
 20
4369.6235255622414
 30
0.0
  0
ENDBLK
  5
82C0
  8
0
  0
BLOCK
  8
0
  2
*D21
 70
     1
 10
0.0
 20
0.0
 30
0.0
  3
*D21
  1

  0
LINE
  5
83BB
  8
3
 62
     0
 10
5068.2771722967836
 20
4369.6235255622414
 30
0.0
 11
5873.5832224493724
 21
4369.6235255622414
 31
0.0
  0
LINE
  5
83BC
  8
3
 62
     0
 10
5068.2771722967836
 20
4274.6235255622414
 30
0.0
 11
5873.5832224493724
 21
4274.6235255622414
 31
0.0
  0
LINE
  5
83BD
  8
3
 62
     0
 10
5823.5832224493706
 20
4469.6235255622414
 30
0.0
 11
5823.5832224493706
 21
4569.6235255622414
 31
0.0
  0
LINE
  5
83BE
  8
3
 62
     0
 10
5823.5832224493706
 20
4174.6235255622423
 30
0.0
 11
5823.5832224493706
 21
3731.7663827050978
 31
0.0
  0
LINE
  5
83BF
  8
3
 62
     0
 10
5823.5832224493706
 20
4369.6235255622414
 30
0.0
 11
5823.5832224493706
 21
4274.6235255622414
 31
0.0
  0
INSERT
  5
83C0
  8
3
 62
     0
  2
_OPEN
 10
5823.5832224493706
 20
4369.6235255622414
 30
0.0
 41
100.0
 42
100.0
 43
100.0
 50
270.0
  0
INSERT
  5
83C1
  8
3
 62
     0
  2
_OPEN
 10
5823.5832224493706
 20
4274.6235255622414
 30
0.0
 41
100.0
 42
100.0
 43
100.0
 50
90.0
  0
TEXT
  8
3
  40
150
  5
83E1
  62
0
  72
0
  71
0
 10
5398.58
 20
3637.69
 30
0.000000
  1
95
  0
POINT
  5
83C3
  8
DEFPOINTS
 62
     0
 10
5043.2771722967846
 20
4369.6235255622414
 30
0.0
  0
POINT
  5
83C4
  8
DEFPOINTS
 62
     0
 10
5043.2771722967846
 20
4274.6235255622414
 30
0.0
  0
POINT
  5
83C5
  8
DEFPOINTS
 62
     0
 10
5823.5832224493706
 20
4274.6235255622414
 30
0.0
  0
ENDBLK
  5
82DE
  8
0
  0
BLOCK
  8
0
  2
*D22
 70
     1
 10
0.0
 20
0.0
 30
0.0
  3
*D22
  1

  0
LINE
  5
83C6
  8
3
 62
     0
 10
4231.2771722967836
 20
6539.6235255622414
 30
0.0
 11
6203.8661234529
 21
6539.6235255622396
 31
0.0
  0
LINE
  5
83C7
  8
3
 62
     0
 10
5068.2771722967836
 20
4274.6235255622414
 30
0.0
 11
6203.8661234529
 21
4274.6235255622396
 31
0.0
  0
LINE
  5
83C8
  8
3
 62
     0
 10
6153.8661234529009
 20
6439.6235255622396
 30
0.0
 11
6153.8661234529
 21
4374.6235255622414
 31
0.0
  0
INSERT
  5
83C9
  8
3
 62
     0
  2
_OPEN
 10
6153.8661234529009
 20
6539.6235255622396
 30
0.0
 41
100.0
 42
100.0
 43
100.0
 50
90.0
  0
INSERT
  5
83CA
  8
3
 62
     0
  2
_OPEN
 10
6153.8661234529
 20
4274.6235255622396
 30
0.0
 41
100.0
 42
100.0
 43
100.0
 50
270.0
  0
TEXT
  8
3
  40
150
  5
83E2
  62
0
  72
0
  71
0
 10
5728.87
 20
5022.45
 30
0.000000
  1
2265
  0
POINT
  5
83CC
  8
DEFPOINTS
 62
     0
 10
4206.2771722967836
 20
6539.6235255622414
 30
0.0
  0
POINT
  5
83CD
  8
DEFPOINTS
 62
     0
 10
5043.2771722967846
 20
4274.6235255622414
 30
0.0
  0
POINT
  5
83CE
  8
DEFPOINTS
 62
     0
 10
6153.8661234529
 20
4274.6235255622396
 30
0.0
  0
ENDBLK
  5
82EA
  8
0
  0
ENDSEC
  0
SECTION
  2
ENTITIES
  0
INSERT
  5
7BE0
  8
0
  2
YA_N
 10
6.0
 20
5.0
 30
0.0
  0
INSERT
  5
7BE2
  8
0
  2
YA_N
 10
6.0
 20
5.0
 30
0.0
  0
LINE
  5
7BE4
  8
2
 10
4193.2771722967836
 20
6627.618283413326
 30
0.0
 11
4193.2771722967836
 21
4122.0392716354991
 31
0.0
  0
LINE
  5
7BE5
  8
1
 10
4206.2771722967836
 20
6539.6235255622414
 30
0.0
 11
2648.277172296785
 21
6539.6235255622414
 31
0.0
  0
LINE
  5
7BE6
  8
1
 10
4152.2771722967836
 20
6539.6235255622414
 30
0.0
 11
4152.2771722967836
 21
6430.5272702856191
 31
0.0
  0
ARC
  5
7BE7
  8
1
 10
4091.2771722967841
 20
5711.6235255622423
 30
0.0
 40
1309.0
 50
184.469136655521
 51
270.0
  0
ARC
  5
7BE8
  8
1
 10
4091.2771722967841
 20
5507.6235255622414
 30
0.0
 40
1105.0
 50
270.0
 51
0.8555796354301165
  0
ARC
  5
7BE9
  8
1
 10
4278.7771722967836
 20
5524.1235255622423
 30
0.0
 40
917.5
 50
5.3470378034862636
 51
90.0
  0
ARC
  5
7BEA
  8
1
 10
4278.7771722967836
 20
5694.8235255622421
 30
0.0
 40
746.49999999999989
 50
90.0
 51
99.756276618116615
  0
LINE
  5
7BEB
  8
1
 10
2702.2771722967841
 20
6539.6235255622414
 30
0.0
 11
2786.1633189990712
 21
5609.6235255622414
 31
0.0
  0
LINE
  5
7BEC
  8
1
 10
5043.2771722967846
 20
4369.6235255622414
 30
0.0
 11
2293.2771722967841
 21
4369.6235255622414
 31
0.0
  0
LINE
  5
7BED
  8
1
 10
5043.2771722967846
 20
4519.6235255622414
 30
0.0
 11
2293.2771722967841
 21
4519.6235255622414
 31
0.0
  0
LINE
  5
7BEE
  8
1
 10
5043.2771722967846
 20
4519.6235255622414
 30
0.0
 11
5043.2771722967846
 21
4369.6235255622414
 31
0.0
  0
LINE
  5
7BEF
  8
1
 10
2293.2771722967841
 20
4519.6235255622414
 30
0.0
 11
2293.2771722967841
 21
4369.6235255622414
 31
0.0
  0
LINE
  5
7BF0
  8
1
 10
4152.2771722967836
 20
6489.6235255622414
 30
0.0
 11
2706.7871801840038
 21
6489.6235255622414
 31
0.0
  0
LINE
  5
7BF1
  8
2
 10
6844.5345666471258
 20
5609.6235255622414
 30
0.0
 11
8735.5172863773369
 21
5609.6235255622414
 31
0.0
  0
LINE
  5
7BF2
  8
2
 10
7981.2844103292409
 20
6742.1903952731845
 30
0.0
 11
7981.2844103292409
 21
4122.0392716354991
 31
0.0
  0
LINE
  5
7BF3
  8
1
 10
7190.28441032924
 20
4519.6235255622414
 30
0.0
 11
8590.2844103292409
 21
4519.6235255622414
 31
0.0
  0
LINE
  5
7BF4
  8
1
 10
7190.28441032924
 20
4369.6235255622414
 30
0.0
 11
8590.2844103292409
 21
4369.6235255622423
 31
0.0
  0
LINE
  5
7BF5
  8
1
 10
5043.2771722967846
 20
8704.5957363170819
 30
0.0
 11
2293.2771722967841
 21
8704.5957363170819
 31
0.0
  0
LINE
  5
7BF6
  8
1
 10
5043.2771722967846
 20
10104.59573631708
 30
0.0
 11
3343.2771722967841
 21
10104.59573631708
 31
0.0
  0
LINE
  5
7BF7
  8
1
 10
5043.2771722967846
 20
10104.59573631708
 30
0.0
 11
5043.2771722967846
 21
10025.59573631708
 31
0.0
  0
LINE
  5
7BF8
  8
1
 10
3343.2771722967841
 20
10104.59573631708
 30
0.0
 11
3343.2771722967841
 21
10025.59573631708
 31
0.0
  0
LINE
  5
7BF9
  8
1
 10
2702.2771722967841
 20
9804.5957363170819
 30
0.0
 11
2293.2771722967841
 21
9804.5957363170819
 31
0.0
  0
LINE
  5
7BFA
  8
1
 10
2293.2771722967841
 20
9804.5957363170819
 30
0.0
 11
2293.2771722967841
 21
8704.5957363170819
 31
0.0
  0
LINE
  5
7BFB
  8
1
 10
7401.2844103292409
 20
6539.6235255622414
 30
0.0
 11
8561.2844103292409
 21
6539.6235255622414
 31
0.0
  0
LINE
  5
7BFC
  8
1
 10
8511.2844103292427
 20
6539.6235255622414
 30
0.0
 11
8511.2844103292427
 21
5618.6235255622423
 31
0.0
  0
LINE
  5
7BFD
  8
1
 10
7451.2844103292409
 20
6539.6235255622414
 30
0.0
 11
7451.2844103292409
 21
5609.6235255622414
 31
0.0
  0
LINE
  5
7BFE
  8
1
 10
7451.2844103292409
 20
6489.6235255622414
 30
0.0
 11
8511.2844103292427
 21
6489.6235255622414
 31
0.0
  0
LINE
  5
7BFF
  8
2
 10
5275.0336991784498
 20
5609.6235255622414
 30
0.0
 11
2516.5999917027139
 21
5609.6235255622414
 31
0.0
  0
LINE
  5
7C00
  8
1
 10
2786.9751204187719
 20
5600.6235255622414
 30
0.0
 11
2787.569954084553
 21
5594.0289288269896
 31
0.0
  0
ARC
  5
7C01
  8
1
 10
4278.7771722967836
 20
5524.1235255622423
 30
0.0
 40
917.5
 50
0.0
 51
5.3470378034862636
  0
LINE
  5
7C02
  8
2
 10
2593.2771722967841
 20
5192.6198441848028
 30
0.0
 11
2593.2771722967841
 21
4439.2721989099573
 31
0.0
  0
LINE
  5
7C03
  8
2
 10
2820.2398913370921
 20
4754.6235255622414
 30
0.0
 11
2293.2771722967841
 21
4754.6235255622414
 31
0.0
  0
LINE
  5
7C04
  8
2
 10
7534.2863600708924
 20
4754.6235255622414
 30
0.0
 11
7014.2593290995692
 21
4754.6235255622414
 31
0.0
  0
CIRCLE
  5
7C05
  8
1
 10
4193.2771722967836
 20
5609.6235255622414
 30
0.0
 40
700.0
  0
CIRCLE
  5
7C06
  8
1
 10
4193.2771722967836
 20
5609.6235255622414
 30
0.0
 40
750.0
  0
LINE
  5
7C07
  8
1
 10
8514.4844103292417
 20
6309.6235255622414
 30
0.0
 11
8615.2844103292409
 21
6309.6235255622414
 31
0.0
  0
LINE
  5
7C08
  8
1
 10
8514.4844103292417
 20
4909.6235255622423
 30
0.0
 11
8615.2844103292409
 21
4909.6235255622423
 31
0.0
  0
LINE
  5
7C09
  8
1
 10
8615.2844103292409
 20
6359.6235255622414
 30
0.0
 11
8615.2844103292409
 21
4859.6235255622414
 31
0.0
  0
LINE
  5
7C0A
  8
1
 10
2431.2771722967841
 20
4644.6260303329836
 30
0.0
 11
2440.9062261865361
 21
4654.1777950334254
 31
0.0
  0
LINE
  5
7C0B
  8
1
 10
2755.2771722967841
 20
4644.6260303329836
 30
0.0
 11
2745.6481184070321
 21
4654.1777950334254
 31
0.0
  0
LINE
  5
7C0C
  8
1
 10
2431.2771722967841
 20
4574.6235255622414
 30
0.0
 11
2431.2771722967841
 21
4644.6260303329836
 31
0.0
  0
LINE
  5
7C0D
  8
1
 10
2342.451480214685
 20
4574.6235255622414
 30
0.0
 11
2509.9388527185361
 21
4574.6235255622414
 31
0.0
  0
ARC
  5
7C0E
  8
1
 10
2593.2771722967841
 20
4754.6235255622414
 30
0.0
 40
182.5
 50
285.78279193357162
 51
254.2172080664283
  0
LINE
  5
7C0F
  8
1
 10
2642.915574454149
 20
4579.0038255532027
 30
0.0
 11
2543.6387701394192
 21
4579.0038255532027
 31
0.0
  0
LINE
  5
7C10
  8
1
 10
2755.2771722967841
 20
4574.6235255622414
 30
0.0
 11
2755.2771722967841
 21
4644.6260303329846
 31
0.0
  0
LINE
  5
7C11
  8
1
 10
2755.2771722967841
 20
4574.6235255622414
 30
0.0
 11
2695.2771722967841
 21
4574.6235255622414
 31
0.0
  0
CIRCLE
  5
7C12
  8
1
 10
2593.2771722967841
 20
4754.6235255622414
 30
0.0
 40
106.0
  0
LINE
  5
7C13
  8
1
 10
2333.2771722967818
 20
4519.6235255622414
 30
0.0
 11
2342.451480214685
 21
4574.6235255622414
 31
0.0
  0
LINE
  5
7C14
  8
1
 10
2509.9388527185361
 20
4574.6235255622414
 30
0.0
 11
2509.9388527185361
 21
4565.1471810006396
 31
0.0
  0
LINE
  5
7C15
  8
1
 10
2509.9388527185361
 20
4565.1471810006396
 30
0.0
 11
2593.28995318431
 21
4565.1471810006396
 31
0.0
  0
LINE
  5
7C16
  8
1
 10
2853.277172296785
 20
4519.6235255622414
 30
0.0
 11
2844.1028643788809
 21
4574.6235255622414
 31
0.0
  0
LINE
  5
7C17
  8
1
 10
2844.1028643788809
 20
4574.6235255622414
 30
0.0
 11
2676.6154918750331
 21
4574.6235255622414
 31
0.0
  0
LINE
  5
7C18
  8
1
 10
2676.6154918750331
 20
4565.1471810006396
 30
0.0
 11
2593.2643914092582
 21
4565.1471810006396
 31
0.0
  0
LINE
  5
7C19
  8
1
 10
2676.6154918750331
 20
4574.6235255622414
 30
0.0
 11
2676.6154918750331
 21
4565.1471810006396
 31
0.0
  0
LINE
  5
7C1A
  8
1
 10
7181.5844103292402
 20
5689.6235255622414
 30
0.0
 11
7181.5844103292402
 21
5529.6235255622414
 31
0.0
  0
LINE
  5
7C1B
  8
1
 10
7081.5844103292411
 20
6009.6235255622423
 30
0.0
 11
7081.5844103292411
 21
4648.6235255622423
 31
0.0
  0
LINE
  5
7C1C
  8
1
 10
7159.4844103292398
 20
6009.6235255622423
 30
0.0
 11
7159.4844103292398
 21
4648.6235255622423
 31
0.0
  0
LINE
  5
7C1D
  8
1
 10
7159.4844103292398
 20
5689.6235255622414
 30
0.0
 11
7181.5844103292402
 21
5689.6235255622414
 31
0.0
  0
LINE
  5
7C1E
  8
1
 10
7159.4844103292398
 20
5529.6235255622414
 30
0.0
 11
7181.5844103292402
 21
5529.6235255622414
 31
0.0
  0
LINE
  5
7C1F
  8
1
 10
7081.5844103292411
 20
4860.6235255622423
 30
0.0
 11
7159.4844103292398
 21
4860.6235255622423
 31
0.0
  0
LINE
  5
7C20
  8
1
 10
7081.5844103292411
 20
4648.6235255622423
 30
0.0
 11
7159.4844103292398
 21
4648.6235255622423
 31
0.0
  0
LINE
  5
7C21
  8
1
 10
7174.5844103292402
 20
4814.6235255622423
 30
0.0
 11
7174.5844103292402
 21
4694.6235255622423
 31
0.0
  0
LINE
  5
7C22
  8
1
 10
7159.4844103292398
 20
4814.6235255622414
 30
0.0
 11
7174.5844103292402
 21
4814.6235255622423
 31
0.0
  0
LINE
  5
7C23
  8
1
 10
7159.4844103292398
 20
4694.6235255622414
 30
0.0
 11
7174.5844103292402
 21
4694.6235255622423
 31
0.0
  0
LINE
  5
7C24
  8
1
 10
7031.5844103292411
 20
4534.6235255622414
 30
0.0
 11
7231.5844103292402
 21
4534.6235255622414
 31
0.0
  0
LINE
  5
7C25
  8
1
 10
7031.5844103292411
 20
6159.6235255622423
 30
0.0
 11
7031.5844103292411
 21
4534.6235255622414
 31
0.0
  0
LINE
  5
7C26
  8
1
 10
7231.5844103292402
 20
6159.6235255622423
 30
0.0
 11
7231.5844103292402
 21
4534.6235255622414
 31
0.0
  0
LINE
  5
7C27
  8
1
 10
7181.5844103292402
 20
5652.1235255622423
 30
0.0
 11
7451.2844103292409
 21
5652.1235255622423
 31
0.0
  0
LINE
  5
7C28
  8
1
 10
7181.5844103292402
 20
5567.1235255622414
 30
0.0
 11
7451.2844103292409
 21
5567.1235255622432
 31
0.0
  0
LINE
  5
7C29
  8
1
 10
5043.2771722967846
 20
4349.6235255622414
 30
0.0
 11
5043.2771722967846
 21
4274.6235255622414
 31
0.0
  0
LINE
  5
7C2A
  8
1
 10
5043.2771722967846
 20
4349.6235255622414
 30
0.0
 11
2293.2771722967841
 21
4349.6235255622414
 31
0.0
  0
LINE
  5
7C2B
  8
1
 10
2293.2771722967841
 20
4349.6235255622414
 30
0.0
 11
2293.2771722967841
 21
4274.6235255622414
 31
0.0
  0
LINE
  5
7C2C
  8
1
 10
5043.2771722967846
 20
4274.6235255622414
 30
0.0
 11
2293.2771722967841
 21
4274.6235255622414
 31
0.0
  0
LINE
  5
7C2D
  8
1
 10
7190.28441032924
 20
4349.6235255622414
 30
0.0
 11
8590.2844103292409
 21
4349.6235255622423
 31
0.0
  0
LINE
  5
7C2E
  8
1
 10
7190.28441032924
 20
4274.6235255622414
 30
0.0
 11
8590.2844103292409
 21
4274.6235255622423
 31
0.0
  0
LINE
  5
7C2F
  8
1
 10
7190.28441032924
 20
4349.6235255622414
 30
0.0
 11
7190.28441032924
 21
4274.6235255622414
 31
0.0
  0
LINE
  5
7C30
  8
1
 10
8590.2844103292409
 20
4349.6235255622423
 30
0.0
 11
8590.2844103292409
 21
4274.6235255622423
 31
0.0
  0
POINT
  5
7C31
  8
1
 10
2293.2771722967841
 20
4369.6235255622414
 30
0.0
  0
POINT
  5
7C32
  8
1
 10
2293.2771722967841
 20
4349.6235255622414
 30
0.0
  0
POINT
  5
7C33
  8
1
 10
2293.2771722967841
 20
4349.6235255622414
 30
0.0
  0
POINT
  5
7C34
  8
1
 10
2293.2771722967841
 20
4274.6235255622414
 30
0.0
  0
LINE
  5
7C35
  8
1
 10
7451.2844103292409
 20
5609.6235255622414
 30
0.0
 11
7451.2844103292409
 21
4519.6235255622414
 31
0.0
  0
LINE
  5
7C36
  8
1
 10
8511.2844103292427
 20
5600.6235255622414
 30
0.0
 11
8511.2844103292427
 21
4519.6235255622414
 31
0.0
  0
POINT
  5
7C37
  8
1
 10
7981.2844103292409
 20
6984.9085665957127
 30
0.0
  0
INSERT
  5
7C38
  8
0
  6
BYBLOCK
 62
     2
  2
YA_N
 10
5372.4018783245183
 20
-226.14356067562309
 30
0.0
 41
90.0
 42
90.0
 43
90.0
 50
210.0117675348119
  0
CIRCLE
  5
7C39
  8
1
 10
4193.2771722967836
 20
5609.6235255622414
 30
0.0
 40
400.0
  0
ARC
  5
7C3A
  8
1
 10
4193.2771722967836
 20
5609.6235255622414
 30
0.0
 40
550.0
 50
287.63810194355568
 51
128.5997638979342
  0
ARC
  5
7C3B
  8
1
 10
2593.2771722967841
 20
4754.6235255622414
 30
0.0
 40
220.0
 50
128.5997638979342
 51
287.63810194355568
  0
LINE
  5
7C3C
  8
1
 10
3850.1451653609201
 20
6039.4611993603467
 30
0.0
 11
2456.0243695224381
 21
4926.5585950814839
 31
0.0
  0
LINE
  5
7C3D
  8
1
 10
3950.0743060946361
 20
5927.1961406773698
 30
0.0
 11
2528.8284127532152
 21
4838.7802685677507
 31
0.0
  0
LINE
  5
7C3E
  8
1
 10
2627.4238830865452
 20
4654.2741252539172
 30
0.0
 11
4322.1326847109776
 21
5230.9465432666766
 31
0.0
  0
LINE
  5
7C3F
  8
1
 10
4359.9292071874625
 20
5085.4793667024906
 30
0.0
 11
2659.937986253055
 21
4544.9658620183418
 31
0.0
  0
LINE
  5
7C40
  8
1
 10
7081.5844103292411
 20
6009.6235255622423
 30
0.0
 11
7159.4844103292398
 21
6009.6235255622423
 31
0.0
  0
LINE
  5
7C41
  8
1
 10
7081.5844103292411
 20
5209.6235255622423
 30
0.0
 11
7159.4844103292398
 21
5209.6235255622423
 31
0.0
  0
LINE
  5
7C42
  8
1
 10
7031.5844103292411
 20
6159.6235255622423
 30
0.0
 11
7231.5844103292402
 21
6159.6235255622423
 31
0.0
  0
DIMENSION
  5
7C45
  8
3
  2
*D2
 10
4152.2771722967836
 20
6807.2696710759128
 30
0.0
 11
3427.2771722967841
 21
6932.2696710759128
 31
0.0
 70
     0
 13
2702.2771722967841
 23
6539.6235255622414
 33
0.0
 14
4152.2771722967836
 24
6539.6235255622414
 34
0.0
1001
ACAD
1000
DSTYLE
1002
{
1070
   287
1070
     3
1070
    40
1040
50.0
1070
   143
1040
0.039
1070
   172
1070
     1
1070
   271
1070
     0
1070
   279
1070
     0
1070
   288
1070
     1
1002
}
  0
DIMENSION
  5
7C46
  8
3
  2
*D3
 10
4193.2771722967836
 20
7057.6222347844387
 30
0.0
 11
3447.7771722967841
 21
7182.6222347844387
 31
0.0
 70
     0
 13
2702.2771722967841
 23
6539.6235255622414
 33
0.0
 14
4193.2771722967836
 24
6627.618283413326
 34
0.0
1001
ACAD
1000
DSTYLE
1002
{
1070
   287
1070
     3
1070
    40
1040
50.0
1070
   143
1040
0.039
1070
   172
1070
     1
1070
   271
1070
     0
1070
   279
1070
     0
1070
   288
1070
     1
1002
}
  0
DIMENSION
  5
7C47
  8
3
  2
*D4
 10
5196.2771722967846
 20
7057.6222347844387
 30
0.0
 11
4694.7771722967836
 21
7182.6222347844387
 31
0.0
 70
     0
 13
4193.2771722967836
 23
6627.618283413326
 33
0.0
 14
5196.2771722967846
 24
5507.6235255622414
 34
0.0
1001
ACAD
1000
DSTYLE
1002
{
1070
   287
1070
     3
1070
    40
1040
50.0
1070
   143
1040
0.039
1070
   172
1070
     1
1070
   271
1070
     0
1070
   279
1070
     0
1070
   288
1070
     1
1002
}
  0
DIMENSION
  5
7C4D
  8
3
  2
*D5
 10
4193.2771722967836
 20
3927.8577398926441
 30
0.0
 11
4618.2771722967836
 21
4052.8577398926441
 31
0.0
 70
     0
 13
5043.2771722967846
 23
4274.6235255622414
 33
0.0
 14
4193.2771722967836
 24
4122.0392716354991
 34
0.0
1001
ACAD
1000
DSTYLE
1002
{
1070
   287
1070
     3
1070
    40
1040
50.0
1070
   143
1040
0.039
1070
   172
1070
     1
1070
   271
1070
     0
1070
   279
1070
     0
1070
   288
1070
     1
1002
}
  0
DIMENSION
  5
7C4E
  8
3
  2
*D6
 10
2293.2771722967841
 20
3927.8577398926441
 30
0.0
 11
3243.2771722967841
 21
4052.8577398926441
 31
0.0
 70
     0
 13
4193.2771722967836
 23
4122.0392716354991
 33
0.0
 14
2293.2771722967841
 24
4274.6235255622414
 34
0.0
1001
ACAD
1000
DSTYLE
1002
{
1070
   287
1070
     3
1070
    40
1040
50.0
1070
   143
1040
0.039
1070
   172
1070
     1
1070
   271
1070
     0
1070
   279
1070
     0
1070
   288
1070
     1
1002
}
  0
DIMENSION
  5
7C50
  8
3
  2
*D7
 10
7981.2844103292409
 20
3958.6157422758638
 30
0.0
 11
7585.7844103292409
 21
4083.6157422758638
 31
0.0
 70
     0
 13
7190.28441032924
 23
4274.6235255622414
 33
0.0
 14
7981.2844103292409
 24
4122.0392716354991
 34
0.0
1001
ACAD
1000
DSTYLE
1002
{
1070
   287
1070
     3
1070
    40
1040
50.0
1070
   143
1040
0.039
1070
   172
1070
     1
1070
   271
1070
     0
1070
   279
1070
     0
1070
   288
1070
     1
1002
}
  0
DIMENSION
  5
7C51
  8
3
  2
*D8
 10
8590.2844103292409
 20
3958.6157422758638
 30
0.0
 11
8285.7844103292391
 21
4097.045931077595
 31
0.0
 70
   128
 13
7981.2844103292409
 23
4122.0392716354991
 33
0.0
 14
8590.2844103292409
 24
4274.6235255622423
 34
0.0
1001
ACAD
1000
DSTYLE
1002
{
1070
   288
1070
     1
1070
   172
1070
     1
1070
    40
1040
50.0
1070
   271
1070
     0
1070
   143
1040
0.039
1002
}
  0
DIMENSION
  5
7C53
  8
3
  2
*D9
 10
3343.2771722967841
 20
10474.642291675849
 30
0.0
 11
4193.2771722967836
 21
10599.642291675849
 31
0.0
 70
     0
 13
5043.2771722967846
 23
10104.59573631708
 33
0.0
 14
3343.2771722967841
 24
10104.59573631708
 34
0.0
1001
ACAD
1000
DSTYLE
1002
{
1070
   287
1070
     3
1070
    40
1040
50.0
1070
   143
1040
0.039
1070
   172
1070
     1
1070
   271
1070
     0
1070
   279
1070
     0
1070
   288
1070
     1
1002
}
  0
DIMENSION
  5
7C54
  8
3
  2
*D10
 10
2293.2771722967841
 20
10474.642291675849
 30
0.0
 11
2818.2771722967841
 21
10599.642291675849
 31
0.0
 70
     0
 13
3343.2771722967841
 23
10104.59573631708
 33
0.0
 14
2293.2771722967841
 24
9804.5957363170819
 34
0.0
1001
ACAD
1000
DSTYLE
1002
{
1070
   287
1070
     3
1070
    40
1040
50.0
1070
   143
1040
0.039
1070
   172
1070
     1
1070
   271
1070
     0
1070
   279
1070
     0
1070
   288
1070
     1
1002
}
  0
DIMENSION
  5
7C55
  8
3
  2
*D11
 10
1812.4033959667611
 20
8704.5957363170819
 30
0.0
 11
1687.403395966759
 21
9254.5957363170819
 31
0.0
 70
     0
 13
2293.2771722967841
 23
9804.5957363170819
 33
0.0
 14
2293.2771722967841
 24
8704.5957363170819
 34
0.0
 50
270.0
1001
ACAD
1000
DSTYLE
1002
{
1070
   287
1070
     3
1070
    40
1040
50.0
1070
   143
1040
0.039
1070
   172
1070
     1
1070
   271
1070
     0
1070
   279
1070
     0
1070
   288
1070
     1
1002
}
  0
DIMENSION
  5
7C56
  8
3
  2
*D12
 10
5469.5391325526871
 20
8704.5957363170819
 30
0.0
 11
5344.5391325526862
 21
9404.5957363170837
 31
0.0
 70
     0
 13
5043.2771722967846
 23
10104.59573631708
 33
0.0
 14
5043.2771722967846
 24
8704.5957363170819
 34
0.0
 50
270.0
1001
ACAD
1000
DSTYLE
1002
{
1070
   287
1070
     3
1070
    40
1040
50.0
1070
   143
1040
0.039
1070
   172
1070
     1
1070
   271
1070
     0
1070
   279
1070
     0
1070
   288
1070
     1
1002
}
  0
DIMENSION
  5
7C57
  8
3
  2
*D13
 10
2293.2771722967841
 20
8106.1186320403522
 30
0.0
 11
3691.2438274201272
 21
8106.1186320403522
 31
0.0
 70
   128
 13
5043.2771722967846
 23
8704.5957363170819
 33
0.0
 14
2293.2771722967841
 24
8704.5957363170819
 34
0.0
1001
ACAD
1000
DSTYLE
1002
{
1070
   287
1070
     3
1070
    40
1040
50.0
1070
   143
1040
0.039
1070
   172
1070
     1
1070
   271
1070
     0
1070
   279
1070
     0
1070
   288
1070
     1
1002
}
  0
DIMENSION
  5
7C58
  8
3
  2
*D14
 10
8511.2844103292427
 20
6763.2491494556998
 30
0.0
 11
7981.2844103292409
 21
6888.2491494556998
 31
0.0
 70
     0
 13
7451.2844103292409
 23
6539.6235255622414
 33
0.0
 14
8511.2844103292427
 24
6539.6235255622414
 34
0.0
1001
ACAD
1000
DSTYLE
1002
{
1070
   287
1070
     3
1070
    40
1040
50.0
1070
   143
1040
0.039
1070
   172
1070
     1
1070
   271
1070
     0
1070
   279
1070
     0
1070
   288
1070
     1
1002
}
  0
DIMENSION
  5
7C59
  8
3
  2
*D15
 10
7981.2844103292409
 20
7100.1512029187043
 30
0.0
 11
8298.2844103292409
 21
7253.6665403318293
 31
0.0
 70
   128
 13
8615.2844103292409
 23
6359.6235255622414
 33
0.0
 14
7981.2844103292409
 24
6984.9085665957127
 34
0.0
1001
ACAD
1000
DSTYLE
1002
{
1070
   288
1070
     1
1070
   172
1070
     1
1070
    40
1040
50.0
1070
   271
1070
     0
1070
   143
1040
0.039
1002
}
  0
DIMENSION
  5
7C5A
  8
3
  2
*D16
 10
7031.5844103292411
 20
7100.1512029187043
 30
0.0
 11
7506.4344103292406
 21
7350.1512029187043
 31
0.0
 70
     0
  1
MAX\P1030
 13
7981.2844103292409
 23
6984.9085665957127
 33
0.0
 14
7031.5844103292411
 24
6159.6235255622423
 34
0.0
1001
ACAD
1000
DSTYLE
1002
{
1070
   287
1070
     3
1070
    40
1040
50.0
1070
   143
1040
0.039
1070
   172
1070
     1
1070
   271
1070
     0
1070
   279
1070
     0
1070
   288
1070
     1
1002
}
  0
DIMENSION
  5
7C5B
  8
3
  2
*D17
 10
9047.8750375091495
 20
4909.6235255622423
 30
0.0
 11
8922.8750375091495
 21
5609.6235255622423
 31
0.0
 70
     0
 13
8615.2844103292409
 23
6309.6235255622414
 33
0.0
 14
8615.2844103292409
 24
4909.6235255622423
 34
0.0
 50
90.0
1001
ACAD
1000
DSTYLE
1002
{
1070
   287
1070
     3
1070
     3
1000
φ<>
1070
    40
1040
50.0
1070
   143
1040
0.039
1070
   172
1070
     1
1070
   271
1070
     0
1070
   279
1070
     0
1070
   288
1070
     1
1002
}
  0
LINE
  5
7C5C
  8
2
 10
4193.2771722967836
 20
8519.6125623379157
 30
0.0
 11
4193.2771722967836
 21
10199.292722370559
 31
0.0
  0
LINE
  5
7C5D
  8
2
 10
5163.6887527089666
 20
9495.5957363170837
 30
0.0
 11
2210.949873576541
 21
9495.5957363170783
 31
0.0
  0
LINE
  5
7C5E
  8
1
 10
5196.2771722967846
 20
10025.59573631708
 30
0.0
 11
2702.2771722967841
 21
10025.59573631708
 31
0.0
  0
LINE
  5
7C5F
  8
1
 10
5196.2771722967846
 20
8965.5957363170819
 30
0.0
 11
2702.2771722967841
 21
8965.5957363170819
 31
0.0
  0
LINE
  5
7C60
  8
1
 10
2702.2771722967841
 20
8965.5957363170819
 30
0.0
 11
2702.2771722967841
 21
10025.59573631708
 31
0.0
  0
LINE
  5
7C61
  8
1
 10
4152.2771722967836
 20
8965.5957363170819
 30
0.0
 11
4152.2771722967836
 21
10025.59573631708
 31
0.0
  0
LINE
  5
7C62
  8
1
 10
5196.2771722967846
 20
8965.5957363170819
 30
0.0
 11
5196.2771722967846
 21
10025.59573631708
 31
0.0
  0
LINE
  5
7C63
  8
1
 10
5043.2771722967846
 20
8965.5957363170819
 30
0.0
 11
5043.2771722967846
 21
8704.5957363170819
 31
0.0
  0
LINE
  5
7C64
  8
1
 10
2702.2771722967841
 20
10025.59573631708
 30
0.0
 11
4152.2771722967836
 21
8965.5957363170819
 31
0.0
  0
LINE
  5
7C65
  8
1
 10
4152.2771722967836
 20
10025.59573631708
 30
0.0
 11
2702.2771722967841
 21
8965.5957363170819
 31
0.0
  0
DIMENSION
  5
7C66
  8
3
  2
*D18
 10
2293.2771722967841
 20
7306.9067132459431
 30
0.0
 11
3744.7771722967841
 21
7431.9067132459431
 31
0.0
 70
     0
 13
5196.2771722967846
 23
5524.1235255622423
 33
0.0
 14
2293.2771722967841
 24
4519.6235255622414
 34
0.0
1001
ACAD
1000
DSTYLE
1002
{
1070
   287
1070
     3
1070
    40
1040
50.0
1070
   143
1040
0.039
1070
   172
1070
     1
1070
   271
1070
     0
1070
   279
1070
     0
1070
   288
1070
     1
1002
}
  0
LINE
  5
7C67
  8
1
 10
8590.2844103292409
 20
4519.6235255622414
 30
0.0
 11
8590.2844103292409
 21
4369.6235255622423
 31
0.0
  0
LINE
  5
7C68
  8
1
 10
7190.28441032924
 20
4519.6235255622414
 30
0.0
 11
7190.28441032924
 21
4369.6235255622414
 31
0.0
  0
LINE
  5
7C69
  8
1
 10
4743.2771722967836
 20
8745.8957363170812
 30
0.0
 11
2373.2771722967841
 21
8745.8957363170812
 31
0.0
  0
LINE
  5
7C6A
  8
1
 10
4743.2771722967836
 20
8545.8957363170812
 30
0.0
 11
2373.2771722967841
 21
8545.8957363170812
 31
0.0
  0
LINE
  5
7C6B
  8
1
 10
4593.2771722967846
 20
8673.7957363170808
 30
0.0
 11
3793.277172296785
 21
8673.7957363170808
 31
0.0
  0
LINE
  5
7C6C
  8
1
 10
4593.2771722967846
 20
8595.8957363170794
 30
0.0
 11
3793.277172296785
 21
8595.8957363170794
 31
0.0
  0
LINE
  5
7C6D
  8
1
 10
2550.7771722967841
 20
8688.8957363170812
 30
0.0
 11
2550.7771722967841
 21
8803.8957363170794
 31
0.0
  0
LINE
  5
7C6E
  8
1
 10
2635.7771722967841
 20
8688.8957363170812
 30
0.0
 11
2635.7771722967841
 21
8803.8957363170794
 31
0.0
  0
LINE
  5
7C6F
  8
2
 10
2593.2771722967841
 20
9382.4513164666696
 30
0.0
 11
2593.2771722967841
 21
8528.5706550874092
 31
0.0
  0
LINE
  5
7C70
  8
1
 10
2373.2771722967841
 20
8545.8957363170812
 30
0.0
 11
2373.2771722967841
 21
8745.8957363170812
 31
0.0
  0
LINE
  5
7C71
  8
1
 10
2487.277172296785
 20
8595.8957363170794
 30
0.0
 11
2487.277172296785
 21
8673.7957363170808
 31
0.0
  0
LINE
  5
7C72
  8
1
 10
2699.2771722967841
 20
8595.8957363170794
 30
0.0
 11
2699.2771722967841
 21
8673.7957363170808
 31
0.0
  0
LINE
  5
7C73
  8
1
 10
2653.2771722967841
 20
8688.8957363170812
 30
0.0
 11
2533.2771722967841
 21
8688.8957363170812
 31
0.0
  0
LINE
  5
7C74
  8
1
 10
2533.2771722967841
 20
8673.7957363170808
 30
0.0
 11
2533.2771722967841
 21
8688.8957363170812
 31
0.0
  0
LINE
  5
7C75
  8
1
 10
2653.2771722967841
 20
8673.7957363170808
 30
0.0
 11
2653.2771722967841
 21
8688.8957363170812
 31
0.0
  0
LINE
  5
7C76
  8
1
 10
4150.7771722967836
 20
8695.8957363170812
 30
0.0
 11
4150.7771722967836
 21
8965.5957363170819
 31
0.0
  0
LINE
  5
7C77
  8
1
 10
4235.7771722967836
 20
8695.8957363170812
 30
0.0
 11
4235.7771722967836
 21
8965.5957363170819
 31
0.0
  0
LINE
  5
7C78
  8
1
 10
3793.277172296785
 20
8595.8957363170794
 30
0.0
 11
3793.277172296785
 21
8673.7957363170808
 31
0.0
  0
LINE
  5
7C79
  8
1
 10
4273.2771722967846
 20
8695.8957363170812
 30
0.0
 11
4113.2771722967836
 21
8695.8957363170812
 31
0.0
  0
LINE
  5
7C7A
  8
1
 10
4113.2771722967836
 20
8673.7957363170808
 30
0.0
 11
4113.2771722967836
 21
8695.8957363170812
 31
0.0
  0
LINE
  5
7C7B
  8
1
 10
4273.2771722967846
 20
8673.7957363170808
 30
0.0
 11
4273.2771722967846
 21
8695.8957363170812
 31
0.0
  0
LINE
  5
7C7C
  8
1
 10
4743.2771722967836
 20
8545.8957363170812
 30
0.0
 11
4743.2771722967836
 21
8745.8957363170812
 31
0.0
  0
LINE
  5
7C7D
  8
1
 10
4593.2771722967846
 20
8595.8957363170794
 30
0.0
 11
4593.2771722967846
 21
8673.7957363170808
 31
0.0
  0
LINE
  5
7C7E
  8
1
 10
2702.2771722967841
 20
9365.3957363170812
 30
0.0
 11
2410.7771722967841
 21
9365.3957363170812
 31
0.0
  0
LINE
  5
7C7F
  8
1
 10
2775.7771722967841
 20
8803.8957363170794
 30
0.0
 11
2410.7771722967841
 21
8803.8957363170794
 31
0.0
  0
LINE
  5
7C80
  8
1
 10
2775.7771722967841
 20
8965.5957363170819
 30
0.0
 11
2775.7771722967841
 21
8803.8957363170794
 31
0.0
  0
LINE
  5
7C81
  8
1
 10
2410.7771722967841
 20
9365.3957363170812
 30
0.0
 11
2410.7771722967841
 21
8803.8957363170794
 31
0.0
  0
LINE
  5
7C82
  8
1
 10
2699.2771722967841
 20
8673.7957363170808
 30
0.0
 11
2487.277172296785
 21
8673.7957363170808
 31
0.0
  0
LINE
  5
7C83
  8
1
 10
2699.2771722967841
 20
8595.8957363170794
 30
0.0
 11
2487.277172296785
 21
8595.8957363170794
 31
0.0
  0
LINE
  5
7EA6
  8
4
 10
9250.0
 20
2500.0
 30
0.0
 11
9250.0
 21
1500.0
 31
0.0
  0
LINE
  5
7EA7
  8
4
 10
5750.0
 20
2500.0
 30
0.0
 11
5750.0
 21
1500.0
 31
0.0
  0
LINE
  5
7EA8
  8
4
 10
3250.0
 20
2500.0
 30
0.0
 11
3250.0
 21
1500.0
 31
0.0
  0
LINE
  5
7EAB
  8
4
 10
3250.0
 20
1500.0
 30
0.0
 11
9250.0
 21
1500.0
 31
0.0
  0
LINE
  5
7EAC
  8
4
 10
3250.0
 20
2000.0
 30
0.0
 11
9250.0
 21
2000.0
 31
0.0
  0
TEXT
  5
7EAD
  8
4
 10
3442.5104042345079
 20
2157.7151293330639
 30
0.0
 40
250.0
  1
機器名称
  0
TEXT
  5
7EAE
  8
4
 10
3431.2905301239871
 20
1608.225783660054
 30
0.0
 40
250.0
  1
機器型番
  0
TEXT
  5
7EAF
  8
4
 10
5896.1731051966872
 20
2109.83090334383
 30
0.0
 40
200.0
  1
ミツヤリミットロードファン
  0
TEXT
  5
7EB0
  8
4
 10
5933.2724779274031
 20
1585.797921399716
 30
0.0
 40
250.0
  1
LL#9-4
  0
TEXT
  5
7EB2
  8
4
 10
3916.6785988044739
 20
11917.14420666257
 30
0.0
 40
269.99999999999989
  1
床置防振ベット
  0
TEXT
  5
7EB3
  8
4
 10
1577.3740300895779
 20
12660.747110673179
 30
0.0
 40
306.0
  1
ベルト駆動式片吸込両持リミットロードファン
  0
LINE
  5
7EB4
  8
4
 10
1250.0
 20
12347.043771324021
 30
0.0
 11
9250.0
 21
12347.043771324021
 31
0.0
  0
LINE
  5
7EB5
  8
4
 10
1250.0
 20
13347.043771324021
 30
0.0
 11
9250.0
 21
13347.043771324021
 31
0.0
  0
LINE
  5
7EB6
  8
4
 10
3250.0
 20
2500.0
 30
0.0
 11
9250.0
 21
2500.0
 31
0.0
  0
LINE
  5
7EB7
  8
4
 10
1250.0
 20
13347.043771324021
 30
0.0
 11
1250.0
 21
12347.043771324021
 31
0.0
  0
TEXT
  5
7EB8
  8
4
 10
1737.384437590963
 20
11911.59738773171
 30
0.0
 40
269.99999999999989
  1
右回転上向
  0
TEXT
  5
7EB9
  8
4
 10
7344.8477962464494
 20
13530.30540747654
 30
0.0
 40
280.0
  1
No.
  0
TEXT
  5
7EBA
  8
4
 10
6556.4803130000646
 20
11917.14420666257
 30
0.0
 40
269.99999999999989
  1
縮尺：1/50
  0
LINE
  5
7EBB
  8
4
 10
9250.0
 20
13347.043771324021
 30
0.0
 11
9250.0
 21
12347.043771324021
 31
0.0
  0
LINE
  5
7EBC
  8
4
 10
10500.0
 20
14750.0
 30
0.0
 11
10500.0
 21
14750.0
 31
0.0
  0
LINE
  5
7EBD
  8
4
 10
7203.0871117993229
 20
13406.317915627
 30
0.0
 11
7203.0871117993229
 21
13933.26130774876
 31
0.0
  0
LINE
  5
7EBE
  8
4
 10
7203.0871117993229
 20
13933.26130774876
 30
0.0
 11
9250.0
 21
13933.26130774876
 31
0.0
  0
LINE
  5
7EBF
  8
4
 10
9250.0
 20
13933.26130774876
 30
0.0
 11
9250.0
 21
13406.317915627
 31
0.0
  0
LINE
  5
7EC0
  8
4
 10
9250.0
 20
13406.317915627
 30
0.0
 11
7203.0871117993229
 21
13406.317915627
 31
0.0
  0
LINE
  5
7EC1
  8
4
 10
0.0
 20
0.0
 30
0.0
 11
0.0
 21
14750.0
 31
0.0
  0
LINE
  5
7EC2
  8
4
 10
0.0
 20
14750.0
 30
0.0
 11
10500.0
 21
14750.0
 31
0.0
  0
LINE
  5
7EC3
  8
4
 10
10500.0
 20
14750.0
 30
0.0
 11
10500.0
 21
0.0
 31
0.0
  0
LINE
  5
7EC4
  8
4
 10
10500.0
 20
0.0
 30
0.0
 11
0.0
 21
0.0
 31
0.0
  0
DIMENSION
  5
82B5
  8
3
  2
*D19
 10
5823.5832224493724
 20
5609.6235255622414
 30
0.0
 11
5823.5832224493706
 21
6196.7663827050983
 31
0.0
 70
   128
 13
4206.2771722967836
 23
6539.6235255622414
 33
0.0
 14
5275.0336991784498
 24
5609.6235255622414
 34
0.0
 50
90.0
1001
ACAD
1000
DSTYLE
1002
{
1070
   287
1070
     3
1070
    40
1040
50.0
1070
   143
1040
0.039
1070
   172
1070
     1
1070
   271
1070
     0
1070
   279
1070
     0
1070
   288
1070
     1
1002
}
  0
DIMENSION
  5
82C1
  8
3
  2
*D20
 10
5823.5832224493706
 20
4369.6235255622414
 30
0.0
 11
5698.5832224493706
 21
4989.6235255622423
 31
0.0
 70
     0
 13
5275.0336991784498
 23
5609.6235255622414
 33
0.0
 14
5043.2771722967846
 24
4369.6235255622414
 34
0.0
 50
90.0
1001
ACAD
1000
DSTYLE
1002
{
1070
   287
1070
     4
1070
    40
1040
50.0
1070
    75
1070
     1
1070
   143
1040
0.039
1070
   172
1070
     1
1070
   271
1070
     0
1070
   279
1070
     1
1070
   288
1070
     1
1002
}
  0
DIMENSION
  5
82D1
  8
3
  2
*D21
 10
5823.5832224493706
 20
4274.6235255622414
 30
0.0
 11
5698.5832224493706
 21
3903.1949541336699
 31
0.0
 70
     0
 13
5043.2771722967846
 23
4369.6235255622414
 33
0.0
 14
5043.2771722967846
 24
4274.6235255622414
 34
0.0
 50
90.0
1001
ACAD
1000
DSTYLE
1002
{
1070
   287
1070
     3
1070
    40
1040
50.0
1070
   143
1040
0.039
1070
   172
1070
     1
1070
   271
1070
     0
1070
   279
1070
     0
1070
   288
1070
     1
1002
}
  0
DIMENSION
  5
82EB
  8
3
  2
*D22
 10
6153.8661234529
 20
4274.6235255622396
 30
0.0
 11
6153.8661234529
 21
5287.9527879300949
 31
0.0
 70
   128
 13
4206.2771722967836
 23
6539.6235255622414
 33
0.0
 14
5043.2771722967846
 24
4274.6235255622414
 34
0.0
 50
90.0
1001
ACAD
1000
DSTYLE
1002
{
1070
   287
1070
     3
1070
    40
1040
50.0
1070
   143
1040
0.039
1070
   172
1070
     1
1070
   271
1070
     0
1070
   279
1070
     0
1070
   288
1070
     1
1002
}
  0
LINE
  5
82F5
  8
1
 10
7451.2844103292409
 20
4937.1235255622423
 30
0.0
 11
7289.5844103292402
 21
4937.1235255622423
 31
0.0
  0
LINE
  5
82F7
  8
1
 10
7451.2844103292409
 20
4572.1235255622423
 30
0.0
 11
7289.5844103292402
 21
4572.1235255622423
 31
0.0
  0
LINE
  5
82F8
  8
1
 10
7289.5844103292402
 20
4572.1235255622423
 30
0.0
 11
7289.5844103292402
 21
4937.1235255622423
 31
0.0
  0
LINE
  5
82F9
  8
1
 10
7174.5844103292402
 20
4797.1235255622414
 30
0.0
 11
7289.5844103292402
 21
4797.1235255622414
 31
0.0
  0
LINE
  5
82FA
  8
1
 10
7174.5844103292402
 20
4712.1235255622414
 30
0.0
 11
7289.5844103292402
 21
4712.1235255622414
 31
0.0
  0
LINE
  5
82FB
  8
1
 10
7174.5844103292402
 20
4694.6235255622414
 30
0.0
 11
7174.5844103292402
 21
4814.6235255622414
 31
0.0
  0
LINE
  5
82FC
  8
1
 10
7159.4844103292398
 20
4694.6235255622414
 30
0.0
 11
7174.5844103292402
 21
4694.6235255622414
 31
0.0
  0
LINE
  5
82FD
  8
1
 10
7159.4844103292398
 20
4814.6235255622414
 30
0.0
 11
7174.5844103292402
 21
4814.6235255622414
 31
0.0
  0
LINE
  5
82FE
  8
1
 10
7159.4844103292398
 20
4648.6235255622423
 30
0.0
 11
7159.4844103292398
 21
4860.6235255622423
 31
0.0
  0
ENDSEC
  0
EOF
