  0
SECTION
  2
HEADER
  9
$ACADVER
  1
AC1009
  9
$INSBASE
 10
0.0
 20
0.0
 30
0.0
  9
$EXTMIN
 10
0.0
 20
0.0
 30
0.0
  9
$EXTMAX
 10
10500.0
 20
14750.0
 30
0.0
  9
$LIMMIN
 10
0.0
 20
0.0
  9
$LIMMAX
 10
297.0
 20
210.0
  9
$ORTHOMODE
 70
     0
  9
$REGENMODE
 70
     1
  9
$FILLMODE
 70
     0
  9
$QTEXTMODE
 70
     0
  9
$MIRRTEXT
 70
     1
  9
$DRAGMODE
 70
     2
  9
$LTSCALE
 40
100.0
  9
$OSMODE
 70
    37
  9
$ATTMODE
 70
     1
  9
$TEXTSIZE
 40
180.0
  9
$TRACEWID
 40
0.05
  9
$TEXTSTYLE
  7
STANDARD
  9
$CLAYER
  8
3
  9
$CELTYPE
  6
BYLAYER
  9
$CECOLOR
 62
   256
  9
$DIMSCALE
 40
50.0
  9
$DIMASZ
 40
2.0
  9
$DIMEXO
 40
0.5
  9
$DIMDLI
 40
10.0
  9
$DIMRND
 40
0.0
  9
$DIMDLE
 40
0.0
  9
$DIMEXE
 40
1.0
  9
$DIMTP
 40
1.0
  9
$DIMTM
 40
1.0
  9
$DIMTXT
 40
3.0
  9
$DIMCEN
 40
0.0
  9
$DIMTSZ
 40
0.0
  9
$DIMTOL
 70
     0
  9
$DIMLIM
 70
     0
  9
$DIMTIH
 70
     0
  9
$DIMTOH
 70
     0
  9
$DIMSE1
 70
     0
  9
$DIMSE2
 70
     0
  9
$DIMTAD
 70
     1
  9
$DIMZIN
 70
     8
  9
$DIMBLK
  1

  9
$DIMASO
 70
     1
  9
$DIMSHO
 70
     1
  9
$DIMPOST
  1

  9
$DIMAPOST
  1

  9
$DIMALT
 70
     0
  9
$DIMALTD
 70
     2
  9
$DIMALTF
 40
0.039
  9
$DIMLFAC
 40
1.0
  9
$DIMTOFL
 70
     1
  9
$DIMTVP
 40
0.0
  9
$DIMTIX
 70
     0
  9
$DIMSOXD
 70
     0
  9
$DIMSAH
 70
     1
  9
$DIMBLK1
  1
OPEN
  9
$DIMBLK2
  1
OPEN
  9
$DIMSTYLE
  2
IGA
  9
$DIMCLRD
 70
     0
  9
$DIMCLRE
 70
     0
  9
$DIMCLRT
 70
     0
  9
$DIMTFAC
 40
10.0
  9
$DIMGAP
 40
1.0
  9
$LUNITS
 70
     2
  9
$LUPREC
 70
     3
  9
$SKETCHINC
 40
0.1
  9
$FILLETRAD
 40
50.0
  9
$AUNITS
 70
     0
  9
$AUPREC
 70
     0
  9
$MENU
  1
acad
  9
$ELEVATION
 40
0.0
  9
$PELEVATION
 40
0.0
  9
$THICKNESS
 40
0.0
  9
$LIMCHECK
 70
     0
  9
$BLIPMODE
 70
     0
  9
$CHAMFERA
 40
0.5
  9
$CHAMFERB
 40
0.5
  9
$SKPOLY
 70
     0
  9
$TDCREATE
 40
2451408.482329051
  9
$TDUPDATE
 40
2454953.6622545831
  9
$TDINDWG
 40
0.0332724421
  9
$TDUSRTIMER
 40
0.0332724421
  9
$USRTIMER
 70
     1
  9
$ANGBASE
 50
0.0
  9
$ANGDIR
 70
     0
  9
$PDMODE
 70
     0
  9
$PDSIZE
 40
0.0
  9
$PLINEWID
 40
0.0
  9
$COORDS
 70
     1
  9
$SPLFRAME
 70
     0
  9
$SPLINETYPE
 70
     6
  9
$SPLINESEGS
 70
     8
  9
$ATTDIA
 70
     0
  9
$ATTREQ
 70
     1
  9
$HANDLING
 70
 10241
  9
$HANDSEED
  5
843F
  9
$SURFTAB1
 70
     6
  9
$SURFTAB2
 70
     6
  9
$SURFTYPE
 70
     6
  9
$SURFU
 70
     6
  9
$SURFV
 70
     6
  9
$UCSNAME
  2

  9
$UCSORG
 10
0.0
 20
0.0
 30
0.0
  9
$UCSXDIR
 10
1.0
 20
0.0
 30
0.0
  9
$UCSYDIR
 10
0.0
 20
1.0
 30
0.0
  9
$PUCSNAME
  2

  9
$PUCSORG
 10
0.0
 20
0.0
 30
0.0
  9
$PUCSXDIR
 10
1.0
 20
0.0
 30
0.0
  9
$PUCSYDIR
 10
0.0
 20
1.0
 30
0.0
  9
$USERI1
 70
     0
  9
$USERI2
 70
     0
  9
$USERI3
 70
     0
  9
$USERI4
 70
     0
  9
$USERI5
 70
     0
  9
$USERR1
 40
0.0
  9
$USERR2
 40
0.0
  9
$USERR3
 40
0.0
  9
$USERR4
 40
0.0
  9
$USERR5
 40
0.0
  9
$WORLDVIEW
 70
     1
  9
$SHADEDGE
 70
     3
  9
$SHADEDIF
 70
    70
  9
$TILEMODE
 70
     1
  9
$MAXACTVP
 70
    16
  9
$PLIMCHECK
 70
     0
  9
$PEXTMIN
 10
1.0000000000000000E+020
 20
1.0000000000000000E+020
 30
1.0000000000000000E+020
  9
$PEXTMAX
 10
-1.0000000000000000E+020
 20
-1.0000000000000000E+020
 30
-1.0000000000000000E+020
  9
$PLIMMIN
 10
0.0
 20
0.0
  9
$PLIMMAX
 10
12.0
 20
9.0
  9
$UNITMODE
 70
     0
  9
$VISRETAIN
 70
     0
  9
$PLINEGEN
 70
     0
  9
$PSLTSCALE
 70
     1
  0
ENDSEC
  0
SECTION
  2
TABLES
  0
TABLE
  2
VPORT
 70
     2
  0
VPORT
  2
*ACTIVE
 70
     0
 10
0.0
 20
0.0
 11
1.0
 21
1.0
 12
21511.485526481141
 22
7573.145834898517
 13
0.0
 23
0.0
 14
10.0
 24
10.0
 15
10.0
 25
10.0
 16
0.0
 26
0.0
 36
1.0
 17
0.0
 27
0.0
 37
0.0
 40
16138.951021162149
 41
3.1666666666666661
 42
50.0
 43
0.0
 44
0.0
 50
0.0
 51
0.0
 71
     0
 72
   100
 73
     1
 74
     0
 75
     0
 76
     0
 77
     0
 78
     0
  0
ENDTAB
  0
TABLE
  2
LTYPE
 70
     2
  0
LTYPE
  2
CONTINUOUS
 70
     0
  3
Solid line
 72
    65
 73
     0
 40
0.0
  0
LTYPE
  2
CENTER
 70
     0
  3
____ _ ____ _ ____ _ ____ _ ____ _ ____ _ ____ 
 72
    65
 73
     4
 40
2.0
 49
1.25
 49
-0.25
 49
0.25
 49
-0.25
  0
ENDTAB
  0
TABLE
  2
LAYER
 70
     6
  0
LAYER
  2
0
 70
     0
 62
     7
  6
CONTINUOUS
  0
LAYER
  2
3
 70
     0
 62
     2
  6
CONTINUOUS
  0
LAYER
  2
2
 70
     0
 62
     3
  6
CENTER
  0
LAYER
  2
1
 70
     0
 62
     4
  6
CONTINUOUS
  0
LAYER
  2
4
 70
     0
 62
     7
  6
CONTINUOUS
  0
LAYER
  2
DEFPOINTS
 70
     0
 62
     7
  6
CONTINUOUS
  0
ENDTAB
  0
TABLE
  2
STYLE
 70
     1
  0
STYLE
  2
STANDARD
 70
     0
 40
0.0
 41
1.0
 50
0.0
 71
     0
 42
180.0
  3
simplex.shx
  4
extfont.shx
  0
ENDTAB
  0
TABLE
  2
VIEW
 70
     0
  0
ENDTAB
  0
TABLE
  2
UCS
 70
     0
  0
ENDTAB
  0
TABLE
  2
APPID
 70
     1
  0
APPID
  2
ACAD
 70
     0
  0
ENDTAB
  0
TABLE
  2
DIMSTYLE
 70
     1
  0
DIMSTYLE
  2
IGA
 70
     0
  3

  4

  5

  6
OPEN
  7
OPEN
 40
2.0
 41
2.0
 42
0.5
 43
10.0
 44
1.0
 45
0.0
 46
0.0
 47
1.0
 48
1.0
140
3.0
141
0.0
142
0.0
143
0.03937
144
1.0
145
0.0
146
10.0
147
1.0
 71
     0
 72
     0
 73
     0
 74
     0
 75
     0
 76
     0
 77
     1
 78
     8
170
     0
171
     2
172
     0
173
     1
174
     0
175
     0
176
     0
177
     0
178
     0
  0
ENDTAB
  0
ENDSEC
  0
SECTION
  2
BLOCKS
  0
BLOCK
  8
0
  2
$MODEL_SPACE
 70
     0
 10
0.0
 20
0.0
 30
0.0
  3
$MODEL_SPACE
  1

  0
ENDBLK
  5
1B
  8
0
  0
BLOCK
 67
     1
  8
0
  2
$PAPER_SPACE
 70
     0
 10
0.0
 20
0.0
 30
0.0
  3
$PAPER_SPACE
  1

  0
ENDBLK
  5
18
 67
     1
  8
0
  0
BLOCK
  8
0
  2
_OPEN
 70
     0
 10
0.0
 20
0.0
 30
0.0
  3
_OPEN
  1

  0
LINE
  5
79FD
  8
0
  6
BYBLOCK
 62
     0
 10
-1.0
 20
0.1666666666666666
 30
0.0
 11
0.0
 21
0.0
 31
0.0
  0
LINE
  5
79FE
  8
0
  6
BYBLOCK
 62
     0
 10
0.0
 20
0.0
 30
0.0
 11
-1.0
 21
-0.1666666666666666
 31
0.0
  0
LINE
  5
79FF
  8
0
  6
BYBLOCK
 62
     0
 10
0.0
 20
0.0
 30
0.0
 11
-1.0
 21
0.0
 31
0.0
  0
ENDBLK
  5
7A01
  8
0
  0
BLOCK
  8
0
  2
YA_N
 70
     0
 10
0.0
 20
0.0
 30
0.0
  3
YA_N
  1

  0
ENDBLK
  5
7A0C
  8
0
  0
BLOCK
  8
0
  2
*D2
 70
     1
 10
0.0
 20
0.0
 30
0.0
  3
*D2
  1

  0
LINE
  5
838A
  8
3
 62
     0
 10
8345.2630274059811
 20
6371.58396633342
 30
0.0
 11
8345.2630274059811
 21
6698.9302456407167
 31
0.0
  0
LINE
  5
838B
  8
3
 62
     0
 10
7285.2630274059811
 20
6371.5839663334191
 30
0.0
 11
7285.2630274059811
 21
6698.9302456407167
 31
0.0
  0
LINE
  5
838C
  8
3
 62
     0
 10
8245.2630274059811
 20
6648.9302456407167
 30
0.0
 11
7385.263027405982
 21
6648.9302456407167
 31
0.0
  0
INSERT
  5
838D
  8
3
 62
     0
  2
_OPEN
 10
8345.2630274059811
 20
6648.9302456407167
 30
0.0
 41
100.0
 42
100.0
 43
100.0
  0
INSERT
  5
838E
  8
3
 62
     0
  2
_OPEN
 10
7285.2630274059811
 20
6648.9302456407167
 30
0.0
 41
100.0
 42
100.0
 43
100.0
 50
180.0
  0
TEXT
  8
3
  40
150
  5
842C
  62
0
  72
0
  71
0
 10
7515.26
 20
6508.43
 30
0.000000
  1
1060
  0
POINT
  5
8390
  8
DEFPOINTS
 62
     0
 10
8345.2630274059811
 20
6346.58396633342
 30
0.0
  0
POINT
  5
8391
  8
DEFPOINTS
 62
     0
 10
7285.2630274059811
 20
6346.5839663334191
 30
0.0
  0
POINT
  5
8392
  8
DEFPOINTS
 62
     0
 10
7285.2630274059811
 20
6648.9302456407167
 30
0.0
  0
ENDBLK
  5
82A5
  8
0
  0
BLOCK
  8
0
  2
*D3
 70
     1
 10
0.0
 20
0.0
 30
0.0
  3
*D3
  1

  0
LINE
  5
82F2
  8
0
  6
BYBLOCK
 62
     0
 10
8449.2630274059811
 20
6640.6431238689111
 30
0.0
 11
8449.2630274059811
 21
7983.1631015263583
 31
0.0
  0
LINE
  5
82F3
  8
0
  6
BYBLOCK
 62
     0
 10
7815.263027405982
 20
7795.5835574373959
 30
0.0
 11
7815.263027405982
 21
7983.1631015263583
 31
0.0
  0
LINE
  5
82F4
  8
0
  6
BYBLOCK
 62
     0
 10
8349.2630274059793
 20
7933.1631015263583
 30
0.0
 11
7915.2630274059811
 21
7933.1631015263583
 31
0.0
  0
TEXT
  5
82F5
  8
3
 62
     0
 10
7935.8344559774096
 20
8058.1631015263592
 30
0.0
 40
150.0
  1
634
  0
INSERT
  5
82F6
  8
0
  6
BYBLOCK
 62
     0
  2
_OPEN
 10
8449.2630274059811
 20
7933.1631015263583
 30
0.0
 41
100.0
 42
100.0
 43
100.0
  0
INSERT
  5
82F7
  8
0
  6
BYBLOCK
 62
     0
  2
_OPEN
 10
7815.263027405982
 20
7933.1631015263583
 30
0.0
 41
100.0
 42
100.0
 43
100.0
 50
180.0
  0
POINT
  5
82F8
  8
DEFPOINTS
  6
BYBLOCK
 62
     0
 10
8449.2630274059811
 20
6615.6431238689111
 30
0.0
  0
POINT
  5
82F9
  8
DEFPOINTS
  6
BYBLOCK
 62
     0
 10
7815.263027405982
 20
7770.5835574373959
 30
0.0
  0
POINT
  5
82FA
  8
DEFPOINTS
  6
BYBLOCK
 62
     0
 10
7815.263027405982
 20
7933.1631015263583
 30
0.0
  0
ENDBLK
  5
82FB
  8
0
  0
BLOCK
  8
0
  2
*D4
 70
     1
 10
0.0
 20
0.0
 30
0.0
  3
*D4
  1

  0
LINE
  5
8393
  8
3
 62
     0
 10
7815.263027405982
 20
6835.5243999019031
 30
0.0
 11
7815.263027405982
 21
7023.1039439908654
 31
0.0
  0
LINE
  5
8394
  8
3
 62
     0
 10
6845.2630274059811
 20
5310.5839663334191
 30
0.0
 11
6845.2630274059811
 21
7023.1039439908654
 31
0.0
  0
LINE
  5
8395
  8
3
 62
     0
 10
7715.2630274059811
 20
6973.1039439908654
 30
0.0
 11
6945.263027405982
 21
6973.1039439908654
 31
0.0
  0
INSERT
  5
8396
  8
3
 62
     0
  2
_OPEN
 10
7815.263027405982
 20
6973.1039439908654
 30
0.0
 41
100.0
 42
100.0
 43
100.0
  0
INSERT
  5
8397
  8
3
 62
     0
  2
_OPEN
 10
6845.2630274059811
 20
6973.1039439908654
 30
0.0
 41
100.0
 42
100.0
 43
100.0
 50
180.0
  0
TEXT
  8
3
  40
150
  5
842D
  62
0
  72
0
  71
0
 10
7030.26
 20
6957.60
 30
0.000000
  1
MAX
  0
TEXT
  8
3
  40
150
  5
842E
  62
0
  72
0
  71
0
 10
7030.26
 20
6762.60
 30
0.000000
  1
1030
  0
POINT
  5
8399
  8
DEFPOINTS
 62
     0
 10
7815.263027405982
 20
6810.524399901904
 30
0.0
  0
POINT
  5
839A
  8
DEFPOINTS
 62
     0
 10
6845.2630274059811
 20
5285.5839663334191
 30
0.0
  0
POINT
  5
839B
  8
DEFPOINTS
 62
     0
 10
6845.2630274059811
 20
6973.1039439908654
 30
0.0
  0
ENDBLK
  5
8306
  8
0
  0
BLOCK
  8
0
  2
*D5
 70
     1
 10
0.0
 20
0.0
 30
0.0
  3
*D5
  1

  0
LINE
  5
839C
  8
3
 62
     0
 10
8474.2630274059793
 20
5605.5839663334191
 30
0.0
 11
8887.815248714378
 21
5605.5839663334191
 31
0.0
  0
LINE
  5
839D
  8
3
 62
     0
 10
8474.2630274059793
 20
4205.5839663334191
 30
0.0
 11
8887.815248714378
 21
4205.5839663334191
 31
0.0
  0
LINE
  5
839E
  8
3
 62
     0
 10
8837.8152487143761
 20
5505.5839663334191
 30
0.0
 11
8837.8152487143761
 21
4305.5839663334182
 31
0.0
  0
INSERT
  5
839F
  8
3
 62
     0
  2
_OPEN
 10
8837.8152487143761
 20
5605.5839663334191
 30
0.0
 41
100.0
 42
100.0
 43
100.0
 50
90.0
  0
INSERT
  5
83A0
  8
3
 62
     0
  2
_OPEN
 10
8837.8152487143761
 20
4205.5839663334191
 30
0.0
 41
100.0
 42
100.0
 43
100.0
 50
270.0
  0
TEXT
  8
3
  40
150
  5
842F
  62
0
  72
0
  71
0
 10
8412.82
 20
4640.08
 30
0.000000
  1
φ1400
  0
POINT
  5
83A2
  8
DEFPOINTS
 62
     0
 10
8449.2630274059811
 20
5605.5839663334191
 30
0.0
  0
POINT
  5
83A3
  8
DEFPOINTS
 62
     0
 10
8449.2630274059811
 20
4205.5839663334191
 30
0.0
  0
POINT
  5
83A4
  8
DEFPOINTS
 62
     0
 10
8837.8152487143761
 20
4205.5839663334191
 30
0.0
  0
ENDBLK
  5
82F0
  8
0
  0
BLOCK
  8
0
  2
*D6
 70
     1
 10
0.0
 20
0.0
 30
0.0
  3
*D6
  1

  0
LINE
  5
83A5
  8
3
 62
     0
 10
7024.2630274059802
 20
3852.4687407192691
 30
0.0
 11
7024.2630274059802
 21
3467.682289304028
 31
0.0
  0
LINE
  5
83A6
  8
3
 62
     0
 10
7815.263027405982
 20
3662.1844703566362
 30
0.0
 11
7815.263027405982
 21
3467.682289304028
 31
0.0
  0
LINE
  5
83A7
  8
3
 62
     0
 10
7124.2630274059802
 20
3517.682289304028
 30
0.0
 11
7715.2630274059811
 21
3517.682289304028
 31
0.0
  0
INSERT
  5
83A8
  8
3
 62
     0
  2
_OPEN
 10
7024.2630274059802
 20
3517.682289304028
 30
0.0
 41
100.0
 42
100.0
 43
100.0
 50
180.0
  0
INSERT
  5
83A9
  8
3
 62
     0
  2
_OPEN
 10
7815.263027405982
 20
3517.682289304028
 30
0.0
 41
100.0
 42
100.0
 43
100.0
  0
TEXT
  8
3
  40
150
  5
8430
  62
0
  72
0
  71
0
 10
7119.76
 20
3377.18
 30
0.000000
  1
791
  0
POINT
  5
83AB
  8
DEFPOINTS
 62
     0
 10
7024.2630274059802
 20
3877.4687407192691
 30
0.0
  0
POINT
  5
83AC
  8
DEFPOINTS
 62
     0
 10
7815.263027405982
 20
3687.1844703566362
 30
0.0
  0
POINT
  5
83AD
  8
DEFPOINTS
 62
     0
 10
7815.263027405982
 20
3517.682289304028
 30
0.0
  0
ENDBLK
  5
8347
  8
0
  0
BLOCK
  8
0
  2
*D7
 70
     1
 10
0.0
 20
0.0
 30
0.0
  3
*D7
  1

  0
LINE
  5
8349
  8
0
  6
BYBLOCK
 62
     0
 10
7815.263027405982
 20
3662.1844703566362
 30
0.0
 11
7815.263027405982
 21
3467.682289304028
 31
0.0
  0
LINE
  5
834A
  8
0
  6
BYBLOCK
 62
     0
 10
8424.2630274059811
 20
3852.4687407192691
 30
0.0
 11
8424.2630274059811
 21
3467.682289304028
 31
0.0
  0
LINE
  5
834B
  8
0
  6
BYBLOCK
 62
     0
 10
7915.2630274059811
 20
3517.682289304028
 30
0.0
 11
8324.2630274059811
 21
3517.682289304028
 31
0.0
  0
TEXT
  5
834C
  8
3
 62
     0
 10
7957.6836986251019
 20
3578.220251287064
 30
0.0
 40
150.0
  1
609
  0
INSERT
  5
834D
  8
0
  6
BYBLOCK
 62
     0
  2
_OPEN
 10
7815.263027405982
 20
3517.682289304028
 30
0.0
 41
100.0
 42
100.0
 43
100.0
 50
180.0
  0
INSERT
  5
834E
  8
0
  6
BYBLOCK
 62
     0
  2
_OPEN
 10
8424.2630274059811
 20
3517.682289304028
 30
0.0
 41
100.0
 42
100.0
 43
100.0
  0
POINT
  5
834F
  8
DEFPOINTS
  6
BYBLOCK
 62
     0
 10
7815.263027405982
 20
3687.1844703566362
 30
0.0
  0
POINT
  5
8350
  8
DEFPOINTS
  6
BYBLOCK
 62
     0
 10
8424.2630274059811
 20
3877.4687407192691
 30
0.0
  0
POINT
  5
8351
  8
DEFPOINTS
  6
BYBLOCK
 62
     0
 10
8424.2630274059811
 20
3517.682289304028
 30
0.0
  0
ENDBLK
  5
8352
  8
0
  0
BLOCK
  8
0
  2
*D8
 70
     1
 10
0.0
 20
0.0
 30
0.0
  3
*D8
  1

  0
LINE
  5
83AE
  8
3
 62
     0
 10
4993.0965615168188
 20
10672.982747212131
 30
0.0
 11
4993.0965615168188
 21
11062.49897768801
 31
0.0
  0
LINE
  5
83AF
  8
3
 62
     0
 10
3293.0965615168188
 20
10672.982747212131
 30
0.0
 11
3293.0965615168188
 21
11062.49897768801
 31
0.0
  0
LINE
  5
83B0
  8
3
 62
     0
 10
4893.0965615168188
 20
11012.49897768801
 30
0.0
 11
3393.0965615168188
 21
11012.49897768801
 31
0.0
  0
INSERT
  5
83B1
  8
3
 62
     0
  2
_OPEN
 10
4993.0965615168188
 20
11012.49897768801
 30
0.0
 41
100.0
 42
100.0
 43
100.0
  0
INSERT
  5
83B2
  8
3
 62
     0
  2
_OPEN
 10
3293.0965615168188
 20
11012.49897768801
 30
0.0
 41
100.0
 42
100.0
 43
100.0
 50
180.0
  0
TEXT
  8
3
  40
150
  5
8431
  62
0
  72
0
  71
0
 10
3843.10
 20
10872.0
 30
0.000000
  1
1700
  0
POINT
  5
83B4
  8
DEFPOINTS
 62
     0
 10
4993.0965615168188
 20
10647.982747212131
 30
0.0
  0
POINT
  5
83B5
  8
DEFPOINTS
 62
     0
 10
3293.0965615168188
 20
10647.982747212131
 30
0.0
  0
POINT
  5
83B6
  8
DEFPOINTS
 62
     0
 10
3293.0965615168188
 20
11012.49897768801
 30
0.0
  0
ENDBLK
  5
8254
  8
0
  0
BLOCK
  8
0
  2
*D9
 70
     1
 10
0.0
 20
0.0
 30
0.0
  3
*D9
  1

  0
LINE
  5
83B7
  8
3
 62
     0
 10
3293.0965615168188
 20
10672.982747212131
 30
0.0
 11
3293.0965615168188
 21
11062.49897768801
 31
0.0
  0
LINE
  5
83B8
  8
3
 62
     0
 10
2243.0965615168179
 20
10372.982747212131
 30
0.0
 11
2243.0965615168179
 21
11062.49897768801
 31
0.0
  0
LINE
  5
83B9
  8
3
 62
     0
 10
3193.0965615168188
 20
11012.49897768801
 30
0.0
 11
2343.0965615168179
 21
11012.49897768801
 31
0.0
  0
INSERT
  5
83BA
  8
3
 62
     0
  2
_OPEN
 10
3293.0965615168188
 20
11012.49897768801
 30
0.0
 41
100.0
 42
100.0
 43
100.0
  0
INSERT
  5
83BB
  8
3
 62
     0
  2
_OPEN
 10
2243.0965615168179
 20
11012.49897768801
 30
0.0
 41
100.0
 42
100.0
 43
100.0
 50
180.0
  0
TEXT
  8
3
  40
150
  5
8432
  62
0
  72
0
  71
0
 10
2468.10
 20
10872.0
 30
0.000000
  1
1050
  0
POINT
  5
83BD
  8
DEFPOINTS
 62
     0
 10
3293.0965615168188
 20
10647.982747212131
 30
0.0
  0
POINT
  5
83BE
  8
DEFPOINTS
 62
     0
 10
2243.0965615168179
 20
10347.982747212131
 30
0.0
  0
POINT
  5
83BF
  8
DEFPOINTS
 62
     0
 10
2243.0965615168179
 20
11012.49897768801
 30
0.0
  0
ENDBLK
  5
8249
  8
0
  0
BLOCK
  8
0
  2
*D10
 70
     1
 10
0.0
 20
0.0
 30
0.0
  3
*D10
  1

  0
LINE
  5
83C0
  8
3
 62
     0
 10
2218.0965615168179
 20
10347.982747212131
 30
0.0
 11
1939.9094265386971
 21
10347.982747212131
 31
0.0
  0
LINE
  5
83C1
  8
3
 62
     0
 10
2218.0965615168179
 20
9247.9827472121342
 30
0.0
 11
1939.9094265386971
 21
9247.9827472121342
 31
0.0
  0
LINE
  5
83C2
  8
3
 62
     0
 10
1989.9094265386971
 20
10247.982747212131
 30
0.0
 11
1989.9094265386971
 21
9347.9827472121324
 31
0.0
  0
INSERT
  5
83C3
  8
3
 62
     0
  2
_OPEN
 10
1989.9094265386971
 20
10347.982747212131
 30
0.0
 41
100.0
 42
100.0
 43
100.0
 50
90.0
  0
INSERT
  5
83C4
  8
3
 62
     0
  2
_OPEN
 10
1989.9094265386971
 20
9247.9827472121342
 30
0.0
 41
100.0
 42
100.0
 43
100.0
 50
270.0
  0
TEXT
  8
3
  40
150
  5
8433
  62
0
  72
0
  71
0
 10
1564.91
 20
9532.48
 30
0.000000
  1
1100
  0
POINT
  5
83C6
  8
DEFPOINTS
 62
     0
 10
2243.0965615168179
 20
10347.982747212131
 30
0.0
  0
POINT
  5
83C7
  8
DEFPOINTS
 62
     0
 10
2243.0965615168179
 20
9247.9827472121342
 30
0.0
  0
POINT
  5
83C8
  8
DEFPOINTS
 62
     0
 10
1989.9094265386971
 20
9247.9827472121342
 30
0.0
  0
ENDBLK
  5
823E
  8
0
  0
BLOCK
  8
0
  2
*D11
 70
     1
 10
0.0
 20
0.0
 30
0.0
  3
*D11
  1

  0
LINE
  5
83C9
  8
3
 62
     0
 10
4993.0965615168188
 20
9222.9827472121324
 30
0.0
 11
4993.0965615168188
 21
8613.6978995137088
 31
0.0
  0
LINE
  5
83CA
  8
3
 62
     0
 10
2243.0965615168179
 20
9222.9827472121324
 30
0.0
 11
2243.0965615168179
 21
8613.6978995137088
 31
0.0
  0
LINE
  5
83CB
  8
3
 62
     0
 10
4893.0965615168188
 20
8663.6978995137069
 30
0.0
 11
2343.0965615168179
 21
8663.6978995137069
 31
0.0
  0
INSERT
  5
83CC
  8
3
 62
     0
  2
_OPEN
 10
4993.0965615168188
 20
8663.6978995137069
 30
0.0
 41
100.0
 42
100.0
 43
100.0
  0
INSERT
  5
83CD
  8
3
 62
     0
  2
_OPEN
 10
2243.0965615168179
 20
8663.6978995137069
 30
0.0
 41
100.0
 42
100.0
 43
100.0
 50
180.0
  0
TEXT
  8
3
  40
150
  5
8434
  62
0
  72
0
  71
0
 10
3318.10
 20
8523.20
 30
0.000000
  1
2750
  0
POINT
  5
83CF
  8
DEFPOINTS
 62
     0
 10
4993.0965615168188
 20
9247.9827472121342
 30
0.0
  0
POINT
  5
83D0
  8
DEFPOINTS
 62
     0
 10
2243.0965615168179
 20
9247.9827472121342
 30
0.0
  0
POINT
  5
83D1
  8
DEFPOINTS
 62
     0
 10
2243.0965615168179
 20
8663.6978995137069
 30
0.0
  0
ENDBLK
  5
8233
  8
0
  0
BLOCK
  8
0
  2
*D12
 70
     1
 10
0.0
 20
0.0
 30
0.0
  3
*D12
  1

  0
LINE
  5
83D2
  8
3
 62
     0
 10
5098.0965615168179
 20
6396.58396633342
 30
0.0
 11
5498.5915638660108
 21
6396.58396633342
 31
0.0
  0
LINE
  5
83D3
  8
3
 62
     0
 10
5098.0965615168179
 20
4946.5839663334191
 30
0.0
 11
5498.591563866009
 21
4946.5839663334191
 31
0.0
  0
LINE
  5
83D4
  8
3
 62
     0
 10
5448.5915638660099
 20
6296.5839663334191
 30
0.0
 11
5448.591563866009
 21
5046.5839663334191
 31
0.0
  0
INSERT
  5
83D5
  8
3
 62
     0
  2
_OPEN
 10
5448.5915638660099
 20
6396.58396633342
 30
0.0
 41
100.0
 42
100.0
 43
100.0
 50
90.0
  0
INSERT
  5
83D6
  8
3
 62
     0
  2
_OPEN
 10
5448.591563866009
 20
4946.5839663334191
 30
0.0
 41
100.0
 42
100.0
 43
100.0
 50
270.0
  0
TEXT
  8
3
  40
150
  5
8435
  62
0
  72
0
  71
0
 10
5023.59
 20
5406.08
 30
0.000000
  1
1450
  0
POINT
  5
83D8
  8
DEFPOINTS
 62
     0
 10
5073.0965615168188
 20
6396.58396633342
 30
0.0
  0
POINT
  5
83D9
  8
DEFPOINTS
 62
     0
 10
5073.0965615168188
 20
4946.5839663334191
 30
0.0
  0
POINT
  5
83DA
  8
DEFPOINTS
 62
     0
 10
5448.591563866009
 20
4946.5839663334191
 30
0.0
  0
ENDBLK
  5
8228
  8
0
  0
BLOCK
  8
0
  2
*D13
 70
     1
 10
0.0
 20
0.0
 30
0.0
  3
*D13
  1

  0
LINE
  5
83DB
  8
3
 62
     0
 10
4993.0965615168188
 20
3838.0726997726488
 30
0.0
 11
4993.0965615168188
 21
3457.5535429501319
 31
0.0
  0
LINE
  5
83DC
  8
3
 62
     0
 10
4143.0965615168188
 20
3685.4884458459069
 30
0.0
 11
4143.0965615168188
 21
3457.5535429501319
 31
0.0
  0
LINE
  5
83DD
  8
3
 62
     0
 10
4893.0965615168188
 20
3507.5535429501319
 30
0.0
 11
4243.0965615168188
 21
3507.5535429501319
 31
0.0
  0
INSERT
  5
83DE
  8
3
 62
     0
  2
_OPEN
 10
4993.0965615168188
 20
3507.5535429501319
 30
0.0
 41
100.0
 42
100.0
 43
100.0
  0
INSERT
  5
83DF
  8
3
 62
     0
  2
_OPEN
 10
4143.0965615168188
 20
3507.5535429501319
 30
0.0
 41
100.0
 42
100.0
 43
100.0
 50
180.0
  0
TEXT
  8
3
  40
150
  5
8436
  62
0
  72
0
  71
0
 10
4268.10
 20
3367.05
 30
0.000000
  1
850
  0
POINT
  5
83E1
  8
DEFPOINTS
 62
     0
 10
4993.0965615168188
 20
3863.0726997726488
 30
0.0
  0
POINT
  5
83E2
  8
DEFPOINTS
 62
     0
 10
4143.0965615168188
 20
3710.4884458459069
 30
0.0
  0
POINT
  5
83E3
  8
DEFPOINTS
 62
     0
 10
4143.0965615168188
 20
3507.5535429501319
 30
0.0
  0
ENDBLK
  5
8368
  8
0
  0
BLOCK
  8
0
  2
*D14
 70
     1
 10
0.0
 20
0.0
 30
0.0
  3
*D14
  1

  0
LINE
  5
83E4
  8
3
 62
     0
 10
4143.0965615168188
 20
3685.4884458459069
 30
0.0
 11
4143.0965615168188
 21
3457.5535429501319
 31
0.0
  0
LINE
  5
83E5
  8
3
 62
     0
 10
2243.0965615168179
 20
3838.0726997726488
 30
0.0
 11
2243.0965615168179
 21
3457.5535429501319
 31
0.0
  0
LINE
  5
83E6
  8
3
 62
     0
 10
4043.0965615168188
 20
3507.5535429501319
 30
0.0
 11
2343.0965615168179
 21
3507.5535429501319
 31
0.0
  0
INSERT
  5
83E7
  8
3
 62
     0
  2
_OPEN
 10
4143.0965615168188
 20
3507.5535429501319
 30
0.0
 41
100.0
 42
100.0
 43
100.0
  0
INSERT
  5
83E8
  8
3
 62
     0
  2
_OPEN
 10
2243.0965615168179
 20
3507.5535429501319
 30
0.0
 41
100.0
 42
100.0
 43
100.0
 50
180.0
  0
TEXT
  8
3
  40
150
  5
8437
  62
0
  72
0
  71
0
 10
2893.10
 20
3367.05
 30
0.000000
  1
1900
  0
POINT
  5
83EA
  8
DEFPOINTS
 62
     0
 10
4143.0965615168188
 20
3710.4884458459069
 30
0.0
  0
POINT
  5
83EB
  8
DEFPOINTS
 62
     0
 10
2243.0965615168179
 20
3863.0726997726488
 30
0.0
  0
POINT
  5
83EC
  8
DEFPOINTS
 62
     0
 10
2243.0965615168179
 20
3507.5535429501319
 30
0.0
  0
ENDBLK
  5
835D
  8
0
  0
BLOCK
  8
0
  2
*D15
 70
     1
 10
0.0
 20
0.0
 30
0.0
  3
*D15
  1

  0
LINE
  5
83ED
  8
3
 62
     0
 10
5098.0965615168179
 20
6396.58396633342
 30
0.0
 11
5802.7748548867676
 21
6396.58396633342
 31
0.0
  0
LINE
  5
83EE
  8
3
 62
     0
 10
5226.3345120608619
 20
4905.5839663334191
 30
0.0
 11
5802.7748548867667
 21
4905.5839663334191
 31
0.0
  0
LINE
  5
83EF
  8
3
 62
     0
 10
5752.7748548867676
 20
6296.5839663334191
 30
0.0
 11
5752.7748548867676
 21
5005.5839663334191
 31
0.0
  0
INSERT
  5
83F0
  8
3
 62
     0
  2
_OPEN
 10
5752.7748548867676
 20
6396.58396633342
 30
0.0
 41
100.0
 42
100.0
 43
100.0
 50
90.0
  0
INSERT
  5
83F1
  8
3
 62
     0
  2
_OPEN
 10
5752.7748548867676
 20
4905.5839663334191
 30
0.0
 41
100.0
 42
100.0
 43
100.0
 50
270.0
  0
TEXT
  8
3
  40
150
  5
8438
  62
0
  72
0
  71
0
 10
5327.77
 20
5385.58
 30
0.000000
  1
1491
  0
POINT
  5
83F3
  8
DEFPOINTS
 62
     0
 10
5073.0965615168188
 20
6396.58396633342
 30
0.0
  0
POINT
  5
83F4
  8
DEFPOINTS
 62
     0
 10
5201.3345120608628
 20
4905.5839663334191
 30
0.0
  0
POINT
  5
83F5
  8
DEFPOINTS
 62
     0
 10
5752.7748548867676
 20
4905.5839663334191
 30
0.0
  0
ENDBLK
  5
81FC
  8
0
  0
BLOCK
  8
0
  2
*D16
 70
     1
 10
0.0
 20
0.0
 30
0.0
  3
*D16
  1

  0
LINE
  5
83F6
  8
3
 62
     0
 10
5226.3345120608619
 20
4905.5839663334191
 30
0.0
 11
5802.7748548867667
 21
4905.5839663334191
 31
0.0
  0
LINE
  5
83F7
  8
3
 62
     0
 10
5018.0965615168188
 20
3865.5839663334191
 30
0.0
 11
5802.7748548867667
 21
3865.5839663334182
 31
0.0
  0
LINE
  5
83F8
  8
3
 62
     0
 10
5752.7748548867676
 20
4805.5839663334182
 30
0.0
 11
5752.7748548867676
 21
3965.5839663334182
 31
0.0
  0
INSERT
  5
83F9
  8
3
 62
     0
  2
_OPEN
 10
5752.7748548867676
 20
4905.5839663334191
 30
0.0
 41
100.0
 42
100.0
 43
100.0
 50
90.0
  0
INSERT
  5
83FA
  8
3
 62
     0
  2
_OPEN
 10
5752.7748548867676
 20
3865.5839663334182
 30
0.0
 41
100.0
 42
100.0
 43
100.0
 50
270.0
  0
TEXT
  8
3
  40
150
  5
8439
  62
0
  72
0
  71
0
 10
5327.77
 20
4120.08
 30
0.000000
  1
1040
  0
POINT
  5
83FC
  8
DEFPOINTS
 62
     0
 10
5201.3345120608628
 20
4905.5839663334191
 30
0.0
  0
POINT
  5
83FD
  8
DEFPOINTS
 62
     0
 10
4993.0965615168188
 20
3865.5839663334191
 30
0.0
  0
POINT
  5
83FE
  8
DEFPOINTS
 62
     0
 10
5752.7748548867676
 20
3865.5839663334182
 30
0.0
  0
ENDBLK
  5
81F1
  8
0
  0
BLOCK
  8
0
  2
*D17
 70
     1
 10
0.0
 20
0.0
 30
0.0
  3
*D17
  1

  0
LINE
  5
83FF
  8
3
 62
     0
 10
5098.0965615168179
 20
6396.58396633342
 30
0.0
 11
6150.8802929647509
 21
6396.5839663334191
 31
0.0
  0
LINE
  5
8400
  8
3
 62
     0
 10
5018.0965615168188
 20
3865.5839663334191
 30
0.0
 11
6150.88029296475
 21
3865.5839663334182
 31
0.0
  0
LINE
  5
8401
  8
3
 62
     0
 10
6100.8802929647509
 20
6296.5839663334191
 30
0.0
 11
6100.88029296475
 21
3965.5839663334182
 31
0.0
  0
INSERT
  5
8402
  8
3
 62
     0
  2
_OPEN
 10
6100.8802929647509
 20
6396.58396633342
 30
0.0
 41
100.0
 42
100.0
 43
100.0
 50
90.0
  0
INSERT
  5
8403
  8
3
 62
     0
  2
_OPEN
 10
6100.88029296475
 20
3865.5839663334182
 30
0.0
 41
100.0
 42
100.0
 43
100.0
 50
270.0
  0
TEXT
  8
3
  40
150
  5
843A
  62
0
  72
0
  71
0
 10
5675.88
 20
4865.58
 30
0.000000
  1
2531
  0
POINT
  5
8405
  8
DEFPOINTS
 62
     0
 10
5073.0965615168188
 20
6396.58396633342
 30
0.0
  0
POINT
  5
8406
  8
DEFPOINTS
 62
     0
 10
4993.0965615168188
 20
3865.5839663334191
 30
0.0
  0
POINT
  5
8407
  8
DEFPOINTS
 62
     0
 10
6100.88029296475
 20
3865.5839663334182
 30
0.0
  0
ENDBLK
  5
833C
  8
0
  0
BLOCK
  8
0
  2
*D18
 70
     1
 10
0.0
 20
0.0
 30
0.0
  3
*D18
  1

  0
LINE
  5
8408
  8
3
 62
     0
 10
5073.0965615168188
 20
6475.5839663334182
 30
0.0
 11
5073.0965615168188
 21
6705.8986298627933
 31
0.0
  0
LINE
  5
8409
  8
3
 62
     0
 10
4143.0965615168188
 20
6433.4935734855153
 30
0.0
 11
4143.0965615168188
 21
6705.8986298627933
 31
0.0
  0
LINE
  5
840A
  8
3
 62
     0
 10
4973.0965615168179
 20
6655.8986298627933
 30
0.0
 11
4243.0965615168188
 21
6655.8986298627933
 31
0.0
  0
INSERT
  5
840B
  8
3
 62
     0
  2
_OPEN
 10
5073.0965615168188
 20
6655.8986298627933
 30
0.0
 41
100.0
 42
100.0
 43
100.0
  0
INSERT
  5
840C
  8
3
 62
     0
  2
_OPEN
 10
4143.0965615168188
 20
6655.8986298627933
 30
0.0
 41
100.0
 42
100.0
 43
100.0
 50
180.0
  0
TEXT
  8
3
  40
150
  5
843B
  62
0
  72
0
  71
0
 10
4308.10
 20
6515.40
 30
0.000000
  1
930
  0
POINT
  5
840E
  8
DEFPOINTS
 62
     0
 10
5073.0965615168188
 20
6450.5839663334182
 30
0.0
  0
POINT
  5
840F
  8
DEFPOINTS
 62
     0
 10
4143.0965615168188
 20
6408.4935734855153
 30
0.0
  0
POINT
  5
8410
  8
DEFPOINTS
 62
     0
 10
4143.0965615168188
 20
6655.8986298627933
 30
0.0
  0
ENDBLK
  5
81C1
  8
0
  0
BLOCK
  8
0
  2
*D19
 70
     1
 10
0.0
 20
0.0
 30
0.0
  3
*D19
  1

  0
LINE
  5
8411
  8
3
 62
     0
 10
4143.0965615168188
 20
6433.4935734855153
 30
0.0
 11
4143.0965615168188
 21
6705.8986298627933
 31
0.0
  0
LINE
  5
8412
  8
3
 62
     0
 10
2936.0965615168188
 20
5032.5839663334191
 30
0.0
 11
2936.0965615168188
 21
6705.8986298627933
 31
0.0
  0
LINE
  5
8413
  8
3
 62
     0
 10
4043.0965615168188
 20
6655.8986298627933
 30
0.0
 11
3036.0965615168188
 21
6655.8986298627933
 31
0.0
  0
INSERT
  5
8414
  8
3
 62
     0
  2
_OPEN
 10
4143.0965615168188
 20
6655.8986298627933
 30
0.0
 41
100.0
 42
100.0
 43
100.0
  0
INSERT
  5
8415
  8
3
 62
     0
  2
_OPEN
 10
2936.0965615168188
 20
6655.8986298627933
 30
0.0
 41
100.0
 42
100.0
 43
100.0
 50
180.0
  0
TEXT
  8
3
  40
150
  5
843C
  62
0
  72
0
  71
0
 10
3239.60
 20
6515.40
 30
0.000000
  1
1207
  0
POINT
  5
8417
  8
DEFPOINTS
 62
     0
 10
4143.0965615168188
 20
6408.4935734855153
 30
0.0
  0
POINT
  5
8418
  8
DEFPOINTS
 62
     0
 10
2936.0965615168188
 20
5007.5839663334191
 30
0.0
  0
POINT
  5
8419
  8
DEFPOINTS
 62
     0
 10
2936.0965615168188
 20
6655.8986298627933
 30
0.0
  0
ENDBLK
  5
81B6
  8
0
  0
BLOCK
  8
0
  2
*D20
 70
     1
 10
0.0
 20
0.0
 30
0.0
  3
*D20
  1

  0
LINE
  5
841A
  8
3
 62
     0
 10
5018.0965615168188
 20
10647.982747212131
 30
0.0
 11
5463.2769522916806
 21
10647.982747212131
 31
0.0
  0
LINE
  5
841B
  8
3
 62
     0
 10
5018.0965615168188
 20
9247.9827472121342
 30
0.0
 11
5463.2769522916788
 21
9247.9827472121342
 31
0.0
  0
LINE
  5
841C
  8
3
 62
     0
 10
5413.2769522916806
 20
10547.982747212131
 30
0.0
 11
5413.2769522916788
 21
9347.9827472121324
 31
0.0
  0
INSERT
  5
841D
  8
3
 62
     0
  2
_OPEN
 10
5413.2769522916806
 20
10647.982747212131
 30
0.0
 41
100.0
 42
100.0
 43
100.0
 50
90.0
  0
INSERT
  5
841E
  8
3
 62
     0
  2
_OPEN
 10
5413.2769522916788
 20
9247.9827472121342
 30
0.0
 41
100.0
 42
100.0
 43
100.0
 50
270.0
  0
TEXT
  8
3
  40
150
  5
843D
  62
0
  72
0
  71
0
 10
4988.28
 20
9719.42
 30
0.000000
  1
1400
  0
POINT
  5
8420
  8
DEFPOINTS
 62
     0
 10
4993.0965615168188
 20
10647.982747212131
 30
0.0
  0
POINT
  5
8421
  8
DEFPOINTS
 62
     0
 10
4993.0965615168188
 20
9247.9827472121342
 30
0.0
  0
POINT
  5
8422
  8
DEFPOINTS
 62
     0
 10
5413.2769522916788
 20
9247.9827472121342
 30
0.0
  0
ENDBLK
  5
81AB
  8
0
  0
BLOCK
  8
0
  2
*D21
 70
     1
 10
0.0
 20
0.0
 30
0.0
  3
*D21
  1

  0
LINE
  5
8423
  8
3
 62
     0
 10
5073.0965615168188
 20
6475.5839663334182
 30
0.0
 11
5073.0965615168188
 21
6986.5353276944079
 31
0.0
  0
LINE
  5
8424
  8
3
 62
     0
 10
2243.0965615168179
 20
4040.5839663334191
 30
0.0
 11
2243.0965615168179
 21
6986.5353276944079
 31
0.0
  0
LINE
  5
8425
  8
3
 62
     0
 10
4973.0965615168179
 20
6936.535327694407
 30
0.0
 11
2343.0965615168179
 21
6936.535327694407
 31
0.0
  0
INSERT
  5
8426
  8
3
 62
     0
  2
_OPEN
 10
5073.0965615168188
 20
6936.535327694407
 30
0.0
 41
100.0
 42
100.0
 43
100.0
  0
INSERT
  5
8427
  8
3
 62
     0
  2
_OPEN
 10
2243.0965615168179
 20
6936.535327694407
 30
0.0
 41
100.0
 42
100.0
 43
100.0
 50
180.0
  0
TEXT
  8
3
  40
150
  5
843E
  62
0
  72
0
  71
0
 10
3484.51
 20
6796.04
 30
0.000000
  1
2830
  0
POINT
  5
8429
  8
DEFPOINTS
 62
     0
 10
5073.0965615168188
 20
6450.5839663334182
 30
0.0
  0
POINT
  5
842A
  8
DEFPOINTS
 62
     0
 10
2243.0965615168179
 20
4015.5839663334182
 30
0.0
  0
POINT
  5
842B
  8
DEFPOINTS
 62
     0
 10
2243.0965615168179
 20
6936.535327694407
 30
0.0
  0
ENDBLK
  5
8312
  8
0
  0
ENDSEC
  0
SECTION
  2
ENTITIES
  0
INSERT
  5
7BC6
  8
0
  2
YA_N
 10
6.0
 20
5.0
 30
0.0
  0
INSERT
  5
7BC8
  8
0
  2
YA_N
 10
6.0
 20
5.0
 30
0.0
  0
LINE
  5
7BCA
  8
2
 10
4143.0965615168188
 20
10780.7093939639
 30
0.0
 11
4143.0965615168188
 21
9068.9827472121342
 31
0.0
  0
LINE
  5
7BCB
  8
1
  6
CONTINUOUS
 10
5073.0965615168188
 20
4892.5839663334191
 30
0.0
 11
5073.0965615168188
 21
6450.5839663334182
 31
0.0
  0
LINE
  5
7BCC
  8
1
  6
CONTINUOUS
 10
5073.0965615168188
 20
4946.5839663334191
 30
0.0
 11
4964.0003062401956
 21
4946.5839663334191
 31
0.0
  0
ARC
  5
7BCD
  8
1
  6
CONTINUOUS
 10
4245.0965615168188
 20
5007.5839663334191
 30
0.0
 40
1309.0
 50
94.469136655521055
 51
180.0
  0
ARC
  5
7BCE
  8
1
  6
CONTINUOUS
 10
4041.0965615168188
 20
5007.5839663334191
 30
0.0
 40
1105.0
 50
180.0
 51
275.29638091185228
  0
ARC
  5
7BCF
  8
1
  6
CONTINUOUS
 10
4057.5965615168188
 20
4820.0839663334191
 30
0.0
 40
917.5
 50
275.34703780348622
 51
0.0
  0
ARC
  5
7BD0
  8
1
  6
CONTINUOUS
 10
4228.2965615168177
 20
4820.0839663334191
 30
0.0
 40
746.49999999999989
 50
0.0
 51
9.7562766181166154
  0
LINE
  5
7BD1
  8
1
  6
CONTINUOUS
 10
5073.0965615168188
 20
6396.58396633342
 30
0.0
 11
4143.0965615168188
 21
6312.697819631132
 31
0.0
  0
LINE
  5
7BD2
  8
1
  6
CONTINUOUS
 10
4993.0965615168188
 20
3865.5839663334191
 30
0.0
 11
2243.0965615168179
 21
3865.5839663334191
 31
0.0
  0
LINE
  5
7BD3
  8
1
  6
CONTINUOUS
 10
4993.0965615168188
 20
4015.5839663334182
 30
0.0
 11
2243.0965615168179
 21
4015.5839663334182
 31
0.0
  0
LINE
  5
7BD4
  8
1
  6
CONTINUOUS
 10
4993.0965615168188
 20
4015.5839663334182
 30
0.0
 11
4993.0965615168188
 21
3865.5839663334191
 31
0.0
  0
LINE
  5
7BD5
  8
1
  6
CONTINUOUS
 10
2243.0965615168179
 20
4015.5839663334182
 30
0.0
 11
2243.0965615168179
 21
3865.5839663334191
 31
0.0
  0
LINE
  5
7BD6
  8
1
  6
CONTINUOUS
 10
5023.0965615168188
 20
4946.5839663334191
 30
0.0
 11
5023.0965615168188
 21
6392.0739584462008
 31
0.0
  0
LINE
  5
7BD7
  8
2
 10
6748.649255592406
 20
4905.5839663334191
 30
0.0
 11
8605.2878743428428
 21
4905.5839663334191
 31
0.0
  0
LINE
  5
7BD8
  8
2
 10
7815.263027405982
 20
6609.9549743126527
 30
0.0
 11
7815.263027405982
 21
3687.1844703566362
 31
0.0
  0
LINE
  5
7BD9
  8
1
  6
CONTINUOUS
 10
7024.2630274059802
 20
4015.5839663334182
 30
0.0
 11
8424.2630274059811
 21
4015.5839663334182
 31
0.0
  0
LINE
  5
7BDA
  8
1
  6
CONTINUOUS
 10
7024.2630274059802
 20
3865.5839663334191
 30
0.0
 11
8424.2630274059811
 21
3865.5839663334191
 31
0.0
  0
LINE
  5
7BDB
  8
1
  6
CONTINUOUS
 10
7285.2630274059811
 20
6396.58396633342
 30
0.0
 11
8345.2630274059811
 21
6396.58396633342
 31
0.0
  0
LINE
  5
7BDC
  8
2
 10
4143.0965615168188
 20
3602.4765880800578
 30
0.0
 11
4143.0965615168188
 21
6408.4935734855153
 31
0.0
  0
LINE
  5
7BDD
  8
2
 10
2543.0965615168188
 20
4688.5802849559796
 30
0.0
 11
2543.0965615168188
 21
3928.856212191446
 31
0.0
  0
LINE
  5
7BDE
  8
2
 10
2957.2461075712472
 20
4250.5839663334191
 30
0.0
 11
2243.0965615168179
 21
4250.5839663334191
 31
0.0
  0
LINE
  5
7BDF
  8
2
 10
6785.346693060681
 20
4250.5839663334191
 30
0.0
 11
7423.7010606249632
 21
4250.5839663334191
 31
0.0
  0
CIRCLE
  5
7BE0
  8
1
  6
CONTINUOUS
 10
4143.0965615168188
 20
4905.5839663334209
 30
0.0
 40
700.0
  0
CIRCLE
  5
7BE1
  8
1
  6
CONTINUOUS
 10
4143.0965615168188
 20
4905.5839663334209
 30
0.0
 40
750.0
  0
LINE
  5
7BE2
  8
1
  6
CONTINUOUS
 10
8345.2630274059811
 20
4205.5839663334191
 30
0.0
 11
8449.2630274059811
 21
4205.5839663334191
 31
0.0
  0
LINE
  5
7BE3
  8
1
  6
CONTINUOUS
 10
8449.2630274059811
 20
5655.5839663334191
 30
0.0
 11
8449.2630274059811
 21
4155.5839663334191
 31
0.0
  0
LINE
  5
7BE4
  8
1
  6
CONTINUOUS
 10
2381.0965615168188
 20
4140.5864711041622
 30
0.0
 11
2390.7256154065708
 21
4150.138235804603
 31
0.0
  0
LINE
  5
7BE5
  8
1
  6
CONTINUOUS
 10
2705.0965615168179
 20
4140.5864711041622
 30
0.0
 11
2695.467507627066
 21
4150.138235804603
 31
0.0
  0
LINE
  5
7BE6
  8
1
  6
CONTINUOUS
 10
2381.0965615168188
 20
4070.5839663334182
 30
0.0
 11
2381.0965615168188
 21
4140.5864711041622
 31
0.0
  0
LINE
  5
7BE7
  8
1
  6
CONTINUOUS
 10
2292.2708694347202
 20
4070.5839663334182
 30
0.0
 11
2459.7582419385708
 21
4070.5839663334182
 31
0.0
  0
ARC
  5
7BE8
  8
1
  6
CONTINUOUS
 10
2543.0965615168188
 20
4250.5839663334191
 30
0.0
 40
182.5
 50
285.78279193357162
 51
254.2172080664283
  0
LINE
  5
7BE9
  8
1
  6
CONTINUOUS
 10
2592.7349636741842
 20
4074.9642663243808
 30
0.0
 11
2493.4581593594539
 21
4074.9642663243808
 31
0.0
  0
LINE
  5
7BEA
  8
1
  6
CONTINUOUS
 10
2705.0965615168179
 20
4070.5839663334182
 30
0.0
 11
2705.0965615168179
 21
4140.5864711041631
 31
0.0
  0
LINE
  5
7BEB
  8
1
  6
CONTINUOUS
 10
2705.0965615168179
 20
4070.5839663334182
 30
0.0
 11
2645.0965615168188
 21
4070.5839663334182
 31
0.0
  0
CIRCLE
  5
7BEC
  8
1
  6
CONTINUOUS
 10
4143.0965615168161
 20
4905.5839663334191
 30
0.0
 40
250.0
  0
CIRCLE
  5
7BED
  8
1
  6
CONTINUOUS
 10
2543.0965615168188
 20
4250.5839663334191
 30
0.0
 40
106.0
  0
ARC
  5
7BEE
  8
1
  6
CONTINUOUS
 10
4143.0965615168188
 20
4905.5839663334191
 30
0.0
 40
380.0
 50
293.05903587179409
 51
123.1788299696958
  0
ARC
  5
7BEF
  8
1
  6
CONTINUOUS
 10
2543.0965615168188
 20
4250.5839663334191
 30
0.0
 40
220.0
 50
123.1788299696958
 51
293.05903587179409
  0
LINE
  5
7BF0
  8
1
  6
CONTINUOUS
 10
3935.140036648434
 20
5223.6312643327337
 30
0.0
 11
2422.7006786982802
 21
4434.7166125435488
 31
0.0
  0
LINE
  5
7BF1
  8
1
  6
CONTINUOUS
 10
4008.140362211413
 20
5116.0283159107839
 30
0.0
 11
2485.8751330113282
 21
4339.8123705542221
 31
0.0
  0
LINE
  5
7BF2
  8
1
  6
CONTINUOUS
 10
4243.0484688463193
 20
4676.4341982314299
 30
0.0
 11
2585.4761702245269
 21
4153.4244646581774
 31
0.0
  0
LINE
  5
7BF3
  8
1
  6
CONTINUOUS
 10
4291.9347266036748
 20
4555.9452948258522
 30
0.0
 11
2629.2660255144729
 21
4048.1615775658788
 31
0.0
  0
LINE
  5
7BF4
  8
1
  6
CONTINUOUS
 10
2283.096561516817
 20
4015.5839663334182
 30
0.0
 11
2292.2708694347202
 21
4070.5839663334182
 31
0.0
  0
LINE
  5
7BF5
  8
1
  6
CONTINUOUS
 10
2459.7582419385708
 20
4070.5839663334182
 30
0.0
 11
2459.7582419385708
 21
4061.1076217718178
 31
0.0
  0
LINE
  5
7BF6
  8
1
  6
CONTINUOUS
 10
2459.7582419385708
 20
4061.1076217718178
 30
0.0
 11
2543.1093424043438
 21
4061.1076217718178
 31
0.0
  0
LINE
  5
7BF7
  8
1
  6
CONTINUOUS
 10
2803.0965615168202
 20
4015.5839663334182
 30
0.0
 11
2793.9222535989152
 21
4070.5839663334182
 31
0.0
  0
LINE
  5
7BF8
  8
1
  6
CONTINUOUS
 10
2793.922253598917
 20
4070.5839663334182
 30
0.0
 11
2626.434881095066
 21
4070.5839663334182
 31
0.0
  0
LINE
  5
7BF9
  8
1
  6
CONTINUOUS
 10
2626.434881095066
 20
4061.1076217718178
 30
0.0
 11
2543.083780629293
 21
4061.1076217718178
 31
0.0
  0
LINE
  5
7BFA
  8
1
  6
CONTINUOUS
 10
2626.434881095066
 20
4070.5839663334182
 30
0.0
 11
2626.434881095066
 21
4061.1076217718178
 31
0.0
  0
LINE
  5
7BFB
  8
1
  6
CONTINUOUS
 10
7015.5630274059804
 20
4985.5839663334191
 30
0.0
 11
7015.5630274059804
 21
4825.5839663334191
 31
0.0
  0
LINE
  5
7BFC
  8
1
  6
CONTINUOUS
 10
6915.5630274059804
 20
5155.5839663334191
 30
0.0
 11
6993.4630274059809
 21
5155.5839663334191
 31
0.0
  0
LINE
  5
7BFD
  8
1
  6
CONTINUOUS
 10
6915.5630274059804
 20
4655.5839663334191
 30
0.0
 11
6993.4630274059809
 21
4655.5839663334191
 31
0.0
  0
LINE
  5
7BFE
  8
1
  6
CONTINUOUS
 10
6915.5630274059804
 20
5155.5839663334191
 30
0.0
 11
6915.5630274059804
 21
4655.5839663334191
 31
0.0
  0
LINE
  5
7BFF
  8
1
  6
CONTINUOUS
 10
6993.4630274059809
 20
5155.5839663334191
 30
0.0
 11
6993.4630274059809
 21
4655.5839663334191
 31
0.0
  0
LINE
  5
7C00
  8
1
  6
CONTINUOUS
 10
6993.4630274059809
 20
4985.5839663334191
 30
0.0
 11
7015.5630274059804
 21
4985.5839663334191
 31
0.0
  0
LINE
  5
7C01
  8
1
  6
CONTINUOUS
 10
6993.4630274059809
 20
4825.5839663334191
 30
0.0
 11
7015.5630274059804
 21
4825.5839663334191
 31
0.0
  0
LINE
  5
7C02
  8
1
  6
CONTINUOUS
 10
6915.5630274059804
 20
4356.58396633342
 30
0.0
 11
6993.4630274059791
 21
4356.58396633342
 31
0.0
  0
LINE
  5
7C03
  8
1
  6
CONTINUOUS
 10
6915.5630274059804
 20
4144.5839663334191
 30
0.0
 11
6993.4630274059791
 21
4144.5839663334191
 31
0.0
  0
LINE
  5
7C04
  8
1
  6
CONTINUOUS
 10
7008.5630274059813
 20
4310.58396633342
 30
0.0
 11
7008.5630274059813
 21
4190.5839663334191
 31
0.0
  0
LINE
  5
7C05
  8
1
  6
CONTINUOUS
 10
6993.4630274059791
 20
4310.5839663334191
 30
0.0
 11
7008.5630274059813
 21
4310.58396633342
 31
0.0
  0
LINE
  5
7C06
  8
1
  6
CONTINUOUS
 10
6993.4630274059791
 20
4190.5839663334191
 30
0.0
 11
7008.5630274059813
 21
4190.5839663334191
 31
0.0
  0
LINE
  5
7C07
  8
1
  6
CONTINUOUS
 10
6845.2630274059811
 20
4030.5839663334191
 30
0.0
 11
7065.5630274059804
 21
4030.5839663334191
 31
0.0
  0
LINE
  5
7C08
  8
1
  6
CONTINUOUS
 10
6845.2630274059811
 20
5285.5839663334191
 30
0.0
 11
7065.5630274059804
 21
5285.5839663334191
 31
0.0
  0
LINE
  5
7C09
  8
1
  6
CONTINUOUS
 10
6845.2630274059811
 20
5285.5839663334191
 30
0.0
 11
6845.2630274059811
 21
4030.5839663334191
 31
0.0
  0
LINE
  5
7C0A
  8
1
  6
CONTINUOUS
 10
7065.5630274059804
 20
5285.5839663334191
 30
0.0
 11
7065.5630274059804
 21
4030.5839663334191
 31
0.0
  0
LINE
  5
7C0B
  8
1
  6
CONTINUOUS
 10
7015.5630274059804
 20
4948.0839663334191
 30
0.0
 11
7285.2630274059811
 21
4948.0839663334191
 31
0.0
  0
LINE
  5
7C0C
  8
1
  6
CONTINUOUS
 10
7015.5630274059804
 20
4863.0839663334191
 30
0.0
 11
7285.2630274059811
 21
4863.0839663334191
 31
0.0
  0
LINE
  5
7C13
  8
1
  6
CONTINUOUS
 10
7024.2630274059802
 20
4015.5839663334182
 30
0.0
 11
7024.2630274059802
 21
3865.5839663334191
 31
0.0
  0
LINE
  5
7C14
  8
1
  6
CONTINUOUS
 10
8424.2630274059829
 20
4015.5839663334182
 30
0.0
 11
8424.2630274059811
 21
3865.5839663334191
 31
0.0
  0
POINT
  5
7C15
  8
1
  6
CONTINUOUS
 10
2243.0965615168179
 20
3865.5839663334191
 30
0.0
  0
POINT
  5
7C16
  8
1
  6
CONTINUOUS
 10
2243.0965615168179
 20
3845.5839663334191
 30
0.0
  0
POINT
  5
7C17
  8
1
  6
CONTINUOUS
 10
2243.0965615168179
 20
3845.5839663334191
 30
0.0
  0
POINT
  5
7C18
  8
1
  6
CONTINUOUS
 10
2243.0965615168179
 20
3863.0726997726488
 30
0.0
  0
LINE
  5
7C19
  8
1
  6
CONTINUOUS
 10
7285.2630274059811
 20
6396.58396633342
 30
0.0
 11
7285.2630274059811
 21
4015.5839663334182
 31
0.0
  0
LINE
  5
7C1A
  8
1
  6
CONTINUOUS
 10
8345.2630274059811
 20
6396.58396633342
 30
0.0
 11
8345.2630274059811
 21
4015.5839663334182
 31
0.0
  0
POINT
  5
7C1B
  8
1
  6
CONTINUOUS
 10
7815.263027405982
 20
6810.524399901904
 30
0.0
  0
INSERT
  5
7C1C
  8
0
  6
BYBLOCK
 62
     2
  2
YA_N
 10
5372.4018783245183
 20
-226.14356067562309
 30
0.0
 41
90.0
 42
90.0
 43
90.0
 50
210.0117675348119
  0
LINE
  5
7C21
  8
1
  6
CONTINUOUS
 10
6915.5630274059804
 20
4356.58396633342
 30
0.0
 11
6915.5630274059804
 21
4144.5839663334191
 31
0.0
  0
LINE
  5
7C22
  8
1
  6
CONTINUOUS
 10
6993.4630274059809
 20
4356.58396633342
 30
0.0
 11
6993.4630274059791
 21
4144.5839663334191
 31
0.0
  0
LINE
  5
7C23
  8
2
 10
5195.7675387846484
 20
10038.982747212131
 30
0.0
 11
2818.0626291482472
 21
10038.982747212131
 31
0.0
  0
LINE
  5
7C24
  8
1
  6
CONTINUOUS
 10
4993.0965615168188
 20
10647.982747212131
 30
0.0
 11
4843.0965615168188
 21
10647.982747212131
 31
0.0
  0
LINE
  5
7C25
  8
1
  6
CONTINUOUS
 10
4993.0965615168188
 20
9247.9827472121342
 30
0.0
 11
2243.0965615168179
 21
9247.9827472121342
 31
0.0
  0
LINE
  5
7C26
  8
1
  6
CONTINUOUS
 10
2243.0965615168179
 20
10347.982747212131
 30
0.0
 11
2243.0965615168179
 21
9247.9827472121342
 31
0.0
  0
LINE
  5
7C27
  8
1
  6
CONTINUOUS
 10
4993.0965615168188
 20
10647.982747212131
 30
0.0
 11
4993.0965615168188
 21
10568.982747212131
 31
0.0
  0
LINE
  5
7C28
  8
2
 10
5201.3345120608628
 20
4905.5839663334191
 30
0.0
 11
2655.5123075900751
 21
4905.5839663334191
 31
0.0
  0
LINE
  5
7C29
  8
1
  6
CONTINUOUS
 10
3293.0965615168188
 20
10647.982747212131
 30
0.0
 11
3293.0965615168188
 21
10568.982747212131
 31
0.0
  0
LINE
  5
7C2A
  8
1
  6
CONTINUOUS
 10
2936.0965615168188
 20
10347.982747212131
 30
0.0
 11
2243.0965615168179
 21
10347.982747212131
 31
0.0
  0
LINE
  5
7C2B
  8
1
  6
CONTINUOUS
 10
5073.0965615168188
 20
10568.982747212131
 30
0.0
 11
2936.0965615168188
 21
10568.982747212131
 31
0.0
  0
LINE
  5
7C2C
  8
1
  6
CONTINUOUS
 10
5073.0965615168188
 20
9508.9827472121342
 30
0.0
 11
2936.0965615168188
 21
9508.9827472121342
 31
0.0
  0
LINE
  5
7C2D
  8
1
  6
CONTINUOUS
 10
4993.0965615168188
 20
9508.9827472121342
 30
0.0
 11
4993.0965615168188
 21
9247.9827472121342
 31
0.0
  0
LINE
  5
7C2E
  8
1
  6
CONTINUOUS
 10
4893.0965615168188
 20
10668.982747212131
 30
0.0
 11
3393.0965615168188
 21
10668.982747212131
 31
0.0
  0
LINE
  5
7C2F
  8
1
  6
CONTINUOUS
 10
3443.0965615168188
 20
10668.982747212131
 30
0.0
 11
3443.0965615168188
 21
10568.982747212131
 31
0.0
  0
LINE
  5
7C30
  8
1
  6
CONTINUOUS
 10
4843.0965615168188
 20
10668.982747212131
 30
0.0
 11
4843.0965615168188
 21
10568.982747212131
 31
0.0
  0
LINE
  5
7C31
  8
1
  6
CONTINUOUS
 10
3443.0965615168188
 20
10647.982747212131
 30
0.0
 11
3293.0965615168188
 21
10647.982747212131
 31
0.0
  0
DIMENSION
  5
7C32
  8
3
  2
*D2
 10
7285.2630274059811
 20
6648.9302456407167
 30
0.0
 11
7815.263027405982
 21
6773.9302456407167
 31
0.0
 70
     0
 13
8345.2630274059811
 23
6346.58396633342
 33
0.0
 14
7285.2630274059811
 24
6346.5839663334191
 34
0.0
1001
ACAD
1000
DSTYLE
1002
{
1070
   287
1070
     3
1070
    40
1040
50.0
1070
   143
1040
0.039
1070
   172
1070
     1
1070
   271
1070
     0
1070
   279
1070
     0
1070
   288
1070
     1
1002
}
  0
DIMENSION
  5
7C33
  8
3
  2
*D3
 10
7815.263027405982
 20
6973.1039439908654
 30
0.0
 11
8132.2630274059811
 21
7173.1039439908664
 31
0.0
 12
0.0
 22
-960.05915753549198
 32
0.0
 70
     0
 13
8449.2630274059811
 23
5655.5839663334191
 33
0.0
 14
7815.263027405982
 24
6810.524399901904
 34
0.0
1001
ACAD
1000
DSTYLE
1002
{
1070
   288
1070
     1
1070
   172
1070
     1
1070
    40
1040
50.0
1070
   271
1070
     0
1070
   143
1040
0.039
1002
}
  0
DIMENSION
  5
7C34
  8
3
  2
*D4
 10
6845.2630274059811
 20
6973.1039439908654
 30
0.0
 11
7330.2630274059811
 21
7223.1039439908654
 31
0.0
 70
     0
  1
MAX\P1030
 13
7815.263027405982
 23
6810.524399901904
 33
0.0
 14
6845.2630274059811
 24
5285.5839663334191
 34
0.0
1001
ACAD
1000
DSTYLE
1002
{
1070
   287
1070
     3
1070
    40
1040
50.0
1070
   143
1040
0.039
1070
   172
1070
     1
1070
   271
1070
     0
1070
   279
1070
     0
1070
   288
1070
     1
1002
}
  0
LINE
  5
7C35
  8
1
  6
CONTINUOUS
 10
8345.2630274059811
 20
5605.5839663334191
 30
0.0
 11
8449.2630274059811
 21
5605.5839663334191
 31
0.0
  0
DIMENSION
  5
7C36
  8
3
  2
*D5
 10
8837.8152487143761
 20
4205.5839663334191
 30
0.0
 11
8712.8152487143761
 21
4905.58396633342
 31
0.0
 70
     0
 13
8449.2630274059811
 23
5605.5839663334191
 33
0.0
 14
8449.2630274059811
 24
4205.5839663334191
 34
0.0
 50
90.0
1001
ACAD
1000
DSTYLE
1002
{
1070
   287
1070
     3
1070
     3
1000
φ<>
1070
    40
1040
50.0
1070
   143
1040
0.039
1070
   172
1070
     1
1070
   271
1070
     0
1070
   279
1070
     0
1070
   288
1070
     1
1002
}
  0
DIMENSION
  5
7C37
  8
3
  2
*D6
 10
7815.263027405982
 20
3517.682289304028
 30
0.0
 11
7419.763027405982
 21
3642.682289304028
 31
0.0
 70
     0
 13
7024.2630274059802
 23
3877.4687407192691
 33
0.0
 14
7815.263027405982
 24
3687.1844703566362
 34
0.0
1001
ACAD
1000
DSTYLE
1002
{
1070
   287
1070
     3
1070
    40
1040
50.0
1070
   143
1040
0.039
1070
   172
1070
     1
1070
   271
1070
     0
1070
   279
1070
     0
1070
   288
1070
     1
1002
}
  0
DIMENSION
  5
7C38
  8
3
  2
*D7
 10
8424.2630274059811
 20
3517.682289304028
 30
0.0
 11
8146.9694129108184
 21
3653.2202512870649
 31
0.0
 70
   128
 13
7815.263027405982
 23
3687.1844703566362
 33
0.0
 14
8424.2630274059811
 24
3877.4687407192691
 34
0.0
1001
ACAD
1000
DSTYLE
1002
{
1070
   288
1070
     1
1070
   172
1070
     1
1070
    40
1040
50.0
1070
   271
1070
     0
1070
   143
1040
0.039
1002
}
  0
LINE
  5
7C3A
  8
2
 10
2543.0965615168188
 20
9067.3976166133416
 30
0.0
 11
2543.0965615168188
 21
9956.569896810639
 31
0.0
  0
LINE
  5
7C3B
  8
1
  6
CONTINUOUS
 10
4100.5965615168188
 20
9239.2827472121353
 30
0.0
 11
4100.5965615168188
 21
9508.9827472121342
 31
0.0
  0
LINE
  5
7C3C
  8
1
  6
CONTINUOUS
 10
4185.5965615168188
 20
9239.2827472121353
 30
0.0
 11
4185.5965615168188
 21
9508.9827472121342
 31
0.0
  0
LINE
  5
7C3D
  8
1
  6
CONTINUOUS
 10
2585.5965615168188
 20
9232.2827472121371
 30
0.0
 11
2585.5965615168188
 21
9332.1827472121349
 31
0.0
  0
LINE
  5
7C3E
  8
1
  6
CONTINUOUS
 10
2500.5965615168188
 20
9232.2827472121371
 30
0.0
 11
2500.596561516817
 21
9332.1827472121349
 31
0.0
  0
LINE
  5
7C3F
  8
1
  6
CONTINUOUS
 10
4523.0965615168179
 20
9068.9827472121342
 30
0.0
 11
2323.0965615168179
 21
9068.9827472121342
 31
0.0
  0
LINE
  5
7C40
  8
1
  6
CONTINUOUS
 10
4523.0965615168179
 20
9289.2827472121353
 30
0.0
 11
2323.0965615168179
 21
9289.2827472121353
 31
0.0
  0
LINE
  5
7C41
  8
1
  6
CONTINUOUS
 10
2603.0965615168188
 20
9232.2827472121371
 30
0.0
 11
2483.0965615168188
 21
9232.2827472121371
 31
0.0
  0
LINE
  5
7C42
  8
1
  6
CONTINUOUS
 10
2649.0965615168179
 20
9139.2827472121353
 30
0.0
 11
2437.0965615168188
 21
9139.2827472121353
 31
0.0
  0
LINE
  5
7C43
  8
1
  6
CONTINUOUS
 10
2649.0965615168179
 20
9217.1827472121349
 30
0.0
 11
2437.0965615168188
 21
9217.1827472121331
 31
0.0
  0
LINE
  5
7C44
  8
1
  6
CONTINUOUS
 10
2323.0965615168179
 20
9068.9827472121342
 30
0.0
 11
2323.0965615168179
 21
9289.2827472121353
 31
0.0
  0
LINE
  5
7C45
  8
1
  6
CONTINUOUS
 10
2483.0965615168188
 20
9217.1827472121331
 30
0.0
 11
2483.0965615168188
 21
9232.2827472121371
 31
0.0
  0
LINE
  5
7C46
  8
1
  6
CONTINUOUS
 10
2437.0965615168188
 20
9139.2827472121353
 30
0.0
 11
2437.0965615168188
 21
9217.1827472121331
 31
0.0
  0
LINE
  5
7C47
  8
1
  6
CONTINUOUS
 10
2603.0965615168188
 20
9217.1827472121331
 30
0.0
 11
2603.0965615168188
 21
9232.2827472121371
 31
0.0
  0
LINE
  5
7C48
  8
1
  6
CONTINUOUS
 10
2649.0965615168179
 20
9139.2827472121353
 30
0.0
 11
2649.0965615168179
 21
9217.1827472121331
 31
0.0
  0
LINE
  5
7C49
  8
1
  6
CONTINUOUS
 10
4393.0965615168188
 20
9139.2827472121353
 30
0.0
 11
3893.0965615168188
 21
9139.2827472121353
 31
0.0
  0
LINE
  5
7C4A
  8
1
  6
CONTINUOUS
 10
4393.0965615168188
 20
9217.1827472121349
 30
0.0
 11
3893.0965615168188
 21
9217.1827472121349
 31
0.0
  0
LINE
  5
7C4B
  8
1
  6
CONTINUOUS
 10
4223.0965615168179
 20
9217.1827472121349
 30
0.0
 11
4223.0965615168179
 21
9239.2827472121353
 31
0.0
  0
LINE
  5
7C4C
  8
1
  6
CONTINUOUS
 10
4063.0965615168179
 20
9217.1827472121349
 30
0.0
 11
4063.0965615168179
 21
9239.2827472121353
 31
0.0
  0
LINE
  5
7C4D
  8
1
  6
CONTINUOUS
 10
3893.0965615168188
 20
9139.2827472121353
 30
0.0
 11
3893.0965615168188
 21
9217.1827472121349
 31
0.0
  0
LINE
  5
7C4E
  8
1
  6
CONTINUOUS
 10
4223.0965615168179
 20
9239.2827472121353
 30
0.0
 11
4063.0965615168179
 21
9239.2827472121353
 31
0.0
  0
LINE
  5
7C4F
  8
1
  6
CONTINUOUS
 10
4523.0965615168179
 20
9068.9827472121342
 30
0.0
 11
4523.0965615168179
 21
9289.2827472121335
 31
0.0
  0
LINE
  5
7C50
  8
1
  6
CONTINUOUS
 10
4393.0965615168188
 20
9139.2827472121353
 30
0.0
 11
4393.0965615168188
 21
9217.1827472121349
 31
0.0
  0
LINE
  5
7C51
  8
1
  6
CONTINUOUS
 10
2725.5965615168188
 20
9931.6827472121367
 30
0.0
 11
2360.5965615168179
 21
9931.6827472121331
 31
0.0
  0
LINE
  5
7C52
  8
1
  6
CONTINUOUS
 10
2725.5965615168188
 20
9332.1827472121367
 30
0.0
 11
2360.5965615168179
 21
9332.1827472121331
 31
0.0
  0
LINE
  5
7C53
  8
1
  6
CONTINUOUS
 10
2360.5965615168179
 20
9332.1827472121331
 30
0.0
 11
2360.5965615168179
 21
9931.6827472121331
 31
0.0
  0
LINE
  5
7C54
  8
1
  6
CONTINUOUS
 10
2725.5965615168188
 20
9332.1827472121367
 30
0.0
 11
2725.5965615168188
 21
9931.6827472121367
 31
0.0
  0
DIMENSION
  5
7C55
  8
3
  2
*D8
 10
3293.0965615168188
 20
11012.49897768801
 30
0.0
 11
4143.0965615168188
 21
11137.49897768801
 31
0.0
 70
     0
 13
4993.0965615168188
 23
10647.982747212131
 33
0.0
 14
3293.0965615168188
 24
10647.982747212131
 34
0.0
1001
ACAD
1000
DSTYLE
1002
{
1070
   287
1070
     3
1070
    40
1040
50.0
1070
   143
1040
0.039
1070
   172
1070
     1
1070
   271
1070
     0
1070
   279
1070
     0
1070
   288
1070
     1
1002
}
  0
DIMENSION
  5
7C56
  8
3
  2
*D9
 10
2243.0965615168179
 20
11012.49897768801
 30
0.0
 11
2768.0965615168188
 21
11137.49897768801
 31
0.0
 70
     0
 13
3293.0965615168188
 23
10647.982747212131
 33
0.0
 14
2243.0965615168179
 24
10347.982747212131
 34
0.0
1001
ACAD
1000
DSTYLE
1002
{
1070
   287
1070
     3
1070
    40
1040
50.0
1070
   143
1040
0.039
1070
   172
1070
     1
1070
   271
1070
     0
1070
   279
1070
     0
1070
   288
1070
     1
1002
}
  0
DIMENSION
  5
7C57
  8
3
  2
*D10
 10
1989.9094265386971
 20
9247.9827472121342
 30
0.0
 11
1864.9094265386959
 21
9797.9827472121342
 31
0.0
 70
     0
 13
2243.0965615168179
 23
10347.982747212131
 33
0.0
 14
2243.0965615168179
 24
9247.9827472121342
 34
0.0
 50
270.0
1001
ACAD
1000
DSTYLE
1002
{
1070
   287
1070
     3
1070
    40
1040
50.0
1070
   143
1040
0.039
1070
   172
1070
     1
1070
   271
1070
     0
1070
   279
1070
     0
1070
   288
1070
     1
1002
}
  0
DIMENSION
  5
7C58
  8
3
  2
*D11
 10
2243.0965615168179
 20
8663.6978995137069
 30
0.0
 11
3618.0965615168188
 21
8788.6978995137069
 31
0.0
 70
     0
 13
4993.0965615168188
 23
9247.9827472121342
 33
0.0
 14
2243.0965615168179
 24
9247.9827472121342
 34
0.0
1001
ACAD
1000
DSTYLE
1002
{
1070
   287
1070
     3
1070
    40
1040
50.0
1070
   143
1040
0.039
1070
   172
1070
     1
1070
   271
1070
     0
1070
   279
1070
     0
1070
   288
1070
     1
1002
}
  0
DIMENSION
  5
7C59
  8
3
  2
*D12
 10
5448.591563866009
 20
4946.5839663334191
 30
0.0
 11
5448.5915638660081
 21
5671.5839663334191
 31
0.0
 70
   128
 13
5073.0965615168188
 23
6396.58396633342
 33
0.0
 14
5073.0965615168188
 24
4946.5839663334191
 34
0.0
 50
270.0
1001
ACAD
1000
DSTYLE
1002
{
1070
   287
1070
     3
1070
    40
1040
50.0
1070
   143
1040
0.039
1070
   172
1070
     1
1070
   271
1070
     0
1070
   279
1070
     0
1070
   288
1070
     1
1002
}
  0
DIMENSION
  5
7C5A
  8
3
  2
*D13
 10
4143.0965615168188
 20
3507.5535429501319
 30
0.0
 11
4568.0965615168188
 21
3632.5535429501319
 31
0.0
 70
     0
 13
4993.0965615168188
 23
3863.0726997726488
 33
0.0
 14
4143.0965615168188
 24
3710.4884458459069
 34
0.0
1001
ACAD
1000
DSTYLE
1002
{
1070
   287
1070
     3
1070
    40
1040
50.0
1070
   143
1040
0.039
1070
   172
1070
     1
1070
   271
1070
     0
1070
   279
1070
     0
1070
   288
1070
     1
1002
}
  0
DIMENSION
  5
7C5B
  8
3
  2
*D14
 10
2243.0965615168179
 20
3507.5535429501319
 30
0.0
 11
3193.0965615168188
 21
3632.5535429501319
 31
0.0
 70
     0
 13
4143.0965615168188
 23
3710.4884458459069
 33
0.0
 14
2243.0965615168179
 24
3863.0726997726488
 34
0.0
1001
ACAD
1000
DSTYLE
1002
{
1070
   287
1070
     3
1070
    40
1040
50.0
1070
   143
1040
0.039
1070
   172
1070
     1
1070
   271
1070
     0
1070
   279
1070
     0
1070
   288
1070
     1
1002
}
  0
DIMENSION
  5
7C5D
  8
3
  2
*D15
 10
5752.7748548867676
 20
4905.5839663334191
 30
0.0
 11
5627.7748548867667
 21
5651.08396633342
 31
0.0
 70
     0
 13
5073.0965615168188
 23
6396.58396633342
 33
0.0
 14
5201.3345120608628
 24
4905.5839663334191
 34
0.0
 50
90.0
1001
ACAD
1000
DSTYLE
1002
{
1070
   287
1070
     3
1070
    40
1040
50.0
1070
   143
1040
0.039
1070
   172
1070
     1
1070
   271
1070
     0
1070
   279
1070
     0
1070
   288
1070
     1
1002
}
  0
DIMENSION
  5
7C5E
  8
3
  2
*D16
 10
5752.7748548867676
 20
3865.5839663334182
 30
0.0
 11
5627.7748548867667
 21
4385.5839663334191
 31
0.0
 70
     0
 13
5201.3345120608628
 23
4905.5839663334191
 33
0.0
 14
4993.0965615168188
 24
3865.5839663334191
 34
0.0
 50
90.0
1001
ACAD
1000
DSTYLE
1002
{
1070
   287
1070
     3
1070
    40
1040
50.0
1070
   143
1040
0.039
1070
   172
1070
     1
1070
   271
1070
     0
1070
   279
1070
     0
1070
   288
1070
     1
1002
}
  0
DIMENSION
  5
7C61
  8
3
  2
*D17
 10
6100.88029296475
 20
3865.5839663334182
 30
0.0
 11
5975.8802929647491
 21
5131.08396633342
 31
0.0
 70
     0
 13
5073.0965615168188
 23
6396.58396633342
 33
0.0
 14
4993.0965615168188
 24
3865.5839663334191
 34
0.0
 50
90.0
1001
ACAD
1000
DSTYLE
1002
{
1070
   287
1070
     3
1070
    40
1040
50.0
1070
   143
1040
0.039
1070
   172
1070
     1
1070
   271
1070
     0
1070
   279
1070
     0
1070
   288
1070
     1
1002
}
  0
DIMENSION
  5
7C62
  8
3
  2
*D18
 10
4143.0965615168188
 20
6655.8986298627933
 30
0.0
 11
4608.0965615168188
 21
6780.8986298627933
 31
0.0
 70
     0
 13
5073.0965615168188
 23
6450.5839663334182
 33
0.0
 14
4143.0965615168188
 24
6408.4935734855153
 34
0.0
1001
ACAD
1000
DSTYLE
1002
{
1070
   287
1070
     3
1070
    40
1040
50.0
1070
   143
1040
0.039
1070
   172
1070
     1
1070
   271
1070
     0
1070
   279
1070
     0
1070
   288
1070
     1
1002
}
  0
DIMENSION
  5
7C63
  8
3
  2
*D19
 10
2936.0965615168188
 20
6655.8986298627933
 30
0.0
 11
3539.5965615168179
 21
6780.8986298627933
 31
0.0
 70
     0
 13
4143.0965615168188
 23
6408.4935734855153
 33
0.0
 14
2936.0965615168188
 24
5007.5839663334191
 34
0.0
1001
ACAD
1000
DSTYLE
1002
{
1070
   287
1070
     3
1070
    40
1040
50.0
1070
   143
1040
0.039
1070
   172
1070
     1
1070
   271
1070
     0
1070
   279
1070
     0
1070
   288
1070
     1
1002
}
  0
LINE
  5
7C64
  8
1
  6
CONTINUOUS
 10
5073.0965615168188
 20
10618.982747212131
 30
0.0
 11
5073.0965615168188
 21
9458.982747212136
 31
0.0
  0
LINE
  5
7C65
  8
1
  6
CONTINUOUS
 10
2936.0965615168188
 20
10568.982747212131
 30
0.0
 11
2936.0965615168188
 21
9508.9827472121342
 31
0.0
  0
LINE
  5
7C66
  8
1
  6
CONTINUOUS
 10
7285.2630274059811
 20
4946.58396633342
 30
0.0
 11
8345.2630274059811
 21
4946.58396633342
 31
0.0
  0
LINE
  5
7C67
  8
1
  6
CONTINUOUS
 10
8345.2630274059811
 20
6396.58396633342
 30
0.0
 11
7285.2630274059811
 21
4946.58396633342
 31
0.0
  0
LINE
  5
7C68
  8
1
  6
CONTINUOUS
 10
7285.2630274059811
 20
6396.58396633342
 30
0.0
 11
8345.2630274059811
 21
4946.58396633342
 31
0.0
  0
LINE
  5
7C69
  8
1
  6
CONTINUOUS
 10
5023.0965615168188
 20
9508.9827472121342
 30
0.0
 11
5023.0965615168188
 21
10568.982747212131
 31
0.0
  0
LINE
  5
7E5E
  8
4
 10
9250.0
 20
2500.0
 30
0.0
 11
9250.0
 21
1500.0
 31
0.0
  0
LINE
  5
7E5F
  8
4
 10
5750.0
 20
2500.0
 30
0.0
 11
5750.0
 21
1500.0
 31
0.0
  0
LINE
  5
7E60
  8
4
 10
3250.0
 20
2500.0
 30
0.0
 11
3250.0
 21
1500.0
 31
0.0
  0
LINE
  5
7E63
  8
4
 10
3250.0
 20
1500.0
 30
0.0
 11
9250.0
 21
1500.0
 31
0.0
  0
LINE
  5
7E64
  8
4
 10
3250.0
 20
2000.0
 30
0.0
 11
9250.0
 21
2000.0
 31
0.0
  0
TEXT
  5
7E65
  8
4
 10
3442.5104042345079
 20
2157.7151293330639
 30
0.0
 40
250.0
  1
機器名称
  0
TEXT
  5
7E66
  8
4
 10
3431.2905301239871
 20
1608.225783660054
 30
0.0
 40
250.0
  1
機器型番
  0
TEXT
  5
7E67
  8
4
 10
5892.8679831273485
 20
2104.5536188127139
 30
0.0
 40
200.0
  1
ミツヤリミットロードファン
  0
TEXT
  5
7E68
  8
4
 10
5933.2724779274031
 20
1585.797921399716
 30
0.0
 40
250.0
  1
LL#9-4
  0
TEXT
  5
7E6A
  8
4
 10
4599.1927685994251
 20
11917.14420666257
 30
0.0
 40
269.99999999999989
  1
床置ベット
  0
TEXT
  5
7E6B
  8
4
 10
1573.0065171259689
 20
12673.838822711299
 30
0.0
 40
306.0
  1
ベルト駆動式片吸込両持リミットロードファン
  0
LINE
  5
7E6C
  8
4
 10
1250.0
 20
12347.043771324021
 30
0.0
 11
9250.0
 21
12347.043771324021
 31
0.0
  0
LINE
  5
7E6D
  8
4
 10
1250.0
 20
13347.043771324021
 30
0.0
 11
9250.0
 21
13347.043771324021
 31
0.0
  0
LINE
  5
7E6E
  8
4
 10
3250.0
 20
2500.0
 30
0.0
 11
9250.0
 21
2500.0
 31
0.0
  0
LINE
  5
7E6F
  8
4
 10
1250.0
 20
13347.043771324021
 30
0.0
 11
1250.0
 21
12347.043771324021
 31
0.0
  0
TEXT
  5
7E70
  8
4
 10
1895.7974650847329
 20
11911.59738773171
 30
0.0
 40
269.99999999999989
  1
右回転右横向
  0
TEXT
  5
7E71
  8
4
 10
7344.8477962464494
 20
13530.30540747654
 30
0.0
 40
280.0
  1
No.
  0
TEXT
  5
7E72
  8
4
 10
6556.4803130000646
 20
11917.14420666257
 30
0.0
 40
269.99999999999989
  1
縮尺：1/50
  0
LINE
  5
7E73
  8
4
 10
9250.0
 20
13347.043771324021
 30
0.0
 11
9250.0
 21
12347.043771324021
 31
0.0
  0
LINE
  5
7E74
  8
4
 10
10500.0
 20
14750.0
 30
0.0
 11
10500.0
 21
14750.0
 31
0.0
  0
LINE
  5
7E75
  8
4
 10
7203.0871117993229
 20
13406.317915627
 30
0.0
 11
7203.0871117993229
 21
13933.26130774876
 31
0.0
  0
LINE
  5
7E76
  8
4
 10
7203.0871117993229
 20
13933.26130774876
 30
0.0
 11
9250.0
 21
13933.26130774876
 31
0.0
  0
LINE
  5
7E77
  8
4
 10
9250.0
 20
13933.26130774876
 30
0.0
 11
9250.0
 21
13406.317915627
 31
0.0
  0
LINE
  5
7E78
  8
4
 10
9250.0
 20
13406.317915627
 30
0.0
 11
7203.0871117993229
 21
13406.317915627
 31
0.0
  0
LINE
  5
7E79
  8
4
 10
0.0
 20
0.0
 30
0.0
 11
0.0
 21
14750.0
 31
0.0
  0
LINE
  5
7E7A
  8
4
 10
0.0
 20
14750.0
 30
0.0
 11
10500.0
 21
14750.0
 31
0.0
  0
LINE
  5
7E7B
  8
4
 10
10500.0
 20
14750.0
 30
0.0
 11
10500.0
 21
0.0
 31
0.0
  0
LINE
  5
7E7C
  8
4
 10
10500.0
 20
0.0
 30
0.0
 11
0.0
 21
0.0
 31
0.0
  0
DIMENSION
  5
818F
  8
3
  2
*D20
 10
5413.2769522916788
 20
9247.9827472121342
 30
0.0
 11
5413.2769522916788
 21
9984.9238086584373
 31
0.0
 70
   128
 13
4993.0965615168188
 23
10647.982747212131
 33
0.0
 14
4993.0965615168188
 24
9247.9827472121342
 34
0.0
 50
90.0
1001
ACAD
1000
DSTYLE
1002
{
1070
   287
1070
     3
1070
    40
1040
50.0
1070
   143
1040
0.039
1070
   172
1070
     1
1070
   271
1070
     0
1070
   279
1070
     0
1070
   288
1070
     1
1002
}
  0
DIMENSION
  5
8313
  8
3
  2
*D21
 10
2243.0965615168179
 20
6936.535327694407
 30
0.0
 11
3784.5140966512631
 21
6936.535327694407
 31
0.0
 70
   128
 13
5073.0965615168188
 23
6450.5839663334182
 33
0.0
 14
2243.0965615168179
 24
4015.5839663334182
 34
0.0
1001
ACAD
1000
DSTYLE
1002
{
1070
   287
1070
     3
1070
    40
1040
50.0
1070
   143
1040
0.039
1070
   172
1070
     1
1070
   271
1070
     0
1070
   279
1070
     0
1070
   288
1070
     1
1002
}
  0
LINE
  5
831C
  8
1
  6
CONTINUOUS
 10
7108.4630274059809
 20
4433.0839663334191
 30
0.0
 11
7285.2630274059811
 21
4433.0839663334191
 31
0.0
  0
LINE
  5
831E
  8
1
  6
CONTINUOUS
 10
7108.4630274059846
 20
4068.0839663334191
 30
0.0
 11
7285.2630274059811
 21
4068.0839663334191
 31
0.0
  0
LINE
  5
8320
  8
1
  6
CONTINUOUS
 10
7108.4630274059846
 20
4068.0839663334191
 30
0.0
 11
7108.4630274059809
 21
4433.0839663334191
 31
0.0
  0
LINE
  5
8321
  8
1
  6
CONTINUOUS
 10
7008.5630274059831
 20
4293.0839663334182
 30
0.0
 11
7108.4630274059809
 21
4293.0839663334209
 31
0.0
  0
LINE
  5
8322
  8
1
  6
CONTINUOUS
 10
7008.5630274059831
 20
4208.0839663334182
 30
0.0
 11
7108.4630274059809
 21
4208.0839663334182
 31
0.0
  0
LINE
  5
8323
  8
1
  6
CONTINUOUS
 10
7008.5630274059831
 20
4190.5839663334191
 30
0.0
 11
7008.5630274059831
 21
4310.5839663334191
 31
0.0
  0
LINE
  5
8324
  8
1
  6
CONTINUOUS
 10
6993.4630274059809
 20
4144.5839663334191
 30
0.0
 11
6993.4630274059809
 21
4356.58396633342
 31
0.0
  0
LINE
  5
8325
  8
1
  6
CONTINUOUS
 10
6993.4630274059809
 20
4310.5839663334191
 30
0.0
 11
7008.5630274059831
 21
4310.5839663334191
 31
0.0
  0
LINE
  5
8326
  8
1
  6
CONTINUOUS
 10
6993.4630274059809
 20
4190.5839663334191
 30
0.0
 11
7008.5630274059831
 21
4190.5839663334191
 31
0.0
  0
ENDSEC
  0
EOF
