  0
SECTION
  2
HEADER
  9
$ACADVER
  1
AC1009
  9
$INSBASE
 10
0.0
 20
0.0
 30
0.0
  9
$EXTMIN
 10
0.0
 20
0.0
 30
0.0
  9
$EXTMAX
 10
10500.0
 20
14750.0
 30
0.0
  9
$LIMMIN
 10
0.0
 20
0.0
  9
$LIMMAX
 10
297.0
 20
210.0
  9
$ORTHOMODE
 70
     0
  9
$REGENMODE
 70
     1
  9
$FILLMODE
 70
     0
  9
$QTEXTMODE
 70
     0
  9
$MIRRTEXT
 70
     1
  9
$DRAGMODE
 70
     2
  9
$LTSCALE
 40
100.0
  9
$OSMODE
 70
    37
  9
$ATTMODE
 70
     1
  9
$TEXTSIZE
 40
180.0
  9
$TRACEWID
 40
0.05
  9
$TEXTSTYLE
  7
STANDARD
  9
$CLAYER
  8
3
  9
$CELTYPE
  6
BYLAYER
  9
$CECOLOR
 62
   256
  9
$DIMSCALE
 40
50.0
  9
$DIMASZ
 40
2.0
  9
$DIMEXO
 40
0.5
  9
$DIMDLI
 40
10.0
  9
$DIMRND
 40
0.0
  9
$DIMDLE
 40
0.0
  9
$DIMEXE
 40
1.0
  9
$DIMTP
 40
1.0
  9
$DIMTM
 40
1.0
  9
$DIMTXT
 40
3.0
  9
$DIMCEN
 40
0.0
  9
$DIMTSZ
 40
0.0
  9
$DIMTOL
 70
     0
  9
$DIMLIM
 70
     0
  9
$DIMTIH
 70
     0
  9
$DIMTOH
 70
     0
  9
$DIMSE1
 70
     0
  9
$DIMSE2
 70
     0
  9
$DIMTAD
 70
     1
  9
$DIMZIN
 70
     8
  9
$DIMBLK
  1

  9
$DIMASO
 70
     1
  9
$DIMSHO
 70
     1
  9
$DIMPOST
  1

  9
$DIMAPOST
  1

  9
$DIMALT
 70
     0
  9
$DIMALTD
 70
     2
  9
$DIMALTF
 40
0.039
  9
$DIMLFAC
 40
1.0
  9
$DIMTOFL
 70
     1
  9
$DIMTVP
 40
0.0
  9
$DIMTIX
 70
     0
  9
$DIMSOXD
 70
     0
  9
$DIMSAH
 70
     1
  9
$DIMBLK1
  1
OPEN
  9
$DIMBLK2
  1
OPEN
  9
$DIMSTYLE
  2
IGA
  9
$DIMCLRD
 70
     0
  9
$DIMCLRE
 70
     0
  9
$DIMCLRT
 70
     0
  9
$DIMTFAC
 40
10.0
  9
$DIMGAP
 40
1.0
  9
$LUNITS
 70
     2
  9
$LUPREC
 70
     3
  9
$SKETCHINC
 40
0.1
  9
$FILLETRAD
 40
50.0
  9
$AUNITS
 70
     0
  9
$AUPREC
 70
     0
  9
$MENU
  1
acad
  9
$ELEVATION
 40
0.0
  9
$PELEVATION
 40
0.0
  9
$THICKNESS
 40
0.0
  9
$LIMCHECK
 70
     0
  9
$BLIPMODE
 70
     0
  9
$CHAMFERA
 40
0.0
  9
$CHAMFERB
 40
0.0
  9
$SKPOLY
 70
     0
  9
$TDCREATE
 40
2451408.5692422451
  9
$TDUPDATE
 40
2454953.6621468049
  9
$TDINDWG
 40
0.0586033333
  9
$TDUSRTIMER
 40
0.0586033333
  9
$USRTIMER
 70
     1
  9
$ANGBASE
 50
0.0
  9
$ANGDIR
 70
     0
  9
$PDMODE
 70
     0
  9
$PDSIZE
 40
0.0
  9
$PLINEWID
 40
0.0
  9
$COORDS
 70
     1
  9
$SPLFRAME
 70
     0
  9
$SPLINETYPE
 70
     6
  9
$SPLINESEGS
 70
     8
  9
$ATTDIA
 70
     0
  9
$ATTREQ
 70
     1
  9
$HANDLING
 70
 10241
  9
$HANDSEED
  5
836D
  9
$SURFTAB1
 70
     6
  9
$SURFTAB2
 70
     6
  9
$SURFTYPE
 70
     6
  9
$SURFU
 70
     6
  9
$SURFV
 70
     6
  9
$UCSNAME
  2

  9
$UCSORG
 10
0.0
 20
0.0
 30
0.0
  9
$UCSXDIR
 10
1.0
 20
0.0
 30
0.0
  9
$UCSYDIR
 10
0.0
 20
1.0
 30
0.0
  9
$PUCSNAME
  2

  9
$PUCSORG
 10
0.0
 20
0.0
 30
0.0
  9
$PUCSXDIR
 10
1.0
 20
0.0
 30
0.0
  9
$PUCSYDIR
 10
0.0
 20
1.0
 30
0.0
  9
$USERI1
 70
     0
  9
$USERI2
 70
     0
  9
$USERI3
 70
     0
  9
$USERI4
 70
     0
  9
$USERI5
 70
     0
  9
$USERR1
 40
0.0
  9
$USERR2
 40
0.0
  9
$USERR3
 40
0.0
  9
$USERR4
 40
0.0
  9
$USERR5
 40
0.0
  9
$WORLDVIEW
 70
     1
  9
$SHADEDGE
 70
     3
  9
$SHADEDIF
 70
    70
  9
$TILEMODE
 70
     1
  9
$MAXACTVP
 70
    16
  9
$PLIMCHECK
 70
     0
  9
$PEXTMIN
 10
1.0000000000000000E+020
 20
1.0000000000000000E+020
 30
1.0000000000000000E+020
  9
$PEXTMAX
 10
-1.0000000000000000E+020
 20
-1.0000000000000000E+020
 30
-1.0000000000000000E+020
  9
$PLIMMIN
 10
0.0
 20
0.0
  9
$PLIMMAX
 10
12.0
 20
9.0
  9
$UNITMODE
 70
     0
  9
$VISRETAIN
 70
     0
  9
$PLINEGEN
 70
     0
  9
$PSLTSCALE
 70
     1
  0
ENDSEC
  0
SECTION
  2
TABLES
  0
TABLE
  2
VPORT
 70
     2
  0
VPORT
  2
*ACTIVE
 70
     0
 10
0.0
 20
0.0
 11
1.0
 21
1.0
 12
23746.582251093369
 22
7375.383900255174
 13
0.0
 23
0.0
 14
10.0
 24
10.0
 15
10.0
 25
10.0
 16
0.0
 26
0.0
 36
1.0
 17
0.0
 27
0.0
 37
0.0
 40
18956.777478449501
 41
3.1666666666666661
 42
50.0
 43
0.0
 44
0.0
 50
0.0
 51
0.0
 71
     0
 72
   100
 73
     1
 74
     0
 75
     0
 76
     0
 77
     0
 78
     0
  0
ENDTAB
  0
TABLE
  2
LTYPE
 70
     2
  0
LTYPE
  2
CONTINUOUS
 70
     0
  3
Solid line
 72
    65
 73
     0
 40
0.0
  0
LTYPE
  2
CENTER
 70
     0
  3
____ _ ____ _ ____ _ ____ _ ____ _ ____ _ ____ 
 72
    65
 73
     4
 40
2.0
 49
1.25
 49
-0.25
 49
0.25
 49
-0.25
  0
ENDTAB
  0
TABLE
  2
LAYER
 70
     6
  0
LAYER
  2
0
 70
     0
 62
     7
  6
CONTINUOUS
  0
LAYER
  2
3
 70
     0
 62
     2
  6
CONTINUOUS
  0
LAYER
  2
2
 70
     0
 62
     3
  6
CENTER
  0
LAYER
  2
1
 70
     0
 62
     4
  6
CONTINUOUS
  0
LAYER
  2
4
 70
     0
 62
     7
  6
CONTINUOUS
  0
LAYER
  2
DEFPOINTS
 70
     0
 62
     7
  6
CONTINUOUS
  0
ENDTAB
  0
TABLE
  2
STYLE
 70
     1
  0
STYLE
  2
STANDARD
 70
     0
 40
0.0
 41
1.0
 50
0.0
 71
     0
 42
180.0
  3
simplex.shx
  4
extfont.shx
  0
ENDTAB
  0
TABLE
  2
VIEW
 70
     0
  0
ENDTAB
  0
TABLE
  2
UCS
 70
     0
  0
ENDTAB
  0
TABLE
  2
APPID
 70
     1
  0
APPID
  2
ACAD
 70
     0
  0
ENDTAB
  0
TABLE
  2
DIMSTYLE
 70
     1
  0
DIMSTYLE
  2
IGA
 70
     0
  3

  4

  5

  6
OPEN
  7
OPEN
 40
2.0
 41
2.0
 42
0.5
 43
10.0
 44
1.0
 45
0.0
 46
0.0
 47
1.0
 48
1.0
140
3.0
141
0.0
142
0.0
143
0.03937
144
1.0
145
0.0
146
10.0
147
1.0
 71
     0
 72
     0
 73
     0
 74
     0
 75
     0
 76
     0
 77
     1
 78
     8
170
     0
171
     2
172
     0
173
     1
174
     0
175
     0
176
     0
177
     0
178
     0
  0
ENDTAB
  0
ENDSEC
  0
SECTION
  2
BLOCKS
  0
BLOCK
  8
0
  2
$MODEL_SPACE
 70
     0
 10
0.0
 20
0.0
 30
0.0
  3
$MODEL_SPACE
  1

  0
ENDBLK
  5
1B
  8
0
  0
BLOCK
 67
     1
  8
0
  2
$PAPER_SPACE
 70
     0
 10
0.0
 20
0.0
 30
0.0
  3
$PAPER_SPACE
  1

  0
ENDBLK
  5
18
 67
     1
  8
0
  0
BLOCK
  8
0
  2
_OPEN
 70
     0
 10
0.0
 20
0.0
 30
0.0
  3
_OPEN
  1

  0
LINE
  5
79FD
  8
0
  6
BYBLOCK
 62
     0
 10
-1.0
 20
0.1666666666666666
 30
0.0
 11
0.0
 21
0.0
 31
0.0
  0
LINE
  5
79FE
  8
0
  6
BYBLOCK
 62
     0
 10
0.0
 20
0.0
 30
0.0
 11
-1.0
 21
-0.1666666666666666
 31
0.0
  0
LINE
  5
79FF
  8
0
  6
BYBLOCK
 62
     0
 10
0.0
 20
0.0
 30
0.0
 11
-1.0
 21
0.0
 31
0.0
  0
ENDBLK
  5
7A01
  8
0
  0
BLOCK
  8
0
  2
YA_N
 70
     0
 10
0.0
 20
0.0
 30
0.0
  3
YA_N
  1

  0
ENDBLK
  5
7A0C
  8
0
  0
BLOCK
  8
0
  2
*D2
 70
     1
 10
0.0
 20
0.0
 30
0.0
  3
*D2
  1

  0
LINE
  5
82AF
  8
3
 62
     0
 10
8327.1065743220843
 20
6072.6012776727357
 30
0.0
 11
8327.1065743220843
 21
6360.7232283784251
 31
0.0
  0
LINE
  5
82B0
  8
3
 62
     0
 10
7267.1065743220861
 20
6072.6012776727357
 30
0.0
 11
7267.1065743220861
 21
6360.7232283784251
 31
0.0
  0
LINE
  5
82B1
  8
3
 62
     0
 10
8227.1065743220843
 20
6310.7232283784242
 30
0.0
 11
7367.1065743220861
 21
6310.7232283784242
 31
0.0
  0
INSERT
  5
82B2
  8
3
 62
     0
  2
_OPEN
 10
8327.1065743220843
 20
6310.7232283784242
 30
0.0
 41
100.0
 42
100.0
 43
100.0
  0
INSERT
  5
82B3
  8
3
 62
     0
  2
_OPEN
 10
7267.1065743220861
 20
6310.7232283784242
 30
0.0
 41
100.0
 42
100.0
 43
100.0
 50
180.0
  0
TEXT
  8
3
  40
150
  5
8359
  62
0
  72
0
  71
0
 10
7497.11
 20
6170.22
 30
0.000000
  1
1060
  0
POINT
  5
82B5
  8
DEFPOINTS
 62
     0
 10
8327.1065743220843
 20
6047.6012776727357
 30
0.0
  0
POINT
  5
82B6
  8
DEFPOINTS
 62
     0
 10
7267.1065743220861
 20
6047.6012776727357
 30
0.0
  0
POINT
  5
82B7
  8
DEFPOINTS
 62
     0
 10
7267.1065743220861
 20
6310.7232283784242
 30
0.0
  0
ENDBLK
  5
81CF
  8
0
  0
BLOCK
  8
0
  2
*D3
 70
     1
 10
0.0
 20
0.0
 30
0.0
  3
*D3
  1

  0
LINE
  5
81BB
  8
0
  6
BYBLOCK
 62
     0
 10
8431.1065743220861
 20
5942.6012776727366
 30
0.0
 11
8431.1065743220861
 21
6819.6623862869474
 31
0.0
  0
LINE
  5
81BC
  8
0
  6
BYBLOCK
 62
     0
 10
7797.1065743220861
 20
6536.5417112412197
 30
0.0
 11
7797.1065743220861
 21
6819.6623862869474
 31
0.0
  0
LINE
  5
81BD
  8
0
  6
BYBLOCK
 62
     0
 10
8331.1065743220861
 20
6769.6623862869474
 30
0.0
 11
7897.1065743220861
 21
6769.6623862869474
 31
0.0
  0
TEXT
  5
81BE
  8
3
 62
     0
 10
7917.6780028935136
 20
6894.6623862869474
 30
0.0
 40
150.0
  1
634
  0
INSERT
  5
81BF
  8
0
  6
BYBLOCK
 62
     0
  2
_OPEN
 10
8431.1065743220861
 20
6769.6623862869474
 30
0.0
 41
100.0
 42
100.0
 43
100.0
  0
INSERT
  5
81C0
  8
0
  6
BYBLOCK
 62
     0
  2
_OPEN
 10
7797.1065743220861
 20
6769.6623862869474
 30
0.0
 41
100.0
 42
100.0
 43
100.0
 50
180.0
  0
POINT
  5
81C1
  8
DEFPOINTS
  6
BYBLOCK
 62
     0
 10
8431.1065743220861
 20
5917.6012776727366
 30
0.0
  0
POINT
  5
81C2
  8
DEFPOINTS
  6
BYBLOCK
 62
     0
 10
7797.1065743220861
 20
6511.5417112412197
 30
0.0
  0
POINT
  5
81C3
  8
DEFPOINTS
  6
BYBLOCK
 62
     0
 10
7797.1065743220861
 20
6769.6623862869474
 30
0.0
  0
ENDBLK
  5
81C4
  8
0
  0
BLOCK
  8
0
  2
*D4
 70
     1
 10
0.0
 20
0.0
 30
0.0
  3
*D4
  1

  0
LINE
  5
82B8
  8
3
 62
     0
 10
7797.1065743220861
 20
6536.5417112412197
 30
0.0
 11
7797.1065743220861
 21
6819.6623862869474
 31
0.0
  0
LINE
  5
82B9
  8
3
 62
     0
 10
6827.1065743220861
 20
5572.6012776727357
 30
0.0
 11
6827.1065743220861
 21
6819.6623862869474
 31
0.0
  0
LINE
  5
82BA
  8
3
 62
     0
 10
7697.1065743220861
 20
6769.6623862869474
 30
0.0
 11
6927.1065743220861
 21
6769.6623862869474
 31
0.0
  0
INSERT
  5
82BB
  8
3
 62
     0
  2
_OPEN
 10
7797.1065743220861
 20
6769.6623862869474
 30
0.0
 41
100.0
 42
100.0
 43
100.0
  0
INSERT
  5
82BC
  8
3
 62
     0
  2
_OPEN
 10
6827.1065743220861
 20
6769.6623862869474
 30
0.0
 41
100.0
 42
100.0
 43
100.0
 50
180.0
  0
TEXT
  8
3
  40
150
  5
835A
  62
0
  72
0
  71
0
 10
7012.11
 20
6754.16
 30
0.000000
  1
MAX
  0
TEXT
  8
3
  40
150
  5
835B
  62
0
  72
0
  71
0
 10
7012.11
 20
6559.16
 30
0.000000
  1
1030
  0
POINT
  5
82BE
  8
DEFPOINTS
 62
     0
 10
7797.1065743220861
 20
6511.5417112412197
 30
0.0
  0
POINT
  5
82BF
  8
DEFPOINTS
 62
     0
 10
6827.1065743220861
 20
5547.6012776727357
 30
0.0
  0
POINT
  5
82C0
  8
DEFPOINTS
 62
     0
 10
6827.1065743220861
 20
6769.6623862869474
 30
0.0
  0
ENDBLK
  5
81B9
  8
0
  0
BLOCK
  8
0
  2
*D5
 70
     1
 10
0.0
 20
0.0
 30
0.0
  3
*D5
  1

  0
LINE
  5
82C1
  8
3
 62
     0
 10
8456.1065743220861
 20
5867.6012776727357
 30
0.0
 11
8869.6587956304829
 21
5867.6012776727357
 31
0.0
  0
LINE
  5
82C2
  8
3
 62
     0
 10
8456.1065743220861
 20
4467.6012776727366
 30
0.0
 11
8869.6587956304829
 21
4467.6012776727366
 31
0.0
  0
LINE
  5
82C3
  8
3
 62
     0
 10
8819.6587956304811
 20
5767.6012776727366
 30
0.0
 11
8819.6587956304811
 21
4567.6012776727366
 31
0.0
  0
INSERT
  5
82C4
  8
3
 62
     0
  2
_OPEN
 10
8819.6587956304811
 20
5867.6012776727357
 30
0.0
 41
100.0
 42
100.0
 43
100.0
 50
90.0
  0
INSERT
  5
82C5
  8
3
 62
     0
  2
_OPEN
 10
8819.6587956304811
 20
4467.6012776727366
 30
0.0
 41
100.0
 42
100.0
 43
100.0
 50
270.0
  0
TEXT
  8
3
  40
150
  5
835C
  62
0
  72
0
  71
0
 10
8394.66
 20
4902.10
 30
0.000000
  1
φ1400
  0
POINT
  5
82C7
  8
DEFPOINTS
 62
     0
 10
8431.1065743220861
 20
5867.6012776727357
 30
0.0
  0
POINT
  5
82C8
  8
DEFPOINTS
 62
     0
 10
8431.1065743220861
 20
4467.6012776727366
 30
0.0
  0
POINT
  5
82C9
  8
DEFPOINTS
 62
     0
 10
8819.6587956304811
 20
4467.6012776727366
 30
0.0
  0
ENDBLK
  5
81A3
  8
0
  0
BLOCK
  8
0
  2
*D6
 70
     1
 10
0.0
 20
0.0
 30
0.0
  3
*D6
  1

  0
LINE
  5
82CA
  8
3
 62
     0
 10
2371.1364468254101
 20
10120.404379553671
 30
0.0
 11
2371.1364468254101
 21
10509.920610029551
 31
0.0
  0
LINE
  5
82CB
  8
3
 62
     0
 10
4071.1364468254101
 20
10120.404379553671
 30
0.0
 11
4071.1364468254101
 21
10509.920610029551
 31
0.0
  0
LINE
  5
82CC
  8
3
 62
     0
 10
2471.1364468254101
 20
10459.920610029551
 30
0.0
 11
3971.1364468254101
 21
10459.920610029551
 31
0.0
  0
INSERT
  5
82CD
  8
3
 62
     0
  2
_OPEN
 10
2371.1364468254101
 20
10459.920610029551
 30
0.0
 41
100.0
 42
100.0
 43
100.0
 50
180.0
  0
INSERT
  5
82CE
  8
3
 62
     0
  2
_OPEN
 10
4071.1364468254101
 20
10459.920610029551
 30
0.0
 41
100.0
 42
100.0
 43
100.0
  0
TEXT
  8
3
  40
150
  5
835D
  62
0
  72
0
  71
0
 10
2921.14
 20
10319.4
 30
0.000000
  1
1700
  0
POINT
  5
82D0
  8
DEFPOINTS
 62
     0
 10
2371.1364468254101
 20
10095.404379553671
 30
0.0
  0
POINT
  5
82D1
  8
DEFPOINTS
 62
     0
 10
4071.1364468254101
 20
10095.404379553671
 30
0.0
  0
POINT
  5
82D2
  8
DEFPOINTS
 62
     0
 10
4071.1364468254101
 20
10459.920610029551
 30
0.0
  0
ENDBLK
  5
8126
  8
0
  0
BLOCK
  8
0
  2
*D7
 70
     1
 10
0.0
 20
0.0
 30
0.0
  3
*D7
  1

  0
LINE
  5
82D3
  8
3
 62
     0
 10
4071.1364468254101
 20
10120.404379553671
 30
0.0
 11
4071.1364468254101
 21
10509.920610029551
 31
0.0
  0
LINE
  5
82D4
  8
3
 62
     0
 10
5121.1364468254096
 20
9820.4043795536727
 30
0.0
 11
5121.1364468254096
 21
10509.920610029551
 31
0.0
  0
LINE
  5
82D5
  8
3
 62
     0
 10
4171.1364468254096
 20
10459.920610029551
 30
0.0
 11
5021.1364468254096
 21
10459.920610029551
 31
0.0
  0
INSERT
  5
82D6
  8
3
 62
     0
  2
_OPEN
 10
4071.1364468254101
 20
10459.920610029551
 30
0.0
 41
100.0
 42
100.0
 43
100.0
 50
180.0
  0
INSERT
  5
82D7
  8
3
 62
     0
  2
_OPEN
 10
5121.1364468254096
 20
10459.920610029551
 30
0.0
 41
100.0
 42
100.0
 43
100.0
  0
TEXT
  8
3
  40
150
  5
835E
  62
0
  72
0
  71
0
 10
4296.14
 20
10319.4
 30
0.000000
  1
1050
  0
POINT
  5
82D9
  8
DEFPOINTS
 62
     0
 10
4071.1364468254101
 20
10095.404379553671
 30
0.0
  0
POINT
  5
82DA
  8
DEFPOINTS
 62
     0
 10
5121.1364468254096
 20
9795.4043795536727
 30
0.0
  0
POINT
  5
82DB
  8
DEFPOINTS
 62
     0
 10
5121.1364468254096
 20
10459.920610029551
 30
0.0
  0
ENDBLK
  5
811B
  8
0
  0
BLOCK
  8
0
  2
*D8
 70
     1
 10
0.0
 20
0.0
 30
0.0
  3
*D8
  1

  0
LINE
  5
82DC
  8
3
 62
     0
 10
5146.1364468254096
 20
9795.4043795536727
 30
0.0
 11
5635.5410858731038
 21
9795.4043795536727
 31
0.0
  0
LINE
  5
82DD
  8
3
 62
     0
 10
5146.1364468254096
 20
8695.4043795536727
 30
0.0
 11
5635.5410858731038
 21
8695.4043795536727
 31
0.0
  0
LINE
  5
82DE
  8
3
 62
     0
 10
5585.5410858731047
 20
9695.4043795536727
 30
0.0
 11
5585.5410858731047
 21
8795.4043795536727
 31
0.0
  0
INSERT
  5
82DF
  8
3
 62
     0
  2
_OPEN
 10
5585.5410858731047
 20
9795.4043795536727
 30
0.0
 41
100.0
 42
100.0
 43
100.0
 50
90.0
  0
INSERT
  5
82E0
  8
3
 62
     0
  2
_OPEN
 10
5585.5410858731047
 20
8695.4043795536727
 30
0.0
 41
100.0
 42
100.0
 43
100.0
 50
270.0
  0
TEXT
  8
3
  40
150
  5
835F
  62
0
  72
0
  71
0
 10
5160.54
 20
8979.90
 30
0.000000
  1
1100
  0
POINT
  5
82E2
  8
DEFPOINTS
 62
     0
 10
5121.1364468254096
 20
9795.4043795536727
 30
0.0
  0
POINT
  5
82E3
  8
DEFPOINTS
 62
     0
 10
5121.1364468254096
 20
8695.4043795536727
 30
0.0
  0
POINT
  5
82E4
  8
DEFPOINTS
 62
     0
 10
5585.5410858731047
 20
8695.4043795536727
 30
0.0
  0
ENDBLK
  5
8110
  8
0
  0
BLOCK
  8
0
  2
*D9
 70
     1
 10
0.0
 20
0.0
 30
0.0
  3
*D9
  1

  0
LINE
  5
82E5
  8
3
 62
     0
 10
2371.1364468254101
 20
8670.4043795536727
 30
0.0
 11
2371.1364468254101
 21
8061.1195318552454
 31
0.0
  0
LINE
  5
82E6
  8
3
 62
     0
 10
5121.1364468254096
 20
8670.4043795536727
 30
0.0
 11
5121.1364468254096
 21
8061.1195318552454
 31
0.0
  0
LINE
  5
82E7
  8
3
 62
     0
 10
2471.1364468254101
 20
8111.1195318552464
 30
0.0
 11
5021.1364468254096
 21
8111.1195318552464
 31
0.0
  0
INSERT
  5
82E8
  8
3
 62
     0
  2
_OPEN
 10
2371.1364468254101
 20
8111.1195318552464
 30
0.0
 41
100.0
 42
100.0
 43
100.0
 50
180.0
  0
INSERT
  5
82E9
  8
3
 62
     0
  2
_OPEN
 10
5121.1364468254096
 20
8111.1195318552464
 30
0.0
 41
100.0
 42
100.0
 43
100.0
  0
TEXT
  8
3
  40
150
  5
8360
  62
0
  72
0
  71
0
 10
3446.14
 20
7970.62
 30
0.000000
  1
2750
  0
POINT
  5
82EB
  8
DEFPOINTS
 62
     0
 10
2371.1364468254101
 20
8695.4043795536727
 30
0.0
  0
POINT
  5
82EC
  8
DEFPOINTS
 62
     0
 10
5121.1364468254096
 20
8695.4043795536727
 30
0.0
  0
POINT
  5
82ED
  8
DEFPOINTS
 62
     0
 10
5121.1364468254096
 20
8111.1195318552464
 30
0.0
  0
ENDBLK
  5
8105
  8
0
  0
BLOCK
  8
0
  2
*D10
 70
     1
 10
0.0
 20
0.0
 30
0.0
  3
*D10
  1

  0
LINE
  5
82EE
  8
3
 62
     0
 10
4712.1364468254096
 20
6122.6012776727357
 30
0.0
 11
4712.1364468254096
 21
6322.1971448324293
 31
0.0
  0
LINE
  5
82EF
  8
3
 62
     0
 10
3262.1364468254101
 20
6122.6012776727357
 30
0.0
 11
3262.1364468254101
 21
6322.1971448324293
 31
0.0
  0
LINE
  5
82F0
  8
3
 62
     0
 10
4612.1364468254096
 20
6272.1971448324293
 30
0.0
 11
3362.1364468254101
 21
6272.1971448324293
 31
0.0
  0
INSERT
  5
82F1
  8
3
 62
     0
  2
_OPEN
 10
4712.1364468254096
 20
6272.1971448324293
 30
0.0
 41
100.0
 42
100.0
 43
100.0
  0
INSERT
  5
82F2
  8
3
 62
     0
  2
_OPEN
 10
3262.1364468254101
 20
6272.1971448324293
 30
0.0
 41
100.0
 42
100.0
 43
100.0
 50
180.0
  0
TEXT
  8
3
  40
150
  5
8361
  62
0
  72
0
  71
0
 10
3687.14
 20
6131.70
 30
0.000000
  1
1450
  0
POINT
  5
82F4
  8
DEFPOINTS
 62
     0
 10
4712.1364468254096
 20
6097.6012776727366
 30
0.0
  0
POINT
  5
82F5
  8
DEFPOINTS
 62
     0
 10
3262.1364468254101
 20
6097.6012776727366
 30
0.0
  0
POINT
  5
82F6
  8
DEFPOINTS
 62
     0
 10
3262.1364468254101
 20
6272.1971448324293
 30
0.0
  0
ENDBLK
  5
80FA
  8
0
  0
BLOCK
  8
0
  2
*D11
 70
     1
 10
0.0
 20
0.0
 30
0.0
  3
*D11
  1

  0
LINE
  5
82F7
  8
3
 62
     0
 10
2218.1364468254101
 20
5107.1012776727357
 30
0.0
 11
2218.1364468254101
 21
6662.1552002808576
 31
0.0
  0
LINE
  5
82F8
  8
3
 62
     0
 10
3221.1364468254101
 20
6250.8392282167797
 30
0.0
 11
3221.1364468254101
 21
6662.1552002808576
 31
0.0
  0
LINE
  5
82F9
  8
3
 62
     0
 10
2318.1364468254101
 20
6612.1552002808594
 30
0.0
 11
3121.1364468254101
 21
6612.1552002808594
 31
0.0
  0
INSERT
  5
82FA
  8
3
 62
     0
  2
_OPEN
 10
2218.1364468254101
 20
6612.1552002808594
 30
0.0
 41
100.0
 42
100.0
 43
100.0
 50
180.0
  0
INSERT
  5
82FB
  8
3
 62
     0
  2
_OPEN
 10
3221.1364468254101
 20
6612.1552002808594
 30
0.0
 41
100.0
 42
100.0
 43
100.0
  0
TEXT
  8
3
  40
150
  5
8362
  62
0
  72
0
  71
0
 10
2419.64
 20
6471.66
 30
0.000000
  1
1003
  0
POINT
  5
82FD
  8
DEFPOINTS
 62
     0
 10
2218.1364468254101
 20
5082.1012776727366
 30
0.0
  0
POINT
  5
82FE
  8
DEFPOINTS
 62
     0
 10
3221.1364468254101
 20
6225.8392282167806
 30
0.0
  0
POINT
  5
82FF
  8
DEFPOINTS
 62
     0
 10
3221.1364468254101
 20
6612.1552002808594
 30
0.0
  0
ENDBLK
  5
80EF
  8
0
  0
BLOCK
  8
0
  2
*D12
 70
     1
 10
0.0
 20
0.0
 30
0.0
  3
*D12
  1

  0
LINE
  5
8300
  8
3
 62
     0
 10
3221.1364468254101
 20
6250.8392282167797
 30
0.0
 11
3221.1364468254101
 21
6662.1552002808576
 31
0.0
  0
LINE
  5
8301
  8
3
 62
     0
 10
4712.1364468254096
 20
6122.6012776727357
 30
0.0
 11
4712.1364468254096
 21
6662.1552002808576
 31
0.0
  0
LINE
  5
8302
  8
3
 62
     0
 10
3321.1364468254101
 20
6612.1552002808594
 30
0.0
 11
4612.1364468254096
 21
6612.1552002808594
 31
0.0
  0
INSERT
  5
8303
  8
3
 62
     0
  2
_OPEN
 10
3221.1364468254101
 20
6612.1552002808594
 30
0.0
 41
100.0
 42
100.0
 43
100.0
 50
180.0
  0
INSERT
  5
8304
  8
3
 62
     0
  2
_OPEN
 10
4712.1364468254096
 20
6612.1552002808594
 30
0.0
 41
100.0
 42
100.0
 43
100.0
  0
TEXT
  8
3
  40
150
  5
8363
  62
0
  72
0
  71
0
 10
3666.64
 20
6471.66
 30
0.000000
  1
1491
  0
POINT
  5
8306
  8
DEFPOINTS
 62
     0
 10
3221.1364468254101
 20
6225.8392282167806
 30
0.0
  0
POINT
  5
8307
  8
DEFPOINTS
 62
     0
 10
4712.1364468254096
 20
6097.6012776727366
 30
0.0
  0
POINT
  5
8308
  8
DEFPOINTS
 62
     0
 10
4712.1364468254096
 20
6612.1552002808594
 30
0.0
  0
ENDBLK
  5
80E4
  8
0
  0
BLOCK
  8
0
  2
*D13
 70
     1
 10
0.0
 20
0.0
 30
0.0
  3
*D13
  1

  0
LINE
  5
8309
  8
3
 62
     0
 10
2346.1364468254101
 20
10095.404379553671
 30
0.0
 11
1963.287802453671
 21
10095.404379553671
 31
0.0
  0
LINE
  5
830A
  8
3
 62
     0
 10
2346.1364468254101
 20
8695.4043795536727
 30
0.0
 11
1963.2878024536701
 21
8695.4043795536727
 31
0.0
  0
LINE
  5
830B
  8
3
 62
     0
 10
2013.287802453671
 20
9995.4043795536763
 30
0.0
 11
2013.287802453671
 21
8795.4043795536727
 31
0.0
  0
INSERT
  5
830C
  8
3
 62
     0
  2
_OPEN
 10
2013.287802453671
 20
10095.404379553671
 30
0.0
 41
100.0
 42
100.0
 43
100.0
 50
90.0
  0
INSERT
  5
830D
  8
3
 62
     0
  2
_OPEN
 10
2013.2878024536701
 20
8695.4043795536727
 30
0.0
 41
100.0
 42
100.0
 43
100.0
 50
270.0
  0
TEXT
  8
3
  40
150
  5
8364
  62
0
  72
0
  71
0
 10
1588.29
 20
9105.33
 30
0.000000
  1
1400
  0
POINT
  5
830F
  8
DEFPOINTS
 62
     0
 10
2371.1364468254101
 20
10095.404379553671
 30
0.0
  0
POINT
  5
8310
  8
DEFPOINTS
 62
     0
 10
2371.1364468254101
 20
8695.4043795536727
 30
0.0
  0
POINT
  5
8311
  8
DEFPOINTS
 62
     0
 10
2013.2878024536701
 20
8695.4043795536727
 30
0.0
  0
ENDBLK
  5
807D
  8
0
  0
BLOCK
  8
0
  2
*D14
 70
     1
 10
0.0
 20
0.0
 30
0.0
  3
*D14
  1

  0
LINE
  5
8312
  8
3
 62
     0
 10
2218.1364468254101
 20
6687.1552002808594
 30
0.0
 11
2218.1364468254101
 21
6983.6459197766526
 31
0.0
  0
LINE
  5
8313
  8
3
 62
     0
 10
5121.1364468254096
 20
4102.6012776727366
 30
0.0
 11
5121.1364468254096
 21
6983.6459197766526
 31
0.0
  0
LINE
  5
8314
  8
3
 62
     0
 10
2318.1364468254101
 20
6933.6459197766526
 30
0.0
 11
5021.1364468254096
 21
6933.6459197766526
 31
0.0
  0
INSERT
  5
8315
  8
3
 62
     0
  2
_OPEN
 10
2218.1364468254101
 20
6933.6459197766526
 30
0.0
 41
100.0
 42
100.0
 43
100.0
 50
180.0
  0
INSERT
  5
8316
  8
3
 62
     0
  2
_OPEN
 10
5121.1364468254096
 20
6933.6459197766526
 30
0.0
 41
100.0
 42
100.0
 43
100.0
  0
TEXT
  8
3
  40
150
  5
8365
  62
0
  72
0
  71
0
 10
3536.69
 20
6793.15
 30
0.000000
  1
2903
  0
POINT
  5
8318
  8
DEFPOINTS
 62
     0
 10
2218.1364468254101
 20
6662.1552002808576
 30
0.0
  0
POINT
  5
8319
  8
DEFPOINTS
 62
     0
 10
5121.1364468254096
 20
4077.6012776727362
 30
0.0
  0
POINT
  5
831A
  8
DEFPOINTS
 62
     0
 10
5121.1364468254096
 20
6933.6459197766526
 30
0.0
  0
ENDBLK
  5
81E7
  8
0
  0
BLOCK
  8
0
  2
*D15
 70
     1
 10
0.0
 20
0.0
 30
0.0
  3
*D15
  1

  0
LINE
  5
831B
  8
3
 62
     0
 10
3183.1364468254101
 20
6097.6012776727366
 30
0.0
 11
1565.117060648387
 21
6097.6012776727366
 31
0.0
  0
LINE
  5
831C
  8
3
 62
     0
 10
2058.4251428303942
 20
5167.6012776727366
 30
0.0
 11
1565.117060648387
 21
5167.6012776727366
 31
0.0
  0
LINE
  5
831D
  8
3
 62
     0
 10
1615.117060648387
 20
5997.6012776727366
 30
0.0
 11
1615.117060648387
 21
5267.6012776727384
 31
0.0
  0
INSERT
  5
831E
  8
3
 62
     0
  2
_OPEN
 10
1615.117060648387
 20
6097.6012776727366
 30
0.0
 41
100.0
 42
100.0
 43
100.0
 50
90.0
  0
INSERT
  5
831F
  8
3
 62
     0
  2
_OPEN
 10
1615.117060648387
 20
5167.6012776727366
 30
0.0
 41
100.0
 42
100.0
 43
100.0
 50
270.0
  0
TEXT
  8
3
  40
150
  5
8366
  62
0
  72
0
  71
0
 10
1190.12
 20
5330.57
 30
0.000000
  1
930
  0
POINT
  5
8321
  8
DEFPOINTS
 62
     0
 10
3208.1364468254101
 20
6097.6012776727366
 30
0.0
  0
POINT
  5
8322
  8
DEFPOINTS
 62
     0
 10
2083.4251428303942
 20
5167.6012776727366
 30
0.0
  0
POINT
  5
8323
  8
DEFPOINTS
 62
     0
 10
1615.117060648387
 20
5167.6012776727366
 30
0.0
  0
ENDBLK
  5
81F3
  8
0
  0
BLOCK
  8
0
  2
*D16
 70
     1
 10
0.0
 20
0.0
 30
0.0
  3
*D16
  1

  0
LINE
  5
8324
  8
3
 62
     0
 10
2346.1364468254101
 20
3927.6012776727371
 30
0.0
 11
1565.1170606483861
 21
3927.6012776727371
 31
0.0
  0
LINE
  5
8325
  8
3
 62
     0
 10
1615.1170606483861
 20
5067.6012776727366
 30
0.0
 11
1615.1170606483861
 21
4027.6012776727371
 31
0.0
  0
INSERT
  5
8326
  8
3
 62
     0
  2
_OPEN
 10
1615.1170606483861
 20
5167.6012776727366
 30
0.0
 41
100.0
 42
100.0
 43
100.0
 50
90.0
  0
INSERT
  5
8327
  8
3
 62
     0
  2
_OPEN
 10
1615.1170606483861
 20
3927.6012776727371
 30
0.0
 41
100.0
 42
100.0
 43
100.0
 50
270.0
  0
TEXT
  8
3
  40
150
  5
8367
  62
0
  72
0
  71
0
 10
1190.12
 20
4282.10
 30
0.000000
  1
1240
  0
POINT
  5
8329
  8
DEFPOINTS
 62
     0
 10
2083.4251428303942
 20
5167.6012776727366
 30
0.0
  0
POINT
  5
832A
  8
DEFPOINTS
 62
     0
 10
2371.1364468254101
 20
3927.6012776727371
 30
0.0
  0
POINT
  5
832B
  8
DEFPOINTS
 62
     0
 10
1615.1170606483861
 20
3927.6012776727371
 30
0.0
  0
ENDBLK
  5
81FF
  8
0
  0
BLOCK
  8
0
  2
*D17
 70
     1
 10
0.0
 20
0.0
 30
0.0
  3
*D17
  1

  0
LINE
  5
832C
  8
3
 62
     0
 10
3183.1364468254101
 20
6097.6012776727366
 30
0.0
 11
1268.2976001845459
 21
6097.6012776727366
 31
0.0
  0
LINE
  5
832D
  8
3
 62
     0
 10
2346.1364468254101
 20
3927.6012776727371
 30
0.0
 11
1268.297600184545
 21
3927.6012776727371
 31
0.0
  0
LINE
  5
832E
  8
3
 62
     0
 10
1318.297600184545
 20
5997.6012776727366
 30
0.0
 11
1318.297600184545
 21
4027.6012776727371
 31
0.0
  0
INSERT
  5
832F
  8
3
 62
     0
  2
_OPEN
 10
1318.297600184545
 20
6097.6012776727366
 30
0.0
 41
100.0
 42
100.0
 43
100.0
 50
90.0
  0
INSERT
  5
8330
  8
3
 62
     0
  2
_OPEN
 10
1318.297600184545
 20
3927.6012776727371
 30
0.0
 41
100.0
 42
100.0
 43
100.0
 50
270.0
  0
TEXT
  8
3
  40
150
  5
8368
  62
0
  72
0
  71
0
 10
893.298
 20
4747.10
 30
0.000000
  1
2170
  0
POINT
  5
8332
  8
DEFPOINTS
 62
     0
 10
3208.1364468254101
 20
6097.6012776727366
 30
0.0
  0
POINT
  5
8333
  8
DEFPOINTS
 62
     0
 10
2371.1364468254101
 20
3927.6012776727371
 30
0.0
  0
POINT
  5
8334
  8
DEFPOINTS
 62
     0
 10
1318.297600184545
 20
3927.6012776727371
 30
0.0
  0
ENDBLK
  5
8252
  8
0
  0
BLOCK
  8
0
  2
*D18
 70
     1
 10
0.0
 20
0.0
 30
0.0
  3
*D18
  1

  0
LINE
  5
8335
  8
3
 62
     0
 10
2371.1364468254101
 20
3902.6012776727371
 30
0.0
 11
2371.1364468254101
 21
3576.8531634140159
 31
0.0
  0
LINE
  5
8336
  8
3
 62
     0
 10
3221.1364468254101
 20
3902.6012776727371
 30
0.0
 11
3221.1364468254101
 21
3576.8531634140159
 31
0.0
  0
LINE
  5
8337
  8
3
 62
     0
 10
2471.1364468254101
 20
3626.8531634140172
 30
0.0
 11
3121.1364468254101
 21
3626.8531634140172
 31
0.0
  0
INSERT
  5
8338
  8
3
 62
     0
  2
_OPEN
 10
2371.1364468254101
 20
3626.8531634140172
 30
0.0
 41
100.0
 42
100.0
 43
100.0
 50
180.0
  0
INSERT
  5
8339
  8
3
 62
     0
  2
_OPEN
 10
3221.1364468254101
 20
3626.8531634140172
 30
0.0
 41
100.0
 42
100.0
 43
100.0
  0
TEXT
  8
3
  40
150
  5
8369
  62
0
  72
0
  71
0
 10
2496.14
 20
3486.35
 30
0.000000
  1
850
  0
POINT
  5
833B
  8
DEFPOINTS
 62
     0
 10
2371.1364468254101
 20
3927.6012776727371
 30
0.0
  0
POINT
  5
833C
  8
DEFPOINTS
 62
     0
 10
3221.1364468254101
 20
3927.6012776727371
 30
0.0
  0
POINT
  5
833D
  8
DEFPOINTS
 62
     0
 10
3221.1364468254101
 20
3626.8531634140172
 30
0.0
  0
ENDBLK
  5
825F
  8
0
  0
BLOCK
  8
0
  2
*D19
 70
     1
 10
0.0
 20
0.0
 30
0.0
  3
*D19
  1

  0
LINE
  5
833E
  8
3
 62
     0
 10
3221.1364468254101
 20
3902.6012776727371
 30
0.0
 11
3221.1364468254101
 21
3576.8531634140159
 31
0.0
  0
LINE
  5
833F
  8
3
 62
     0
 10
5121.1364468254096
 20
3902.6012776727371
 30
0.0
 11
5121.1364468254096
 21
3576.8531634140159
 31
0.0
  0
LINE
  5
8340
  8
3
 62
     0
 10
3321.1364468254101
 20
3626.8531634140172
 30
0.0
 11
5021.1364468254096
 21
3626.8531634140172
 31
0.0
  0
INSERT
  5
8341
  8
3
 62
     0
  2
_OPEN
 10
3221.1364468254101
 20
3626.8531634140172
 30
0.0
 41
100.0
 42
100.0
 43
100.0
 50
180.0
  0
INSERT
  5
8342
  8
3
 62
     0
  2
_OPEN
 10
5121.1364468254096
 20
3626.8531634140172
 30
0.0
 41
100.0
 42
100.0
 43
100.0
  0
TEXT
  8
3
  40
150
  5
836A
  62
0
  72
0
  71
0
 10
3871.14
 20
3486.35
 30
0.000000
  1
1900
  0
POINT
  5
8344
  8
DEFPOINTS
 62
     0
 10
3221.1364468254101
 20
3927.6012776727371
 30
0.0
  0
POINT
  5
8345
  8
DEFPOINTS
 62
     0
 10
5121.1364468254096
 20
3927.6012776727371
 30
0.0
  0
POINT
  5
8346
  8
DEFPOINTS
 62
     0
 10
5121.1364468254096
 20
3626.8531634140172
 30
0.0
  0
ENDBLK
  5
826C
  8
0
  0
BLOCK
  8
0
  2
*D20
 70
     1
 10
0.0
 20
0.0
 30
0.0
  3
*D20
  1

  0
LINE
  5
8347
  8
3
 62
     0
 10
7006.1065743220861
 20
3902.6012776727371
 30
0.0
 11
7006.1065743220861
 21
3576.8531634140159
 31
0.0
  0
LINE
  5
8348
  8
3
 62
     0
 10
7797.1065743220861
 20
3902.6012776727371
 30
0.0
 11
7797.1065743220861
 21
3576.8531634140159
 31
0.0
  0
LINE
  5
8349
  8
3
 62
     0
 10
7106.106574322087
 20
3626.8531634140172
 30
0.0
 11
7697.1065743220861
 21
3626.8531634140172
 31
0.0
  0
INSERT
  5
834A
  8
3
 62
     0
  2
_OPEN
 10
7006.1065743220861
 20
3626.8531634140172
 30
0.0
 41
100.0
 42
100.0
 43
100.0
 50
180.0
  0
INSERT
  5
834B
  8
3
 62
     0
  2
_OPEN
 10
7797.1065743220861
 20
3626.8531634140172
 30
0.0
 41
100.0
 42
100.0
 43
100.0
  0
TEXT
  8
3
  40
150
  5
836B
  62
0
  72
0
  71
0
 10
7101.61
 20
3486.35
 30
0.000000
  1
791
  0
POINT
  5
834D
  8
DEFPOINTS
 62
     0
 10
7006.1065743220861
 20
3927.6012776727371
 30
0.0
  0
POINT
  5
834E
  8
DEFPOINTS
 62
     0
 10
7797.1065743220861
 20
3927.6012776727371
 30
0.0
  0
POINT
  5
834F
  8
DEFPOINTS
 62
     0
 10
7797.1065743220861
 20
3626.8531634140172
 30
0.0
  0
ENDBLK
  5
8279
  8
0
  0
BLOCK
  8
0
  2
*D21
 70
     1
 10
0.0
 20
0.0
 30
0.0
  3
*D21
  1

  0
LINE
  5
8350
  8
3
 62
     0
 10
7797.1065743220861
 20
3902.6012776727371
 30
0.0
 11
7797.1065743220861
 21
3576.8531634140159
 31
0.0
  0
LINE
  5
8351
  8
3
 62
     0
 10
8406.1065743220861
 20
3902.6012776727371
 30
0.0
 11
8406.1065743220861
 21
3576.8531634140159
 31
0.0
  0
LINE
  5
8352
  8
3
 62
     0
 10
7897.1065743220861
 20
3626.8531634140172
 30
0.0
 11
8306.1065743220861
 21
3626.8531634140172
 31
0.0
  0
INSERT
  5
8353
  8
3
 62
     0
  2
_OPEN
 10
7797.1065743220861
 20
3626.8531634140172
 30
0.0
 41
100.0
 42
100.0
 43
100.0
 50
180.0
  0
INSERT
  5
8354
  8
3
 62
     0
  2
_OPEN
 10
8406.1065743220861
 20
3626.8531634140172
 30
0.0
 41
100.0
 42
100.0
 43
100.0
  0
TEXT
  8
3
  40
150
  5
836C
  62
0
  72
0
  71
0
 10
7801.61
 20
3486.35
 30
0.000000
  1
609
  0
POINT
  5
8356
  8
DEFPOINTS
 62
     0
 10
7797.1065743220861
 20
3927.6012776727371
 30
0.0
  0
POINT
  5
8357
  8
DEFPOINTS
 62
     0
 10
8406.1065743220861
 20
3927.6012776727371
 30
0.0
  0
POINT
  5
8358
  8
DEFPOINTS
 62
     0
 10
8406.1065743220861
 20
3626.8531634140172
 30
0.0
  0
ENDBLK
  5
8288
  8
0
  0
ENDSEC
  0
SECTION
  2
ENTITIES
  0
INSERT
  5
7BCA
  8
0
  2
YA_N
 10
6.0
 20
5.0
 30
0.0
  0
INSERT
  5
7BCC
  8
0
  2
YA_N
 10
6.0
 20
5.0
 30
0.0
  0
LINE
  5
7BCE
  8
2
 10
3221.1364468254101
 20
10228.13102630544
 30
0.0
 11
3221.1364468254101
 21
8516.4043795536727
 31
0.0
  0
LINE
  5
7BCF
  8
1
 10
3208.1364468254101
 20
6097.6012776727366
 30
0.0
 11
4766.1364468254096
 21
6097.6012776727366
 31
0.0
  0
LINE
  5
7BD0
  8
1
 10
3262.1364468254101
 20
6097.6012776727366
 30
0.0
 11
3262.1364468254101
 21
5988.5050223961152
 31
0.0
  0
ARC
  5
7BD1
  8
1
 10
3323.1364468254101
 20
5269.6012776727366
 30
0.0
 40
1309.0
 50
270.0
 51
354.84585959754338
  0
ARC
  5
7BD2
  8
1
 10
3323.1364468254101
 20
5065.6012776727366
 30
0.0
 40
1105.0
 50
179.14442036456981
 51
270.0
  0
ARC
  5
7BD3
  8
1
 10
3135.6364468254101
 20
5082.1012776727366
 30
0.0
 40
917.5
 50
90.0
 51
174.6529621965137
  0
ARC
  5
7BD4
  8
1
 10
3135.6364468254101
 20
5252.8012776727373
 30
0.0
 40
746.49999999999989
 50
80.24372338188337
 51
90.0
  0
LINE
  5
7BD5
  8
1
 10
4712.1364468254096
 20
6097.6012776727366
 30
0.0
 11
4628.2503001231235
 21
5167.6012776727366
 31
0.0
  0
LINE
  5
7BD6
  8
1
 10
2371.1364468254101
 20
3927.6012776727371
 30
0.0
 11
5121.1364468254096
 21
3927.6012776727371
 31
0.0
  0
LINE
  5
7BD7
  8
1
 10
2371.1364468254101
 20
4077.6012776727362
 30
0.0
 11
5121.1364468254096
 21
4077.6012776727362
 31
0.0
  0
LINE
  5
7BD8
  8
1
 10
2371.1364468254101
 20
4077.6012776727362
 30
0.0
 11
2371.1364468254101
 21
3927.6012776727371
 31
0.0
  0
LINE
  5
7BD9
  8
1
 10
5121.1364468254096
 20
4077.6012776727362
 30
0.0
 11
5121.1364468254096
 21
3927.6012776727371
 31
0.0
  0
LINE
  5
7BDA
  8
1
 10
3262.1364468254101
 20
6047.6012776727357
 30
0.0
 11
4707.6264389381904
 21
6047.6012776727357
 31
0.0
  0
LINE
  5
7BDB
  8
2
 10
6777.622405367998
 20
5167.6012776727366
 30
0.0
 11
8587.1314212589477
 21
5167.6012776727366
 31
0.0
  0
LINE
  5
7BDC
  8
2
 10
7797.1065743220861
 20
6310.9722856519702
 30
0.0
 11
7797.1065743220861
 21
3927.6012776727371
 31
0.0
  0
LINE
  5
7BDD
  8
1
 10
7006.1065743220861
 20
4077.6012776727362
 30
0.0
 11
8406.1065743220861
 21
4077.6012776727362
 31
0.0
  0
LINE
  5
7BDE
  8
1
 10
7006.1065743220861
 20
3927.6012776727371
 30
0.0
 11
8406.1065743220861
 21
3927.6012776727371
 31
0.0
  0
LINE
  5
7BDF
  8
1
 10
7217.106574322087
 20
6097.6012776727366
 30
0.0
 11
8377.1065743220861
 21
6097.6012776727366
 31
0.0
  0
LINE
  5
7BE0
  8
1
 10
7267.1065743220861
 20
6047.6012776727357
 30
0.0
 11
8327.1065743220843
 21
6047.6012776727357
 31
0.0
  0
LINE
  5
7BE1
  8
2
 10
2083.4251428303942
 20
5167.6012776727366
 30
0.0
 11
4724.0460539775067
 21
5167.6012776727366
 31
0.0
  0
LINE
  5
7BE2
  8
1
 10
4628.2503001231216
 20
5167.6012776727366
 30
0.0
 11
4626.8436650376416
 21
5152.0066809374848
 31
0.0
  0
ARC
  5
7BE3
  8
1
 10
3135.6364468254101
 20
5082.1012776727366
 30
0.0
 40
917.5
 50
174.6529621965137
 51
180.0
  0
LINE
  5
7BE4
  8
2
 10
4821.1364468254096
 20
4526.4726796550312
 30
0.0
 11
4821.1364468254096
 21
3990.8735235307631
 31
0.0
  0
LINE
  5
7BE5
  8
2
 10
4602.5510898528082
 20
4312.6012776727357
 30
0.0
 11
5073.9555431009567
 21
4312.6012776727357
 31
0.0
  0
LINE
  5
7BE6
  8
2
 10
6808.3373948611106
 20
4312.6012776727357
 30
0.0
 11
7721.4530683466219
 21
4312.6012776727357
 31
0.0
  0
CIRCLE
  5
7BE7
  8
1
 10
3221.1364468254101
 20
5167.6012776727366
 30
0.0
 40
700.0
  0
CIRCLE
  5
7BE8
  8
1
 10
3221.1364468254101
 20
5167.6012776727366
 30
0.0
 40
750.0
  0
LINE
  5
7BE9
  8
1
 10
8327.1065743220843
 20
4467.6012776727366
 30
0.0
 11
8431.1065743220861
 21
4467.6012776727366
 31
0.0
  0
LINE
  5
7BEA
  8
1
 10
8431.1065743220861
 20
5917.6012776727366
 30
0.0
 11
8431.1065743220861
 21
4417.6012776727357
 31
0.0
  0
LINE
  5
7BEB
  8
1
 10
4983.1364468254114
 20
4202.6037824434798
 30
0.0
 11
4973.5073929356577
 21
4212.1555471439206
 31
0.0
  0
LINE
  5
7BEC
  8
1
 10
4659.1364468254096
 20
4202.6037824434798
 30
0.0
 11
4668.7655007151634
 21
4212.1555471439206
 31
0.0
  0
LINE
  5
7BED
  8
1
 10
4983.1364468254114
 20
4132.6012776727357
 30
0.0
 11
4983.1364468254114
 21
4202.6037824434798
 31
0.0
  0
LINE
  5
7BEE
  8
1
 10
5071.9621389075091
 20
4132.6012776727357
 30
0.0
 11
4904.4747664036586
 21
4132.6012776727357
 31
0.0
  0
ARC
  5
7BEF
  8
1
 10
4821.1364468254096
 20
4312.6012776727357
 30
0.0
 40
182.5
 50
285.78279193357162
 51
254.2172080664283
  0
LINE
  5
7BF0
  8
1
 10
4771.4980446680447
 20
4136.9815776636988
 30
0.0
 11
4870.7748489827763
 21
4136.9815776636988
 31
0.0
  0
LINE
  5
7BF1
  8
1
 10
4659.1364468254096
 20
4132.6012776727357
 30
0.0
 11
4659.1364468254096
 21
4202.6037824434807
 31
0.0
  0
LINE
  5
7BF2
  8
1
 10
4659.1364468254096
 20
4132.6012776727357
 30
0.0
 11
4719.1364468254114
 21
4132.6012776727357
 31
0.0
  0
CIRCLE
  5
7BF3
  8
1
 10
3221.1364468254101
 20
5167.6012776727366
 30
0.0
 40
250.0
  0
CIRCLE
  5
7BF4
  8
1
 10
4821.1364468254096
 20
4312.6012776727357
 30
0.0
 40
106.0
  0
ARC
  5
7BF5
  8
1
 10
3221.1364468254101
 20
5167.6012776727366
 30
0.0
 40
380.0
 50
56.821170030304138
 51
246.94096412820579
  0
ARC
  5
7BF6
  8
1
 10
4821.1364468254096
 20
4312.6012776727357
 30
0.0
 40
220.0
 50
246.94096412820579
 51
56.82117003030416
  0
LINE
  5
7BF7
  8
1
 10
3429.0929716937949
 20
5485.6485756720522
 30
0.0
 11
4941.5323296439492
 21
4496.7339238828663
 31
0.0
  0
LINE
  5
7BF8
  8
1
 10
3356.092646130815
 20
5378.0456272501006
 30
0.0
 11
4878.3578753309021
 21
4401.8296818935396
 31
0.0
  0
LINE
  5
7BF9
  8
1
 10
3121.1845394959109
 20
4938.4515095707484
 30
0.0
 11
4778.7568381177016
 21
4215.441775997494
 31
0.0
  0
LINE
  5
7BFA
  8
1
 10
3072.2982817385541
 20
4817.9626061651688
 30
0.0
 11
4734.9669828277556
 21
4110.1788889051959
 31
0.0
  0
LINE
  5
7BFB
  8
1
 10
5081.1364468254123
 20
4077.6012776727362
 30
0.0
 11
5071.9621389075091
 21
4132.6012776727357
 31
0.0
  0
LINE
  5
7BFC
  8
1
 10
4904.4747664036586
 20
4132.6012776727357
 30
0.0
 11
4904.4747664036586
 21
4123.1249331111349
 31
0.0
  0
LINE
  5
7BFD
  8
1
 10
4904.4747664036586
 20
4123.1249331111349
 30
0.0
 11
4821.1236659378847
 21
4123.1249331111349
 31
0.0
  0
LINE
  5
7BFE
  8
1
 10
4561.1364468254096
 20
4077.6012776727362
 30
0.0
 11
4570.3107547433137
 21
4132.6012776727357
 31
0.0
  0
LINE
  5
7BFF
  8
1
 10
4570.3107547433137
 20
4132.6012776727357
 30
0.0
 11
4737.7981272471616
 21
4132.6012776727357
 31
0.0
  0
LINE
  5
7C00
  8
1
 10
4737.7981272471616
 20
4123.1249331111349
 30
0.0
 11
4821.1492277129364
 21
4123.1249331111349
 31
0.0
  0
LINE
  5
7C01
  8
1
 10
4737.7981272471616
 20
4132.6012776727357
 30
0.0
 11
4737.7981272471616
 21
4123.1249331111349
 31
0.0
  0
LINE
  5
7C02
  8
1
 10
6997.4065743220863
 20
5247.6012776727357
 30
0.0
 11
6997.4065743220863
 21
5087.6012776727357
 31
0.0
  0
LINE
  5
7C03
  8
1
 10
6897.4065743220863
 20
5417.6012776727366
 30
0.0
 11
6975.3065743220859
 21
5417.6012776727366
 31
0.0
  0
LINE
  5
7C04
  8
1
 10
6897.4065743220863
 20
4917.6012776727366
 30
0.0
 11
6975.3065743220859
 21
4917.6012776727366
 31
0.0
  0
LINE
  5
7C05
  8
1
 10
6897.4065743220863
 20
5417.6012776727366
 30
0.0
 11
6897.4065743220863
 21
4917.6012776727366
 31
0.0
  0
LINE
  5
7C06
  8
1
 10
6975.3065743220859
 20
5417.6012776727366
 30
0.0
 11
6975.3065743220859
 21
4917.6012776727366
 31
0.0
  0
LINE
  5
7C07
  8
1
 10
6975.3065743220859
 20
5247.6012776727357
 30
0.0
 11
6997.4065743220863
 21
5247.6012776727357
 31
0.0
  0
LINE
  5
7C08
  8
1
 10
6975.3065743220859
 20
5087.6012776727357
 30
0.0
 11
6997.4065743220863
 21
5087.6012776727357
 31
0.0
  0
LINE
  5
7C09
  8
1
 10
6897.4065743220863
 20
4418.6012776727366
 30
0.0
 11
6975.3065743220859
 21
4418.6012776727366
 31
0.0
  0
LINE
  5
7C0A
  8
1
 10
6897.4065743220863
 20
4206.6012776727366
 30
0.0
 11
6975.3065743220859
 21
4206.6012776727366
 31
0.0
  0
LINE
  5
7C0B
  8
1
 10
6990.4065743220863
 20
4372.6012776727366
 30
0.0
 11
6990.4065743220863
 21
4252.6012776727366
 31
0.0
  0
LINE
  5
7C0C
  8
1
 10
6975.3065743220859
 20
4372.6012776727357
 30
0.0
 11
6990.4065743220863
 21
4372.6012776727366
 31
0.0
  0
LINE
  5
7C0D
  8
1
 10
6975.3065743220859
 20
4252.6012776727366
 30
0.0
 11
6990.4065743220863
 21
4252.6012776727366
 31
0.0
  0
LINE
  5
7C0E
  8
1
 10
6827.1065743220861
 20
4092.6012776727371
 30
0.0
 11
7047.4065743220863
 21
4092.6012776727371
 31
0.0
  0
LINE
  5
7C0F
  8
1
 10
6827.1065743220861
 20
5547.6012776727357
 30
0.0
 11
7047.4065743220863
 21
5547.6012776727357
 31
0.0
  0
LINE
  5
7C10
  8
1
 10
6827.1065743220861
 20
5547.6012776727357
 30
0.0
 11
6827.1065743220861
 21
4092.6012776727371
 31
0.0
  0
LINE
  5
7C11
  8
1
 10
7047.4065743220863
 20
5547.6012776727357
 30
0.0
 11
7047.4065743220863
 21
4092.6012776727371
 31
0.0
  0
LINE
  5
7C12
  8
1
 10
6997.4065743220863
 20
5210.1012776727366
 30
0.0
 11
7267.1065743220861
 21
5210.1012776727366
 31
0.0
  0
LINE
  5
7C13
  8
1
 10
6997.4065743220863
 20
5125.1012776727366
 30
0.0
 11
7267.1065743220861
 21
5125.1012776727366
 31
0.0
  0
LINE
  5
7C1A
  8
1
 10
7006.1065743220861
 20
4077.6012776727362
 30
0.0
 11
7006.1065743220861
 21
3927.6012776727371
 31
0.0
  0
LINE
  5
7C1B
  8
1
 10
8406.1065743220879
 20
4077.6012776727362
 30
0.0
 11
8406.1065743220861
 21
3927.6012776727371
 31
0.0
  0
LINE
  5
7C20
  8
1
 10
7267.1065743220861
 20
6097.6012776727366
 30
0.0
 11
7267.1065743220861
 21
4495.1012776727366
 31
0.0
  0
LINE
  5
7C21
  8
1
 10
8327.1065743220843
 20
6097.6012776727366
 30
0.0
 11
8327.1065743220843
 21
4077.6012776727362
 31
0.0
  0
POINT
  5
7C22
  8
1
 10
7797.1065743220861
 20
6511.5417112412197
 30
0.0
  0
INSERT
  5
7C23
  8
0
  6
BYBLOCK
 62
     2
  2
YA_N
 10
5372.4018783245183
 20
-226.14356067562309
 30
0.0
 41
90.0
 42
90.0
 43
90.0
 50
210.0117675348119
  0
LINE
  5
7C28
  8
1
 10
6897.4065743220863
 20
4418.6012776727366
 30
0.0
 11
6897.4065743220863
 21
4206.6012776727366
 31
0.0
  0
LINE
  5
7C29
  8
1
 10
6975.3065743220859
 20
4418.6012776727366
 30
0.0
 11
6975.3065743220859
 21
4206.6012776727366
 31
0.0
  0
LINE
  5
7C2A
  8
2
 10
2168.4654695575809
 20
9486.4043795536745
 30
0.0
 11
5307.2272306145569
 21
9486.4043795536745
 31
0.0
  0
LINE
  5
7C2B
  8
1
 10
2371.1364468254101
 20
10095.404379553671
 30
0.0
 11
2521.1364468254101
 21
10095.404379553671
 31
0.0
  0
LINE
  5
7C2C
  8
1
 10
2371.1364468254101
 20
8695.4043795536727
 30
0.0
 11
5121.1364468254096
 21
8695.4043795536727
 31
0.0
  0
LINE
  5
7C2D
  8
1
 10
5121.1364468254096
 20
9795.4043795536745
 30
0.0
 11
5121.1364468254096
 21
8695.4043795536727
 31
0.0
  0
LINE
  5
7C2E
  8
1
 10
2371.1364468254101
 20
10095.404379553671
 30
0.0
 11
2371.1364468254101
 21
10016.404379553671
 31
0.0
  0
LINE
  5
7C2F
  8
2
 10
3221.1364468254101
 20
6225.8392282167806
 30
0.0
 11
3221.1364468254101
 21
3927.6012776727371
 31
0.0
  0
LINE
  5
7C30
  8
1
 10
4071.1364468254101
 20
10095.404379553671
 30
0.0
 11
4071.1364468254101
 21
10016.404379553671
 31
0.0
  0
LINE
  5
7C31
  8
1
 10
4712.1364468254096
 20
9795.4043795536727
 30
0.0
 11
5121.1364468254096
 21
9795.4043795536727
 31
0.0
  0
LINE
  5
7C32
  8
1
 10
2218.1364468254101
 20
10016.404379553671
 30
0.0
 11
2218.1364468254101
 21
8956.4043795536727
 31
0.0
  0
LINE
  5
7C33
  8
1
 10
4712.1364468254096
 20
10016.404379553671
 30
0.0
 11
4712.1364468254096
 21
8956.4043795536745
 31
0.0
  0
LINE
  5
7C34
  8
1
 10
2218.1364468254101
 20
10016.404379553671
 30
0.0
 11
4712.1364468254096
 21
10016.404379553671
 31
0.0
  0
LINE
  5
7C35
  8
1
 10
2218.1364468254101
 20
8956.4043795536745
 30
0.0
 11
4712.1364468254096
 21
8956.4043795536727
 31
0.0
  0
LINE
  5
7C36
  8
1
 10
3262.1364468254101
 20
10016.404379553671
 30
0.0
 11
3262.1364468254101
 21
8956.4043795536727
 31
0.0
  0
LINE
  5
7C37
  8
1
 10
4712.1364468254096
 20
10016.404379553671
 30
0.0
 11
3262.1364468254101
 21
8956.4043795536727
 31
0.0
  0
LINE
  5
7C38
  8
1
 10
3262.1364468254101
 20
10016.404379553671
 30
0.0
 11
4712.1364468254096
 21
8956.4043795536727
 31
0.0
  0
LINE
  5
7C39
  8
1
 10
2371.1364468254101
 20
8956.4043795536745
 30
0.0
 11
2371.1364468254101
 21
8695.4043795536727
 31
0.0
  0
LINE
  5
7C3A
  8
1
 10
2471.1364468254101
 20
10116.404379553671
 30
0.0
 11
3971.1364468254101
 21
10116.404379553671
 31
0.0
  0
LINE
  5
7C3B
  8
1
 10
3921.1364468254101
 20
10116.404379553671
 30
0.0
 11
3921.1364468254101
 21
10016.404379553671
 31
0.0
  0
LINE
  5
7C3C
  8
1
 10
2521.1364468254101
 20
10116.404379553671
 30
0.0
 11
2521.1364468254101
 21
10016.404379553671
 31
0.0
  0
LINE
  5
7C3D
  8
1
 10
3921.1364468254101
 20
10095.404379553671
 30
0.0
 11
4071.1364468254101
 21
10095.404379553671
 31
0.0
  0
DIMENSION
  5
7C3E
  8
3
  2
*D2
 10
7267.1065743220861
 20
6310.7232283784242
 30
0.0
 11
7797.1065743220861
 21
6310.7232283784242
 31
0.0
 70
   128
 13
8327.1065743220843
 23
6047.6012776727357
 33
0.0
 14
7267.1065743220861
 24
6047.6012776727357
 34
0.0
1001
ACAD
1000
DSTYLE
1002
{
1070
   287
1070
     3
1070
    40
1040
50.0
1070
   143
1040
0.039
1070
   172
1070
     1
1070
   271
1070
     0
1070
   279
1070
     0
1070
   288
1070
     1
1002
}
  0
DIMENSION
  5
7C3F
  8
3
  2
*D3
 10
7797.1065743220861
 20
6769.6623862869474
 30
0.0
 11
8114.1065743220861
 21
6969.6623862869474
 31
0.0
 70
     0
 13
8431.1065743220861
 23
5917.6012776727366
 33
0.0
 14
7797.1065743220861
 24
6511.5417112412197
 34
0.0
1001
ACAD
1000
DSTYLE
1002
{
1070
   288
1070
     1
1070
   172
1070
     1
1070
    40
1040
50.0
1070
   271
1070
     0
1070
   143
1040
0.039
1002
}
  0
DIMENSION
  5
7C40
  8
3
  2
*D4
 10
6827.1065743220861
 20
6769.6623862869474
 30
0.0
 11
7312.1065743220861
 21
7019.6623862869474
 31
0.0
 70
     0
  1
MAX\P1030
 13
7797.1065743220861
 23
6511.5417112412197
 33
0.0
 14
6827.1065743220861
 24
5547.6012776727357
 34
0.0
1001
ACAD
1000
DSTYLE
1002
{
1070
   287
1070
     3
1070
    40
1040
50.0
1070
   143
1040
0.039
1070
   172
1070
     1
1070
   271
1070
     0
1070
   279
1070
     0
1070
   288
1070
     1
1002
}
  0
LINE
  5
7C41
  8
1
 10
8327.1065743220843
 20
5867.6012776727357
 30
0.0
 11
8431.1065743220861
 21
5867.6012776727357
 31
0.0
  0
DIMENSION
  5
7C42
  8
3
  2
*D5
 10
8819.6587956304811
 20
4467.6012776727366
 30
0.0
 11
8694.6587956304811
 21
5167.6012776727366
 31
0.0
 70
     0
 13
8431.1065743220861
 23
5867.6012776727357
 33
0.0
 14
8431.1065743220861
 24
4467.6012776727366
 34
0.0
 50
90.0
1001
ACAD
1000
DSTYLE
1002
{
1070
   287
1070
     3
1070
     3
1000
φ<>
1070
    40
1040
50.0
1070
   143
1040
0.039
1070
   172
1070
     1
1070
   271
1070
     0
1070
   279
1070
     0
1070
   288
1070
     1
1002
}
  0
LINE
  5
7C46
  8
2
 10
4821.1364468254096
 20
8514.8192489548801
 30
0.0
 11
4821.1364468254096
 21
9400.1275242423944
 31
0.0
  0
LINE
  5
7C47
  8
1
 10
3263.6364468254101
 20
8686.7043795536738
 30
0.0
 11
3263.6364468254101
 21
8956.4043795536745
 31
0.0
  0
LINE
  5
7C48
  8
1
 10
3178.6364468254101
 20
8686.7043795536738
 30
0.0
 11
3178.6364468254101
 21
8956.4043795536727
 31
0.0
  0
LINE
  5
7C49
  8
1
 10
4778.6364468254096
 20
8679.7043795536738
 30
0.0
 11
4778.6364468254096
 21
8779.6043795536716
 31
0.0
  0
LINE
  5
7C4A
  8
1
 10
4863.6364468254096
 20
8679.7043795536738
 30
0.0
 11
4863.6364468254114
 21
8779.6043795536716
 31
0.0
  0
LINE
  5
7C4B
  8
1
 10
2841.1364468254101
 20
8516.4043795536727
 30
0.0
 11
5041.1364468254114
 21
8516.4043795536727
 31
0.0
  0
LINE
  5
7C4C
  8
1
 10
2841.1364468254101
 20
8736.7043795536756
 30
0.0
 11
5041.1364468254114
 21
8736.7043795536756
 31
0.0
  0
LINE
  5
7C4D
  8
1
 10
4761.1364468254096
 20
8679.7043795536738
 30
0.0
 11
4881.1364468254114
 21
8679.7043795536738
 31
0.0
  0
LINE
  5
7C4E
  8
1
 10
4715.1364468254096
 20
8586.7043795536738
 30
0.0
 11
4927.1364468254114
 21
8586.7043795536738
 31
0.0
  0
LINE
  5
7C4F
  8
1
 10
4715.1364468254096
 20
8664.6043795536734
 30
0.0
 11
4927.1364468254114
 21
8664.6043795536698
 31
0.0
  0
LINE
  5
7C50
  8
1
 10
5041.1364468254114
 20
8516.4043795536727
 30
0.0
 11
5041.1364468254114
 21
8736.7043795536756
 31
0.0
  0
LINE
  5
7C51
  8
1
 10
4881.1364468254114
 20
8664.6043795536698
 30
0.0
 11
4881.1364468254114
 21
8679.7043795536738
 31
0.0
  0
LINE
  5
7C52
  8
1
 10
4927.1364468254114
 20
8586.7043795536738
 30
0.0
 11
4927.1364468254114
 21
8664.6043795536698
 31
0.0
  0
LINE
  5
7C53
  8
1
 10
4761.1364468254096
 20
8664.6043795536698
 30
0.0
 11
4761.1364468254096
 21
8679.7043795536738
 31
0.0
  0
LINE
  5
7C54
  8
1
 10
4715.1364468254096
 20
8586.7043795536738
 30
0.0
 11
4715.1364468254096
 21
8664.6043795536698
 31
0.0
  0
LINE
  5
7C55
  8
1
 10
2971.1364468254101
 20
8586.7043795536738
 30
0.0
 11
3471.1364468254101
 21
8586.7043795536738
 31
0.0
  0
LINE
  5
7C56
  8
1
 10
2971.1364468254101
 20
8664.6043795536734
 30
0.0
 11
3471.1364468254101
 21
8664.6043795536734
 31
0.0
  0
LINE
  5
7C57
  8
1
 10
3141.1364468254101
 20
8664.6043795536734
 30
0.0
 11
3141.1364468254101
 21
8686.7043795536738
 31
0.0
  0
LINE
  5
7C58
  8
1
 10
3301.1364468254101
 20
8664.6043795536734
 30
0.0
 11
3301.1364468254101
 21
8686.7043795536738
 31
0.0
  0
LINE
  5
7C59
  8
1
 10
3471.1364468254101
 20
8586.7043795536738
 30
0.0
 11
3471.1364468254101
 21
8664.6043795536734
 31
0.0
  0
LINE
  5
7C5A
  8
1
 10
3141.1364468254101
 20
8686.7043795536738
 30
0.0
 11
3301.1364468254101
 21
8686.7043795536738
 31
0.0
  0
LINE
  5
7C5B
  8
1
 10
2841.1364468254101
 20
8516.4043795536727
 30
0.0
 11
2841.1364468254101
 21
8736.7043795536702
 31
0.0
  0
LINE
  5
7C5C
  8
1
 10
2971.1364468254101
 20
8586.7043795536738
 30
0.0
 11
2971.1364468254101
 21
8664.6043795536734
 31
0.0
  0
LINE
  5
7C5D
  8
1
 10
4715.1364468254123
 20
9379.1043795536734
 30
0.0
 11
5003.6364468254096
 21
9379.1043795536716
 31
0.0
  0
LINE
  5
7C5E
  8
1
 10
4638.6364468254114
 20
8779.6043795536752
 30
0.0
 11
5003.6364468254096
 21
8779.6043795536716
 31
0.0
  0
LINE
  5
7C5F
  8
1
 10
5003.6364468254096
 20
8779.6043795536716
 30
0.0
 11
5003.6364468254096
 21
9379.1043795536716
 31
0.0
  0
LINE
  5
7C60
  8
1
 10
4638.6364468254114
 20
8779.6043795536752
 30
0.0
 11
4638.6364468254114
 21
8956.4043795536709
 31
0.0
  0
DIMENSION
  5
7C61
  8
3
  2
*D6
 10
4071.1364468254101
 20
10459.920610029551
 30
0.0
 11
3221.1364468254101
 21
10584.920610029551
 31
0.0
 70
     0
 13
2371.1364468254101
 23
10095.404379553671
 33
0.0
 14
4071.1364468254101
 24
10095.404379553671
 34
0.0
1001
ACAD
1000
DSTYLE
1002
{
1070
   287
1070
     3
1070
    40
1040
50.0
1070
   143
1040
0.039
1070
   172
1070
     1
1070
   271
1070
     0
1070
   279
1070
     0
1070
   288
1070
     1
1002
}
  0
DIMENSION
  5
7C62
  8
3
  2
*D7
 10
5121.1364468254096
 20
10459.920610029551
 30
0.0
 11
4596.1364468254096
 21
10584.920610029551
 31
0.0
 70
     0
 13
4071.1364468254101
 23
10095.404379553671
 33
0.0
 14
5121.1364468254096
 24
9795.4043795536727
 34
0.0
1001
ACAD
1000
DSTYLE
1002
{
1070
   287
1070
     3
1070
    40
1040
50.0
1070
   143
1040
0.039
1070
   172
1070
     1
1070
   271
1070
     0
1070
   279
1070
     0
1070
   288
1070
     1
1002
}
  0
DIMENSION
  5
7C63
  8
3
  2
*D8
 10
5585.5410858731047
 20
8695.4043795536727
 30
0.0
 11
5460.5410858731038
 21
9245.4043795536745
 31
0.0
 70
     0
 13
5121.1364468254096
 23
9795.4043795536727
 33
0.0
 14
5121.1364468254096
 24
8695.4043795536727
 34
0.0
 50
90.0
1001
ACAD
1000
DSTYLE
1002
{
1070
   287
1070
     3
1070
    40
1040
50.0
1070
   143
1040
0.039
1070
   172
1070
     1
1070
   271
1070
     0
1070
   279
1070
     0
1070
   288
1070
     1
1002
}
  0
DIMENSION
  5
7C64
  8
3
  2
*D9
 10
5121.1364468254096
 20
8111.1195318552464
 30
0.0
 11
3746.1364468254101
 21
8236.1195318552454
 31
0.0
 70
     0
 13
2371.1364468254101
 23
8695.4043795536727
 33
0.0
 14
5121.1364468254096
 24
8695.4043795536727
 34
0.0
1001
ACAD
1000
DSTYLE
1002
{
1070
   287
1070
     3
1070
    40
1040
50.0
1070
   143
1040
0.039
1070
   172
1070
     1
1070
   271
1070
     0
1070
   279
1070
     0
1070
   288
1070
     1
1002
}
  0
DIMENSION
  5
7C65
  8
3
  2
*D10
 10
3262.1364468254101
 20
6272.1971448324293
 30
0.0
 11
3987.1364468254101
 21
6397.1971448324293
 31
0.0
 70
     0
 13
4712.1364468254096
 23
6097.6012776727366
 33
0.0
 14
3262.1364468254101
 24
6097.6012776727366
 34
0.0
1001
ACAD
1000
DSTYLE
1002
{
1070
   287
1070
     3
1070
    40
1040
50.0
1070
   143
1040
0.039
1070
   172
1070
     1
1070
   271
1070
     0
1070
   279
1070
     0
1070
   288
1070
     1
1002
}
  0
DIMENSION
  5
7C66
  8
3
  2
*D11
 10
3221.1364468254101
 20
6612.1552002808594
 30
0.0
 11
2719.6364468254101
 21
6737.1552002808594
 31
0.0
 70
     0
 13
2218.1364468254101
 23
5082.1012776727366
 33
0.0
 14
3221.1364468254101
 24
6225.8392282167806
 34
0.0
1001
ACAD
1000
DSTYLE
1002
{
1070
   287
1070
     3
1070
    40
1040
50.0
1070
   143
1040
0.039
1070
   172
1070
     1
1070
   271
1070
     0
1070
   279
1070
     0
1070
   288
1070
     1
1002
}
  0
DIMENSION
  5
7C67
  8
3
  2
*D12
 10
4712.1364468254096
 20
6612.1552002808594
 30
0.0
 11
3966.636446825411
 21
6737.1552002808594
 31
0.0
 70
     0
 13
3221.1364468254101
 23
6225.8392282167806
 33
0.0
 14
4712.1364468254096
 24
6097.6012776727366
 34
0.0
1001
ACAD
1000
DSTYLE
1002
{
1070
   287
1070
     3
1070
    40
1040
50.0
1070
   143
1040
0.039
1070
   172
1070
     1
1070
   271
1070
     0
1070
   279
1070
     0
1070
   288
1070
     1
1002
}
  0
LINE
  5
7E65
  8
4
 10
9250.0
 20
2500.0
 30
0.0
 11
9250.0
 21
1500.0
 31
0.0
  0
LINE
  5
7E66
  8
4
 10
5750.0
 20
2500.0
 30
0.0
 11
5750.0
 21
1500.0
 31
0.0
  0
LINE
  5
7E67
  8
4
 10
3250.0
 20
2500.0
 30
0.0
 11
3250.0
 21
1500.0
 31
0.0
  0
LINE
  5
7E6A
  8
4
 10
3250.0
 20
1500.0
 30
0.0
 11
9250.0
 21
1500.0
 31
0.0
  0
LINE
  5
7E6B
  8
4
 10
3250.0
 20
2000.0
 30
0.0
 11
9250.0
 21
2000.0
 31
0.0
  0
TEXT
  5
7E6C
  8
4
 10
3442.5104042345079
 20
2157.7151293330639
 30
0.0
 40
250.0
  1
機器名称
  0
TEXT
  5
7E6D
  8
4
 10
3431.2905301239871
 20
1608.225783660054
 30
0.0
 40
250.0
  1
機器型番
  0
TEXT
  5
7E6E
  8
4
 10
5896.1731153926157
 20
2115.108183556546
 30
0.0
 40
200.0
  1
ミツヤリミットロードファン
  0
TEXT
  5
7E6F
  8
4
 10
5933.2724779274031
 20
1585.797921399716
 30
0.0
 40
250.0
  1
LL#9-4
  0
TEXT
  5
7E71
  8
4
 10
3943.0806871990808
 20
11917.14420666257
 30
0.0
 40
269.99999999999989
  1
床置ベット
  0
TEXT
  5
7E72
  8
4
 10
1581.7415341960741
 20
12669.47492041572
 30
0.0
 40
306.0
  1
ベルト駆動式片吸込両持リミットロードファン
  0
LINE
  5
7E73
  8
4
 10
1250.0
 20
12347.043771324021
 30
0.0
 11
9250.0
 21
12347.043771324021
 31
0.0
  0
LINE
  5
7E74
  8
4
 10
1250.0
 20
13347.043771324021
 30
0.0
 11
9250.0
 21
13347.043771324021
 31
0.0
  0
LINE
  5
7E75
  8
4
 10
3250.0
 20
2500.0
 30
0.0
 11
9250.0
 21
2500.0
 31
0.0
  0
LINE
  5
7E76
  8
4
 10
1250.0
 20
13347.043771324021
 30
0.0
 11
1250.0
 21
12347.043771324021
 31
0.0
  0
TEXT
  5
7E77
  8
4
 10
1763.7865259855689
 20
11911.59738773171
 30
0.0
 40
269.99999999999989
  1
左回転上向
  0
TEXT
  5
7E78
  8
4
 10
7344.8477962464494
 20
13530.30540747654
 30
0.0
 40
280.0
  1
No.
  0
TEXT
  5
7E79
  8
4
 10
6556.4803130000646
 20
11917.14420666257
 30
0.0
 40
269.99999999999989
  1
縮尺：1/50
  0
LINE
  5
7E7A
  8
4
 10
9250.0
 20
13347.043771324021
 30
0.0
 11
9250.0
 21
12347.043771324021
 31
0.0
  0
LINE
  5
7E7B
  8
4
 10
10500.0
 20
14750.0
 30
0.0
 11
10500.0
 21
14750.0
 31
0.0
  0
LINE
  5
7E7C
  8
4
 10
7203.0871117993229
 20
13406.317915627
 30
0.0
 11
7203.0871117993229
 21
13933.26130774876
 31
0.0
  0
LINE
  5
7E7D
  8
4
 10
7203.0871117993229
 20
13933.26130774876
 30
0.0
 11
9250.0
 21
13933.26130774876
 31
0.0
  0
LINE
  5
7E7E
  8
4
 10
9250.0
 20
13933.26130774876
 30
0.0
 11
9250.0
 21
13406.317915627
 31
0.0
  0
LINE
  5
7E7F
  8
4
 10
9250.0
 20
13406.317915627
 30
0.0
 11
7203.0871117993229
 21
13406.317915627
 31
0.0
  0
LINE
  5
7E80
  8
4
 10
0.0
 20
0.0
 30
0.0
 11
0.0
 21
14750.0
 31
0.0
  0
LINE
  5
7E81
  8
4
 10
0.0
 20
14750.0
 30
0.0
 11
10500.0
 21
14750.0
 31
0.0
  0
LINE
  5
7E82
  8
4
 10
10500.0
 20
14750.0
 30
0.0
 11
10500.0
 21
0.0
 31
0.0
  0
LINE
  5
7E83
  8
4
 10
10500.0
 20
0.0
 30
0.0
 11
0.0
 21
0.0
 31
0.0
  0
DIMENSION
  5
7F03
  8
3
  2
*D13
 10
2013.2878024536701
 20
8695.4043795536727
 30
0.0
 11
2013.287802453669
 21
9370.8270143911559
 31
0.0
 70
   128
 13
2371.1364468254101
 23
10095.404379553671
 33
0.0
 14
2371.1364468254101
 24
8695.4043795536727
 34
0.0
 50
90.0
1001
ACAD
1000
DSTYLE
1002
{
1070
   287
1070
     3
1070
    40
1040
50.0
1070
   143
1040
0.039
1070
   172
1070
     1
1070
   271
1070
     0
1070
   279
1070
     0
1070
   288
1070
     1
1002
}
  0
DIMENSION
  5
81DC
  8
3
  2
*D14
 10
5121.1364468254096
 20
6933.6459197766526
 30
0.0
 11
3836.6891017860471
 21
6933.6459197766526
 31
0.0
 70
   128
 13
2218.1364468254101
 23
6662.1552002808576
 33
0.0
 14
5121.1364468254096
 24
4077.6012776727362
 34
0.0
1001
ACAD
1000
DSTYLE
1002
{
1070
   287
1070
     3
1070
    40
1040
50.0
1070
   143
1040
0.039
1070
   172
1070
     1
1070
   271
1070
     0
1070
   279
1070
     0
1070
   288
1070
     1
1002
}
  0
DIMENSION
  5
81F4
  8
3
  2
*D15
 10
1615.117060648387
 20
5167.6012776727366
 30
0.0
 11
1615.1170606483861
 21
5596.0701894094809
 31
0.0
 70
   128
 13
3208.1364468254101
 23
6097.6012776727366
 33
0.0
 14
2083.4251428303942
 24
5167.6012776727366
 34
0.0
 50
90.0
1001
ACAD
1000
DSTYLE
1002
{
1070
   287
1070
     3
1070
    40
1040
50.0
1070
   143
1040
0.039
1070
   172
1070
     1
1070
   271
1070
     0
1070
   279
1070
     0
1070
   288
1070
     1
1002
}
  0
DIMENSION
  5
8200
  8
3
  2
*D16
 10
1615.1170606483861
 20
3927.6012776727371
 30
0.0
 11
1490.1170606483861
 21
4547.6012776727366
 31
0.0
 70
     0
 13
2083.4251428303942
 23
5167.6012776727366
 33
0.0
 14
2371.1364468254101
 24
3927.6012776727371
 34
0.0
 50
90.0
1001
ACAD
1000
DSTYLE
1002
{
1070
   287
1070
     4
1070
    40
1040
50.0
1070
    75
1070
     1
1070
   143
1040
0.039
1070
   172
1070
     1
1070
   271
1070
     0
1070
   279
1070
     1
1070
   288
1070
     1
1002
}
  0
LINE
  5
8233
  8
1
 10
7090.3065743220886
 20
4495.1012776727366
 30
0.0
 11
7689.8065743220877
 21
4495.1012776727366
 31
0.0
  0
LINE
  5
8234
  8
1
 10
7090.3065743220886
 20
4495.1012776727366
 30
0.0
 11
7090.3065743220841
 21
4130.1012776727366
 31
0.0
  0
LINE
  5
8235
  8
1
 10
7090.3065743220841
 20
4130.1012776727366
 30
0.0
 11
7689.806574322085
 21
4130.1012776727366
 31
0.0
  0
LINE
  5
8236
  8
1
 10
7689.8065743220877
 20
4495.1012776727366
 30
0.0
 11
7689.806574322085
 21
4130.1012776727366
 31
0.0
  0
LINE
  5
8237
  8
1
 10
6990.4065743220863
 20
4270.1012776727357
 30
0.0
 11
7090.3065743220859
 21
4270.1012776727357
 31
0.0
  0
LINE
  5
8238
  8
1
 10
6990.4065743220863
 20
4355.1012776727357
 30
0.0
 11
7090.3065743220859
 21
4355.1012776727357
 31
0.0
  0
LINE
  5
823A
  8
1
 10
6975.3065743220859
 20
4372.6012776727357
 30
0.0
 11
6990.4065743220863
 21
4372.6012776727357
 31
0.0
  0
LINE
  5
823B
  8
1
 10
6975.3065743220859
 20
4252.6012776727366
 30
0.0
 11
6990.4065743220863
 21
4252.6012776727366
 31
0.0
  0
LINE
  5
823D
  8
1
 10
6975.3065743220859
 20
4372.6012776727357
 30
0.0
 11
6975.3065743220859
 21
4252.6012776727366
 31
0.0
  0
LINE
  5
823E
  8
1
 10
7267.1065743220861
 20
4130.1012776727366
 30
0.0
 11
7267.1065743220861
 21
4077.6012776727362
 31
0.0
  0
DIMENSION
  5
8253
  8
3
  2
*D17
 10
1318.297600184545
 20
3927.6012776727371
 30
0.0
 11
1193.2976001845441
 21
5012.6012776727384
 31
0.0
 70
     0
 13
3208.1364468254101
 23
6097.6012776727366
 33
0.0
 14
2371.1364468254101
 24
3927.6012776727371
 34
0.0
 50
90.0
1001
ACAD
1000
DSTYLE
1002
{
1070
   287
1070
     3
1070
    40
1040
50.0
1070
   143
1040
0.039
1070
   172
1070
     1
1070
   271
1070
     0
1070
   279
1070
     0
1002
}
  0
DIMENSION
  5
8260
  8
3
  2
*D18
 10
3221.1364468254101
 20
3626.8531634140172
 30
0.0
 11
2796.136446825411
 21
3751.8531634140172
 31
0.0
 70
     0
 13
2371.1364468254101
 23
3927.6012776727371
 33
0.0
 14
3221.1364468254101
 24
3927.6012776727371
 34
0.0
1001
ACAD
1000
DSTYLE
1002
{
1070
   287
1070
     3
1070
    40
1040
50.0
1070
   143
1040
0.039
1070
   172
1070
     1
1070
   271
1070
     0
1070
   279
1070
     0
1002
}
  0
DIMENSION
  5
826D
  8
3
  2
*D19
 10
5121.1364468254096
 20
3626.8531634140172
 30
0.0
 11
4171.1364468254096
 21
3751.8531634140172
 31
0.0
 70
     0
 13
3221.1364468254101
 23
3927.6012776727371
 33
0.0
 14
5121.1364468254096
 24
3927.6012776727371
 34
0.0
1001
ACAD
1000
DSTYLE
1002
{
1070
   287
1070
     3
1070
    40
1040
50.0
1070
   143
1040
0.039
1070
   172
1070
     1
1070
   271
1070
     0
1070
   279
1070
     0
1002
}
  0
DIMENSION
  5
827A
  8
3
  2
*D20
 10
7797.1065743220861
 20
3626.8531634140172
 30
0.0
 11
7401.6065743220861
 21
3751.8531634140172
 31
0.0
 70
     0
 13
7006.1065743220861
 23
3927.6012776727371
 33
0.0
 14
7797.1065743220861
 24
3927.6012776727371
 34
0.0
1001
ACAD
1000
DSTYLE
1002
{
1070
   287
1070
     3
1070
    40
1040
50.0
1070
   143
1040
0.039
1070
   172
1070
     1
1070
   271
1070
     0
1070
   279
1070
     0
1002
}
  0
DIMENSION
  5
8289
  8
3
  2
*D21
 10
8406.1065743220861
 20
3626.8531634140172
 30
0.0
 11
8101.606574322087
 21
3751.8531634140172
 31
0.0
 70
     0
 13
7797.1065743220861
 23
3927.6012776727371
 33
0.0
 14
8406.1065743220861
 24
3927.6012776727371
 34
0.0
1001
ACAD
1000
DSTYLE
1002
{
1070
   287
1070
     3
1070
    40
1040
50.0
1070
   143
1040
0.039
1070
   172
1070
     1
1070
   271
1070
     0
1070
   279
1070
     0
1002
}
  0
ENDSEC
  0
EOF
