  0
SECTION
  2
HEADER
  9
$ACADVER
  1
AC1009
  9
$INSBASE
 10
0.0
 20
0.0
 30
0.0
  9
$EXTMIN
 10
14908.380604749411
 20
10664.00276265347
 30
0.0
  9
$EXTMAX
 10
25408.380604749411
 20
25414.002762653479
 30
0.0
  9
$LIMMIN
 10
0.0
 20
0.0
  9
$LIMMAX
 10
420.0
 20
297.0
  9
$ORTHOMODE
 70
     0
  9
$REGENMODE
 70
     1
  9
$FILLMODE
 70
     1
  9
$QTEXTMODE
 70
     0
  9
$MIRRTEXT
 70
     0
  9
$DRAGMODE
 70
     2
  9
$LTSCALE
 40
150.0
  9
$OSMODE
 70
    37
  9
$ATTMODE
 70
     1
  9
$TEXTSIZE
 40
90.0
  9
$TRACEWID
 40
0.05
  9
$TEXTSTYLE
  7
STANDARD
  9
$CLAYER
  8
FUTO
  9
$CELTYPE
  6
BYLAYER
  9
$CECOLOR
 62
   256
  9
$DIMSCALE
 40
30.0
  9
$DIMASZ
 40
2.0
  9
$DIMEXO
 40
1.0
  9
$DIMDLI
 40
10.0
  9
$DIMRND
 40
0.0
  9
$DIMDLE
 40
0.0
  9
$DIMEXE
 40
1.0
  9
$DIMTP
 40
0.0
  9
$DIMTM
 40
0.0
  9
$DIMTXT
 40
3.0
  9
$DIMCEN
 40
0.0
  9
$DIMTSZ
 40
0.0
  9
$DIMTOL
 70
     0
  9
$DIMLIM
 70
     0
  9
$DIMTIH
 70
     0
  9
$DIMTOH
 70
     0
  9
$DIMSE1
 70
     0
  9
$DIMSE2
 70
     0
  9
$DIMTAD
 70
     1
  9
$DIMZIN
 70
     8
  9
$DIMBLK
  1
OPEN30
  9
$DIMASO
 70
     1
  9
$DIMSHO
 70
     1
  9
$DIMPOST
  1

  9
$DIMAPOST
  1

  9
$DIMALT
 70
     0
  9
$DIMALTD
 70
     2
  9
$DIMALTF
 40
0.03937
  9
$DIMLFAC
 40
1.0
  9
$DIMTOFL
 70
     1
  9
$DIMTVP
 40
0.0
  9
$DIMTIX
 70
     0
  9
$DIMSOXD
 70
     0
  9
$DIMSAH
 70
     0
  9
$DIMBLK1
  1

  9
$DIMBLK2
  1

  9
$DIMSTYLE
  2
MATSU
  9
$DIMCLRD
 70
     2
  9
$DIMCLRE
 70
     2
  9
$DIMCLRT
 70
     2
  9
$DIMTFAC
 40
1.0
  9
$DIMGAP
 40
0.5
  9
$LUNITS
 70
     2
  9
$LUPREC
 70
     1
  9
$SKETCHINC
 40
0.1
  9
$FILLETRAD
 40
0.0
  9
$AUNITS
 70
     0
  9
$AUPREC
 70
     0
  9
$MENU
  1
SSMENU
  9
$ELEVATION
 40
0.0
  9
$PELEVATION
 40
0.0
  9
$THICKNESS
 40
0.0
  9
$LIMCHECK
 70
     0
  9
$BLIPMODE
 70
     0
  9
$CHAMFERA
 40
20.0
  9
$CHAMFERB
 40
20.0
  9
$SKPOLY
 70
     0
  9
$TDCREATE
 40
2450714.9573032409
  9
$TDUPDATE
 40
2454953.6491890848
  9
$TDINDWG
 40
1.4484376852
  9
$TDUSRTIMER
 40
1.4484376852
  9
$USRTIMER
 70
     1
  9
$ANGBASE
 50
0.0
  9
$ANGDIR
 70
     0
  9
$PDMODE
 70
     0
  9
$PDSIZE
 40
1.0
  9
$PLINEWID
 40
0.0
  9
$COORDS
 70
     1
  9
$SPLFRAME
 70
     0
  9
$SPLINETYPE
 70
     6
  9
$SPLINESEGS
 70
     8
  9
$ATTDIA
 70
     0
  9
$ATTREQ
 70
     1
  9
$HANDLING
 70
 10241
  9
$HANDSEED
  5
57AF
  9
$SURFTAB1
 70
     6
  9
$SURFTAB2
 70
     6
  9
$SURFTYPE
 70
     6
  9
$SURFU
 70
     6
  9
$SURFV
 70
     6
  9
$UCSNAME
  2

  9
$UCSORG
 10
0.0
 20
0.0
 30
0.0
  9
$UCSXDIR
 10
1.0
 20
0.0
 30
0.0
  9
$UCSYDIR
 10
0.0
 20
1.0
 30
0.0
  9
$PUCSNAME
  2

  9
$PUCSORG
 10
0.0
 20
0.0
 30
0.0
  9
$PUCSXDIR
 10
1.0
 20
0.0
 30
0.0
  9
$PUCSYDIR
 10
0.0
 20
1.0
 30
0.0
  9
$USERI1
 70
     0
  9
$USERI2
 70
     0
  9
$USERI3
 70
     0
  9
$USERI4
 70
     0
  9
$USERI5
 70
     0
  9
$USERR1
 40
0.0
  9
$USERR2
 40
0.0
  9
$USERR3
 40
0.0
  9
$USERR4
 40
0.0
  9
$USERR5
 40
0.0
  9
$WORLDVIEW
 70
     1
  9
$SHADEDGE
 70
     3
  9
$SHADEDIF
 70
    70
  9
$TILEMODE
 70
     1
  9
$MAXACTVP
 70
    16
  9
$PLIMCHECK
 70
     0
  9
$PEXTMIN
 10
0.0
 20
0.0
 30
0.0
  9
$PEXTMAX
 10
12.561051004636781
 20
9.0
 30
0.0
  9
$PLIMMIN
 10
0.0
 20
0.0
  9
$PLIMMAX
 10
12.0
 20
9.0
  9
$UNITMODE
 70
     0
  9
$VISRETAIN
 70
     0
  9
$PLINEGEN
 70
     0
  9
$PSLTSCALE
 70
     0
  0
ENDSEC
  0
SECTION
  2
TABLES
  0
TABLE
  2
VPORT
 70
     2
  0
VPORT
  2
*ACTIVE
 70
     0
 10
0.0
 20
0.0
 11
1.0
 21
1.0
 12
24669.532377078842
 22
12327.878599432781
 13
0.0
 23
0.0
 14
5.0
 24
5.0
 15
0.0
 25
0.0
 16
0.0
 26
0.0
 36
1.0
 17
0.0
 27
0.0
 37
0.0
 40
4397.0122685860088
 41
3.1666666666666661
 42
50.0
 43
0.0
 44
0.0
 50
0.0
 51
0.0
 71
     0
 72
   500
 73
     1
 74
     0
 75
     0
 76
     0
 77
     0
 78
     0
  0
ENDTAB
  0
TABLE
  2
LTYPE
 70
     4
  0
LTYPE
  2
CONTINUOUS
 70
     0
  3
実線
 72
    65
 73
     0
 40
0.0
  0
LTYPE
  2
CENTER
 70
     0
  3
____ _ ____ _ ____ _ ____ _ ____ _ ____ _ ____ 
 72
    65
 73
     4
 40
2.0
 49
1.25
 49
-0.25
 49
0.25
 49
-0.25
  0
LTYPE
  2
HIDDEN
 70
     0
  3
__ __ __ __ __ __ __ __ __ __ __ __ __ __ __ __
 72
    65
 73
     2
 40
0.375
 49
0.25
 49
-0.125
  0
LTYPE
  2
PHANTOM
 70
     0
  3
______  __  __  ______  __  __  ______  __  __ 
 72
    65
 73
     6
 40
2.5
 49
1.25
 49
-0.25
 49
0.25
 49
-0.25
 49
0.25
 49
-0.25
  0
ENDTAB
  0
TABLE
  2
LAYER
 70
     9
  0
LAYER
  2
0
 70
     0
 62
     7
  6
CONTINUOUS
  0
LAYER
  2
FUTO
 70
     0
 62
     4
  6
CONTINUOUS
  0
LAYER
  2
CT
 70
     0
 62
     3
  6
CENTER
  0
LAYER
  2
HOSO
 70
     0
 62
     7
  6
CONTINUOUS
  0
LAYER
  2
KL
 70
     0
 62
     7
  6
HIDDEN
  0
LAYER
  2
SL
 70
     0
 62
     1
  6
PHANTOM
  0
LAYER
  2
SP
 70
     0
 62
     2
  6
CONTINUOUS
  0
LAYER
  2
DEFPOINTS
 70
     0
 62
     7
  6
CONTINUOUS
  0
LAYER
  2
4
 70
     0
 62
     7
  6
CONTINUOUS
  0
ENDTAB
  0
TABLE
  2
STYLE
 70
     2
  0
STYLE
  2
STANDARD
 70
     0
 40
0.0
 41
1.0
 50
15.0
 71
     0
 42
90.0
  3
SIMPLEX
  4
EXTFONT
  0
STYLE
  2
SUNPOU
 70
     0
 40
0.0
 41
1.0
 50
15.0
 71
     0
 42
5.0
  3
simplex.shx
  4
extfont.shx
  0
ENDTAB
  0
TABLE
  2
VIEW
 70
     0
  0
ENDTAB
  0
TABLE
  2
UCS
 70
     0
  0
ENDTAB
  0
TABLE
  2
APPID
 70
     1
  0
APPID
  2
ACAD
 70
     0
  0
ENDTAB
  0
TABLE
  2
DIMSTYLE
 70
     1
  0
DIMSTYLE
  2
MATSU
 70
     0
  3

  4

  5
CLOSED
  6

  7

 40
10.0
 41
2.0
 42
1.0
 43
10.0
 44
1.0
 45
0.0
 46
0.0
 47
0.0
 48
0.0
140
3.0
141
0.0
142
0.0
143
0.03937
144
1.0
145
0.0
146
1.0
147
0.5
 71
     0
 72
     0
 73
     0
 74
     0
 75
     0
 76
     0
 77
     1
 78
     8
170
     0
171
     2
172
     1
173
     0
174
     0
175
     0
176
   256
177
   256
178
   256
  0
ENDTAB
  0
ENDSEC
  0
SECTION
  2
BLOCKS
  0
BLOCK
  8
0
  2
$MODEL_SPACE
 70
     0
 10
0.0
 20
0.0
 30
0.0
  3
$MODEL_SPACE
  1

  0
ENDBLK
  5
7
  8
0
  0
BLOCK
 67
     1
  8
0
  2
$PAPER_SPACE
 70
     0
 10
0.0
 20
0.0
 30
0.0
  3
$PAPER_SPACE
  1

  0
ENDBLK
  5
A
 67
     1
  8
0
  0
BLOCK
  8
0
  2
K150-75
 70
     0
 10
0.0
 20
0.0
 30
0.0
  3
K150-75
  1

  0
LINE
  5
3EA
  8
FUTO
 10
-75.000000000000455
 20
0.0
 30
0.0
 11
0.0000000000004547
 21
0.0
 31
0.0
  0
LINE
  5
3EB
  8
FUTO
 10
-64.848622970991073
 20
12.677032629465881
 30
0.0
 11
-3.651377029009836
 21
7.3229673705341147
 31
0.0
  0
LINE
  5
3EC
  8
FUTO
 10
-75.0
 20
150.0
 30
0.0
 11
0.0
 21
150.0000000000004
 31
0.0
  0
LINE
  5
3ED
  8
FUTO
 10
-64.848622970991073
 20
137.32296737053409
 30
0.0
 11
-3.651377029009836
 21
142.6770326294658
 31
0.0
  0
LINE
  5
3EE
  8
FUTO
 10
-68.500000000000455
 20
133.33818857816729
 30
0.0
 11
-68.5
 21
16.661811421832681
 31
0.0
  0
ARC
  5
3EF
  8
FUTO
 10
-64.500000000000455
 20
16.661811421832681
 30
0.0
 40
4.0
 50
180.0
 51
264.99999999999989
  0
LINE
  5
3F0
  8
FUTO
 10
-75.0
 20
150.0
 30
0.0
 11
-75.000000000000455
 21
0.0
 31
0.0
  0
ARC
  5
3F1
  8
FUTO
 10
-64.500000000000455
 20
133.33818857816729
 30
0.0
 40
4.0
 50
95.000000000000057
 51
180.0
  0
ARC
  5
3F2
  8
FUTO
 10
-4.0000000000004539
 20
3.3381885781673191
 30
0.0
 40
4.0
 50
0.0
 51
84.999999999999801
  0
LINE
  5
3F3
  8
FUTO
 10
0.0
 20
-0.0000000000004547
 30
0.0
 11
-0.0000000000004547
 21
3.3381885781673191
 31
0.0
  0
LINE
  5
3F4
  8
FUTO
 10
0.0
 20
150.0000000000004
 30
0.0
 11
-0.0000000000004547
 21
146.6618114218326
 31
0.0
  0
ARC
  5
3F5
  8
FUTO
 10
-4.0000000000004539
 20
146.6618114218326
 30
0.0
 40
4.0
 50
275.00000000000011
 51
0.0
  0
ENDBLK
  5
3F7
  8
0
  0
BLOCK
  8
0
  2
まっすぐの矢印
 70
     0
 10
0.0
 20
0.0
 30
0.0
  3
まっすぐの矢印
  1

  0
LINE
  5
599
  8
SP
 10
13.01863531255526
 20
-41.453946163708451
 30
0.0
 11
13.01863531255526
 21
-93.495696758840026
 31
0.0
  0
LINE
  5
59A
  8
SP
 10
13.01863531255526
 20
-93.495696758840026
 30
0.0
 11
-13.01863531255526
 21
-93.495696758840026
 31
0.0
  0
LINE
  5
59B
  8
SP
 10
-13.01863531255526
 20
-93.495696758840026
 30
0.0
 11
-13.01863531255526
 21
-41.453946163708451
 31
0.0
  0
LINE
  5
59C
  8
SP
 10
-13.01863531255526
 20
-41.453946163708451
 30
0.0
 11
-32.06015471115802
 21
-41.453946163708451
 31
0.0
  0
LINE
  5
59D
  8
SP
 10
-32.06015471115802
 20
-41.453946163708451
 30
0.0
 11
0.0
 21
0.0
 31
0.0
  0
LINE
  5
59E
  8
SP
 10
0.0
 20
0.0
 30
0.0
 11
32.06015471115802
 21
-41.453946163708451
 31
0.0
  0
LINE
  5
59F
  8
SP
 10
32.06015471115802
 20
-41.453946163708451
 30
0.0
 11
13.01863531255526
 21
-41.453946163708451
 31
0.0
  0
ENDBLK
  5
5A1
  8
0
  0
BLOCK
  8
0
  2
左回転矢印
 70
     0
 10
0.0
 20
0.0
 30
0.0
  3
左回転矢印
  1

  0
LINE
  5
57C
  8
SP
 10
43.930449171819873
 20
24.859487323637271
 30
0.0
 11
38.511878498580238
 21
44.478978865188871
 31
0.0
  0
LINE
  5
57D
  8
SP
 10
38.511878498580238
 20
44.478978865188871
 30
0.0
 11
0.0
 21
0.0
 31
0.0
  0
LINE
  5
57E
  8
SP
 10
0.0
 20
0.0
 30
0.0
 11
52.57968174421967
 21
-6.4575435924972453
 31
0.0
  0
LINE
  5
57F
  8
SP
 10
52.57968174421967
 20
-6.4575435924972453
 30
0.0
 11
48.189912989015284
 21
9.436875093862227
 31
0.0
  0
ARC
  5
580
  8
SP
 10
93.893649146691985
 20
-156.0466295121104
 30
0.0
 40
171.67883327727239
 50
67.881388989212894
 51
105.4392492786835
  0
LINE
  5
581
  8
SP
 10
158.53505643637521
 20
2.997736182040398
 30
0.0
 11
164.55945966006539
 21
17.820238190756751
 31
0.0
  0
ARC
  5
582
  8
SP
 10
93.893649146692198
 20
-156.04662951211091
 30
0.0
 40
187.67883327727299
 50
67.881388989212994
 51
105.4392492786836
  0
ENDBLK
  5
584
  8
0
  0
BLOCK
  8
0
  2
*D3
 70
     1
 10
0.0
 20
0.0
 30
0.0
  3
*D3
  1

  0
LINE
  5
56C5
  8
FUTO
 62
     2
 10
18723.649169846569
 20
14662.170169113189
 30
0.0
 11
18723.649169846569
 21
14449.95246019192
 31
0.0
  0
LINE
  5
56C6
  8
FUTO
 62
     2
 10
20273.649169846569
 20
14614.252320156949
 30
0.0
 11
20273.649169846569
 21
14449.95246019192
 31
0.0
  0
LINE
  5
56C7
  8
FUTO
 62
     2
 10
18783.649169846569
 20
14479.95246019192
 30
0.0
 11
20213.649169846569
 21
14479.95246019192
 31
0.0
  0
INSERT
  5
56C8
  8
FUTO
 62
     2
  2
_OPEN30
 10
18723.649169846569
 20
14479.95246019192
 30
0.0
 41
60.0
 42
60.0
 43
60.0
 50
180.0
  0
INSERT
  5
56C9
  8
FUTO
 62
     2
  2
_OPEN30
 10
20273.649169846569
 20
14479.95246019192
 30
0.0
 41
60.0
 42
60.0
 43
60.0
  0
TEXT
  8
0
  40
90
  5
5796
  62
2
  72
0
  71
0
 10
19318.6
 20
14380.7
 30
0.000000
  1
1550
  7
SUNPOU
  0
POINT
  5
56CB
  8
DEFPOINTS
 62
     0
 10
18723.649169846569
 20
14692.1701691132
 30
0.0
  0
POINT
  5
56CC
  8
DEFPOINTS
 62
     0
 10
20273.649169846569
 20
14644.252320156949
 30
0.0
  0
POINT
  5
56CD
  8
DEFPOINTS
 62
     0
 10
20273.649169846569
 20
14479.95246019192
 30
0.0
  0
ENDBLK
  5
3643
  8
0
  0
BLOCK
  8
0
  2
*D4
 70
     1
 10
0.0
 20
0.0
 30
0.0
  3
*D4
  1

  0
LINE
  5
56CE
  8
FUTO
 62
     2
 10
20273.649169846569
 20
14689.252320156949
 30
0.0
 11
20273.649169846569
 21
14267.035143207841
 31
0.0
  0
LINE
  5
56CF
  8
FUTO
 62
     2
 10
17873.649169846569
 20
14689.252320156949
 30
0.0
 11
17873.649169846569
 21
14267.035143207841
 31
0.0
  0
LINE
  5
56D0
  8
FUTO
 62
     2
 10
20213.649169846569
 20
14297.03514320783
 30
0.0
 11
17933.649169846569
 21
14297.03514320783
 31
0.0
  0
INSERT
  5
56D1
  8
FUTO
 62
     2
  2
_OPEN30
 10
20273.649169846569
 20
14297.03514320783
 30
0.0
 41
60.0
 42
60.0
 43
60.0
  0
INSERT
  5
56D2
  8
FUTO
 62
     2
  2
_OPEN30
 10
17873.649169846569
 20
14297.03514320783
 30
0.0
 41
60.0
 42
60.0
 43
60.0
 50
180.0
  0
TEXT
  8
0
  40
90
  5
5797
  62
2
  72
0
  71
0
 10
18893.6
 20
14197.7
 30
0.000000
  1
2400
  7
SUNPOU
  0
POINT
  5
56D4
  8
DEFPOINTS
 62
     0
 10
20273.649169846569
 20
14719.252320156949
 30
0.0
  0
POINT
  5
56D5
  8
DEFPOINTS
 62
     0
 10
17873.649169846569
 20
14719.252320156949
 30
0.0
  0
POINT
  5
56D6
  8
DEFPOINTS
 62
     0
 10
17873.649169846569
 20
14297.03514320783
 30
0.0
  0
ENDBLK
  5
3638
  8
0
  0
BLOCK
  8
0
  2
*D5
 70
     1
 10
0.0
 20
0.0
 30
0.0
  3
*D5
  1

  0
LINE
  5
56D7
  8
FUTO
 62
     2
 10
18723.649169846569
 20
14662.170169113189
 30
0.0
 11
18723.649169846569
 21
14449.95246019192
 31
0.0
  0
LINE
  5
56D8
  8
FUTO
 62
     2
 10
17873.649169846569
 20
14614.252320156949
 30
0.0
 11
17873.649169846569
 21
14449.95246019192
 31
0.0
  0
LINE
  5
56D9
  8
FUTO
 62
     2
 10
18663.649169846569
 20
14479.95246019192
 30
0.0
 11
17933.649169846569
 21
14479.95246019192
 31
0.0
  0
INSERT
  5
56DA
  8
FUTO
 62
     2
  2
_OPEN30
 10
18723.649169846569
 20
14479.95246019192
 30
0.0
 41
60.0
 42
60.0
 43
60.0
  0
INSERT
  5
56DB
  8
FUTO
 62
     2
  2
_OPEN30
 10
17873.649169846569
 20
14479.95246019192
 30
0.0
 41
60.0
 42
60.0
 43
60.0
 50
180.0
  0
TEXT
  8
0
  40
90
  5
5798
  62
2
  72
0
  71
0
 10
18118.6
 20
14380.7
 30
0.000000
  1
850
  7
SUNPOU
  0
POINT
  5
56DD
  8
DEFPOINTS
 62
     0
 10
18723.649169846569
 20
14692.1701691132
 30
0.0
  0
POINT
  5
56DE
  8
DEFPOINTS
 62
     0
 10
17873.649169846569
 20
14644.252320156949
 30
0.0
  0
POINT
  5
56DF
  8
DEFPOINTS
 62
     0
 10
17873.649169846569
 20
14479.95246019192
 30
0.0
  0
ENDBLK
  5
3667
  8
0
  0
BLOCK
  8
0
  2
*D6
 70
     1
 10
0.0
 20
0.0
 30
0.0
  3
*D6
  1

  0
LINE
  5
570C
  8
FUTO
 62
     2
 10
21216.740583052419
 20
14689.252320156949
 30
0.0
 11
21216.740583052419
 21
14271.21839791499
 31
0.0
  0
LINE
  5
570D
  8
FUTO
 62
     2
 10
23416.740583052419
 20
14689.252320156949
 30
0.0
 11
23416.740583052419
 21
14271.21839791499
 31
0.0
  0
LINE
  5
570E
  8
FUTO
 62
     2
 10
21276.740583052419
 20
14301.21839791499
 30
0.0
 11
23356.740583052419
 21
14301.21839791499
 31
0.0
  0
INSERT
  5
570F
  8
FUTO
 62
     2
  2
_OPEN30
 10
21216.740583052419
 20
14301.21839791499
 30
0.0
 41
60.0
 42
60.0
 43
60.0
 50
180.0
  0
INSERT
  5
5710
  8
FUTO
 62
     2
  2
_OPEN30
 10
23416.740583052419
 20
14301.21839791499
 30
0.0
 41
60.0
 42
60.0
 43
60.0
  0
TEXT
  8
0
  40
90
  5
5799
  62
2
  72
0
  71
0
 10
22136.7
 20
14201.9
 30
0.000000
  1
2200
  7
SUNPOU
  0
POINT
  5
5712
  8
DEFPOINTS
 62
     0
 10
21216.740583052419
 20
14719.252320156949
 30
0.0
  0
POINT
  5
5713
  8
DEFPOINTS
 62
     0
 10
23416.740583052419
 20
14719.252320156949
 30
0.0
  0
POINT
  5
5714
  8
DEFPOINTS
 62
     0
 10
23416.740583052419
 20
14301.21839791499
 30
0.0
  0
ENDBLK
  5
34E6
  8
0
  0
BLOCK
  8
0
  2
*D7
 70
     1
 10
0.0
 20
0.0
 30
0.0
  3
*D7
  1

  0
LINE
  5
5715
  8
FUTO
 62
     2
 10
22804.740583052419
 20
14689.252320156949
 30
0.0
 11
22804.740583052419
 21
14452.548839172579
 31
0.0
  0
LINE
  5
5716
  8
FUTO
 62
     2
 10
23416.740583052419
 20
14689.252320156949
 30
0.0
 11
23416.740583052419
 21
14452.548839172579
 31
0.0
  0
LINE
  5
5717
  8
FUTO
 62
     2
 10
22864.740583052419
 20
14482.548839172579
 30
0.0
 11
23356.740583052419
 21
14482.548839172579
 31
0.0
  0
INSERT
  5
5718
  8
FUTO
 62
     2
  2
_OPEN30
 10
22804.740583052419
 20
14482.548839172579
 30
0.0
 41
60.0
 42
60.0
 43
60.0
 50
180.0
  0
INSERT
  5
5719
  8
FUTO
 62
     2
  2
_OPEN30
 10
23416.740583052419
 20
14482.548839172579
 30
0.0
 41
60.0
 42
60.0
 43
60.0
  0
TEXT
  8
0
  40
90
  5
579A
  62
2
  72
0
  71
0
 10
22930.7
 20
14383.2
 30
0.000000
  1
612
  7
SUNPOU
  0
POINT
  5
571B
  8
DEFPOINTS
 62
     0
 10
22804.740583052419
 20
14719.252320156949
 30
0.0
  0
POINT
  5
571C
  8
DEFPOINTS
 62
     0
 10
23416.740583052419
 20
14719.252320156949
 30
0.0
  0
POINT
  5
571D
  8
DEFPOINTS
 62
     0
 10
23416.740583052419
 20
14482.548839172579
 30
0.0
  0
ENDBLK
  5
393A
  8
0
  0
BLOCK
  8
0
  2
*D8
 70
     1
 10
0.0
 20
0.0
 30
0.0
  3
*D8
  1

  0
LINE
  5
571E
  8
FUTO
 62
     2
 10
22804.740583052419
 20
14689.252320156949
 30
0.0
 11
22804.740583052419
 21
14452.55408009518
 31
0.0
  0
LINE
  5
571F
  8
FUTO
 62
     2
 10
21216.740583052419
 20
14689.252320156949
 30
0.0
 11
21216.740583052419
 21
14452.55408009518
 31
0.0
  0
LINE
  5
5720
  8
FUTO
 62
     2
 10
22744.740583052419
 20
14482.55408009518
 30
0.0
 11
21276.740583052419
 21
14482.55408009518
 31
0.0
  0
INSERT
  5
5721
  8
FUTO
 62
     2
  2
_OPEN30
 10
22804.740583052419
 20
14482.55408009518
 30
0.0
 41
60.0
 42
60.0
 43
60.0
  0
INSERT
  5
5722
  8
FUTO
 62
     2
  2
_OPEN30
 10
21216.740583052419
 20
14482.55408009518
 30
0.0
 41
60.0
 42
60.0
 43
60.0
 50
180.0
  0
TEXT
  8
0
  40
90
  5
579B
  62
2
  72
0
  71
0
 10
21830.7
 20
14383.3
 30
0.000000
  1
1588
  7
SUNPOU
  0
POINT
  5
5724
  8
DEFPOINTS
 62
     0
 10
22804.740583052419
 20
14719.252320156949
 30
0.0
  0
POINT
  5
5725
  8
DEFPOINTS
 62
     0
 10
21216.740583052419
 20
14719.252320156949
 30
0.0
  0
POINT
  5
5726
  8
DEFPOINTS
 62
     0
 10
21216.740583052419
 20
14482.55408009518
 30
0.0
  0
ENDBLK
  5
3947
  8
0
  0
BLOCK
  8
0
  2
_CLOSED
 70
     0
 10
0.0
 20
0.0
 30
0.0
  3
_CLOSED
  1

  0
LINE
  5
3BE3
  8
0
  6
BYBLOCK
 62
     0
 10
-1.0
 20
0.1666666666666666
 30
0.0
 11
0.0
 21
0.0
 31
0.0
  0
LINE
  5
3BE4
  8
0
  6
BYBLOCK
 62
     0
 10
0.0
 20
0.0
 30
0.0
 11
-1.0
 21
-0.1666666666666666
 31
0.0
  0
LINE
  5
3BE5
  8
0
  6
BYBLOCK
 62
     0
 10
-1.0
 20
0.1666666666666666
 30
0.0
 11
-1.0
 21
-0.1666666666666666
 31
0.0
  0
ENDBLK
  5
3BE6
  8
0
  0
BLOCK
  8
0
  2
*D10
 70
     1
 10
0.0
 20
0.0
 30
0.0
  3
*D10
  1

  0
LINE
  5
572A
  8
SP
 62
     2
 10
20984.740583052419
 20
17094.252320156949
 30
0.0
 11
20984.740583052419
 21
18032.875074837099
 31
0.0
  0
LINE
  5
572B
  8
SP
 62
     2
 10
22804.740583052419
 20
17895.969807741149
 30
0.0
 11
22804.740583052419
 21
18032.875074837099
 31
0.0
  0
LINE
  5
572C
  8
SP
 62
     2
 10
21044.740583052419
 20
18002.875074837099
 30
0.0
 11
22744.740583052419
 21
18002.875074837099
 31
0.0
  0
INSERT
  5
572D
  8
SP
 62
     2
  2
_OPEN30
 10
20984.740583052419
 20
18002.875074837099
 30
0.0
 41
60.0
 42
60.0
 43
60.0
 50
180.0
  0
INSERT
  5
572E
  8
SP
 62
     2
  2
_OPEN30
 10
22804.740583052419
 20
18002.875074837099
 30
0.0
 41
60.0
 42
60.0
 43
60.0
  0
TEXT
  8
0
  40
90
  5
579C
  62
2
  72
0
  71
0
 10
21714.7
 20
17903.6
 30
0.000000
  1
1820
  7
SUNPOU
  0
POINT
  5
5730
  8
DEFPOINTS
 62
     0
 10
20984.740583052419
 20
17064.252320156938
 30
0.0
  0
POINT
  5
5731
  8
DEFPOINTS
 62
     0
 10
22804.740583052419
 20
17865.969807741149
 30
0.0
  0
POINT
  5
5732
  8
DEFPOINTS
 62
     0
 10
22804.740583052419
 20
18002.875074837099
 30
0.0
  0
ENDBLK
  5
3C57
  8
0
  0
BLOCK
  8
0
  2
*D11
 70
     1
 10
0.0
 20
0.0
 30
0.0
  3
*D11
  1

  0
LINE
  5
56E0
  8
FUTO
 62
     2
 10
23468.740583052419
 20
17384.252320156938
 30
0.0
 11
23834.350444808639
 21
17384.252320156938
 31
0.0
  0
LINE
  5
56E1
  8
FUTO
 62
     2
 10
23468.740583052419
 20
15984.252320156949
 30
0.0
 11
23834.350444808639
 21
15984.252320156949
 31
0.0
  0
LINE
  5
56E2
  8
FUTO
 62
     2
 10
23804.350444808639
 20
17324.252320156938
 30
0.0
 11
23804.350444808639
 21
16044.252320156949
 31
0.0
  0
INSERT
  5
56E3
  8
FUTO
 62
     2
  2
_OPEN30
 10
23804.350444808639
 20
17384.252320156938
 30
0.0
 41
60.0
 42
60.0
 43
60.0
 50
90.0
  0
INSERT
  5
56E4
  8
FUTO
 62
     2
  2
_OPEN30
 10
23804.350444808639
 20
15984.252320156949
 30
0.0
 41
60.0
 42
60.0
 43
60.0
 50
270.0
  0
TEXT
  8
0
  40
90
  5
579D
  62
2
  72
0
  71
0
 10
23564.4
 20
16525.0
 30
0.000000
  1
%%C1400
  7
SUNPOU
  0
POINT
  5
56E6
  8
DEFPOINTS
 62
     0
 10
23438.740583052419
 20
17384.252320156938
 30
0.0
  0
POINT
  5
56E7
  8
DEFPOINTS
 62
     0
 10
23438.740583052419
 20
15984.252320156949
 30
0.0
  0
POINT
  5
56E8
  8
DEFPOINTS
 62
     0
 10
23804.350444808639
 20
15984.252320156949
 30
0.0
  0
ENDBLK
  5
4473
  8
0
  0
BLOCK
  8
0
  2
*D12
 70
     1
 10
0.0
 20
0.0
 30
0.0
  3
*D12
  1

  0
LINE
  5
56E9
  8
FUTO
 62
     2
 10
22804.740583052419
 20
17865.969807741149
 30
0.0
 11
22804.740583052419
 21
18032.875074837099
 31
0.0
  0
LINE
  5
56EA
  8
FUTO
 62
     2
 10
23438.740583052419
 20
17464.252320156938
 30
0.0
 11
23438.740583052419
 21
18032.875074837099
 31
0.0
  0
LINE
  5
56EB
  8
FUTO
 62
     2
 10
22864.740583052419
 20
18002.875074837099
 30
0.0
 11
23378.740583052419
 21
18002.875074837099
 31
0.0
  0
INSERT
  5
56EC
  8
FUTO
 62
     2
  2
_OPEN30
 10
22804.740583052419
 20
18002.875074837099
 30
0.0
 41
60.0
 42
60.0
 43
60.0
 50
180.0
  0
INSERT
  5
56ED
  8
FUTO
 62
     2
  2
_OPEN30
 10
23438.740583052419
 20
18002.875074837099
 30
0.0
 41
60.0
 42
60.0
 43
60.0
  0
TEXT
  8
0
  40
90
  5
579E
  62
2
  72
0
  71
0
 10
22941.7
 20
17903.6
 30
0.000000
  1
634
  7
SUNPOU
  0
POINT
  5
56EF
  8
DEFPOINTS
 62
     0
 10
22804.740583052419
 20
17835.969807741149
 30
0.0
  0
POINT
  5
56F0
  8
DEFPOINTS
 62
     0
 10
23438.740583052419
 20
17434.252320156949
 30
0.0
  0
POINT
  5
56F1
  8
DEFPOINTS
 62
     0
 10
23438.740583052419
 20
18002.875074837099
 30
0.0
  0
ENDBLK
  5
447F
  8
0
  0
BLOCK
  8
0
  2
_OPEN30
 70
     0
 10
0.0
 20
0.0
 30
0.0
  3
_OPEN30
  1

  0
LINE
  5
44D6
  8
FUTO
 62
     0
 10
-1.0
 20
0.26794919
 30
0.0
 11
0.0
 21
0.0
 31
0.0
  0
LINE
  5
44D7
  8
FUTO
 62
     0
 10
0.0
 20
0.0
 30
0.0
 11
-1.0
 21
-0.26794919
 31
0.0
  0
LINE
  5
44D8
  8
FUTO
 62
     0
 10
0.0
 20
0.0
 30
0.0
 11
-1.0
 21
0.0
 31
0.0
  0
ENDBLK
  5
44DA
  8
0
  0
BLOCK
  8
0
  2
*D14
 70
     1
 10
0.0
 20
0.0
 30
0.0
  3
*D14
  1

  0
LINE
  5
573A
  8
FUTO
 62
     2
 10
17843.649169846569
 20
14869.252320156949
 30
0.0
 11
17215.75737079485
 21
14869.252320156949
 31
0.0
  0
LINE
  5
573B
  8
FUTO
 62
     2
 10
17843.649169846569
 20
14719.252320156949
 30
0.0
 11
17215.75737079485
 21
14719.252320156949
 31
0.0
  0
LINE
  5
573C
  8
FUTO
 62
     2
 10
17245.75737079485
 20
14809.252320156949
 30
0.0
 11
17245.75737079485
 21
14779.252320156949
 31
0.0
  0
LINE
  5
573D
  8
FUTO
 62
     2
 10
17245.75737079485
 20
14719.252320156949
 30
0.0
 11
17245.75737079485
 21
14419.252320156949
 31
0.0
  0
INSERT
  5
573E
  8
FUTO
 62
     2
  2
_OPEN30
 10
17245.75737079485
 20
14869.252320156949
 30
0.0
 41
60.0
 42
60.0
 43
60.0
 50
90.0
  0
INSERT
  5
573F
  8
FUTO
 62
     2
  2
_OPEN30
 10
17245.75737079485
 20
14719.252320156949
 30
0.0
 41
60.0
 42
60.0
 43
60.0
 50
270.0
  0
TEXT
  8
0
  40
90
  5
579F
  62
2
  72
0
  71
0
 10
17005.8
 20
14380.0
 30
0.000000
  1
150
  7
SUNPOU
  0
POINT
  5
5741
  8
DEFPOINTS
 62
     0
 10
17873.649169846569
 20
14869.252320156949
 30
0.0
  0
POINT
  5
5742
  8
DEFPOINTS
 62
     0
 10
17873.649169846569
 20
14719.252320156949
 30
0.0
  0
POINT
  5
5743
  8
DEFPOINTS
 62
     0
 10
17245.75737079485
 20
14719.252320156949
 30
0.0
  0
ENDBLK
  5
4591
  8
0
  0
BLOCK
  8
0
  2
*D15
 70
     1
 10
0.0
 20
0.0
 30
0.0
  3
*D15
  1

  0
LINE
  5
5744
  8
FUTO
 62
     2
 10
18723.649169846569
 20
21371.370030952101
 30
0.0
 11
18723.649169846569
 21
21474.93327649538
 31
0.0
  0
LINE
  5
5745
  8
FUTO
 62
     2
 10
20273.649169846569
 20
19845.497453302491
 30
0.0
 11
20273.649169846569
 21
21474.93327649538
 31
0.0
  0
LINE
  5
5746
  8
FUTO
 62
     2
 10
18783.649169846569
 20
21444.93327649538
 30
0.0
 11
20213.649169846569
 21
21444.93327649538
 31
0.0
  0
INSERT
  5
5747
  8
FUTO
 62
     2
  2
_OPEN30
 10
18723.649169846569
 20
21444.93327649538
 30
0.0
 41
60.0
 42
60.0
 43
60.0
 50
180.0
  0
INSERT
  5
5748
  8
FUTO
 62
     2
  2
_OPEN30
 10
20273.649169846569
 20
21444.93327649538
 30
0.0
 41
60.0
 42
60.0
 43
60.0
  0
TEXT
  8
0
  40
90
  5
57A0
  62
2
  72
0
  71
0
 10
19318.6
 20
21345.6
 30
0.000000
  1
1550
  7
SUNPOU
  0
POINT
  5
574A
  8
DEFPOINTS
 62
     0
 10
18723.649169846569
 20
21341.370030952101
 30
0.0
  0
POINT
  5
574B
  8
DEFPOINTS
 62
     0
 10
20273.649169846569
 20
19815.497453302502
 30
0.0
  0
POINT
  5
574C
  8
DEFPOINTS
 62
     0
 10
20273.649169846569
 20
21444.93327649538
 30
0.0
  0
ENDBLK
  5
45B4
  8
0
  0
BLOCK
  8
0
  2
*D16
 70
     1
 10
0.0
 20
0.0
 30
0.0
  3
*D16
  1

  0
LINE
  5
574D
  8
FUTO
 62
     2
 10
17516.129169267049
 20
20426.497453302502
 30
0.0
 11
17283.343267006701
 21
20426.497453302502
 31
0.0
  0
LINE
  5
574E
  8
FUTO
 62
     2
 10
17943.649169846569
 20
21060.497453302502
 30
0.0
 11
17283.343267006701
 21
21060.497453302502
 31
0.0
  0
LINE
  5
574F
  8
FUTO
 62
     2
 10
17313.343267006701
 20
20486.497453302502
 30
0.0
 11
17313.343267006701
 21
21000.497453302502
 31
0.0
  0
INSERT
  5
5750
  8
FUTO
 62
     2
  2
_OPEN30
 10
17313.343267006701
 20
20426.497453302502
 30
0.0
 41
60.0
 42
60.0
 43
60.0
 50
270.0
  0
INSERT
  5
5751
  8
FUTO
 62
     2
  2
_OPEN30
 10
17313.343267006701
 20
21060.497453302502
 30
0.0
 41
60.0
 42
60.0
 43
60.0
 50
90.0
  0
TEXT
  8
0
  40
90
  5
57A1
  62
2
  72
0
  71
0
 10
17073.3
 20
20584.2
 30
0.000000
  1
634
  7
SUNPOU
  0
POINT
  5
5753
  8
DEFPOINTS
 62
     0
 10
17546.129169267049
 20
20426.497453302502
 30
0.0
  0
POINT
  5
5754
  8
DEFPOINTS
 62
     0
 10
17973.649169846569
 20
21060.497453302502
 30
0.0
  0
POINT
  5
5755
  8
DEFPOINTS
 62
     0
 10
17313.343267006701
 20
21060.497453302502
 30
0.0
  0
ENDBLK
  5
45C1
  8
0
  0
BLOCK
  8
0
  2
*D17
 70
     1
 10
0.0
 20
0.0
 30
0.0
  3
*D17
  1

  0
LINE
  5
5756
  8
FUTO
 62
     2
 10
18313.649169846569
 20
18606.497453302502
 30
0.0
 11
17283.343267006701
 21
18606.497453302502
 31
0.0
  0
LINE
  5
5757
  8
FUTO
 62
     2
 10
17313.343267006701
 20
20366.497453302502
 30
0.0
 11
17313.343267006701
 21
18666.497453302502
 31
0.0
  0
INSERT
  5
5758
  8
FUTO
 62
     2
  2
_OPEN30
 10
17313.343267006701
 20
20426.497453302502
 30
0.0
 41
60.0
 42
60.0
 43
60.0
 50
90.0
  0
INSERT
  5
5759
  8
FUTO
 62
     2
  2
_OPEN30
 10
17313.343267006701
 20
18606.497453302502
 30
0.0
 41
60.0
 42
60.0
 43
60.0
 50
270.0
  0
TEXT
  8
0
  40
90
  5
57A2
  62
2
  72
0
  71
0
 10
17073.3
 20
19357.2
 30
0.000000
  1
1820
  7
SUNPOU
  0
POINT
  5
575B
  8
DEFPOINTS
 62
     0
 10
17313.343267006701
 20
20426.497453302502
 30
0.0
  0
POINT
  5
575C
  8
DEFPOINTS
 62
     0
 10
18343.649169846569
 20
18606.497453302502
 30
0.0
  0
POINT
  5
575D
  8
DEFPOINTS
 62
     0
 10
17313.343267006701
 20
18606.497453302502
 30
0.0
  0
ENDBLK
  5
45CD
  8
0
  0
BLOCK
  8
0
  2
*D18
 70
     1
 10
0.0
 20
0.0
 30
0.0
  3
*D18
  1

  0
LINE
  5
575E
  8
FUTO
 62
     2
 10
18723.649169846569
 20
21371.370030952101
 30
0.0
 11
18723.649169846569
 21
21474.93327649538
 31
0.0
  0
LINE
  5
575F
  8
FUTO
 62
     2
 10
17793.649169846569
 20
21040.497453302502
 30
0.0
 11
17793.649169846569
 21
21474.93327649538
 31
0.0
  0
LINE
  5
5760
  8
FUTO
 62
     2
 10
18663.649169846569
 20
21444.93327649538
 30
0.0
 11
17853.649169846569
 21
21444.93327649538
 31
0.0
  0
INSERT
  5
5761
  8
FUTO
 62
     2
  2
_OPEN30
 10
18723.649169846569
 20
21444.93327649538
 30
0.0
 41
60.0
 42
60.0
 43
60.0
  0
INSERT
  5
5762
  8
FUTO
 62
     2
  2
_OPEN30
 10
17793.649169846569
 20
21444.93327649538
 30
0.0
 41
60.0
 42
60.0
 43
60.0
 50
180.0
  0
TEXT
  8
0
  40
90
  5
57A3
  62
2
  72
0
  71
0
 10
18078.6
 20
21345.6
 30
0.000000
  1
930
  7
SUNPOU
  0
POINT
  5
5764
  8
DEFPOINTS
 62
     0
 10
18723.649169846569
 20
21341.370030952101
 30
0.0
  0
POINT
  5
5765
  8
DEFPOINTS
 62
     0
 10
17793.649169846569
 20
21010.497453302502
 30
0.0
  0
POINT
  5
5766
  8
DEFPOINTS
 62
     0
 10
17793.649169846569
 20
21444.93327649538
 30
0.0
  0
ENDBLK
  5
471E
  8
0
  0
BLOCK
  8
0
  2
*D19
 70
     1
 10
0.0
 20
0.0
 30
0.0
  3
*D19
  1

  0
LINE
  5
5767
  8
FUTO
 62
     2
 10
17843.649169846569
 20
14984.252320156949
 30
0.0
 11
17215.75737079485
 21
14984.252320156949
 31
0.0
  0
LINE
  5
5768
  8
FUTO
 62
     2
 10
17515.645191199241
 20
16684.252320156938
 30
0.0
 11
17215.75737079485
 21
16684.252320156938
 31
0.0
  0
LINE
  5
5769
  8
FUTO
 62
     2
 10
17245.75737079485
 20
15044.252320156949
 30
0.0
 11
17245.75737079485
 21
16624.252320156938
 31
0.0
  0
INSERT
  5
576A
  8
FUTO
 62
     2
  2
_OPEN30
 10
17245.75737079485
 20
14984.252320156949
 30
0.0
 41
60.0
 42
60.0
 43
60.0
 50
270.0
  0
INSERT
  5
576B
  8
FUTO
 62
     2
  2
_OPEN30
 10
17245.75737079485
 20
16684.252320156938
 30
0.0
 41
60.0
 42
60.0
 43
60.0
 50
90.0
  0
TEXT
  8
0
  40
90
  5
57A4
  62
2
  72
0
  71
0
 10
17005.8
 20
15675.0
 30
0.000000
  1
1700
  7
SUNPOU
  0
POINT
  5
576D
  8
DEFPOINTS
 62
     0
 10
17873.649169846569
 20
14984.252320156949
 30
0.0
  0
POINT
  5
576E
  8
DEFPOINTS
 62
     0
 10
17545.645191199241
 20
16684.252320156938
 30
0.0
  0
POINT
  5
576F
  8
DEFPOINTS
 62
     0
 10
17245.75737079485
 20
16684.252320156938
 30
0.0
  0
ENDBLK
  5
4899
  8
0
  0
BLOCK
  8
0
  2
*D20
 70
     1
 10
0.0
 20
0.0
 30
0.0
  3
*D20
  1

  0
LINE
  5
5770
  8
FUTO
 62
     2
 10
17515.645191199241
 20
16684.252320156938
 30
0.0
 11
17215.75737079485
 21
16684.252320156938
 31
0.0
  0
LINE
  5
5771
  8
FUTO
 62
     2
 10
18586.535567004001
 20
17687.252320156938
 30
0.0
 11
17215.75737079485
 21
17687.252320156938
 31
0.0
  0
LINE
  5
5772
  8
FUTO
 62
     2
 10
17245.75737079485
 20
16744.252320156938
 30
0.0
 11
17245.75737079485
 21
17627.252320156949
 31
0.0
  0
INSERT
  5
5773
  8
FUTO
 62
     2
  2
_OPEN30
 10
17245.75737079485
 20
16684.252320156938
 30
0.0
 41
60.0
 42
60.0
 43
60.0
 50
270.0
  0
INSERT
  5
5774
  8
FUTO
 62
     2
  2
_OPEN30
 10
17245.75737079485
 20
17687.252320156938
 30
0.0
 41
60.0
 42
60.0
 43
60.0
 50
90.0
  0
TEXT
  8
0
  40
90
  5
57A5
  62
2
  72
0
  71
0
 10
17005.8
 20
17026.5
 30
0.000000
  1
1003
  7
SUNPOU
  0
POINT
  5
5776
  8
DEFPOINTS
 62
     0
 10
17545.645191199241
 20
16684.252320156938
 30
0.0
  0
POINT
  5
5777
  8
DEFPOINTS
 62
     0
 10
18616.535567004001
 20
17687.252320156938
 30
0.0
  0
POINT
  5
5778
  8
DEFPOINTS
 62
     0
 10
17245.75737079485
 20
17687.252320156938
 30
0.0
  0
ENDBLK
  5
48A7
  8
0
  0
BLOCK
  8
0
  2
*D21
 70
     1
 10
0.0
 20
0.0
 30
0.0
  3
*D21
  1

  0
LINE
  5
5779
  8
FUTO
 62
     2
 10
18723.649169846569
 20
17817.282253455
 30
0.0
 11
18723.649169846569
 21
18018.127814547141
 31
0.0
  0
LINE
  5
577A
  8
FUTO
 62
     2
 10
17793.649169846569
 20
16727.252320156949
 30
0.0
 11
17793.649169846569
 21
18018.127814547141
 31
0.0
  0
LINE
  5
577B
  8
FUTO
 62
     2
 10
18663.649169846569
 20
17988.127814547141
 30
0.0
 11
17853.649169846569
 21
17988.127814547141
 31
0.0
  0
INSERT
  5
577C
  8
FUTO
 62
     2
  2
_OPEN30
 10
18723.649169846569
 20
17988.127814547141
 30
0.0
 41
60.0
 42
60.0
 43
60.0
  0
INSERT
  5
577D
  8
FUTO
 62
     2
  2
_OPEN30
 10
17793.649169846569
 20
17988.127814547141
 30
0.0
 41
60.0
 42
60.0
 43
60.0
 50
180.0
  0
TEXT
  8
0
  40
90
  5
57A6
  62
2
  72
0
  71
0
 10
18078.6
 20
17888.8
 30
0.000000
  1
930
  7
SUNPOU
  0
POINT
  5
577F
  8
DEFPOINTS
 62
     0
 10
18723.649169846569
 20
17787.282253455
 30
0.0
  0
POINT
  5
5780
  8
DEFPOINTS
 62
     0
 10
17793.649169846569
 20
16697.252320156949
 30
0.0
  0
POINT
  5
5781
  8
DEFPOINTS
 62
     0
 10
17793.649169846569
 20
17988.127814547141
 30
0.0
  0
ENDBLK
  5
48B4
  8
0
  0
BLOCK
  8
0
  2
*U22
 70
     1
 10
0.0
 20
0.0
 30
0.0
  3
*U22
  1

  0
SOLID
  5
5734
  8
FUTO
  6
CONTINUOUS
 10
20223.649169846569
 20
14984.252320156949
 30
0.0
 11
20223.649169846569
 21
14874.252320156949
 31
0.0
 12
20263.649169846569
 22
14984.25232015694
 32
0.0
 13
20263.649169846569
 23
14984.25232015694
 33
0.0
  0
SOLID
  5
5735
  8
FUTO
  6
CONTINUOUS
 10
20263.649169846569
 20
14874.252320156949
 30
0.0
 11
20263.649169846569
 21
14984.25232015694
 31
0.0
 12
20223.649169846569
 22
14874.252320156949
 32
0.0
 13
20223.649169846569
 23
14874.252320156949
 33
0.0
  0
SOLID
  5
5736
  8
FUTO
  6
CONTINUOUS
 10
20183.649169846569
 20
14984.252320156949
 30
0.0
 11
20183.649169846569
 21
14874.252320156949
 31
0.0
 12
20223.649169846569
 22
14984.252320156949
 32
0.0
 13
20223.649169846569
 23
14984.252320156949
 33
0.0
210
0.0
220
0.0
230
1.0
  0
SOLID
  5
5737
  8
FUTO
  6
CONTINUOUS
 10
20223.649169846569
 20
14874.252320156949
 30
0.0
 11
20223.649169846569
 21
14984.252320156949
 31
0.0
 12
20183.649169846569
 22
14874.252320156949
 32
0.0
 13
20183.649169846569
 23
14874.252320156949
 33
0.0
210
0.0
220
0.0
230
1.0
  0
ENDBLK
  5
5739
  8
0
  0
BLOCK
  8
0
  2
*U23
 70
     1
 10
0.0
 20
0.0
 30
0.0
  3
*U23
  1

  0
SOLID
  5
5783
  8
FUTO
  6
CONTINUOUS
 10
18076.381019192599
 20
14984.252320156949
 30
0.0
 11
18036.381019192599
 21
14984.252320156949
 31
0.0
 12
18076.381019192599
 22
14874.252320156949
 32
0.0
 13
18076.381019192599
 23
14874.252320156949
 33
0.0
210
0.0
220
0.0
230
1.0
  0
SOLID
  5
5784
  8
FUTO
  6
CONTINUOUS
 10
18036.381019192599
 20
14874.252320156949
 30
0.0
 11
18076.381019192599
 21
14874.252320156949
 31
0.0
 12
18036.381019192599
 22
14984.252320156949
 32
0.0
 13
18036.381019192599
 23
14984.252320156949
 33
0.0
210
0.0
220
0.0
230
1.0
  0
SOLID
  5
5785
  8
FUTO
  6
CONTINUOUS
 10
18116.381019192599
 20
14984.25232015694
 30
0.0
 11
18076.381019192599
 21
14984.252320156949
 31
0.0
 12
18116.381019192599
 22
14874.252320156949
 32
0.0
 13
18116.381019192599
 23
14874.252320156949
 33
0.0
210
0.0
220
0.0
230
1.0
  0
SOLID
  5
5786
  8
FUTO
  6
CONTINUOUS
 10
18076.381019192599
 20
14874.252320156949
 30
0.0
 11
18116.381019192599
 21
14874.252320156949
 31
0.0
 12
18076.381019192599
 22
14984.252320156949
 32
0.0
 13
18076.381019192599
 23
14984.252320156949
 33
0.0
210
0.0
220
0.0
230
1.0
  0
ENDBLK
  5
5788
  8
0
  0
BLOCK
  8
0
  2
*U24
 70
     1
 10
0.0
 20
0.0
 30
0.0
  3
*U24
  1

  0
SOLID
  5
578A
  8
FUTO
  6
CONTINUOUS
 10
21211.740583052419
 20
14984.252320156949
 30
0.0
 11
21211.740583052419
 21
14874.252320156949
 31
0.0
 12
21251.740583052419
 22
14874.252320156949
 32
0.0
 13
21251.740583052419
 23
14874.252320156949
 33
0.0
210
0.0
220
0.0
230
1.0
  0
SOLID
  5
578B
  8
FUTO
  6
CONTINUOUS
 10
21251.740583052419
 20
14874.252320156949
 30
0.0
 11
21216.740583052419
 21
14984.252320156949
 31
0.0
 12
21211.740583052419
 22
14984.252320156949
 32
0.0
 13
21211.740583052419
 23
14984.252320156949
 33
0.0
  0
SOLID
  5
578C
  8
FUTO
  6
CONTINUOUS
 10
21251.740583052419
 20
14984.252320156949
 30
0.0
 11
21216.740583052419
 21
14984.252320156949
 31
0.0
 12
21251.740583052419
 22
14874.252320156949
 32
0.0
 13
21251.740583052419
 23
14874.252320156949
 33
0.0
  0
SOLID
  5
578D
  8
FUTO
  6
CONTINUOUS
 10
23341.740583052419
 20
14984.25232015694
 30
0.0
 11
23341.740583052419
 21
14874.252320156949
 31
0.0
 12
23381.740583052419
 22
14874.252320156949
 32
0.0
 13
23381.740583052419
 23
14874.252320156949
 33
0.0
210
0.0
220
0.0
230
1.0
  0
SOLID
  5
578E
  8
FUTO
  6
CONTINUOUS
 10
23381.740583052419
 20
14984.252320156949
 30
0.0
 11
23341.740583052419
 21
14984.25232015694
 31
0.0
 12
23381.740583052419
 22
14874.252320156949
 32
0.0
 13
23381.740583052419
 23
14874.252320156949
 33
0.0
210
0.0
220
0.0
230
1.0
  0
SOLID
  5
578F
  8
FUTO
  6
CONTINUOUS
 10
21251.740583052419
 20
14984.252320156949
 30
0.0
 11
21251.740583052419
 21
14874.252320156949
 31
0.0
 12
21291.740583052419
 22
14874.252320156949
 32
0.0
 13
21291.740583052419
 23
14874.252320156949
 33
0.0
210
0.0
220
0.0
230
1.0
  0
SOLID
  5
5790
  8
FUTO
  6
CONTINUOUS
 10
21291.740583052419
 20
14984.252320156949
 30
0.0
 11
21251.740583052419
 21
14984.252320156949
 31
0.0
 12
21291.740583052419
 22
14874.252320156949
 32
0.0
 13
21291.740583052419
 23
14874.252320156949
 33
0.0
210
0.0
220
0.0
230
1.0
  0
SOLID
  5
5791
  8
FUTO
  6
CONTINUOUS
 10
23381.740583052419
 20
14874.252320156949
 30
0.0
 11
23419.740583052419
 21
14984.252320156949
 31
0.0
 12
23381.740583052419
 22
14984.252320156949
 32
0.0
 13
23381.740583052419
 23
14984.252320156949
 33
0.0
210
0.0
220
0.0
230
1.0
  0
SOLID
  5
5792
  8
FUTO
  6
CONTINUOUS
 10
23419.740583052419
 20
14984.252320156949
 30
0.0
 11
23381.740583052419
 21
14874.252320156949
 31
0.0
 12
23416.740583052419
 22
14874.252320156949
 32
0.0
 13
23416.740583052419
 23
14874.252320156949
 33
0.0
210
0.0
220
0.0
230
1.0
  0
SOLID
  5
5793
  8
FUTO
  6
CONTINUOUS
 10
23419.740583052419
 20
14984.252320156949
 30
0.0
 11
23416.740583052419
 21
14874.252320156949
 31
0.0
 12
23419.740583052419
 22
14874.252320156949
 32
0.0
 13
23419.740583052419
 23
14874.252320156949
 33
0.0
210
0.0
220
0.0
230
1.0
  0
ENDBLK
  5
5795
  8
0
  0
ENDSEC
  0
SECTION
  2
ENTITIES
  0
LINE
  5
1F
  8
FUTO
 10
21211.740583052419
 20
14869.252320156949
 30
0.0
 11
23419.740583052419
 21
14869.252320156949
 31
0.0
1001
ACAD
1000
ASC_BOUNDS
1002
{
1070
    19
1005
3975
1002
}
  0
LINE
  5
41
  8
FUTO
 10
21216.740583052419
 20
14719.252320156949
 30
0.0
 11
23416.740583052419
 21
14719.252320156949
 31
0.0
  0
LINE
  5
42
  8
FUTO
 10
21211.740583052419
 20
14984.252320156949
 30
0.0
 11
23419.740583052419
 21
14984.252320156949
 31
0.0
1001
ACAD
1000
ASC_BOUNDS
1002
{
1070
    19
1005
3975
1002
}
  0
LINE
  5
116
  8
FUTO
 10
22133.740583052419
 20
16729.252320156949
 30
0.0
 11
22195.240583052419
 21
16729.252320156949
 31
0.0
  0
LINE
  5
117
  8
FUTO
 10
22133.740583052419
 20
16639.252320156938
 30
0.0
 11
22196.540583052421
 21
16639.252320156938
 31
0.0
  0
LINE
  5
118
  8
FUTO
 10
21217.740583052419
 20
15134.252320156949
 30
0.0
 11
23416.940583052419
 21
15134.25232015694
 31
0.0
  0
LINE
  5
119
  8
CT
 10
20933.890449567039
 20
16684.252320156938
 30
0.0
 11
23532.06806102442
 21
16684.252320156938
 31
0.0
  0
ARC
  5
11C
  8
FUTO
 10
18825.649169846569
 20
16582.252320156938
 30
0.0
 40
1125.0
 50
5.201961084891658
 51
95.201961084891551
  0
LINE
  5
14C
  8
SL
 10
21194.740583052419
 20
16764.252320156938
 30
0.0
 11
21194.740583052419
 21
16604.252320156938
 31
0.0
  0
LINE
  5
162
  8
CT
 10
21354.740583052419
 20
16802.755817117071
 30
0.0
 11
21354.740583052419
 21
16521.421688370228
 31
0.0
  0
LINE
  5
163
  8
CT
 10
18578.649169846569
 20
16574.252320156949
 30
0.0
 11
18578.649169846569
 21
16628.252320156949
 31
0.0
  0
ARC
  5
164
  8
FUTO
 10
18612.649169846569
 20
16634.252320156938
 30
0.0
 40
16.0
 50
270.0
 51
0.000000000000007
  0
ARC
  5
165
  8
FUTO
 10
18723.649169846569
 20
16684.252320156938
 30
0.0
 40
95.000000000000071
 50
209.9999999999994
 51
230.94387397238239
  0
ARC
  5
168
  8
FUTO
 10
18723.649169846569
 20
16684.252320156938
 30
0.0
 40
94.999999999997485
 50
309.05612602761818
 51
330.00000000000108
  0
LINE
  5
169
  8
CT
 10
18868.649169846569
 20
16574.252320156949
 30
0.0
 11
18868.649169846569
 21
16628.252320156949
 31
0.0
  0
ARC
  5
16A
  8
FUTO
 10
18834.649169846569
 20
16634.252320156938
 30
0.0
 40
16.0
 50
180.0
 51
270.0
  0
LINE
  5
16B
  8
CT
 10
18723.649169846569
 20
16808.755817117071
 30
0.0
 11
18723.649169846569
 21
16567.010981001349
 31
0.0
  0
ARC
  5
178
  8
KL
 10
18809.149169846569
 20
16769.752320156949
 30
0.0
 40
917.5
 50
90.000000000000071
 51
180.0
  0
LINE
  5
17D
  8
FUTO
 10
20984.740583052419
 20
17064.252320156938
 30
0.0
 11
20984.740583052419
 21
15174.252320156949
 31
0.0
  0
LINE
  5
17E
  8
SL
 10
21094.740583052419
 20
16934.252320156949
 30
0.0
 11
21094.740583052419
 21
15288.252320156949
 31
0.0
  0
LINE
  5
17F
  8
SL
 10
21172.64058305242
 20
16934.252320156949
 30
0.0
 11
21172.64058305242
 21
15288.252320156949
 31
0.0
  0
ARC
  5
180
  8
FUTO
 10
18621.649169846569
 20
16582.252320156938
 30
0.0
 40
1329.0
 50
295.3074078808778
 51
307.91318572112198
  0
ARC
  5
183
  8
FUTO
 10
18723.649169846569
 20
16684.252320156938
 30
0.0
 40
380.0
 50
37.719539827013911
 51
228.14039886690389
  0
LINE
  5
184
  8
CT
 10
18723.649169846569
 20
17787.282253455
 30
0.0
 11
18723.649169846569
 21
14671.45456236915
 31
0.0
  0
LINE
  5
185
  8
FUTO
 10
19563.649169846569
 20
17431.358320606829
 30
0.0
 11
19563.649169846569
 21
16219.30623432864
 31
0.0
  0
LINE
  5
186
  8
FUTO
 10
19554.649169846569
 20
17439.097697106601
 30
0.0
 11
19554.649169846569
 21
16230.942669765231
 31
0.0
  0
LINE
  5
187
  8
FUTO
 10
17883.649169846569
 20
15134.252320156949
 30
0.0
 11
17883.649169846569
 21
16919.271549689471
 31
0.0
  0
LINE
  5
188
  8
FUTO
 10
17892.649169846569
 20
15134.25232015694
 30
0.0
 11
17892.649169846569
 21
16967.069323985801
 31
0.0
  0
CIRCLE
  5
18B
  8
SL
 10
18723.649169846569
 20
16684.252320156938
 30
0.0
 40
250.0
  0
ARC
  5
18C
  8
KL
 10
18621.649169846569
 20
16582.252320156938
 30
0.0
 40
1309.0
 50
275.15414040245679
 51
0.0000000000000635
  0
LINE
  5
19A
  8
CT
 10
22064.740583052419
 20
16802.755817117071
 30
0.0
 11
22064.740583052419
 21
16499.088156941791
 31
0.0
  0
LINE
  5
19B
  8
FUTO
 10
17873.649169846569
 20
14984.252320156949
 30
0.0
 11
20273.649169846569
 21
14984.252320156949
 31
0.0
1001
ACAD
1000
ASC_BOUNDS
1002
{
1070
    19
1005
0
1005
0
1005
0
1005
0
1005
0
1005
0
1005
0
1005
0
1005
0
1005
0
1005
0
1005
0
1005
0
1005
0
1005
0
1005
0
1005
0
1005
0
1005
0
1005
0
1005
0
1002
}
  0
LINE
  5
19C
  8
FUTO
 10
17873.649169846569
 20
14869.252320156949
 30
0.0
 11
20273.649169846569
 21
14869.252320156949
 31
0.0
1001
ACAD
1000
ASC_BOUNDS
1002
{
1070
    19
1005
0
1005
0
1005
0
1005
0
1005
0
1005
0
1005
0
1005
0
1005
0
1005
0
1005
0
1005
0
1005
0
1005
0
1005
0
1005
0
1005
0
1005
0
1005
0
1005
0
1005
0
1002
}
  0
DIMENSION
  5
276
  8
FUTO
  2
*D3
 10
20273.649169846569
 20
14479.95246019192
 30
0.0
 11
19498.649169846569
 21
14539.95246019192
 31
0.0
 70
     0
 13
18723.649169846569
 23
14692.1701691132
 33
0.0
 14
20273.649169846569
 24
14644.252320156949
 34
0.0
 50
180.0
1001
ACAD
1000
DSTYLE
1002
{
1070
    40
1040
30.0
1070
   176
1070
     2
1070
   177
1070
     2
1070
   178
1070
     2
1070
   341
1005
44D5
1070
     5
1000
OPEN30
1002
}
  0
DIMENSION
  5
283
  8
FUTO
  2
*D4
 10
17873.649169846569
 20
14297.03514320783
 30
0.0
 11
19073.649169846569
 21
14357.03514320783
 31
0.0
 70
     0
 13
20273.649169846569
 23
14719.252320156949
 33
0.0
 14
17873.649169846569
 24
14719.252320156949
 34
0.0
 50
180.0
1001
ACAD
1000
DSTYLE
1002
{
1070
    40
1040
30.0
1070
   176
1070
     2
1070
   177
1070
     2
1070
   178
1070
     2
1070
   341
1005
44D5
1070
     5
1000
OPEN30
1002
}
  0
LINE
  5
293
  8
FUTO
 10
19663.649169846569
 20
15208.74595557441
 30
0.0
 11
19610.448236742421
 21
15208.74595557441
 31
0.0
  0
LINE
  5
294
  8
FUTO
 10
17873.649169846569
 20
15134.252320156949
 30
0.0
 11
20273.649169846569
 21
15134.252320156949
 31
0.0
  0
LINE
  5
295
  8
FUTO
 10
17873.649169846569
 20
14719.252320156949
 30
0.0
 11
20273.649169846569
 21
14719.252320156949
 31
0.0
  0
LINE
  5
2AC
  8
FUTO
 10
19663.649169846569
 20
15134.252320156949
 30
0.0
 11
19663.649169846569
 21
15225.43275249915
 31
0.0
  0
LINE
  5
2AD
  8
FUTO
 10
19663.649169846569
 20
15134.252320156949
 30
0.0
 11
19673.657505757012
 21
15194.252320156949
 31
0.0
  0
LINE
  5
2AE
  8
FUTO
 10
20183.649169846569
 20
15134.252320156949
 30
0.0
 11
20183.649169846569
 21
15225.43275249915
 31
0.0
  0
LINE
  5
2AF
  8
FUTO
 10
20183.649169846569
 20
15134.252320156949
 30
0.0
 11
20173.64083393613
 21
15194.252320156949
 31
0.0
  0
ARC
  5
2B0
  8
FUTO
 10
19923.649169846569
 20
15394.252320156949
 30
0.0
 40
220.0
 50
228.14039886690381
 51
37.719539827013897
  0
LINE
  5
2B2
  8
FUTO
 10
20273.649169846569
 20
14869.25232015694
 30
0.0
 11
20273.649169846569
 21
14719.252320156949
 31
0.0
  0
POINT
  5
2B3
  8
DEFPOINTS
 10
20273.649169846569
 20
14984.252320156949
 30
0.0
  0
POINT
  5
2B4
  8
DEFPOINTS
 10
20273.649169846569
 20
14869.252320156949
 30
0.0
  0
POINT
  5
2B5
  8
DEFPOINTS
 10
20273.649169846569
 20
14869.252320156949
 30
0.0
  0
LINE
  5
2B6
  8
FUTO
 10
20273.649169846569
 20
15134.252320156949
 30
0.0
 11
20273.649169846569
 21
14984.252320156949
 31
0.0
  0
LINE
  5
2BD
  8
CT
 10
20126.204345846571
 20
15469.252320156949
 30
0.0
 11
20162.63769584657
 21
15469.252320156949
 31
0.0
  0
LINE
  5
2BE
  8
FUTO
 10
20143.649169846569
 20
15409.252320156949
 30
0.0
 11
20126.595702846571
 21
15409.252320156949
 31
0.0
  0
LINE
  5
2BF
  8
FUTO
 10
20143.649169846569
 20
15529.252320156949
 30
0.0
 11
20075.922851846572
 21
15529.252320156949
 31
0.0
  0
ARC
  5
2C0
  8
FUTO
 10
20151.849120846571
 20
15535.718873156949
 30
0.0
 40
8.1999940000000002
 50
107.30986
 51
180.0
  0
LINE
  5
2C1
  8
FUTO
 10
20173.64083393613
 20
15194.252320156949
 30
0.0
 11
20006.987489424821
 21
15194.252320156949
 31
0.0
  0
LINE
  5
2C2
  8
FUTO
 10
20122.104142435699
 20
15208.74595557441
 30
0.0
 11
20156.918694139818
 21
15208.74595557441
 31
0.0
  0
LINE
  5
2C3
  8
FUTO
 10
20143.921142846571
 20
15395.61023015695
 30
0.0
 11
20154.319701846569
 21
15351.93615815695
 31
0.0
  0
LINE
  5
2C4
  8
FUTO
 10
20320.441772846571
 20
15361.666871156949
 30
0.0
 11
20320.441772846571
 21
15499.459351156949
 31
0.0
  0
LINE
  5
2C5
  8
FUTO
 10
20160.441772846571
 20
15579.11413615695
 30
0.0
 11
20309.191772846571
 21
15321.471558156951
 31
0.0
  0
LINE
  5
2C6
  8
FUTO
 10
20154.899169846569
 20
15575.914185156949
 30
0.0
 11
20303.649169846569
 21
15318.271607156939
 31
0.0
  0
LINE
  5
2C7
  8
FUTO
 10
20166.649169846569
 20
15314.252320156949
 30
0.0
 11
20286.649169846569
 21
15314.252320156949
 31
0.0
  0
LINE
  5
2C8
  8
FUTO
 10
20164.04772984657
 20
15344.252320156949
 30
0.0
 11
20288.649169846569
 21
15344.252320156949
 31
0.0
  0
ARC
  5
2C9
  8
FUTO
 10
20297.17407184657
 20
15346.28698815695
 30
0.0
 40
2.0000450000000001
 50
107.313553
 51
209.99818400000001
  0
LINE
  5
2CA
  8
FUTO
 10
20314.681640846571
 20
15353.838257156949
 30
0.0
 11
20296.578857846569
 21
15348.196412156951
 31
0.0
  0
LINE
  5
2CB
  8
FUTO
 10
20309.191772846571
 20
15321.471558156951
 30
0.0
 11
20303.649169846569
 21
15318.271607156939
 31
0.0
  0
LINE
  5
2CC
  8
FUTO
 10
20286.649169846569
 20
15314.252320156949
 30
0.0
 11
20286.649169846569
 21
15344.252320156949
 31
0.0
  0
ARC
  5
2CD
  8
FUTO
 10
20312.241698846559
 20
15361.666871156949
 30
0.0
 40
8.2000299999999982
 50
287.31066900000002
 51
0.000000000000007
  0
LINE
  5
2CE
  8
FUTO
 10
20166.649169846569
 20
15314.252320156949
 30
0.0
 11
20166.649169846569
 21
15344.252320156949
 31
0.0
  0
LINE
  5
2CF
  8
FUTO
 10
20196.649169846569
 20
15314.252320156949
 30
0.0
 11
20196.649169846569
 21
15344.252320156949
 31
0.0
  0
LINE
  5
2D0
  8
FUTO
 10
20199.649169846569
 20
15314.252320156949
 30
0.0
 11
20199.649169846569
 21
15344.252320156949
 31
0.0
  0
ARC
  5
2D1
  8
FUTO
 10
20164.04772984657
 20
15354.252320156949
 30
0.0
 40
9.9999559999999992
 50
193.392303
 51
270.0
  0
LINE
  5
2D2
  8
CT
 10
20226.649169846569
 20
15358.335328156951
 30
0.0
 11
20226.649169846569
 21
15306.113892156951
 31
0.0
  0
LINE
  5
2D3
  8
FUTO
 10
20256.649169846569
 20
15314.252320156949
 30
0.0
 11
20256.649169846569
 21
15344.252320156949
 31
0.0
  0
LINE
  5
2D4
  8
FUTO
 10
20253.649169846569
 20
15314.252320156949
 30
0.0
 11
20253.649169846569
 21
15344.252320156949
 31
0.0
  0
LINE
  5
2D5
  8
FUTO
 10
20183.649169846569
 20
15208.74595557441
 30
0.0
 11
20236.85010295071
 21
15208.74595557441
 31
0.0
  0
LINE
  5
2D6
  8
FUTO
 10
20236.85010295071
 20
15216.20175100262
 30
0.0
 11
20245.73134308953
 21
15216.20175100262
 31
0.0
  0
LINE
  5
2D7
  8
FUTO
 10
20236.85010295071
 20
15202.00022608912
 30
0.0
 11
20236.85010295071
 21
15216.20175100262
 31
0.0
  0
LINE
  5
2D8
  8
FUTO
 10
20246.086593932891
 20
15202.00022608912
 30
0.0
 11
20236.85010295071
 21
15202.00022608912
 31
0.0
  0
LINE
  5
2D9
  8
FUTO
 10
20246.086593932891
 20
15215.84671803116
 30
0.0
 11
20246.086593932891
 21
15202.00022608912
 31
0.0
  0
LINE
  5
2DA
  8
FUTO
 10
20156.918694139818
 20
15225.43275249915
 30
0.0
 11
20156.918694139818
 21
15194.252320156949
 31
0.0
  0
LINE
  5
2DB
  8
FUTO
 10
20183.649169846569
 20
15225.43275249915
 30
0.0
 11
20156.918694139818
 21
15225.43275249915
 31
0.0
  0
LINE
  5
2DC
  8
FUTO
 10
20300.043090846571
 20
15553.133423156951
 30
0.0
 11
20175.441772846571
 21
15553.133423156951
 31
0.0
  0
ARC
  5
2DD
  8
FUTO
 10
20300.043090846571
 20
15543.133423156951
 30
0.0
 40
10.000075000000001
 50
13.392141000000001
 51
90.0
  0
ARC
  5
2DE
  8
FUTO
 10
20310.44103984657
 20
15499.45910715695
 30
0.0
 40
10.000731999999999
 50
0.0013990000000172
 51
13.392693
  0
LINE
  5
2DF
  8
FUTO
 10
20309.77123984657
 20
15545.44958615695
 30
0.0
 11
20320.169799846572
 21
15501.77551315695
 31
0.0
  0
LINE
  5
2E0
  8
FUTO
 10
20160.441772846571
 20
15579.11413615695
 30
0.0
 11
20154.899169846569
 21
15575.914185156949
 31
0.0
  0
ARC
  5
2E1
  8
FUTO
 10
20166.916869846569
 20
15551.098755156951
 30
0.0
 40
2.000008999999999
 50
287.31021099999992
 51
29.999931000000021
  0
LINE
  5
2E2
  8
FUTO
 10
20167.511962846569
 20
15549.18933215695
 30
0.0
 11
20149.409301846568
 21
15543.547486156949
 31
0.0
  0
ARC
  5
2E3
  8
FUTO
 10
20153.649169846569
 20
15397.926392156951
 30
0.0
 40
10.0
 50
180.0
 51
193.392303
  0
LINE
  5
2E4
  8
FUTO
 10
20143.649169846569
 20
15397.926392156951
 30
0.0
 11
20143.649169846569
 21
15535.718873156949
 31
0.0
  0
LINE
  5
2E5
  8
FUTO
 10
19917.399169846569
 20
15607.89929315695
 30
0.0
 11
19917.399169846569
 21
15658.002320156949
 31
0.0
  0
LINE
  5
2E6
  8
FUTO
 10
19929.899169846569
 20
15607.89929315695
 30
0.0
 11
19929.899169846569
 21
15658.002320156949
 31
0.0
  0
LINE
  5
2E7
  8
CT
 10
19923.649169846569
 20
15670.571412156951
 30
0.0
 11
19923.649169846569
 21
15190.547486156949
 31
0.0
  0
CIRCLE
  5
2E8
  8
FUTO
 10
19923.649169846569
 20
15394.252320156949
 30
0.0
 40
40.0
  0
LINE
  5
2E9
  8
FUTO
 10
19978.387206846572
 20
15198.252320156949
 30
0.0
 11
19868.91113284657
 21
15198.252320156949
 31
0.0
  0
LINE
  5
2EA
  8
CT
 10
19708.810058846571
 20
15394.252320156949
 30
0.0
 11
20137.640258846572
 21
15394.252320156949
 31
0.0
  0
LINE
  5
2EB
  8
CT
 10
19736.149169846569
 20
15394.252320156949
 30
0.0
 11
20123.68412719269
 21
15394.252320156949
 31
0.0
  0
CIRCLE
  5
2EC
  8
SL
 10
19923.649169846569
 20
15394.252320156949
 30
0.0
 40
106.0
  0
LINE
  5
2ED
  8
FUTO
 10
19840.310850268321
 20
15184.775975595339
 30
0.0
 11
19923.661950734098
 21
15184.775975595339
 31
0.0
  0
ARC
  5
2EE
  8
FUTO
 10
19923.649169846569
 20
15394.252320156949
 30
0.0
 40
203.5
 50
285.60376000000002
 51
254.3962709999999
  0
CIRCLE
  5
2EF
  8
FUTO
 10
19923.649169846569
 20
15394.252320156949
 30
0.0
 40
7.5
  0
LINE
  5
2F0
  8
CT
 10
19923.649169846569
 20
15181.752320156949
 30
0.0
 11
19923.649169846569
 21
15597.375325507501
 31
0.0
  0
LINE
  5
2F1
  8
FUTO
 10
20074.563232846569
 20
15257.734009156949
 30
0.0
 11
20079.36132784656
 21
15253.699586156939
 31
0.0
  0
LINE
  5
2F2
  8
FUTO
 10
20076.157958846568
 20
15251.78454615694
 30
0.0
 11
20072.565917846568
 21
15255.37658715695
 31
0.0
  0
LINE
  5
2F3
  8
FUTO
 10
20076.157958846568
 20
15250.935914156949
 30
0.0
 11
20076.157958846568
 21
15251.78454615694
 31
0.0
  0
LINE
  5
2F4
  8
FUTO
 10
20073.870605846569
 20
15249.49694915695
 30
0.0
 11
20074.71923784657
 21
15249.49694915695
 31
0.0
  0
LINE
  5
2F5
  8
FUTO
 10
20073.870605846569
 20
15249.49694915695
 30
0.0
 11
20073.870605846569
 21
15248.648560156949
 31
0.0
  0
ARC
  5
2F6
  8
FUTO
 10
20076.143554846571
 20
15249.87268115695
 30
0.0
 40
5.0000339999999994
 50
316.563965
 51
49.941891000000027
  0
LINE
  5
2F7
  8
FUTO
 10
20066.116943846569
 20
15241.74353115695
 30
0.0
 11
20062.52490284657
 21
15245.33557215695
 31
0.0
  0
LINE
  5
2F8
  8
FUTO
 10
20066.116943846569
 20
15241.74353115695
 30
0.0
 11
20066.965575846571
 21
15241.74353115695
 31
0.0
  0
LINE
  5
2F9
  8
FUTO
 10
20068.404296846569
 20
15244.030884156949
 30
0.0
 11
20068.404296846569
 21
15243.18225215695
 31
0.0
  0
LINE
  5
2FA
  8
FUTO
 10
20068.404296846569
 20
15244.030884156949
 30
0.0
 11
20064.812255846569
 21
15247.622925156949
 31
0.0
  0
LINE
  5
2FB
  8
FUTO
 10
20068.404296846569
 20
15244.030884156949
 30
0.0
 11
20069.252929846571
 21
15244.030884156949
 31
0.0
  0
LINE
  5
2FC
  8
FUTO
 10
20072.565917846568
 20
15255.37658715695
 30
0.0
 11
20062.52490284657
 21
15245.33557215695
 31
0.0
  0
LINE
  5
2FD
  8
CT
 10
20072.090087846569
 20
15245.811402156951
 30
0.0
 11
20066.842040846572
 21
15251.05944915695
 31
0.0
  0
LINE
  5
2FE
  8
FUTO
 10
20076.157958846568
 20
15250.935914156949
 30
0.0
 11
20066.965575846571
 21
15241.74353115695
 31
0.0
  0
LINE
  5
2FF
  8
FUTO
 10
20073.870605846569
 20
15249.49694915695
 30
0.0
 11
20070.278564846569
 21
15253.089234156951
 31
0.0
  0
LINE
  5
300
  8
FUTO
 10
20049.83544884657
 20
15214.252320156949
 30
0.0
 11
20045.314086846571
 21
15231.12683215695
 31
0.0
  0
LINE
  5
301
  8
FUTO
 10
20045.313964846569
 20
15231.12683215695
 30
0.0
 11
20049.83544884657
 21
15214.252320156949
 31
0.0
  0
ARC
  5
302
  8
FUTO
 10
20051.433837846569
 20
15227.60583615695
 30
0.0
 40
5.0
 50
195.00116
 51
307.48202500000008
  0
ARC
  5
303
  8
FUTO
 10
19923.649169846569
 20
15394.252320156949
 30
0.0
 40
214.9999849999999
 50
307.48104899999998
 51
316.565674
  0
ARC
  5
304
  8
FUTO
 10
20036.149169846569
 20
15211.252320156949
 30
0.0
 40
3.0
 50
90.0
 51
180.0
  0
LINE
  5
305
  8
FUTO
 10
20073.399169846569
 20
15206.252320156949
 30
0.0
 11
20073.399169846569
 21
15202.252320156949
 31
0.0
  0
LINE
  5
306
  8
FUTO
 10
20073.399169846569
 20
15198.252320156949
 30
0.0
 11
20073.399169846569
 21
15194.252320156949
 31
0.0
  0
LINE
  5
307
  8
FUTO
 10
20033.149169846569
 20
15211.252320156949
 30
0.0
 11
20033.149169846569
 21
15194.252320156949
 31
0.0
  0
LINE
  5
308
  8
FUTO
 10
20033.149169846569
 20
15199.252320156949
 30
0.0
 11
20027.474120846571
 21
15220.432496156949
 31
0.0
  0
LINE
  5
309
  8
CT
 10
20082.649169846569
 20
15218.67614815695
 30
0.0
 11
20082.649169846569
 21
15189.560425156949
 31
0.0
  0
LINE
  5
30A
  8
FUTO
 10
20073.399169846569
 20
15214.252320156949
 30
0.0
 11
20073.399169846569
 21
15210.252320156949
 31
0.0
  0
ARC
  5
30B
  8
FUTO
 10
20107.649169846569
 20
15268.57898015695
 30
0.0
 40
5.0
 50
0.000000000000007
 51
55.056338999999987
  0
ARC
  5
30C
  8
FUTO
 10
20109.649169846569
 20
15211.252320156949
 30
0.0
 40
3.0
 50
0.000000000000007
 51
90.0
  0
LINE
  5
30D
  8
FUTO
 10
20091.899169846569
 20
15206.252320156949
 30
0.0
 11
20091.899169846569
 21
15202.252320156949
 31
0.0
  0
LINE
  5
30E
  8
FUTO
 10
20091.899169846569
 20
15198.252320156949
 30
0.0
 11
20091.899169846569
 21
15194.252320156949
 31
0.0
  0
LINE
  5
30F
  8
FUTO
 10
20091.899169846569
 20
15214.252320156949
 30
0.0
 11
20091.899169846569
 21
15210.252320156949
 31
0.0
  0
LINE
  5
310
  8
FUTO
 10
20112.649169846569
 20
15268.57898015695
 30
0.0
 11
20112.649169846569
 21
15194.252320156949
 31
0.0
  0
LINE
  5
311
  8
FUTO
 10
20112.649169846569
 20
15194.252320156949
 30
0.0
 11
20033.149169846569
 21
15194.252320156949
 31
0.0
  0
LINE
  5
312
  8
FUTO
 10
20036.149169846569
 20
15214.252320156949
 30
0.0
 11
20109.649169846569
 21
15214.252320156949
 31
0.0
  0
LINE
  5
313
  8
FUTO
 10
20110.51306184657
 20
15272.67761315695
 30
0.0
 11
20094.57519584657
 21
15283.81408715695
 31
0.0
  0
LINE
  5
314
  8
FUTO
 10
20006.987489424821
 20
15194.252320156949
 30
0.0
 11
20006.987489424821
 21
15184.775975595339
 31
0.0
  0
LINE
  5
315
  8
FUTO
 10
20006.987489424821
 20
15184.775975595339
 30
0.0
 11
19923.636388959039
 21
15184.775975595339
 31
0.0
  0
LINE
  5
316
  8
FUTO
 10
20066.965575846571
 20
15546.761109156951
 30
0.0
 11
20066.117065846571
 21
15546.761109156951
 31
0.0
  0
LINE
  5
317
  8
FUTO
 10
20068.40441884657
 20
15544.473755156951
 30
0.0
 11
20068.40441884657
 21
15545.32238815695
 31
0.0
  0
LINE
  5
318
  8
FUTO
 10
20068.40441884657
 20
15544.473755156951
 30
0.0
 11
20069.252929846571
 21
15544.473755156951
 31
0.0
  0
LINE
  5
319
  8
FUTO
 10
20066.117065846571
 20
15546.761109156951
 30
0.0
 11
20062.52490284657
 21
15543.169068156951
 31
0.0
  0
LINE
  5
31A
  8
FUTO
 10
20076.157958846568
 20
15536.72009315695
 30
0.0
 11
20076.157958846568
 21
15537.568726156949
 31
0.0
  0
LINE
  5
31B
  8
FUTO
 10
20073.870605846569
 20
15539.00744715695
 30
0.0
 11
20074.71923784657
 21
15539.00744715695
 31
0.0
  0
LINE
  5
31C
  8
FUTO
 10
20073.870605846569
 20
15539.00744715695
 30
0.0
 11
20073.870605846569
 21
15539.856080156949
 31
0.0
  0
LINE
  5
31D
  8
FUTO
 10
20073.870605846569
 20
15539.00744715695
 30
0.0
 11
20070.278564846569
 21
15535.41540615695
 31
0.0
  0
LINE
  5
31E
  8
FUTO
 10
20068.40441884657
 20
15544.473755156951
 30
0.0
 11
20064.812255846569
 21
15540.881714156951
 31
0.0
  0
LINE
  5
31F
  8
FUTO
 10
20072.09020984657
 20
15542.69323815695
 30
0.0
 11
20066.842040846572
 21
15537.44519115695
 31
0.0
  0
LINE
  5
320
  8
FUTO
 10
20066.965575846571
 20
15546.761109156951
 30
0.0
 11
20076.157958846568
 21
15537.568726156949
 31
0.0
  0
LINE
  5
321
  8
FUTO
 10
20133.649169846569
 20
15409.252320156949
 30
0.0
 11
20133.649169846569
 21
15529.252320156949
 31
0.0
  0
LINE
  5
322
  8
FUTO
 10
20076.157958846568
 20
15536.72009315695
 30
0.0
 11
20072.565917846568
 21
15533.12805215695
 31
0.0
  0
LINE
  5
323
  8
FUTO
 10
20062.52490284657
 20
15543.169068156951
 30
0.0
 11
20072.565917846568
 21
15533.12805215695
 31
0.0
  0
ARC
  5
324
  8
FUTO
 10
19936.649169846569
 20
15613.44226115695
 30
0.0
 40
2.0
 50
0.000000000000007
 51
84.289063000000013
  0
LINE
  5
325
  8
FUTO
 10
19930.106261846569
 20
15616.106568156951
 30
0.0
 11
19936.848205846571
 21
15615.432496156949
 31
0.0
  0
ARC
  5
326
  8
FUTO
 10
19910.649169846569
 20
15613.44226115695
 30
0.0
 40
2.0001619999999991
 50
95.710937999999985
 51
180.0
  0
LINE
  5
327
  8
FUTO
 10
19917.54907184657
 20
15616.14221215695
 30
0.0
 11
19910.450133846571
 21
15615.432496156949
 31
0.0
  0
ARC
  5
328
  8
FUTO
 10
19923.649169846569
 20
15394.252320156949
 30
0.0
 40
210.0001069999999
 50
86.232985999999997
 51
86.266968000000006
  0
ARC
  5
329
  8
FUTO
 10
19937.248901846571
 20
15600.80505415695
 30
0.0
 40
2.999933
 50
357.44390900000002
 51
86.232291999999973
  0
ARC
  5
32A
  8
FUTO
 10
19937.126464846569
 20
15600.813111156949
 30
0.0
 40
3.0000169999999988
 50
86.267189000000045
 51
175.056107
  0
LINE
  5
32B
  8
FUTO
 10
19940.245849846571
 20
15600.671265156951
 30
0.0
 11
19940.085937846568
 21
15597.087525156951
 31
0.0
  0
LINE
  5
32C
  8
FUTO
 10
19934.137572846568
 20
15601.07165615695
 30
0.0
 11
19933.828490846568
 21
15597.49768115695
 31
0.0
  0
LINE
  5
32D
  8
FUTO
 10
19913.160888846571
 20
15601.07165615695
 30
0.0
 11
19913.469970846571
 21
15597.49768115695
 31
0.0
  0
ARC
  5
32E
  8
FUTO
 10
19923.649169846569
 20
15394.252320156949
 30
0.0
 40
210.0
 50
93.732971000000006
 51
93.766974999999974
  0
ARC
  5
32F
  8
FUTO
 10
19910.049560846572
 20
15600.80505415695
 30
0.0
 40
3.0001370000000001
 50
93.767708000000013
 51
182.555984
  0
LINE
  5
330
  8
FUTO
 10
19907.05248984657
 20
15600.671265156951
 30
0.0
 11
19907.212524846571
 21
15597.087525156951
 31
0.0
  0
ARC
  5
331
  8
FUTO
 10
19910.17199684657
 20
15600.813111156949
 30
0.0
 40
3.000052999999999
 50
4.9438900000000174
 51
93.732811000000027
  0
LINE
  5
332
  8
FUTO
 10
19911.149169846569
 20
15604.252320156949
 30
0.0
 11
19936.149169846569
 21
15604.252320156949
 31
0.0
  0
LINE
  5
333
  8
FUTO
 10
19908.649169846569
 20
15604.252320156949
 30
0.0
 11
19938.649169846569
 21
15604.252320156949
 31
0.0
  0
LINE
  5
334
  8
FUTO
 10
19908.649169846569
 20
15604.252320156949
 30
0.0
 11
19908.649169846569
 21
15613.44226115695
 31
0.0
  0
LINE
  5
335
  8
FUTO
 10
19938.649169846569
 20
15604.252320156949
 30
0.0
 11
19938.649169846569
 21
15613.44226115695
 31
0.0
  0
ARC
  5
336
  8
FUTO
 10
19915.399169846569
 20
15607.89929315695
 30
0.0
 40
2.0
 50
270.0
 51
0.000000000000007
  0
ARC
  5
337
  8
FUTO
 10
19931.899169846569
 20
15607.89929315695
 30
0.0
 40
2.0
 50
180.0
 51
270.0
  0
LINE
  5
338
  8
FUTO
 10
19734.649169846569
 20
15194.252320156949
 30
0.0
 11
19814.149169846569
 21
15194.252320156949
 31
0.0
  0
LINE
  5
339
  8
FUTO
 10
19811.149169846569
 20
15214.252320156949
 30
0.0
 11
19737.649169846569
 21
15214.252320156949
 31
0.0
  0
LINE
  5
33A
  8
FUTO
 10
19784.773437846568
 20
15245.33557215695
 30
0.0
 11
19774.732421846569
 21
15255.37658715695
 31
0.0
  0
LINE
  5
33B
  8
FUTO
 10
19781.181396846569
 20
15241.74353115695
 30
0.0
 11
19784.773437846568
 21
15245.33557215695
 31
0.0
  0
ARC
  5
33C
  8
FUTO
 10
19923.649169846569
 20
15394.252320156949
 30
0.0
 40
214.9999849999999
 50
223.43432599999991
 51
232.51896699999989
  0
LINE
  5
33D
  8
FUTO
 10
19673.657505757012
 20
15194.252320156949
 30
0.0
 11
19840.310850268321
 21
15194.252320156949
 31
0.0
  0
LINE
  5
33E
  8
FUTO
 10
19761.649169846569
 20
15194.252320156949
 30
0.0
 11
19821.649169846569
 21
15194.252320156949
 31
0.0
  0
LINE
  5
33F
  8
FUTO
 10
19801.984374846568
 20
15231.12683215695
 30
0.0
 11
19797.462890846571
 21
15214.252320156949
 31
0.0
  0
ARC
  5
340
  8
FUTO
 10
19795.864501846569
 20
15227.60583615695
 30
0.0
 40
5.0
 50
232.51852400000001
 51
344.99902300000002
  0
ARC
  5
341
  8
FUTO
 10
19811.149169846569
 20
15211.252320156949
 30
0.0
 40
3.0
 50
0.000000000000007
 51
90.0
  0
LINE
  5
342
  8
FUTO
 10
19814.149169846569
 20
15211.252320156949
 30
0.0
 11
19814.149169846569
 21
15194.252320156949
 31
0.0
  0
LINE
  5
343
  8
FUTO
 10
19814.149169846569
 20
15199.252320156949
 30
0.0
 11
19819.824462846569
 21
15220.432496156949
 31
0.0
  0
LINE
  5
344
  8
FUTO
 10
19840.310850268321
 20
15194.252320156949
 30
0.0
 11
19840.310850268321
 21
15184.775975595339
 31
0.0
  0
LINE
  5
345
  8
FUTO
 10
19755.399169846569
 20
15206.252320156949
 30
0.0
 11
19755.399169846569
 21
15202.252320156949
 31
0.0
  0
LINE
  5
346
  8
FUTO
 10
19755.399169846569
 20
15198.252320156949
 30
0.0
 11
19755.399169846569
 21
15194.252320156949
 31
0.0
  0
LINE
  5
347
  8
FUTO
 10
19755.399169846569
 20
15214.252320156949
 30
0.0
 11
19755.399169846569
 21
15210.252320156949
 31
0.0
  0
ARC
  5
348
  8
FUTO
 10
19739.649169846569
 20
15268.57898015695
 30
0.0
 40
5.0000669999999987
 50
124.943665
 51
180.0
  0
ARC
  5
349
  8
FUTO
 10
19737.649169846569
 20
15211.252320156949
 30
0.0
 40
3.0
 50
90.0
 51
180.0
  0
LINE
  5
34A
  8
FUTO
 10
19734.649169846569
 20
15268.57898015695
 30
0.0
 11
19734.649169846569
 21
15194.252320156949
 31
0.0
  0
LINE
  5
34B
  8
FUTO
 10
19771.140380846569
 20
15251.78454615694
 30
0.0
 11
19774.732421846569
 21
15255.37658715695
 31
0.0
  0
LINE
  5
34C
  8
FUTO
 10
19771.140380846569
 20
15251.78454615694
 30
0.0
 11
19771.140380846569
 21
15250.935914156949
 31
0.0
  0
LINE
  5
34D
  8
FUTO
 10
19773.427734846569
 20
15249.497193156951
 30
0.0
 11
19772.579101846572
 21
15249.497193156951
 31
0.0
  0
LINE
  5
34E
  8
FUTO
 10
19773.427734846569
 20
15249.497193156951
 30
0.0
 11
19777.019775846569
 21
15253.089234156951
 31
0.0
  0
LINE
  5
34F
  8
FUTO
 10
19773.427734846569
 20
15249.497193156951
 30
0.0
 11
19773.427734846569
 21
15248.648560156949
 31
0.0
  0
LINE
  5
350
  8
FUTO
 10
19772.735351846572
 20
15257.734009156949
 30
0.0
 11
19767.937133846572
 21
15253.699586156939
 31
0.0
  0
LINE
  5
351
  8
FUTO
 10
19780.332763846571
 20
15241.74353115695
 30
0.0
 11
19781.181396846569
 21
15241.74353115695
 31
0.0
  0
LINE
  5
352
  8
FUTO
 10
19778.89379884657
 20
15244.030884156949
 30
0.0
 11
19778.89379884657
 21
15243.18225215695
 31
0.0
  0
LINE
  5
353
  8
FUTO
 10
19778.89379884657
 20
15244.030884156949
 30
0.0
 11
19782.486083846568
 21
15247.622925156949
 31
0.0
  0
LINE
  5
354
  8
FUTO
 10
19778.89379884657
 20
15244.030884156949
 30
0.0
 11
19778.045409846571
 21
15244.030884156949
 31
0.0
  0
ARC
  5
355
  8
FUTO
 10
19771.15502884657
 20
15249.87268115695
 30
0.0
 40
5.0000049999999998
 50
130.05917400000001
 51
223.43505899999991
  0
LINE
  5
356
  8
CT
 10
19775.208251846569
 20
15245.811402156951
 30
0.0
 11
19780.45629884657
 21
15251.05944915695
 31
0.0
  0
LINE
  5
357
  8
FUTO
 10
19780.332763846571
 20
15241.74353115695
 30
0.0
 11
19771.140380846569
 21
15250.935914156949
 31
0.0
  0
LINE
  5
358
  8
FUTO
 10
19773.899169846569
 20
15206.252320156949
 30
0.0
 11
19773.899169846569
 21
15202.252320156949
 31
0.0
  0
LINE
  5
359
  8
FUTO
 10
19773.899169846569
 20
15198.252320156949
 30
0.0
 11
19773.899169846569
 21
15194.252320156949
 31
0.0
  0
LINE
  5
35A
  8
CT
 10
19764.649169846569
 20
15218.67614815695
 30
0.0
 11
19764.649169846569
 21
15189.560425156949
 31
0.0
  0
LINE
  5
35B
  8
FUTO
 10
19773.899169846569
 20
15214.252320156949
 30
0.0
 11
19773.899169846569
 21
15210.252320156949
 31
0.0
  0
LINE
  5
35C
  8
FUTO
 10
19663.649169846569
 20
15225.43275249915
 30
0.0
 11
19690.379645553308
 21
15225.43275249915
 31
0.0
  0
LINE
  5
35D
  8
FUTO
 10
19725.194197257431
 20
15208.74595557441
 30
0.0
 11
19690.379645553308
 21
15208.74595557441
 31
0.0
  0
LINE
  5
35E
  8
FUTO
 10
19690.379645553308
 20
15225.43275249915
 30
0.0
 11
19690.379645553308
 21
15194.252320156949
 31
0.0
  0
LINE
  5
35F
  8
FUTO
 10
19736.785400846569
 20
15272.67761315695
 30
0.0
 11
19752.723266846569
 21
15283.81408715695
 31
0.0
  0
LINE
  5
360
  8
FUTO
 10
19781.181396846569
 20
15546.761109156951
 30
0.0
 11
19784.773437846568
 21
15543.169068156951
 31
0.0
  0
LINE
  5
361
  8
FUTO
 10
19774.732421846569
 20
15533.12805215695
 30
0.0
 11
19784.773437846568
 21
15543.169068156951
 31
0.0
  0
ARC
  5
362
  8
FUTO
 10
19923.649169846569
 20
15394.252320156949
 30
0.0
 40
210.00004599999991
 50
131.23298600000001
 51
131.26696799999991
  0
ARC
  5
363
  8
FUTO
 10
19787.118529846572
 20
15549.842652156951
 30
0.0
 40
2.9999169999999991
 50
131.26663199999999
 51
220.05661000000001
  0
ARC
  5
364
  8
FUTO
 10
19787.210693846569
 20
15549.92370715695
 30
0.0
 40
2.999909999999999
 50
42.440556000000022
 51
131.23197899999991
  0
LINE
  5
365
  8
FUTO
 10
19784.822265846571
 20
15547.91198815695
 30
0.0
 11
19787.130981846571
 21
15545.16613815695
 31
0.0
  0
LINE
  5
366
  8
FUTO
 10
19789.424560846572
 20
15551.948121156949
 30
0.0
 11
19791.845702846571
 21
15549.300904156949
 31
0.0
  0
LINE
  5
367
  8
FUTO
 10
19781.181396846569
 20
15546.761109156951
 30
0.0
 11
19780.332763846571
 21
15546.761109156951
 31
0.0
  0
LINE
  5
368
  8
FUTO
 10
19778.894042846568
 20
15544.473755156951
 30
0.0
 11
19778.894042846568
 21
15545.32238815695
 31
0.0
  0
LINE
  5
369
  8
FUTO
 10
19778.894042846568
 20
15544.473755156951
 30
0.0
 11
19778.045409846571
 21
15544.473755156951
 31
0.0
  0
LINE
  5
36A
  8
FUTO
 10
19771.140380846569
 20
15537.568726156949
 30
0.0
 11
19771.140380846569
 21
15536.72009315695
 31
0.0
  0
LINE
  5
36B
  8
FUTO
 10
19773.427734846569
 20
15539.00769115695
 30
0.0
 11
19772.579101846572
 21
15539.00769115695
 31
0.0
  0
LINE
  5
36C
  8
FUTO
 10
19773.427734846569
 20
15539.00769115695
 30
0.0
 11
19777.019775846569
 21
15535.41540615695
 31
0.0
  0
LINE
  5
36D
  8
FUTO
 10
19773.427734846569
 20
15539.00769115695
 30
0.0
 11
19773.427734846569
 21
15539.856080156949
 31
0.0
  0
LINE
  5
36E
  8
FUTO
 10
19775.208251846569
 20
15542.69323815695
 30
0.0
 11
19780.45629884657
 21
15537.44519115695
 31
0.0
  0
LINE
  5
36F
  8
FUTO
 10
19771.140380846569
 20
15537.568726156949
 30
0.0
 11
19780.332763846571
 21
15546.761109156951
 31
0.0
  0
LINE
  5
370
  8
FUTO
 10
19778.894042846568
 20
15544.473755156951
 30
0.0
 11
19782.486083846568
 21
15540.881714156951
 31
0.0
  0
ARC
  5
371
  8
FUTO
 10
19923.649169846569
 20
15394.252320156949
 30
0.0
 40
210.0
 50
138.73297099999991
 51
138.76696799999991
  0
ARC
  5
372
  8
FUTO
 10
19768.058837846569
 20
15530.78308215695
 30
0.0
 40
2.9999560000000001
 50
49.941890999999998
 51
138.7316129999999
  0
LINE
  5
373
  8
FUTO
 10
19765.953368846571
 20
15528.47692915695
 30
0.0
 11
19768.60070784657
 21
15526.05603115695
 31
0.0
  0
ARC
  5
374
  8
FUTO
 10
19767.97802784657
 20
15530.69079615695
 30
0.0
 40
2.9999500000000001
 50
138.768021
 51
227.55600000000001
  0
LINE
  5
375
  8
FUTO
 10
19769.989501846569
 20
15533.079224156951
 30
0.0
 11
19772.735351846572
 21
15530.770630156951
 31
0.0
  0
LINE
  5
376
  8
FUTO
 10
19771.140380846569
 20
15536.72009315695
 30
0.0
 11
19774.732421846569
 21
15533.12805215695
 31
0.0
  0
ARC
  5
377
  8
FUTO
 10
19923.649169846569
 20
15658.002320156949
 30
0.0
 40
6.25
 50
90.0
 51
180.0
  0
ARC
  5
378
  8
FUTO
 10
19923.649169846569
 20
15658.002320156949
 30
0.0
 40
6.25
 50
0.000000000000007
 51
90.0
  0
ARC
  5
396
  8
KL
 10
18825.649169846569
 20
16582.252320156938
 30
0.0
 40
1105.0
 50
0.0000000000000635
 51
90.855579635430288
  0
ARC
  5
397
  8
FUTO
 10
18723.649169846569
 20
16684.252320156949
 30
0.0
 40
95.000000000003084
 50
249.05612602761781
 51
270.0
  0
LINE
  5
398
  8
FUTO
 10
18633.649169846569
 20
16587.252320156949
 30
0.0
 11
18723.649169846569
 21
16587.252320156949
 31
0.0
  0
LINE
  5
399
  8
KL
 10
18422.115670243002
 20
16578.252320156938
 30
0.0
 11
18723.649169846569
 21
16578.252320156938
 31
0.0
  0
LINE
  5
39A
  8
FUTO
 10
18523.649169846569
 20
16584.252320156938
 30
0.0
 11
18923.649169846569
 21
16584.252320156938
 31
0.0
  0
DIMENSION
  5
39B
  8
FUTO
  2
*D5
 10
17873.649169846569
 20
14479.95246019192
 30
0.0
 11
18298.649169846569
 21
14539.95246019192
 31
0.0
 70
     0
 13
18723.649169846569
 23
14692.1701691132
 33
0.0
 14
17873.649169846569
 24
14644.252320156949
 34
0.0
 50
180.0
1001
ACAD
1000
DSTYLE
1002
{
1070
    40
1040
30.0
1070
   176
1070
     2
1070
   177
1070
     2
1070
   178
1070
     2
1070
   341
1005
44D5
1070
     5
1000
OPEN30
1002
}
  0
LINE
  5
3B5
  8
FUTO
 10
19601.211745760251
 20
15215.84671803116
 30
0.0
 11
19601.211745760251
 21
15202.00022608912
 31
0.0
  0
LINE
  5
3B6
  8
FUTO
 10
19601.211745760251
 20
15202.00022608912
 30
0.0
 11
19610.448236742421
 21
15202.00022608912
 31
0.0
  0
LINE
  5
3B7
  8
FUTO
 10
19610.448236742421
 20
15202.00022608912
 30
0.0
 11
19610.448236742421
 21
15216.20175100262
 31
0.0
  0
LINE
  5
3B8
  8
FUTO
 10
19610.448236742421
 20
15216.20175100262
 30
0.0
 11
19601.566996603611
 21
15216.20175100262
 31
0.0
  0
LINE
  5
3BA
  8
KL
 10
19025.182669450151
 20
16578.252320156938
 30
0.0
 11
18723.649169846569
 21
16578.252320156938
 31
0.0
  0
LINE
  5
3BD
  8
FUTO
 10
18903.649169846569
 20
16584.252320156938
 30
0.0
 11
18813.649169846569
 21
16584.252320156938
 31
0.0
  0
LINE
  5
3BF
  8
FUTO
 10
18923.649169846569
 20
16584.252320156938
 30
0.0
 11
18923.649169846569
 21
16578.252320156938
 31
0.0
  0
ARC
  5
3C0
  8
FUTO
 10
18900.649169846569
 20
16615.252320156938
 30
0.0
 40
2.9999999999999991
 50
0.000000000000007
 51
90.0
  0
LINE
  5
3C1
  8
FUTO
 10
18903.649169846569
 20
16615.252320156938
 30
0.0
 11
18903.649169846569
 21
16584.252320156938
 31
0.0
  0
LINE
  5
3C2
  8
FUTO
 10
18834.649169846569
 20
16618.252320156938
 30
0.0
 11
18900.649169846569
 21
16618.252320156938
 31
0.0
  0
ARC
  5
3C3
  8
FUTO
 10
18723.649169846569
 20
16684.252320156938
 30
0.0
 40
94.999999999998295
 50
270.0
 51
290.94387397238302
  0
LINE
  5
3C4
  8
FUTO
 10
18813.649169846569
 20
16584.252320156938
 30
0.0
 11
18813.649169846569
 21
16587.252320156949
 31
0.0
  0
ARC
  5
3C5
  8
FUTO
 10
18771.149169846569
 20
16601.979906797431
 30
0.0
 40
14.999999999999909
 50
300.0000000000008
 51
34.528063013809827
  0
LINE
  5
3C6
  8
FUTO
 10
18813.649169846569
 20
16587.252320156949
 30
0.0
 11
18723.649169846569
 21
16587.252320156949
 31
0.0
  0
ARC
  5
3C7
  8
FUTO
 10
18771.149169846569
 20
16601.979906797431
 30
0.0
 40
15.000000000000419
 50
205.4719369861869
 51
300.00000000000011
  0
LINE
  5
3CF
  8
FUTO
 10
18223.649169846569
 20
14869.252320156949
 30
0.0
 11
18223.649169846569
 21
14719.252320156949
 31
0.0
  0
LINE
  5
3D0
  8
FUTO
 10
18223.649169846569
 20
15134.252320156949
 30
0.0
 11
18223.649169846569
 21
14984.25232015694
 31
0.0
  0
LINE
  5
3D1
  8
FUTO
 10
18116.381019192599
 20
14984.25232015694
 30
0.0
 11
18116.381019192599
 21
14869.25232015694
 31
0.0
  0
LINE
  5
3D2
  8
FUTO
 10
18076.381019192599
 20
15020.66374904055
 30
0.0
 11
18076.381019192599
 21
14825.83881507689
 31
0.0
1001
ACAD
1000
ASC_BOUNDS
1002
{
1070
    19
1005
0
1005
0
1005
0
1002
}
  0
POINT
  5
3D3
  8
DEFPOINTS
  6
BYBLOCK
 62
     0
 10
17873.649169846569
 20
14719.252320156949
 30
0.0
  0
LINE
  5
3D4
  8
FUTO
 10
18036.381019192599
 20
14984.25232015694
 30
0.0
 11
18036.381019192599
 21
14869.25232015694
 31
0.0
  0
LINE
  5
3D5
  8
FUTO
 10
17873.649169846569
 20
14869.252320156949
 30
0.0
 11
17873.649169846569
 21
14719.252320156949
 31
0.0
  0
POINT
  5
3D6
  8
DEFPOINTS
  6
BYBLOCK
 62
     0
 10
17873.649169846569
 20
14984.252320156949
 30
0.0
  0
POINT
  5
3D7
  8
DEFPOINTS
  6
BYBLOCK
 62
     0
 10
17873.649169846569
 20
14869.252320156949
 30
0.0
  0
POINT
  5
3D8
  8
DEFPOINTS
  6
BYBLOCK
 62
     0
 10
17873.649169846569
 20
14869.252320156949
 30
0.0
  0
LINE
  5
3D9
  8
FUTO
 10
17873.649169846569
 20
15134.252320156949
 30
0.0
 11
17873.649169846569
 21
14984.252320156949
 31
0.0
  0
LINE
  5
3DD
  8
FUTO
 10
18612.649169846569
 20
16618.252320156938
 30
0.0
 11
18546.649169846569
 21
16618.252320156938
 31
0.0
  0
LINE
  5
3DE
  8
FUTO
 10
18543.649169846569
 20
16584.252320156938
 30
0.0
 11
18633.649169846569
 21
16584.252320156938
 31
0.0
  0
LINE
  5
3E0
  8
FUTO
 10
18633.649169846569
 20
16584.252320156938
 30
0.0
 11
18633.649169846569
 21
16587.252320156949
 31
0.0
  0
ARC
  5
3E1
  8
FUTO
 10
18676.149169846569
 20
16601.979906797431
 30
0.0
 40
14.99999999999998
 50
145.47193698619191
 51
240.0000000000006
  0
ARC
  5
3E2
  8
FUTO
 10
18676.149169846569
 20
16601.979906797431
 30
0.0
 40
14.99999999999978
 50
239.99999999999989
 51
334.52806301381321
  0
LINE
  5
3E3
  8
FUTO
 10
18523.649169846569
 20
16584.252320156938
 30
0.0
 11
18523.649169846569
 21
16578.252320156938
 31
0.0
  0
ARC
  5
3E5
  8
FUTO
 10
18546.649169846569
 20
16615.252320156938
 30
0.0
 40
2.9999999999999991
 50
90.0
 51
180.0
  0
LINE
  5
3E6
  8
FUTO
 10
18543.649169846569
 20
16615.252320156938
 30
0.0
 11
18543.649169846569
 21
16584.252320156938
 31
0.0
  0
INSERT
  5
3E8
  8
FUTO
  2
K150-75
 10
21216.740583052419
 20
15134.252320156949
 30
0.0
 50
180.0
1001
ACAD
1000
ASC_BOUNDS
1002
{
1070
    19
1005
3975
1002
}
  0
LINE
  5
405
  8
SL
 10
21172.64058305242
 20
16604.252320156938
 30
0.0
 11
21194.740583052419
 21
16604.252320156938
 31
0.0
  0
LINE
  5
406
  8
CT
 10
20947.783853531699
 20
15394.252320156949
 30
0.0
 11
21250.60253664315
 21
15394.252320156949
 31
0.0
  0
LINE
  5
407
  8
FUTO
 10
20984.740583052419
 20
15174.252320156949
 30
0.0
 11
21239.740583052419
 21
15174.252320156949
 31
0.0
  0
LINE
  5
408
  8
SL
 10
21172.64058305242
 20
15334.252320156949
 30
0.0
 11
21187.740583052419
 21
15334.252320156949
 31
0.0
  0
LINE
  5
409
  8
SL
 10
21172.64058305242
 20
15454.252320156949
 30
0.0
 11
21187.740583052419
 21
15454.252320156949
 31
0.0
  0
LINE
  5
40D
  8
FUTO
 10
21211.740583052419
 20
14984.252320156949
 30
0.0
 11
21211.740583052419
 21
14869.252320156949
 31
0.0
1001
ACAD
1000
ASC_BOUNDS
1002
{
1070
    19
1005
3975
1002
}
  0
LINE
  5
40E
  8
SL
 10
21094.740583052419
 20
15288.252320156949
 30
0.0
 11
21172.64058305242
 21
15288.252320156949
 31
0.0
  0
LINE
  5
40F
  8
SL
 10
21094.740583052419
 20
15500.252320156949
 30
0.0
 11
21172.64058305242
 21
15500.252320156949
 31
0.0
  0
LINE
  5
410
  8
SL
 10
21094.740583052419
 20
16434.252320156949
 30
0.0
 11
21172.64058305242
 21
16434.252320156949
 31
0.0
  0
LINE
  5
415
  8
CT
 10
21251.740583052419
 20
15004.14449675594
 30
0.0
 11
21251.740583052419
 21
14852.360826814171
 31
0.0
1001
ACAD
1000
ASC_BOUNDS
1002
{
1070
    19
1005
0
1005
3975
1005
3975
1002
}
  0
LINE
  5
41A
  8
SL
 10
21187.740583052419
 20
15454.252320156949
 30
0.0
 11
21187.740583052419
 21
15334.252320156949
 31
0.0
  0
LINE
  5
41B
  8
FUTO
 10
21239.740583052419
 20
15341.30974643274
 30
0.0
 11
21239.740583052419
 21
15174.252320156949
 31
0.0
  0
LINE
  5
42E
  8
FUTO
 10
17836.509130726441
 20
16768.39268818446
 30
0.0
 11
18344.886346487128
 21
16714.89091739614
 31
0.0
  0
LINE
  5
42F
  8
FUTO
 10
17838.377668327441
 20
16786.295441247428
 30
0.0
 11
18346.76216856391
 21
16732.79290383869
 31
0.0
  0
LINE
  5
430
  8
FUTO
 10
17793.649169846569
 20
16697.252320156949
 30
0.0
 11
17793.649169846569
 21
15139.252320156949
 31
0.0
  0
LINE
  5
431
  8
HOSO
 10
17793.649169846569
 20
16643.252320156938
 30
0.0
 11
17793.649169846569
 21
15193.25232015694
 31
0.0
  0
LINE
  5
44C
  8
FUTO
 10
17843.649169846569
 20
16697.252320156949
 30
0.0
 11
17843.649169846569
 21
15139.252320156949
 31
0.0
  0
LINE
  5
44D
  8
FUTO
 10
17797.649169846569
 20
16697.252320156949
 30
0.0
 11
17797.649169846569
 21
15139.252320156949
 31
0.0
  0
LINE
  5
44E
  8
CT
 10
17545.645191199241
 20
16684.252320156938
 30
0.0
 11
20253.738748934538
 21
16684.252320156938
 31
0.0
  0
LINE
  5
478
  8
FUTO
 10
17873.649169846569
 20
19815.497453302502
 30
0.0
 11
20273.649169846569
 21
19815.497453302502
 31
0.0
  0
LINE
  5
479
  8
FUTO
 10
17873.649169846569
 20
19890.497453302502
 30
0.0
 11
19930.649169846569
 21
19890.497453302491
 31
0.0
  0
LINE
  5
47A
  8
FUTO
 10
18223.649169846569
 20
18912.497453302502
 30
0.0
 11
20273.649169846569
 21
18912.497453302502
 31
0.0
  0
LINE
  5
488
  8
FUTO
 10
18223.649169846569
 20
18839.497453302502
 30
0.0
 11
20273.649169846569
 21
18839.497453302502
 31
0.0
  0
LINE
  5
489
  8
FUTO
 10
18223.649169846569
 20
18839.497453302502
 30
0.0
 11
20273.649169846569
 21
18839.497453302502
 31
0.0
  0
LINE
  5
4A3
  8
FUTO
 10
20273.649169846569
 20
19890.497453302491
 30
0.0
 11
20273.649169846569
 21
19815.497453302502
 31
0.0
  0
LINE
  5
4A4
  8
FUTO
 10
20058.649169846569
 20
19815.497453302502
 30
0.0
 11
20058.649169846569
 21
19515.997453302502
 31
0.0
  0
LINE
  5
4A5
  8
CT
 10
19923.649169846569
 20
19655.081942502409
 30
0.0
 11
19923.649169846569
 21
18479.365621384481
 31
0.0
  0
LINE
  5
4AD
  8
KL
 10
17793.649169846569
 20
15193.25232015694
 30
0.0
 11
18739.243766581822
 21
15278.545101944719
 31
0.0
  0
LINE
  5
4AE
  8
FUTO
 10
17843.649169846569
 20
15177.68113217881
 30
0.0
 11
18234.46316079437
 21
15212.93261581102
 31
0.0
  0
LINE
  5
4B2
  8
FUTO
 10
17793.649169846569
 20
15139.252320156949
 30
0.0
 11
17843.649169846569
 21
15139.252320156949
 31
0.0
  0
LINE
  5
51D
  8
CT
 10
18723.649169846569
 20
21341.370030952101
 30
0.0
 11
18723.649169846569
 21
18515.637365362749
 31
0.0
  0
LINE
  5
52A
  8
FUTO
 10
18223.649169846569
 20
19815.497453302502
 30
0.0
 11
18223.649169846569
 21
18839.497453302502
 31
0.0
  0
LINE
  5
52C
  8
FUTO
 10
18298.649169846569
 20
19815.497453302502
 30
0.0
 11
18298.649169846569
 21
18906.497453302502
 31
0.0
  0
ARC
  5
559
  8
FUTO
 10
18809.149169846569
 20
16769.752320156949
 30
0.0
 40
937.5
 50
95.232645962334615
 51
180.0
  0
ARC
  5
577
  8
FUTO
 10
18638.449169846572
 20
16769.752320156949
 30
0.0
 40
766.5
 50
180.0
 51
187.98670121782149
  0
CIRCLE
  5
578
  8
FUTO
 10
18723.649169846569
 20
16684.252320156938
 30
0.0
 40
36.5
  0
ARC
  5
579
  8
FUTO
 10
18723.649169846569
 20
16684.252320156949
 30
0.0
 40
94.999999999998053
 50
90.0
 51
110.94387397238231
  0
INSERT
  5
57A
  8
FUTO
  2
左回転矢印
 10
18901.65806492843
 20
17198.13114001467
 30
0.0
 41
-2.0
 42
2.0
 43
2.0
  0
ARC
  5
585
  8
KL
 10
18638.449169846572
 20
16769.752320156949
 30
0.0
 40
746.49999999999989
 50
180.0
 51
215.8784977425853
  0
ARC
  5
587
  8
FUTO
 10
18818.649169846569
 20
16684.252320156938
 30
0.0
 40
14.999999999999909
 50
265.47193698619128
 51
359.9999999999996
  0
ARC
  5
588
  8
FUTO
 10
18818.649169846569
 20
16684.252320156938
 30
0.0
 40
15.000000000000121
 50
359.9999999999996
 51
94.528063013807852
  0
LINE
  5
589
  8
FUTO
 10
18739.330832544369
 20
16777.94909414107
 30
0.0
 11
18739.330832544369
 21
16784.252320156938
 31
0.0
  0
LINE
  5
58A
  8
FUTO
 10
18707.967507148769
 20
16777.94909414107
 30
0.0
 11
18707.967507148769
 21
16784.252320156938
 31
0.0
  0
LINE
  5
58B
  8
FUTO
 10
18707.967507148769
 20
16784.252320156938
 30
0.0
 11
18739.330832544369
 21
16784.252320156938
 31
0.0
  0
LINE
  5
58C
  8
FUTO
 10
18818.649169846569
 20
16669.252320156949
 30
0.0
 11
18818.649169846569
 21
16634.252320156938
 31
0.0
  0
ARC
  5
58D
  8
FUTO
 10
18723.649169846569
 20
16684.252320156949
 30
0.0
 40
95.000000000000995
 50
329.99999999999932
 51
350.94387397238222
  0
ARC
  5
58E
  8
FUTO
 10
18723.649169846569
 20
16684.252320156938
 30
0.0
 40
94.999999999997456
 50
9.0561260276185163
 51
30.000000000001421
  0
ARC
  5
58F
  8
FUTO
 10
18723.649169846569
 20
16684.252320156938
 30
0.0
 40
95.000000000000071
 50
29.999999999999481
 51
50.943873972382391
  0
ARC
  5
590
  8
FUTO
 10
18723.649169846569
 20
16684.252320156949
 30
0.0
 40
94.999999999998494
 50
69.056126027616216
 51
90.0
  0
ARC
  5
591
  8
FUTO
 10
18771.149169846569
 20
16766.524733516471
 30
0.0
 40
14.99999999999976
 50
325.47193698619111
 51
59.999999999999517
  0
ARC
  5
592
  8
FUTO
 10
18771.149169846569
 20
16766.524733516471
 30
0.0
 40
15.00000000000038
 50
59.999999999999517
 51
154.52806301381301
  0
CIRCLE
  5
593
  8
KL
 10
18018.183493429369
 20
16323.68946369442
 30
0.0
 40
17.407412889793701
  0
LINE
  5
594
  8
FUTO
 10
17843.649169846569
 20
16697.252320156949
 30
0.0
 11
17793.649169846569
 21
16697.252320156949
 31
0.0
  0
LINE
  5
595
  8
KL
 10
17793.649169846569
 20
16643.252320156938
 30
0.0
 11
17902.74542512319
 21
16643.252320156938
 31
0.0
  0
LINE
  5
596
  8
FUTO
 10
17843.649169846569
 20
16663.252320156938
 30
0.0
 11
17879.383955256941
 21
16663.252320156938
 31
0.0
  0
INSERT
  5
597
  8
FUTO
  2
まっすぐの矢印
 10
17563.791217116759
 20
15624.264973664271
 30
0.0
 41
-2.0
 42
2.0
 43
2.0
 50
90.000000000000071
  0
LINE
  5
5A2
  8
FUTO
 10
18628.649169846569
 20
16669.252320156949
 30
0.0
 11
18628.649169846569
 21
16634.252320156938
 31
0.0
  0
ARC
  5
5A3
  8
FUTO
 10
18723.649169846569
 20
16684.252320156938
 30
0.0
 40
94.999999999999389
 50
149.99999999999969
 51
170.94387397238259
  0
ARC
  5
5A4
  8
FUTO
 10
18628.649169846569
 20
16684.252320156938
 30
0.0
 40
15.000000000000121
 50
85.471936986192148
 51
180.00000000000051
  0
ARC
  5
5A5
  8
FUTO
 10
18628.649169846569
 20
16684.252320156938
 30
0.0
 40
14.999999999999909
 50
180.0000000000004
 51
274.52806301380861
  0
ARC
  5
5A6
  8
FUTO
 10
18723.649169846569
 20
16684.252320156938
 30
0.0
 40
94.999999999999389
 50
189.0561260276173
 51
210.0000000000002
  0
ARC
  5
5A7
  8
FUTO
 10
18723.649169846569
 20
16684.252320156938
 30
0.0
 40
94.999999999999915
 50
129.0561260276165
 51
149.9999999999994
  0
ARC
  5
5A8
  8
FUTO
 10
18676.149169846569
 20
16766.524733516471
 30
0.0
 40
15.00000000000038
 50
25.4719369861869
 51
120.0000000000005
  0
ARC
  5
5A9
  8
FUTO
 10
18676.149169846569
 20
16766.524733516471
 30
0.0
 40
15.00000000000006
 50
120.0000000000008
 51
214.5280630138098
  0
LINE
  5
605
  8
FUTO
 10
20984.740583052419
 20
17064.252320156938
 30
0.0
 11
21239.740583052419
 21
17064.252320156938
 31
0.0
  0
LINE
  5
606
  8
SL
 10
21172.64058305242
 20
16764.252320156938
 30
0.0
 11
21194.740583052419
 21
16764.252320156938
 31
0.0
  0
POINT
  5
609
  8
DEFPOINTS
 10
20984.740583052419
 20
17064.252320156938
 30
0.0
  0
LINE
  5
60A
  8
SL
 10
21094.740583052419
 20
16934.252320156949
 30
0.0
 11
21172.64058305242
 21
16934.252320156949
 31
0.0
  0
LINE
  5
60E
  8
FUTO
 10
21424.740583052419
 20
16639.252320156938
 30
0.0
 11
21993.740583052419
 21
16639.252320156938
 31
0.0
  0
LINE
  5
60F
  8
FUTO
 10
21424.740583052419
 20
16729.252320156949
 30
0.0
 11
21993.740583052419
 21
16729.252320156949
 31
0.0
  0
LINE
  5
610
  8
FUTO
 10
21239.740583052419
 20
17064.252320156938
 30
0.0
 11
21239.740583052419
 21
16837.94269006266
 31
0.0
  0
LINE
  5
611
  8
FUTO
 10
21194.740583052419
 20
16641.752320156949
 30
0.0
 11
21284.240583052419
 21
16641.752320156949
 31
0.0
  0
LINE
  5
612
  8
FUTO
 10
21194.740583052419
 20
16726.752320156949
 30
0.0
 11
21284.240583052419
 21
16726.752320156949
 31
0.0
  0
LINE
  5
68C
  8
FUTO
 10
17873.649169846569
 20
21039.497453302502
 30
0.0
 11
19573.649169846569
 21
21039.497453302502
 31
0.0
  0
LINE
  5
68D
  8
FUTO
 10
17793.649169846569
 20
20964.497453302502
 30
0.0
 11
19930.649169846569
 21
20964.497453302502
 31
0.0
  0
LINE
  5
68E
  8
CT
 10
17546.129169267049
 20
20426.497453302502
 30
0.0
 11
20081.982410409601
 21
20426.497453302502
 31
0.0
  0
LINE
  5
68F
  8
FUTO
 10
19573.649169846569
 20
21039.497453302502
 30
0.0
 11
19573.649169846569
 21
21010.497453302491
 31
0.0
  0
LINE
  5
6A9
  8
FUTO
 10
17873.649169846569
 20
21039.497453302502
 30
0.0
 11
17873.649169846569
 21
21010.497453302502
 31
0.0
  0
LINE
  5
6C2
  8
FUTO
 10
22274.740583052419
 20
16675.252320156949
 30
0.0
 11
22274.740583052411
 21
15134.252320156949
 31
0.0
  0
LINE
  5
6C3
  8
FUTO
 10
22270.240583052419
 20
16675.252320156949
 30
0.0
 11
22270.240583052419
 21
15134.252320156949
 31
0.0
  0
LINE
  5
6C5
  8
FUTO
 10
23334.740583052419
 20
16675.252320156949
 30
0.0
 11
23334.740583052419
 21
15134.252320156949
 31
0.0
  0
LINE
  5
6C6
  8
KL
 10
23340.740583052419
 20
17388.565062465979
 30
0.0
 11
23340.740583052419
 21
15979.93957784791
 31
0.0
  0
LINE
  5
6CD
  8
CT
 10
22804.740583052419
 20
17822.9198788293
 30
0.0
 11
22804.740583052419
 21
14676.512279223351
 31
0.0
  0
LINE
  5
6D4
  8
FUTO
 10
22195.240583052419
 20
17687.252320156938
 30
0.0
 11
22195.240583052419
 21
15134.252320156949
 31
0.0
  0
DIMENSION
  5
6D5
  8
FUTO
  2
*D11
 10
23804.350444808639
 20
15984.252320156949
 30
0.0
 11
23744.350444808639
 21
16684.252320156949
 31
0.0
 70
     0
  1
%%C<>
 13
23438.740583052419
 23
17384.252320156938
 33
0.0
 14
23438.740583052419
 24
15984.252320156949
 34
0.0
 50
90.0
1001
ACAD
1000
DSTYLE
1002
{
1070
    40
1040
30.0
1070
   176
1070
     2
1070
   177
1070
     2
1070
   178
1070
     2
1070
   341
1005
44D5
1070
     5
1000
OPEN30
1002
}
  0
LINE
  5
6E2
  8
KL
 10
23343.940583052419
 20
16675.252320156949
 30
0.0
 11
23343.940583052419
 21
15934.252320156949
 31
0.0
  0
LINE
  5
6E6
  8
FUTO
 10
23432.740583052419
 20
17434.252320156949
 30
0.0
 11
23432.740583052419
 21
15934.252320156949
 31
0.0
  0
LINE
  5
6E7
  8
FUTO
 10
23438.740583052419
 20
17434.252320156949
 30
0.0
 11
23438.740583052419
 21
15934.252320156949
 31
0.0
  0
LINE
  5
70B
  8
CT
 10
22225.740583052419
 20
15004.41640128867
 30
0.0
 11
22225.740583052419
 21
14843.88356616596
 31
0.0
1001
ACAD
1000
ASC_BOUNDS
1002
{
1070
    19
1002
}
  0
LINE
  5
723
  8
FUTO
 10
23341.740583052419
 20
14984.252320156949
 30
0.0
 11
23341.740583052419
 21
14869.252320156949
 31
0.0
1001
ACAD
1000
ASC_BOUNDS
1002
{
1070
    19
1002
}
  0
LINE
  5
724
  8
CT
 10
23381.740583052419
 20
15003.775749088411
 30
0.0
 11
23381.740583052419
 21
14855.805095514461
 31
0.0
1001
ACAD
1000
ASC_BOUNDS
1002
{
1070
    19
1002
}
  0
LINE
  5
72A
  8
FUTO
 10
23419.740583052419
 20
14984.252320156949
 30
0.0
 11
23419.740583052419
 21
14869.252320156949
 31
0.0
1001
ACAD
1000
ASC_BOUNDS
1002
{
1070
    19
1002
}
  0
LINE
  5
72B
  8
KL
 10
23343.940583052419
 20
15978.252320156949
 30
0.0
 11
23412.940583052419
 21
15978.252320156949
 31
0.0
  0
LINE
  5
72C
  8
KL
 10
23337.940583052419
 20
15984.252320156949
 30
0.0
 11
23438.740583052419
 21
15984.252320156949
 31
0.0
  0
LINE
  5
72D
  8
CT
 10
23305.455885457319
 20
15951.752320156949
 30
0.0
 11
23362.498618589361
 21
15951.752320156949
 31
0.0
  0
LINE
  5
72E
  8
KL
 10
23337.940583052419
 20
15934.252320156949
 30
0.0
 11
23343.940583052419
 21
15934.252320156949
 31
0.0
  0
LINE
  5
72F
  8
FUTO
 10
23412.940583052419
 20
15978.252320156949
 30
0.0
 11
23432.740583052419
 21
15978.252320156949
 31
0.0
  0
LINE
  5
730
  8
CT
 10
23409.620848139781
 20
15951.752320156949
 30
0.0
 11
23469.763701893658
 21
15951.752320156949
 31
0.0
  0
LINE
  5
731
  8
FUTO
 10
23432.740583052419
 20
15934.252320156949
 30
0.0
 11
23438.740583052419
 21
15934.252320156949
 31
0.0
  0
DIMENSION
  5
800
  8
FUTO
  2
*D12
 10
23438.740583052419
 20
18002.875074837099
 30
0.0
 11
23121.740583052419
 21
18062.875074837099
 31
0.0
 70
     0
 13
22804.740583052419
 23
17835.969807741149
 33
0.0
 14
23438.740583052419
 24
17434.252320156949
 34
0.0
1001
ACAD
1000
DSTYLE
1002
{
1070
    40
1040
30.0
1070
   176
1070
     2
1070
   177
1070
     2
1070
   178
1070
     2
1070
   341
1005
44D5
1070
     5
1000
OPEN30
1002
}
  0
LINE
  5
826
  8
FUTO
 10
22270.240583052419
 20
17687.252320156938
 30
0.0
 11
22270.240583052419
 21
16693.252320156949
 31
0.0
  0
LINE
  5
827
  8
FUTO
 10
22274.740583052419
 20
17687.252320156938
 30
0.0
 11
22274.740583052419
 21
16693.252320156949
 31
0.0
  0
INSERT
  5
841
  8
FUTO
  2
まっすぐの矢印
 10
23500.587363741819
 20
17240.50420847693
 30
0.0
 41
-2.0
 42
2.0
 43
2.0
 50
90.0
  0
LINE
  5
842
  8
FUTO
 10
23334.740583052419
 20
17687.252320156938
 30
0.0
 11
23334.740583052419
 21
16693.252320156949
 31
0.0
  0
LINE
  5
844
  8
KL
 10
23343.940583052419
 20
17434.252320156949
 30
0.0
 11
23343.940583052419
 21
16693.252320156949
 31
0.0
  0
LINE
  5
845
  8
KL
 10
23343.940583052419
 20
17390.252320156938
 30
0.0
 11
23414.240583052419
 21
17390.252320156938
 31
0.0
  0
LINE
  5
846
  8
KL
 10
23337.940583052419
 20
17384.252320156938
 30
0.0
 11
23438.740583052419
 21
17384.252320156938
 31
0.0
  0
LINE
  5
847
  8
CT
 10
23315.284481808561
 20
17416.752320156938
 30
0.0
 11
23357.990120233811
 21
17416.752320156938
 31
0.0
  0
LINE
  5
848
  8
KL
 10
23337.940583052419
 20
17434.252320156949
 30
0.0
 11
23343.940583052419
 21
17434.252320156949
 31
0.0
  0
LINE
  5
84A
  8
FUTO
 10
23414.240583052419
 20
17390.252320156938
 30
0.0
 11
23432.740583052419
 21
17390.252320156938
 31
0.0
  0
LINE
  5
84B
  8
CT
 10
23409.979595790221
 20
17416.752320156938
 30
0.0
 11
23461.96907134663
 21
17416.752320156938
 31
0.0
  0
LINE
  5
84C
  8
FUTO
 10
23432.740583052419
 20
17434.252320156949
 30
0.0
 11
23438.740583052419
 21
17434.252320156949
 31
0.0
  0
POLYLINE
  8
0
  5
57A7
  62
2
  66
     1
 10
0.000000
 20
0.000000
 30
0.000000
  70
     8
  0
VERTEX
  8
0
  5
57A8
 10
20041.8
 20
16808.4
 30
0.000000
  70
    32
  0
VERTEX
  8
0
  5
57A9
 10
20041.8
 20
16684.3
 30
0.000000
  70
    32
  0
SEQEND
  8
0
  5
57AA
  0
POLYLINE
  8
0
  5
57AB
  62
2
  66
     1
 10
0.000000
 20
0.000000
 30
0.000000
  70
     8
  0
VERTEX
  8
0
  5
57AC
 10
20041.8
 20
16560.1
 30
0.000000
  70
    32
  0
VERTEX
  8
0
  5
57AD
 10
20041.8
 20
16684.3
 30
0.000000
  70
    32
  0
SEQEND
  8
0
  5
57AE
  0
LINE
  5
971
  8
KL
 10
18523.79542256863
 20
16696.062472525449
 30
0.0
 11
18525.66396016963
 21
16713.965225588421
 31
0.0
  0
LINE
  5
972
  8
KL
 10
18923.649169846569
 20
16693.252320156949
 30
0.0
 11
18923.649169846569
 21
16675.252320156949
 31
0.0
  0
LINE
  5
973
  8
KL
 10
18923.649169846569
 20
16693.252320156949
 30
0.0
 11
19197.083755919019
 21
16693.252320156949
 31
0.0
  0
LINE
  5
974
  8
KL
 10
18923.649169846569
 20
16675.252320156949
 30
0.0
 11
19211.005545016949
 21
16675.252320156949
 31
0.0
  0
LINE
  5
990
  8
FUTO
 10
17836.509130726441
 20
16768.39268818446
 30
0.0
 11
17838.377668327441
 21
16786.295441247428
 31
0.0
  0
POLYLINE
  5
119F
  8
FUTO
 66
     1
 10
0.0
 20
0.0
 30
0.0
 70
     1
1001
ACAD
1000
ASC_BOUNDS
1002
{
1070
    19
1002
}
  0
VERTEX
  5
56F2
  8
FUTO
 10
22190.740583052419
 20
14984.252320156949
 30
0.0
  0
VERTEX
  5
56F3
  8
FUTO
 10
22190.740583052419
 20
14987.59050873512
 30
0.0
 42
-0.3888787318529885
  0
VERTEX
  5
56F4
  8
FUTO
 10
22194.39196008143
 20
14991.575287527479
 30
0.0
  0
VERTEX
  5
56F5
  8
FUTO
 10
22255.589206023411
 20
14996.92935278641
 30
0.0
 42
0.3888787318529894
  0
VERTEX
  5
56F6
  8
FUTO
 10
22259.240583052419
 20
15000.91413157878
 30
0.0
  0
VERTEX
  5
56F7
  8
FUTO
 10
22259.240583052419
 20
15117.59050873512
 30
0.0
 42
0.3888787318529893
  0
VERTEX
  5
56F8
  8
FUTO
 10
22255.589206023411
 20
15121.575287527479
 30
0.0
  0
VERTEX
  5
56F9
  8
FUTO
 10
22194.39196008143
 20
15126.92935278641
 30
0.0
 42
-0.3888787318529887
  0
VERTEX
  5
56FA
  8
FUTO
 10
22190.740583052419
 20
15130.91413157878
 30
0.0
  0
VERTEX
  5
56FB
  8
FUTO
 10
22190.740583052419
 20
15134.252320156949
 30
0.0
  0
VERTEX
  5
56FC
  8
FUTO
 10
22265.740583052419
 20
15134.252320156949
 30
0.0
  0
VERTEX
  5
56FD
  8
FUTO
 10
22265.740583052419
 20
14984.252320156949
 30
0.0
  0
SEQEND
  5
56FE
  8
FUTO
  0
POLYLINE
  5
11AD
  8
FUTO
 66
     1
 10
0.0
 20
0.0
 30
0.0
 70
     1
1001
ACAD
1000
ASC_BOUNDS
1002
{
1070
    19
1002
}
  0
VERTEX
  5
56FF
  8
FUTO
 10
23341.740583052419
 20
14984.252320156949
 30
0.0
  0
VERTEX
  5
5700
  8
FUTO
 10
23341.740583052419
 20
15134.252320156949
 30
0.0
  0
VERTEX
  5
5701
  8
FUTO
 10
23416.740583052419
 20
15134.252320156949
 30
0.0
  0
VERTEX
  5
5702
  8
FUTO
 10
23416.740583052419
 20
15130.91413157878
 30
0.0
 42
-0.3888787318527922
  0
VERTEX
  5
5703
  8
FUTO
 10
23413.089206023411
 20
15126.92935278641
 30
0.0
  0
VERTEX
  5
5704
  8
FUTO
 10
23351.89196008143
 20
15121.575287527479
 30
0.0
 42
0.3888787318529906
  0
VERTEX
  5
5705
  8
FUTO
 10
23348.240583052419
 20
15117.59050873512
 30
0.0
  0
VERTEX
  5
5706
  8
FUTO
 10
23348.240583052419
 20
15000.91413157878
 30
0.0
 42
0.388878731852991
  0
VERTEX
  5
5707
  8
FUTO
 10
23351.89196008143
 20
14996.92935278641
 30
0.0
  0
VERTEX
  5
5708
  8
FUTO
 10
23413.089206023411
 20
14991.575287527479
 30
0.0
 42
-0.3888787318529234
  0
VERTEX
  5
5709
  8
FUTO
 10
23416.740583052419
 20
14987.59050873512
 30
0.0
  0
VERTEX
  5
570A
  8
FUTO
 10
23416.740583052419
 20
14984.252320156949
 30
0.0
  0
SEQEND
  5
570B
  8
FUTO
  0
LINE
  5
11F6
  8
FUTO
 10
21291.740583052419
 20
14869.252320156949
 30
0.0
 11
21216.740583052419
 21
14869.252320156949
 31
0.0
1001
ACAD
1000
ASC_BOUNDS
1002
{
1070
    19
1005
3975
1002
}
  0
LINE
  5
11F7
  8
FUTO
 10
21281.589206023411
 20
14856.575287527479
 30
0.0
 11
21220.39196008143
 21
14861.92935278641
 31
0.0
  0
LINE
  5
11F8
  8
FUTO
 10
21291.740583052419
 20
14719.252320156949
 30
0.0
 11
21216.740583052419
 21
14719.252320156949
 31
0.0
  0
LINE
  5
11F9
  8
FUTO
 10
21281.589206023411
 20
14731.92935278641
 30
0.0
 11
21220.39196008143
 21
14726.575287527479
 31
0.0
  0
LINE
  5
11FA
  8
FUTO
 10
21285.240583052419
 20
14735.91413157878
 30
0.0
 11
21285.240583052419
 21
14852.59050873512
 31
0.0
  0
ARC
  5
11FB
  8
FUTO
 10
21281.240583052419
 20
14852.59050873512
 30
0.0
 40
4.0
 50
0.0
 51
84.999999999999943
  0
LINE
  5
11FC
  8
FUTO
 10
21291.740583052419
 20
14719.252320156949
 30
0.0
 11
21291.740583052419
 21
14869.252320156949
 31
0.0
  0
ARC
  5
11FD
  8
FUTO
 10
21281.240583052419
 20
14735.91413157878
 30
0.0
 40
4.0
 50
275.0
 51
0.0
  0
ARC
  5
11FE
  8
FUTO
 10
21220.740583052419
 20
14865.91413157878
 30
0.0
 40
4.0
 50
180.0
 51
264.99999999999972
  0
LINE
  5
11FF
  8
FUTO
 10
21216.740583052419
 20
14869.252320156949
 30
0.0
 11
21216.740583052419
 21
14865.91413157878
 31
0.0
  0
LINE
  5
1200
  8
FUTO
 10
21216.740583052419
 20
14719.252320156949
 30
0.0
 11
21216.740583052419
 21
14722.59050873512
 31
0.0
  0
ARC
  5
1201
  8
FUTO
 10
21220.740583052419
 20
14722.59050873512
 30
0.0
 40
4.0
 50
95.000000000000227
 51
180.0
  0
INSERT
  5
1202
  8
FUTO
  2
K150-75
 10
22190.740583052419
 20
14869.252320156949
 30
0.0
 50
180.0
1001
ACAD
1000
ASC_BOUNDS
1002
{
1070
    19
1002
}
  0
LINE
  5
1204
  8
FUTO
 10
23341.740583052419
 20
14869.252320156949
 30
0.0
 11
23416.740583052419
 21
14869.252320156949
 31
0.0
1001
ACAD
1000
ASC_BOUNDS
1002
{
1070
    19
1002
}
  0
LINE
  5
1205
  8
FUTO
 10
23351.89196008143
 20
14856.575287527479
 30
0.0
 11
23413.089206023411
 21
14861.92935278641
 31
0.0
  0
LINE
  5
1206
  8
FUTO
 10
23341.740583052419
 20
14719.252320156949
 30
0.0
 11
23416.740583052419
 21
14719.252320156949
 31
0.0
  0
LINE
  5
1207
  8
FUTO
 10
23351.89196008143
 20
14731.92935278641
 30
0.0
 11
23413.089206023411
 21
14726.575287527479
 31
0.0
  0
LINE
  5
1208
  8
FUTO
 10
23348.240583052419
 20
14735.91413157878
 30
0.0
 11
23348.240583052419
 21
14852.59050873512
 31
0.0
  0
ARC
  5
1209
  8
FUTO
 10
23352.240583052419
 20
14852.59050873512
 30
0.0
 40
4.0
 50
94.999999999999758
 51
180.0
  0
LINE
  5
120A
  8
FUTO
 10
23341.740583052419
 20
14719.252320156949
 30
0.0
 11
23341.740583052419
 21
14869.252320156949
 31
0.0
  0
ARC
  5
120B
  8
FUTO
 10
23352.240583052419
 20
14735.91413157878
 30
0.0
 40
4.0
 50
180.0
 51
265.00000000000028
  0
ARC
  5
120C
  8
FUTO
 10
23412.740583052419
 20
14865.91413157878
 30
0.0
 40
4.0
 50
275.00000000000011
 51
0.0
  0
LINE
  5
120D
  8
FUTO
 10
23416.740583052419
 20
14869.252320156949
 30
0.0
 11
23416.740583052419
 21
14865.91413157878
 31
0.0
  0
LINE
  5
120E
  8
FUTO
 10
23416.740583052419
 20
14719.252320156949
 30
0.0
 11
23416.740583052419
 21
14722.59050873512
 31
0.0
  0
ARC
  5
120F
  8
FUTO
 10
23412.740583052419
 20
14722.59050873512
 30
0.0
 40
4.0
 50
0.0
 51
84.999999999999844
  0
LINE
  5
1840
  8
FUTO
 10
19148.649169846569
 20
19815.497453302502
 30
0.0
 11
19148.649169846569
 21
18906.497453302502
 31
0.0
  0
LINE
  5
1841
  8
FUTO
 10
19223.649169846569
 20
19815.497453302502
 30
0.0
 11
19223.649169846569
 21
18906.497453302502
 31
0.0
  0
LINE
  5
1FF1
  8
FUTO
 10
23337.940583052419
 20
17687.252320156938
 30
0.0
 11
23337.940583052419
 21
16693.252320156949
 31
0.0
  0
LINE
  5
1FF2
  8
FUTO
 10
23337.940583052419
 20
16675.252320156949
 30
0.0
 11
23337.940583052419
 21
15134.252320156949
 31
0.0
  0
LINE
  5
1FF5
  8
FUTO
 10
23412.940583052419
 20
17687.252320156938
 30
0.0
 11
23412.940583052419
 21
15134.25232015694
 31
0.0
  0
DIMENSION
  5
2003
  8
FUTO
  2
*D6
 10
23416.740583052419
 20
14301.21839791499
 30
0.0
 11
22316.740583052419
 21
14361.21839791499
 31
0.0
 70
     0
 13
21216.740583052419
 23
14719.252320156949
 33
0.0
 14
23416.740583052419
 24
14719.252320156949
 34
0.0
1001
ACAD
1000
DSTYLE
1002
{
1070
    40
1040
30.0
1070
   176
1070
     2
1070
   177
1070
     2
1070
   178
1070
     2
1070
   341
1005
44D5
1070
     5
1000
OPEN30
1002
}
  0
LINE
  5
25BB
  8
CT
 10
18723.649169846569
 20
19423.170722023558
 30
0.0
 11
18723.649169846569
 21
19421.111591692392
 31
0.0
  0
LINE
  5
279A
  8
FUTO
 10
21291.740583052419
 20
14984.252320156949
 30
0.0
 11
21291.740583052419
 21
14869.252320156949
 31
0.0
1001
ACAD
1000
ASC_BOUNDS
1002
{
1070
    19
1005
3975
1002
}
  0
TEXT
  5
29E7
  8
SP
 10
9149.8042194081445
 20
6129.2813767066364
 30
0.0
 40
100.0
  1
 
  0
LINE
  5
3235
  8
FUTO
 10
19923.432220527291
 20
16213.853320299961
 30
0.0
 11
19900.681823947009
 21
16221.341305200989
 31
0.0
  0
LINE
  5
3236
  8
FUTO
 10
19884.352513521029
 20
16095.119262421411
 30
0.0
 11
19858.052818523149
 21
16103.775450824591
 31
0.0
  0
LINE
  5
3237
  8
FUTO
 10
19929.804568597068
 20
16201.228219109171
 30
0.0
 11
19896.977614711821
 21
16101.49161049119
 31
0.0
  0
ARC
  5
3238
  8
FUTO
 10
19920.30584396678
 20
16204.354595669671
 30
0.0
 40
10.0
 50
341.78173999721008
 51
71.781739997210067
  0
ARC
  5
3239
  8
FUTO
 10
19887.47889008154
 20
16104.61798705169
 30
0.0
 40
10.0
 50
251.78173999721
 51
341.78173999721008
  0
LINE
  5
323A
  8
FUTO
 10
19926.558597087791
 20
16223.35204493024
 30
0.0
 11
19903.609217378511
 21
16230.905522433141
 31
0.0
  0
ARC
  5
323B
  8
FUTO
 10
19920.30584396678
 20
16204.354595669671
 30
0.0
 40
20.0
 50
341.78173999721008
 51
71.781739997210067
  0
LINE
  5
323C
  8
FUTO
 10
19939.303293227349
 20
16198.101842548671
 30
0.0
 11
19906.476339342102
 21
16098.36523393069
 31
0.0
  0
ARC
  5
323D
  8
FUTO
 10
19887.47889008154
 20
16104.61798705169
 30
0.0
 40
20.0
 50
251.78173999721
 51
341.78173999721008
  0
LINE
  5
323E
  8
FUTO
 10
19881.226136960529
 20
16085.62053779113
 30
0.0
 11
19854.157990407592
 21
16094.52965161568
 31
0.0
  0
LINE
  5
3241
  8
CT
 10
19964.872404988619
 20
16134.415537783651
 30
0.0
 11
19781.821619545339
 21
16194.664224556451
 31
0.0
  0
DIMENSION
  5
393B
  8
FUTO
  2
*D7
 10
23416.740583052419
 20
14482.548839172579
 30
0.0
 11
23110.740583052419
 21
14542.548839172579
 31
0.0
 70
     0
 13
22804.740583052419
 23
14719.252320156949
 33
0.0
 14
23416.740583052419
 24
14719.252320156949
 34
0.0
1001
ACAD
1000
DSTYLE
1002
{
1070
    40
1040
30.0
1070
   176
1070
     2
1070
   177
1070
     2
1070
   178
1070
     2
1070
   341
1005
44D5
1070
     5
1000
OPEN30
1002
}
  0
DIMENSION
  5
3948
  8
FUTO
  2
*D8
 10
21216.740583052419
 20
14482.55408009518
 30
0.0
 11
22010.740583052419
 21
14542.55408009518
 31
0.0
 70
     0
 13
22804.740583052419
 23
14719.252320156949
 33
0.0
 14
21216.740583052419
 24
14719.252320156949
 34
0.0
1001
ACAD
1000
DSTYLE
1002
{
1070
    40
1040
30.0
1070
   176
1070
     2
1070
   177
1070
     2
1070
   178
1070
     2
1070
   341
1005
44D5
1070
     5
1000
OPEN30
1002
}
  0
POLYLINE
  5
3949
  8
FUTO
 66
     1
 10
0.0
 20
0.0
 30
0.0
  0
VERTEX
  5
5727
  8
FUTO
 10
22194.740583052419
 20
15134.252320156949
 30
0.0
  0
VERTEX
  5
5728
  8
FUTO
 10
22269.740583052419
 20
15134.252320156949
 30
0.0
  0
SEQEND
  5
5729
  8
FUTO
  0
LINE
  5
39B1
  8
FUTO
 10
20263.649169846569
 20
14984.252320156949
 30
0.0
 11
20263.649169846569
 21
14869.252320156949
 31
0.0
  0
LINE
  5
39B2
  8
FUTO
 10
20183.649169846569
 20
14984.252320156949
 30
0.0
 11
20183.649169846569
 21
14869.252320156949
 31
0.0
  0
LINE
  5
39B3
  8
FUTO
 10
20223.649169846569
 20
15020.66374904055
 30
0.0
 11
20223.649169846569
 21
14825.83881507689
 31
0.0
1001
ACAD
1000
ASC_BOUNDS
1002
{
1070
    19
1005
0
1005
0
1005
0
1002
}
  0
LINE
  5
3AE6
  8
FUTO
 10
21278.240583052419
 20
16576.252320156949
 30
0.0
 11
21278.240583052419
 21
15134.252320156949
 31
0.0
  0
LINE
  5
3AE7
  8
FUTO
 10
21278.240583052419
 20
16576.252320156949
 30
0.0
 11
21288.240583052419
 21
16576.252320156949
 31
0.0
  0
LINE
  5
3AE8
  8
FUTO
 10
21288.240583052419
 20
16576.252320156949
 30
0.0
 11
21288.240583052419
 21
16566.252320156949
 31
0.0
  0
LINE
  5
3AEA
  8
FUTO
 10
21288.240583052419
 20
16566.252320156949
 30
0.0
 11
22195.240583052419
 21
16566.252320156949
 31
0.0
  0
LINE
  5
3B39
  8
FUTO
 10
21398.740583052419
 20
16621.252320156938
 30
0.0
 11
21310.740583052419
 21
16621.252320156938
 31
0.0
  0
LINE
  5
3B3A
  8
FUTO
 10
21299.740583052419
 20
16584.252320156938
 30
0.0
 11
21409.740583052419
 21
16584.252320156938
 31
0.0
  0
LINE
  5
3B3B
  8
FUTO
 10
21404.740583052419
 20
16777.252320156949
 30
0.0
 11
21304.740583052419
 21
16777.252320156949
 31
0.0
  0
LINE
  5
3B3C
  8
FUTO
 10
21304.740583052419
 20
16777.252320156949
 30
0.0
 11
21304.740583052419
 21
16584.252320156938
 31
0.0
  0
LINE
  5
3B3D
  8
FUTO
 10
21284.240583052419
 20
16759.252320156938
 30
0.0
 11
21284.240583052419
 21
16609.252320156949
 31
0.0
  0
LINE
  5
3B3E
  8
FUTO
 10
21289.740583052419
 20
16768.252320156949
 30
0.0
 11
21289.740583052419
 21
16600.252320156938
 31
0.0
  0
LINE
  5
3B40
  8
FUTO
 10
21284.240583052419
 20
16609.252320156949
 30
0.0
 11
21289.740583052419
 21
16609.252320156949
 31
0.0
  0
ARC
  5
3B41
  8
FUTO
 10
21310.740583052419
 20
16615.252320156938
 30
0.0
 40
6.0
 50
90.0
 51
180.0
  0
LINE
  5
3B42
  8
FUTO
 10
21295.740583052419
 20
16594.252320156949
 30
0.0
 11
21304.740583052419
 21
16594.252320156949
 31
0.0
  0
ARC
  5
3B43
  8
FUTO
 10
21295.740583052419
 20
16600.252320156938
 30
0.0
 40
6.0
 50
180.0
 51
270.0
  0
LINE
  5
3B44
  8
FUTO
 10
21289.740583052419
 20
16759.252320156938
 30
0.0
 11
21284.240583052419
 21
16759.252320156938
 31
0.0
  0
ARC
  5
3B45
  8
FUTO
 10
21295.740583052419
 20
16768.252320156949
 30
0.0
 40
6.0
 50
90.0
 51
180.0
  0
LINE
  5
3B46
  8
FUTO
 10
21304.740583052419
 20
16774.252320156949
 30
0.0
 11
21295.740583052419
 21
16774.252320156949
 31
0.0
  0
LINE
  5
3B47
  8
FUTO
 10
21404.740583052419
 20
16584.252320156938
 30
0.0
 11
21404.740583052419
 21
16777.252320156949
 31
0.0
  0
LINE
  5
3B48
  8
FUTO
 10
21419.740583052419
 20
16768.252320156949
 30
0.0
 11
21419.740583052419
 21
16600.252320156938
 31
0.0
  0
LINE
  5
3B49
  8
FUTO
 10
21425.240583052419
 20
16759.252320156938
 30
0.0
 11
21425.240583052419
 21
16609.252320156949
 31
0.0
  0
LINE
  5
3B4A
  8
FUTO
 10
21413.740583052419
 20
16594.252320156949
 30
0.0
 11
21404.740583052419
 21
16594.252320156949
 31
0.0
  0
ARC
  5
3B4B
  8
FUTO
 10
21398.740583052419
 20
16615.252320156938
 30
0.0
 40
6.0
 50
0.0
 51
90.0
  0
ARC
  5
3B4C
  8
FUTO
 10
21413.740583052419
 20
16600.252320156938
 30
0.0
 40
6.0
 50
270.0
 51
0.0
  0
LINE
  5
3B4D
  8
FUTO
 10
21425.240583052419
 20
16609.252320156949
 30
0.0
 11
21419.740583052419
 21
16609.252320156949
 31
0.0
  0
LINE
  5
3B4E
  8
FUTO
 10
21404.740583052419
 20
16774.252320156949
 30
0.0
 11
21413.740583052419
 21
16774.252320156949
 31
0.0
  0
ARC
  5
3B4F
  8
FUTO
 10
21413.740583052419
 20
16768.252320156949
 30
0.0
 40
6.0
 50
0.0
 51
90.0
  0
LINE
  5
3B50
  8
FUTO
 10
21419.740583052419
 20
16759.252320156938
 30
0.0
 11
21425.240583052419
 21
16759.252320156938
 31
0.0
  0
LINE
  5
3B51
  8
FUTO
 10
21299.740583052419
 20
16584.252320156938
 30
0.0
 11
21299.740583052419
 21
16566.252320156949
 31
0.0
  0
LINE
  5
3B52
  8
FUTO
 10
21409.740583052419
 20
16584.252320156938
 30
0.0
 11
21409.740583052419
 21
16566.252320156949
 31
0.0
  0
LINE
  5
3BBC
  8
FUTO
 10
22131.240583052419
 20
16788.252320156949
 30
0.0
 11
21998.240583052419
 21
16788.252320156949
 31
0.0
  0
LINE
  5
3BBD
  8
FUTO
 10
22113.740583052419
 20
16608.252320156949
 30
0.0
 11
22015.740583052419
 21
16608.252320156949
 31
0.0
  0
LINE
  5
3BBE
  8
FUTO
 10
21999.740583052419
 20
16572.252320156949
 30
0.0
 11
22129.740583052419
 21
16572.252320156949
 31
0.0
  0
LINE
  5
3BC0
  8
FUTO
 10
22009.740583052419
 20
16788.252320156949
 30
0.0
 11
22009.740583052419
 21
16572.252320156949
 31
0.0
  0
LINE
  5
3BC1
  8
FUTO
 10
21987.240583052419
 20
16774.252320156949
 30
0.0
 11
21987.240583052419
 21
16594.252320156949
 31
0.0
  0
LINE
  5
3BC2
  8
FUTO
 10
21992.240583052419
 20
16782.252320156938
 30
0.0
 11
21992.240583052419
 21
16586.252320156949
 31
0.0
  0
LINE
  5
3BC3
  8
FUTO
 10
21987.240583052419
 20
16594.252320156949
 30
0.0
 11
21992.240583052419
 21
16594.252320156949
 31
0.0
  0
ARC
  5
3BC4
  8
FUTO
 10
22015.740583052419
 20
16602.252320156938
 30
0.0
 40
6.0
 50
90.0
 51
180.0
  0
LINE
  5
3BC5
  8
FUTO
 10
21998.240583052419
 20
16580.252320156938
 30
0.0
 11
22009.740583052419
 21
16580.252320156938
 31
0.0
  0
ARC
  5
3BC6
  8
FUTO
 10
21998.240583052419
 20
16586.252320156949
 30
0.0
 40
6.0
 50
180.0
 51
270.0
  0
LINE
  5
3BC7
  8
FUTO
 10
21992.240583052419
 20
16774.252320156949
 30
0.0
 11
21987.240583052419
 21
16774.252320156949
 31
0.0
  0
ARC
  5
3BC8
  8
FUTO
 10
21998.240583052419
 20
16782.252320156938
 30
0.0
 40
6.0
 50
90.0
 51
180.0
  0
LINE
  5
3BC9
  8
FUTO
 10
22119.740583052419
 20
16788.252320156949
 30
0.0
 11
22119.740583052419
 21
16572.252320156949
 31
0.0
  0
LINE
  5
3BCA
  8
FUTO
 10
22137.240583052419
 20
16782.252320156938
 30
0.0
 11
22137.240583052419
 21
16586.252320156949
 31
0.0
  0
LINE
  5
3BCB
  8
FUTO
 10
22142.240583052419
 20
16774.252320156949
 30
0.0
 11
22142.240583052419
 21
16594.252320156949
 31
0.0
  0
ARC
  5
3BCC
  8
FUTO
 10
22113.740583052419
 20
16602.252320156938
 30
0.0
 40
6.0
 50
0.0
 51
90.0
  0
LINE
  5
3BCD
  8
FUTO
 10
22131.240583052419
 20
16580.252320156938
 30
0.0
 11
22119.740583052419
 21
16580.252320156938
 31
0.0
  0
ARC
  5
3BCE
  8
FUTO
 10
22131.240583052419
 20
16586.252320156949
 30
0.0
 40
6.0
 50
270.0
 51
0.0
  0
LINE
  5
3BCF
  8
FUTO
 10
22142.240583052419
 20
16594.252320156949
 30
0.0
 11
22137.240583052419
 21
16594.252320156949
 31
0.0
  0
ARC
  5
3BD0
  8
FUTO
 10
22131.240583052419
 20
16782.252320156938
 30
0.0
 40
6.0
 50
0.0
 51
90.0
  0
LINE
  5
3BD1
  8
FUTO
 10
22137.240583052419
 20
16774.252320156949
 30
0.0
 11
22142.240583052419
 21
16774.252320156949
 31
0.0
  0
LINE
  5
3C31
  8
SL
 10
21468.982600271909
 20
16810.951223188102
 30
0.0
 11
21934.259013157509
 21
16810.951223188102
 31
0.0
  0
LINE
  5
3C32
  8
FUTO
 10
21999.740583052419
 20
16572.252320156949
 30
0.0
 11
21999.740583052419
 21
16566.252320156949
 31
0.0
  0
LINE
  5
3C33
  8
FUTO
 10
22129.740583052419
 20
16572.252320156949
 30
0.0
 11
22129.740583052419
 21
16566.252320156949
 31
0.0
  0
DIMENSION
  5
3C4B
  8
SP
  2
*D10
 10
22804.740583052419
 20
18002.875074837099
 30
0.0
 11
21894.740583052419
 21
18062.875074837099
 31
0.0
 70
     0
 13
20984.740583052419
 23
17064.252320156938
 33
0.0
 14
22804.740583052419
 24
17865.969807741149
 34
0.0
1001
ACAD
1000
DSTYLE
1002
{
1070
    40
1040
30.0
1070
   176
1070
     2
1070
   177
1070
     2
1070
   178
1070
     2
1070
   341
1005
44D5
1070
     5
1000
OPEN30
1002
}
  0
LINE
  5
3C62
  8
SL
 10
21468.982600271909
 20
16810.951223188102
 30
0.0
 11
21468.982600271909
 21
16556.252320156949
 31
0.0
  0
LINE
  5
3C63
  8
SL
 10
21934.259013157509
 20
16810.951223188102
 30
0.0
 11
21934.259013157509
 21
16556.252320156949
 31
0.0
  0
LINE
  5
3C79
  8
FUTO
 10
18678.649169846569
 20
19046.497453302502
 30
0.0
 11
18678.649169846569
 21
19615.497453302502
 31
0.0
  0
LINE
  5
3C7A
  8
FUTO
 10
18768.649169846569
 20
19046.497453302502
 30
0.0
 11
18768.649169846569
 21
19615.497453302502
 31
0.0
  0
LINE
  5
3C7B
  8
FUTO
 10
18343.649169846569
 20
18606.497453302502
 30
0.0
 11
20143.649169846569
 21
18606.497453302502
 31
0.0
  0
LINE
  5
3C7D
  8
SL
 10
18473.649169846569
 20
18794.397453302499
 30
0.0
 11
20029.649169846569
 21
18794.397453302499
 31
0.0
  0
LINE
  5
3C7E
  8
SL
 10
18473.649169846569
 20
18716.497453302502
 30
0.0
 11
20029.649169846569
 21
18716.497453302502
 31
0.0
  0
LINE
  5
3C7F
  8
CT
 10
18605.14567288645
 20
18976.497453302502
 30
0.0
 11
18886.479801633279
 21
18976.497453302502
 31
0.0
  0
LINE
  5
3C80
  8
CT
 10
19923.649169846569
 20
18569.540723781782
 30
0.0
 11
19923.649169846569
 21
18872.359406893229
 31
0.0
  0
LINE
  5
3C81
  8
SL
 10
19817.649169846569
 20
18716.497453302502
 30
0.0
 11
19817.649169846569
 21
18794.397453302488
 31
0.0
  0
LINE
  5
3C82
  8
SL
 10
20029.649169846569
 20
18716.497453302502
 30
0.0
 11
20029.649169846569
 21
18794.397453302488
 31
0.0
  0
LINE
  5
3C83
  8
FUTO
 10
19976.591743570782
 20
18861.497453302502
 30
0.0
 11
20143.649169846569
 21
18861.497453302502
 31
0.0
  0
LINE
  5
3C84
  8
SL
 10
19863.649169846569
 20
18809.497453302502
 30
0.0
 11
19983.649169846569
 21
18809.497453302502
 31
0.0
  0
LINE
  5
3C85
  8
SL
 10
19863.649169846569
 20
18794.397453302499
 30
0.0
 11
19863.649169846569
 21
18809.497453302502
 31
0.0
  0
LINE
  5
3C86
  8
SL
 10
19983.649169846569
 20
18794.397453302488
 30
0.0
 11
19983.649169846569
 21
18809.497453302502
 31
0.0
  0
LINE
  5
3C87
  8
SL
 10
18973.649169846569
 20
18716.497453302502
 30
0.0
 11
18973.649169846569
 21
18794.397453302499
 31
0.0
  0
LINE
  5
3C88
  8
FUTO
 10
18630.649169846569
 20
19026.497453302502
 30
0.0
 11
18630.649169846569
 21
18926.497453302502
 31
0.0
  0
LINE
  5
3C8B
  8
FUTO
 10
18343.649169846569
 20
18861.497453302502
 30
0.0
 11
18569.95879994085
 21
18861.497453302502
 31
0.0
  0
LINE
  5
3C8C
  8
SL
 10
18473.649169846569
 20
18716.497453302502
 30
0.0
 11
18473.649169846569
 21
18794.397453302499
 31
0.0
  0
LINE
  5
3C8D
  8
FUTO
 10
18681.149169846569
 20
18816.497453302502
 30
0.0
 11
18681.149169846569
 21
18905.997453302502
 31
0.0
  0
LINE
  5
3C8E
  8
FUTO
 10
18766.149169846569
 20
18816.497453302502
 30
0.0
 11
18766.149169846569
 21
18905.997453302502
 31
0.0
  0
LINE
  5
3C8F
  8
SL
 10
18643.649169846569
 20
18794.397453302499
 30
0.0
 11
18643.649169846569
 21
18816.497453302502
 31
0.0
  0
LINE
  5
3C90
  8
SL
 10
18803.649169846569
 20
18794.397453302499
 30
0.0
 11
18803.649169846569
 21
18816.497453302502
 31
0.0
  0
LINE
  5
3C91
  8
SL
 10
18643.649169846569
 20
18816.497453302502
 30
0.0
 11
18803.649169846569
 21
18816.497453302502
 31
0.0
  0
LINE
  5
3C94
  8
FUTO
 10
18633.649169846569
 20
18926.497453302502
 30
0.0
 11
18633.649169846569
 21
18917.497453302502
 31
0.0
  0
ARC
  5
3C95
  8
FUTO
 10
18639.649169846569
 20
18917.497453302502
 30
0.0
 40
6.0
 50
180.0
 51
270.0
  0
LINE
  5
3C96
  8
FUTO
 10
18648.649169846569
 20
18911.497453302502
 30
0.0
 11
18648.649169846569
 21
18905.997453302502
 31
0.0
  0
ARC
  5
3C97
  8
FUTO
 10
18807.649169846569
 20
18917.497453302502
 30
0.0
 40
6.0
 50
270.0
 51
0.000000000000007
  0
LINE
  5
3C98
  8
FUTO
 10
18813.649169846569
 20
18917.497453302502
 30
0.0
 11
18813.649169846569
 21
18926.497453302502
 31
0.0
  0
LINE
  5
3C9A
  8
FUTO
 10
18798.649169846569
 20
18905.997453302502
 30
0.0
 11
18798.649169846569
 21
18911.497453302502
 31
0.0
  0
LINE
  5
3C9B
  8
FUTO
 10
18639.649169846569
 20
18911.497453302502
 30
0.0
 11
18807.649169846569
 21
18911.497453302502
 31
0.0
  0
LINE
  5
3C9C
  8
FUTO
 10
18648.649169846569
 20
18905.997453302502
 30
0.0
 11
18798.649169846569
 21
18905.997453302502
 31
0.0
  0
LINE
  5
3C9D
  8
FUTO
 10
18630.649169846569
 20
18926.497453302502
 30
0.0
 11
18816.649169846569
 21
18926.497453302502
 31
0.0
  0
LINE
  5
3C9F
  8
FUTO
 10
18343.649169846569
 20
18606.497453302491
 30
0.0
 11
18343.649169846569
 21
18861.497453302502
 31
0.0
  0
POINT
  5
3CA0
  8
DEFPOINTS
 10
18343.649169846569
 20
18606.497453302502
 30
0.0
  0
LINE
  5
3CA3
  8
FUTO
 10
18648.649169846569
 20
19041.497453302502
 30
0.0
 11
18648.649169846569
 21
19046.997453302502
 31
0.0
  0
ARC
  5
3CA4
  8
FUTO
 10
18639.649169846569
 20
19035.497453302502
 30
0.0
 40
6.0
 50
90.0
 51
180.0
  0
LINE
  5
3CA5
  8
FUTO
 10
18633.649169846569
 20
19026.497453302502
 30
0.0
 11
18633.649169846569
 21
19035.497453302502
 31
0.0
  0
LINE
  5
3CA6
  8
FUTO
 10
18798.649169846569
 20
19046.997453302502
 30
0.0
 11
18798.649169846569
 21
19041.497453302502
 31
0.0
  0
ARC
  5
3CA7
  8
FUTO
 10
18807.649169846569
 20
19035.497453302502
 30
0.0
 40
6.0
 50
0.000000000000007
 51
90.0
  0
LINE
  5
3CA9
  8
FUTO
 10
18813.649169846569
 20
19035.497453302502
 30
0.0
 11
18813.649169846569
 21
19026.497453302502
 31
0.0
  0
LINE
  5
3CAA
  8
FUTO
 10
18648.649169846569
 20
19046.997453302502
 30
0.0
 11
18798.649169846569
 21
19046.997453302502
 31
0.0
  0
LINE
  5
3CAB
  8
FUTO
 10
18639.649169846569
 20
19041.497453302502
 30
0.0
 11
18807.649169846569
 21
19041.497453302502
 31
0.0
  0
LINE
  5
3CAC
  8
FUTO
 10
18816.649169846569
 20
19026.497453302502
 30
0.0
 11
18630.649169846569
 21
19026.497453302502
 31
0.0
  0
LINE
  5
3CAF
  8
FUTO
 10
17973.649169846569
 20
21060.497453302502
 30
0.0
 11
19473.649169846569
 21
21060.497453302502
 31
0.0
  0
LINE
  5
3CB0
  8
FUTO
 10
17973.649169846569
 20
21054.497453302502
 30
0.0
 11
19473.649169846569
 21
21054.497453302502
 31
0.0
  0
LINE
  5
3CB1
  8
KL
 10
18732.649169846569
 20
20965.697453302499
 30
0.0
 11
19473.649169846569
 21
20965.697453302499
 31
0.0
  0
LINE
  5
3CB5
  8
KL
 10
18019.336427537539
 20
20962.497453302502
 30
0.0
 11
19427.961912155599
 21
20962.497453302502
 31
0.0
  0
LINE
  5
3CB9
  8
CT
 10
18605.14567288645
 20
19686.497453302502
 30
0.0
 11
18908.81333306172
 21
19686.497453302502
 31
0.0
  0
LINE
  5
3CBA
  8
KL
 10
19423.649169846569
 20
20959.697453302499
 30
0.0
 11
19423.649169846569
 21
21060.497453302502
 31
0.0
  0
LINE
  5
3CBB
  8
KL
 10
19429.649169846569
 20
20965.697453302499
 30
0.0
 11
19429.649169846569
 21
21034.697453302491
 31
0.0
  0
LINE
  5
3CBC
  8
KL
 10
19473.649169846569
 20
20959.697453302499
 30
0.0
 11
19473.649169846569
 21
20965.697453302499
 31
0.0
  0
LINE
  5
3CBD
  8
CT
 10
19456.149169846569
 20
20927.212755707402
 30
0.0
 11
19456.149169846569
 21
20984.255488839441
 31
0.0
  0
LINE
  5
3CBE
  8
FUTO
 10
19473.649169846569
 20
21054.497453302502
 30
0.0
 11
19473.649169846569
 21
21060.497453302502
 31
0.0
  0
LINE
  5
3CBF
  8
CT
 10
19456.149169846569
 20
21031.37771838986
 30
0.0
 11
19456.149169846569
 21
21091.520572143741
 31
0.0
  0
LINE
  5
3CC0
  8
FUTO
 10
19429.649169846569
 20
21034.697453302491
 30
0.0
 11
19429.649169846569
 21
21054.497453302502
 31
0.0
  0
LINE
  5
3CC7
  8
FUTO
 10
18619.649169846569
 20
19752.997453302502
 30
0.0
 11
18619.649169846569
 21
19619.997453302502
 31
0.0
  0
ARC
  5
3CCA
  8
FUTO
 10
18625.649169846569
 20
19619.997453302502
 30
0.0
 40
6.0
 50
180.0
 51
270.0
  0
LINE
  5
3CCB
  8
FUTO
 10
18633.649169846569
 20
19613.997453302502
 30
0.0
 11
18633.649169846569
 21
19608.997453302502
 31
0.0
  0
ARC
  5
3CCC
  8
FUTO
 10
18821.649169846569
 20
19619.997453302502
 30
0.0
 40
6.0
 50
270.0
 51
0.000000000000007
  0
LINE
  5
3CCD
  8
FUTO
 10
18827.649169846569
 20
19619.997453302502
 30
0.0
 11
18827.649169846569
 21
19631.497453302502
 31
0.0
  0
LINE
  5
3CCF
  8
FUTO
 10
18813.649169846569
 20
19608.997453302502
 30
0.0
 11
18813.649169846569
 21
19613.997453302502
 31
0.0
  0
LINE
  5
3CD0
  8
FUTO
 10
18625.649169846569
 20
19613.997453302502
 30
0.0
 11
18821.649169846569
 21
19613.997453302502
 31
0.0
  0
LINE
  5
3CD1
  8
FUTO
 10
18633.649169846569
 20
19608.997453302502
 30
0.0
 11
18813.649169846569
 21
19608.997453302502
 31
0.0
  0
LINE
  5
3CD2
  8
FUTO
 10
18619.649169846569
 20
19631.497453302502
 30
0.0
 11
18827.649169846569
 21
19631.497453302502
 31
0.0
  0
LINE
  5
3CD4
  8
FUTO
 10
18633.649169846569
 20
19758.997453302502
 30
0.0
 11
18633.649169846569
 21
19763.997453302502
 31
0.0
  0
ARC
  5
3CD5
  8
FUTO
 10
18625.649169846569
 20
19752.997453302502
 30
0.0
 40
6.0
 50
90.0
 51
180.0
  0
LINE
  5
3CD6
  8
FUTO
 10
18813.649169846569
 20
19763.997453302502
 30
0.0
 11
18813.649169846569
 21
19758.997453302502
 31
0.0
  0
ARC
  5
3CD7
  8
FUTO
 10
18821.649169846569
 20
19752.997453302502
 30
0.0
 40
6.0
 50
0.000000000000007
 51
90.0
  0
LINE
  5
3CD8
  8
FUTO
 10
18827.649169846569
 20
19752.997453302502
 30
0.0
 11
18827.649169846569
 21
19741.497453302502
 31
0.0
  0
LINE
  5
3CDA
  8
FUTO
 10
18633.649169846569
 20
19763.997453302502
 30
0.0
 11
18813.649169846569
 21
19763.997453302502
 31
0.0
  0
LINE
  5
3CDB
  8
FUTO
 10
18625.649169846569
 20
19758.997453302502
 30
0.0
 11
18821.649169846569
 21
19758.997453302502
 31
0.0
  0
LINE
  5
3CDC
  8
FUTO
 10
18619.649169846569
 20
19741.497453302502
 30
0.0
 11
18827.649169846569
 21
19741.497453302502
 31
0.0
  0
LINE
  5
3CDD
  8
FUTO
 10
18768.649169846569
 20
19755.497453302502
 30
0.0
 11
18768.649169846569
 21
19818.297453302501
 31
0.0
  0
LINE
  5
3CDE
  8
FUTO
 10
18678.649169846569
 20
19755.497453302502
 30
0.0
 11
18678.649169846569
 21
19816.997453302502
 31
0.0
  0
LINE
  5
3CE2
  8
KL
 10
17973.649169846569
 20
20965.697453302499
 30
0.0
 11
18714.649169846569
 21
20965.697453302499
 31
0.0
  0
INSERT
  5
3CE3
  8
FUTO
  2
まっすぐの矢印
 10
18167.397281526581
 20
21122.344233991898
 30
0.0
 41
-2.0
 42
2.0
 43
2.0
 50
180.0
  0
LINE
  5
3CE4
  8
KL
 10
18023.649169846569
 20
20959.697453302499
 30
0.0
 11
18023.649169846569
 21
21060.497453302502
 31
0.0
  0
LINE
  5
3CE5
  8
KL
 10
18017.649169846569
 20
20965.697453302499
 30
0.0
 11
18017.649169846569
 21
21035.997453302502
 31
0.0
  0
LINE
  5
3CE6
  8
KL
 10
17973.649169846569
 20
20959.697453302499
 30
0.0
 11
17973.649169846569
 21
20965.697453302499
 31
0.0
  0
LINE
  5
3CE7
  8
CT
 10
17991.149169846569
 20
20937.04135205863
 30
0.0
 11
17991.149169846569
 21
20979.746990483891
 31
0.0
  0
LINE
  5
3CE8
  8
FUTO
 10
17973.649169846569
 20
21054.497453302502
 30
0.0
 11
17973.649169846569
 21
21060.497453302502
 31
0.0
  0
LINE
  5
3CE9
  8
CT
 10
17991.149169846569
 20
21031.7364660403
 30
0.0
 11
17991.149169846569
 21
21083.725941596709
 31
0.0
  0
LINE
  5
3CEA
  8
FUTO
 10
18017.649169846569
 20
21035.997453302502
 30
0.0
 11
18017.649169846569
 21
21054.497453302502
 31
0.0
  0
LINE
  5
3D2A
  8
FUTO
 10
18827.649169846569
 20
19752.997453302502
 30
0.0
 11
18827.649169846569
 21
19619.997453302502
 31
0.0
  0
LINE
  5
3D2B
  8
FUTO
 10
18816.649169846569
 20
19026.497453302502
 30
0.0
 11
18816.649169846569
 21
18926.497453302502
 31
0.0
  0
ARC
  5
4030
  8
FUTO
 10
19923.649169846569
 20
18817.497453302502
 30
0.0
 40
9.0
 50
0.000000000000007
 51
180.0
  0
LINE
  5
4031
  8
FUTO
 10
19932.649169846569
 20
18716.497453302502
 30
0.0
 11
19932.649169846569
 21
18817.497453302502
 31
0.0
  0
LINE
  5
4032
  8
FUTO
 10
19914.649169846569
 20
18716.497453302502
 30
0.0
 11
19914.649169846569
 21
18817.497453302502
 31
0.0
  0
LINE
  5
4033
  8
FUTO
 10
20180.649108846559
 20
19230.997392302499
 30
0.0
 11
20180.649108846559
 21
19266.997453302502
 31
0.0
  0
LINE
  5
4034
  8
FUTO
 10
20183.64910884657
 20
19230.997392302499
 30
0.0
 11
20183.64910884657
 21
19266.997453302502
 31
0.0
  0
LINE
  5
4035
  8
FUTO
 10
20175.64910884657
 20
19230.997392302499
 30
0.0
 11
20175.64910884657
 21
19277.997453302502
 31
0.0
  0
LINE
  5
4036
  8
FUTO
 10
20133.649169846569
 20
18891.997453302502
 30
0.0
 11
20133.649169846562
 21
18938.872453302502
 31
0.0
  0
LINE
  5
4037
  8
FUTO
 10
20081.34080484209
 20
18886.997453302502
 30
0.0
 11
20128.649169846569
 21
18886.997453302502
 31
0.0
  0
ARC
  5
4038
  8
FUTO
 10
20128.649169846569
 20
18891.997453302502
 30
0.0
 40
5.0
 50
270.0
 51
0.000000000000007
  0
LINE
  5
4039
  8
FUTO
 10
20113.33051506499
 20
18938.872453302502
 30
0.0
 11
20133.649169846562
 21
18938.872453302502
 31
0.0
  0
LINE
  5
403A
  8
FUTO
 10
20133.649169846562
 20
18936.997453302502
 30
0.0
 11
20180.649108846559
 21
18936.997453302502
 31
0.0
  0
LINE
  5
403B
  8
FUTO
 10
20133.649169846562
 20
18933.997453302502
 30
0.0
 11
20183.64910884657
 21
18933.997453302502
 31
0.0
  0
LINE
  5
403C
  8
FUTO
 10
20113.43964341484
 20
18941.997453302502
 30
0.0
 11
20175.64910884657
 21
18941.997453302502
 31
0.0
  0
LINE
  5
403D
  8
FUTO
 10
20175.64910884657
 20
18941.997453302502
 30
0.0
 11
20180.649108846559
 21
18936.997453302502
 31
0.0
  0
LINE
  5
403E
  8
FUTO
 10
20208.64910884657
 20
18976.997453302502
 30
0.0
 11
20208.64910884657
 21
19016.997453302502
 31
0.0
  0
LINE
  5
403F
  8
FUTO
 10
20178.649108846559
 20
18976.997453302502
 30
0.0
 11
20178.649108846559
 21
19016.997453302502
 31
0.0
  0
LINE
  5
4040
  8
FUTO
 10
20208.64910884657
 20
19016.997453302502
 30
0.0
 11
20178.649108846559
 21
19016.997453302502
 31
0.0
  0
LINE
  5
4041
  8
FUTO
 10
20178.649108846559
 20
18976.997453302502
 30
0.0
 11
20208.64910884657
 21
18976.997453302502
 31
0.0
  0
LINE
  5
4042
  8
CT
 10
20127.149169846569
 20
18996.997453302502
 30
0.0
 11
20294.703551846571
 21
18996.997453302502
 31
0.0
  0
LINE
  5
4043
  8
FUTO
 10
20283.10357684657
 20
19014.5872973025
 30
0.0
 11
20271.003600846569
 21
19014.5872973025
 31
0.0
  0
LINE
  5
4044
  8
FUTO
 10
20283.10357684657
 20
18979.4076103025
 30
0.0
 11
20271.003600846569
 21
18979.4076103025
 31
0.0
  0
LINE
  5
4045
  8
FUTO
 10
20283.10357684657
 20
19006.702531302501
 30
0.0
 11
20271.003600846569
 21
19006.702531302501
 31
0.0
  0
LINE
  5
4046
  8
FUTO
 10
20283.10357684657
 20
18987.292375302499
 30
0.0
 11
20271.003600846569
 21
18987.292375302499
 31
0.0
  0
LINE
  5
4047
  8
FUTO
 10
20284.703551846571
 20
19012.987688302499
 30
0.0
 11
20284.703551846571
 21
18981.0081953025
 31
0.0
  0
LINE
  5
4048
  8
FUTO
 10
20283.10357684657
 20
18979.4076103025
 30
0.0
 11
20284.703551846571
 21
18981.0081953025
 31
0.0
  0
LINE
  5
4049
  8
FUTO
 10
20283.10357684657
 20
18987.292375302499
 30
0.0
 11
20284.703551846571
 21
18985.692766302491
 31
0.0
  0
LINE
  5
404A
  8
FUTO
 10
20283.10357684657
 20
18987.292375302499
 30
0.0
 11
20284.703551846571
 21
18988.892961302488
 31
0.0
  0
LINE
  5
404B
  8
FUTO
 10
20284.703551846571
 20
19012.987688302499
 30
0.0
 11
20283.10357684657
 21
19014.5872973025
 31
0.0
  0
LINE
  5
404C
  8
FUTO
 10
20283.10357684657
 20
19006.702531302501
 30
0.0
 11
20284.703551846571
 21
19008.303117302501
 31
0.0
  0
LINE
  5
404D
  8
FUTO
 10
20283.10357684657
 20
19006.702531302501
 30
0.0
 11
20284.703551846571
 21
19005.1029223025
 31
0.0
  0
LINE
  5
404E
  8
FUTO
 10
20271.003600846569
 20
19014.5872973025
 30
0.0
 11
20271.003600846569
 21
18979.4076103025
 31
0.0
  0
LINE
  5
404F
  8
FUTO
 10
20271.003600846569
 20
18987.997453302502
 30
0.0
 11
20208.64910884657
 21
18987.997453302502
 31
0.0
  0
LINE
  5
4050
  8
HOSO
 10
20208.64910884657
 20
18989.997453302502
 30
0.0
 11
20271.003661846571
 21
18989.997453302502
 31
0.0
  0
LINE
  5
4051
  8
HOSO
 10
20271.003600846569
 20
19003.997453302502
 30
0.0
 11
20208.64910884657
 21
19003.997453302502
 31
0.0
  0
LINE
  5
4052
  8
FUTO
 10
20208.64910884657
 20
19005.997453302502
 30
0.0
 11
20271.003661846571
 21
19005.997453302502
 31
0.0
  0
LINE
  5
4053
  8
FUTO
 10
20178.649108846559
 20
18987.997453302502
 30
0.0
 11
20127.149169846569
 21
18987.997453302502
 31
0.0
  0
LINE
  5
4054
  8
HOSO
 10
20127.149169846569
 20
18989.997453302502
 30
0.0
 11
20178.649108846559
 21
18989.997453302502
 31
0.0
  0
LINE
  5
4055
  8
FUTO
 10
20127.149169846569
 20
19005.997453302502
 30
0.0
 11
20178.649108846559
 21
19005.997453302502
 31
0.0
  0
LINE
  5
4056
  8
HOSO
 10
20178.649108846559
 20
19003.997453302502
 30
0.0
 11
20127.149169846569
 21
19003.997453302502
 31
0.0
  0
LINE
  5
4057
  8
FUTO
 10
20183.64910884657
 20
18933.997453302502
 30
0.0
 11
20183.64910884657
 21
18976.997453302502
 31
0.0
  0
LINE
  5
4058
  8
FUTO
 10
20180.649108846559
 20
18936.997453302502
 30
0.0
 11
20180.649108846559
 21
18976.997453302502
 31
0.0
  0
LINE
  5
4059
  8
FUTO
 10
20175.64910884657
 20
18941.997453302502
 30
0.0
 11
20175.64910884657
 21
18987.997453302502
 31
0.0
  0
LINE
  5
405A
  8
FUTO
 10
20183.64910884657
 20
19016.997453302502
 30
0.0
 11
20183.64910884657
 21
19052.997453302502
 31
0.0
  0
LINE
  5
405B
  8
FUTO
 10
20180.649108846559
 20
19016.997453302502
 30
0.0
 11
20180.649108846559
 21
19052.997453302502
 31
0.0
  0
LINE
  5
405C
  8
FUTO
 10
20175.64910884657
 20
19005.997453302502
 30
0.0
 11
20175.64910884657
 21
19052.997453302502
 31
0.0
  0
LINE
  5
405D
  8
FUTO
 10
20208.64910884657
 20
19277.997453302502
 30
0.0
 11
20271.003661846571
 21
19277.997453302502
 31
0.0
  0
LINE
  5
405E
  8
HOSO
 10
20271.003600846569
 20
19279.997453302502
 30
0.0
 11
20208.64910884657
 21
19279.997453302502
 31
0.0
  0
LINE
  5
405F
  8
HOSO
 10
20208.64910884657
 20
19293.997453302502
 30
0.0
 11
20271.003661846571
 21
19293.997453302502
 31
0.0
  0
LINE
  5
4060
  8
FUTO
 10
20271.003600846569
 20
19295.997453302502
 30
0.0
 11
20208.64910884657
 21
19295.997453302502
 31
0.0
  0
LINE
  5
4061
  8
FUTO
 10
20271.003600846569
 20
19269.4076093025
 30
0.0
 11
20271.003600846569
 21
19304.587296302499
 31
0.0
  0
LINE
  5
4062
  8
FUTO
 10
20283.10357684657
 20
19277.292375302499
 30
0.0
 11
20284.703551846571
 21
19278.8919843025
 31
0.0
  0
LINE
  5
4063
  8
FUTO
 10
20283.10357684657
 20
19277.292375302499
 30
0.0
 11
20284.703551846571
 21
19275.691789302498
 31
0.0
  0
LINE
  5
4064
  8
FUTO
 10
20284.703551846571
 20
19271.007218302489
 30
0.0
 11
20283.10357684657
 21
19269.4076093025
 31
0.0
  0
LINE
  5
4065
  8
FUTO
 10
20283.10357684657
 20
19296.702531302501
 30
0.0
 11
20284.703551846571
 21
19295.1019453025
 31
0.0
  0
LINE
  5
4066
  8
FUTO
 10
20283.10357684657
 20
19296.702531302501
 30
0.0
 11
20284.703551846571
 21
19298.30214030249
 31
0.0
  0
LINE
  5
4067
  8
FUTO
 10
20283.10357684657
 20
19304.587296302499
 30
0.0
 11
20284.703551846571
 21
19302.986711302499
 31
0.0
  0
LINE
  5
4068
  8
FUTO
 10
20284.703551846571
 20
19271.007218302489
 30
0.0
 11
20284.703551846571
 21
19302.986711302499
 31
0.0
  0
LINE
  5
4069
  8
FUTO
 10
20283.10357684657
 20
19296.702531302501
 30
0.0
 11
20271.003600846569
 21
19296.702531302501
 31
0.0
  0
LINE
  5
406A
  8
FUTO
 10
20283.10357684657
 20
19277.292375302499
 30
0.0
 11
20271.003600846569
 21
19277.292375302499
 31
0.0
  0
LINE
  5
406B
  8
FUTO
 10
20283.10357684657
 20
19304.587296302499
 30
0.0
 11
20271.003600846569
 21
19304.587296302499
 31
0.0
  0
LINE
  5
406C
  8
FUTO
 10
20283.10357684657
 20
19269.4076093025
 30
0.0
 11
20271.003600846569
 21
19269.4076093025
 31
0.0
  0
LINE
  5
406D
  8
FUTO
 10
20178.649108846559
 20
19306.997453302502
 30
0.0
 11
20208.64910884657
 21
19306.997453302502
 31
0.0
  0
LINE
  5
406E
  8
FUTO
 10
20208.64910884657
 20
19266.997453302502
 30
0.0
 11
20178.649108846559
 21
19266.997453302502
 31
0.0
  0
LINE
  5
406F
  8
FUTO
 10
20178.649108846559
 20
19306.997453302502
 30
0.0
 11
20178.649108846559
 21
19266.997453302502
 31
0.0
  0
LINE
  5
4070
  8
FUTO
 10
20208.64910884657
 20
19306.997453302502
 30
0.0
 11
20208.64910884657
 21
19266.997453302502
 31
0.0
  0
LINE
  5
4071
  8
HOSO
 10
20178.649108846559
 20
19279.997453302502
 30
0.0
 11
20127.149169846569
 21
19279.997453302502
 31
0.0
  0
LINE
  5
4072
  8
FUTO
 10
20127.149169846569
 20
19277.997453302502
 30
0.0
 11
20178.649108846559
 21
19277.997453302502
 31
0.0
  0
LINE
  5
4073
  8
HOSO
 10
20127.149169846569
 20
19293.997453302502
 30
0.0
 11
20178.649108846559
 21
19293.997453302502
 31
0.0
  0
LINE
  5
4074
  8
FUTO
 10
20178.649108846559
 20
19295.997453302502
 30
0.0
 11
20127.149169846569
 21
19295.997453302502
 31
0.0
  0
LINE
  5
4075
  8
CT
 10
20127.149169846569
 20
19286.997453302502
 30
0.0
 11
20294.703551846571
 21
19286.997453302502
 31
0.0
  0
LINE
  5
4076
  8
FUTO
 10
20175.64910884657
 20
19341.997453302502
 30
0.0
 11
20180.649108846559
 21
19346.997453302502
 31
0.0
  0
LINE
  5
4077
  8
FUTO
 10
20133.649169846562
 20
19349.997453302502
 30
0.0
 11
20183.64910884657
 21
19349.997453302502
 31
0.0
  0
LINE
  5
4078
  8
FUTO
 10
20133.649169846562
 20
19346.997453302502
 30
0.0
 11
20180.649108846559
 21
19346.997453302502
 31
0.0
  0
LINE
  5
4079
  8
FUTO
 10
20127.149169846562
 20
19345.122453302502
 30
0.0
 11
20133.649169846562
 21
19345.122453302502
 31
0.0
  0
LINE
  5
407A
  8
FUTO
 10
20127.149169846569
 20
19341.997453302502
 30
0.0
 11
20175.64910884657
 21
19341.997453302502
 31
0.0
  0
LINE
  5
407B
  8
FUTO
 10
20175.64910884657
 20
19341.997453302502
 30
0.0
 11
20175.64910884657
 21
19295.997453302502
 31
0.0
  0
LINE
  5
407C
  8
FUTO
 10
20180.649108846559
 20
19346.997453302502
 30
0.0
 11
20180.649108846559
 21
19306.997453302502
 31
0.0
  0
LINE
  5
407D
  8
FUTO
 10
20183.64910884657
 20
19349.997453302502
 30
0.0
 11
20183.64910884657
 21
19306.997453302502
 31
0.0
  0
ARC
  5
407E
  8
FUTO
 10
20128.649169846569
 20
19391.997453302502
 30
0.0
 40
5.0
 50
0.000000000000007
 51
90.000000000000028
  0
LINE
  5
407F
  8
FUTO
 10
20133.649169846569
 20
19391.997453302502
 30
0.0
 11
20133.649169846562
 21
19345.122453302502
 31
0.0
  0
LINE
  5
4080
  8
FUTO
 10
20116.149169846569
 20
19396.997453302502
 30
0.0
 11
20128.649169846569
 21
19396.997453302502
 31
0.0
  0
LINE
  5
4081
  8
CT
 10
19720.149169846562
 20
19286.997453302502
 30
0.0
 11
19552.59478784657
 21
19286.997453302502
 31
0.0
  0
LINE
  5
4082
  8
FUTO
 10
19668.649230846571
 20
19295.997453302502
 30
0.0
 11
19720.149169846569
 21
19295.997453302502
 31
0.0
  0
LINE
  5
4083
  8
HOSO
 10
19720.149169846569
 20
19293.997453302502
 30
0.0
 11
19668.649230846571
 21
19293.997453302502
 31
0.0
  0
LINE
  5
4084
  8
FUTO
 10
19720.149169846569
 20
19277.997453302502
 30
0.0
 11
19668.649230846571
 21
19277.997453302502
 31
0.0
  0
LINE
  5
4085
  8
HOSO
 10
19668.649230846571
 20
19279.997453302502
 30
0.0
 11
19720.149169846569
 21
19279.997453302502
 31
0.0
  0
LINE
  5
4086
  8
FUTO
 10
19638.649230846571
 20
19306.997453302502
 30
0.0
 11
19638.649230846571
 21
19266.997453302502
 31
0.0
  0
LINE
  5
4087
  8
FUTO
 10
19668.649230846571
 20
19306.997453302502
 30
0.0
 11
19668.649230846571
 21
19266.997453302502
 31
0.0
  0
LINE
  5
4088
  8
FUTO
 10
19638.649230846571
 20
19266.997453302502
 30
0.0
 11
19668.649230846571
 21
19266.997453302502
 31
0.0
  0
LINE
  5
4089
  8
FUTO
 10
19668.649230846571
 20
19306.997453302502
 30
0.0
 11
19638.649230846571
 21
19306.997453302502
 31
0.0
  0
LINE
  5
408A
  8
FUTO
 10
19564.194762846571
 20
19269.4076093025
 30
0.0
 11
19576.294738846569
 21
19269.4076093025
 31
0.0
  0
LINE
  5
408B
  8
FUTO
 10
19564.194762846571
 20
19304.587296302499
 30
0.0
 11
19576.294738846569
 21
19304.587296302499
 31
0.0
  0
LINE
  5
408C
  8
FUTO
 10
19564.194762846571
 20
19277.292375302499
 30
0.0
 11
19576.294738846569
 21
19277.292375302499
 31
0.0
  0
LINE
  5
408D
  8
FUTO
 10
19564.194762846571
 20
19296.702531302501
 30
0.0
 11
19576.294738846569
 21
19296.702531302501
 31
0.0
  0
LINE
  5
408E
  8
FUTO
 10
19562.59478784657
 20
19271.007218302489
 30
0.0
 11
19562.59478784657
 21
19302.986711302499
 31
0.0
  0
LINE
  5
408F
  8
FUTO
 10
19564.194762846571
 20
19304.587296302499
 30
0.0
 11
19562.59478784657
 21
19302.986711302499
 31
0.0
  0
LINE
  5
4090
  8
FUTO
 10
19564.194762846571
 20
19296.702531302501
 30
0.0
 11
19562.59478784657
 21
19298.30214030249
 31
0.0
  0
LINE
  5
4091
  8
FUTO
 10
19564.194762846571
 20
19296.702531302501
 30
0.0
 11
19562.59478784657
 21
19295.1019453025
 31
0.0
  0
LINE
  5
4092
  8
FUTO
 10
19562.59478784657
 20
19271.007218302489
 30
0.0
 11
19564.194762846571
 21
19269.4076093025
 31
0.0
  0
LINE
  5
4093
  8
FUTO
 10
19564.194762846571
 20
19277.292375302499
 30
0.0
 11
19562.59478784657
 21
19275.691789302498
 31
0.0
  0
LINE
  5
4094
  8
FUTO
 10
19564.194762846571
 20
19277.292375302499
 30
0.0
 11
19562.59478784657
 21
19278.8919843025
 31
0.0
  0
LINE
  5
4095
  8
FUTO
 10
19576.294738846569
 20
19269.4076093025
 30
0.0
 11
19576.294738846569
 21
19304.587296302499
 31
0.0
  0
LINE
  5
4096
  8
FUTO
 10
19576.294738846569
 20
19295.997453302502
 30
0.0
 11
19638.649230846571
 21
19295.997453302502
 31
0.0
  0
LINE
  5
4097
  8
HOSO
 10
19638.649230846571
 20
19293.997453302502
 30
0.0
 11
19576.29467784657
 21
19293.997453302502
 31
0.0
  0
LINE
  5
4098
  8
HOSO
 10
19576.294738846569
 20
19279.997453302502
 30
0.0
 11
19638.649230846571
 21
19279.997453302502
 31
0.0
  0
LINE
  5
4099
  8
FUTO
 10
19638.649230846571
 20
19277.997453302502
 30
0.0
 11
19576.29467784657
 21
19277.997453302502
 31
0.0
  0
LINE
  5
409A
  8
FUTO
 10
19663.649230846571
 20
19349.997453302502
 30
0.0
 11
19663.649230846571
 21
19306.997453302502
 31
0.0
  0
LINE
  5
409B
  8
FUTO
 10
19666.649230846571
 20
19346.997453302502
 30
0.0
 11
19666.649230846571
 21
19306.997453302502
 31
0.0
  0
LINE
  5
409C
  8
FUTO
 10
19671.649230846571
 20
19341.997453302502
 30
0.0
 11
19671.649230846571
 21
19295.997453302502
 31
0.0
  0
LINE
  5
409D
  8
FUTO
 10
19731.149169846569
 20
19396.997453302502
 30
0.0
 11
19718.649169846569
 21
19396.997453302502
 31
0.0
  0
LINE
  5
409E
  8
FUTO
 10
19720.149169846569
 20
19341.997453302502
 30
0.0
 11
19671.649230846571
 21
19341.997453302502
 31
0.0
  0
LINE
  5
409F
  8
FUTO
 10
19720.149169846569
 20
19345.122453302502
 30
0.0
 11
19713.649169846569
 21
19345.122453302502
 31
0.0
  0
LINE
  5
40A0
  8
FUTO
 10
19713.649169846569
 20
19391.997453302502
 30
0.0
 11
19713.649169846569
 21
19345.122453302502
 31
0.0
  0
LINE
  5
40A1
  8
FUTO
 10
19713.649169846569
 20
19346.997453302502
 30
0.0
 11
19666.649230846571
 21
19346.997453302502
 31
0.0
  0
LINE
  5
40A2
  8
FUTO
 10
19713.649169846569
 20
19349.997453302502
 30
0.0
 11
19663.649230846571
 21
19349.997453302502
 31
0.0
  0
ARC
  5
40A3
  8
FUTO
 10
19718.649169846569
 20
19391.997453302502
 30
0.0
 40
5.0
 50
90.000000000000028
 51
180.0
  0
LINE
  5
40A4
  8
FUTO
 10
19671.649230846571
 20
19341.997453302502
 30
0.0
 11
19666.649230846571
 21
19346.997453302502
 31
0.0
  0
LINE
  5
40A5
  8
FUTO
 10
19733.96782462814
 20
18938.872453302502
 30
0.0
 11
19713.649169846569
 21
18938.872453302502
 31
0.0
  0
LINE
  5
40A6
  8
FUTO
 10
19671.649230846571
 20
19005.997453302502
 30
0.0
 11
19671.649230846571
 21
19277.997453302502
 31
0.0
  0
LINE
  5
40A7
  8
FUTO
 10
19671.649230846571
 20
18941.997453302502
 30
0.0
 11
19666.649230846571
 21
18936.997453302502
 31
0.0
  0
LINE
  5
40A8
  8
FUTO
 10
19671.649230846571
 20
18941.997453302502
 30
0.0
 11
19671.649230846571
 21
18987.997453302502
 31
0.0
  0
LINE
  5
40A9
  8
FUTO
 10
19733.858696278279
 20
18941.997453302502
 30
0.0
 11
19671.649230846571
 21
18941.997453302502
 31
0.0
  0
ARC
  5
40AA
  8
FUTO
 10
19718.649169846569
 20
18891.997453302502
 30
0.0
 40
5.0
 50
180.0
 51
270.0
  0
LINE
  5
40AB
  8
FUTO
 10
19713.649169846569
 20
18933.997453302502
 30
0.0
 11
19663.649230846571
 21
18933.997453302502
 31
0.0
  0
LINE
  5
40AC
  8
FUTO
 10
19713.649169846569
 20
18936.997453302502
 30
0.0
 11
19666.649230846571
 21
18936.997453302502
 31
0.0
  0
LINE
  5
40AD
  8
FUTO
 10
19765.957534851041
 20
18886.997453302502
 30
0.0
 11
19718.649169846569
 21
18886.997453302502
 31
0.0
  0
LINE
  5
40AE
  8
FUTO
 10
19713.649169846569
 20
18891.997453302502
 30
0.0
 11
19713.649169846569
 21
18938.872453302502
 31
0.0
  0
LINE
  5
40AF
  8
FUTO
 10
19666.649230846571
 20
19016.997453302502
 30
0.0
 11
19666.649230846571
 21
19266.997453302502
 31
0.0
  0
LINE
  5
40B0
  8
FUTO
 10
19663.649230846571
 20
19016.997453302502
 30
0.0
 11
19663.649230846571
 21
19266.997453302502
 31
0.0
  0
LINE
  5
40B1
  8
FUTO
 10
19666.649230846571
 20
18936.997453302502
 30
0.0
 11
19666.649230846571
 21
18976.997453302502
 31
0.0
  0
LINE
  5
40B2
  8
FUTO
 10
19663.649230846571
 20
18933.997453302502
 30
0.0
 11
19663.649230846571
 21
18976.997453302502
 31
0.0
  0
LINE
  5
40B3
  8
HOSO
 10
19668.649230846571
 20
19003.997453302502
 30
0.0
 11
19720.149169846569
 21
19003.997453302502
 31
0.0
  0
LINE
  5
40B4
  8
FUTO
 10
19720.149169846569
 20
19005.997453302502
 30
0.0
 11
19668.649230846571
 21
19005.997453302502
 31
0.0
  0
LINE
  5
40B5
  8
HOSO
 10
19720.149169846569
 20
18989.997453302502
 30
0.0
 11
19668.649230846571
 21
18989.997453302502
 31
0.0
  0
LINE
  5
40B6
  8
FUTO
 10
19668.649230846571
 20
18987.997453302502
 30
0.0
 11
19720.149169846569
 21
18987.997453302502
 31
0.0
  0
LINE
  5
40B7
  8
FUTO
 10
19638.649230846571
 20
19005.997453302502
 30
0.0
 11
19576.29467784657
 21
19005.997453302502
 31
0.0
  0
LINE
  5
40B8
  8
HOSO
 10
19576.294738846569
 20
19003.997453302502
 30
0.0
 11
19638.649230846571
 21
19003.997453302502
 31
0.0
  0
LINE
  5
40B9
  8
HOSO
 10
19638.649230846571
 20
18989.997453302502
 30
0.0
 11
19576.29467784657
 21
18989.997453302502
 31
0.0
  0
LINE
  5
40BA
  8
FUTO
 10
19576.294738846569
 20
18987.997453302502
 30
0.0
 11
19638.649230846571
 21
18987.997453302502
 31
0.0
  0
LINE
  5
40BB
  8
FUTO
 10
19576.294738846569
 20
19014.5872973025
 30
0.0
 11
19576.294738846569
 21
18979.4076103025
 31
0.0
  0
LINE
  5
40BC
  8
FUTO
 10
19564.194762846571
 20
19006.702531302501
 30
0.0
 11
19562.59478784657
 21
19005.1029223025
 31
0.0
  0
LINE
  5
40BD
  8
FUTO
 10
19564.194762846571
 20
19006.702531302501
 30
0.0
 11
19562.59478784657
 21
19008.303117302501
 31
0.0
  0
LINE
  5
40BE
  8
FUTO
 10
19562.59478784657
 20
19012.987688302499
 30
0.0
 11
19564.194762846571
 21
19014.5872973025
 31
0.0
  0
LINE
  5
40BF
  8
FUTO
 10
19564.194762846571
 20
18987.292375302499
 30
0.0
 11
19562.59478784657
 21
18988.892961302488
 31
0.0
  0
LINE
  5
40C0
  8
FUTO
 10
19564.194762846571
 20
18987.292375302499
 30
0.0
 11
19562.59478784657
 21
18985.692766302491
 31
0.0
  0
LINE
  5
40C1
  8
FUTO
 10
19564.194762846571
 20
18979.4076103025
 30
0.0
 11
19562.59478784657
 21
18981.0081953025
 31
0.0
  0
LINE
  5
40C2
  8
FUTO
 10
19562.59478784657
 20
19012.987688302499
 30
0.0
 11
19562.59478784657
 21
18981.0081953025
 31
0.0
  0
LINE
  5
40C3
  8
FUTO
 10
19564.194762846571
 20
18987.292375302499
 30
0.0
 11
19576.294738846569
 21
18987.292375302499
 31
0.0
  0
LINE
  5
40C4
  8
FUTO
 10
19564.194762846571
 20
19006.702531302501
 30
0.0
 11
19576.294738846569
 21
19006.702531302501
 31
0.0
  0
LINE
  5
40C5
  8
FUTO
 10
19564.194762846571
 20
18979.4076103025
 30
0.0
 11
19576.294738846569
 21
18979.4076103025
 31
0.0
  0
LINE
  5
40C6
  8
FUTO
 10
19564.194762846571
 20
19014.5872973025
 30
0.0
 11
19576.294738846569
 21
19014.5872973025
 31
0.0
  0
LINE
  5
40C7
  8
CT
 10
19720.149169846562
 20
18996.997453302502
 30
0.0
 11
19552.59478784657
 21
18996.997453302502
 31
0.0
  0
LINE
  5
40C8
  8
FUTO
 10
19668.649230846571
 20
18976.997453302502
 30
0.0
 11
19638.649230846571
 21
18976.997453302502
 31
0.0
  0
LINE
  5
40C9
  8
FUTO
 10
19638.649230846571
 20
19016.997453302502
 30
0.0
 11
19668.649230846571
 21
19016.997453302502
 31
0.0
  0
LINE
  5
40CA
  8
FUTO
 10
19668.649230846571
 20
18976.997453302502
 30
0.0
 11
19668.649230846571
 21
19016.997453302502
 31
0.0
  0
LINE
  5
40CB
  8
FUTO
 10
19638.649230846571
 20
18976.997453302502
 30
0.0
 11
19638.649230846571
 21
19016.997453302502
 31
0.0
  0
ARC
  5
40CC
  8
FUTO
 10
20255.27831984657
 20
19203.997392302499
 30
0.0
 40
20.0
 50
0.000000000000007
 51
90.000000000000028
  0
ARC
  5
40CD
  8
FUTO
 10
20255.27831984657
 20
19079.997453302502
 30
0.0
 40
20.0
 50
270.0
 51
0.000000000000007
  0
ARC
  5
40CE
  8
FUTO
 10
20265.278319846559
 20
19062.997453302502
 30
0.0
 40
10.0
 50
270.0
 51
0.000000000000007
  0
ARC
  5
40CF
  8
FUTO
 10
20265.278319846559
 20
19220.997392302492
 30
0.0
 40
10.0
 50
0.000000000000007
 51
90.000000000000028
  0
ARC
  5
40D0
  8
FUTO
 10
20162.421594947678
 20
19062.997453302502
 30
0.0
 40
10.0
 50
180.0
 51
270.0
  0
ARC
  5
40D1
  8
FUTO
 10
20165.588710486008
 20
19062.997453302502
 30
0.0
 40
10.0
 50
180.0
 51
270.0
  0
ARC
  5
40D2
  8
FUTO
 10
20162.421594947678
 20
19220.997392302492
 30
0.0
 40
10.0
 50
90.000000000000028
 51
180.0
  0
ARC
  5
40D3
  8
FUTO
 10
20165.588710486008
 20
19220.997392302492
 30
0.0
 40
10.0
 50
90.000000000000028
 51
180.0
  0
LINE
  5
40D4
  8
FUTO
 10
20162.785313765471
 20
19059.997453302502
 30
0.0
 11
20255.27831984657
 21
19059.997453302502
 31
0.0
  0
LINE
  5
40D5
  8
FUTO
 10
20162.785313765471
 20
19223.997392302499
 30
0.0
 11
20255.27831984657
 21
19223.997392302499
 31
0.0
  0
ARC
  5
40D6
  8
FUTO
 10
20148.649169846569
 20
19064.997453302502
 30
0.0
 40
5.0
 50
180.0
 51
270.0
  0
ARC
  5
40D7
  8
FUTO
 10
20148.649169846569
 20
19218.997392302492
 30
0.0
 40
5.0
 50
90.000000000000028
 51
180.0
  0
ARC
  5
40D8
  8
FUTO
 10
20162.785313765471
 20
19064.997453302502
 30
0.0
 40
5.0
 50
180.0
 51
270.0
  0
ARC
  5
40D9
  8
FUTO
 10
20162.785313765471
 20
19218.997392302492
 30
0.0
 40
5.0
 50
90.000000000000028
 51
180.0
  0
LINE
  5
40DA
  8
FUTO
 10
20162.421594947678
 20
19052.997453302502
 30
0.0
 11
20265.278319846559
 21
19052.997453302502
 31
0.0
  0
LINE
  5
40DB
  8
FUTO
 10
20148.649169846569
 20
19059.997453302502
 30
0.0
 11
20152.421594947671
 21
19059.997453302502
 31
0.0
  0
LINE
  5
40DC
  8
FUTO
 10
20162.421594947678
 20
19230.997392302499
 30
0.0
 11
20265.278319846559
 21
19230.997392302499
 31
0.0
  0
LINE
  5
40DD
  8
FUTO
 10
20148.649169846569
 20
19223.997392302499
 30
0.0
 11
20152.421594947671
 21
19223.997392302499
 31
0.0
  0
LINE
  5
40DE
  8
FUTO
 10
20127.149169846569
 20
19201.997453302502
 30
0.0
 11
20127.149169846569
 21
19308.808224051529
 31
0.0
  0
LINE
  5
40DF
  8
FUTO
 10
20143.649169846569
 20
19081.997453302502
 30
0.0
 11
20075.92277228638
 21
19081.997453302502
 31
0.0
  0
LINE
  5
40E0
  8
FUTO
 10
20143.649169846569
 20
19201.997453302502
 30
0.0
 11
20075.92277228638
 21
19201.997453302502
 31
0.0
  0
LINE
  5
40E1
  8
FUTO
 10
20233.968505846569
 20
19079.997453302502
 30
0.0
 11
20233.968505846558
 21
19203.997392302499
 31
0.0
  0
LINE
  5
40E2
  8
FUTO
 10
20157.78531376546
 20
19064.997453302502
 30
0.0
 11
20157.78531376546
 21
19218.997392302492
 31
0.0
  0
LINE
  5
40E3
  8
FUTO
 10
20155.588710486008
 20
19062.997453302502
 30
0.0
 11
20155.588710486008
 21
19220.997392302492
 31
0.0
  0
LINE
  5
40E4
  8
FUTO
 10
20152.421594947671
 20
19062.997453302502
 30
0.0
 11
20152.421594947671
 21
19220.997392302492
 31
0.0
  0
LINE
  5
40E5
  8
FUTO
 10
20143.649169846569
 20
19064.997453302502
 30
0.0
 11
20143.649169846569
 21
19218.997392302492
 31
0.0
  0
LINE
  5
40E6
  8
FUTO
 10
20133.649169846569
 20
19081.997453302502
 30
0.0
 11
20133.649169846569
 21
19201.997453302502
 31
0.0
  0
LINE
  5
40E7
  8
FUTO
 10
20075.92277228638
 20
19081.997453302502
 30
0.0
 11
20075.92277228638
 21
19201.997453302502
 31
0.0
  0
LINE
  5
40E8
  8
FUTO
 10
20275.27831984657
 20
19062.997453302502
 30
0.0
 11
20275.27831984657
 21
19220.997392302492
 31
0.0
  0
LINE
  5
40E9
  8
FUTO
 10
19929.899169846569
 20
19118.247453302502
 30
0.0
 11
19929.899169846569
 21
19165.747453302502
 31
0.0
  0
ARC
  5
40EA
  8
FUTO
 10
19923.649169846569
 20
19118.247453302502
 30
0.0
 40
6.25
 50
180.0
 51
0.000000000000007
  0
ARC
  5
40EB
  8
FUTO
 10
19923.649169846569
 20
19165.747453302502
 30
0.0
 40
6.25
 50
0.000000000000007
 51
180.0
  0
LINE
  5
40EC
  8
CT
 10
20295.27831984657
 20
19141.997453302502
 30
0.0
 11
19643.649230846571
 21
19141.997453302502
 31
0.0
  0
LINE
  5
40ED
  8
FUTO
 10
19917.399169846569
 20
19118.247453302502
 30
0.0
 11
19917.399169846569
 21
19165.747453302502
 31
0.0
  0
LINE
  5
40EE
  8
FUTO
 10
20127.149169846562
 20
19308.808224051529
 30
0.0
 11
20125.327392846571
 21
19310.997392302499
 31
0.0
  0
LINE
  5
40EF
  8
FUTO
 10
20127.149169846569
 20
18975.1865403025
 30
0.0
 11
20120.649169846569
 21
18967.375627302499
 31
0.0
  0
LINE
  5
40F0
  8
FUTO
 10
20127.149169846569
 20
18975.1865403025
 30
0.0
 11
20127.149169846569
 21
19081.997453302502
 31
0.0
  0
LINE
  5
40F1
  8
FUTO
 10
19720.149169846569
 20
18975.1865403025
 30
0.0
 11
19720.149169846562
 21
19308.808224051529
 31
0.0
  0
ARC
  5
40F2
  8
FUTO
 10
20001.649169846569
 20
18868.497453302502
 30
0.0
 40
2.0
 50
270.0
 51
0.000000000000007
  0
ARC
  5
40F3
  8
FUTO
 10
20006.649169846569
 20
18878.650529302489
 30
0.0
 40
2.9999599999999988
 50
92.999557000034059
 51
180.0
  0
LINE
  5
40F4
  8
FUTO
 10
20003.649169846569
 20
18878.650529302489
 30
0.0
 11
20003.649169846569
 21
18868.497453302502
 31
0.0
  0
ARC
  5
40F5
  8
FUTO
 10
20102.745117846571
 20
18922.283098302491
 30
0.0
 40
9.9999679999999991
 50
315.0
 51
358.00067100000211
  0
ARC
  5
40F6
  8
FUTO
 10
20075.751953846571
 20
18895.289933302502
 30
0.0
 40
10.000024
 50
272.99903899993512
 51
315.0
  0
LINE
  5
40F7
  8
FUTO
 10
20109.816162846571
 20
18915.212053302501
 30
0.0
 11
20082.822997846572
 21
18888.218889302501
 31
0.0
  0
LINE
  5
40F8
  8
FUTO
 10
20113.649169846569
 20
18947.997453302502
 30
0.0
 11
20112.739013846571
 21
18921.934221302501
 31
0.0
  0
LINE
  5
40F9
  8
FUTO
 10
20076.275146846569
 20
18885.303605302499
 30
0.0
 11
19987.683837846569
 21
18880.66078330249
 31
0.0
  0
LINE
  5
40FA
  8
FUTO
 10
20085.649169846569
 20
18957.997453302502
 30
0.0
 11
19761.649169846569
 21
18957.997453302502
 31
0.0
  0
LINE
  5
40FB
  8
FUTO
 10
20085.649169846569
 20
18947.997453302502
 30
0.0
 11
20085.649169846569
 21
18952.997453302502
 31
0.0
  0
LINE
  5
40FC
  8
FUTO
 10
20085.649169846569
 20
18952.997453302502
 30
0.0
 11
20085.649169846569
 21
18957.997453302502
 31
0.0
  0
LINE
  5
40FD
  8
FUTO
 10
20120.649169846569
 20
18967.375627302499
 30
0.0
 11
20085.649169846569
 21
18957.997453302502
 31
0.0
  0
ARC
  5
40FE
  8
FUTO
 10
20107.149169846569
 20
19357.470781302502
 30
0.0
 40
20.0
 50
0.000000000000007
 51
20.000046000008609
  0
ARC
  5
40FF
  8
FUTO
 10
20136.149169846569
 20
19394.74617130249
 30
0.0
 40
20.0
 50
180.0
 51
199.9997250000032
  0
LINE
  5
4100
  8
FUTO
 10
20071.298095846571
 20
19339.497392302499
 30
0.0
 11
20075.051025846569
 21
19345.997392302499
 31
0.0
  0
LINE
  5
4101
  8
FUTO
 10
20075.051025846569
 20
19345.997392302499
 30
0.0
 11
20071.298095846571
 21
19352.497392302492
 31
0.0
  0
LINE
  5
4102
  8
FUTO
 10
20125.94311584657
 20
19364.311235302492
 30
0.0
 11
20117.355224846571
 21
19387.90583930249
 31
0.0
  0
LINE
  5
4103
  8
FUTO
 10
20127.149169846569
 20
19310.997392302499
 30
0.0
 11
20127.149169846569
 21
19357.470781302502
 31
0.0
  0
LINE
  5
4104
  8
FUTO
 10
20060.039794846569
 20
19345.997392302499
 30
0.0
 11
20063.792724846571
 21
19352.497392302492
 31
0.0
  0
LINE
  5
4105
  8
FUTO
 10
20063.792724846571
 20
19339.497392302499
 30
0.0
 11
20060.039794846569
 21
19345.997392302499
 31
0.0
  0
LINE
  5
4106
  8
CT
 10
20067.545410846571
 20
19338.555253302489
 30
0.0
 11
20067.545410846571
 21
19353.011308302492
 31
0.0
  0
LINE
  5
4107
  8
CT
 10
20059.154785846571
 20
19345.997392302499
 30
0.0
 11
20075.976318846569
 21
19345.997392302499
 31
0.0
  0
LINE
  5
4108
  8
FUTO
 10
20063.792724846571
 20
19352.497392302492
 30
0.0
 11
20071.298095846571
 21
19352.497392302492
 31
0.0
  0
LINE
  5
4109
  8
FUTO
 10
20063.792724846571
 20
19339.497392302499
 30
0.0
 11
20071.298095846571
 21
19339.497392302499
 31
0.0
  0
CIRCLE
  5
410A
  8
FUTO
 10
20067.545410846571
 20
19345.997392302499
 30
0.0
 40
6.5
  0
ARC
  5
410B
  8
FUTO
 10
20101.149169846569
 20
19455.686479302502
 30
0.0
 40
15.0
 50
0.000000000000007
 51
29.999816999981821
  0
ARC
  5
410C
  8
FUTO
 10
20080.76245184656
 20
19510.997392302492
 30
0.0
 40
4.9999580000000003
 50
30.000281999972739
 51
90.000000000000028
  0
LINE
  5
410D
  8
FUTO
 10
20085.09252984657
 20
19513.497392302492
 30
0.0
 11
20114.139648846569
 21
19463.186479302502
 31
0.0
  0
LINE
  5
410E
  8
FUTO
 10
20116.149169846569
 20
19394.74617130249
 30
0.0
 11
20116.149169846569
 21
19455.686479302502
 31
0.0
  0
LINE
  5
410F
  8
FUTO
 10
19731.149169846569
 20
19394.74617130249
 30
0.0
 11
19731.149169846569
 21
19455.686479302502
 31
0.0
  0
LINE
  5
4110
  8
CT
 10
19923.649169846569
 20
18696.497453302502
 30
0.0
 11
19923.649169846569
 21
19535.997453302502
 31
0.0
  0
LINE
  5
4111
  8
FUTO
 10
19765.999205846569
 20
19515.997453302502
 30
0.0
 11
20080.78951984657
 21
19515.997453302502
 31
0.0
  0
LINE
  5
4112
  8
FUTO
 10
20116.149169846569
 20
19456.89741630249
 30
0.0
 11
19731.19824184657
 21
19456.89741630249
 31
0.0
  0
LINE
  5
4113
  8
FUTO
 10
19762.205809846571
 20
19513.497392302492
 30
0.0
 11
19733.158690846569
 21
19463.186479302502
 31
0.0
  0
ARC
  5
4114
  8
FUTO
 10
19766.53588784657
 20
19510.997392302492
 30
0.0
 40
4.9999580000000003
 50
90.000000000000028
 51
149.9997180000272
  0
ARC
  5
4115
  8
FUTO
 10
19746.149169846569
 20
19455.686479302502
 30
0.0
 40
15.0
 50
150.00018300001821
 51
180.0
  0
LINE
  5
4116
  8
FUTO
 10
20001.649169846569
 20
18866.497453302502
 30
0.0
 11
19923.649169846569
 21
18866.497453302502
 31
0.0
  0
LINE
  5
4117
  8
FUTO
 10
20113.649169846569
 20
18947.997453302502
 30
0.0
 11
19923.649169846569
 21
18947.997453302502
 31
0.0
  0
LINE
  5
4118
  8
FUTO
 10
20085.649169846569
 20
18952.997453302502
 30
0.0
 11
19923.649169846569
 21
18952.997453302502
 31
0.0
  0
LINE
  5
4119
  8
FUTO
 10
19730.831786846571
 20
19391.19734330249
 30
0.0
 11
20116.149169846569
 21
19391.19734330249
 31
0.0
  0
LINE
  5
411A
  8
FUTO
 10
19720.462645846568
 20
19360.997392302492
 30
0.0
 11
20126.835790045439
 21
19360.997392302492
 31
0.0
  0
LINE
  5
411B
  8
FUTO
 10
19720.149169846569
 20
19310.997392302499
 30
0.0
 11
20125.327392846571
 21
19310.997392302499
 31
0.0
  0
LINE
  5
411C
  8
FUTO
 10
20085.649169846569
 20
18952.997453302502
 30
0.0
 11
19923.649169846569
 21
18952.997453302502
 31
0.0
  0
CIRCLE
  5
411D
  8
FUTO
 10
19779.75292884657
 20
19345.997392302499
 30
0.0
 40
6.5
  0
LINE
  5
411E
  8
FUTO
 10
19783.50561484657
 20
19339.497392302499
 30
0.0
 11
19776.000243846571
 21
19339.497392302499
 31
0.0
  0
LINE
  5
411F
  8
FUTO
 10
19783.50561484657
 20
19352.497392302492
 30
0.0
 11
19776.000243846571
 21
19352.497392302492
 31
0.0
  0
LINE
  5
4120
  8
CT
 10
19788.14355384657
 20
19345.997392302499
 30
0.0
 11
19771.322020846568
 21
19345.997392302499
 31
0.0
  0
LINE
  5
4121
  8
CT
 10
19779.75292884657
 20
19338.555253302489
 30
0.0
 11
19779.75292884657
 21
19353.011308302492
 31
0.0
  0
LINE
  5
4122
  8
FUTO
 10
19783.50561484657
 20
19339.497392302499
 30
0.0
 11
19787.258544846569
 21
19345.997392302499
 31
0.0
  0
LINE
  5
4123
  8
FUTO
 10
19787.258544846569
 20
19345.997392302499
 30
0.0
 11
19783.50561484657
 21
19352.497392302492
 31
0.0
  0
LINE
  5
4124
  8
FUTO
 10
19720.149169846569
 20
19310.997392302499
 30
0.0
 11
19720.149169846569
 21
19357.470781302502
 31
0.0
  0
LINE
  5
4125
  8
FUTO
 10
19721.355223846571
 20
19364.311235302492
 30
0.0
 11
19729.94311484657
 21
19387.90583930249
 31
0.0
  0
LINE
  5
4126
  8
FUTO
 10
19772.247313846568
 20
19345.997392302499
 30
0.0
 11
19776.000243846571
 21
19352.497392302492
 31
0.0
  0
LINE
  5
4127
  8
FUTO
 10
19776.000243846571
 20
19339.497392302499
 30
0.0
 11
19772.247313846568
 21
19345.997392302499
 31
0.0
  0
ARC
  5
4128
  8
FUTO
 10
19711.149169846569
 20
19394.74617130249
 30
0.0
 40
20.0
 50
340.0002749999968
 51
0.000000000000007
  0
ARC
  5
4129
  8
FUTO
 10
19740.149169846569
 20
19357.470781302502
 30
0.0
 40
20.0
 50
159.99995399999131
 51
180.0
  0
LINE
  5
412A
  8
FUTO
 10
19720.149169846569
 20
19308.808224051529
 30
0.0
 11
19721.97094684657
 21
19310.997392302499
 31
0.0
  0
LINE
  5
412B
  8
FUTO
 10
19761.649169846569
 20
18952.997453302502
 30
0.0
 11
19923.649169846569
 21
18952.997453302502
 31
0.0
  0
LINE
  5
412C
  8
FUTO
 10
19771.023192846569
 20
18885.303605302499
 30
0.0
 11
19859.614501846569
 21
18880.66078330249
 31
0.0
  0
LINE
  5
412D
  8
FUTO
 10
19733.649169846569
 20
18947.997453302502
 30
0.0
 11
19923.649169846569
 21
18947.997453302502
 31
0.0
  0
LINE
  5
412E
  8
FUTO
 10
19761.649169846569
 20
18952.997453302502
 30
0.0
 11
19923.649169846569
 21
18952.997453302502
 31
0.0
  0
LINE
  5
412F
  8
FUTO
 10
19953.649169846569
 20
18856.497453302502
 30
0.0
 11
19953.649169846569
 21
18716.497453302502
 31
0.0
  0
LINE
  5
4130
  8
FUTO
 10
19893.649169846569
 20
18856.497453302502
 30
0.0
 11
19893.649169846569
 21
18716.497453302502
 31
0.0
  0
LINE
  5
4131
  8
FUTO
 10
19845.649169846569
 20
18866.497453302502
 30
0.0
 11
19923.649169846569
 21
18866.497453302502
 31
0.0
  0
LINE
  5
4132
  8
FUTO
 10
19956.149169846569
 20
18856.497453302502
 30
0.0
 11
19891.149169846569
 21
18856.497453302502
 31
0.0
  0
LINE
  5
4133
  8
FUTO
 10
19956.149169846569
 20
18856.497453302502
 30
0.0
 11
19956.149169846569
 21
18866.497453302502
 31
0.0
  0
LINE
  5
4134
  8
FUTO
 10
19891.149169846569
 20
18856.497453302502
 30
0.0
 11
19891.149169846569
 21
18866.497453302502
 31
0.0
  0
LINE
  5
4135
  8
FUTO
 10
19843.649169846569
 20
18878.650529302489
 30
0.0
 11
19843.649169846569
 21
18868.497453302502
 31
0.0
  0
ARC
  5
4136
  8
FUTO
 10
19840.649169846569
 20
18878.650529302489
 30
0.0
 40
2.9999599999999988
 50
0.000000000000007
 51
87.000442999965941
  0
ARC
  5
4137
  8
FUTO
 10
19845.649169846569
 20
18868.497453302502
 30
0.0
 40
2.0
 50
180.0
 51
270.0
  0
LINE
  5
4138
  8
FUTO
 10
19893.649169846569
 20
18716.497453302502
 30
0.0
 11
19953.649169846569
 21
18716.497453302502
 31
0.0
  0
LINE
  5
4139
  8
FUTO
 10
19720.149169846569
 20
18975.1865403025
 30
0.0
 11
19726.649169846569
 21
18967.375627302499
 31
0.0
  0
LINE
  5
413A
  8
FUTO
 10
19733.649169846569
 20
18947.997453302502
 30
0.0
 11
19734.559325846571
 21
18921.934221302501
 31
0.0
  0
LINE
  5
413B
  8
FUTO
 10
19726.649169846569
 20
18967.375627302499
 30
0.0
 11
19761.649169846569
 21
18957.997453302502
 31
0.0
  0
LINE
  5
413C
  8
FUTO
 10
19761.649169846569
 20
18952.997453302502
 30
0.0
 11
19761.649169846569
 21
18957.997453302502
 31
0.0
  0
LINE
  5
413D
  8
FUTO
 10
19761.649169846569
 20
18947.997453302502
 30
0.0
 11
19761.649169846569
 21
18952.997453302502
 31
0.0
  0
LINE
  5
413E
  8
FUTO
 10
19737.482176846559
 20
18915.212053302501
 30
0.0
 11
19764.475341846559
 21
18888.218889302501
 31
0.0
  0
ARC
  5
413F
  8
FUTO
 10
19771.54638584657
 20
18895.289933302502
 30
0.0
 40
10.000024
 50
225.0
 51
267.00096100006488
  0
ARC
  5
4140
  8
FUTO
 10
19744.553221846571
 20
18922.283098302491
 30
0.0
 40
9.9999679999999991
 50
181.99932899999791
 51
225.0
  0
LINE
  5
4142
  8
FUTO
 10
21682.561091128111
 20
15214.252320156949
 30
0.0
 11
21697.24052205242
 21
15214.252320156949
 31
0.0
  0
LINE
  5
4143
  8
FUTO
 10
21685.240583052419
 20
15194.252320156949
 30
0.0
 11
21720.240583052419
 21
15194.252320156949
 31
0.0
  0
LINE
  5
4144
  8
FUTO
 10
21357.92007497673
 20
15214.252320156949
 30
0.0
 11
21343.240583052419
 21
15214.252320156949
 31
0.0
  0
LINE
  5
4145
  8
FUTO
 10
21355.240583052419
 20
15194.252320156949
 30
0.0
 11
21320.240583052419
 21
15194.252320156949
 31
0.0
  0
LINE
  5
4147
  8
FUTO
 10
21420.240583052419
 20
15189.252320156949
 30
0.0
 11
21420.240583052419
 21
15194.252320156949
 31
0.0
  0
LINE
  5
4148
  8
FUTO
 10
21620.240583052419
 20
15194.252320156949
 30
0.0
 11
21620.240583052419
 21
15189.252320156949
 31
0.0
  0
LINE
  5
4153
  8
FUTO
 10
21375.240583052419
 20
15222.72790615695
 30
0.0
 11
21359.240583052419
 21
15213.49060215695
 31
0.0
  0
LINE
  5
4154
  8
FUTO
 10
21391.240583052419
 20
15213.49060215695
 30
0.0
 11
21375.240583052419
 21
15222.72790615695
 31
0.0
  0
LINE
  5
4155
  8
FUTO
 10
21375.240583052419
 20
15185.77771115695
 30
0.0
 11
21359.240583052419
 21
15195.015016156951
 31
0.0
  0
LINE
  5
4156
  8
FUTO
 10
21391.240583052419
 20
15195.015016156951
 30
0.0
 11
21375.240583052419
 21
15185.77771115695
 31
0.0
  0
LINE
  5
4157
  8
CT
 10
21345.240583052419
 20
15204.252320156949
 30
0.0
 11
21405.240583052419
 21
15204.252320156949
 31
0.0
  0
CIRCLE
  5
4158
  8
FUTO
 10
21375.240583052419
 20
15204.252320156949
 30
0.0
 40
16.0
  0
LINE
  5
4159
  8
FUTO
 10
21391.240583052419
 20
15195.015016156951
 30
0.0
 11
21391.240583052419
 21
15213.49060215695
 31
0.0
  0
LINE
  5
415A
  8
FUTO
 10
21359.240583052419
 20
15195.015016156951
 30
0.0
 11
21359.240583052419
 21
15213.49060215695
 31
0.0
  0
ARC
  5
415B
  8
FUTO
 10
21375.240583052419
 20
15204.252320156949
 30
0.0
 40
20.0
 50
0.000000000000007
 51
180.0
  0
ARC
  5
415C
  8
FUTO
 10
21268.240583052419
 20
15161.252320156949
 30
0.0
 40
3.0
 50
90.0
 51
180.0
  0
LINE
  5
415D
  8
FUTO
 10
21317.115583052419
 20
15164.252320156949
 30
0.0
 11
21268.240583052419
 21
15164.252320156949
 31
0.0
  0
LINE
  5
415E
  8
FUTO
 10
21322.240583052419
 20
15134.252320156949
 30
0.0
 11
21322.240583052419
 21
15139.252320156949
 31
0.0
  0
LINE
  5
415F
  8
FUTO
 10
21312.240583052419
 20
15146.252320156949
 30
0.0
 11
21312.240583052419
 21
15139.252320156949
 31
0.0
  0
LINE
  5
4160
  8
FUTO
 10
21322.240583052419
 20
15134.252320156949
 30
0.0
 11
21265.240583052419
 21
15134.252320156949
 31
0.0
  0
LINE
  5
4161
  8
FUTO
 10
21265.240583052419
 20
15134.252320156949
 30
0.0
 11
21265.240583052419
 21
15161.252320156949
 31
0.0
  0
LINE
  5
4162
  8
CT
 10
21290.240583052419
 20
15184.252320156949
 30
0.0
 11
21290.240583052419
 21
15114.252320156949
 31
0.0
  0
LINE
  5
4163
  8
FUTO
 10
21312.240583052419
 20
15146.252320156949
 30
0.0
 11
21355.240583052419
 21
15146.252320156949
 31
0.0
  0
LINE
  5
4164
  8
FUTO
 10
21320.240583052419
 20
15194.252320156949
 30
0.0
 11
21315.240583052419
 21
15146.252320156949
 31
0.0
  0
LINE
  5
4165
  8
FUTO
 10
21395.240583052419
 20
15204.252320156949
 30
0.0
 11
21395.240583052419
 21
15139.252320156949
 31
0.0
  0
LINE
  5
4166
  8
FUTO
 10
21355.240583052419
 20
15139.252320156949
 30
0.0
 11
21355.240583052419
 21
15204.252320156949
 31
0.0
  0
LINE
  5
4167
  8
CT
 10
21375.240583052419
 20
15129.252320156949
 30
0.0
 11
21375.240583052419
 21
15234.252320156949
 31
0.0
  0
LINE
  5
4168
  8
FUTO
 10
21649.240583052419
 20
15213.49060215695
 30
0.0
 11
21665.240583052419
 21
15222.72790615695
 31
0.0
  0
LINE
  5
4169
  8
FUTO
 10
21649.240583052419
 20
15195.015016156951
 30
0.0
 11
21665.240583052419
 21
15185.77771115695
 31
0.0
  0
LINE
  5
416A
  8
FUTO
 10
21649.240583052419
 20
15195.015016156951
 30
0.0
 11
21649.240583052419
 21
15213.49060215695
 31
0.0
  0
LINE
  5
416B
  8
FUTO
 10
21681.240583052419
 20
15195.015016156951
 30
0.0
 11
21681.240583052419
 21
15213.49060215695
 31
0.0
  0
CIRCLE
  5
416C
  8
FUTO
 10
21665.240583052419
 20
15204.252320156949
 30
0.0
 40
16.0
  0
LINE
  5
416D
  8
FUTO
 10
21665.240583052419
 20
15222.72790615695
 30
0.0
 11
21681.240583052419
 21
15213.49060215695
 31
0.0
  0
LINE
  5
416E
  8
FUTO
 10
21665.240583052419
 20
15185.77771115695
 30
0.0
 11
21681.240583052419
 21
15195.015016156951
 31
0.0
  0
ARC
  5
416F
  8
FUTO
 10
21665.240583052419
 20
15204.252320156949
 30
0.0
 40
20.0
 50
0.000000000000007
 51
180.0
  0
LINE
  5
4170
  8
CT
 10
21695.240583052419
 20
15204.252320156949
 30
0.0
 11
21635.240583052419
 21
15204.252320156949
 31
0.0
  0
LINE
  5
4171
  8
FUTO
 10
21420.240583052419
 20
15189.252320156949
 30
0.0
 11
21620.240583052419
 21
15189.252320156949
 31
0.0
  0
LINE
  5
4172
  8
FUTO
 10
21718.240583052419
 20
15134.252320156949
 30
0.0
 11
21718.240583052419
 21
15139.252320156949
 31
0.0
  0
LINE
  5
4173
  8
FUTO
 10
21728.240583052419
 20
15146.252320156949
 30
0.0
 11
21728.240583052419
 21
15139.252320156949
 31
0.0
  0
LINE
  5
4174
  8
FUTO
 10
21728.240583052419
 20
15146.252320156949
 30
0.0
 11
21685.240583052419
 21
15146.252320156949
 31
0.0
  0
LINE
  5
4175
  8
CT
 10
21750.240583052419
 20
15184.252320156949
 30
0.0
 11
21750.240583052419
 21
15114.252320156949
 31
0.0
  0
ARC
  5
4176
  8
FUTO
 10
21772.240583052419
 20
15161.252320156949
 30
0.0
 40
3.0
 50
0.000000000000007
 51
90.0
  0
LINE
  5
4177
  8
FUTO
 10
21775.240583052419
 20
15134.252320156949
 30
0.0
 11
21775.240583052419
 21
15161.252320156949
 31
0.0
  0
LINE
  5
4178
  8
FUTO
 10
21723.365583052419
 20
15164.252320156949
 30
0.0
 11
21772.240583052419
 21
15164.252320156949
 31
0.0
  0
LINE
  5
4179
  8
FUTO
 10
21718.240583052419
 20
15134.252320156949
 30
0.0
 11
21775.240583052419
 21
15134.252320156949
 31
0.0
  0
LINE
  5
417A
  8
FUTO
 10
21720.240583052419
 20
15194.252320156949
 30
0.0
 11
21725.240583052419
 21
15146.252320156949
 31
0.0
  0
LINE
  5
417B
  8
FUTO
 10
21645.240583052419
 20
15204.252320156949
 30
0.0
 11
21645.240583052419
 21
15139.252320156949
 31
0.0
  0
LINE
  5
417C
  8
FUTO
 10
21685.240583052419
 20
15139.252320156949
 30
0.0
 11
21685.240583052419
 21
15204.252320156949
 31
0.0
  0
LINE
  5
417D
  8
CT
 10
21665.240583052419
 20
15129.252320156949
 30
0.0
 11
21665.240583052419
 21
15234.252320156949
 31
0.0
  0
LINE
  5
41CF
  8
FUTO
 10
21395.240583052419
 20
15146.252320156949
 30
0.0
 11
21645.240583052419
 21
15146.252320156949
 31
0.0
  0
LINE
  5
41D0
  8
FUTO
 10
21312.240583052419
 20
15139.252320156949
 30
0.0
 11
21728.240583052419
 21
15139.252320156949
 31
0.0
  0
LINE
  5
41D1
  8
FUTO
 10
21336.240583052419
 20
15556.252320156949
 30
0.0
 11
21336.240583052419
 21
15519.252320156949
 31
0.0
  0
ARC
  5
41D2
  8
FUTO
 10
21300.526228052418
 20
15573.348268156949
 30
0.0
 40
9.9999679999999991
 50
91.999328999997914
 51
135.0
  0
ARC
  5
41D3
  8
FUTO
 10
21273.533063052419
 20
15546.35510415695
 30
0.0
 40
10.000024
 50
135.0
 51
177.00096100006479
  0
LINE
  5
41D4
  8
FUTO
 10
21293.455183052421
 20
15580.41931315695
 30
0.0
 11
21266.462019052418
 21
15553.42614815695
 31
0.0
  0
LINE
  5
41D5
  8
FUTO
 10
21326.240583052419
 20
15556.252320156949
 30
0.0
 11
21331.240583052419
 21
15556.252320156949
 31
0.0
  0
LINE
  5
41D6
  8
FUTO
 10
21331.240583052419
 20
15556.252320156949
 30
0.0
 11
21336.240583052419
 21
15556.252320156949
 31
0.0
  0
LINE
  5
41D7
  8
FUTO
 10
21345.61875705242
 20
15591.252320156949
 30
0.0
 11
21336.240583052419
 21
15556.252320156949
 31
0.0
  0
LINE
  5
41D8
  8
FUTO
 10
21326.240583052419
 20
15584.252320156949
 30
0.0
 11
21300.177351052422
 21
15583.342164156949
 31
0.0
  0
LINE
  5
41DA
  8
FUTO
 10
21361.240583052419
 20
15604.252320156949
 30
0.0
 11
21345.61875705242
 21
15591.252320156949
 31
0.0
  0
LINE
  5
41DB
  8
FUTO
 10
21094.740583052419
 20
15428.252320156949
 30
0.0
 11
21094.740583052419
 21
15364.252320156949
 31
0.0
  0
ARC
  5
41DC
  8
FUTO
 10
21246.740583052419
 20
15472.252320156949
 30
0.0
 40
2.0
 50
90.0
 51
180.0
  0
ARC
  5
41EB
  8
FUTO
 10
21346.240583052419
 20
15519.252320156949
 30
0.0
 40
10.0
 50
90.0
 51
180.0
  0
ARC
  5
41EE
  8
FUTO
 10
21256.893659052421
 20
15477.252320156949
 30
0.0
 40
2.9999599999999988
 50
270.0
 51
357.00044299996591
  0
LINE
  5
41EF
  8
FUTO
 10
21256.893659052421
 20
15474.252320156949
 30
0.0
 11
21246.740583052419
 21
15474.252320156949
 31
0.0
  0
LINE
  5
41F0
  8
FUTO
 10
21204.740583052419
 20
15428.252320156949
 30
0.0
 11
21204.740583052419
 21
15424.252320156949
 31
0.0
  0
LINE
  5
41F1
  8
FUTO
 10
21234.740583052419
 20
15426.752320156949
 30
0.0
 11
21244.740583052419
 21
15426.752320156949
 31
0.0
  0
LINE
  5
41F2
  8
FUTO
 10
21234.740583052419
 20
15361.752320156949
 30
0.0
 11
21244.740583052419
 21
15361.752320156949
 31
0.0
  0
LINE
  5
41F3
  8
FUTO
 10
21234.740583052419
 20
15361.752320156949
 30
0.0
 11
21234.740583052419
 21
15426.752320156949
 31
0.0
  0
ARC
  5
41F4
  8
FUTO
 10
21346.240583052419
 20
15419.252320156949
 30
0.0
 40
10.0
 50
180.0
 51
270.0
  0
LINE
  5
41F5
  8
FUTO
 10
21244.740583052419
 20
15472.252320156949
 30
0.0
 11
21244.740583052419
 21
15394.252320156949
 31
0.0
  0
LINE
  5
41F6
  8
FUTO
 10
21336.240583052419
 20
15419.252320156949
 30
0.0
 11
21336.240583052419
 21
15519.252320156949
 31
0.0
  0
LINE
  5
41F7
  8
FUTO
 10
21234.740583052419
 20
15424.252320156949
 30
0.0
 11
21094.740583052419
 21
15424.252320156949
 31
0.0
  0
LINE
  5
41F8
  8
FUTO
 10
21234.740583052419
 20
15364.252320156949
 30
0.0
 11
21094.740583052419
 21
15364.252320156949
 31
0.0
  0
LINE
  5
41F9
  8
FUTO
 10
21204.740583052419
 20
15428.252320156949
 30
0.0
 11
21094.740583052419
 21
15428.252320156949
 31
0.0
  0
LINE
  5
41FA
  8
FUTO
 10
21331.240583052419
 20
15556.252320156949
 30
0.0
 11
21331.240583052419
 21
15394.252320156949
 31
0.0
  0
LINE
  5
41FB
  8
FUTO
 10
21326.240583052419
 20
15584.252320156949
 30
0.0
 11
21326.240583052419
 21
15394.252320156949
 31
0.0
  0
LINE
  5
41FC
  8
FUTO
 10
21263.54673505242
 20
15546.878297156951
 30
0.0
 11
21258.903913052422
 21
15458.28698815695
 31
0.0
  0
LINE
  5
41FE
  8
FUTO
 10
21331.240583052419
 20
15556.252320156949
 30
0.0
 11
21331.240583052419
 21
15394.252320156949
 31
0.0
  0
ARC
  5
41FF
  8
FUTO
 10
21509.005598052419
 20
15612.53143415695
 30
0.0
 40
2.9999909999999992
 50
96.115172999988943
 51
174.80557100002201
  0
LINE
  5
4200
  8
FUTO
 10
21506.01792705242
 20
15612.803041156951
 30
0.0
 11
21505.240583052419
 21
15604.252320156949
 31
0.0
  0
ARC
  5
4201
  8
FUTO
 10
21499.282209052421
 20
15604.98211815695
 30
0.0
 40
5.9999760000000002
 50
354.8055729999931
 51
54.396262999995557
  0
ARC
  5
4202
  8
FUTO
 10
21531.475568052421
 20
15612.53143415695
 30
0.0
 40
2.999981
 50
5.194427000006832
 51
83.884827000011072
  0
ARC
  5
4203
  8
FUTO
 10
21520.240583052419
 20
15634.252320156949
 30
0.0
 40
30.0
 50
305.19004800000442
 51
305.60386699997889
  0
LINE
  5
4204
  8
FUTO
 10
21520.240583052419
 20
15616.752320156949
 30
0.0
 11
21531.795148052421
 21
15615.514344156951
 31
0.0
  0
LINE
  5
4205
  8
FUTO
 10
21534.463239052409
 20
15612.803041156951
 30
0.0
 11
21535.240583052419
 21
15604.252320156949
 31
0.0
  0
ARC
  5
4206
  8
FUTO
 10
21541.19895705242
 20
15604.98211815695
 30
0.0
 40
5.9999820000000001
 50
125.6037370000044
 51
185.19442700000681
  0
LINE
  5
4207
  8
FUTO
 10
21520.240583052419
 20
15616.752320156949
 30
0.0
 11
21508.68601805242
 21
15615.514344156951
 31
0.0
  0
LINE
  5
4208
  8
FUTO
 10
21508.68601805242
 20
15615.514344156951
 30
0.0
 11
21531.795148052421
 21
15615.514344156951
 31
0.0
  0
LINE
  5
4209
  8
CT
 10
21560.240583052419
 20
15634.252320156949
 30
0.0
 11
21480.240583052419
 21
15634.252320156949
 31
0.0
  0
LINE
  5
420A
  8
FUTO
 10
21461.240583052419
 20
15543.252320156949
 30
0.0
 11
21579.240583052419
 21
15543.252320156949
 31
0.0
  0
CIRCLE
  5
420B
  8
FUTO
 10
21520.240583052419
 20
15634.252320156949
 30
0.0
 40
17.5
  0
ARC
  5
420C
  8
FUTO
 10
21520.240583052419
 20
15634.252320156949
 30
0.0
 40
30.0
 50
305.60386699997889
 51
234.39614899998969
  0
LINE
  5
420D
  8
FUTO
 10
21679.24052205242
 20
15604.252320156949
 30
0.0
 11
21689.24052205242
 21
15595.93054315695
 31
0.0
  0
ARC
  5
420E
  8
FUTO
 10
21735.713911052419
 20
15577.752320156949
 30
0.0
 40
20.0
 50
69.999953999991405
 51
90.0
  0
ARC
  5
420F
  8
FUTO
 10
21772.989301052421
 20
15606.752320156949
 30
0.0
 40
20.0
 50
250.0002749999968
 51
270.0
  0
LINE
  5
4212
  8
FUTO
 10
21742.55436505242
 20
15596.546266156951
 30
0.0
 11
21766.148969052421
 21
15587.95837515695
 31
0.0
  0
LINE
  5
4213
  8
FUTO
 10
21689.24052205242
 20
15597.752320156949
 30
0.0
 11
21735.713911052419
 21
15597.752320156949
 31
0.0
  0
LINE
  5
4214
  8
FUTO
 10
21679.24052205242
 20
15604.252320156949
 30
0.0
 11
21520.240583052419
 21
15604.252320156949
 31
0.0
  0
LINE
  5
4215
  8
FUTO
 10
21582.24052205242
 20
15536.252320156949
 30
0.0
 11
21458.240583052419
 21
15536.252320156949
 31
0.0
  0
ARC
  5
4216
  8
FUTO
 10
21458.240583052419
 20
15361.55456615695
 30
0.0
 40
20.0
 50
180.0
 51
270.0
  0
CIRCLE
  5
4217
  8
FUTO
 10
21520.240583052419
 20
15328.55456615695
 30
0.0
 40
3.5
  0
LINE
  5
4218
  8
FUTO
 10
21526.69346405242
 20
15328.55456615695
 30
0.0
 11
21512.104353052418
 21
15328.55456615695
 31
0.0
  0
LINE
  5
4219
  8
FUTO
 10
21458.240583052419
 20
15341.55456615695
 30
0.0
 11
21582.240583052419
 21
15341.55456615695
 31
0.0
  0
LINE
  5
421A
  8
FUTO
 10
21579.24052205242
 20
15321.55456615695
 30
0.0
 11
21461.240583052419
 21
15321.55456615695
 31
0.0
  0
LINE
  5
421B
  8
FUTO
 10
21438.240583052419
 20
15516.252320156949
 30
0.0
 11
21438.240583052419
 21
15361.55456615695
 31
0.0
  0
LINE
  5
421C
  8
FUTO
 10
21431.240583052419
 20
15513.252320156949
 30
0.0
 11
21431.240583052419
 21
15351.55456615695
 31
0.0
  0
LINE
  5
421D
  8
FUTO
 10
21689.24052205242
 20
15529.252320156949
 30
0.0
 11
21604.617719052421
 21
15529.252320156949
 31
0.0
  0
LINE
  5
4221
  8
FUTO
 10
21689.24052205242
 20
15409.252320156949
 30
0.0
 11
21609.24052205242
 21
15409.252320156949
 31
0.0
  0
LINE
  5
4222
  8
FUTO
 10
21602.24052205242
 20
15516.252320156949
 30
0.0
 11
21602.24052205242
 21
15361.55456615695
 31
0.0
  0
LINE
  5
4223
  8
FUTO
 10
21609.24052205242
 20
15513.252320156949
 30
0.0
 11
21609.24052205242
 21
15351.55456615695
 31
0.0
  0
ARC
  5
4224
  8
FUTO
 10
21582.24052205242
 20
15361.55456615695
 30
0.0
 40
20.0
 50
270.0
 51
0.000000000000007
  0
LINE
  5
4225
  8
CT
 10
21629.24052205242
 20
15469.252320156949
 30
0.0
 11
21411.240583052419
 21
15469.252320156949
 31
0.0
  0
ARC
  5
4226
  8
FUTO
 10
21582.24052205242
 20
15516.252320156949
 30
0.0
 40
20.0
 50
0.000000000000007
 51
90.0
  0
ARC
  5
4227
  8
FUTO
 10
21458.240583052419
 20
15516.252320156949
 30
0.0
 40
20.0
 50
90.0
 51
180.0
  0
ARC
  5
4228
  8
FUTO
 10
21461.240583052419
 20
15513.252320156949
 30
0.0
 40
30.0
 50
90.0
 51
180.0
  0
ARC
  5
4229
  8
FUTO
 10
21579.24052205242
 20
15513.252320156949
 30
0.0
 40
30.0
 50
0.000000000000007
 51
90.0
  0
LINE
  5
422E
  8
FUTO
 10
21361.240583052419
 20
15604.252320156949
 30
0.0
 11
21520.240583052419
 21
15604.252320156949
 31
0.0
  0
LINE
  5
422F
  8
FUTO
 10
21346.240583052419
 20
15529.252320156949
 30
0.0
 11
21435.863386052421
 21
15529.252320156949
 31
0.0
  0
LINE
  5
4230
  8
FUTO
 10
21346.240583052419
 20
15409.252320156949
 30
0.0
 11
21431.240583052419
 21
15409.252320156949
 31
0.0
  0
ARC
  5
4231
  8
FUTO
 10
21246.740583052419
 20
15316.252320156949
 30
0.0
 40
2.0
 50
180.0
 51
270.0
  0
ARC
  5
4232
  8
FUTO
 10
21256.893659052421
 20
15311.252320156949
 30
0.0
 40
3.0
 50
2.9995570000340721
 51
90.0
  0
ARC
  5
4233
  8
FUTO
 10
21271.590192052419
 20
15279.22058215695
 30
0.0
 40
10.000139999999989
 50
183.00042699998181
 51
225.00097700000649
  0
ARC
  5
4241
  8
FUTO
 10
21300.38267305242
 20
15250.42810215695
 30
0.0
 40
10.0
 50
225.0
 51
270.0
  0
ARC
  5
4242
  8
FUTO
 10
21273.533063052419
 20
15242.149537156951
 30
0.0
 40
9.9999679999999991
 50
182.9990539999759
 51
225.0
  0
LINE
  5
4243
  8
FUTO
 10
21336.240583052419
 20
15242.491578156951
 30
0.0
 11
21355.329206052422
 21
15242.491578156951
 31
0.0
  0
LINE
  5
4244
  8
FUTO
 10
21337.276472052421
 20
15232.252320156949
 30
0.0
 11
21331.240583052419
 21
15232.252320156949
 31
0.0
  0
LINE
  5
4245
  8
FUTO
 10
21326.240583052419
 20
15232.252320156949
 30
0.0
 11
21331.240583052419
 21
15232.252320156949
 31
0.0
  0
ARC
  5
4246
  8
FUTO
 10
21343.240583052419
 20
15211.252320156949
 30
0.0
 40
3.0
 50
90.0
 51
180.0
  0
ARC
  5
4247
  8
FUTO
 10
21350.329206052422
 20
15219.252320156949
 30
0.0
 40
5.0
 50
270.0
 51
0.000000000000007
  0
LINE
  5
4248
  8
FUTO
 10
21336.240583052419
 20
15235.37878515695
 30
0.0
 11
21338.79917705242
 21
15235.37878515695
 31
0.0
  0
LINE
  5
4249
  8
FUTO
 10
21343.240583052419
 20
15214.252320156949
 30
0.0
 11
21336.240583052419
 21
15235.37878515695
 31
0.0
  0
LINE
  5
424A
  8
FUTO
 10
21355.329206052422
 20
15219.252320156949
 30
0.0
 11
21355.329206052422
 21
15242.491578156951
 31
0.0
  0
LINE
  5
424B
  8
FUTO
 10
21346.398786052421
 20
15214.252320156949
 30
0.0
 11
21336.240583052419
 21
15242.491578156951
 31
0.0
  0
LINE
  5
424C
  8
FUTO
 10
21300.38267305242
 20
15240.42810215695
 30
0.0
 11
21326.240583052419
 21
15240.42810215695
 31
0.0
  0
LINE
  5
424E
  8
FUTO
 10
21259.871931052421
 20
15311.747560156949
 30
0.0
 11
21263.54673505242
 21
15241.62634415695
 31
0.0
  0
LINE
  5
4250
  8
FUTO
 10
21293.311628052419
 20
15243.357057156951
 30
0.0
 11
21264.519147052419
 21
15272.14929315695
 31
0.0
  0
LINE
  5
4253
  8
FUTO
 10
21256.893659052421
 20
15314.252320156949
 30
0.0
 11
21246.740583052419
 21
15314.252320156949
 31
0.0
  0
ARC
  5
4254
  8
FUTO
 10
21300.526228052418
 20
15215.156373156949
 30
0.0
 40
9.9999839999999995
 50
225.0
 51
268.00067100000211
  0
LINE
  5
4255
  8
FUTO
 10
21326.240583052419
 20
15204.252320156949
 30
0.0
 11
21300.177351052422
 21
15205.16247715695
 31
0.0
  0
LINE
  5
4256
  8
FUTO
 10
21340.240583052419
 20
15194.252320156949
 30
0.0
 11
21340.240583052419
 21
15211.252320156949
 31
0.0
  0
LINE
  5
4257
  8
FUTO
 10
21293.455183052421
 20
15208.085328156951
 30
0.0
 11
21266.462019052418
 21
15235.07849215695
 31
0.0
  0
LINE
  5
4258
  8
FUTO
 10
21480.64048505242
 20
15215.86023115695
 30
0.0
 11
21400.240583052419
 21
15214.252320156949
 31
0.0
  0
ARC
  5
4259
  8
FUTO
 10
21495.240583052419
 20
15276.748414156949
 30
0.0
 40
5.0
 50
0.000000000000007
 51
90.0
  0
ARC
  5
425A
  8
FUTO
 10
21545.240583052419
 20
15276.748414156949
 30
0.0
 40
5.0
 50
90.0
 51
180.0
  0
ARC
  5
425B
  8
FUTO
 10
21560.24052205242
 20
15235.85632415695
 30
0.0
 40
20.000091999999999
 50
180.0
 51
268.85427899999138
  0
LINE
  5
425C
  8
FUTO
 10
21540.240583052419
 20
15276.748414156949
 30
0.0
 11
21540.240583052419
 21
15235.85632415695
 31
0.0
  0
LINE
  5
425D
  8
FUTO
 10
21500.240583052419
 20
15276.748414156949
 30
0.0
 11
21500.240583052419
 21
15235.85632415695
 31
0.0
  0
ARC
  5
425E
  8
FUTO
 10
21480.240583052419
 20
15235.85632415695
 30
0.0
 40
20.0
 50
271.14572100000839
 51
0.000000000000007
  0
LINE
  5
425F
  8
FUTO
 10
21420.240583052419
 20
15194.252320156949
 30
0.0
 11
21420.240583052419
 21
15195.252320156949
 31
0.0
  0
ARC
  5
4260
  8
FUTO
 10
21425.240583052419
 20
15195.252320156949
 30
0.0
 40
5.0
 50
90.0
 51
180.0
  0
LINE
  5
4261
  8
FUTO
 10
21425.240583052419
 20
15200.252320156949
 30
0.0
 11
21520.240583052419
 21
15200.252320156949
 31
0.0
  0
ARC
  5
4262
  8
FUTO
 10
21697.24052205242
 20
15211.252320156949
 30
0.0
 40
3.0
 50
0.000000000000007
 51
90.0
  0
LINE
  5
4263
  8
FUTO
 10
21640.24052205242
 20
15214.252320156949
 30
0.0
 11
21647.92007497673
 21
15214.252320156949
 31
0.0
  0
ARC
  5
426D
  8
FUTO
 10
21615.24052205242
 20
15195.252320156949
 30
0.0
 40
5.0
 50
0.000000000000007
 51
90.0
  0
LINE
  5
426E
  8
FUTO
 10
21620.24052205242
 20
15194.252320156949
 30
0.0
 11
21620.24052205242
 21
15195.252320156949
 31
0.0
  0
LINE
  5
426F
  8
FUTO
 10
21620.24052205242
 20
15194.252320156949
 30
0.0
 11
21645.240583052419
 21
15194.252320156949
 31
0.0
  0
LINE
  5
4270
  8
FUTO
 10
21759.846601052421
 20
15198.252320156949
 30
0.0
 11
21769.462568052419
 21
15201.752320156949
 31
0.0
  0
LINE
  5
4271
  8
FUTO
 10
21759.846601052421
 20
15198.252320156949
 30
0.0
 11
21700.24052205242
 21
15198.252320156949
 31
0.0
  0
LINE
  5
4272
  8
FUTO
 10
21700.24052205242
 20
15194.252320156949
 30
0.0
 11
21700.24052205242
 21
15211.252320156949
 31
0.0
  0
LINE
  5
4273
  8
FUTO
 10
21559.840620052419
 20
15215.86023115695
 30
0.0
 11
21640.24052205242
 21
15214.252320156949
 31
0.0
  0
LINE
  5
4274
  8
FUTO
 10
21615.24052205242
 20
15200.252320156949
 30
0.0
 11
21520.240583052419
 21
15200.252320156949
 31
0.0
  0
LINE
  5
4275
  8
FUTO
 10
21400.240583052419
 20
15214.252320156949
 30
0.0
 11
21392.561091128111
 21
15214.252320156949
 31
0.0
  0
LINE
  5
4276
  8
FUTO
 10
21420.240583052419
 20
15194.252320156949
 30
0.0
 11
21395.240583052419
 21
15194.252320156949
 31
0.0
  0
ARC
  5
4277
  8
FUTO
 10
21579.24052205242
 20
15351.55456615695
 30
0.0
 40
30.0
 50
270.0
 51
0.000000000000007
  0
ARC
  5
4278
  8
FUTO
 10
21461.240583052419
 20
15351.55456615695
 30
0.0
 40
30.0
 50
180.0
 51
270.0
  0
LINE
  5
4279
  8
CT
 10
21520.240583052419
 20
15684.252320156949
 30
0.0
 11
21520.240583052419
 21
15114.252320156949
 31
0.0
  0
LINE
  5
427A
  8
FUTO
 10
21331.240583052419
 20
15232.252320156949
 30
0.0
 11
21331.240583052419
 21
15394.252320156949
 31
0.0
  0
LINE
  5
427B
  8
FUTO
 10
21689.24052205242
 20
15597.752320156949
 30
0.0
 11
21689.24052205242
 21
15214.252320156949
 31
0.0
  0
LINE
  5
427C
  8
FUTO
 10
21739.24052205242
 20
15597.43884415695
 30
0.0
 11
21739.24052205242
 21
15198.252320156949
 31
0.0
  0
LINE
  5
427D
  8
FUTO
 10
21769.440473052418
 20
15587.069703156951
 30
0.0
 11
21769.440473052418
 21
15201.752320156949
 31
0.0
  0
LINE
  5
427E
  8
FUTO
 10
21331.240583052419
 20
15232.252320156949
 30
0.0
 11
21331.240583052419
 21
15394.252320156949
 31
0.0
  0
LINE
  5
427F
  8
FUTO
 10
21326.240583052419
 20
15204.252320156949
 30
0.0
 11
21326.240583052419
 21
15394.252320156949
 31
0.0
  0
LINE
  5
4280
  8
FUTO
 10
21244.740583052419
 20
15316.252320156949
 30
0.0
 11
21244.740583052419
 21
15394.252320156949
 31
0.0
  0
ARC
  5
4281
  8
FUTO
 10
21833.929609052419
 20
15571.752320156949
 30
0.0
 40
15.0
 50
60.00018300001819
 51
90.0
  0
ARC
  5
4282
  8
FUTO
 10
21889.24052205242
 20
15551.36560215695
 30
0.0
 40
4.9999580000000003
 50
0.000000000000007
 51
59.999718000027237
  0
LINE
  5
4283
  8
FUTO
 10
21891.74052205242
 20
15555.69568015695
 30
0.0
 11
21841.429609052419
 21
15584.742799156949
 31
0.0
  0
ARC
  5
42CC
  8
FUTO
 10
21889.24052205242
 20
15237.139039156949
 30
0.0
 40
5.0
 50
300.00027500002068
 51
0.000000000000007
  0
ARC
  5
42CE
  8
FUTO
 10
21833.929609052419
 20
15216.752320156949
 30
0.0
 40
15.000085
 50
270.0
 51
299.99981699998182
  0
LINE
  5
42CF
  8
FUTO
 10
21891.74052205242
 20
15232.80896115695
 30
0.0
 11
21841.429609052419
 21
15203.76184215695
 31
0.0
  0
LINE
  5
4301
  8
FUTO
 10
21835.140546052418
 20
15201.752320156949
 30
0.0
 11
21835.140546052418
 21
15586.703248156949
 31
0.0
  0
LINE
  5
4305
  8
FUTO
 10
21894.240583052419
 20
15551.902284156949
 30
0.0
 11
21894.240583052419
 21
15237.11197015695
 31
0.0
  0
LINE
  5
4306
  8
CT
 10
21074.740583052419
 20
15394.252320156949
 30
0.0
 11
21914.240583052419
 21
15394.252320156949
 31
0.0
  0
LINE
  5
4307
  8
FUTO
 10
21772.989301052421
 20
15586.752320156949
 30
0.0
 11
21833.929609052419
 21
15586.752320156949
 31
0.0
  0
LINE
  5
4308
  8
FUTO
 10
21769.440473052418
 20
15201.752320156949
 30
0.0
 11
21833.929609052419
 21
15201.752320156949
 31
0.0
  0
LINE
  5
430D
  8
CT
 10
19788.649169846569
 20
18911.997453302502
 30
0.0
 11
19738.649169846562
 21
18911.997453302502
 31
0.0
  0
LINE
  5
430E
  8
CT
 10
19763.649169846569
 20
18886.997453302502
 30
0.0
 11
19763.649169846569
 21
18936.997453302502
 31
0.0
  0
LINE
  5
430F
  8
CT
 10
20083.649169846569
 20
18886.997453302502
 30
0.0
 11
20083.649169846569
 21
18936.997453302502
 31
0.0
  0
LINE
  5
4310
  8
CT
 10
20058.649169846562
 20
18911.997453302502
 30
0.0
 11
20108.649169846569
 21
18911.997453302502
 31
0.0
  0
LINE
  5
4311
  8
CT
 10
20058.649169846562
 20
19371.997453302502
 30
0.0
 11
20108.649169846569
 21
19371.997453302502
 31
0.0
  0
LINE
  5
4312
  8
CT
 10
20083.649169846569
 20
19396.997453302502
 30
0.0
 11
20083.649169846569
 21
19346.997453302502
 31
0.0
  0
LINE
  5
4313
  8
CT
 10
19763.649169846569
 20
19396.997453302502
 30
0.0
 11
19763.649169846569
 21
19346.997453302502
 31
0.0
  0
LINE
  5
4314
  8
CT
 10
19788.649169846569
 20
19371.997453302502
 30
0.0
 11
19738.649169846562
 21
19371.997453302502
 31
0.0
  0
LINE
  5
4315
  8
FUTO
 10
20143.649169846569
 20
18861.497453302502
 30
0.0
 11
20143.649169846569
 21
18606.497453302502
 31
0.0
  0
LINE
  5
4316
  8
FUTO
 10
20273.649169846569
 20
18912.497453302502
 30
0.0
 11
20273.649169846569
 21
18839.497453302502
 31
0.0
  0
LINE
  5
4317
  8
FUTO
 10
20133.649169846569
 20
19815.497453302502
 30
0.0
 11
20133.649169846569
 21
18912.497453302502
 31
0.0
  0
LINE
  5
4319
  8
FUTO
 10
19788.649169846569
 20
19815.497453302502
 30
0.0
 11
19788.649169846569
 21
19515.997453302502
 31
0.0
  0
LINE
  5
431A
  8
FUTO
 10
19713.649169846569
 20
19815.497453302502
 30
0.0
 11
19713.649169846569
 21
18912.497453302502
 31
0.0
  0
LINE
  5
431B
  8
SL
 10
20058.649169846569
 20
19515.997453302502
 30
0.0
 11
20058.649169846569
 21
18906.497453302502
 31
0.0
  0
LINE
  5
431C
  8
SL
 10
19788.649169846569
 20
19515.997453302502
 30
0.0
 11
19788.649169846569
 21
18906.497453302502
 31
0.0
  0
LINE
  5
432D
  8
FUTO
 10
17793.649169846569
 20
21010.497453302502
 30
0.0
 11
19980.649169846569
 21
21010.497453302502
 31
0.0
  0
LINE
  5
4341
  8
FUTO
 10
17793.649169846569
 20
19842.497453302502
 30
0.0
 11
19980.649169846569
 21
19842.497453302502
 31
0.0
  0
LINE
  5
4342
  8
FUTO
 10
17793.649169846569
 20
19888.497453302502
 30
0.0
 11
19573.649169846569
 21
19888.497453302502
 31
0.0
  0
LINE
  5
4347
  8
FUTO
 10
17873.649169846569
 20
19842.497453302491
 30
0.0
 11
17873.649169846569
 21
19815.497453302502
 31
0.0
  0
LINE
  5
4348
  8
FUTO
 10
20178.872868207422
 20
19890.497453302462
 30
0.0
 11
20273.649169846569
 21
19890.497453302491
 31
0.0
  0
LINE
  5
4349
  8
FUTO
 10
19025.182669450151
 20
18912.497453302502
 30
0.0
 11
19025.182669450151
 21
19842.497453302491
 31
0.0
  0
LINE
  5
434A
  8
FUTO
 10
18422.115670242991
 20
18912.497453302502
 30
0.0
 11
18422.115670242991
 21
19842.497453302491
 31
0.0
  0
INSERT
  5
4367
  8
FUTO
  6
CONTINUOUS
  2
*U22
 10
0.0
 20
0.0
 30
0.0
1001
ACAD
1002
{
1000
R14_HATCH_DATA
1000
4367
1011
1.0
1021
5.0906117412778122E+058
1031
0.0
1021
0.0
1031
0.0
1011
0.0
1021
5.0906117412778122E+058
1031
0.0
1021
1.0
1031
0.0
1011
0.0
1021
5.0906117412778122E+058
1031
0.0
1021
0.0
1031
1.0
1040
0.0
1010
0.0
1020
0.0
1030
1.0
1000
SOLID
1070
     1
1070
     0
1071
        2
1071
        7
1070
     0
1070
     1
1071
        4
1040
20223.649169846569
1040
14984.252320156949
1040
20223.649169846569
1040
14874.252320156949
1040
20263.649169846569
1040
14874.252320156949
1040
20263.649169846569
1040
14984.25232015694
1071
        0
1071
        7
1070
     0
1070
     1
1071
        4
1040
20183.649169846569
1040
14984.252320156949
1040
20183.649169846569
1040
14874.252320156949
1040
20223.649169846569
1040
14874.252320156949
1040
20223.649169846569
1040
14984.252320156949
1071
        0
1070
     0
1070
     1
1040
0.2518002073071134
1071
        2
1040
20241.098501595108
1040
14974.285662452279
1040
0.0
1040
20200.277224609199
1040
14980.83245728457
1040
0.0
1002
}
  0
LINE
  5
457C
  8
FUTO
 62
     2
 10
17843.649169846569
 20
14984.252320156949
 30
0.0
 11
17215.75737079485
 21
14984.252320156949
 31
0.0
  0
LINE
  5
457D
  8
FUTO
 62
     2
 10
17843.649169846569
 20
14869.252320156949
 30
0.0
 11
17215.75737079485
 21
14869.252320156949
 31
0.0
  0
LINE
  5
457E
  8
FUTO
 62
     2
 10
17245.75737079485
 20
15044.252320156949
 30
0.0
 11
17245.75737079485
 21
15104.252320156949
 31
0.0
  0
LINE
  5
457F
  8
FUTO
 62
     2
 10
17245.75737079485
 20
14809.252320156949
 30
0.0
 11
17245.75737079485
 21
14458.356701526871
 31
0.0
  0
LINE
  5
4580
  8
FUTO
 62
     2
 10
17245.75737079485
 20
14984.252320156949
 30
0.0
 11
17245.75737079485
 21
14869.252320156949
 31
0.0
  0
INSERT
  5
4581
  8
FUTO
 62
     2
  2
_OPEN30
 10
17245.75737079485
 20
14984.252320156949
 30
0.0
 41
-60.0
 42
60.0
 43
60.0
 50
90.0
  0
INSERT
  5
4582
  8
FUTO
 62
     2
  2
_OPEN30
 10
17245.75737079485
 20
14869.252320156949
 30
0.0
 41
-60.0
 42
60.0
 43
60.0
 50
270.0
  0
TEXT
  5
4583
  8
FUTO
 62
     2
 10
17104.105492633211
 20
14778.388908648891
 30
0.0
 40
90.0
  1
(115)
 50
90.0
 51
15.0
  7
SUNPOU
  0
DIMENSION
  5
4584
  8
FUTO
  2
*D14
 10
17245.75737079485
 20
14719.252320156949
 30
0.0
 11
17185.75737079484
 21
14539.252320156949
 31
0.0
 70
     0
 13
17873.649169846569
 23
14869.252320156949
 33
0.0
 14
17873.649169846569
 24
14719.252320156949
 34
0.0
 50
90.0
1001
ACAD
1000
DSTYLE
1002
{
1070
    40
1040
30.0
1070
   176
1070
     2
1070
   177
1070
     2
1070
   178
1070
     2
1070
   341
1005
44D5
1070
     5
1000
OPEN30
1002
}
  0
LINE
  5
4595
  8
KL
 10
19554.649169846569
 20
15299.77981087099
 30
0.0
 11
19554.649169846569
 21
15143.95119052289
 31
0.0
  0
LINE
  5
4596
  8
KL
 10
19563.649169846569
 20
15296.33949516201
 30
0.0
 11
19563.649169846569
 21
15139.093439711871
 31
0.0
  0
LINE
  5
4597
  8
FUTO
 10
19554.649169846569
 20
15429.479391363149
 30
0.0
 11
19554.649169846569
 21
15134.252320156949
 31
0.0
  0
LINE
  5
4598
  8
FUTO
 10
19563.649169846569
 20
15421.41560055539
 30
0.0
 11
19563.649169846569
 21
15134.252320156949
 31
0.0
  0
DIMENSION
  5
45A8
  8
FUTO
  2
*D15
 10
20273.649169846569
 20
21444.93327649538
 30
0.0
 11
19498.649169846569
 21
21504.93327649538
 31
0.0
 70
     0
 13
18723.649169846569
 23
21341.370030952101
 33
0.0
 14
20273.649169846569
 24
19815.497453302502
 34
0.0
 50
180.0
1001
ACAD
1000
DSTYLE
1002
{
1070
    40
1040
30.0
1070
   176
1070
     2
1070
   177
1070
     2
1070
   178
1070
     2
1070
   341
1005
44D5
1070
     5
1000
OPEN30
1002
}
  0
DIMENSION
  5
45B5
  8
FUTO
  2
*D16
 10
17313.343267006701
 20
21060.497453302502
 30
0.0
 11
17253.34326700669
 21
20743.497453302502
 31
0.0
 70
     0
 13
17546.129169267049
 23
20426.497453302502
 33
0.0
 14
17973.649169846569
 24
21060.497453302502
 34
0.0
 50
90.0
1001
ACAD
1000
DSTYLE
1002
{
1070
    40
1040
30.0
1070
   176
1070
     2
1070
   177
1070
     2
1070
   178
1070
     2
1070
   341
1005
44D5
1070
     5
1000
OPEN30
1002
}
  0
DIMENSION
  5
45C2
  8
FUTO
  2
*D17
 10
17313.343267006701
 20
18606.497453302502
 30
0.0
 11
17253.34326700669
 21
19516.497453302502
 31
0.0
 70
     0
 13
17313.343267006701
 23
20426.497453302502
 33
0.0
 14
18343.649169846569
 24
18606.497453302502
 34
0.0
 50
90.0
1001
ACAD
1000
DSTYLE
1002
{
1070
    40
1040
30.0
1070
   176
1070
     2
1070
   177
1070
     2
1070
   178
1070
     2
1070
   341
1005
44D5
1070
     5
1000
OPEN30
1002
}
  0
LINE
  5
466E
  8
CT
 10
17801.040047809671
 20
16781.17382266908
 30
0.0
 11
18723.649169846569
 21
16684.252320156938
 31
0.0
  0
LINE
  5
4670
  8
FUTO
 10
19925.931406365911
 20
16684.252320156938
 30
0.0
 11
19925.931406365911
 21
16814.20047881686
 31
0.0
  0
LINE
  5
4671
  8
FUTO
 10
19975.931406365911
 20
16675.252320156949
 30
0.0
 11
19975.931406365911
 21
16693.252320156949
 31
0.0
  0
LINE
  5
46AB
  8
KL
 10
19554.649169846569
 20
16230.942669765231
 30
0.0
 11
19554.649169846569
 21
15429.479391363149
 31
0.0
  0
LINE
  5
46AC
  8
KL
 10
19563.649169846569
 20
16219.30623432864
 30
0.0
 11
19563.649169846569
 21
15421.41560055539
 31
0.0
  0
LINE
  5
46AD
  8
FUTO
 10
19197.083755919019
 20
16693.252320156949
 30
0.0
 11
19975.931406365911
 21
16693.252320156949
 31
0.0
  0
LINE
  5
46AE
  8
FUTO
 10
19211.005545016949
 20
16675.252320156949
 30
0.0
 11
19975.931406365911
 21
16675.252320156949
 31
0.0
  0
LINE
  5
46AF
  8
KL
 10
18344.886346487128
 20
16714.89091739614
 30
0.0
 11
18523.79542256863
 21
16696.06247252546
 31
0.0
  0
LINE
  5
46B0
  8
KL
 10
18346.76216856391
 20
16732.79290383869
 30
0.0
 11
18525.66396016963
 21
16713.965225588421
 31
0.0
  0
LINE
  5
46CD
  8
FUTO
 10
22195.240583052419
 20
16693.252320156949
 30
0.0
 11
23412.940583052408
 21
16693.252320156949
 31
0.0
  0
LINE
  5
46CE
  8
FUTO
 10
22195.240583052419
 20
16675.252320156949
 30
0.0
 11
23412.940583052408
 21
16675.252320156949
 31
0.0
  0
LINE
  5
470A
  8
FUTO
 10
17793.649169846569
 20
19842.497453302502
 30
0.0
 11
17793.649169846569
 21
21010.497453302502
 31
0.0
  0
LINE
  5
470B
  8
HOSO
 10
17793.649169846569
 20
19842.497453302491
 30
0.0
 11
17793.649169846569
 21
21010.497453302502
 31
0.0
  0
LINE
  5
470C
  8
FUTO
 10
17843.649169846569
 20
19842.497453302502
 30
0.0
 11
17843.649169846569
 21
21010.497453302502
 31
0.0
  0
LINE
  5
470D
  8
FUTO
 10
17797.649169846569
 20
19842.497453302502
 30
0.0
 11
17797.649169846569
 21
21010.497453302502
 31
0.0
  0
LINE
  5
470E
  8
FUTO
 10
19930.649169846569
 20
20964.497453302502
 30
0.0
 11
19930.649169846569
 21
19890.497453302491
 31
0.0
  0
LINE
  5
470F
  8
FUTO
 10
19980.649169846569
 20
21010.497453302502
 30
0.0
 11
19980.649169846569
 21
19842.497453302502
 31
0.0
  0
LINE
  5
4710
  8
FUTO
 10
19980.649169846569
 20
19890.497453302491
 30
0.0
 11
20214.649169846569
 21
19890.497453302491
 31
0.0
  0
DIMENSION
  5
4712
  8
FUTO
  2
*D18
 10
17793.649169846569
 20
21444.93327649538
 30
0.0
 11
18258.649169846569
 21
21504.93327649538
 31
0.0
 70
     0
 13
18723.649169846569
 23
21341.370030952101
 33
0.0
 14
17793.649169846569
 24
21010.497453302502
 34
0.0
 50
180.0
1001
ACAD
1000
DSTYLE
1002
{
1070
    40
1040
30.0
1070
   176
1070
     2
1070
   177
1070
     2
1070
   178
1070
     2
1070
   341
1005
44D5
1070
     5
1000
OPEN30
1002
}
  0
LINE
  5
485C
  8
FUTO
 10
22220.240583052419
 20
15139.252320156949
 30
0.0
 11
23389.24058305244
 21
15139.252320156949
 31
0.0
  0
LINE
  5
485D
  8
FUTO
 10
22270.240583052419
 20
15189.252320156949
 30
0.0
 11
23337.940583052419
 21
15189.252320156949
 31
0.0
  0
LINE
  5
485E
  8
KL
 10
22220.240583052419
 20
15139.252320156949
 30
0.0
 11
22220.2405830524
 21
15680.49254823782
 31
0.0
  0
LINE
  5
485F
  8
KL
 10
23389.24058305244
 20
15139.252320156949
 30
0.0
 11
23389.240583052411
 21
15692.845258680871
 31
0.0
  0
LINE
  5
4872
  8
SL
 10
18920.000513347291
 20
16838.997755971581
 30
0.0
 11
20006.902139490881
 21
15459.86438494235
 31
0.0
  0
LINE
  5
4873
  8
FUTO
 10
19024.234845243041
 20
16916.735118975372
 30
0.0
 11
20097.67245560242
 21
15528.84762473603
 31
0.0
  0
LINE
  5
4874
  8
SL
 10
19852.197881849119
 20
15315.95344760118
 30
0.0
 11
18555.13198117333
 21
16499.585167902769
 31
0.0
  0
LINE
  5
4875
  8
FUTO
 10
18470.07228926985
 20
16401.235066907291
 30
0.0
 11
19776.84150214426
 21
15230.400226170301
 31
0.0
  0
LINE
  5
4876
  8
FUTO
 10
18422.115670243002
 20
16578.252320156938
 30
0.0
 11
18223.649169846569
 21
15134.252320156949
 31
0.0
  0
LINE
  5
4877
  8
KL
 10
19025.18266945014
 20
16578.252320156971
 30
0.0
 11
19130.888515958381
 21
15809.15908753109
 31
0.0
  0
LINE
  5
4878
  8
FUTO
 10
19130.888515958381
 20
15809.15908753109
 30
0.0
 11
19223.64916984666
 21
15134.25232015698
 31
0.0
  0
LINE
  5
4879
  8
FUTO
 10
22195.240583052419
 20
17687.252320156938
 30
0.0
 11
23412.940583052419
 21
17687.252320156938
 31
0.0
  0
DIMENSION
  5
488D
  8
FUTO
  2
*D19
 10
17245.75737079485
 20
16684.252320156938
 30
0.0
 11
17185.75737079484
 21
15834.252320156949
 31
0.0
 70
     0
 13
17873.649169846569
 23
14984.252320156949
 33
0.0
 14
17545.645191199241
 24
16684.252320156938
 34
0.0
 50
90.0
1001
ACAD
1000
DSTYLE
1002
{
1070
    40
1040
30.0
1070
   176
1070
     2
1070
   177
1070
     2
1070
   178
1070
     2
1070
   341
1005
44D5
1070
     5
1000
OPEN30
1002
}
  0
LINE
  5
489A
  8
CT
 10
18616.535567004001
 20
17687.252320156938
 30
0.0
 11
18723.649169846569
 21
17687.252320156938
 31
0.0
  0
DIMENSION
  5
489B
  8
FUTO
  2
*D20
 10
17245.75737079485
 20
17687.252320156938
 30
0.0
 11
17185.75737079484
 21
17185.752320156949
 31
0.0
 70
     0
 13
17545.645191199241
 23
16684.252320156938
 33
0.0
 14
18616.535567004001
 24
17687.252320156938
 34
0.0
 50
90.0
1001
ACAD
1000
DSTYLE
1002
{
1070
    40
1040
30.0
1070
   176
1070
     2
1070
   177
1070
     2
1070
   178
1070
     2
1070
   341
1005
44D5
1070
     5
1000
OPEN30
1002
}
  0
DIMENSION
  5
48A8
  8
FUTO
  2
*D21
 10
17793.649169846569
 20
17988.127814547141
 30
0.0
 11
18258.649169846569
 21
18048.127814547141
 31
0.0
 70
     0
 13
18723.649169846569
 23
17787.282253455
 33
0.0
 14
17793.649169846569
 24
16697.252320156949
 34
0.0
1001
ACAD
1000
DSTYLE
1002
{
1070
    40
1040
30.0
1070
   176
1070
     2
1070
   177
1070
     2
1070
   178
1070
     2
1070
   341
1005
44D5
1070
     5
1000
OPEN30
1002
}
  0
ARC
  5
48C7
  8
FUTO
 10
18621.649169846569
 20
16582.252320156938
 30
0.0
 40
1329.0
 50
330.89787166681361
 51
4.4017473756491317
  0
LINE
  5
48C8
  8
KL
 10
22270.240583052419
 20
15192.45232015695
 30
0.0
 11
23337.940583052419
 21
15192.45232015695
 31
0.0
  0
INSERT
  5
497D
  8
FUTO
  6
CONTINUOUS
  2
*U23
 10
0.0
 20
0.0
 30
0.0
1001
ACAD
1002
{
1000
R14_HATCH_DATA
1000
497D
1011
1.0
1021
5.0906117412778122E+058
1031
0.0
1021
0.0
1031
0.0
1011
0.0
1021
5.0906117412778122E+058
1031
0.0
1021
1.0
1031
0.0
1011
0.0
1021
5.0906117412778122E+058
1031
0.0
1021
0.0
1031
1.0
1040
0.0
1010
0.0
1020
0.0
1030
1.0
1000
SOLID
1070
     1
1070
     0
1071
        2
1071
        7
1070
     0
1070
     1
1071
        4
1040
18076.381019192599
1040
14984.252320156949
1040
18036.381019192599
1040
14984.252320156949
1040
18036.381019192599
1040
14874.252320156949
1040
18076.381019192599
1040
14874.252320156949
1071
        0
1071
        7
1070
     0
1070
     1
1071
        4
1040
18116.381019192599
1040
14984.25232015694
1040
18076.381019192599
1040
14984.252320156949
1040
18076.381019192599
1040
14874.252320156949
1040
18116.381019192599
1040
14874.252320156949
1071
        0
1070
     0
1070
     1
1040
2.765998050841715
1071
        2
1040
18052.691761593909
1040
14925.03550086484
1040
0.0
1040
18094.21185212713
1040
14930.567495246099
1040
0.0
1002
}
  0
INSERT
  5
49E0
  8
FUTO
  6
CONTINUOUS
  2
*U24
 10
0.0
 20
0.0
 30
0.0
1001
ACAD
1002
{
1000
R14_HATCH_DATA
1000
49E0
1011
1.0
1021
5.0906117412778122E+058
1031
0.0
1021
0.0
1031
0.0
1011
0.0
1021
5.0906117412778122E+058
1031
0.0
1021
1.0
1031
0.0
1011
0.0
1021
5.0906117412778122E+058
1031
0.0
1021
0.0
1031
1.0
1040
0.0
1010
0.0
1020
0.0
1030
1.0
1000
SOLID
1070
     1
1070
     0
1071
        4
1071
        7
1070
     0
1070
     1
1071
        5
1040
21251.740583052419
1040
14984.252320156949
1040
21216.740583052419
1040
14984.252320156949
1040
21211.740583052419
1040
14984.252320156949
1040
21211.740583052419
1040
14874.252320156949
1040
21251.740583052419
1040
14874.252320156949
1071
        0
1071
        7
1070
     0
1070
     1
1071
        4
1040
21291.740583052419
1040
14984.252320156949
1040
21251.740583052419
1040
14984.252320156949
1040
21251.740583052419
1040
14874.252320156949
1040
21291.740583052419
1040
14874.252320156949
1071
        0
1071
        7
1070
     0
1070
     1
1071
        4
1040
23381.740583052419
1040
14984.252320156949
1040
23341.740583052419
1040
14984.25232015694
1040
23341.740583052419
1040
14874.252320156949
1040
23381.740583052419
1040
14874.252320156949
1071
        0
1071
        7
1070
     0
1070
     1
1071
        5
1040
23419.740583052419
1040
14984.252320156949
1040
23381.740583052419
1040
14984.252320156949
1040
23381.740583052419
1040
14874.252320156949
1040
23416.740583052419
1040
14874.252320156949
1040
23419.740583052419
1040
14874.252320156949
1071
        0
1070
     0
1070
     1
1040
2.8301251941677621
1071
        4
1040
21222.516397568939
1040
14931.11125354288
1040
0.0
1040
21267.831283111602
1040
14933.94137908113
1040
0.0
1040
23360.81258000802
1040
14916.960625851631
1040
0.0
1040
23391.966556853669
1040
14919.790751389881
1040
0.0
1002
}
  0
TEXT
  5
50F5
  8
SP
 10
15500.178743719131
 20
9336.4583178471767
 30
0.0
 40
100.0
  1
 
  0
TEXT
  5
53B0
  8
SP
 10
25057.13017372258
 20
16765.055989942011
 30
0.0
 40
100.0
  1
 
  0
LINE
  5
53B1
  8
4
 10
24158.380604749411
 20
13164.00276265347
 30
0.0
 11
24158.380604749411
 21
12164.00276265347
 31
0.0
  0
LINE
  5
53B2
  8
4
 10
20658.380604749411
 20
13164.00276265347
 30
0.0
 11
20658.380604749422
 21
12164.00276265347
 31
0.0
  0
LINE
  5
53B3
  8
4
 10
18158.380604749411
 20
13164.00276265347
 30
0.0
 11
18158.380604749422
 21
12164.00276265347
 31
0.0
  0
LINE
  5
53B6
  8
4
 10
18158.380604749411
 20
12164.00276265347
 30
0.0
 11
24158.380604749411
 21
12164.00276265347
 31
0.0
  0
LINE
  5
53B7
  8
4
 10
18158.380604749411
 20
12664.00276265347
 30
0.0
 11
24158.380604749411
 21
12664.00276265347
 31
0.0
  0
TEXT
  5
53B8
  8
4
 10
18350.89100898393
 20
12821.71789198654
 30
0.0
 40
250.0
  1
機器名称
  0
TEXT
  5
53B9
  8
4
 10
18339.67113487341
 20
12272.22854631353
 30
0.0
 40
250.0
  1
機器型番
  0
TEXT
  5
53BA
  8
4
 10
20682.34591325463
 20
12774.939274438209
 30
0.0
 40
225.0
  1
ミツヤリミットロードファン
  0
TEXT
  5
53BB
  8
4
 10
20841.653082676828
 20
12249.800684053191
 30
0.0
 40
250.0
  1
LL#9-1
  0
TEXT
  5
53BD
  8
4
 10
18783.542346718299
 20
22581.146969316051
 30
0.0
 40
270.0
  1
床置防振ベット
  0
TEXT
  5
53BE
  8
4
 10
16489.21857139665
 20
23333.40764364996
 30
0.0
 40
360.0
  1
遠心式片吸込片持リミットロードファン
  0
LINE
  5
53BF
  8
4
 10
16158.380604749411
 20
23011.0465339775
 30
0.0
 11
24158.380604749411
 21
23011.0465339775
 31
0.0
  0
LINE
  5
53C0
  8
4
 10
16158.380604749411
 20
24011.0465339775
 30
0.0
 11
24158.380604749411
 21
24011.0465339775
 31
0.0
  0
LINE
  5
53C1
  8
4
 10
18158.380604749411
 20
13164.00276265347
 30
0.0
 11
24158.380604749411
 21
13164.00276265347
 31
0.0
  0
LINE
  5
53C2
  8
4
 10
16158.380604749411
 20
24011.0465339775
 30
0.0
 11
16158.380604749411
 21
23011.0465339775
 31
0.0
  0
TEXT
  5
53C3
  8
4
 10
16604.248185504781
 20
22575.600150385191
 30
0.0
 40
270.0
  1
右回転左横向
  0
TEXT
  5
53C4
  8
4
 10
22253.228400995871
 20
24194.308170130022
 30
0.0
 40
280.0
  1
No.
  0
TEXT
  5
53C5
  8
4
 10
22320.159828006192
 20
22084.882126305849
 30
0.0
 40
270.0
  1
縮尺：1/50
  0
LINE
  5
53C6
  8
4
 10
24158.380604749411
 20
24011.0465339775
 30
0.0
 11
24158.380604749411
 21
23011.0465339775
 31
0.0
  0
LINE
  5
53C7
  8
4
 10
25408.380604749411
 20
25414.002762653479
 30
0.0
 11
25408.380604749411
 21
25414.002762653479
 31
0.0
  0
LINE
  5
53C8
  8
4
 10
22111.467716548741
 20
24070.320678280481
 30
0.0
 11
22111.467716548741
 21
24597.264070402241
 31
0.0
  0
LINE
  5
53C9
  8
4
 10
22111.467716548741
 20
24597.264070402241
 30
0.0
 11
24158.380604749411
 21
24597.264070402241
 31
0.0
  0
LINE
  5
53CA
  8
4
 10
24158.380604749411
 20
24597.264070402241
 30
0.0
 11
24158.380604749411
 21
24070.320678280481
 31
0.0
  0
LINE
  5
53CB
  8
4
 10
24158.380604749411
 20
24070.320678280481
 30
0.0
 11
22111.467716548741
 21
24070.320678280481
 31
0.0
  0
LINE
  5
53CC
  8
4
 10
14908.380604749411
 20
10664.00276265347
 30
0.0
 11
14908.380604749411
 21
25414.002762653479
 31
0.0
  0
LINE
  5
53CD
  8
4
 10
14908.380604749411
 20
25414.002762653479
 30
0.0
 11
25408.380604749411
 21
25414.002762653479
 31
0.0
  0
LINE
  5
53CE
  8
4
 10
25408.380604749411
 20
25414.002762653479
 30
0.0
 11
25408.380604749411
 21
10664.00276265347
 31
0.0
  0
LINE
  5
53CF
  8
4
 10
25408.380604749411
 20
10664.00276265347
 30
0.0
 11
14908.380604749411
 21
10664.00276265347
 31
0.0
  0
ENDSEC
  0
EOF
