  0
SECTION
  2
HEADER
  9
$ACADVER
  1
AC1009
  9
$INSBASE
 10
0.0
 20
0.0
 30
0.0
  9
$EXTMIN
 10
8810.5343257797867
 20
7994.3006510591331
 30
0.0
  9
$EXTMAX
 10
19310.534325779779
 20
22744.300651059129
 30
0.0
  9
$LIMMIN
 10
0.0
 20
0.0
  9
$LIMMAX
 10
420.0
 20
297.0
  9
$ORTHOMODE
 70
     0
  9
$REGENMODE
 70
     1
  9
$FILLMODE
 70
     1
  9
$QTEXTMODE
 70
     0
  9
$MIRRTEXT
 70
     0
  9
$DRAGMODE
 70
     2
  9
$LTSCALE
 40
150.0
  9
$OSMODE
 70
    37
  9
$ATTMODE
 70
     1
  9
$TEXTSIZE
 40
90.0
  9
$TRACEWID
 40
0.05
  9
$TEXTSTYLE
  7
STANDARD
  9
$CLAYER
  8
FUTO
  9
$CELTYPE
  6
BYLAYER
  9
$CECOLOR
 62
   256
  9
$DIMSCALE
 40
30.0
  9
$DIMASZ
 40
2.0
  9
$DIMEXO
 40
1.0
  9
$DIMDLI
 40
10.0
  9
$DIMRND
 40
0.0
  9
$DIMDLE
 40
0.0
  9
$DIMEXE
 40
1.0
  9
$DIMTP
 40
0.0
  9
$DIMTM
 40
0.0
  9
$DIMTXT
 40
3.0
  9
$DIMCEN
 40
0.0
  9
$DIMTSZ
 40
0.0
  9
$DIMTOL
 70
     0
  9
$DIMLIM
 70
     0
  9
$DIMTIH
 70
     0
  9
$DIMTOH
 70
     0
  9
$DIMSE1
 70
     0
  9
$DIMSE2
 70
     0
  9
$DIMTAD
 70
     1
  9
$DIMZIN
 70
     8
  9
$DIMBLK
  1
OPEN30
  9
$DIMASO
 70
     1
  9
$DIMSHO
 70
     1
  9
$DIMPOST
  1

  9
$DIMAPOST
  1

  9
$DIMALT
 70
     0
  9
$DIMALTD
 70
     2
  9
$DIMALTF
 40
0.03937
  9
$DIMLFAC
 40
1.0
  9
$DIMTOFL
 70
     1
  9
$DIMTVP
 40
0.0
  9
$DIMTIX
 70
     0
  9
$DIMSOXD
 70
     0
  9
$DIMSAH
 70
     0
  9
$DIMBLK1
  1

  9
$DIMBLK2
  1

  9
$DIMSTYLE
  2
MATSU
  9
$DIMCLRD
 70
     2
  9
$DIMCLRE
 70
     2
  9
$DIMCLRT
 70
     2
  9
$DIMTFAC
 40
1.0
  9
$DIMGAP
 40
0.5
  9
$LUNITS
 70
     2
  9
$LUPREC
 70
     1
  9
$SKETCHINC
 40
0.1
  9
$FILLETRAD
 40
0.0
  9
$AUNITS
 70
     0
  9
$AUPREC
 70
     0
  9
$MENU
  1
SSMENU
  9
$ELEVATION
 40
0.0
  9
$PELEVATION
 40
0.0
  9
$THICKNESS
 40
0.0
  9
$LIMCHECK
 70
     0
  9
$BLIPMODE
 70
     0
  9
$CHAMFERA
 40
20.0
  9
$CHAMFERB
 40
20.0
  9
$SKPOLY
 70
     0
  9
$TDCREATE
 40
2450714.9573032409
  9
$TDUPDATE
 40
2454953.648966284
  9
$TDINDWG
 40
1.385760463
  9
$TDUSRTIMER
 40
1.385760463
  9
$USRTIMER
 70
     1
  9
$ANGBASE
 50
0.0
  9
$ANGDIR
 70
     0
  9
$PDMODE
 70
     0
  9
$PDSIZE
 40
1.0
  9
$PLINEWID
 40
0.0
  9
$COORDS
 70
     1
  9
$SPLFRAME
 70
     0
  9
$SPLINETYPE
 70
     6
  9
$SPLINESEGS
 70
     8
  9
$ATTDIA
 70
     0
  9
$ATTREQ
 70
     1
  9
$HANDLING
 70
 10241
  9
$HANDSEED
  5
5653
  9
$SURFTAB1
 70
     6
  9
$SURFTAB2
 70
     6
  9
$SURFTYPE
 70
     6
  9
$SURFU
 70
     6
  9
$SURFV
 70
     6
  9
$UCSNAME
  2

  9
$UCSORG
 10
0.0
 20
0.0
 30
0.0
  9
$UCSXDIR
 10
1.0
 20
0.0
 30
0.0
  9
$UCSYDIR
 10
0.0
 20
1.0
 30
0.0
  9
$PUCSNAME
  2

  9
$PUCSORG
 10
0.0
 20
0.0
 30
0.0
  9
$PUCSXDIR
 10
1.0
 20
0.0
 30
0.0
  9
$PUCSYDIR
 10
0.0
 20
1.0
 30
0.0
  9
$USERI1
 70
     0
  9
$USERI2
 70
     0
  9
$USERI3
 70
     0
  9
$USERI4
 70
     0
  9
$USERI5
 70
     0
  9
$USERR1
 40
0.0
  9
$USERR2
 40
0.0
  9
$USERR3
 40
0.0
  9
$USERR4
 40
0.0
  9
$USERR5
 40
0.0
  9
$WORLDVIEW
 70
     1
  9
$SHADEDGE
 70
     3
  9
$SHADEDIF
 70
    70
  9
$TILEMODE
 70
     1
  9
$MAXACTVP
 70
    16
  9
$PLIMCHECK
 70
     0
  9
$PEXTMIN
 10
0.0
 20
0.0
 30
0.0
  9
$PEXTMAX
 10
12.561051004636781
 20
9.0
 30
0.0
  9
$PLIMMIN
 10
0.0
 20
0.0
  9
$PLIMMAX
 10
12.0
 20
9.0
  9
$UNITMODE
 70
     0
  9
$VISRETAIN
 70
     0
  9
$PLINEGEN
 70
     0
  9
$PSLTSCALE
 70
     0
  0
ENDSEC
  0
SECTION
  2
TABLES
  0
TABLE
  2
VPORT
 70
     2
  0
VPORT
  2
*ACTIVE
 70
     0
 10
0.0
 20
0.0
 11
1.0
 21
1.0
 12
18871.481068706798
 22
9664.5179347389894
 13
0.0
 23
0.0
 14
5.0
 24
5.0
 15
0.0
 25
0.0
 16
0.0
 26
0.0
 36
1.0
 17
0.0
 27
0.0
 37
0.0
 40
4867.8348800007261
 41
3.1666666666666661
 42
50.0
 43
0.0
 44
0.0
 50
0.0
 51
0.0
 71
     0
 72
   500
 73
     1
 74
     0
 75
     0
 76
     0
 77
     0
 78
     0
  0
ENDTAB
  0
TABLE
  2
LTYPE
 70
     4
  0
LTYPE
  2
CONTINUOUS
 70
     0
  3
実線
 72
    65
 73
     0
 40
0.0
  0
LTYPE
  2
CENTER
 70
     0
  3
____ _ ____ _ ____ _ ____ _ ____ _ ____ _ ____ 
 72
    65
 73
     4
 40
2.0
 49
1.25
 49
-0.25
 49
0.25
 49
-0.25
  0
LTYPE
  2
HIDDEN
 70
     0
  3
__ __ __ __ __ __ __ __ __ __ __ __ __ __ __ __
 72
    65
 73
     2
 40
0.375
 49
0.25
 49
-0.125
  0
LTYPE
  2
PHANTOM
 70
     0
  3
______  __  __  ______  __  __  ______  __  __ 
 72
    65
 73
     6
 40
2.5
 49
1.25
 49
-0.25
 49
0.25
 49
-0.25
 49
0.25
 49
-0.25
  0
ENDTAB
  0
TABLE
  2
LAYER
 70
     9
  0
LAYER
  2
0
 70
     0
 62
     7
  6
CONTINUOUS
  0
LAYER
  2
FUTO
 70
     0
 62
     4
  6
CONTINUOUS
  0
LAYER
  2
CT
 70
     0
 62
     3
  6
CENTER
  0
LAYER
  2
HOSO
 70
     0
 62
     7
  6
CONTINUOUS
  0
LAYER
  2
KL
 70
     0
 62
     7
  6
HIDDEN
  0
LAYER
  2
SL
 70
     0
 62
     1
  6
PHANTOM
  0
LAYER
  2
SP
 70
     0
 62
     2
  6
CONTINUOUS
  0
LAYER
  2
DEFPOINTS
 70
     0
 62
     7
  6
CONTINUOUS
  0
LAYER
  2
4
 70
     0
 62
     7
  6
CONTINUOUS
  0
ENDTAB
  0
TABLE
  2
STYLE
 70
     2
  0
STYLE
  2
STANDARD
 70
     0
 40
0.0
 41
1.0
 50
15.0
 71
     0
 42
90.0
  3
SIMPLEX
  4
EXTFONT
  0
STYLE
  2
SUNPOU
 70
     0
 40
0.0
 41
1.0
 50
15.0
 71
     0
 42
5.0
  3
simplex.shx
  4
extfont.shx
  0
ENDTAB
  0
TABLE
  2
VIEW
 70
     0
  0
ENDTAB
  0
TABLE
  2
UCS
 70
     0
  0
ENDTAB
  0
TABLE
  2
APPID
 70
     1
  0
APPID
  2
ACAD
 70
     0
  0
ENDTAB
  0
TABLE
  2
DIMSTYLE
 70
     1
  0
DIMSTYLE
  2
MATSU
 70
     0
  3

  4

  5
CLOSED
  6

  7

 40
10.0
 41
2.0
 42
1.0
 43
10.0
 44
1.0
 45
0.0
 46
0.0
 47
0.0
 48
0.0
140
3.0
141
0.0
142
0.0
143
0.03937
144
1.0
145
0.0
146
1.0
147
0.5
 71
     0
 72
     0
 73
     0
 74
     0
 75
     0
 76
     0
 77
     1
 78
     8
170
     0
171
     2
172
     1
173
     0
174
     0
175
     0
176
   256
177
   256
178
   256
  0
ENDTAB
  0
ENDSEC
  0
SECTION
  2
BLOCKS
  0
BLOCK
  8
0
  2
$MODEL_SPACE
 70
     0
 10
0.0
 20
0.0
 30
0.0
  3
$MODEL_SPACE
  1

  0
ENDBLK
  5
7
  8
0
  0
BLOCK
 67
     1
  8
0
  2
$PAPER_SPACE
 70
     0
 10
0.0
 20
0.0
 30
0.0
  3
$PAPER_SPACE
  1

  0
ENDBLK
  5
A
 67
     1
  8
0
  0
BLOCK
  8
0
  2
*D0
 70
     1
 10
0.0
 20
0.0
 30
0.0
  3
*D0
  1

  0
LINE
  5
5441
  8
FUTO
 62
     2
 10
11241.012428341581
 20
13952.37832689079
 30
0.0
 11
10941.12460793719
 21
13952.37832689079
 31
0.0
  0
LINE
  5
5442
  8
FUTO
 62
     2
 10
11569.016406988911
 20
12712.378326890799
 30
0.0
 11
10941.12460793719
 21
12712.378326890799
 31
0.0
  0
LINE
  5
5443
  8
FUTO
 62
     2
 10
10971.12460793719
 20
13892.37832689079
 30
0.0
 11
10971.12460793719
 21
12772.37832689079
 31
0.0
  0
INSERT
  5
5444
  8
FUTO
 62
     2
  2
_OPEN30
 10
10971.12460793719
 20
13952.37832689079
 30
0.0
 41
60.0
 42
60.0
 43
60.0
 50
90.0
  0
INSERT
  5
5445
  8
FUTO
 62
     2
  2
_OPEN30
 10
10971.12460793719
 20
12712.378326890799
 30
0.0
 41
60.0
 42
60.0
 43
60.0
 50
270.0
  0
TEXT
  5
5446
  8
FUTO
 62
     2
 10
10956.124607937179
 20
13164.999171442239
 30
0.0
 40
90.0
  1
1240
 50
90.0
 51
15.0
  7
SUNPOU
  0
POINT
  5
5447
  8
DEFPOINTS
 62
     0
 10
11271.012428341581
 20
13952.37832689079
 30
0.0
  0
POINT
  5
5448
  8
DEFPOINTS
 62
     0
 10
11599.016406988911
 20
12712.378326890799
 30
0.0
  0
POINT
  5
5449
  8
DEFPOINTS
 62
     0
 10
10971.12460793719
 20
12712.378326890799
 30
0.0
  0
ENDBLK
  5
2BCE
  8
0
  0
BLOCK
  8
0
  2
*D1
 70
     1
 10
0.0
 20
0.0
 30
0.0
  3
*D1
  1

  0
LINE
  5
544A
  8
FUTO
 62
     2
 10
12449.016406988911
 20
12390.296175847039
 30
0.0
 11
12449.016406988911
 21
12178.07846692577
 31
0.0
  0
LINE
  5
544B
  8
FUTO
 62
     2
 10
13999.016406988911
 20
12342.37832689079
 30
0.0
 11
13999.016406988911
 21
12178.07846692577
 31
0.0
  0
LINE
  5
544C
  8
FUTO
 62
     2
 10
12509.016406988911
 20
12208.07846692577
 30
0.0
 11
13939.016406988911
 21
12208.07846692577
 31
0.0
  0
INSERT
  5
544D
  8
FUTO
 62
     2
  2
_OPEN30
 10
12449.016406988911
 20
12208.07846692577
 30
0.0
 41
60.0
 42
60.0
 43
60.0
 50
180.0
  0
INSERT
  5
544E
  8
FUTO
 62
     2
  2
_OPEN30
 10
13999.016406988911
 20
12208.07846692577
 30
0.0
 41
60.0
 42
60.0
 43
60.0
  0
TEXT
  5
544F
  8
FUTO
 62
     2
 10
13056.63725154036
 20
12223.07846692577
 30
0.0
 40
90.0
  1
1550
 51
15.0
  7
SUNPOU
  0
POINT
  5
5450
  8
DEFPOINTS
 62
     0
 10
12449.016406988911
 20
12420.296175847039
 30
0.0
  0
POINT
  5
5451
  8
DEFPOINTS
 62
     0
 10
13999.016406988911
 20
12372.378326890799
 30
0.0
  0
POINT
  5
5452
  8
DEFPOINTS
 62
     0
 10
13999.016406988911
 20
12208.07846692577
 30
0.0
  0
ENDBLK
  5
3643
  8
0
  0
BLOCK
  8
0
  2
*D2
 70
     1
 10
0.0
 20
0.0
 30
0.0
  3
*D2
  1

  0
LINE
  5
5453
  8
FUTO
 62
     2
 10
13999.016406988911
 20
12417.378326890799
 30
0.0
 11
13999.016406988911
 21
11995.161149941679
 31
0.0
  0
LINE
  5
5454
  8
FUTO
 62
     2
 10
11599.016406988911
 20
12417.378326890799
 30
0.0
 11
11599.016406988911
 21
11995.161149941679
 31
0.0
  0
LINE
  5
5455
  8
FUTO
 62
     2
 10
13939.016406988911
 20
12025.161149941679
 30
0.0
 11
11659.016406988911
 21
12025.161149941679
 31
0.0
  0
INSERT
  5
5456
  8
FUTO
 62
     2
  2
_OPEN30
 10
13999.016406988911
 20
12025.161149941679
 30
0.0
 41
60.0
 42
60.0
 43
60.0
  0
INSERT
  5
5457
  8
FUTO
 62
     2
  2
_OPEN30
 10
11599.016406988911
 20
12025.161149941679
 30
0.0
 41
60.0
 42
60.0
 43
60.0
 50
180.0
  0
TEXT
  5
5458
  8
FUTO
 62
     2
 10
12632.82682926463
 20
12040.161149941679
 30
0.0
 40
90.0
  1
2400
 51
15.0
  7
SUNPOU
  0
POINT
  5
5459
  8
DEFPOINTS
 62
     0
 10
13999.016406988911
 20
12447.37832689079
 30
0.0
  0
POINT
  5
545A
  8
DEFPOINTS
 62
     0
 10
11599.016406988911
 20
12447.37832689079
 30
0.0
  0
POINT
  5
545B
  8
DEFPOINTS
 62
     0
 10
11599.016406988911
 20
12025.161149941679
 30
0.0
  0
ENDBLK
  5
3638
  8
0
  0
BLOCK
  8
0
  2
*D3
 70
     1
 10
0.0
 20
0.0
 30
0.0
  3
*D3
  1

  0
LINE
  5
545C
  8
FUTO
 62
     2
 10
12449.016406988911
 20
12390.296175847039
 30
0.0
 11
12449.016406988911
 21
12178.07846692577
 31
0.0
  0
LINE
  5
545D
  8
FUTO
 62
     2
 10
11599.016406988911
 20
12342.37832689079
 30
0.0
 11
11599.016406988911
 21
12178.07846692577
 31
0.0
  0
LINE
  5
545E
  8
FUTO
 62
     2
 10
12389.016406988911
 20
12208.07846692577
 30
0.0
 11
11659.016406988911
 21
12208.07846692577
 31
0.0
  0
INSERT
  5
545F
  8
FUTO
 62
     2
  2
_OPEN30
 10
12449.016406988911
 20
12208.07846692577
 30
0.0
 41
60.0
 42
60.0
 43
60.0
  0
INSERT
  5
5460
  8
FUTO
 62
     2
  2
_OPEN30
 10
11599.016406988911
 20
12208.07846692577
 30
0.0
 41
60.0
 42
60.0
 43
60.0
 50
180.0
  0
TEXT
  5
5461
  8
FUTO
 62
     2
 10
11898.387264758079
 20
12223.07846692577
 30
0.0
 40
90.0
  1
850
 51
15.0
  7
SUNPOU
  0
POINT
  5
5462
  8
DEFPOINTS
 62
     0
 10
12449.016406988911
 20
12420.296175847039
 30
0.0
  0
POINT
  5
5463
  8
DEFPOINTS
 62
     0
 10
11599.016406988911
 20
12372.378326890799
 30
0.0
  0
POINT
  5
5464
  8
DEFPOINTS
 62
     0
 10
11599.016406988911
 20
12208.07846692577
 30
0.0
  0
ENDBLK
  5
3667
  8
0
  0
BLOCK
  8
0
  2
*D4
 70
     1
 10
0.0
 20
0.0
 30
0.0
  3
*D4
  1

  0
LINE
  5
548F
  8
FUTO
 62
     2
 10
11241.012428341581
 20
13952.37832689079
 30
0.0
 11
10941.12460793719
 21
13952.37832689079
 31
0.0
  0
LINE
  5
5490
  8
FUTO
 62
     2
 10
12427.03420695014
 20
14882.37832689079
 30
0.0
 11
10941.12460793719
 21
14882.37832689079
 31
0.0
  0
LINE
  5
5491
  8
FUTO
 62
     2
 10
10971.12460793719
 20
14012.37832689079
 30
0.0
 11
10971.12460793719
 21
14822.37832689079
 31
0.0
  0
INSERT
  5
5492
  8
FUTO
 62
     2
  2
_OPEN30
 10
10971.12460793719
 20
13952.37832689079
 30
0.0
 41
60.0
 42
60.0
 43
60.0
 50
270.0
  0
INSERT
  5
5493
  8
FUTO
 62
     2
  2
_OPEN30
 10
10971.12460793719
 20
14882.37832689079
 30
0.0
 41
60.0
 42
60.0
 43
60.0
 50
90.0
  0
TEXT
  5
5494
  8
FUTO
 62
     2
 10
10956.124607937179
 20
14290.18050435803
 30
0.0
 40
90.0
  1
930
 50
90.0
 51
15.0
  7
SUNPOU
  0
POINT
  5
5495
  8
DEFPOINTS
 62
     0
 10
11271.012428341581
 20
13952.37832689079
 30
0.0
  0
POINT
  5
5496
  8
DEFPOINTS
 62
     0
 10
12457.03420695014
 20
14882.37832689079
 30
0.0
  0
POINT
  5
5497
  8
DEFPOINTS
 62
     0
 10
10971.12460793719
 20
14882.37832689079
 30
0.0
  0
ENDBLK
  5
2BF1
  8
0
  0
BLOCK
  8
0
  2
*D5
 70
     1
 10
0.0
 20
0.0
 30
0.0
  3
*D5
  1

  0
LINE
  5
5498
  8
FUTO
 62
     2
 10
15031.275393912199
 20
12417.378326890799
 30
0.0
 11
15031.275393912199
 21
11999.34440464884
 31
0.0
  0
LINE
  5
5499
  8
FUTO
 62
     2
 10
17231.275393912201
 20
12417.378326890799
 30
0.0
 11
17231.275393912201
 21
11999.34440464884
 31
0.0
  0
LINE
  5
549A
  8
FUTO
 62
     2
 10
15091.275393912199
 20
12029.34440464884
 30
0.0
 11
17171.275393912201
 21
12029.34440464884
 31
0.0
  0
INSERT
  5
549B
  8
FUTO
 62
     2
  2
_OPEN30
 10
15031.275393912199
 20
12029.34440464884
 30
0.0
 41
60.0
 42
60.0
 43
60.0
 50
180.0
  0
INSERT
  5
549C
  8
FUTO
 62
     2
  2
_OPEN30
 10
17231.275393912201
 20
12029.34440464884
 30
0.0
 41
60.0
 42
60.0
 43
60.0
  0
TEXT
  5
549D
  8
FUTO
 62
     2
 10
15965.08581618792
 20
12044.34440464884
 30
0.0
 40
90.0
  1
2200
 51
15.0
  7
SUNPOU
  0
POINT
  5
549E
  8
DEFPOINTS
 62
     0
 10
15031.275393912199
 20
12447.37832689079
 30
0.0
  0
POINT
  5
549F
  8
DEFPOINTS
 62
     0
 10
17231.275393912201
 20
12447.37832689079
 30
0.0
  0
POINT
  5
54A0
  8
DEFPOINTS
 62
     0
 10
17231.275393912201
 20
12029.34440464884
 30
0.0
  0
ENDBLK
  5
34E6
  8
0
  0
BLOCK
  8
0
  2
*D6
 70
     1
 10
0.0
 20
0.0
 30
0.0
  3
*D6
  1

  0
LINE
  5
54A1
  8
FUTO
 62
     2
 10
16619.275393912201
 20
12417.378326890799
 30
0.0
 11
16619.275393912201
 21
12180.674845906429
 31
0.0
  0
LINE
  5
54A2
  8
FUTO
 62
     2
 10
17231.275393912201
 20
12417.378326890799
 30
0.0
 11
17231.275393912201
 21
12180.674845906429
 31
0.0
  0
LINE
  5
54A3
  8
FUTO
 62
     2
 10
16679.275393912201
 20
12210.674845906429
 30
0.0
 11
17171.275393912201
 21
12210.674845906429
 31
0.0
  0
INSERT
  5
54A4
  8
FUTO
 62
     2
  2
_OPEN30
 10
16619.275393912201
 20
12210.674845906429
 30
0.0
 41
60.0
 42
60.0
 43
60.0
 50
180.0
  0
INSERT
  5
54A5
  8
FUTO
 62
     2
  2
_OPEN30
 10
17231.275393912201
 20
12210.674845906429
 30
0.0
 41
60.0
 42
60.0
 43
60.0
  0
TEXT
  5
54A6
  8
FUTO
 62
     2
 10
16806.64899995087
 20
12225.674845906429
 30
0.0
 40
90.0
  1
612
 51
15.0
  7
SUNPOU
  0
POINT
  5
54A7
  8
DEFPOINTS
 62
     0
 10
16619.275393912201
 20
12447.378326890799
 30
0.0
  0
POINT
  5
54A8
  8
DEFPOINTS
 62
     0
 10
17231.275393912201
 20
12447.378326890799
 30
0.0
  0
POINT
  5
54A9
  8
DEFPOINTS
 62
     0
 10
17231.275393912201
 20
12210.674845906429
 30
0.0
  0
ENDBLK
  5
393A
  8
0
  0
BLOCK
  8
0
  2
*D7
 70
     1
 10
0.0
 20
0.0
 30
0.0
  3
*D7
  1

  0
LINE
  5
54AA
  8
FUTO
 62
     2
 10
16619.275393912201
 20
12417.378326890799
 30
0.0
 11
16619.275393912201
 21
12180.680086829019
 31
0.0
  0
LINE
  5
54AB
  8
FUTO
 62
     2
 10
15031.275393912199
 20
12417.378326890799
 30
0.0
 11
15031.275393912199
 21
12180.680086829019
 31
0.0
  0
LINE
  5
54AC
  8
FUTO
 62
     2
 10
16559.275393912201
 20
12210.68008682903
 30
0.0
 11
15091.275393912199
 21
12210.68008682903
 31
0.0
  0
INSERT
  5
54AD
  8
FUTO
 62
     2
  2
_OPEN30
 10
16619.275393912201
 20
12210.68008682903
 30
0.0
 41
60.0
 42
60.0
 43
60.0
  0
INSERT
  5
54AE
  8
FUTO
 62
     2
  2
_OPEN30
 10
15031.275393912199
 20
12210.68008682903
 30
0.0
 41
60.0
 42
60.0
 43
60.0
 50
180.0
  0
TEXT
  5
54AF
  8
FUTO
 62
     2
 10
15657.322061622721
 20
12225.68008682903
 30
0.0
 40
90.0
  1
1588
 51
15.0
  7
SUNPOU
  0
POINT
  5
54B0
  8
DEFPOINTS
 62
     0
 10
16619.275393912201
 20
12447.378326890799
 30
0.0
  0
POINT
  5
54B1
  8
DEFPOINTS
 62
     0
 10
15031.275393912199
 20
12447.37832689079
 30
0.0
  0
POINT
  5
54B2
  8
DEFPOINTS
 62
     0
 10
15031.275393912199
 20
12210.68008682903
 30
0.0
  0
ENDBLK
  5
3947
  8
0
  0
BLOCK
  8
0
  2
_CLOSED
 70
     0
 10
0.0
 20
0.0
 30
0.0
  3
_CLOSED
  1

  0
LINE
  5
3BE3
  8
0
  6
BYBLOCK
 62
     0
 10
-1.0
 20
0.1666666666666666
 30
0.0
 11
0.0
 21
0.0
 31
0.0
  0
LINE
  5
3BE4
  8
0
  6
BYBLOCK
 62
     0
 10
0.0
 20
0.0
 30
0.0
 11
-1.0
 21
-0.1666666666666666
 31
0.0
  0
LINE
  5
3BE5
  8
0
  6
BYBLOCK
 62
     0
 10
-1.0
 20
0.1666666666666666
 30
0.0
 11
-1.0
 21
-0.1666666666666666
 31
0.0
  0
ENDBLK
  5
3BE6
  8
0
  0
BLOCK
  8
0
  2
*D9
 70
     1
 10
0.0
 20
0.0
 30
0.0
  3
*D9
  1

  0
LINE
  5
54B6
  8
SP
 62
     2
 10
14799.275393912199
 20
14362.37832689079
 30
0.0
 11
14799.275393912199
 21
15387.36188533711
 31
0.0
  0
LINE
  5
54B7
  8
SP
 62
     2
 10
16619.275393912201
 20
15262.97479099645
 30
0.0
 11
16619.275393912201
 21
15387.36188533711
 31
0.0
  0
LINE
  5
54B8
  8
SP
 62
     2
 10
14859.275393912199
 20
15357.36188533711
 30
0.0
 11
16559.275393912201
 21
15357.36188533711
 31
0.0
  0
INSERT
  5
54B9
  8
SP
 62
     2
  2
_OPEN30
 10
14799.275393912199
 20
15357.36188533711
 30
0.0
 41
60.0
 42
60.0
 43
60.0
 50
180.0
  0
INSERT
  5
54BA
  8
SP
 62
     2
  2
_OPEN30
 10
16619.275393912201
 20
15357.36188533711
 30
0.0
 41
60.0
 42
60.0
 43
60.0
  0
TEXT
  5
54BB
  8
FUTO
 62
     2
 10
15541.89623846364
 20
15372.36188533711
 30
0.0
 40
90.0
  1
1820
 51
15.0
  7
SUNPOU
  0
POINT
  5
54BC
  8
DEFPOINTS
 62
     0
 10
14799.275393912199
 20
14332.378326890799
 30
0.0
  0
POINT
  5
54BD
  8
DEFPOINTS
 62
     0
 10
16619.275393912201
 20
15232.97479099645
 30
0.0
  0
POINT
  5
54BE
  8
DEFPOINTS
 62
     0
 10
16619.275393912201
 20
15357.36188533711
 30
0.0
  0
ENDBLK
  5
3C57
  8
0
  0
BLOCK
  8
0
  2
*D10
 70
     1
 10
0.0
 20
0.0
 30
0.0
  3
*D10
  1

  0
LINE
  5
54C6
  8
FUTO
 62
     2
 10
13994.016406988911
 20
14912.37832689079
 30
0.0
 11
13994.016406988911
 21
15246.208710440031
 31
0.0
  0
LINE
  5
54C7
  8
FUTO
 62
     2
 10
12449.016406988911
 20
14983.93972121076
 30
0.0
 11
12449.016406988911
 21
15246.208710440031
 31
0.0
  0
LINE
  5
54C8
  8
FUTO
 62
     2
 10
13934.016406988911
 20
15216.208710440031
 30
0.0
 11
12509.016406988911
 21
15216.208710440031
 31
0.0
  0
INSERT
  5
54C9
  8
FUTO
 62
     2
  2
_OPEN30
 10
13994.016406988911
 20
15216.208710440031
 30
0.0
 41
60.0
 42
60.0
 43
60.0
  0
INSERT
  5
54CA
  8
FUTO
 62
     2
  2
_OPEN30
 10
12449.016406988911
 20
15216.208710440031
 30
0.0
 41
60.0
 42
60.0
 43
60.0
 50
180.0
  0
TEXT
  5
54CB
  8
FUTO
 62
     2
 10
13053.98340131952
 20
15231.208710440031
 30
0.0
 40
90.0
  1
1545
 51
15.0
  7
SUNPOU
  0
POINT
  5
54CC
  8
DEFPOINTS
 62
     0
 10
13994.016406988911
 20
14882.37832689079
 30
0.0
  0
POINT
  5
54CD
  8
DEFPOINTS
 62
     0
 10
12449.016406988911
 20
14953.93972121076
 30
0.0
  0
POINT
  5
54CE
  8
DEFPOINTS
 62
     0
 10
12449.016406988911
 20
15216.208710440031
 30
0.0
  0
ENDBLK
  5
4374
  8
0
  0
BLOCK
  8
0
  2
*D11
 70
     1
 10
0.0
 20
0.0
 30
0.0
  3
*D11
  1

  0
LINE
  5
5465
  8
FUTO
 62
     2
 10
17283.275393912201
 20
14652.378326890799
 30
0.0
 11
17648.885255668421
 21
14652.378326890799
 31
0.0
  0
LINE
  5
5466
  8
FUTO
 62
     2
 10
17283.275393912201
 20
13252.37832689079
 30
0.0
 11
17648.885255668421
 21
13252.37832689079
 31
0.0
  0
LINE
  5
5467
  8
FUTO
 62
     2
 10
17618.885255668421
 20
14592.378326890799
 30
0.0
 11
17618.885255668421
 21
13312.37832689079
 31
0.0
  0
INSERT
  5
5468
  8
FUTO
 62
     2
  2
_OPEN30
 10
17618.885255668421
 20
14652.378326890799
 30
0.0
 41
60.0
 42
60.0
 43
60.0
 50
90.0
  0
INSERT
  5
5469
  8
FUTO
 62
     2
  2
_OPEN30
 10
17618.885255668421
 20
13252.37832689079
 30
0.0
 41
60.0
 42
60.0
 43
60.0
 50
270.0
  0
INSERT
  5
546A
  8
FUTO
  2
*U23
 10
0.0
 20
0.0
 30
0.0
  0
POINT
  5
546B
  8
DEFPOINTS
 62
     0
 10
17253.275393912201
 20
14652.378326890799
 30
0.0
  0
POINT
  5
546C
  8
DEFPOINTS
 62
     0
 10
17253.275393912201
 20
13252.37832689079
 30
0.0
  0
POINT
  5
546D
  8
DEFPOINTS
 62
     0
 10
17618.885255668421
 20
13252.37832689079
 30
0.0
  0
ENDBLK
  5
4473
  8
0
  0
BLOCK
  8
0
  2
*D12
 70
     1
 10
0.0
 20
0.0
 30
0.0
  3
*D12
  1

  0
LINE
  5
546E
  8
FUTO
 62
     2
 10
16619.275393912201
 20
15232.97479099645
 30
0.0
 11
16619.275393912201
 21
15387.36188533711
 31
0.0
  0
LINE
  5
546F
  8
FUTO
 62
     2
 10
17253.275393912201
 20
14732.378326890799
 30
0.0
 11
17253.275393912201
 21
15387.36188533711
 31
0.0
  0
LINE
  5
5470
  8
FUTO
 62
     2
 10
16679.275393912201
 20
15357.36188533711
 30
0.0
 11
17193.275393912201
 21
15357.36188533711
 31
0.0
  0
INSERT
  5
5471
  8
FUTO
 62
     2
  2
_OPEN30
 10
16619.275393912201
 20
15357.36188533711
 30
0.0
 41
60.0
 42
60.0
 43
60.0
 50
180.0
  0
INSERT
  5
5472
  8
FUTO
 62
     2
  2
_OPEN30
 10
17253.275393912201
 20
15357.36188533711
 30
0.0
 41
60.0
 42
60.0
 43
60.0
  0
TEXT
  5
5473
  8
FUTO
 62
     2
 10
16810.533625502962
 20
15372.36188533711
 30
0.0
 40
90.0
  1
634
 51
15.0
  7
SUNPOU
  0
POINT
  5
5474
  8
DEFPOINTS
 62
     0
 10
16619.275393912201
 20
15202.97479099645
 30
0.0
  0
POINT
  5
5475
  8
DEFPOINTS
 62
     0
 10
17253.275393912201
 20
14702.37832689079
 30
0.0
  0
POINT
  5
5476
  8
DEFPOINTS
 62
     0
 10
17253.275393912201
 20
15357.36188533711
 30
0.0
  0
ENDBLK
  5
447F
  8
0
  0
BLOCK
  8
0
  2
*D13
 70
     1
 10
0.0
 20
0.0
 30
0.0
  3
*D13
  1

  0
LINE
  5
5477
  8
FUTO
 62
     2
 10
16089.275393912199
 20
14862.378326890799
 30
0.0
 11
16089.275393912199
 21
15125.50131898514
 31
0.0
  0
LINE
  5
5478
  8
FUTO
 62
     2
 10
17149.27539391219
 20
14862.37832689079
 30
0.0
 11
17149.27539391219
 21
15125.50131898514
 31
0.0
  0
LINE
  5
5479
  8
FUTO
 62
     2
 10
16149.275393912199
 20
15095.50131898514
 30
0.0
 11
17089.27539391219
 21
15095.50131898514
 31
0.0
  0
INSERT
  5
547A
  8
FUTO
 62
     2
  2
_OPEN30
 10
16089.275393912199
 20
15095.50131898514
 30
0.0
 41
60.0
 42
60.0
 43
60.0
 50
180.0
  0
INSERT
  5
547B
  8
FUTO
 62
     2
  2
_OPEN30
 10
17149.27539391219
 20
15095.50131898514
 30
0.0
 41
60.0
 42
60.0
 43
60.0
  0
TEXT
  5
547C
  8
FUTO
 62
     2
 10
16451.896238463651
 20
15110.50131898514
 30
0.0
 40
90.0
  1
1060
 51
15.0
  7
SUNPOU
  0
POINT
  5
547D
  8
DEFPOINTS
 62
     0
 10
16089.275393912199
 20
14832.378326890799
 30
0.0
  0
POINT
  5
547E
  8
DEFPOINTS
 62
     0
 10
17149.27539391219
 20
14832.378326890799
 30
0.0
  0
POINT
  5
547F
  8
DEFPOINTS
 62
     0
 10
17149.27539391219
 20
15095.50131898514
 30
0.0
  0
ENDBLK
  5
448B
  8
0
  0
BLOCK
  8
0
  2
_OPEN30
 70
     0
 10
0.0
 20
0.0
 30
0.0
  3
_OPEN30
  1

  0
LINE
  5
44D6
  8
FUTO
 62
     0
 10
-1.0
 20
0.26794919
 30
0.0
 11
0.0
 21
0.0
 31
0.0
  0
LINE
  5
44D7
  8
FUTO
 62
     0
 10
0.0
 20
0.0
 30
0.0
 11
-1.0
 21
-0.26794919
 31
0.0
  0
LINE
  5
44D8
  8
FUTO
 62
     0
 10
0.0
 20
0.0
 30
0.0
 11
-1.0
 21
0.0
 31
0.0
  0
ENDBLK
  5
44DA
  8
0
  0
BLOCK
  8
0
  2
*D15
 70
     1
 10
0.0
 20
0.0
 30
0.0
  3
*D15
  1

  0
LINE
  5
54CF
  8
FUTO
 62
     2
 10
11569.016406988911
 20
12597.378326890799
 30
0.0
 11
10941.12460793719
 21
12597.378326890799
 31
0.0
  0
LINE
  5
54D0
  8
FUTO
 62
     2
 10
11569.016406988911
 20
12447.37832689079
 30
0.0
 11
10941.12460793719
 21
12447.37832689079
 31
0.0
  0
LINE
  5
54D1
  8
FUTO
 62
     2
 10
10971.12460793719
 20
12537.378326890799
 30
0.0
 11
10971.12460793719
 21
12507.37832689079
 31
0.0
  0
LINE
  5
54D2
  8
FUTO
 62
     2
 10
10971.12460793719
 20
12447.37832689079
 30
0.0
 11
10971.12460793719
 21
12147.37832689079
 31
0.0
  0
INSERT
  5
54D3
  8
FUTO
 62
     2
  2
_OPEN30
 10
10971.12460793719
 20
12597.378326890799
 30
0.0
 41
60.0
 42
60.0
 43
60.0
 50
90.0
  0
INSERT
  5
54D4
  8
FUTO
 62
     2
  2
_OPEN30
 10
10971.12460793719
 20
12447.37832689079
 30
0.0
 41
60.0
 42
60.0
 43
60.0
 50
270.0
  0
TEXT
  5
54D5
  8
FUTO
 62
     2
 10
10956.124607937179
 20
12142.85631429939
 30
0.0
 40
90.0
  1
150
 50
90.0
 51
15.0
  7
SUNPOU
  0
POINT
  5
54D6
  8
DEFPOINTS
 62
     0
 10
11599.016406988911
 20
12597.378326890799
 30
0.0
  0
POINT
  5
54D7
  8
DEFPOINTS
 62
     0
 10
11599.016406988911
 20
12447.37832689079
 30
0.0
  0
POINT
  5
54D8
  8
DEFPOINTS
 62
     0
 10
10971.12460793719
 20
12447.37832689079
 30
0.0
  0
ENDBLK
  5
4591
  8
0
  0
BLOCK
  8
0
  2
*D16
 70
     1
 10
0.0
 20
0.0
 30
0.0
  3
*D16
  1

  0
LINE
  5
54D9
  8
FUTO
 62
     2
 10
12449.016406988911
 20
18592.63960073431
 30
0.0
 11
12449.016406988911
 21
18696.2028462776
 31
0.0
  0
LINE
  5
54DA
  8
FUTO
 62
     2
 10
11396.016406988911
 20
18261.767023084711
 30
0.0
 11
11396.016406988911
 21
18696.2028462776
 31
0.0
  0
LINE
  5
54DB
  8
FUTO
 62
     2
 10
12389.016406988911
 20
18666.202846277589
 30
0.0
 11
11456.016406988911
 21
18666.202846277589
 31
0.0
  0
INSERT
  5
54DC
  8
FUTO
 62
     2
  2
_OPEN30
 10
12449.016406988911
 20
18666.202846277589
 30
0.0
 41
60.0
 42
60.0
 43
60.0
  0
INSERT
  5
54DD
  8
FUTO
 62
     2
  2
_OPEN30
 10
11396.016406988911
 20
18666.202846277589
 30
0.0
 41
60.0
 42
60.0
 43
60.0
 50
180.0
  0
TEXT
  5
54DE
  8
FUTO
 62
     2
 10
11752.840544176661
 20
18681.202846277589
 30
0.0
 40
90.0
  1
1053
 51
15.0
  7
SUNPOU
  0
POINT
  5
54DF
  8
DEFPOINTS
 62
     0
 10
12449.016406988911
 20
18562.63960073431
 30
0.0
  0
POINT
  5
54E0
  8
DEFPOINTS
 62
     0
 10
11396.016406988911
 20
18231.767023084711
 30
0.0
  0
POINT
  5
54E1
  8
DEFPOINTS
 62
     0
 10
11396.016406988911
 20
18666.202846277589
 30
0.0
  0
ENDBLK
  5
45A7
  8
0
  0
BLOCK
  8
0
  2
*D17
 70
     1
 10
0.0
 20
0.0
 30
0.0
  3
*D17
  1

  0
LINE
  5
54E2
  8
FUTO
 62
     2
 10
12449.016406988911
 20
18592.63960073431
 30
0.0
 11
12449.016406988911
 21
18696.2028462776
 31
0.0
  0
LINE
  5
54E3
  8
FUTO
 62
     2
 10
13999.016406988911
 20
17066.767023084711
 30
0.0
 11
13999.016406988911
 21
18696.2028462776
 31
0.0
  0
LINE
  5
54E4
  8
FUTO
 62
     2
 10
12509.016406988911
 20
18666.202846277589
 30
0.0
 11
13939.016406988911
 21
18666.202846277589
 31
0.0
  0
INSERT
  5
54E5
  8
FUTO
 62
     2
  2
_OPEN30
 10
12449.016406988911
 20
18666.202846277589
 30
0.0
 41
60.0
 42
60.0
 43
60.0
 50
180.0
  0
INSERT
  5
54E6
  8
FUTO
 62
     2
  2
_OPEN30
 10
13999.016406988911
 20
18666.202846277589
 30
0.0
 41
60.0
 42
60.0
 43
60.0
  0
TEXT
  5
54E7
  8
FUTO
 62
     2
 10
13056.63725154036
 20
18681.202846277589
 30
0.0
 40
90.0
  1
1550
 51
15.0
  7
SUNPOU
  0
POINT
  5
54E8
  8
DEFPOINTS
 62
     0
 10
12449.016406988911
 20
18562.63960073431
 30
0.0
  0
POINT
  5
54E9
  8
DEFPOINTS
 62
     0
 10
13999.016406988911
 20
17036.767023084711
 30
0.0
  0
POINT
  5
54EA
  8
DEFPOINTS
 62
     0
 10
13999.016406988911
 20
18666.202846277589
 30
0.0
  0
ENDBLK
  5
45B4
  8
0
  0
BLOCK
  8
0
  2
*D18
 70
     1
 10
0.0
 20
0.0
 30
0.0
  3
*D18
  1

  0
LINE
  5
54EB
  8
FUTO
 62
     2
 10
11241.496406409389
 20
17647.767023084711
 30
0.0
 11
11008.710504149039
 21
17647.767023084711
 31
0.0
  0
LINE
  5
54EC
  8
FUTO
 62
     2
 10
11669.016406988911
 20
18281.767023084711
 30
0.0
 11
11008.710504149039
 21
18281.767023084711
 31
0.0
  0
LINE
  5
54ED
  8
FUTO
 62
     2
 10
11038.710504149039
 20
17707.767023084711
 30
0.0
 11
11038.710504149039
 21
18221.767023084711
 31
0.0
  0
INSERT
  5
54EE
  8
FUTO
 62
     2
  2
_OPEN30
 10
11038.710504149039
 20
17647.767023084711
 30
0.0
 41
60.0
 42
60.0
 43
60.0
 50
270.0
  0
INSERT
  5
54EF
  8
FUTO
 62
     2
  2
_OPEN30
 10
11038.710504149039
 20
18281.767023084711
 30
0.0
 41
60.0
 42
60.0
 43
60.0
 50
90.0
  0
TEXT
  5
54F0
  8
FUTO
 62
     2
 10
11023.710504149039
 20
17839.025254675478
 30
0.0
 40
90.0
  1
634
 50
90.0
 51
15.0
  7
SUNPOU
  0
POINT
  5
54F1
  8
DEFPOINTS
 62
     0
 10
11271.496406409389
 20
17647.767023084711
 30
0.0
  0
POINT
  5
54F2
  8
DEFPOINTS
 62
     0
 10
11699.016406988911
 20
18281.767023084711
 30
0.0
  0
POINT
  5
54F3
  8
DEFPOINTS
 62
     0
 10
11038.710504149039
 20
18281.767023084711
 30
0.0
  0
ENDBLK
  5
45C1
  8
0
  0
BLOCK
  8
0
  2
*D19
 70
     1
 10
0.0
 20
0.0
 30
0.0
  3
*D19
  1

  0
LINE
  5
54F4
  8
FUTO
 62
     2
 10
12039.016406988911
 20
15827.767023084711
 30
0.0
 11
11008.710504149039
 21
15827.767023084711
 31
0.0
  0
LINE
  5
54F5
  8
FUTO
 62
     2
 10
11038.710504149039
 20
17587.767023084711
 30
0.0
 11
11038.710504149039
 21
15887.767023084711
 31
0.0
  0
INSERT
  5
54F6
  8
FUTO
 62
     2
  2
_OPEN30
 10
11038.710504149039
 20
17647.767023084711
 30
0.0
 41
60.0
 42
60.0
 43
60.0
 50
90.0
  0
INSERT
  5
54F7
  8
FUTO
 62
     2
  2
_OPEN30
 10
11038.710504149039
 20
15827.767023084711
 30
0.0
 41
60.0
 42
60.0
 43
60.0
 50
270.0
  0
TEXT
  5
54F8
  8
FUTO
 62
     2
 10
11023.710504149039
 20
16570.38786763616
 30
0.0
 40
90.0
  1
1820
 50
90.0
 51
15.0
  7
SUNPOU
  0
POINT
  5
54F9
  8
DEFPOINTS
 62
     0
 10
11038.710504149039
 20
17647.767023084711
 30
0.0
  0
POINT
  5
54FA
  8
DEFPOINTS
 62
     0
 10
12069.016406988911
 20
15827.767023084711
 30
0.0
  0
POINT
  5
54FB
  8
DEFPOINTS
 62
     0
 10
11038.710504149039
 20
15827.767023084711
 30
0.0
  0
ENDBLK
  5
45CD
  8
0
  0
BLOCK
  8
0
  2
*U20
 70
     1
 10
0.0
 20
0.0
 30
0.0
  3
*U20
  1

  0
SOLID
  5
54C0
  8
FUTO
  6
CONTINUOUS
 10
13949.016406988911
 20
12712.37832689079
 30
0.0
 11
13949.016406988911
 21
12602.37832689079
 31
0.0
 12
13989.016406988911
 22
12712.378326890799
 32
0.0
 13
13989.016406988911
 23
12712.378326890799
 33
0.0
  0
SOLID
  5
54C1
  8
FUTO
  6
CONTINUOUS
 10
13989.016406988911
 20
12602.37832689079
 30
0.0
 11
13989.016406988911
 21
12712.378326890799
 31
0.0
 12
13949.016406988911
 22
12602.37832689079
 32
0.0
 13
13949.016406988911
 23
12602.37832689079
 33
0.0
  0
SOLID
  5
54C2
  8
FUTO
  6
CONTINUOUS
 10
13909.016406988911
 20
12712.378326890799
 30
0.0
 11
13909.016406988911
 21
12602.37832689079
 31
0.0
 12
13949.016406988911
 22
12712.378326890799
 32
0.0
 13
13949.016406988911
 23
12712.378326890799
 33
0.0
  0
SOLID
  5
54C3
  8
FUTO
  6
CONTINUOUS
 10
13949.016406988911
 20
12602.378326890799
 30
0.0
 11
13949.016406988911
 21
12712.378326890799
 31
0.0
 12
13909.016406988911
 22
12602.37832689079
 32
0.0
 13
13909.016406988911
 23
12602.37832689079
 33
0.0
  0
ENDBLK
  5
54C5
  8
0
  0
BLOCK
  8
0
  2
*U21
 70
     1
 10
0.0
 20
0.0
 30
0.0
  3
*U21
  1

  0
SOLID
  5
54FD
  8
FUTO
  6
CONTINUOUS
 10
11801.74825633494
 20
12712.378326890799
 30
0.0
 11
11761.74825633494
 21
12712.378326890799
 31
0.0
 12
11801.74825633494
 22
12602.37832689079
 32
0.0
 13
11801.74825633494
 23
12602.37832689079
 33
0.0
  0
SOLID
  5
54FE
  8
FUTO
  6
CONTINUOUS
 10
11761.74825633494
 20
12602.37832689079
 30
0.0
 11
11801.74825633494
 21
12602.37832689079
 31
0.0
 12
11761.74825633494
 22
12712.378326890799
 32
0.0
 13
11761.74825633494
 23
12712.378326890799
 33
0.0
  0
SOLID
  5
54FF
  8
FUTO
  6
CONTINUOUS
 10
11841.74825633494
 20
12712.378326890799
 30
0.0
 11
11801.74825633494
 21
12712.378326890799
 31
0.0
 12
11841.74825633494
 22
12602.378326890799
 32
0.0
 13
11841.74825633494
 23
12602.378326890799
 33
0.0
  0
SOLID
  5
5500
  8
FUTO
  6
CONTINUOUS
 10
11801.74825633494
 20
12602.37832689079
 30
0.0
 11
11841.74825633494
 21
12602.378326890799
 31
0.0
 12
11801.74825633494
 22
12712.378326890799
 32
0.0
 13
11801.74825633494
 23
12712.378326890799
 33
0.0
  0
ENDBLK
  5
5502
  8
0
  0
BLOCK
  8
0
  2
*U22
 70
     1
 10
0.0
 20
0.0
 30
0.0
  3
*U22
  1

  0
SOLID
  5
5504
  8
FUTO
  6
CONTINUOUS
 10
15031.275393912199
 20
12712.378326890799
 30
0.0
 11
15026.275393912199
 21
12602.378326890799
 31
0.0
 12
15066.275393912199
 22
12602.378326890799
 32
0.0
 13
15066.275393912199
 23
12602.378326890799
 33
0.0
  0
SOLID
  5
5505
  8
FUTO
  6
CONTINUOUS
 10
15066.275393912199
 20
12712.378326890799
 30
0.0
 11
15031.275393912199
 21
12712.378326890799
 31
0.0
 12
15066.275393912199
 22
12602.378326890799
 32
0.0
 13
15066.275393912199
 23
12602.378326890799
 33
0.0
  0
SOLID
  5
5506
  8
FUTO
  6
CONTINUOUS
 10
15026.275393912199
 20
12712.378326890799
 30
0.0
 11
15026.275393912199
 21
12602.378326890799
 31
0.0
 12
15031.275393912199
 22
12712.378326890799
 32
0.0
 13
15031.275393912199
 23
12712.378326890799
 33
0.0
  0
SOLID
  5
5507
  8
FUTO
  6
CONTINUOUS
 10
17196.275393912201
 20
12712.378326890799
 30
0.0
 11
17156.275393912201
 21
12602.378326890799
 31
0.0
 12
17196.275393912201
 22
12602.378326890799
 32
0.0
 13
17196.275393912201
 23
12602.378326890799
 33
0.0
  0
SOLID
  5
5508
  8
FUTO
  6
CONTINUOUS
 10
15106.275393912199
 20
12602.378326890799
 30
0.0
 11
15106.275393912199
 21
12712.378326890799
 31
0.0
 12
15066.275393912199
 22
12712.378326890799
 32
0.0
 13
15066.275393912199
 23
12712.378326890799
 33
0.0
  0
SOLID
  5
5509
  8
FUTO
  6
CONTINUOUS
 10
15066.275393912199
 20
12712.378326890799
 30
0.0
 11
15066.275393912199
 21
12602.378326890799
 31
0.0
 12
15106.275393912199
 22
12602.378326890799
 32
0.0
 13
15106.275393912199
 23
12602.378326890799
 33
0.0
  0
SOLID
  5
550A
  8
FUTO
  6
CONTINUOUS
 10
17156.275393912201
 20
12712.378326890799
 30
0.0
 11
17156.275393912201
 21
12602.378326890799
 31
0.0
 12
17196.275393912201
 22
12712.378326890799
 32
0.0
 13
17196.275393912201
 23
12712.378326890799
 33
0.0
  0
SOLID
  5
550B
  8
FUTO
  6
CONTINUOUS
 10
17234.275393912201
 20
12712.378326890799
 30
0.0
 11
17196.275393912201
 21
12712.378326890799
 31
0.0
 12
17234.275393912201
 22
12602.378326890799
 32
0.0
 13
17234.275393912201
 23
12602.378326890799
 33
0.0
  0
SOLID
  5
550C
  8
FUTO
  6
CONTINUOUS
 10
17196.275393912201
 20
12602.378326890799
 30
0.0
 11
17234.275393912201
 21
12602.378326890799
 31
0.0
 12
17196.275393912201
 22
12712.378326890799
 32
0.0
 13
17196.275393912201
 23
12712.378326890799
 33
0.0
  0
SOLID
  5
550D
  8
FUTO
  6
CONTINUOUS
 10
17234.275393912201
 20
12602.378326890799
 30
0.0
 11
17196.275393912201
 21
12602.378326890799
 31
0.0
 12
17231.275393912201
 22
12602.378326890799
 32
0.0
 13
17231.275393912201
 23
12602.378326890799
 33
0.0
  0
ENDBLK
  5
550F
  8
0
  0
BLOCK
  8
0
  2
*U23
 70
     1
 10
0.0
 20
0.0
 30
0.0
  3
*U23
  1

  0
TEXT
  5
563F
  8
FUTO
 62
     2
 10
17603.885255668421
 20
13729.62276426318
 30
0.0
 40
90.0
  1
\U+2205
 50
90.0
 51
15.0
  7
SUNPOU
  0
TEXT
  5
5640
  8
FUTO
 62
     2
 10
17603.885255668421
 20
13811.051335691751
 30
0.0
 40
90.0
  1
1400
 50
90.0
 51
15.0
  7
SUNPOU
  0
ENDBLK
  5
5642
  8
0
  0
ENDSEC
  0
SECTION
  2
ENTITIES
  0
LINE
  5
1F
  8
FUTO
 10
15026.275393912199
 20
12597.378326890799
 30
0.0
 11
17234.275393912201
 21
12597.378326890799
 31
0.0
1001
ACAD
1000
ASC_BOUNDS
1002
{
1070
    19
1005
3975
1002
}
  0
LINE
  5
41
  8
FUTO
 10
15031.275393912199
 20
12447.37832689079
 30
0.0
 11
17231.275393912201
 21
12447.378326890799
 31
0.0
  0
LINE
  5
42
  8
FUTO
 10
15026.275393912199
 20
12712.378326890799
 30
0.0
 11
17234.275393912201
 21
12712.378326890799
 31
0.0
1001
ACAD
1000
ASC_BOUNDS
1002
{
1070
    19
1005
3975
1002
}
  0
LINE
  5
116
  8
FUTO
 10
15948.275393912199
 20
13997.37832689079
 30
0.0
 11
16009.775393912199
 21
13997.37832689079
 31
0.0
  0
LINE
  5
117
  8
FUTO
 10
15948.275393912199
 20
13907.378326890799
 30
0.0
 11
16011.075393912201
 21
13907.378326890799
 31
0.0
  0
LINE
  5
118
  8
FUTO
 10
15032.275393912199
 20
12862.378326890799
 30
0.0
 11
17231.475393912198
 21
12862.37832689079
 31
0.0
  0
LINE
  5
119
  8
CT
 10
14748.42526042682
 20
13952.37832689079
 30
0.0
 11
17346.602871884199
 21
13952.37832689079
 31
0.0
  0
ARC
  5
11C
  8
FUTO
 10
12551.016406988911
 20
13850.37832689079
 30
0.0
 40
1125.0
 50
175.25813759379739
 51
238.05363545715079
  0
LINE
  5
14C
  8
SL
 10
15009.275393912199
 20
14032.378326890799
 30
0.0
 11
15009.275393912199
 21
13872.37832689079
 31
0.0
  0
LINE
  5
162
  8
CT
 10
15169.275393912199
 20
14070.881823850919
 30
0.0
 11
15169.275393912199
 21
13789.54769510408
 31
0.0
  0
LINE
  5
163
  8
CT
 10
12304.016406988911
 20
13842.378326890799
 30
0.0
 11
12304.016406988911
 21
13896.37832689079
 31
0.0
  0
ARC
  5
164
  8
FUTO
 10
12338.016406988911
 20
13902.378326890799
 30
0.0
 40
16.0
 50
270.0
 51
0.000000000000007
  0
ARC
  5
165
  8
FUTO
 10
12449.016406988911
 20
13952.37832689079
 30
0.0
 40
95.000000000000071
 50
209.9999999999994
 51
230.94387397238239
  0
ARC
  5
168
  8
FUTO
 10
12449.016406988911
 20
13952.37832689079
 30
0.0
 40
94.999999999997485
 50
309.05612602761818
 51
330.00000000000108
  0
LINE
  5
169
  8
CT
 10
12594.016406988911
 20
13842.378326890799
 30
0.0
 11
12594.016406988911
 21
13896.37832689079
 31
0.0
  0
ARC
  5
16A
  8
FUTO
 10
12560.016406988911
 20
13902.378326890799
 30
0.0
 40
16.0
 50
180.0
 51
270.0
  0
LINE
  5
16B
  8
CT
 10
12449.016406988911
 20
14076.881823850919
 30
0.0
 11
12449.016406988911
 21
13835.136987735201
 31
0.0
  0
ARC
  5
178
  8
KL
 10
12363.516406988911
 20
13866.87832689079
 30
0.0
 40
917.5
 50
90.0
 51
180.0
  0
LINE
  5
17D
  8
FUTO
 10
14799.275393912199
 20
14332.378326890799
 30
0.0
 11
14799.275393912199
 21
12902.378326890799
 31
0.0
  0
LINE
  5
17E
  8
SL
 10
14909.275393912199
 20
14202.37832689079
 30
0.0
 11
14909.275393912199
 21
13016.378326890799
 31
0.0
  0
LINE
  5
17F
  8
SL
 10
14987.175393912201
 20
14202.37832689079
 30
0.0
 11
14987.175393912201
 21
13016.378326890799
 31
0.0
  0
ARC
  5
180
  8
FUTO
 10
12551.016406988911
 20
14054.37832689079
 30
0.0
 40
1329.0
 50
329.29372122440577
 51
354.84585959754298
  0
LINE
  5
181
  8
SL
 10
12591.240861406361
 20
14157.98038078535
 30
0.0
 11
13704.28186443831
 21
13212.83123846864
 31
0.0
  0
LINE
  5
182
  8
FUTO
 10
13799.55333325647
 20
13283.91193178799
 30
0.0
 11
12701.82316040458
 21
14236.08371180167
 31
0.0
  0
ARC
  5
183
  8
FUTO
 10
12449.016406988911
 20
13952.37832689079
 30
0.0
 40
380.0
 50
48.296118811314891
 51
240.76413685388491
  0
LINE
  5
184
  8
CT
 10
12449.016406988911
 20
14953.93972121076
 30
0.0
 11
12449.016406988911
 21
12447.37832689079
 31
0.0
  0
LINE
  5
185
  8
FUTO
 10
13289.016406988911
 20
14832.378326890799
 30
0.0
 11
13289.016406988911
 21
13726.751953743449
 31
0.0
  0
LINE
  5
186
  8
FUTO
 10
13280.016406988911
 20
14832.378326890799
 30
0.0
 11
13280.016406988911
 21
13734.558558892921
 31
0.0
  0
LINE
  5
187
  8
FUTO
 10
11609.016406988911
 20
14402.37832689079
 30
0.0
 11
11609.016406988911
 21
12862.37832689079
 31
0.0
  0
LINE
  5
188
  8
FUTO
 10
11618.016406988911
 20
14402.37832689079
 30
0.0
 11
11618.016406988911
 21
12862.37832689079
 31
0.0
  0
CIRCLE
  5
18B
  8
SL
 10
12449.016406988911
 20
13952.37832689079
 30
0.0
 40
250.0
  0
ARC
  5
18C
  8
KL
 10
12551.016406988911
 20
14054.37832689079
 30
0.0
 40
1309.0
 50
270.0
 51
354.84585959754298
  0
DIMENSION
  5
18D
  8
FUTO
  2
*D0
 10
10971.12460793719
 20
12712.378326890799
 30
0.0
 11
10911.124607937179
 21
13332.378326890799
 31
0.0
 70
     0
 13
11271.012428341581
 23
13952.37832689079
 33
0.0
 14
11599.016406988911
 24
12712.378326890799
 34
0.0
 50
90.0
1001
ACAD
1000
DSTYLE
1002
{
1070
    40
1040
30.0
1070
   176
1070
     2
1070
   177
1070
     2
1070
   178
1070
     2
1070
   341
1005
44D5
1070
     5
1000
OPEN30
1002
}
  0
LINE
  5
19A
  8
CT
 10
15879.275393912199
 20
14070.881823850919
 30
0.0
 11
15879.275393912199
 21
13767.214163675641
 31
0.0
  0
LINE
  5
19B
  8
FUTO
 10
11599.016406988911
 20
12712.378326890799
 30
0.0
 11
13999.016406988911
 21
12712.378326890799
 31
0.0
1001
ACAD
1000
ASC_BOUNDS
1002
{
1070
    19
1005
0
1005
0
1005
0
1005
0
1005
0
1005
0
1005
0
1005
0
1005
0
1005
0
1005
0
1005
0
1005
0
1005
0
1005
0
1005
0
1005
0
1005
0
1005
0
1005
0
1005
0
1002
}
  0
LINE
  5
19C
  8
FUTO
 10
11599.016406988911
 20
12597.378326890799
 30
0.0
 11
13999.016406988911
 21
12597.378326890799
 31
0.0
1001
ACAD
1000
ASC_BOUNDS
1002
{
1070
    19
1005
0
1005
0
1005
0
1005
0
1005
0
1005
0
1005
0
1005
0
1005
0
1005
0
1005
0
1005
0
1005
0
1005
0
1005
0
1005
0
1005
0
1005
0
1005
0
1005
0
1005
0
1002
}
  0
DIMENSION
  5
276
  8
FUTO
  2
*D1
 10
13999.016406988911
 20
12208.07846692577
 30
0.0
 11
13224.016406988911
 21
12268.07846692577
 31
0.0
 70
     0
 13
12449.016406988911
 23
12420.296175847039
 33
0.0
 14
13999.016406988911
 24
12372.378326890799
 34
0.0
 50
180.0
1001
ACAD
1000
DSTYLE
1002
{
1070
    40
1040
30.0
1070
   176
1070
     2
1070
   177
1070
     2
1070
   178
1070
     2
1070
   341
1005
44D5
1070
     5
1000
OPEN30
1002
}
  0
DIMENSION
  5
283
  8
FUTO
  2
*D2
 10
11599.016406988911
 20
12025.161149941679
 30
0.0
 11
12799.016406988911
 21
12085.161149941679
 31
0.0
 70
     0
 13
13999.016406988911
 23
12447.37832689079
 33
0.0
 14
11599.016406988911
 24
12447.37832689079
 34
0.0
 50
180.0
1001
ACAD
1000
DSTYLE
1002
{
1070
    40
1040
30.0
1070
   176
1070
     2
1070
   177
1070
     2
1070
   178
1070
     2
1070
   341
1005
44D5
1070
     5
1000
OPEN30
1002
}
  0
LINE
  5
291
  8
SL
 10
12353.01926360262
 20
13721.543865725071
 30
0.0
 11
13587.957751352929
 21
13035.73053077383
 31
0.0
  0
LINE
  5
292
  8
FUTO
 10
13557.364893089791
 20
12922.37832689079
 30
0.0
 11
12263.42214536859
 21
13620.784041575729
 31
0.0
  0
LINE
  5
293
  8
FUTO
 10
13389.016406988911
 20
12936.87196230826
 30
0.0
 11
13335.81547388477
 21
12936.87196230826
 31
0.0
  0
LINE
  5
294
  8
FUTO
 10
11599.016406988911
 20
12862.37832689079
 30
0.0
 11
13999.016406988911
 21
12862.37832689079
 31
0.0
  0
LINE
  5
295
  8
FUTO
 10
11599.016406988911
 20
12447.37832689079
 30
0.0
 11
13999.016406988911
 21
12447.37832689079
 31
0.0
  0
LINE
  5
2AC
  8
FUTO
 10
13389.016406988911
 20
12862.37832689079
 30
0.0
 11
13389.016406988911
 21
12953.558759232999
 31
0.0
  0
LINE
  5
2AD
  8
FUTO
 10
13389.016406988911
 20
12862.37832689079
 30
0.0
 11
13399.02474289935
 21
12922.37832689079
 31
0.0
  0
LINE
  5
2AE
  8
FUTO
 10
13909.016406988911
 20
12862.37832689079
 30
0.0
 11
13909.016406988911
 21
12953.558759232999
 31
0.0
  0
LINE
  5
2AF
  8
FUTO
 10
13909.016406988911
 20
12862.37832689079
 30
0.0
 11
13899.00807107847
 21
12922.37832689079
 31
0.0
  0
ARC
  5
2B0
  8
FUTO
 10
13649.016406988911
 20
13122.378326890799
 30
0.0
 40
220.0
 50
240.76413685388491
 51
48.296118811314997
  0
LINE
  5
2B2
  8
FUTO
 10
13999.016406988911
 20
12597.37832689079
 30
0.0
 11
13999.016406988911
 21
12447.37832689079
 31
0.0
  0
POINT
  5
2B3
  8
DEFPOINTS
 10
13999.016406988911
 20
12712.378326890799
 30
0.0
  0
POINT
  5
2B4
  8
DEFPOINTS
 10
13999.016406988911
 20
12597.378326890799
 30
0.0
  0
POINT
  5
2B5
  8
DEFPOINTS
 10
13999.016406988911
 20
12597.378326890799
 30
0.0
  0
LINE
  5
2B6
  8
FUTO
 10
13999.016406988911
 20
12862.37832689079
 30
0.0
 11
13999.016406988911
 21
12712.378326890799
 31
0.0
  0
LINE
  5
2BD
  8
CT
 10
13851.57158298891
 20
13197.378326890799
 30
0.0
 11
13888.00493298891
 21
13197.378326890799
 31
0.0
  0
LINE
  5
2BE
  8
FUTO
 10
13869.016406988911
 20
13137.378326890799
 30
0.0
 11
13851.962939988911
 21
13137.378326890799
 31
0.0
  0
LINE
  5
2BF
  8
FUTO
 10
13869.016406988911
 20
13257.378326890799
 30
0.0
 11
13801.29008898891
 21
13257.378326890799
 31
0.0
  0
ARC
  5
2C0
  8
FUTO
 10
13877.216357988909
 20
13263.844879890799
 30
0.0
 40
8.1999940000000002
 50
107.30986
 51
180.0
  0
LINE
  5
2C1
  8
FUTO
 10
13899.00807107847
 20
12922.37832689079
 30
0.0
 11
13732.35472656716
 21
12922.37832689079
 31
0.0
  0
LINE
  5
2C2
  8
FUTO
 10
13847.471379578041
 20
12936.87196230826
 30
0.0
 11
13882.28593128216
 21
12936.87196230826
 31
0.0
  0
LINE
  5
2C3
  8
FUTO
 10
13869.28837998891
 20
13123.736236890791
 30
0.0
 11
13879.686938988911
 21
13080.062164890791
 31
0.0
  0
LINE
  5
2C4
  8
FUTO
 10
14045.80900998891
 20
13089.792877890801
 30
0.0
 11
14045.80900998891
 21
13227.58535789079
 31
0.0
  0
LINE
  5
2C5
  8
FUTO
 10
13885.80900998891
 20
13307.240142890791
 30
0.0
 11
14034.55900998891
 21
13049.597564890801
 31
0.0
  0
LINE
  5
2C6
  8
FUTO
 10
13880.266406988911
 20
13304.040191890799
 30
0.0
 11
14029.016406988911
 21
13046.397613890789
 31
0.0
  0
LINE
  5
2C7
  8
FUTO
 10
13892.016406988911
 20
13042.378326890799
 30
0.0
 11
14012.016406988911
 21
13042.378326890799
 31
0.0
  0
LINE
  5
2C8
  8
FUTO
 10
13889.41496698891
 20
13072.37832689079
 30
0.0
 11
14014.016406988911
 21
13072.37832689079
 31
0.0
  0
ARC
  5
2C9
  8
FUTO
 10
14022.54130898891
 20
13074.412994890799
 30
0.0
 40
2.0000450000000001
 50
107.313553
 51
209.99818400000001
  0
LINE
  5
2CA
  8
FUTO
 10
14040.048877988909
 20
13081.96426389079
 30
0.0
 11
14021.946094988911
 21
13076.322418890801
 31
0.0
  0
LINE
  5
2CB
  8
FUTO
 10
14034.55900998891
 20
13049.597564890801
 30
0.0
 11
14029.016406988911
 21
13046.397613890789
 31
0.0
  0
LINE
  5
2CC
  8
FUTO
 10
14012.016406988911
 20
13042.378326890799
 30
0.0
 11
14012.016406988911
 21
13072.37832689079
 31
0.0
  0
ARC
  5
2CD
  8
FUTO
 10
14037.60893598891
 20
13089.792877890801
 30
0.0
 40
8.2000299999999982
 50
287.31066900000002
 51
0.000000000000007
  0
LINE
  5
2CE
  8
FUTO
 10
13892.016406988911
 20
13042.378326890799
 30
0.0
 11
13892.016406988911
 21
13072.37832689079
 31
0.0
  0
LINE
  5
2CF
  8
FUTO
 10
13922.016406988911
 20
13042.378326890799
 30
0.0
 11
13922.016406988911
 21
13072.37832689079
 31
0.0
  0
LINE
  5
2D0
  8
FUTO
 10
13925.016406988911
 20
13042.378326890799
 30
0.0
 11
13925.016406988911
 21
13072.37832689079
 31
0.0
  0
ARC
  5
2D1
  8
FUTO
 10
13889.41496698891
 20
13082.378326890799
 30
0.0
 40
9.9999559999999992
 50
193.392303
 51
270.0
  0
LINE
  5
2D2
  8
CT
 10
13952.016406988911
 20
13086.46133489079
 30
0.0
 11
13952.016406988911
 21
13034.239898890801
 31
0.0
  0
LINE
  5
2D3
  8
FUTO
 10
13982.016406988911
 20
13042.378326890799
 30
0.0
 11
13982.016406988911
 21
13072.37832689079
 31
0.0
  0
LINE
  5
2D4
  8
FUTO
 10
13979.016406988911
 20
13042.378326890799
 30
0.0
 11
13979.016406988911
 21
13072.37832689079
 31
0.0
  0
LINE
  5
2D5
  8
FUTO
 10
13909.016406988911
 20
12936.87196230826
 30
0.0
 11
13962.21734009305
 21
12936.87196230826
 31
0.0
  0
LINE
  5
2D6
  8
FUTO
 10
13962.21734009305
 20
12944.32775773647
 30
0.0
 11
13971.09858023187
 21
12944.32775773647
 31
0.0
  0
LINE
  5
2D7
  8
FUTO
 10
13962.21734009305
 20
12930.12623282297
 30
0.0
 11
13962.21734009305
 21
12944.32775773647
 31
0.0
  0
LINE
  5
2D8
  8
FUTO
 10
13971.45383107523
 20
12930.12623282297
 30
0.0
 11
13962.21734009305
 21
12930.12623282297
 31
0.0
  0
LINE
  5
2D9
  8
FUTO
 10
13971.45383107523
 20
12943.97272476501
 30
0.0
 11
13971.45383107523
 21
12930.12623282297
 31
0.0
  0
LINE
  5
2DA
  8
FUTO
 10
13882.28593128216
 20
12953.558759232999
 30
0.0
 11
13882.28593128216
 21
12922.37832689079
 31
0.0
  0
LINE
  5
2DB
  8
FUTO
 10
13909.016406988911
 20
12953.558759232999
 30
0.0
 11
13882.28593128216
 21
12953.558759232999
 31
0.0
  0
LINE
  5
2DC
  8
FUTO
 10
14025.41032798891
 20
13281.25942989079
 30
0.0
 11
13900.80900998891
 21
13281.25942989079
 31
0.0
  0
ARC
  5
2DD
  8
FUTO
 10
14025.41032798891
 20
13271.259429890801
 30
0.0
 40
10.000075000000001
 50
13.392141000000001
 51
90.0
  0
ARC
  5
2DE
  8
FUTO
 10
14035.80827698891
 20
13227.585113890789
 30
0.0
 40
10.000731999999999
 50
0.0013990000000172
 51
13.392693
  0
LINE
  5
2DF
  8
FUTO
 10
14035.13847698891
 20
13273.575592890789
 30
0.0
 11
14045.53703698891
 21
13229.9015198908
 31
0.0
  0
LINE
  5
2E0
  8
FUTO
 10
13885.80900998891
 20
13307.240142890791
 30
0.0
 11
13880.266406988911
 21
13304.040191890799
 31
0.0
  0
ARC
  5
2E1
  8
FUTO
 10
13892.284106988909
 20
13279.22476189079
 30
0.0
 40
2.000008999999999
 50
287.31021099999992
 51
29.999931000000021
  0
LINE
  5
2E2
  8
FUTO
 10
13892.879199988911
 20
13277.315338890799
 30
0.0
 11
13874.77653898891
 21
13271.67349289079
 31
0.0
  0
ARC
  5
2E3
  8
FUTO
 10
13879.016406988911
 20
13126.05239889079
 30
0.0
 40
10.0
 50
180.0
 51
193.392303
  0
LINE
  5
2E4
  8
FUTO
 10
13869.016406988911
 20
13126.05239889079
 30
0.0
 11
13869.016406988911
 21
13263.844879890799
 31
0.0
  0
LINE
  5
2E5
  8
FUTO
 10
13642.766406988911
 20
13336.0252998908
 30
0.0
 11
13642.766406988911
 21
13386.128326890799
 31
0.0
  0
LINE
  5
2E6
  8
FUTO
 10
13655.266406988911
 20
13336.0252998908
 30
0.0
 11
13655.266406988911
 21
13386.128326890799
 31
0.0
  0
LINE
  5
2E7
  8
CT
 10
13649.016406988911
 20
13398.69741889079
 30
0.0
 11
13649.016406988911
 21
12918.67349289079
 31
0.0
  0
CIRCLE
  5
2E8
  8
FUTO
 10
13649.016406988911
 20
13122.378326890799
 30
0.0
 40
40.0
  0
LINE
  5
2E9
  8
FUTO
 10
13703.75444398891
 20
12926.37832689079
 30
0.0
 11
13594.27836998891
 21
12926.37832689079
 31
0.0
  0
LINE
  5
2EA
  8
CT
 10
13434.177295988909
 20
13122.378326890799
 30
0.0
 11
13863.00749598891
 21
13122.378326890799
 31
0.0
  0
LINE
  5
2EB
  8
CT
 10
13461.516406988911
 20
13122.378326890799
 30
0.0
 11
13849.05136433503
 21
13122.378326890799
 31
0.0
  0
CIRCLE
  5
2EC
  8
SL
 10
13649.016406988911
 20
13122.378326890799
 30
0.0
 40
106.0
  0
LINE
  5
2ED
  8
FUTO
 10
13565.678087410661
 20
12912.901982329189
 30
0.0
 11
13649.02918787644
 21
12912.901982329189
 31
0.0
  0
ARC
  5
2EE
  8
FUTO
 10
13649.016406988911
 20
13122.378326890799
 30
0.0
 40
203.5
 50
285.60376000000002
 51
254.3962709999999
  0
CIRCLE
  5
2EF
  8
FUTO
 10
13649.016406988911
 20
13122.378326890799
 30
0.0
 40
7.5
  0
LINE
  5
2F0
  8
CT
 10
13649.016406988911
 20
12909.878326890799
 30
0.0
 11
13649.016406988911
 21
13325.50133224134
 31
0.0
  0
LINE
  5
2F1
  8
FUTO
 10
13799.930469988911
 20
12985.860015890799
 30
0.0
 11
13804.728564988911
 21
12981.825592890789
 31
0.0
  0
LINE
  5
2F2
  8
FUTO
 10
13801.52519598891
 20
12979.910552890789
 30
0.0
 11
13797.93315498891
 21
12983.502593890789
 31
0.0
  0
LINE
  5
2F3
  8
FUTO
 10
13801.52519598891
 20
12979.06192089079
 30
0.0
 11
13801.52519598891
 21
12979.910552890789
 31
0.0
  0
LINE
  5
2F4
  8
FUTO
 10
13799.23784298891
 20
12977.622955890791
 30
0.0
 11
13800.08647498891
 21
12977.622955890791
 31
0.0
  0
LINE
  5
2F5
  8
FUTO
 10
13799.23784298891
 20
12977.622955890791
 30
0.0
 11
13799.23784298891
 21
12976.774566890799
 31
0.0
  0
ARC
  5
2F6
  8
FUTO
 10
13801.510791988911
 20
12977.998687890789
 30
0.0
 40
5.0000339999999994
 50
316.563965
 51
49.941891000000027
  0
LINE
  5
2F7
  8
FUTO
 10
13791.484180988909
 20
12969.8695378908
 30
0.0
 11
13787.89213998891
 21
12973.46157889079
 31
0.0
  0
LINE
  5
2F8
  8
FUTO
 10
13791.484180988909
 20
12969.8695378908
 30
0.0
 11
13792.332812988911
 21
12969.8695378908
 31
0.0
  0
LINE
  5
2F9
  8
FUTO
 10
13793.771533988909
 20
12972.156890890799
 30
0.0
 11
13793.771533988909
 21
12971.308258890789
 31
0.0
  0
LINE
  5
2FA
  8
FUTO
 10
13793.771533988909
 20
12972.156890890799
 30
0.0
 11
13790.179492988909
 21
12975.748931890799
 31
0.0
  0
LINE
  5
2FB
  8
FUTO
 10
13793.771533988909
 20
12972.156890890799
 30
0.0
 11
13794.620166988911
 21
12972.156890890799
 31
0.0
  0
LINE
  5
2FC
  8
FUTO
 10
13797.93315498891
 20
12983.502593890789
 30
0.0
 11
13787.89213998891
 21
12973.46157889079
 31
0.0
  0
LINE
  5
2FD
  8
CT
 10
13797.457324988911
 20
12973.93740889079
 30
0.0
 11
13792.20927798891
 21
12979.1854558908
 31
0.0
  0
LINE
  5
2FE
  8
FUTO
 10
13801.52519598891
 20
12979.06192089079
 30
0.0
 11
13792.332812988911
 21
12969.8695378908
 31
0.0
  0
LINE
  5
2FF
  8
FUTO
 10
13799.23784298891
 20
12977.622955890791
 30
0.0
 11
13795.645801988911
 21
12981.21524089079
 31
0.0
  0
LINE
  5
300
  8
FUTO
 10
13775.20268598891
 20
12942.378326890799
 30
0.0
 11
13770.681323988911
 21
12959.252838890799
 31
0.0
  0
LINE
  5
301
  8
FUTO
 10
13770.681201988909
 20
12959.252838890799
 30
0.0
 11
13775.20268598891
 21
12942.378326890799
 31
0.0
  0
ARC
  5
302
  8
FUTO
 10
13776.801074988911
 20
12955.731842890789
 30
0.0
 40
5.0
 50
195.00116
 51
307.48202500000008
  0
ARC
  5
303
  8
FUTO
 10
13649.016406988911
 20
13122.378326890799
 30
0.0
 40
214.9999849999999
 50
307.48104899999998
 51
316.565674
  0
ARC
  5
304
  8
FUTO
 10
13761.516406988911
 20
12939.378326890799
 30
0.0
 40
3.0
 50
90.0
 51
180.0
  0
LINE
  5
305
  8
FUTO
 10
13798.766406988911
 20
12934.378326890799
 30
0.0
 11
13798.766406988911
 21
12930.37832689079
 31
0.0
  0
LINE
  5
306
  8
FUTO
 10
13798.766406988911
 20
12926.37832689079
 30
0.0
 11
13798.766406988911
 21
12922.37832689079
 31
0.0
  0
LINE
  5
307
  8
FUTO
 10
13758.516406988911
 20
12939.378326890799
 30
0.0
 11
13758.516406988911
 21
12922.37832689079
 31
0.0
  0
LINE
  5
308
  8
FUTO
 10
13758.516406988911
 20
12927.37832689079
 30
0.0
 11
13752.841357988909
 21
12948.55850289079
 31
0.0
  0
LINE
  5
309
  8
CT
 10
13808.016406988911
 20
12946.802154890789
 30
0.0
 11
13808.016406988911
 21
12917.686431890799
 31
0.0
  0
LINE
  5
30A
  8
FUTO
 10
13798.766406988911
 20
12942.378326890799
 30
0.0
 11
13798.766406988911
 21
12938.378326890799
 31
0.0
  0
ARC
  5
30B
  8
FUTO
 10
13833.016406988911
 20
12996.7049868908
 30
0.0
 40
5.0
 50
0.000000000000007
 51
55.056338999999987
  0
ARC
  5
30C
  8
FUTO
 10
13835.016406988911
 20
12939.378326890799
 30
0.0
 40
3.0
 50
0.000000000000007
 51
90.0
  0
LINE
  5
30D
  8
FUTO
 10
13817.266406988911
 20
12934.378326890799
 30
0.0
 11
13817.266406988911
 21
12930.37832689079
 31
0.0
  0
LINE
  5
30E
  8
FUTO
 10
13817.266406988911
 20
12926.37832689079
 30
0.0
 11
13817.266406988911
 21
12922.37832689079
 31
0.0
  0
LINE
  5
30F
  8
FUTO
 10
13817.266406988911
 20
12942.378326890799
 30
0.0
 11
13817.266406988911
 21
12938.378326890799
 31
0.0
  0
LINE
  5
310
  8
FUTO
 10
13838.016406988911
 20
12996.7049868908
 30
0.0
 11
13838.016406988911
 21
12922.37832689079
 31
0.0
  0
LINE
  5
311
  8
FUTO
 10
13838.016406988911
 20
12922.37832689079
 30
0.0
 11
13758.516406988911
 21
12922.37832689079
 31
0.0
  0
LINE
  5
312
  8
FUTO
 10
13761.516406988911
 20
12942.378326890799
 30
0.0
 11
13835.016406988911
 21
12942.378326890799
 31
0.0
  0
LINE
  5
313
  8
FUTO
 10
13835.88029898891
 20
13000.80361989079
 30
0.0
 11
13819.94243298891
 21
13011.940093890789
 31
0.0
  0
LINE
  5
314
  8
FUTO
 10
13732.35472656716
 20
12922.37832689079
 30
0.0
 11
13732.35472656716
 21
12912.901982329189
 31
0.0
  0
LINE
  5
315
  8
FUTO
 10
13732.35472656716
 20
12912.901982329189
 30
0.0
 11
13649.003626101379
 21
12912.901982329189
 31
0.0
  0
LINE
  5
316
  8
FUTO
 10
13792.332812988911
 20
13274.88711589079
 30
0.0
 11
13791.484302988911
 21
13274.88711589079
 31
0.0
  0
LINE
  5
317
  8
FUTO
 10
13793.77165598891
 20
13272.59976189079
 30
0.0
 11
13793.77165598891
 21
13273.4483948908
 31
0.0
  0
LINE
  5
318
  8
FUTO
 10
13793.77165598891
 20
13272.59976189079
 30
0.0
 11
13794.620166988911
 21
13272.59976189079
 31
0.0
  0
LINE
  5
319
  8
FUTO
 10
13791.484302988911
 20
13274.88711589079
 30
0.0
 11
13787.89213998891
 21
13271.29507489079
 31
0.0
  0
LINE
  5
31A
  8
FUTO
 10
13801.52519598891
 20
13264.84609989079
 30
0.0
 11
13801.52519598891
 21
13265.694732890801
 31
0.0
  0
LINE
  5
31B
  8
FUTO
 10
13799.23784298891
 20
13267.1334538908
 30
0.0
 11
13800.08647498891
 21
13267.1334538908
 31
0.0
  0
LINE
  5
31C
  8
FUTO
 10
13799.23784298891
 20
13267.1334538908
 30
0.0
 11
13799.23784298891
 21
13267.98208689079
 31
0.0
  0
LINE
  5
31D
  8
FUTO
 10
13799.23784298891
 20
13267.1334538908
 30
0.0
 11
13795.645801988911
 21
13263.5414128908
 31
0.0
  0
LINE
  5
31E
  8
FUTO
 10
13793.77165598891
 20
13272.59976189079
 30
0.0
 11
13790.179492988909
 21
13269.00772089079
 31
0.0
  0
LINE
  5
31F
  8
FUTO
 10
13797.45744698891
 20
13270.81924489079
 30
0.0
 11
13792.20927798891
 21
13265.571197890789
 31
0.0
  0
LINE
  5
320
  8
FUTO
 10
13792.332812988911
 20
13274.88711589079
 30
0.0
 11
13801.52519598891
 21
13265.694732890801
 31
0.0
  0
LINE
  5
321
  8
FUTO
 10
13859.016406988911
 20
13137.378326890799
 30
0.0
 11
13859.016406988911
 21
13257.378326890799
 31
0.0
  0
LINE
  5
322
  8
FUTO
 10
13801.52519598891
 20
13264.84609989079
 30
0.0
 11
13797.93315498891
 21
13261.2540588908
 31
0.0
  0
LINE
  5
323
  8
FUTO
 10
13787.89213998891
 20
13271.29507489079
 30
0.0
 11
13797.93315498891
 21
13261.2540588908
 31
0.0
  0
ARC
  5
324
  8
FUTO
 10
13662.016406988911
 20
13341.568267890791
 30
0.0
 40
2.0
 50
0.000000000000007
 51
84.289063000000013
  0
LINE
  5
325
  8
FUTO
 10
13655.473498988909
 20
13344.23257489079
 30
0.0
 11
13662.215442988911
 21
13343.55850289079
 31
0.0
  0
ARC
  5
326
  8
FUTO
 10
13636.016406988911
 20
13341.568267890791
 30
0.0
 40
2.0001619999999991
 50
95.710937999999985
 51
180.0
  0
LINE
  5
327
  8
FUTO
 10
13642.91630898891
 20
13344.268218890789
 30
0.0
 11
13635.817370988911
 21
13343.55850289079
 31
0.0
  0
ARC
  5
328
  8
FUTO
 10
13649.016406988911
 20
13122.378326890799
 30
0.0
 40
210.0001069999999
 50
86.232985999999997
 51
86.266968000000006
  0
ARC
  5
329
  8
FUTO
 10
13662.616138988909
 20
13328.9310608908
 30
0.0
 40
2.999933
 50
357.44390900000002
 51
86.232291999999973
  0
ARC
  5
32A
  8
FUTO
 10
13662.493701988909
 20
13328.93911789079
 30
0.0
 40
3.0000169999999988
 50
86.267189000000045
 51
175.056107
  0
LINE
  5
32B
  8
FUTO
 10
13665.613086988909
 20
13328.797271890789
 30
0.0
 11
13665.45317498891
 21
13325.213531890789
 31
0.0
  0
LINE
  5
32C
  8
FUTO
 10
13659.50480998891
 20
13329.197662890791
 30
0.0
 11
13659.19572798891
 21
13325.623687890789
 31
0.0
  0
LINE
  5
32D
  8
FUTO
 10
13638.528125988911
 20
13329.197662890791
 30
0.0
 11
13638.83720798891
 21
13325.623687890789
 31
0.0
  0
ARC
  5
32E
  8
FUTO
 10
13649.016406988911
 20
13122.378326890799
 30
0.0
 40
210.0
 50
93.732971000000006
 51
93.766974999999974
  0
ARC
  5
32F
  8
FUTO
 10
13635.41679798891
 20
13328.9310608908
 30
0.0
 40
3.0001370000000001
 50
93.767708000000013
 51
182.555984
  0
LINE
  5
330
  8
FUTO
 10
13632.41972698891
 20
13328.797271890789
 30
0.0
 11
13632.579761988911
 21
13325.213531890789
 31
0.0
  0
ARC
  5
331
  8
FUTO
 10
13635.539233988909
 20
13328.93911789079
 30
0.0
 40
3.000052999999999
 50
4.9438900000000174
 51
93.732811000000027
  0
LINE
  5
332
  8
FUTO
 10
13636.516406988911
 20
13332.37832689079
 30
0.0
 11
13661.516406988911
 21
13332.37832689079
 31
0.0
  0
LINE
  5
333
  8
FUTO
 10
13634.016406988911
 20
13332.37832689079
 30
0.0
 11
13664.016406988911
 21
13332.37832689079
 31
0.0
  0
LINE
  5
334
  8
FUTO
 10
13634.016406988911
 20
13332.37832689079
 30
0.0
 11
13634.016406988911
 21
13341.568267890791
 31
0.0
  0
LINE
  5
335
  8
FUTO
 10
13664.016406988911
 20
13332.37832689079
 30
0.0
 11
13664.016406988911
 21
13341.568267890791
 31
0.0
  0
ARC
  5
336
  8
FUTO
 10
13640.766406988911
 20
13336.0252998908
 30
0.0
 40
2.0
 50
270.0
 51
0.000000000000007
  0
ARC
  5
337
  8
FUTO
 10
13657.266406988911
 20
13336.0252998908
 30
0.0
 40
2.0
 50
180.0
 51
270.0
  0
LINE
  5
338
  8
FUTO
 10
13460.016406988911
 20
12922.37832689079
 30
0.0
 11
13539.516406988911
 21
12922.37832689079
 31
0.0
  0
LINE
  5
339
  8
FUTO
 10
13536.516406988911
 20
12942.378326890799
 30
0.0
 11
13463.016406988911
 21
12942.378326890799
 31
0.0
  0
LINE
  5
33A
  8
FUTO
 10
13510.14067498891
 20
12973.46157889079
 30
0.0
 11
13500.099658988909
 21
12983.502593890789
 31
0.0
  0
LINE
  5
33B
  8
FUTO
 10
13506.54863398891
 20
12969.8695378908
 30
0.0
 11
13510.14067498891
 21
12973.46157889079
 31
0.0
  0
ARC
  5
33C
  8
FUTO
 10
13649.016406988911
 20
13122.378326890799
 30
0.0
 40
214.9999849999999
 50
223.43432599999991
 51
232.51896699999989
  0
LINE
  5
33D
  8
FUTO
 10
13399.02474289935
 20
12922.37832689079
 30
0.0
 11
13565.678087410661
 21
12922.37832689079
 31
0.0
  0
LINE
  5
33E
  8
FUTO
 10
13487.016406988911
 20
12922.37832689079
 30
0.0
 11
13547.016406988911
 21
12922.37832689079
 31
0.0
  0
LINE
  5
33F
  8
FUTO
 10
13527.35161198891
 20
12959.252838890799
 30
0.0
 11
13522.830127988909
 21
12942.378326890799
 31
0.0
  0
ARC
  5
340
  8
FUTO
 10
13521.23173898891
 20
12955.731842890789
 30
0.0
 40
5.0
 50
232.51852400000001
 51
344.99902300000002
  0
ARC
  5
341
  8
FUTO
 10
13536.516406988911
 20
12939.378326890799
 30
0.0
 40
3.0
 50
0.000000000000007
 51
90.0
  0
LINE
  5
342
  8
FUTO
 10
13539.516406988911
 20
12939.378326890799
 30
0.0
 11
13539.516406988911
 21
12922.37832689079
 31
0.0
  0
LINE
  5
343
  8
FUTO
 10
13539.516406988911
 20
12927.37832689079
 30
0.0
 11
13545.191699988911
 21
12948.55850289079
 31
0.0
  0
LINE
  5
344
  8
FUTO
 10
13565.678087410661
 20
12922.37832689079
 30
0.0
 11
13565.678087410661
 21
12912.901982329189
 31
0.0
  0
LINE
  5
345
  8
FUTO
 10
13480.766406988911
 20
12934.378326890799
 30
0.0
 11
13480.766406988911
 21
12930.37832689079
 31
0.0
  0
LINE
  5
346
  8
FUTO
 10
13480.766406988911
 20
12926.37832689079
 30
0.0
 11
13480.766406988911
 21
12922.37832689079
 31
0.0
  0
LINE
  5
347
  8
FUTO
 10
13480.766406988911
 20
12942.378326890799
 30
0.0
 11
13480.766406988911
 21
12938.378326890799
 31
0.0
  0
ARC
  5
348
  8
FUTO
 10
13465.016406988911
 20
12996.7049868908
 30
0.0
 40
5.0000669999999987
 50
124.943665
 51
180.0
  0
ARC
  5
349
  8
FUTO
 10
13463.016406988911
 20
12939.378326890799
 30
0.0
 40
3.0
 50
90.0
 51
180.0
  0
LINE
  5
34A
  8
FUTO
 10
13460.016406988911
 20
12996.7049868908
 30
0.0
 11
13460.016406988911
 21
12922.37832689079
 31
0.0
  0
LINE
  5
34B
  8
FUTO
 10
13496.507617988909
 20
12979.910552890789
 30
0.0
 11
13500.099658988909
 21
12983.502593890789
 31
0.0
  0
LINE
  5
34C
  8
FUTO
 10
13496.507617988909
 20
12979.910552890789
 30
0.0
 11
13496.507617988909
 21
12979.06192089079
 31
0.0
  0
LINE
  5
34D
  8
FUTO
 10
13498.794971988909
 20
12977.62319989079
 30
0.0
 11
13497.94633898891
 21
12977.62319989079
 31
0.0
  0
LINE
  5
34E
  8
FUTO
 10
13498.794971988909
 20
12977.62319989079
 30
0.0
 11
13502.387012988909
 21
12981.21524089079
 31
0.0
  0
LINE
  5
34F
  8
FUTO
 10
13498.794971988909
 20
12977.62319989079
 30
0.0
 11
13498.794971988909
 21
12976.774566890799
 31
0.0
  0
LINE
  5
350
  8
FUTO
 10
13498.10258898891
 20
12985.860015890799
 30
0.0
 11
13493.30437098891
 21
12981.825592890789
 31
0.0
  0
LINE
  5
351
  8
FUTO
 10
13505.700000988911
 20
12969.8695378908
 30
0.0
 11
13506.54863398891
 21
12969.8695378908
 31
0.0
  0
LINE
  5
352
  8
FUTO
 10
13504.261035988909
 20
12972.156890890799
 30
0.0
 11
13504.261035988909
 21
12971.308258890789
 31
0.0
  0
LINE
  5
353
  8
FUTO
 10
13504.261035988909
 20
12972.156890890799
 30
0.0
 11
13507.85332098891
 21
12975.748931890799
 31
0.0
  0
LINE
  5
354
  8
FUTO
 10
13504.261035988909
 20
12972.156890890799
 30
0.0
 11
13503.412646988911
 21
12972.156890890799
 31
0.0
  0
ARC
  5
355
  8
FUTO
 10
13496.52226598891
 20
12977.998687890789
 30
0.0
 40
5.0000049999999998
 50
130.05917400000001
 51
223.43505899999991
  0
LINE
  5
356
  8
CT
 10
13500.57548898891
 20
12973.93740889079
 30
0.0
 11
13505.823535988909
 21
12979.1854558908
 31
0.0
  0
LINE
  5
357
  8
FUTO
 10
13505.700000988911
 20
12969.8695378908
 30
0.0
 11
13496.507617988909
 21
12979.06192089079
 31
0.0
  0
LINE
  5
358
  8
FUTO
 10
13499.266406988911
 20
12934.378326890799
 30
0.0
 11
13499.266406988911
 21
12930.37832689079
 31
0.0
  0
LINE
  5
359
  8
FUTO
 10
13499.266406988911
 20
12926.37832689079
 30
0.0
 11
13499.266406988911
 21
12922.37832689079
 31
0.0
  0
LINE
  5
35A
  8
CT
 10
13490.016406988911
 20
12946.802154890789
 30
0.0
 11
13490.016406988911
 21
12917.686431890799
 31
0.0
  0
LINE
  5
35B
  8
FUTO
 10
13499.266406988911
 20
12942.378326890799
 30
0.0
 11
13499.266406988911
 21
12938.378326890799
 31
0.0
  0
LINE
  5
35C
  8
FUTO
 10
13389.016406988911
 20
12953.558759232999
 30
0.0
 11
13415.746882695659
 21
12953.558759232999
 31
0.0
  0
LINE
  5
35D
  8
FUTO
 10
13450.56143439978
 20
12936.87196230826
 30
0.0
 11
13415.746882695659
 21
12936.87196230826
 31
0.0
  0
LINE
  5
35E
  8
FUTO
 10
13415.746882695659
 20
12953.558759232999
 30
0.0
 11
13415.746882695659
 21
12922.37832689079
 31
0.0
  0
LINE
  5
35F
  8
FUTO
 10
13462.152637988909
 20
13000.80361989079
 30
0.0
 11
13478.090503988909
 21
13011.940093890789
 31
0.0
  0
LINE
  5
360
  8
FUTO
 10
13506.54863398891
 20
13274.88711589079
 30
0.0
 11
13510.14067498891
 21
13271.29507489079
 31
0.0
  0
LINE
  5
361
  8
FUTO
 10
13500.099658988909
 20
13261.2540588908
 30
0.0
 11
13510.14067498891
 21
13271.29507489079
 31
0.0
  0
ARC
  5
362
  8
FUTO
 10
13649.016406988911
 20
13122.378326890799
 30
0.0
 40
210.00004599999991
 50
131.23298600000001
 51
131.26696799999991
  0
ARC
  5
363
  8
FUTO
 10
13512.48576698891
 20
13277.96865889079
 30
0.0
 40
2.9999169999999991
 50
131.26663199999999
 51
220.05661000000001
  0
ARC
  5
364
  8
FUTO
 10
13512.577930988909
 20
13278.049713890799
 30
0.0
 40
2.999909999999999
 50
42.440556000000022
 51
131.23197899999991
  0
LINE
  5
365
  8
FUTO
 10
13510.189502988909
 20
13276.03799489079
 30
0.0
 11
13512.498218988911
 21
13273.2921448908
 31
0.0
  0
LINE
  5
366
  8
FUTO
 10
13514.79179798891
 20
13280.07412789079
 30
0.0
 11
13517.212939988911
 21
13277.42691089079
 31
0.0
  0
LINE
  5
367
  8
FUTO
 10
13506.54863398891
 20
13274.88711589079
 30
0.0
 11
13505.700000988911
 21
13274.88711589079
 31
0.0
  0
LINE
  5
368
  8
FUTO
 10
13504.26127998891
 20
13272.59976189079
 30
0.0
 11
13504.26127998891
 21
13273.4483948908
 31
0.0
  0
LINE
  5
369
  8
FUTO
 10
13504.26127998891
 20
13272.59976189079
 30
0.0
 11
13503.412646988911
 21
13272.59976189079
 31
0.0
  0
LINE
  5
36A
  8
FUTO
 10
13496.507617988909
 20
13265.694732890801
 30
0.0
 11
13496.507617988909
 21
13264.84609989079
 31
0.0
  0
LINE
  5
36B
  8
FUTO
 10
13498.794971988909
 20
13267.133697890789
 30
0.0
 11
13497.94633898891
 21
13267.133697890789
 31
0.0
  0
LINE
  5
36C
  8
FUTO
 10
13498.794971988909
 20
13267.133697890789
 30
0.0
 11
13502.387012988909
 21
13263.5414128908
 31
0.0
  0
LINE
  5
36D
  8
FUTO
 10
13498.794971988909
 20
13267.133697890789
 30
0.0
 11
13498.794971988909
 21
13267.98208689079
 31
0.0
  0
LINE
  5
36E
  8
FUTO
 10
13500.57548898891
 20
13270.81924489079
 30
0.0
 11
13505.823535988909
 21
13265.571197890789
 31
0.0
  0
LINE
  5
36F
  8
FUTO
 10
13496.507617988909
 20
13265.694732890801
 30
0.0
 11
13505.700000988911
 21
13274.88711589079
 31
0.0
  0
LINE
  5
370
  8
FUTO
 10
13504.26127998891
 20
13272.59976189079
 30
0.0
 11
13507.85332098891
 21
13269.00772089079
 31
0.0
  0
ARC
  5
371
  8
FUTO
 10
13649.016406988911
 20
13122.378326890799
 30
0.0
 40
210.0
 50
138.73297099999991
 51
138.76696799999991
  0
ARC
  5
372
  8
FUTO
 10
13493.426074988911
 20
13258.909088890799
 30
0.0
 40
2.9999560000000001
 50
49.941890999999998
 51
138.7316129999999
  0
LINE
  5
373
  8
FUTO
 10
13491.320605988911
 20
13256.602935890791
 30
0.0
 11
13493.96794498891
 21
13254.1820378908
 31
0.0
  0
ARC
  5
374
  8
FUTO
 10
13493.34526498891
 20
13258.816802890789
 30
0.0
 40
2.9999500000000001
 50
138.768021
 51
227.55600000000001
  0
LINE
  5
375
  8
FUTO
 10
13495.35673898891
 20
13261.205230890801
 30
0.0
 11
13498.10258898891
 21
13258.8966368908
 31
0.0
  0
LINE
  5
376
  8
FUTO
 10
13496.507617988909
 20
13264.84609989079
 30
0.0
 11
13500.099658988909
 21
13261.2540588908
 31
0.0
  0
ARC
  5
377
  8
FUTO
 10
13649.016406988911
 20
13386.128326890799
 30
0.0
 40
6.25
 50
90.0
 51
180.0
  0
ARC
  5
378
  8
FUTO
 10
13649.016406988911
 20
13386.128326890799
 30
0.0
 40
6.25
 50
0.000000000000007
 51
90.0
  0
ARC
  5
396
  8
KL
 10
12551.016406988911
 20
13850.37832689079
 30
0.0
 40
1105.0
 50
179.1444203645697
 51
270.0
  0
ARC
  5
397
  8
FUTO
 10
12449.016406988911
 20
13952.378326890799
 30
0.0
 40
95.000000000003084
 50
249.05612602761781
 51
270.0
  0
LINE
  5
398
  8
FUTO
 10
12359.016406988911
 20
13855.37832689079
 30
0.0
 11
12449.016406988911
 21
13855.37832689079
 31
0.0
  0
LINE
  5
399
  8
KL
 10
12147.48290738534
 20
13846.378326890799
 30
0.0
 11
12449.016406988911
 21
13846.378326890799
 31
0.0
  0
LINE
  5
39A
  8
FUTO
 10
12249.016406988911
 20
13852.37832689079
 30
0.0
 11
12649.016406988911
 21
13852.37832689079
 31
0.0
  0
DIMENSION
  5
39B
  8
FUTO
  2
*D3
 10
11599.016406988911
 20
12208.07846692577
 30
0.0
 11
12024.016406988911
 21
12268.07846692577
 31
0.0
 70
     0
 13
12449.016406988911
 23
12420.296175847039
 33
0.0
 14
11599.016406988911
 24
12372.378326890799
 34
0.0
 50
180.0
1001
ACAD
1000
DSTYLE
1002
{
1070
    40
1040
30.0
1070
   176
1070
     2
1070
   177
1070
     2
1070
   178
1070
     2
1070
   341
1005
44D5
1070
     5
1000
OPEN30
1002
}
  0
LINE
  5
3AA
  8
KL
 10
12750.549906592491
 20
13846.378326890799
 30
0.0
 11
12861.118531327489
 21
13298.177363393581
 31
0.0
  0
LINE
  5
3B5
  8
FUTO
 10
13326.578982902591
 20
12943.97272476501
 30
0.0
 11
13326.578982902591
 21
12930.12623282297
 31
0.0
  0
LINE
  5
3B6
  8
FUTO
 10
13326.578982902591
 20
12930.12623282297
 30
0.0
 11
13335.81547388477
 21
12930.12623282297
 31
0.0
  0
LINE
  5
3B7
  8
FUTO
 10
13335.81547388477
 20
12930.12623282297
 30
0.0
 11
13335.81547388477
 21
12944.32775773647
 31
0.0
  0
LINE
  5
3B8
  8
FUTO
 10
13335.81547388477
 20
12944.32775773647
 30
0.0
 11
13326.934233745949
 21
12944.32775773647
 31
0.0
  0
LINE
  5
3BA
  8
KL
 10
12750.549906592491
 20
13846.378326890799
 30
0.0
 11
12449.016406988911
 21
13846.378326890799
 31
0.0
  0
LINE
  5
3BD
  8
FUTO
 10
12629.016406988911
 20
13852.37832689079
 30
0.0
 11
12539.016406988911
 21
13852.37832689079
 31
0.0
  0
LINE
  5
3BF
  8
FUTO
 10
12649.016406988911
 20
13852.37832689079
 30
0.0
 11
12649.016406988911
 21
13846.378326890799
 31
0.0
  0
ARC
  5
3C0
  8
FUTO
 10
12626.016406988911
 20
13883.378326890799
 30
0.0
 40
2.9999999999999991
 50
0.000000000000007
 51
90.0
  0
LINE
  5
3C1
  8
FUTO
 10
12629.016406988911
 20
13883.378326890799
 30
0.0
 11
12629.016406988911
 21
13852.37832689079
 31
0.0
  0
LINE
  5
3C2
  8
FUTO
 10
12560.016406988911
 20
13886.378326890799
 30
0.0
 11
12626.016406988911
 21
13886.378326890799
 31
0.0
  0
ARC
  5
3C3
  8
FUTO
 10
12449.016406988911
 20
13952.37832689079
 30
0.0
 40
94.999999999998295
 50
270.0
 51
290.94387397238302
  0
LINE
  5
3C4
  8
FUTO
 10
12539.016406988911
 20
13852.37832689079
 30
0.0
 11
12539.016406988911
 21
13855.37832689079
 31
0.0
  0
ARC
  5
3C5
  8
FUTO
 10
12496.516406988911
 20
13870.10591353127
 30
0.0
 40
14.999999999999909
 50
300.0000000000008
 51
34.528063013809827
  0
LINE
  5
3C6
  8
FUTO
 10
12539.016406988911
 20
13855.37832689079
 30
0.0
 11
12449.016406988911
 21
13855.37832689079
 31
0.0
  0
ARC
  5
3C7
  8
FUTO
 10
12496.516406988911
 20
13870.10591353127
 30
0.0
 40
15.000000000000419
 50
205.4719369861869
 51
300.00000000000011
  0
LINE
  5
3CB
  8
KL
 10
12147.482907385331
 20
13846.378326890799
 30
0.0
 11
12127.88579069275
 21
13749.21551711191
 31
0.0
  0
LINE
  5
3CF
  8
FUTO
 10
11949.016406988911
 20
12597.378326890799
 30
0.0
 11
11949.016406988911
 21
12447.37832689079
 31
0.0
  0
LINE
  5
3D0
  8
FUTO
 10
11949.016406988911
 20
12862.37832689079
 30
0.0
 11
11949.016406988911
 21
12712.37832689079
 31
0.0
  0
LINE
  5
3D1
  8
FUTO
 10
11841.74825633494
 20
12712.37832689079
 30
0.0
 11
11841.74825633494
 21
12597.37832689079
 31
0.0
  0
LINE
  5
3D2
  8
FUTO
 10
11801.74825633494
 20
12748.7897557744
 30
0.0
 11
11801.74825633494
 21
12553.96482181073
 31
0.0
1001
ACAD
1000
ASC_BOUNDS
1002
{
1070
    19
1005
0
1005
0
1005
0
1002
}
  0
POINT
  5
3D3
  8
DEFPOINTS
  6
BYBLOCK
 62
     0
 10
11599.016406988911
 20
12447.37832689079
 30
0.0
  0
LINE
  5
3D4
  8
FUTO
 10
11761.74825633494
 20
12712.37832689079
 30
0.0
 11
11761.74825633494
 21
12597.37832689079
 31
0.0
  0
LINE
  5
3D5
  8
FUTO
 10
11599.016406988911
 20
12597.378326890799
 30
0.0
 11
11599.016406988911
 21
12447.37832689079
 31
0.0
  0
POINT
  5
3D6
  8
DEFPOINTS
  6
BYBLOCK
 62
     0
 10
11599.016406988911
 20
12712.378326890799
 30
0.0
  0
POINT
  5
3D7
  8
DEFPOINTS
  6
BYBLOCK
 62
     0
 10
11599.016406988911
 20
12597.378326890799
 30
0.0
  0
POINT
  5
3D8
  8
DEFPOINTS
  6
BYBLOCK
 62
     0
 10
11599.016406988911
 20
12597.378326890799
 30
0.0
  0
LINE
  5
3D9
  8
FUTO
 10
11599.016406988911
 20
12862.37832689079
 30
0.0
 11
11599.016406988911
 21
12712.378326890799
 31
0.0
  0
LINE
  5
3DD
  8
FUTO
 10
12338.016406988911
 20
13886.378326890799
 30
0.0
 11
12272.016406988911
 21
13886.378326890799
 31
0.0
  0
LINE
  5
3DE
  8
FUTO
 10
12269.016406988911
 20
13852.37832689079
 30
0.0
 11
12359.016406988911
 21
13852.37832689079
 31
0.0
  0
LINE
  5
3E0
  8
FUTO
 10
12359.016406988911
 20
13852.37832689079
 30
0.0
 11
12359.016406988911
 21
13855.37832689079
 31
0.0
  0
ARC
  5
3E1
  8
FUTO
 10
12401.516406988911
 20
13870.10591353127
 30
0.0
 40
14.99999999999998
 50
145.47193698619191
 51
240.0000000000006
  0
ARC
  5
3E2
  8
FUTO
 10
12401.516406988911
 20
13870.10591353127
 30
0.0
 40
14.99999999999978
 50
239.99999999999989
 51
334.52806301381321
  0
LINE
  5
3E3
  8
FUTO
 10
12249.016406988911
 20
13852.37832689079
 30
0.0
 11
12249.016406988911
 21
13846.378326890799
 31
0.0
  0
ARC
  5
3E5
  8
FUTO
 10
12272.016406988911
 20
13883.378326890799
 30
0.0
 40
2.9999999999999991
 50
90.0
 51
180.0
  0
LINE
  5
3E6
  8
FUTO
 10
12269.016406988911
 20
13883.378326890799
 30
0.0
 11
12269.016406988911
 21
13852.37832689079
 31
0.0
  0
LINE
  5
405
  8
SL
 10
14987.175393912201
 20
13872.37832689079
 30
0.0
 11
15009.275393912199
 21
13872.37832689079
 31
0.0
  0
LINE
  5
406
  8
CT
 10
14762.31866439148
 20
13122.378326890799
 30
0.0
 11
15065.13734750293
 21
13122.378326890799
 31
0.0
  0
LINE
  5
407
  8
FUTO
 10
14799.275393912199
 20
12902.378326890799
 30
0.0
 11
15054.275393912199
 21
12902.378326890799
 31
0.0
  0
LINE
  5
408
  8
SL
 10
14987.17539391219
 20
13062.378326890799
 30
0.0
 11
15002.275393912199
 21
13062.378326890799
 31
0.0
  0
LINE
  5
409
  8
SL
 10
14987.175393912201
 20
13182.378326890799
 30
0.0
 11
15002.275393912199
 21
13182.378326890799
 31
0.0
  0
LINE
  5
40D
  8
FUTO
 10
15026.275393912199
 20
12712.378326890799
 30
0.0
 11
15026.275393912199
 21
12597.378326890799
 31
0.0
1001
ACAD
1000
ASC_BOUNDS
1002
{
1070
    19
1005
3975
1002
}
  0
LINE
  5
40E
  8
SL
 10
14909.275393912199
 20
13016.378326890799
 30
0.0
 11
14987.17539391219
 21
13016.378326890799
 31
0.0
  0
LINE
  5
40F
  8
SL
 10
14909.275393912199
 20
13228.378326890799
 30
0.0
 11
14987.17539391219
 21
13228.378326890799
 31
0.0
  0
LINE
  5
410
  8
SL
 10
14909.275393912199
 20
13702.378326890799
 30
0.0
 11
14987.175393912201
 21
13702.378326890799
 31
0.0
  0
LINE
  5
415
  8
CT
 10
15066.275393912199
 20
12732.27050348979
 30
0.0
 11
15066.275393912199
 21
12580.486833548021
 31
0.0
1001
ACAD
1000
ASC_BOUNDS
1002
{
1070
    19
1005
0
1005
3975
1005
3975
1002
}
  0
LINE
  5
41A
  8
SL
 10
15002.275393912199
 20
13182.378326890799
 30
0.0
 11
15002.275393912199
 21
13062.378326890799
 31
0.0
  0
LINE
  5
41B
  8
FUTO
 10
15054.275393912199
 20
13069.43575316659
 30
0.0
 11
15054.275393912199
 21
12902.378326890799
 31
0.0
  0
LINE
  5
42E
  8
FUTO
 10
11396.016406988911
 20
13961.378326890799
 30
0.0
 11
12249.016406988911
 21
13961.37832689079
 31
0.0
  0
LINE
  5
42F
  8
FUTO
 10
11396.016406988911
 20
13943.378326890799
 30
0.0
 11
12249.016406988911
 21
13943.37832689079
 31
0.0
  0
LINE
  5
430
  8
FUTO
 10
12436.016406988911
 20
14882.37832689079
 30
0.0
 11
13994.016406988911
 21
14882.37832689079
 31
0.0
  0
LINE
  5
431
  8
HOSO
 10
12490.016406988911
 20
14882.37832689079
 30
0.0
 11
13940.016406988911
 21
14882.37832689079
 31
0.0
  0
LINE
  5
44C
  8
FUTO
 10
12436.016406988911
 20
14832.37832689079
 30
0.0
 11
13994.016406988911
 21
14832.37832689079
 31
0.0
  0
LINE
  5
44D
  8
FUTO
 10
12436.016406988911
 20
14878.37832689079
 30
0.0
 11
13994.016406988911
 21
14878.37832689079
 31
0.0
  0
LINE
  5
44E
  8
CT
 10
11271.012428341581
 20
13952.37832689079
 30
0.0
 11
13979.10598607688
 21
13952.37832689079
 31
0.0
  0
LINE
  5
478
  8
FUTO
 10
11599.016406988911
 20
17036.767023084711
 30
0.0
 11
13999.016406988911
 21
17036.767023084711
 31
0.0
  0
LINE
  5
479
  8
FUTO
 10
11599.016406988911
 20
17111.767023084711
 30
0.0
 11
13940.016406988911
 21
17111.7670230847
 31
0.0
  0
LINE
  5
47A
  8
FUTO
 10
11949.016406988911
 20
16133.767023084711
 30
0.0
 11
13999.016406988911
 21
16133.767023084711
 31
0.0
  0
LINE
  5
488
  8
FUTO
 10
11949.016406988911
 20
16060.767023084711
 30
0.0
 11
13999.016406988911
 21
16060.767023084711
 31
0.0
  0
LINE
  5
489
  8
FUTO
 10
11949.016406988911
 20
16060.767023084711
 30
0.0
 11
13999.016406988911
 21
16060.767023084711
 31
0.0
  0
LINE
  5
4A3
  8
FUTO
 10
13999.016406988911
 20
17111.767023084711
 30
0.0
 11
13999.016406988911
 21
17036.767023084711
 31
0.0
  0
LINE
  5
4A4
  8
FUTO
 10
13784.016406988911
 20
17036.767023084711
 30
0.0
 11
13784.016406988911
 21
16737.267023084711
 31
0.0
  0
LINE
  5
4A5
  8
CT
 10
13649.016406988911
 20
16876.351512284629
 30
0.0
 11
13649.016406988911
 21
15700.63519116669
 31
0.0
  0
LINE
  5
4AD
  8
KL
 10
13940.016406988911
 20
14882.37832689079
 30
0.0
 11
13854.723625201141
 21
13936.783730155539
 31
0.0
  0
LINE
  5
4AE
  8
FUTO
 10
13955.58759496705
 20
14832.378326890799
 30
0.0
 11
13877.02325757168
 21
13961.37832689079
 31
0.0
  0
LINE
  5
4AF
  8
FUTO
 10
13875.39965473228
 20
13943.37832689079
 30
0.0
 11
13874.642757641361
 21
13934.987021267299
 31
0.0
  0
LINE
  5
4B0
  8
FUTO
 10
13907.145051369709
 20
13961.37832689079
 30
0.0
 11
13907.145051369709
 21
13943.378326890799
 31
0.0
  0
LINE
  5
4B2
  8
FUTO
 10
13994.016406988911
 20
14882.37832689079
 30
0.0
 11
13994.016406988911
 21
14832.37832689079
 31
0.0
  0
LINE
  5
51D
  8
CT
 10
12449.016406988911
 20
18562.63960073431
 30
0.0
 11
12449.016406988911
 21
15736.90693514496
 31
0.0
  0
LINE
  5
52A
  8
FUTO
 10
11949.016406988911
 20
17036.767023084711
 30
0.0
 11
11949.016406988911
 21
16060.767023084711
 31
0.0
  0
LINE
  5
52C
  8
FUTO
 10
12024.016406988911
 20
17036.767023084711
 30
0.0
 11
12024.016406988911
 21
16127.767023084711
 31
0.0
  0
ARC
  5
559
  8
FUTO
 10
12363.516406988911
 20
13866.87832689079
 30
0.0
 40
937.5
 50
90.0
 51
174.2147601162512
  0
ARC
  5
577
  8
FUTO
 10
12363.516406988911
 20
14037.578326890791
 30
0.0
 40
766.5
 50
82.013298782178524
 51
90.0
  0
CIRCLE
  5
578
  8
FUTO
 10
12449.016406988911
 20
13952.37832689079
 30
0.0
 40
36.5
  0
ARC
  5
579
  8
FUTO
 10
12449.016406988911
 20
13952.378326890799
 30
0.0
 40
94.999999999998053
 50
90.0
 51
110.94387397238231
  0
ARC
  5
585
  8
KL
 10
12363.516406988911
 20
14037.578326890791
 30
0.0
 40
746.49999999999989
 50
54.121502257414733
 51
90.0
  0
ARC
  5
587
  8
FUTO
 10
12544.016406988911
 20
13952.37832689079
 30
0.0
 40
14.999999999999909
 50
265.47193698619128
 51
359.9999999999996
  0
ARC
  5
588
  8
FUTO
 10
12544.016406988911
 20
13952.37832689079
 30
0.0
 40
15.000000000000121
 50
359.9999999999996
 51
94.528063013807852
  0
LINE
  5
589
  8
FUTO
 10
12464.69806968671
 20
14046.075100874919
 30
0.0
 11
12464.69806968671
 21
14052.37832689079
 31
0.0
  0
LINE
  5
58A
  8
FUTO
 10
12433.334744291111
 20
14046.075100874919
 30
0.0
 11
12433.334744291111
 21
14052.37832689079
 31
0.0
  0
LINE
  5
58B
  8
FUTO
 10
12433.334744291111
 20
14052.37832689079
 30
0.0
 11
12464.69806968671
 21
14052.37832689079
 31
0.0
  0
LINE
  5
58C
  8
FUTO
 10
12544.016406988911
 20
13937.37832689079
 30
0.0
 11
12544.016406988911
 21
13902.378326890799
 31
0.0
  0
ARC
  5
58D
  8
FUTO
 10
12449.016406988911
 20
13952.378326890799
 30
0.0
 40
95.000000000000995
 50
329.99999999999932
 51
350.94387397238222
  0
ARC
  5
58E
  8
FUTO
 10
12449.016406988911
 20
13952.37832689079
 30
0.0
 40
94.999999999997456
 50
9.0561260276185163
 51
30.000000000001421
  0
ARC
  5
58F
  8
FUTO
 10
12449.016406988911
 20
13952.37832689079
 30
0.0
 40
95.000000000000071
 50
29.999999999999481
 51
50.943873972382391
  0
ARC
  5
590
  8
FUTO
 10
12449.016406988911
 20
13952.378326890799
 30
0.0
 40
94.999999999998494
 50
69.056126027616216
 51
90.0
  0
ARC
  5
591
  8
FUTO
 10
12496.516406988911
 20
14034.650740250319
 30
0.0
 40
14.99999999999976
 50
325.47193698619111
 51
59.999999999999517
  0
ARC
  5
592
  8
FUTO
 10
12496.516406988911
 20
14034.650740250319
 30
0.0
 40
15.00000000000038
 50
59.999999999999517
 51
154.52806301381301
  0
CIRCLE
  5
593
  8
KL
 10
12809.579263451429
 20
14657.84400330799
 30
0.0
 40
17.407412889793701
  0
LINE
  5
594
  8
FUTO
 10
12436.016406988911
 20
14832.37832689079
 30
0.0
 11
12436.016406988911
 21
14882.37832689079
 31
0.0
  0
LINE
  5
595
  8
KL
 10
12490.016406988911
 20
14882.37832689079
 30
0.0
 11
12490.016406988911
 21
14773.28207161417
 31
0.0
  0
LINE
  5
596
  8
FUTO
 10
12470.016406988911
 20
14832.37832689079
 30
0.0
 11
12470.016406988911
 21
14796.64354148042
 31
0.0
  0
LINE
  5
5A2
  8
FUTO
 10
12354.016406988911
 20
13937.37832689079
 30
0.0
 11
12354.016406988911
 21
13902.378326890799
 31
0.0
  0
ARC
  5
5A3
  8
FUTO
 10
12449.016406988911
 20
13952.37832689079
 30
0.0
 40
94.999999999999389
 50
149.99999999999969
 51
170.94387397238259
  0
ARC
  5
5A4
  8
FUTO
 10
12354.016406988911
 20
13952.37832689079
 30
0.0
 40
15.000000000000121
 50
85.471936986192148
 51
180.00000000000051
  0
ARC
  5
5A5
  8
FUTO
 10
12354.016406988911
 20
13952.37832689079
 30
0.0
 40
14.999999999999909
 50
180.0000000000004
 51
274.52806301380861
  0
ARC
  5
5A6
  8
FUTO
 10
12449.016406988911
 20
13952.37832689079
 30
0.0
 40
94.999999999999389
 50
189.0561260276173
 51
210.0000000000002
  0
ARC
  5
5A7
  8
FUTO
 10
12449.016406988911
 20
13952.37832689079
 30
0.0
 40
94.999999999999915
 50
129.0561260276165
 51
149.9999999999994
  0
ARC
  5
5A8
  8
FUTO
 10
12401.516406988911
 20
14034.650740250319
 30
0.0
 40
15.00000000000038
 50
25.4719369861869
 51
120.0000000000005
  0
ARC
  5
5A9
  8
FUTO
 10
12401.516406988911
 20
14034.650740250319
 30
0.0
 40
15.00000000000006
 50
120.0000000000008
 51
214.5280630138098
  0
LINE
  5
605
  8
FUTO
 10
14799.27539391219
 20
14332.378326890799
 30
0.0
 11
15054.275393912199
 21
14332.37832689079
 31
0.0
  0
LINE
  5
606
  8
SL
 10
14987.175393912201
 20
14032.378326890799
 30
0.0
 11
15009.275393912199
 21
14032.378326890799
 31
0.0
  0
POINT
  5
609
  8
DEFPOINTS
 10
14799.275393912199
 20
14332.378326890799
 30
0.0
  0
LINE
  5
60A
  8
SL
 10
14909.275393912199
 20
14202.37832689079
 30
0.0
 11
14987.175393912201
 21
14202.37832689079
 31
0.0
  0
LINE
  5
60E
  8
FUTO
 10
15239.275393912199
 20
13907.378326890799
 30
0.0
 11
15808.275393912199
 21
13907.378326890799
 31
0.0
  0
LINE
  5
60F
  8
FUTO
 10
15239.275393912199
 20
13997.378326890799
 30
0.0
 11
15808.275393912199
 21
13997.37832689079
 31
0.0
  0
LINE
  5
610
  8
FUTO
 10
15054.275393912199
 20
14332.378326890799
 30
0.0
 11
15054.275393912199
 21
14106.06869679651
 31
0.0
  0
LINE
  5
611
  8
FUTO
 10
15009.275393912199
 20
13909.87832689079
 30
0.0
 11
15098.775393912199
 21
13909.87832689079
 31
0.0
  0
LINE
  5
612
  8
FUTO
 10
15009.275393912199
 20
13994.878326890799
 30
0.0
 11
15098.775393912199
 21
13994.878326890799
 31
0.0
  0
LINE
  5
68C
  8
FUTO
 10
11599.016406988911
 20
18260.767023084711
 30
0.0
 11
13299.016406988911
 21
18260.767023084711
 31
0.0
  0
LINE
  5
68D
  8
FUTO
 10
11446.016406988911
 20
18185.767023084711
 30
0.0
 11
13940.016406988911
 21
18185.767023084711
 31
0.0
  0
LINE
  5
68E
  8
CT
 10
11271.496406409389
 20
17647.767023084711
 30
0.0
 11
14174.74122289122
 21
17647.767023084711
 31
0.0
  0
LINE
  5
68F
  8
FUTO
 10
13299.016406988911
 20
18260.767023084711
 30
0.0
 11
13299.016406988911
 21
18231.767023084711
 31
0.0
  0
LINE
  5
6A9
  8
FUTO
 10
11599.016406988911
 20
18260.767023084711
 30
0.0
 11
11599.016406988911
 21
18231.767023084711
 31
0.0
  0
LINE
  5
6C2
  8
FUTO
 10
16089.275393912199
 20
13943.378326890799
 30
0.0
 11
16089.275393912199
 21
12862.378326890799
 31
0.0
  0
LINE
  5
6C3
  8
FUTO
 10
16084.775393912199
 20
13943.378326890799
 30
0.0
 11
16084.775393912199
 21
12862.378326890799
 31
0.0
  0
LINE
  5
6C5
  8
FUTO
 10
17149.275393912201
 20
13943.378326890799
 30
0.0
 11
17149.275393912201
 21
12862.378326890799
 31
0.0
  0
LINE
  5
6C6
  8
KL
 10
17155.275393912201
 20
14656.691069199829
 30
0.0
 11
17155.275393912201
 21
13248.06558458176
 31
0.0
  0
LINE
  5
6CD
  8
CT
 10
16619.275393912201
 20
15074.863743568651
 30
0.0
 11
16619.275393912201
 21
12447.378326890799
 31
0.0
  0
LINE
  5
6D4
  8
FUTO
 10
16009.775393912199
 20
14832.378326890799
 30
0.0
 11
16009.775393912199
 21
12862.378326890799
 31
0.0
  0
DIMENSION
  5
6D5
  8
FUTO
  2
*D11
 10
17618.885255668421
 20
13252.37832689079
 30
0.0
 11
17558.885255668421
 21
13952.378326890799
 31
0.0
 70
     0
  1
%%C<>
 13
17253.275393912201
 23
14652.378326890799
 33
0.0
 14
17253.275393912201
 24
13252.37832689079
 34
0.0
 50
90.0
1001
ACAD
1000
DSTYLE
1002
{
1070
    40
1040
30.0
1070
   176
1070
     2
1070
   177
1070
     2
1070
   178
1070
     2
1070
   341
1005
44D5
1070
     5
1000
OPEN30
1002
}
  0
LINE
  5
6E2
  8
KL
 10
17158.475393912198
 20
13943.378326890799
 30
0.0
 11
17158.475393912198
 21
13202.378326890799
 31
0.0
  0
LINE
  5
6E6
  8
FUTO
 10
17247.275393912201
 20
14702.37832689079
 30
0.0
 11
17247.275393912201
 21
13202.378326890799
 31
0.0
  0
LINE
  5
6E7
  8
FUTO
 10
17253.275393912201
 20
14702.37832689079
 30
0.0
 11
17253.275393912201
 21
13202.378326890799
 31
0.0
  0
LINE
  5
703
  8
KL
 10
16084.775393912199
 20
12749.4733638213
 30
0.0
 11
17152.475393912198
 21
12749.4733638213
 31
0.0
  0
LINE
  5
70B
  8
CT
 10
16040.275393912199
 20
12732.54240802252
 30
0.0
 11
16040.275393912199
 21
12572.009572899809
 31
0.0
1001
ACAD
1000
ASC_BOUNDS
1002
{
1070
    19
1002
}
  0
LINE
  5
70E
  8
KL
 10
16084.775393912199
 20
12862.378326890799
 30
0.0
 11
16084.775393912199
 21
12749.4733638213
 31
0.0
  0
LINE
  5
70F
  8
KL
 10
16089.275393912199
 20
12862.378326890799
 30
0.0
 11
16089.275393912199
 21
12749.4733638213
 31
0.0
  0
LINE
  5
723
  8
FUTO
 10
17156.275393912201
 20
12712.378326890799
 30
0.0
 11
17156.275393912201
 21
12597.378326890799
 31
0.0
1001
ACAD
1000
ASC_BOUNDS
1002
{
1070
    19
1002
}
  0
LINE
  5
724
  8
CT
 10
17196.275393912201
 20
12731.90175582226
 30
0.0
 11
17196.275393912201
 21
12583.9311022483
 31
0.0
1001
ACAD
1000
ASC_BOUNDS
1002
{
1070
    19
1002
}
  0
LINE
  5
725
  8
KL
 10
17149.275393912201
 20
12862.378326890799
 30
0.0
 11
17149.275393912201
 21
12749.4733638213
 31
0.0
  0
LINE
  5
72A
  8
FUTO
 10
17234.275393912201
 20
12712.378326890799
 30
0.0
 11
17234.275393912201
 21
12597.378326890799
 31
0.0
1001
ACAD
1000
ASC_BOUNDS
1002
{
1070
    19
1002
}
  0
LINE
  5
72B
  8
KL
 10
17158.475393912198
 20
13246.37832689079
 30
0.0
 11
17227.475393912198
 21
13246.37832689079
 31
0.0
  0
LINE
  5
72C
  8
KL
 10
17152.475393912198
 20
13252.37832689079
 30
0.0
 11
17253.275393912201
 21
13252.37832689079
 31
0.0
  0
LINE
  5
72D
  8
CT
 10
17119.990696317091
 20
13219.87832689079
 30
0.0
 11
17177.03342944914
 21
13219.87832689079
 31
0.0
  0
LINE
  5
72E
  8
KL
 10
17152.475393912198
 20
13202.378326890799
 30
0.0
 11
17158.475393912198
 21
13202.378326890799
 31
0.0
  0
LINE
  5
72F
  8
FUTO
 10
17227.475393912198
 20
13246.37832689079
 30
0.0
 11
17247.275393912201
 21
13246.37832689079
 31
0.0
  0
LINE
  5
730
  8
CT
 10
17224.15565899956
 20
13219.87832689079
 30
0.0
 11
17284.29851275343
 21
13219.87832689079
 31
0.0
  0
LINE
  5
731
  8
FUTO
 10
17247.275393912201
 20
13202.378326890799
 30
0.0
 11
17253.275393912201
 21
13202.378326890799
 31
0.0
  0
LINE
  5
7FD
  8
FUTO
 10
16009.775393912199
 20
13943.378326890799
 30
0.0
 11
17227.475393912198
 21
13943.378326890799
 31
0.0
  0
LINE
  5
7FE
  8
FUTO
 10
16009.775393912199
 20
13961.378326890799
 30
0.0
 11
17227.475393912198
 21
13961.37832689079
 31
0.0
  0
LINE
  5
7FF
  8
FUTO
 10
16009.775393912199
 20
14832.378326890799
 30
0.0
 11
17227.475393912198
 21
14832.378326890799
 31
0.0
  0
DIMENSION
  5
800
  8
FUTO
  2
*D12
 10
17253.275393912201
 20
15357.36188533711
 30
0.0
 11
16936.275393912201
 21
15417.36188533711
 31
0.0
 70
     0
 13
16619.275393912201
 23
15202.97479099645
 33
0.0
 14
17253.275393912201
 24
14702.37832689079
 34
0.0
1001
ACAD
1000
DSTYLE
1002
{
1070
    40
1040
30.0
1070
   176
1070
     2
1070
   177
1070
     2
1070
   178
1070
     2
1070
   341
1005
44D5
1070
     5
1000
OPEN30
1002
}
  0
DIMENSION
  5
80D
  8
FUTO
  2
*D13
 10
17149.27539391219
 20
15095.50131898514
 30
0.0
 11
16619.275393912201
 21
15095.50131898514
 31
0.0
 70
   128
 13
16089.275393912199
 23
14832.378326890799
 33
0.0
 14
17149.27539391219
 24
14832.378326890799
 34
0.0
1001
ACAD
1000
DSTYLE
1002
{
1070
    40
1040
30.0
1070
   176
1070
     2
1070
   177
1070
     2
1070
   178
1070
     2
1070
   341
1005
44D5
1070
     5
1000
OPEN30
1002
}
  0
LINE
  5
81F
  8
FUTO
 10
16034.775393912199
 20
14882.37832689079
 30
0.0
 11
17203.775393912201
 21
14882.37832689079
 31
0.0
  0
LINE
  5
820
  8
FUTO
 10
16034.775393912199
 20
14877.87832689079
 30
0.0
 11
17203.77539391219
 21
14877.87832689079
 31
0.0
  0
LINE
  5
826
  8
FUTO
 10
16084.775393912199
 20
14832.378326890799
 30
0.0
 11
16084.775393912199
 21
13961.378326890799
 31
0.0
  0
LINE
  5
827
  8
FUTO
 10
16089.275393912199
 20
14832.378326890799
 30
0.0
 11
16089.275393912199
 21
13961.378326890799
 31
0.0
  0
LINE
  5
831
  8
FUTO
 10
16034.775393912199
 20
14882.37832689079
 30
0.0
 11
16034.775393912199
 21
14832.378326890799
 31
0.0
  0
LINE
  5
842
  8
FUTO
 10
17149.27539391219
 20
14832.378326890799
 30
0.0
 11
17149.275393912201
 21
13961.378326890799
 31
0.0
  0
LINE
  5
844
  8
KL
 10
17158.475393912198
 20
14702.37832689079
 30
0.0
 11
17158.475393912198
 21
13961.37832689079
 31
0.0
  0
LINE
  5
845
  8
KL
 10
17158.475393912198
 20
14658.37832689079
 30
0.0
 11
17228.775393912201
 21
14658.37832689079
 31
0.0
  0
LINE
  5
846
  8
KL
 10
17152.475393912198
 20
14652.378326890799
 30
0.0
 11
17253.275393912201
 21
14652.378326890799
 31
0.0
  0
LINE
  5
847
  8
CT
 10
17129.81929266833
 20
14684.878326890799
 30
0.0
 11
17172.524931093591
 21
14684.878326890799
 31
0.0
  0
LINE
  5
848
  8
KL
 10
17152.475393912198
 20
14702.37832689079
 30
0.0
 11
17158.475393912198
 21
14702.37832689079
 31
0.0
  0
LINE
  5
849
  8
FUTO
 10
17203.775393912201
 20
14882.37832689079
 30
0.0
 11
17203.77539391219
 21
14832.378326890799
 31
0.0
  0
LINE
  5
84A
  8
FUTO
 10
17228.775393912201
 20
14658.37832689079
 30
0.0
 11
17247.275393912201
 21
14658.37832689079
 31
0.0
  0
LINE
  5
84B
  8
CT
 10
17224.51440665
 20
14684.878326890799
 30
0.0
 11
17276.503882206409
 21
14684.878326890799
 31
0.0
  0
LINE
  5
84C
  8
FUTO
 10
17247.275393912201
 20
14702.37832689079
 30
0.0
 11
17253.275393912201
 21
14702.37832689079
 31
0.0
  0
POLYLINE
  8
0
  5
5643
  62
2
  66
     1
 10
0.000000
 20
0.000000
 30
0.000000
  70
     8
  0
VERTEX
  8
0
  5
5644
 10
11319.2
 20
14076.5
 30
0.000000
  70
    32
  0
VERTEX
  8
0
  5
5645
 10
11319.2
 20
13952.4
 30
0.000000
  70
    32
  0
SEQEND
  8
0
  5
5646
  0
POLYLINE
  8
0
  5
5647
  62
2
  66
     1
 10
0.000000
 20
0.000000
 30
0.000000
  70
     8
  0
VERTEX
  8
0
  5
5648
 10
11319.2
 20
13828.2
 30
0.000000
  70
    32
  0
VERTEX
  8
0
  5
5649
 10
11319.2
 20
13952.4
 30
0.000000
  70
    32
  0
SEQEND
  8
0
  5
564A
  0
POLYLINE
  8
0
  5
564B
  62
2
  66
     1
 10
0.000000
 20
0.000000
 30
0.000000
  70
     8
  0
VERTEX
  8
0
  5
564C
 10
13963.0
 20
14076.5
 30
0.000000
  70
    32
  0
VERTEX
  8
0
  5
564D
 10
13963.0
 20
13952.4
 30
0.000000
  70
    32
  0
SEQEND
  8
0
  5
564E
  0
POLYLINE
  8
0
  5
564F
  62
2
  66
     1
 10
0.000000
 20
0.000000
 30
0.000000
  70
     8
  0
VERTEX
  8
0
  5
5650
 10
13963.0
 20
13828.2
 30
0.000000
  70
    32
  0
VERTEX
  8
0
  5
5651
 10
13963.0
 20
13952.4
 30
0.000000
  70
    32
  0
SEQEND
  8
0
  5
5652
  0
LINE
  5
971
  8
FUTO
 10
12249.016406988911
 20
13961.378326890799
 30
0.0
 11
12249.016406988911
 21
13943.37832689079
 31
0.0
  0
LINE
  5
972
  8
FUTO
 10
12649.016406988911
 20
13961.37832689079
 30
0.0
 11
12649.016406988911
 21
13943.378326890799
 31
0.0
  0
LINE
  5
973
  8
FUTO
 10
12649.016406988911
 20
13961.37832689079
 30
0.0
 11
13907.145051369709
 21
13961.37832689079
 31
0.0
  0
LINE
  5
974
  8
FUTO
 10
12649.016406988911
 20
13943.37832689079
 30
0.0
 11
13907.145051369709
 21
13943.378326890799
 31
0.0
  0
LINE
  5
990
  8
FUTO
 10
11396.016406988911
 20
13961.378326890799
 30
0.0
 11
11396.016406988911
 21
13943.378326890799
 31
0.0
  0
POLYLINE
  5
119F
  8
FUTO
 66
     1
 10
0.0
 20
0.0
 30
0.0
 70
     1
1001
ACAD
1000
ASC_BOUNDS
1002
{
1070
    19
1002
}
  0
VERTEX
  5
562E
  8
FUTO
 10
16005.275393912199
 20
12712.378326890799
 30
0.0
  0
VERTEX
  5
562F
  8
FUTO
 10
16005.275393912199
 20
12715.716515468959
 30
0.0
 42
-0.3888787318529885
  0
VERTEX
  5
5630
  8
FUTO
 10
16008.926770941211
 20
12719.701294261329
 30
0.0
  0
VERTEX
  5
5631
  8
FUTO
 10
16070.12401688319
 20
12725.05535952026
 30
0.0
 42
0.3888787318529894
  0
VERTEX
  5
5632
  8
FUTO
 10
16073.775393912199
 20
12729.04013831263
 30
0.0
  0
VERTEX
  5
5633
  8
FUTO
 10
16073.775393912199
 20
12845.716515468959
 30
0.0
 42
0.3888787318529893
  0
VERTEX
  5
5634
  8
FUTO
 10
16070.12401688319
 20
12849.701294261329
 30
0.0
  0
VERTEX
  5
5635
  8
FUTO
 10
16008.926770941211
 20
12855.05535952026
 30
0.0
 42
-0.3888787318529887
  0
VERTEX
  5
5636
  8
FUTO
 10
16005.275393912199
 20
12859.04013831263
 30
0.0
  0
VERTEX
  5
5637
  8
FUTO
 10
16005.275393912199
 20
12862.378326890799
 30
0.0
  0
VERTEX
  5
5638
  8
FUTO
 10
16080.275393912199
 20
12862.378326890799
 30
0.0
  0
VERTEX
  5
5639
  8
FUTO
 10
16080.275393912199
 20
12712.378326890799
 30
0.0
  0
SEQEND
  5
563A
  8
FUTO
  0
LINE
  5
11F6
  8
FUTO
 10
15106.275393912199
 20
12597.378326890799
 30
0.0
 11
15031.275393912199
 21
12597.378326890799
 31
0.0
1001
ACAD
1000
ASC_BOUNDS
1002
{
1070
    19
1005
3975
1002
}
  0
LINE
  5
11F7
  8
FUTO
 10
15096.12401688319
 20
12584.701294261329
 30
0.0
 11
15034.9267709412
 21
12590.05535952026
 31
0.0
  0
LINE
  5
11F8
  8
FUTO
 10
15106.275393912199
 20
12447.378326890799
 30
0.0
 11
15031.275393912199
 21
12447.37832689079
 31
0.0
  0
LINE
  5
11F9
  8
FUTO
 10
15096.12401688319
 20
12460.05535952026
 30
0.0
 11
15034.9267709412
 21
12454.701294261329
 31
0.0
  0
LINE
  5
11FA
  8
FUTO
 10
15099.775393912199
 20
12464.04013831263
 30
0.0
 11
15099.775393912199
 21
12580.716515468959
 31
0.0
  0
ARC
  5
11FB
  8
FUTO
 10
15095.775393912199
 20
12580.716515468959
 30
0.0
 40
4.0
 50
0.0
 51
84.999999999999943
  0
LINE
  5
11FC
  8
FUTO
 10
15106.275393912199
 20
12447.378326890799
 30
0.0
 11
15106.275393912199
 21
12597.378326890799
 31
0.0
  0
ARC
  5
11FD
  8
FUTO
 10
15095.775393912199
 20
12464.04013831263
 30
0.0
 40
4.0
 50
275.0
 51
0.0
  0
ARC
  5
11FE
  8
FUTO
 10
15035.275393912199
 20
12594.04013831263
 30
0.0
 40
4.0
 50
180.0
 51
264.99999999999972
  0
LINE
  5
11FF
  8
FUTO
 10
15031.275393912199
 20
12597.378326890799
 30
0.0
 11
15031.275393912199
 21
12594.04013831263
 31
0.0
  0
LINE
  5
1200
  8
FUTO
 10
15031.275393912199
 20
12447.37832689079
 30
0.0
 11
15031.275393912199
 21
12450.716515468959
 31
0.0
  0
ARC
  5
1201
  8
FUTO
 10
15035.275393912199
 20
12450.716515468959
 30
0.0
 40
4.0
 50
95.000000000000227
 51
180.0
  0
LINE
  5
1204
  8
FUTO
 10
17156.275393912201
 20
12597.378326890799
 30
0.0
 11
17231.275393912201
 21
12597.378326890799
 31
0.0
1001
ACAD
1000
ASC_BOUNDS
1002
{
1070
    19
1002
}
  0
LINE
  5
1205
  8
FUTO
 10
17166.426770941202
 20
12584.701294261329
 30
0.0
 11
17227.62401688319
 21
12590.05535952026
 31
0.0
  0
LINE
  5
1206
  8
FUTO
 10
17156.275393912201
 20
12447.378326890799
 30
0.0
 11
17231.275393912201
 21
12447.37832689079
 31
0.0
  0
LINE
  5
1207
  8
FUTO
 10
17166.426770941202
 20
12460.05535952026
 30
0.0
 11
17227.62401688319
 21
12454.701294261329
 31
0.0
  0
LINE
  5
1208
  8
FUTO
 10
17162.775393912201
 20
12464.04013831263
 30
0.0
 11
17162.775393912201
 21
12580.716515468959
 31
0.0
  0
ARC
  5
1209
  8
FUTO
 10
17166.775393912201
 20
12580.716515468959
 30
0.0
 40
4.0
 50
94.999999999999758
 51
180.0
  0
LINE
  5
120A
  8
FUTO
 10
17156.275393912201
 20
12447.378326890799
 30
0.0
 11
17156.275393912201
 21
12597.378326890799
 31
0.0
  0
ARC
  5
120B
  8
FUTO
 10
17166.775393912201
 20
12464.04013831263
 30
0.0
 40
4.0
 50
180.0
 51
265.00000000000028
  0
ARC
  5
120C
  8
FUTO
 10
17227.275393912201
 20
12594.04013831263
 30
0.0
 40
4.0
 50
275.00000000000011
 51
0.0
  0
LINE
  5
120D
  8
FUTO
 10
17231.275393912201
 20
12597.378326890799
 30
0.0
 11
17231.275393912201
 21
12594.04013831263
 31
0.0
  0
LINE
  5
120E
  8
FUTO
 10
17231.275393912201
 20
12447.37832689079
 30
0.0
 11
17231.275393912201
 21
12450.716515468959
 31
0.0
  0
ARC
  5
120F
  8
FUTO
 10
17227.275393912201
 20
12450.716515468959
 30
0.0
 40
4.0
 50
0.0
 51
84.999999999999844
  0
LINE
  5
1840
  8
FUTO
 10
12874.016406988911
 20
17036.767023084711
 30
0.0
 11
12874.016406988911
 21
16127.767023084711
 31
0.0
  0
LINE
  5
1841
  8
FUTO
 10
12949.016406988911
 20
17036.767023084711
 30
0.0
 11
12949.016406988911
 21
16127.767023084711
 31
0.0
  0
DIMENSION
  5
1F4D
  8
FUTO
  2
*D4
 10
10971.12460793719
 20
14882.37832689079
 30
0.0
 11
10911.124607937179
 21
14417.378326890799
 31
0.0
 70
     0
 13
11271.012428341581
 23
13952.37832689079
 33
0.0
 14
12457.03420695014
 24
14882.37832689079
 34
0.0
 50
270.0
1001
ACAD
1000
DSTYLE
1002
{
1070
    40
1040
30.0
1070
   176
1070
     2
1070
   177
1070
     2
1070
   178
1070
     2
1070
   341
1005
44D5
1070
     5
1000
OPEN30
1002
}
  0
LINE
  5
1FF1
  8
FUTO
 10
17152.475393912191
 20
14832.378326890799
 30
0.0
 11
17152.475393912198
 21
13961.378326890799
 31
0.0
  0
LINE
  5
1FF2
  8
FUTO
 10
17152.475393912198
 20
13943.378326890799
 30
0.0
 11
17152.475393912198
 21
12862.378326890799
 31
0.0
  0
LINE
  5
1FF3
  8
KL
 10
17152.475393912198
 20
12862.378326890799
 30
0.0
 11
17152.475393912198
 21
12749.4733638213
 31
0.0
  0
LINE
  5
1FF5
  8
FUTO
 10
17227.475393912198
 20
14832.378326890799
 30
0.0
 11
17227.475393912198
 21
12862.378326890799
 31
0.0
  0
DIMENSION
  5
2003
  8
FUTO
  2
*D5
 10
17231.275393912201
 20
12029.34440464884
 30
0.0
 11
16131.275393912199
 21
12089.34440464884
 31
0.0
 70
     0
 13
15031.275393912199
 23
12447.37832689079
 33
0.0
 14
17231.275393912201
 24
12447.37832689079
 34
0.0
1001
ACAD
1000
DSTYLE
1002
{
1070
    40
1040
30.0
1070
   176
1070
     2
1070
   177
1070
     2
1070
   178
1070
     2
1070
   341
1005
44D5
1070
     5
1000
OPEN30
1002
}
  0
ARC
  5
256F
  8
FUTO
 10
12551.016406988911
 20
14054.37832689079
 30
0.0
 40
1329.0
 50
303.7317071076418
 51
304.2531445519902
  0
ARC
  5
2570
  8
FUTO
 10
12551.016406988911
 20
14054.37832689079
 30
0.0
 40
1329.0
 50
296.24452855732062
 51
303.26641033301621
  0
LINE
  5
25BB
  8
CT
 10
12449.016406988911
 20
16644.440291805771
 30
0.0
 11
12449.016406988911
 21
16642.381161474601
 31
0.0
  0
LINE
  5
279A
  8
FUTO
 10
15106.275393912199
 20
12712.378326890799
 30
0.0
 11
15106.275393912199
 21
12597.378326890799
 31
0.0
1001
ACAD
1000
ASC_BOUNDS
1002
{
1070
    19
1005
3975
1002
}
  0
TEXT
  5
29E7
  8
SP
 10
9149.8042194081445
 20
6129.2813767066364
 30
0.0
 40
100.0
  1
 
  0
LINE
  5
3207
  8
FUTO
 10
17152.550812573289
 20
12795.278463057481
 30
0.0
 11
17295.750812573289
 21
12795.27846305751
 31
0.0
  0
LINE
  5
3208
  8
FUTO
 10
17152.550812573289
 20
12761.278463057481
 30
0.0
 11
17295.7508125733
 21
12761.27846305751
 31
0.0
  0
LINE
  5
320D
  8
FUTO
 10
17295.7508125733
 20
12756.27846305751
 30
0.0
 11
17325.7508125733
 21
12756.278463057521
 31
0.0
  0
LINE
  5
320E
  8
FUTO
 10
17295.750812573289
 20
12800.27846305751
 30
0.0
 11
17325.750812573289
 21
12800.278463057521
 31
0.0
  0
LINE
  5
320F
  8
FUTO
 10
17295.750812573289
 20
12800.27846305751
 30
0.0
 11
17295.7508125733
 21
12756.27846305751
 31
0.0
  0
LINE
  5
3210
  8
FUTO
 10
17325.750812573289
 20
12800.278463057521
 30
0.0
 11
17325.7508125733
 21
12756.278463057521
 31
0.0
  0
LINE
  5
3235
  8
FUTO
 10
13854.01300917837
 20
13677.23133171076
 30
0.0
 11
13831.262612598101
 21
13684.7193166118
 31
0.0
  0
LINE
  5
3236
  8
FUTO
 10
13814.93330217212
 20
13558.497273832219
 30
0.0
 11
13788.633607174241
 21
13567.153462235399
 31
0.0
  0
LINE
  5
3237
  8
FUTO
 10
13860.38535724816
 20
13664.606230519979
 30
0.0
 11
13827.5584033629
 21
13564.869621902
 31
0.0
  0
ARC
  5
3238
  8
FUTO
 10
13850.88663261787
 20
13667.732607080479
 30
0.0
 40
10.0
 50
341.78173999721008
 51
71.781739997210067
  0
ARC
  5
3239
  8
FUTO
 10
13818.059678732619
 20
13567.9959984625
 30
0.0
 40
10.0
 50
251.78173999721
 51
341.78173999721008
  0
LINE
  5
323A
  8
FUTO
 10
13857.13938573887
 20
13686.730056341041
 30
0.0
 11
13834.190006029599
 21
13694.283533843951
 31
0.0
  0
ARC
  5
323B
  8
FUTO
 10
13850.88663261787
 20
13667.732607080479
 30
0.0
 40
20.0
 50
341.78173999721008
 51
71.781739997210067
  0
LINE
  5
323C
  8
FUTO
 10
13869.884081878439
 20
13661.479853959479
 30
0.0
 11
13837.05712799319
 21
13561.7432453415
 31
0.0
  0
ARC
  5
323D
  8
FUTO
 10
13818.059678732619
 20
13567.9959984625
 30
0.0
 40
20.0
 50
251.78173999721
 51
341.78173999721008
  0
LINE
  5
323E
  8
FUTO
 10
13811.80692561162
 20
13548.99854920193
 30
0.0
 11
13784.73877905868
 21
13557.90766302649
 31
0.0
  0
LINE
  5
3241
  8
CT
 10
13895.4531936397
 20
13597.793549194461
 30
0.0
 11
13627.345994498161
 21
13686.037402524529
 31
0.0
  0
DIMENSION
  5
393B
  8
FUTO
  2
*D6
 10
17231.275393912201
 20
12210.674845906429
 30
0.0
 11
16925.275393912201
 21
12270.674845906429
 31
0.0
 70
     0
 13
16619.275393912201
 23
12447.378326890799
 33
0.0
 14
17231.275393912201
 24
12447.378326890799
 34
0.0
1001
ACAD
1000
DSTYLE
1002
{
1070
    40
1040
30.0
1070
   176
1070
     2
1070
   177
1070
     2
1070
   178
1070
     2
1070
   341
1005
44D5
1070
     5
1000
OPEN30
1002
}
  0
DIMENSION
  5
3948
  8
FUTO
  2
*D7
 10
15031.275393912199
 20
12210.68008682903
 30
0.0
 11
15825.275393912199
 21
12270.68008682903
 31
0.0
 70
     0
 13
16619.275393912201
 23
12447.378326890799
 33
0.0
 14
15031.275393912199
 24
12447.37832689079
 34
0.0
1001
ACAD
1000
DSTYLE
1002
{
1070
    40
1040
30.0
1070
   176
1070
     2
1070
   177
1070
     2
1070
   178
1070
     2
1070
   341
1005
44D5
1070
     5
1000
OPEN30
1002
}
  0
POLYLINE
  5
3949
  8
FUTO
 66
     1
 10
0.0
 20
0.0
 30
0.0
  0
VERTEX
  5
563B
  8
FUTO
 10
16009.275393912199
 20
12862.378326890799
 30
0.0
  0
VERTEX
  5
563C
  8
FUTO
 10
16084.275393912199
 20
12862.37832689079
 30
0.0
  0
SEQEND
  5
563D
  8
FUTO
  0
LINE
  5
39B1
  8
FUTO
 10
13989.016406988911
 20
12712.378326890799
 30
0.0
 11
13989.016406988911
 21
12597.378326890799
 31
0.0
  0
LINE
  5
39B2
  8
FUTO
 10
13909.016406988911
 20
12712.378326890799
 30
0.0
 11
13909.016406988911
 21
12597.378326890799
 31
0.0
  0
LINE
  5
39B3
  8
FUTO
 10
13949.016406988911
 20
12748.7897557744
 30
0.0
 11
13949.016406988911
 21
12553.96482181073
 31
0.0
1001
ACAD
1000
ASC_BOUNDS
1002
{
1070
    19
1005
0
1005
0
1005
0
1002
}
  0
LINE
  5
3AE6
  8
FUTO
 10
15092.775393912199
 20
13844.378326890799
 30
0.0
 11
15092.775393912199
 21
12862.37832689079
 31
0.0
  0
LINE
  5
3AE7
  8
FUTO
 10
15092.775393912199
 20
13844.378326890799
 30
0.0
 11
15102.775393912199
 21
13844.378326890799
 31
0.0
  0
LINE
  5
3AE8
  8
FUTO
 10
15102.775393912199
 20
13844.378326890799
 30
0.0
 11
15102.775393912199
 21
13834.378326890799
 31
0.0
  0
LINE
  5
3AEA
  8
FUTO
 10
15102.775393912199
 20
13834.378326890799
 30
0.0
 11
16009.775393912199
 21
13834.37832689079
 31
0.0
  0
LINE
  5
3B39
  8
FUTO
 10
15213.275393912199
 20
13889.37832689079
 30
0.0
 11
15125.275393912199
 21
13889.37832689079
 31
0.0
  0
LINE
  5
3B3A
  8
FUTO
 10
15114.275393912199
 20
13852.37832689079
 30
0.0
 11
15224.275393912199
 21
13852.37832689079
 31
0.0
  0
LINE
  5
3B3B
  8
FUTO
 10
15219.275393912199
 20
14045.378326890799
 30
0.0
 11
15119.275393912199
 21
14045.378326890799
 31
0.0
  0
LINE
  5
3B3C
  8
FUTO
 10
15119.275393912199
 20
14045.378326890799
 30
0.0
 11
15119.275393912199
 21
13852.37832689079
 31
0.0
  0
LINE
  5
3B3D
  8
FUTO
 10
15098.775393912199
 20
14027.378326890799
 30
0.0
 11
15098.775393912199
 21
13877.37832689079
 31
0.0
  0
LINE
  5
3B3E
  8
FUTO
 10
15104.275393912199
 20
14036.378326890799
 30
0.0
 11
15104.275393912199
 21
13868.378326890799
 31
0.0
  0
LINE
  5
3B40
  8
FUTO
 10
15098.775393912199
 20
13877.37832689079
 30
0.0
 11
15104.275393912199
 21
13877.37832689079
 31
0.0
  0
ARC
  5
3B41
  8
FUTO
 10
15125.275393912199
 20
13883.378326890799
 30
0.0
 40
6.0
 50
90.0
 51
180.0
  0
LINE
  5
3B42
  8
FUTO
 10
15110.275393912199
 20
13862.378326890799
 30
0.0
 11
15119.275393912199
 21
13862.378326890799
 31
0.0
  0
ARC
  5
3B43
  8
FUTO
 10
15110.275393912199
 20
13868.378326890799
 30
0.0
 40
6.0
 50
180.0
 51
270.0
  0
LINE
  5
3B44
  8
FUTO
 10
15104.275393912199
 20
14027.378326890799
 30
0.0
 11
15098.775393912199
 21
14027.378326890799
 31
0.0
  0
ARC
  5
3B45
  8
FUTO
 10
15110.275393912199
 20
14036.378326890799
 30
0.0
 40
6.0
 50
90.0
 51
180.0
  0
LINE
  5
3B46
  8
FUTO
 10
15119.275393912199
 20
14042.378326890799
 30
0.0
 11
15110.275393912199
 21
14042.378326890799
 31
0.0
  0
LINE
  5
3B47
  8
FUTO
 10
15219.275393912199
 20
13852.37832689079
 30
0.0
 11
15219.275393912199
 21
14045.378326890799
 31
0.0
  0
LINE
  5
3B48
  8
FUTO
 10
15234.275393912199
 20
14036.378326890799
 30
0.0
 11
15234.275393912199
 21
13868.378326890799
 31
0.0
  0
LINE
  5
3B49
  8
FUTO
 10
15239.775393912199
 20
14027.378326890799
 30
0.0
 11
15239.775393912199
 21
13877.37832689079
 31
0.0
  0
LINE
  5
3B4A
  8
FUTO
 10
15228.275393912199
 20
13862.378326890799
 30
0.0
 11
15219.275393912199
 21
13862.378326890799
 31
0.0
  0
ARC
  5
3B4B
  8
FUTO
 10
15213.275393912199
 20
13883.378326890799
 30
0.0
 40
6.0
 50
0.0
 51
90.0
  0
ARC
  5
3B4C
  8
FUTO
 10
15228.275393912199
 20
13868.378326890799
 30
0.0
 40
6.0
 50
270.0
 51
0.0
  0
LINE
  5
3B4D
  8
FUTO
 10
15239.775393912199
 20
13877.37832689079
 30
0.0
 11
15234.275393912199
 21
13877.37832689079
 31
0.0
  0
LINE
  5
3B4E
  8
FUTO
 10
15219.275393912199
 20
14042.378326890799
 30
0.0
 11
15228.275393912199
 21
14042.378326890799
 31
0.0
  0
ARC
  5
3B4F
  8
FUTO
 10
15228.275393912199
 20
14036.378326890799
 30
0.0
 40
6.0
 50
0.0
 51
90.0
  0
LINE
  5
3B50
  8
FUTO
 10
15234.275393912199
 20
14027.378326890799
 30
0.0
 11
15239.775393912199
 21
14027.378326890799
 31
0.0
  0
LINE
  5
3B51
  8
FUTO
 10
15114.275393912199
 20
13852.37832689079
 30
0.0
 11
15114.275393912199
 21
13834.378326890799
 31
0.0
  0
LINE
  5
3B52
  8
FUTO
 10
15224.275393912199
 20
13852.37832689079
 30
0.0
 11
15224.275393912199
 21
13834.378326890799
 31
0.0
  0
LINE
  5
3BBC
  8
FUTO
 10
15945.775393912199
 20
14056.37832689079
 30
0.0
 11
15812.775393912199
 21
14056.37832689079
 31
0.0
  0
LINE
  5
3BBD
  8
FUTO
 10
15928.275393912199
 20
13876.37832689079
 30
0.0
 11
15830.275393912199
 21
13876.37832689079
 31
0.0
  0
LINE
  5
3BBE
  8
FUTO
 10
15814.275393912199
 20
13840.37832689079
 30
0.0
 11
15944.275393912199
 21
13840.37832689079
 31
0.0
  0
LINE
  5
3BC0
  8
FUTO
 10
15824.275393912199
 20
14056.37832689079
 30
0.0
 11
15824.275393912199
 21
13840.37832689079
 31
0.0
  0
LINE
  5
3BC1
  8
FUTO
 10
15801.775393912199
 20
14042.37832689079
 30
0.0
 11
15801.775393912199
 21
13862.37832689079
 31
0.0
  0
LINE
  5
3BC2
  8
FUTO
 10
15806.775393912199
 20
14050.37832689079
 30
0.0
 11
15806.775393912199
 21
13854.37832689079
 31
0.0
  0
LINE
  5
3BC3
  8
FUTO
 10
15801.775393912199
 20
13862.37832689079
 30
0.0
 11
15806.775393912199
 21
13862.37832689079
 31
0.0
  0
ARC
  5
3BC4
  8
FUTO
 10
15830.275393912199
 20
13870.37832689079
 30
0.0
 40
6.0
 50
90.0
 51
180.0
  0
LINE
  5
3BC5
  8
FUTO
 10
15812.775393912199
 20
13848.37832689079
 30
0.0
 11
15824.275393912199
 21
13848.37832689079
 31
0.0
  0
ARC
  5
3BC6
  8
FUTO
 10
15812.775393912199
 20
13854.37832689079
 30
0.0
 40
6.0
 50
180.0
 51
270.0
  0
LINE
  5
3BC7
  8
FUTO
 10
15806.775393912199
 20
14042.37832689079
 30
0.0
 11
15801.775393912199
 21
14042.37832689079
 31
0.0
  0
ARC
  5
3BC8
  8
FUTO
 10
15812.775393912199
 20
14050.37832689079
 30
0.0
 40
6.0
 50
90.0
 51
180.0
  0
LINE
  5
3BC9
  8
FUTO
 10
15934.275393912199
 20
14056.37832689079
 30
0.0
 11
15934.275393912199
 21
13840.37832689079
 31
0.0
  0
LINE
  5
3BCA
  8
FUTO
 10
15951.775393912199
 20
14050.37832689079
 30
0.0
 11
15951.775393912199
 21
13854.37832689079
 31
0.0
  0
LINE
  5
3BCB
  8
FUTO
 10
15956.775393912199
 20
14042.37832689079
 30
0.0
 11
15956.775393912199
 21
13862.37832689079
 31
0.0
  0
ARC
  5
3BCC
  8
FUTO
 10
15928.275393912199
 20
13870.37832689079
 30
0.0
 40
6.0
 50
0.0
 51
90.0
  0
LINE
  5
3BCD
  8
FUTO
 10
15945.775393912199
 20
13848.37832689079
 30
0.0
 11
15934.275393912199
 21
13848.37832689079
 31
0.0
  0
ARC
  5
3BCE
  8
FUTO
 10
15945.775393912199
 20
13854.37832689079
 30
0.0
 40
6.0
 50
270.0
 51
0.0
  0
LINE
  5
3BCF
  8
FUTO
 10
15956.775393912199
 20
13862.37832689079
 30
0.0
 11
15951.775393912199
 21
13862.37832689079
 31
0.0
  0
ARC
  5
3BD0
  8
FUTO
 10
15945.775393912199
 20
14050.37832689079
 30
0.0
 40
6.0
 50
0.0
 51
90.0
  0
LINE
  5
3BD1
  8
FUTO
 10
15951.775393912199
 20
14042.37832689079
 30
0.0
 11
15956.775393912199
 21
14042.37832689079
 31
0.0
  0
LINE
  5
3C31
  8
SL
 10
15283.51741113169
 20
14079.07722992195
 30
0.0
 11
15748.79382401729
 21
14079.07722992195
 31
0.0
  0
LINE
  5
3C32
  8
FUTO
 10
15814.275393912199
 20
13840.37832689079
 30
0.0
 11
15814.275393912199
 21
13834.378326890799
 31
0.0
  0
LINE
  5
3C33
  8
FUTO
 10
15944.275393912199
 20
13840.37832689079
 30
0.0
 11
15944.275393912199
 21
13834.378326890799
 31
0.0
  0
DIMENSION
  5
3C4B
  8
SP
  2
*D9
 10
16619.275393912201
 20
15357.36188533711
 30
0.0
 11
15709.275393912199
 21
15417.36188533711
 31
0.0
 70
     0
 13
14799.275393912199
 23
14332.378326890799
 33
0.0
 14
16619.275393912201
 24
15232.97479099645
 34
0.0
1001
ACAD
1000
DSTYLE
1002
{
1070
    40
1040
30.0
1070
   176
1070
     2
1070
   177
1070
     2
1070
   178
1070
     2
1070
   341
1005
44D5
1070
     5
1000
OPEN30
1002
}
  0
LINE
  5
3C62
  8
SL
 10
15283.51741113169
 20
14079.07722992195
 30
0.0
 11
15283.51741113169
 21
13824.378326890799
 31
0.0
  0
LINE
  5
3C63
  8
SL
 10
15748.79382401729
 20
14079.07722992195
 30
0.0
 11
15748.79382401729
 21
13824.378326890799
 31
0.0
  0
ARC
  5
3C73
  8
FUTO
 10
12551.016406988911
 20
14054.37832689079
 30
0.0
 40
1329.0
 50
304.64232485469063
 51
308.69442652076913
  0
LINE
  5
3C79
  8
FUTO
 10
12404.016406988911
 20
16267.767023084711
 30
0.0
 11
12404.016406988911
 21
16836.767023084711
 31
0.0
  0
LINE
  5
3C7A
  8
FUTO
 10
12494.016406988911
 20
16267.767023084711
 30
0.0
 11
12494.016406988911
 21
16836.767023084711
 31
0.0
  0
LINE
  5
3C7B
  8
FUTO
 10
12069.016406988911
 20
15827.767023084711
 30
0.0
 11
13869.016406988911
 21
15827.767023084711
 31
0.0
  0
LINE
  5
3C7D
  8
SL
 10
12199.016406988911
 20
16015.66702308471
 30
0.0
 11
13755.016406988911
 21
16015.66702308471
 31
0.0
  0
LINE
  5
3C7E
  8
SL
 10
12199.016406988911
 20
15937.767023084711
 30
0.0
 11
13755.016406988911
 21
15937.767023084711
 31
0.0
  0
LINE
  5
3C7F
  8
CT
 10
12330.51291002879
 20
16197.767023084711
 30
0.0
 11
12611.847038775621
 21
16197.767023084711
 31
0.0
  0
LINE
  5
3C80
  8
CT
 10
13649.016406988911
 20
15790.810293563991
 30
0.0
 11
13649.016406988911
 21
16093.62897667544
 31
0.0
  0
LINE
  5
3C81
  8
SL
 10
13543.016406988911
 20
15937.767023084711
 30
0.0
 11
13543.016406988911
 21
16015.66702308471
 31
0.0
  0
LINE
  5
3C82
  8
SL
 10
13755.016406988911
 20
15937.767023084711
 30
0.0
 11
13755.016406988911
 21
16015.66702308471
 31
0.0
  0
LINE
  5
3C83
  8
FUTO
 10
13701.95898071312
 20
16082.767023084711
 30
0.0
 11
13869.016406988911
 21
16082.767023084711
 31
0.0
  0
LINE
  5
3C84
  8
SL
 10
13589.016406988911
 20
16030.767023084711
 30
0.0
 11
13709.016406988911
 21
16030.767023084711
 31
0.0
  0
LINE
  5
3C85
  8
SL
 10
13589.016406988911
 20
16015.66702308471
 30
0.0
 11
13589.016406988911
 21
16030.767023084711
 31
0.0
  0
LINE
  5
3C86
  8
SL
 10
13709.016406988911
 20
16015.66702308471
 30
0.0
 11
13709.016406988911
 21
16030.767023084711
 31
0.0
  0
LINE
  5
3C87
  8
SL
 10
12699.016406988911
 20
15937.767023084711
 30
0.0
 11
12699.016406988911
 21
16015.66702308471
 31
0.0
  0
LINE
  5
3C88
  8
FUTO
 10
12356.016406988911
 20
16247.767023084711
 30
0.0
 11
12356.016406988911
 21
16147.767023084711
 31
0.0
  0
LINE
  5
3C8B
  8
FUTO
 10
12069.016406988911
 20
16082.767023084711
 30
0.0
 11
12295.326037083199
 21
16082.767023084711
 31
0.0
  0
LINE
  5
3C8C
  8
SL
 10
12199.016406988911
 20
15937.767023084711
 30
0.0
 11
12199.016406988911
 21
16015.66702308471
 31
0.0
  0
LINE
  5
3C8D
  8
FUTO
 10
12406.516406988911
 20
16037.767023084711
 30
0.0
 11
12406.516406988911
 21
16127.267023084711
 31
0.0
  0
LINE
  5
3C8E
  8
FUTO
 10
12491.516406988911
 20
16037.767023084711
 30
0.0
 11
12491.516406988911
 21
16127.267023084711
 31
0.0
  0
LINE
  5
3C8F
  8
SL
 10
12369.016406988911
 20
16015.66702308471
 30
0.0
 11
12369.016406988911
 21
16037.767023084711
 31
0.0
  0
LINE
  5
3C90
  8
SL
 10
12529.016406988911
 20
16015.66702308471
 30
0.0
 11
12529.016406988911
 21
16037.767023084711
 31
0.0
  0
LINE
  5
3C91
  8
SL
 10
12369.016406988911
 20
16037.767023084711
 30
0.0
 11
12529.016406988911
 21
16037.767023084711
 31
0.0
  0
LINE
  5
3C94
  8
FUTO
 10
12359.016406988911
 20
16147.767023084711
 30
0.0
 11
12359.016406988911
 21
16138.767023084711
 31
0.0
  0
ARC
  5
3C95
  8
FUTO
 10
12365.016406988911
 20
16138.767023084711
 30
0.0
 40
6.0
 50
180.0
 51
270.0
  0
LINE
  5
3C96
  8
FUTO
 10
12374.016406988911
 20
16132.767023084711
 30
0.0
 11
12374.016406988911
 21
16127.267023084711
 31
0.0
  0
ARC
  5
3C97
  8
FUTO
 10
12533.016406988911
 20
16138.767023084711
 30
0.0
 40
6.0
 50
270.0
 51
0.000000000000007
  0
LINE
  5
3C98
  8
FUTO
 10
12539.016406988911
 20
16138.767023084711
 30
0.0
 11
12539.016406988911
 21
16147.767023084711
 31
0.0
  0
LINE
  5
3C9A
  8
FUTO
 10
12524.016406988911
 20
16127.267023084711
 30
0.0
 11
12524.016406988911
 21
16132.767023084711
 31
0.0
  0
LINE
  5
3C9B
  8
FUTO
 10
12365.016406988911
 20
16132.767023084711
 30
0.0
 11
12533.016406988911
 21
16132.767023084711
 31
0.0
  0
LINE
  5
3C9C
  8
FUTO
 10
12374.016406988911
 20
16127.267023084711
 30
0.0
 11
12524.016406988911
 21
16127.267023084711
 31
0.0
  0
LINE
  5
3C9D
  8
FUTO
 10
12356.016406988911
 20
16147.767023084711
 30
0.0
 11
12542.016406988911
 21
16147.767023084711
 31
0.0
  0
LINE
  5
3C9F
  8
FUTO
 10
12069.016406988911
 20
15827.767023084711
 30
0.0
 11
12069.016406988911
 21
16082.767023084711
 31
0.0
  0
POINT
  5
3CA0
  8
DEFPOINTS
 10
12069.016406988911
 20
15827.767023084711
 30
0.0
  0
LINE
  5
3CA3
  8
FUTO
 10
12374.016406988911
 20
16262.767023084711
 30
0.0
 11
12374.016406988911
 21
16268.267023084711
 31
0.0
  0
ARC
  5
3CA4
  8
FUTO
 10
12365.016406988911
 20
16256.767023084711
 30
0.0
 40
6.0
 50
90.0
 51
180.0
  0
LINE
  5
3CA5
  8
FUTO
 10
12359.016406988911
 20
16247.767023084711
 30
0.0
 11
12359.016406988911
 21
16256.767023084711
 31
0.0
  0
LINE
  5
3CA6
  8
FUTO
 10
12524.016406988911
 20
16268.267023084711
 30
0.0
 11
12524.016406988911
 21
16262.767023084711
 31
0.0
  0
ARC
  5
3CA7
  8
FUTO
 10
12533.016406988911
 20
16256.767023084711
 30
0.0
 40
6.0
 50
0.000000000000007
 51
90.0
  0
LINE
  5
3CA9
  8
FUTO
 10
12539.016406988911
 20
16256.767023084711
 30
0.0
 11
12539.016406988911
 21
16247.767023084711
 31
0.0
  0
LINE
  5
3CAA
  8
FUTO
 10
12374.016406988911
 20
16268.267023084711
 30
0.0
 11
12524.016406988911
 21
16268.267023084711
 31
0.0
  0
LINE
  5
3CAB
  8
FUTO
 10
12365.016406988911
 20
16262.767023084711
 30
0.0
 11
12533.016406988911
 21
16262.767023084711
 31
0.0
  0
LINE
  5
3CAC
  8
FUTO
 10
12542.016406988911
 20
16247.767023084711
 30
0.0
 11
12356.016406988911
 21
16247.767023084711
 31
0.0
  0
LINE
  5
3CAF
  8
FUTO
 10
11699.016406988911
 20
18281.767023084711
 30
0.0
 11
13199.016406988911
 21
18281.767023084711
 31
0.0
  0
LINE
  5
3CB0
  8
FUTO
 10
11699.016406988911
 20
18275.767023084711
 30
0.0
 11
13199.016406988911
 21
18275.767023084711
 31
0.0
  0
LINE
  5
3CB1
  8
KL
 10
12458.016406988911
 20
18186.967023084711
 30
0.0
 11
13199.016406988911
 21
18186.967023084711
 31
0.0
  0
LINE
  5
3CB5
  8
KL
 10
11744.703664679881
 20
18183.767023084711
 30
0.0
 11
13153.329149297941
 21
18183.767023084711
 31
0.0
  0
LINE
  5
3CB9
  8
CT
 10
12330.51291002879
 20
16907.767023084711
 30
0.0
 11
12634.18057020406
 21
16907.767023084711
 31
0.0
  0
LINE
  5
3CBA
  8
KL
 10
13149.016406988911
 20
18180.967023084711
 30
0.0
 11
13149.016406988911
 21
18281.767023084711
 31
0.0
  0
LINE
  5
3CBB
  8
KL
 10
13155.016406988911
 20
18186.967023084711
 30
0.0
 11
13155.016406988911
 21
18255.967023084711
 31
0.0
  0
LINE
  5
3CBC
  8
KL
 10
13199.016406988911
 20
18180.967023084711
 30
0.0
 11
13199.016406988911
 21
18186.967023084711
 31
0.0
  0
LINE
  5
3CBD
  8
CT
 10
13181.516406988911
 20
18148.482325489611
 30
0.0
 11
13181.516406988911
 21
18205.52505862165
 31
0.0
  0
LINE
  5
3CBE
  8
FUTO
 10
13199.016406988911
 20
18275.767023084711
 30
0.0
 11
13199.016406988911
 21
18281.767023084711
 31
0.0
  0
LINE
  5
3CBF
  8
CT
 10
13181.516406988911
 20
18252.647288172069
 30
0.0
 11
13181.516406988911
 21
18312.790141925951
 31
0.0
  0
LINE
  5
3CC0
  8
FUTO
 10
13155.016406988911
 20
18255.967023084711
 30
0.0
 11
13155.016406988911
 21
18275.767023084711
 31
0.0
  0
LINE
  5
3CC7
  8
FUTO
 10
12345.016406988911
 20
16974.267023084711
 30
0.0
 11
12345.016406988911
 21
16841.267023084711
 31
0.0
  0
ARC
  5
3CCA
  8
FUTO
 10
12351.016406988911
 20
16841.267023084711
 30
0.0
 40
6.0
 50
180.0
 51
270.0
  0
LINE
  5
3CCB
  8
FUTO
 10
12359.016406988911
 20
16835.267023084711
 30
0.0
 11
12359.016406988911
 21
16830.267023084711
 31
0.0
  0
ARC
  5
3CCC
  8
FUTO
 10
12547.016406988911
 20
16841.267023084711
 30
0.0
 40
6.0
 50
270.0
 51
0.000000000000007
  0
LINE
  5
3CCD
  8
FUTO
 10
12553.016406988911
 20
16841.267023084711
 30
0.0
 11
12553.016406988911
 21
16852.767023084711
 31
0.0
  0
LINE
  5
3CCF
  8
FUTO
 10
12539.016406988911
 20
16830.267023084711
 30
0.0
 11
12539.016406988911
 21
16835.267023084711
 31
0.0
  0
LINE
  5
3CD0
  8
FUTO
 10
12351.016406988911
 20
16835.267023084711
 30
0.0
 11
12547.016406988911
 21
16835.267023084711
 31
0.0
  0
LINE
  5
3CD1
  8
FUTO
 10
12359.016406988911
 20
16830.267023084711
 30
0.0
 11
12539.016406988911
 21
16830.267023084711
 31
0.0
  0
LINE
  5
3CD2
  8
FUTO
 10
12345.016406988911
 20
16852.767023084711
 30
0.0
 11
12553.016406988911
 21
16852.767023084711
 31
0.0
  0
LINE
  5
3CD4
  8
FUTO
 10
12359.016406988911
 20
16980.267023084711
 30
0.0
 11
12359.016406988911
 21
16985.267023084711
 31
0.0
  0
ARC
  5
3CD5
  8
FUTO
 10
12351.016406988911
 20
16974.267023084711
 30
0.0
 40
6.0
 50
90.0
 51
180.0
  0
LINE
  5
3CD6
  8
FUTO
 10
12539.016406988911
 20
16985.267023084711
 30
0.0
 11
12539.016406988911
 21
16980.267023084711
 31
0.0
  0
ARC
  5
3CD7
  8
FUTO
 10
12547.016406988911
 20
16974.267023084711
 30
0.0
 40
6.0
 50
0.000000000000007
 51
90.0
  0
LINE
  5
3CD8
  8
FUTO
 10
12553.016406988911
 20
16974.267023084711
 30
0.0
 11
12553.016406988911
 21
16962.767023084711
 31
0.0
  0
LINE
  5
3CDA
  8
FUTO
 10
12359.016406988911
 20
16985.267023084711
 30
0.0
 11
12539.016406988911
 21
16985.267023084711
 31
0.0
  0
LINE
  5
3CDB
  8
FUTO
 10
12351.016406988911
 20
16980.267023084711
 30
0.0
 11
12547.016406988911
 21
16980.267023084711
 31
0.0
  0
LINE
  5
3CDC
  8
FUTO
 10
12345.016406988911
 20
16962.767023084711
 30
0.0
 11
12553.016406988911
 21
16962.767023084711
 31
0.0
  0
LINE
  5
3CDD
  8
FUTO
 10
12494.016406988911
 20
16976.767023084711
 30
0.0
 11
12494.016406988911
 21
17039.56702308471
 31
0.0
  0
LINE
  5
3CDE
  8
FUTO
 10
12404.016406988911
 20
16976.767023084711
 30
0.0
 11
12404.016406988911
 21
17038.267023084711
 31
0.0
  0
LINE
  5
3CE2
  8
KL
 10
11699.016406988911
 20
18186.967023084711
 30
0.0
 11
12440.016406988911
 21
18186.967023084711
 31
0.0
  0
LINE
  5
3CE4
  8
KL
 10
11749.016406988911
 20
18180.967023084711
 30
0.0
 11
11749.016406988911
 21
18281.767023084711
 31
0.0
  0
LINE
  5
3CE5
  8
KL
 10
11743.016406988911
 20
18186.967023084711
 30
0.0
 11
11743.016406988911
 21
18257.267023084711
 31
0.0
  0
LINE
  5
3CE6
  8
KL
 10
11699.016406988911
 20
18180.967023084711
 30
0.0
 11
11699.016406988911
 21
18186.967023084711
 31
0.0
  0
LINE
  5
3CE7
  8
CT
 10
11716.516406988911
 20
18158.31092184085
 30
0.0
 11
11716.516406988911
 21
18201.0165602661
 31
0.0
  0
LINE
  5
3CE8
  8
FUTO
 10
11699.016406988911
 20
18275.767023084711
 30
0.0
 11
11699.016406988911
 21
18281.767023084711
 31
0.0
  0
LINE
  5
3CE9
  8
CT
 10
11716.516406988911
 20
18253.006035822509
 30
0.0
 11
11716.516406988911
 21
18304.995511378918
 31
0.0
  0
LINE
  5
3CEA
  8
FUTO
 10
11743.016406988911
 20
18257.267023084711
 30
0.0
 11
11743.016406988911
 21
18275.767023084711
 31
0.0
  0
LINE
  5
3D2A
  8
FUTO
 10
12553.016406988911
 20
16974.267023084711
 30
0.0
 11
12553.016406988911
 21
16841.267023084711
 31
0.0
  0
LINE
  5
3D2B
  8
FUTO
 10
12542.016406988911
 20
16247.767023084711
 30
0.0
 11
12542.016406988911
 21
16147.767023084711
 31
0.0
  0
ARC
  5
4030
  8
FUTO
 10
13649.016406988911
 20
16038.767023084711
 30
0.0
 40
9.0
 50
0.000000000000007
 51
180.0
  0
LINE
  5
4031
  8
FUTO
 10
13658.016406988911
 20
15937.767023084711
 30
0.0
 11
13658.016406988911
 21
16038.767023084711
 31
0.0
  0
LINE
  5
4032
  8
FUTO
 10
13640.016406988911
 20
15937.767023084711
 30
0.0
 11
13640.016406988911
 21
16038.767023084711
 31
0.0
  0
LINE
  5
4033
  8
FUTO
 10
13906.01634598891
 20
16452.266962084708
 30
0.0
 11
13906.01634598891
 21
16488.267023084711
 31
0.0
  0
LINE
  5
4034
  8
FUTO
 10
13909.01634598891
 20
16452.266962084708
 30
0.0
 11
13909.01634598891
 21
16488.267023084711
 31
0.0
  0
LINE
  5
4035
  8
FUTO
 10
13901.01634598891
 20
16452.266962084708
 30
0.0
 11
13901.01634598891
 21
16499.267023084711
 31
0.0
  0
LINE
  5
4036
  8
FUTO
 10
13859.016406988911
 20
16113.267023084711
 30
0.0
 11
13859.016406988911
 21
16160.142023084711
 31
0.0
  0
LINE
  5
4037
  8
FUTO
 10
13806.70804198443
 20
16108.267023084711
 30
0.0
 11
13854.016406988911
 21
16108.267023084711
 31
0.0
  0
ARC
  5
4038
  8
FUTO
 10
13854.016406988911
 20
16113.267023084711
 30
0.0
 40
5.0
 50
270.0
 51
0.000000000000007
  0
LINE
  5
4039
  8
FUTO
 10
13838.697752207339
 20
16160.142023084711
 30
0.0
 11
13859.016406988911
 21
16160.142023084711
 31
0.0
  0
LINE
  5
403A
  8
FUTO
 10
13859.016406988911
 20
16158.267023084711
 30
0.0
 11
13906.01634598891
 21
16158.267023084711
 31
0.0
  0
LINE
  5
403B
  8
FUTO
 10
13859.016406988911
 20
16155.267023084711
 30
0.0
 11
13909.01634598891
 21
16155.267023084711
 31
0.0
  0
LINE
  5
403C
  8
FUTO
 10
13838.806880557189
 20
16163.267023084711
 30
0.0
 11
13901.01634598891
 21
16163.267023084711
 31
0.0
  0
LINE
  5
403D
  8
FUTO
 10
13901.01634598891
 20
16163.267023084711
 30
0.0
 11
13906.01634598891
 21
16158.267023084711
 31
0.0
  0
LINE
  5
403E
  8
FUTO
 10
13934.01634598891
 20
16198.267023084711
 30
0.0
 11
13934.01634598891
 21
16238.267023084711
 31
0.0
  0
LINE
  5
403F
  8
FUTO
 10
13904.01634598891
 20
16198.267023084711
 30
0.0
 11
13904.01634598891
 21
16238.267023084711
 31
0.0
  0
LINE
  5
4040
  8
FUTO
 10
13934.01634598891
 20
16238.267023084711
 30
0.0
 11
13904.01634598891
 21
16238.267023084711
 31
0.0
  0
LINE
  5
4041
  8
FUTO
 10
13904.01634598891
 20
16198.267023084711
 30
0.0
 11
13934.01634598891
 21
16198.267023084711
 31
0.0
  0
LINE
  5
4042
  8
CT
 10
13852.516406988911
 20
16218.267023084711
 30
0.0
 11
14020.070788988911
 21
16218.267023084711
 31
0.0
  0
LINE
  5
4043
  8
FUTO
 10
14008.47081398891
 20
16235.856867084711
 30
0.0
 11
13996.37083798891
 21
16235.856867084711
 31
0.0
  0
LINE
  5
4044
  8
FUTO
 10
14008.47081398891
 20
16200.677180084709
 30
0.0
 11
13996.37083798891
 21
16200.677180084709
 31
0.0
  0
LINE
  5
4045
  8
FUTO
 10
14008.47081398891
 20
16227.97210108471
 30
0.0
 11
13996.37083798891
 21
16227.97210108471
 31
0.0
  0
LINE
  5
4046
  8
FUTO
 10
14008.47081398891
 20
16208.56194508471
 30
0.0
 11
13996.37083798891
 21
16208.56194508471
 31
0.0
  0
LINE
  5
4047
  8
FUTO
 10
14010.070788988911
 20
16234.25725808471
 30
0.0
 11
14010.070788988911
 21
16202.277765084709
 31
0.0
  0
LINE
  5
4048
  8
FUTO
 10
14008.47081398891
 20
16200.677180084709
 30
0.0
 11
14010.070788988911
 21
16202.277765084709
 31
0.0
  0
LINE
  5
4049
  8
FUTO
 10
14008.47081398891
 20
16208.56194508471
 30
0.0
 11
14010.070788988911
 21
16206.962336084711
 31
0.0
  0
LINE
  5
404A
  8
FUTO
 10
14008.47081398891
 20
16208.56194508471
 30
0.0
 11
14010.070788988911
 21
16210.16253108471
 31
0.0
  0
LINE
  5
404B
  8
FUTO
 10
14010.070788988911
 20
16234.25725808471
 30
0.0
 11
14008.47081398891
 21
16235.856867084711
 31
0.0
  0
LINE
  5
404C
  8
FUTO
 10
14008.47081398891
 20
16227.97210108471
 30
0.0
 11
14010.070788988911
 21
16229.57268708471
 31
0.0
  0
LINE
  5
404D
  8
FUTO
 10
14008.47081398891
 20
16227.97210108471
 30
0.0
 11
14010.070788988911
 21
16226.372492084711
 31
0.0
  0
LINE
  5
404E
  8
FUTO
 10
13996.37083798891
 20
16235.856867084711
 30
0.0
 11
13996.37083798891
 21
16200.677180084709
 31
0.0
  0
LINE
  5
404F
  8
FUTO
 10
13996.37083798891
 20
16209.267023084711
 30
0.0
 11
13934.01634598891
 21
16209.267023084711
 31
0.0
  0
LINE
  5
4050
  8
HOSO
 10
13934.01634598891
 20
16211.267023084711
 30
0.0
 11
13996.370898988909
 21
16211.267023084711
 31
0.0
  0
LINE
  5
4051
  8
HOSO
 10
13996.37083798891
 20
16225.267023084711
 30
0.0
 11
13934.01634598891
 21
16225.267023084711
 31
0.0
  0
LINE
  5
4052
  8
FUTO
 10
13934.01634598891
 20
16227.267023084711
 30
0.0
 11
13996.370898988909
 21
16227.267023084711
 31
0.0
  0
LINE
  5
4053
  8
FUTO
 10
13904.01634598891
 20
16209.267023084711
 30
0.0
 11
13852.516406988911
 21
16209.267023084711
 31
0.0
  0
LINE
  5
4054
  8
HOSO
 10
13852.516406988911
 20
16211.267023084711
 30
0.0
 11
13904.01634598891
 21
16211.267023084711
 31
0.0
  0
LINE
  5
4055
  8
FUTO
 10
13852.516406988911
 20
16227.267023084711
 30
0.0
 11
13904.01634598891
 21
16227.267023084711
 31
0.0
  0
LINE
  5
4056
  8
HOSO
 10
13904.01634598891
 20
16225.267023084711
 30
0.0
 11
13852.516406988911
 21
16225.267023084711
 31
0.0
  0
LINE
  5
4057
  8
FUTO
 10
13909.01634598891
 20
16155.267023084711
 30
0.0
 11
13909.01634598891
 21
16198.267023084711
 31
0.0
  0
LINE
  5
4058
  8
FUTO
 10
13906.01634598891
 20
16158.267023084711
 30
0.0
 11
13906.01634598891
 21
16198.267023084711
 31
0.0
  0
LINE
  5
4059
  8
FUTO
 10
13901.01634598891
 20
16163.267023084711
 30
0.0
 11
13901.01634598891
 21
16209.267023084711
 31
0.0
  0
LINE
  5
405A
  8
FUTO
 10
13909.01634598891
 20
16238.267023084711
 30
0.0
 11
13909.01634598891
 21
16274.267023084711
 31
0.0
  0
LINE
  5
405B
  8
FUTO
 10
13906.01634598891
 20
16238.267023084711
 30
0.0
 11
13906.01634598891
 21
16274.267023084711
 31
0.0
  0
LINE
  5
405C
  8
FUTO
 10
13901.01634598891
 20
16227.267023084711
 30
0.0
 11
13901.01634598891
 21
16274.267023084711
 31
0.0
  0
LINE
  5
405D
  8
FUTO
 10
13934.01634598891
 20
16499.267023084711
 30
0.0
 11
13996.370898988909
 21
16499.267023084711
 31
0.0
  0
LINE
  5
405E
  8
HOSO
 10
13996.37083798891
 20
16501.267023084711
 30
0.0
 11
13934.01634598891
 21
16501.267023084711
 31
0.0
  0
LINE
  5
405F
  8
HOSO
 10
13934.01634598891
 20
16515.267023084711
 30
0.0
 11
13996.370898988909
 21
16515.267023084711
 31
0.0
  0
LINE
  5
4060
  8
FUTO
 10
13996.37083798891
 20
16517.267023084711
 30
0.0
 11
13934.01634598891
 21
16517.267023084711
 31
0.0
  0
LINE
  5
4061
  8
FUTO
 10
13996.37083798891
 20
16490.677179084709
 30
0.0
 11
13996.37083798891
 21
16525.856866084709
 31
0.0
  0
LINE
  5
4062
  8
FUTO
 10
14008.47081398891
 20
16498.561945084712
 30
0.0
 11
14010.070788988911
 21
16500.161554084709
 31
0.0
  0
LINE
  5
4063
  8
FUTO
 10
14008.47081398891
 20
16498.561945084712
 30
0.0
 11
14010.070788988911
 21
16496.961359084711
 31
0.0
  0
LINE
  5
4064
  8
FUTO
 10
14010.070788988911
 20
16492.276788084699
 30
0.0
 11
14008.47081398891
 21
16490.677179084709
 31
0.0
  0
LINE
  5
4065
  8
FUTO
 10
14008.47081398891
 20
16517.97210108471
 30
0.0
 11
14010.070788988911
 21
16516.371515084709
 31
0.0
  0
LINE
  5
4066
  8
FUTO
 10
14008.47081398891
 20
16517.97210108471
 30
0.0
 11
14010.070788988911
 21
16519.571710084711
 31
0.0
  0
LINE
  5
4067
  8
FUTO
 10
14008.47081398891
 20
16525.856866084709
 30
0.0
 11
14010.070788988911
 21
16524.256281084708
 31
0.0
  0
LINE
  5
4068
  8
FUTO
 10
14010.070788988911
 20
16492.276788084699
 30
0.0
 11
14010.070788988911
 21
16524.256281084708
 31
0.0
  0
LINE
  5
4069
  8
FUTO
 10
14008.47081398891
 20
16517.97210108471
 30
0.0
 11
13996.37083798891
 21
16517.97210108471
 31
0.0
  0
LINE
  5
406A
  8
FUTO
 10
14008.47081398891
 20
16498.561945084712
 30
0.0
 11
13996.37083798891
 21
16498.561945084712
 31
0.0
  0
LINE
  5
406B
  8
FUTO
 10
14008.47081398891
 20
16525.856866084709
 30
0.0
 11
13996.37083798891
 21
16525.856866084709
 31
0.0
  0
LINE
  5
406C
  8
FUTO
 10
14008.47081398891
 20
16490.677179084709
 30
0.0
 11
13996.37083798891
 21
16490.677179084709
 31
0.0
  0
LINE
  5
406D
  8
FUTO
 10
13904.01634598891
 20
16528.267023084711
 30
0.0
 11
13934.01634598891
 21
16528.267023084711
 31
0.0
  0
LINE
  5
406E
  8
FUTO
 10
13934.01634598891
 20
16488.267023084711
 30
0.0
 11
13904.01634598891
 21
16488.267023084711
 31
0.0
  0
LINE
  5
406F
  8
FUTO
 10
13904.01634598891
 20
16528.267023084711
 30
0.0
 11
13904.01634598891
 21
16488.267023084711
 31
0.0
  0
LINE
  5
4070
  8
FUTO
 10
13934.01634598891
 20
16528.267023084711
 30
0.0
 11
13934.01634598891
 21
16488.267023084711
 31
0.0
  0
LINE
  5
4071
  8
HOSO
 10
13904.01634598891
 20
16501.267023084711
 30
0.0
 11
13852.516406988911
 21
16501.267023084711
 31
0.0
  0
LINE
  5
4072
  8
FUTO
 10
13852.516406988911
 20
16499.267023084711
 30
0.0
 11
13904.01634598891
 21
16499.267023084711
 31
0.0
  0
LINE
  5
4073
  8
HOSO
 10
13852.516406988911
 20
16515.267023084711
 30
0.0
 11
13904.01634598891
 21
16515.267023084711
 31
0.0
  0
LINE
  5
4074
  8
FUTO
 10
13904.01634598891
 20
16517.267023084711
 30
0.0
 11
13852.516406988911
 21
16517.267023084711
 31
0.0
  0
LINE
  5
4075
  8
CT
 10
13852.516406988911
 20
16508.267023084711
 30
0.0
 11
14020.070788988911
 21
16508.267023084711
 31
0.0
  0
LINE
  5
4076
  8
FUTO
 10
13901.01634598891
 20
16563.267023084711
 30
0.0
 11
13906.01634598891
 21
16568.267023084711
 31
0.0
  0
LINE
  5
4077
  8
FUTO
 10
13859.016406988911
 20
16571.267023084711
 30
0.0
 11
13909.01634598891
 21
16571.267023084711
 31
0.0
  0
LINE
  5
4078
  8
FUTO
 10
13859.016406988911
 20
16568.267023084711
 30
0.0
 11
13906.01634598891
 21
16568.267023084711
 31
0.0
  0
LINE
  5
4079
  8
FUTO
 10
13852.516406988911
 20
16566.392023084711
 30
0.0
 11
13859.016406988911
 21
16566.392023084711
 31
0.0
  0
LINE
  5
407A
  8
FUTO
 10
13852.516406988911
 20
16563.267023084711
 30
0.0
 11
13901.01634598891
 21
16563.267023084711
 31
0.0
  0
LINE
  5
407B
  8
FUTO
 10
13901.01634598891
 20
16563.267023084711
 30
0.0
 11
13901.01634598891
 21
16517.267023084711
 31
0.0
  0
LINE
  5
407C
  8
FUTO
 10
13906.01634598891
 20
16568.267023084711
 30
0.0
 11
13906.01634598891
 21
16528.267023084711
 31
0.0
  0
LINE
  5
407D
  8
FUTO
 10
13909.01634598891
 20
16571.267023084711
 30
0.0
 11
13909.01634598891
 21
16528.267023084711
 31
0.0
  0
ARC
  5
407E
  8
FUTO
 10
13854.016406988911
 20
16613.267023084711
 30
0.0
 40
5.0
 50
0.000000000000007
 51
90.000000000000028
  0
LINE
  5
407F
  8
FUTO
 10
13859.016406988911
 20
16613.267023084711
 30
0.0
 11
13859.016406988911
 21
16566.392023084711
 31
0.0
  0
LINE
  5
4080
  8
FUTO
 10
13841.516406988911
 20
16618.267023084711
 30
0.0
 11
13854.016406988911
 21
16618.267023084711
 31
0.0
  0
LINE
  5
4081
  8
CT
 10
13445.516406988911
 20
16508.267023084711
 30
0.0
 11
13277.96202498891
 21
16508.267023084711
 31
0.0
  0
LINE
  5
4082
  8
FUTO
 10
13394.016467988909
 20
16517.267023084711
 30
0.0
 11
13445.516406988911
 21
16517.267023084711
 31
0.0
  0
LINE
  5
4083
  8
HOSO
 10
13445.516406988911
 20
16515.267023084711
 30
0.0
 11
13394.016467988909
 21
16515.267023084711
 31
0.0
  0
LINE
  5
4084
  8
FUTO
 10
13445.516406988911
 20
16499.267023084711
 30
0.0
 11
13394.016467988909
 21
16499.267023084711
 31
0.0
  0
LINE
  5
4085
  8
HOSO
 10
13394.016467988909
 20
16501.267023084711
 30
0.0
 11
13445.516406988911
 21
16501.267023084711
 31
0.0
  0
LINE
  5
4086
  8
FUTO
 10
13364.016467988909
 20
16528.267023084711
 30
0.0
 11
13364.016467988909
 21
16488.267023084711
 31
0.0
  0
LINE
  5
4087
  8
FUTO
 10
13394.016467988909
 20
16528.267023084711
 30
0.0
 11
13394.016467988909
 21
16488.267023084711
 31
0.0
  0
LINE
  5
4088
  8
FUTO
 10
13364.016467988909
 20
16488.267023084711
 30
0.0
 11
13394.016467988909
 21
16488.267023084711
 31
0.0
  0
LINE
  5
4089
  8
FUTO
 10
13394.016467988909
 20
16528.267023084711
 30
0.0
 11
13364.016467988909
 21
16528.267023084711
 31
0.0
  0
LINE
  5
408A
  8
FUTO
 10
13289.56199998891
 20
16490.677179084709
 30
0.0
 11
13301.661975988911
 21
16490.677179084709
 31
0.0
  0
LINE
  5
408B
  8
FUTO
 10
13289.56199998891
 20
16525.856866084709
 30
0.0
 11
13301.661975988911
 21
16525.856866084709
 31
0.0
  0
LINE
  5
408C
  8
FUTO
 10
13289.56199998891
 20
16498.561945084712
 30
0.0
 11
13301.661975988911
 21
16498.561945084712
 31
0.0
  0
LINE
  5
408D
  8
FUTO
 10
13289.56199998891
 20
16517.97210108471
 30
0.0
 11
13301.661975988911
 21
16517.97210108471
 31
0.0
  0
LINE
  5
408E
  8
FUTO
 10
13287.96202498891
 20
16492.276788084699
 30
0.0
 11
13287.96202498891
 21
16524.256281084708
 31
0.0
  0
LINE
  5
408F
  8
FUTO
 10
13289.56199998891
 20
16525.856866084709
 30
0.0
 11
13287.96202498891
 21
16524.256281084708
 31
0.0
  0
LINE
  5
4090
  8
FUTO
 10
13289.56199998891
 20
16517.97210108471
 30
0.0
 11
13287.96202498891
 21
16519.571710084711
 31
0.0
  0
LINE
  5
4091
  8
FUTO
 10
13289.56199998891
 20
16517.97210108471
 30
0.0
 11
13287.96202498891
 21
16516.371515084709
 31
0.0
  0
LINE
  5
4092
  8
FUTO
 10
13287.96202498891
 20
16492.276788084699
 30
0.0
 11
13289.56199998891
 21
16490.677179084709
 31
0.0
  0
LINE
  5
4093
  8
FUTO
 10
13289.56199998891
 20
16498.561945084712
 30
0.0
 11
13287.96202498891
 21
16496.961359084711
 31
0.0
  0
LINE
  5
4094
  8
FUTO
 10
13289.56199998891
 20
16498.561945084712
 30
0.0
 11
13287.96202498891
 21
16500.161554084709
 31
0.0
  0
LINE
  5
4095
  8
FUTO
 10
13301.661975988911
 20
16490.677179084709
 30
0.0
 11
13301.661975988911
 21
16525.856866084709
 31
0.0
  0
LINE
  5
4096
  8
FUTO
 10
13301.661975988911
 20
16517.267023084711
 30
0.0
 11
13364.016467988909
 21
16517.267023084711
 31
0.0
  0
LINE
  5
4097
  8
HOSO
 10
13364.016467988909
 20
16515.267023084711
 30
0.0
 11
13301.66191498891
 21
16515.267023084711
 31
0.0
  0
LINE
  5
4098
  8
HOSO
 10
13301.661975988911
 20
16501.267023084711
 30
0.0
 11
13364.016467988909
 21
16501.267023084711
 31
0.0
  0
LINE
  5
4099
  8
FUTO
 10
13364.016467988909
 20
16499.267023084711
 30
0.0
 11
13301.66191498891
 21
16499.267023084711
 31
0.0
  0
LINE
  5
409A
  8
FUTO
 10
13389.016467988909
 20
16571.267023084711
 30
0.0
 11
13389.016467988909
 21
16528.267023084711
 31
0.0
  0
LINE
  5
409B
  8
FUTO
 10
13392.016467988909
 20
16568.267023084711
 30
0.0
 11
13392.016467988909
 21
16528.267023084711
 31
0.0
  0
LINE
  5
409C
  8
FUTO
 10
13397.016467988909
 20
16563.267023084711
 30
0.0
 11
13397.016467988909
 21
16517.267023084711
 31
0.0
  0
LINE
  5
409D
  8
FUTO
 10
13456.516406988911
 20
16618.267023084711
 30
0.0
 11
13444.016406988911
 21
16618.267023084711
 31
0.0
  0
LINE
  5
409E
  8
FUTO
 10
13445.516406988911
 20
16563.267023084711
 30
0.0
 11
13397.016467988909
 21
16563.267023084711
 31
0.0
  0
LINE
  5
409F
  8
FUTO
 10
13445.516406988911
 20
16566.392023084711
 30
0.0
 11
13439.016406988911
 21
16566.392023084711
 31
0.0
  0
LINE
  5
40A0
  8
FUTO
 10
13439.016406988911
 20
16613.267023084711
 30
0.0
 11
13439.016406988911
 21
16566.392023084711
 31
0.0
  0
LINE
  5
40A1
  8
FUTO
 10
13439.016406988911
 20
16568.267023084711
 30
0.0
 11
13392.016467988909
 21
16568.267023084711
 31
0.0
  0
LINE
  5
40A2
  8
FUTO
 10
13439.016406988911
 20
16571.267023084711
 30
0.0
 11
13389.016467988909
 21
16571.267023084711
 31
0.0
  0
ARC
  5
40A3
  8
FUTO
 10
13444.016406988911
 20
16613.267023084711
 30
0.0
 40
5.0
 50
90.000000000000028
 51
180.0
  0
LINE
  5
40A4
  8
FUTO
 10
13397.016467988909
 20
16563.267023084711
 30
0.0
 11
13392.016467988909
 21
16568.267023084711
 31
0.0
  0
LINE
  5
40A5
  8
FUTO
 10
13459.33506177048
 20
16160.142023084711
 30
0.0
 11
13439.016406988911
 21
16160.142023084711
 31
0.0
  0
LINE
  5
40A6
  8
FUTO
 10
13397.016467988909
 20
16227.267023084711
 30
0.0
 11
13397.016467988909
 21
16499.267023084711
 31
0.0
  0
LINE
  5
40A7
  8
FUTO
 10
13397.016467988909
 20
16163.267023084711
 30
0.0
 11
13392.016467988909
 21
16158.267023084711
 31
0.0
  0
LINE
  5
40A8
  8
FUTO
 10
13397.016467988909
 20
16163.267023084711
 30
0.0
 11
13397.016467988909
 21
16209.267023084711
 31
0.0
  0
LINE
  5
40A9
  8
FUTO
 10
13459.22593342063
 20
16163.267023084711
 30
0.0
 11
13397.016467988909
 21
16163.267023084711
 31
0.0
  0
ARC
  5
40AA
  8
FUTO
 10
13444.016406988911
 20
16113.267023084711
 30
0.0
 40
5.0
 50
180.0
 51
270.0
  0
LINE
  5
40AB
  8
FUTO
 10
13439.016406988911
 20
16155.267023084711
 30
0.0
 11
13389.016467988909
 21
16155.267023084711
 31
0.0
  0
LINE
  5
40AC
  8
FUTO
 10
13439.016406988911
 20
16158.267023084711
 30
0.0
 11
13392.016467988909
 21
16158.267023084711
 31
0.0
  0
LINE
  5
40AD
  8
FUTO
 10
13491.324771993381
 20
16108.267023084711
 30
0.0
 11
13444.016406988911
 21
16108.267023084711
 31
0.0
  0
LINE
  5
40AE
  8
FUTO
 10
13439.016406988911
 20
16113.267023084711
 30
0.0
 11
13439.016406988911
 21
16160.142023084711
 31
0.0
  0
LINE
  5
40AF
  8
FUTO
 10
13392.016467988909
 20
16238.267023084711
 30
0.0
 11
13392.016467988909
 21
16488.267023084711
 31
0.0
  0
LINE
  5
40B0
  8
FUTO
 10
13389.016467988909
 20
16238.267023084711
 30
0.0
 11
13389.016467988909
 21
16488.267023084711
 31
0.0
  0
LINE
  5
40B1
  8
FUTO
 10
13392.016467988909
 20
16158.267023084711
 30
0.0
 11
13392.016467988909
 21
16198.267023084711
 31
0.0
  0
LINE
  5
40B2
  8
FUTO
 10
13389.016467988909
 20
16155.267023084711
 30
0.0
 11
13389.016467988909
 21
16198.267023084711
 31
0.0
  0
LINE
  5
40B3
  8
HOSO
 10
13394.016467988909
 20
16225.267023084711
 30
0.0
 11
13445.516406988911
 21
16225.267023084711
 31
0.0
  0
LINE
  5
40B4
  8
FUTO
 10
13445.516406988911
 20
16227.267023084711
 30
0.0
 11
13394.016467988909
 21
16227.267023084711
 31
0.0
  0
LINE
  5
40B5
  8
HOSO
 10
13445.516406988911
 20
16211.267023084711
 30
0.0
 11
13394.016467988909
 21
16211.267023084711
 31
0.0
  0
LINE
  5
40B6
  8
FUTO
 10
13394.016467988909
 20
16209.267023084711
 30
0.0
 11
13445.516406988911
 21
16209.267023084711
 31
0.0
  0
LINE
  5
40B7
  8
FUTO
 10
13364.016467988909
 20
16227.267023084711
 30
0.0
 11
13301.66191498891
 21
16227.267023084711
 31
0.0
  0
LINE
  5
40B8
  8
HOSO
 10
13301.661975988911
 20
16225.267023084711
 30
0.0
 11
13364.016467988909
 21
16225.267023084711
 31
0.0
  0
LINE
  5
40B9
  8
HOSO
 10
13364.016467988909
 20
16211.267023084711
 30
0.0
 11
13301.66191498891
 21
16211.267023084711
 31
0.0
  0
LINE
  5
40BA
  8
FUTO
 10
13301.661975988911
 20
16209.267023084711
 30
0.0
 11
13364.016467988909
 21
16209.267023084711
 31
0.0
  0
LINE
  5
40BB
  8
FUTO
 10
13301.661975988911
 20
16235.856867084711
 30
0.0
 11
13301.661975988911
 21
16200.677180084709
 31
0.0
  0
LINE
  5
40BC
  8
FUTO
 10
13289.56199998891
 20
16227.97210108471
 30
0.0
 11
13287.96202498891
 21
16226.372492084711
 31
0.0
  0
LINE
  5
40BD
  8
FUTO
 10
13289.56199998891
 20
16227.97210108471
 30
0.0
 11
13287.96202498891
 21
16229.57268708471
 31
0.0
  0
LINE
  5
40BE
  8
FUTO
 10
13287.96202498891
 20
16234.25725808471
 30
0.0
 11
13289.56199998891
 21
16235.856867084711
 31
0.0
  0
LINE
  5
40BF
  8
FUTO
 10
13289.56199998891
 20
16208.56194508471
 30
0.0
 11
13287.96202498891
 21
16210.16253108471
 31
0.0
  0
LINE
  5
40C0
  8
FUTO
 10
13289.56199998891
 20
16208.56194508471
 30
0.0
 11
13287.96202498891
 21
16206.962336084711
 31
0.0
  0
LINE
  5
40C1
  8
FUTO
 10
13289.56199998891
 20
16200.677180084709
 30
0.0
 11
13287.96202498891
 21
16202.277765084709
 31
0.0
  0
LINE
  5
40C2
  8
FUTO
 10
13287.96202498891
 20
16234.25725808471
 30
0.0
 11
13287.96202498891
 21
16202.277765084709
 31
0.0
  0
LINE
  5
40C3
  8
FUTO
 10
13289.56199998891
 20
16208.56194508471
 30
0.0
 11
13301.661975988911
 21
16208.56194508471
 31
0.0
  0
LINE
  5
40C4
  8
FUTO
 10
13289.56199998891
 20
16227.97210108471
 30
0.0
 11
13301.661975988911
 21
16227.97210108471
 31
0.0
  0
LINE
  5
40C5
  8
FUTO
 10
13289.56199998891
 20
16200.677180084709
 30
0.0
 11
13301.661975988911
 21
16200.677180084709
 31
0.0
  0
LINE
  5
40C6
  8
FUTO
 10
13289.56199998891
 20
16235.856867084711
 30
0.0
 11
13301.661975988911
 21
16235.856867084711
 31
0.0
  0
LINE
  5
40C7
  8
CT
 10
13445.516406988911
 20
16218.267023084711
 30
0.0
 11
13277.96202498891
 21
16218.267023084711
 31
0.0
  0
LINE
  5
40C8
  8
FUTO
 10
13394.016467988909
 20
16198.267023084711
 30
0.0
 11
13364.016467988909
 21
16198.267023084711
 31
0.0
  0
LINE
  5
40C9
  8
FUTO
 10
13364.016467988909
 20
16238.267023084711
 30
0.0
 11
13394.016467988909
 21
16238.267023084711
 31
0.0
  0
LINE
  5
40CA
  8
FUTO
 10
13394.016467988909
 20
16198.267023084711
 30
0.0
 11
13394.016467988909
 21
16238.267023084711
 31
0.0
  0
LINE
  5
40CB
  8
FUTO
 10
13364.016467988909
 20
16198.267023084711
 30
0.0
 11
13364.016467988909
 21
16238.267023084711
 31
0.0
  0
ARC
  5
40CC
  8
FUTO
 10
13980.645556988909
 20
16425.266962084708
 30
0.0
 40
20.0
 50
0.000000000000007
 51
90.000000000000028
  0
ARC
  5
40CD
  8
FUTO
 10
13980.645556988909
 20
16301.267023084711
 30
0.0
 40
20.0
 50
270.0
 51
0.000000000000007
  0
ARC
  5
40CE
  8
FUTO
 10
13990.645556988909
 20
16284.267023084711
 30
0.0
 40
10.0
 50
270.0
 51
0.000000000000007
  0
ARC
  5
40CF
  8
FUTO
 10
13990.645556988909
 20
16442.266962084708
 30
0.0
 40
10.0
 50
0.000000000000007
 51
90.000000000000028
  0
ARC
  5
40D0
  8
FUTO
 10
13887.78883209002
 20
16284.267023084711
 30
0.0
 40
10.0
 50
180.0
 51
270.0
  0
ARC
  5
40D1
  8
FUTO
 10
13890.95594762835
 20
16284.267023084711
 30
0.0
 40
10.0
 50
180.0
 51
270.0
  0
ARC
  5
40D2
  8
FUTO
 10
13887.78883209002
 20
16442.266962084708
 30
0.0
 40
10.0
 50
90.000000000000028
 51
180.0
  0
ARC
  5
40D3
  8
FUTO
 10
13890.95594762835
 20
16442.266962084708
 30
0.0
 40
10.0
 50
90.000000000000028
 51
180.0
  0
LINE
  5
40D4
  8
FUTO
 10
13888.152550907809
 20
16281.267023084711
 30
0.0
 11
13980.645556988909
 21
16281.267023084711
 31
0.0
  0
LINE
  5
40D5
  8
FUTO
 10
13888.152550907809
 20
16445.266962084708
 30
0.0
 11
13980.645556988909
 21
16445.266962084708
 31
0.0
  0
ARC
  5
40D6
  8
FUTO
 10
13874.016406988911
 20
16286.267023084711
 30
0.0
 40
5.0
 50
180.0
 51
270.0
  0
ARC
  5
40D7
  8
FUTO
 10
13874.016406988911
 20
16440.266962084708
 30
0.0
 40
5.0
 50
90.000000000000028
 51
180.0
  0
ARC
  5
40D8
  8
FUTO
 10
13888.152550907809
 20
16286.267023084711
 30
0.0
 40
5.0
 50
180.0
 51
270.0
  0
ARC
  5
40D9
  8
FUTO
 10
13888.152550907809
 20
16440.266962084708
 30
0.0
 40
5.0
 50
90.000000000000028
 51
180.0
  0
LINE
  5
40DA
  8
FUTO
 10
13887.78883209002
 20
16274.267023084711
 30
0.0
 11
13990.645556988909
 21
16274.267023084711
 31
0.0
  0
LINE
  5
40DB
  8
FUTO
 10
13874.016406988911
 20
16281.267023084711
 30
0.0
 11
13877.78883209002
 21
16281.267023084711
 31
0.0
  0
LINE
  5
40DC
  8
FUTO
 10
13887.78883209002
 20
16452.266962084708
 30
0.0
 11
13990.645556988909
 21
16452.266962084708
 31
0.0
  0
LINE
  5
40DD
  8
FUTO
 10
13874.016406988911
 20
16445.266962084708
 30
0.0
 11
13877.78883209002
 21
16445.266962084708
 31
0.0
  0
LINE
  5
40DE
  8
FUTO
 10
13852.516406988911
 20
16423.267023084711
 30
0.0
 11
13852.516406988911
 21
16530.077793833741
 31
0.0
  0
LINE
  5
40DF
  8
FUTO
 10
13869.016406988911
 20
16303.267023084711
 30
0.0
 11
13801.290009428731
 21
16303.267023084711
 31
0.0
  0
LINE
  5
40E0
  8
FUTO
 10
13869.016406988911
 20
16423.267023084711
 30
0.0
 11
13801.290009428731
 21
16423.267023084711
 31
0.0
  0
LINE
  5
40E1
  8
FUTO
 10
13959.335742988909
 20
16301.267023084711
 30
0.0
 11
13959.335742988909
 21
16425.266962084708
 31
0.0
  0
LINE
  5
40E2
  8
FUTO
 10
13883.152550907809
 20
16286.267023084711
 30
0.0
 11
13883.152550907809
 21
16440.266962084708
 31
0.0
  0
LINE
  5
40E3
  8
FUTO
 10
13880.95594762835
 20
16284.267023084711
 30
0.0
 11
13880.95594762835
 21
16442.266962084708
 31
0.0
  0
LINE
  5
40E4
  8
FUTO
 10
13877.78883209002
 20
16284.267023084711
 30
0.0
 11
13877.78883209002
 21
16442.266962084708
 31
0.0
  0
LINE
  5
40E5
  8
FUTO
 10
13869.016406988911
 20
16286.267023084711
 30
0.0
 11
13869.016406988911
 21
16440.266962084708
 31
0.0
  0
LINE
  5
40E6
  8
FUTO
 10
13859.016406988911
 20
16303.267023084711
 30
0.0
 11
13859.016406988911
 21
16423.267023084711
 31
0.0
  0
LINE
  5
40E7
  8
FUTO
 10
13801.290009428731
 20
16303.267023084711
 30
0.0
 11
13801.290009428731
 21
16423.267023084711
 31
0.0
  0
LINE
  5
40E8
  8
FUTO
 10
14000.645556988909
 20
16284.267023084711
 30
0.0
 11
14000.645556988909
 21
16442.266962084708
 31
0.0
  0
LINE
  5
40E9
  8
FUTO
 10
13655.266406988911
 20
16339.517023084711
 30
0.0
 11
13655.266406988911
 21
16387.017023084711
 31
0.0
  0
ARC
  5
40EA
  8
FUTO
 10
13649.016406988911
 20
16339.517023084711
 30
0.0
 40
6.25
 50
180.0
 51
0.000000000000007
  0
ARC
  5
40EB
  8
FUTO
 10
13649.016406988911
 20
16387.017023084711
 30
0.0
 40
6.25
 50
0.000000000000007
 51
180.0
  0
LINE
  5
40EC
  8
CT
 10
14020.645556988909
 20
16363.267023084711
 30
0.0
 11
13369.016467988909
 21
16363.267023084711
 31
0.0
  0
LINE
  5
40ED
  8
FUTO
 10
13642.766406988911
 20
16339.517023084711
 30
0.0
 11
13642.766406988911
 21
16387.017023084711
 31
0.0
  0
LINE
  5
40EE
  8
FUTO
 10
13852.516406988911
 20
16530.077793833741
 30
0.0
 11
13850.69462998891
 21
16532.266962084708
 31
0.0
  0
LINE
  5
40EF
  8
FUTO
 10
13852.516406988911
 20
16196.45611008471
 30
0.0
 11
13846.016406988911
 21
16188.64519708471
 31
0.0
  0
LINE
  5
40F0
  8
FUTO
 10
13852.516406988911
 20
16196.45611008471
 30
0.0
 11
13852.516406988911
 21
16303.267023084711
 31
0.0
  0
LINE
  5
40F1
  8
FUTO
 10
13445.516406988911
 20
16196.45611008471
 30
0.0
 11
13445.516406988911
 21
16530.077793833741
 31
0.0
  0
ARC
  5
40F2
  8
FUTO
 10
13727.016406988911
 20
16089.767023084711
 30
0.0
 40
2.0
 50
270.0
 51
0.000000000000007
  0
ARC
  5
40F3
  8
FUTO
 10
13732.016406988911
 20
16099.920099084709
 30
0.0
 40
2.9999599999999988
 50
92.999557000034059
 51
180.0
  0
LINE
  5
40F4
  8
FUTO
 10
13729.016406988911
 20
16099.920099084709
 30
0.0
 11
13729.016406988911
 21
16089.767023084711
 31
0.0
  0
ARC
  5
40F5
  8
FUTO
 10
13828.112354988911
 20
16143.552668084711
 30
0.0
 40
9.9999679999999991
 50
315.0
 51
358.00067100000211
  0
ARC
  5
40F6
  8
FUTO
 10
13801.119190988909
 20
16116.559503084711
 30
0.0
 40
10.000024
 50
272.99903899993512
 51
315.0
  0
LINE
  5
40F7
  8
FUTO
 10
13835.18339998891
 20
16136.48162308471
 30
0.0
 11
13808.19023498891
 21
16109.48845908471
 31
0.0
  0
LINE
  5
40F8
  8
FUTO
 10
13839.016406988911
 20
16169.267023084711
 30
0.0
 11
13838.106250988911
 21
16143.20379108471
 31
0.0
  0
LINE
  5
40F9
  8
FUTO
 10
13801.64238398891
 20
16106.57317508471
 30
0.0
 11
13713.051074988911
 21
16101.93035308471
 31
0.0
  0
LINE
  5
40FA
  8
FUTO
 10
13811.016406988911
 20
16179.267023084711
 30
0.0
 11
13487.016406988911
 21
16179.267023084711
 31
0.0
  0
LINE
  5
40FB
  8
FUTO
 10
13811.016406988911
 20
16169.267023084711
 30
0.0
 11
13811.016406988911
 21
16174.267023084711
 31
0.0
  0
LINE
  5
40FC
  8
FUTO
 10
13811.016406988911
 20
16174.267023084711
 30
0.0
 11
13811.016406988911
 21
16179.267023084711
 31
0.0
  0
LINE
  5
40FD
  8
FUTO
 10
13846.016406988911
 20
16188.64519708471
 30
0.0
 11
13811.016406988911
 21
16179.267023084711
 31
0.0
  0
ARC
  5
40FE
  8
FUTO
 10
13832.516406988911
 20
16578.740351084711
 30
0.0
 40
20.0
 50
0.000000000000007
 51
20.000046000008609
  0
ARC
  5
40FF
  8
FUTO
 10
13861.516406988911
 20
16616.01574108471
 30
0.0
 40
20.0
 50
180.0
 51
199.9997250000032
  0
LINE
  5
4100
  8
FUTO
 10
13796.66533298891
 20
16560.766962084708
 30
0.0
 11
13800.418262988909
 21
16567.266962084708
 31
0.0
  0
LINE
  5
4101
  8
FUTO
 10
13800.418262988909
 20
16567.266962084708
 30
0.0
 11
13796.66533298891
 21
16573.766962084708
 31
0.0
  0
LINE
  5
4102
  8
FUTO
 10
13851.31035298891
 20
16585.580805084712
 30
0.0
 11
13842.722461988909
 21
16609.17540908471
 31
0.0
  0
LINE
  5
4103
  8
FUTO
 10
13852.516406988911
 20
16532.266962084708
 30
0.0
 11
13852.516406988911
 21
16578.740351084711
 31
0.0
  0
LINE
  5
4104
  8
FUTO
 10
13785.407031988911
 20
16567.266962084708
 30
0.0
 11
13789.159961988909
 21
16573.766962084708
 31
0.0
  0
LINE
  5
4105
  8
FUTO
 10
13789.159961988909
 20
16560.766962084708
 30
0.0
 11
13785.407031988911
 21
16567.266962084708
 31
0.0
  0
LINE
  5
4106
  8
CT
 10
13792.912647988909
 20
16559.824823084709
 30
0.0
 11
13792.912647988909
 21
16574.280878084712
 31
0.0
  0
LINE
  5
4107
  8
CT
 10
13784.522022988909
 20
16567.266962084708
 30
0.0
 11
13801.343555988909
 21
16567.266962084708
 31
0.0
  0
LINE
  5
4108
  8
FUTO
 10
13789.159961988909
 20
16573.766962084708
 30
0.0
 11
13796.66533298891
 21
16573.766962084708
 31
0.0
  0
LINE
  5
4109
  8
FUTO
 10
13789.159961988909
 20
16560.766962084708
 30
0.0
 11
13796.66533298891
 21
16560.766962084708
 31
0.0
  0
CIRCLE
  5
410A
  8
FUTO
 10
13792.912647988909
 20
16567.266962084708
 30
0.0
 40
6.5
  0
ARC
  5
410B
  8
FUTO
 10
13826.516406988911
 20
16676.956049084711
 30
0.0
 40
15.0
 50
0.000000000000007
 51
29.999816999981821
  0
ARC
  5
410C
  8
FUTO
 10
13806.129688988911
 20
16732.266962084708
 30
0.0
 40
4.9999580000000003
 50
30.000281999972739
 51
90.000000000000028
  0
LINE
  5
410D
  8
FUTO
 10
13810.45976698891
 20
16734.766962084708
 30
0.0
 11
13839.506885988911
 21
16684.456049084711
 31
0.0
  0
LINE
  5
410E
  8
FUTO
 10
13841.516406988911
 20
16616.01574108471
 30
0.0
 11
13841.516406988911
 21
16676.956049084711
 31
0.0
  0
LINE
  5
410F
  8
FUTO
 10
13456.516406988911
 20
16616.01574108471
 30
0.0
 11
13456.516406988911
 21
16676.956049084711
 31
0.0
  0
LINE
  5
4110
  8
CT
 10
13649.016406988911
 20
15917.767023084711
 30
0.0
 11
13649.016406988911
 21
16757.267023084711
 31
0.0
  0
LINE
  5
4111
  8
FUTO
 10
13491.36644298891
 20
16737.267023084711
 30
0.0
 11
13806.15675698891
 21
16737.267023084711
 31
0.0
  0
LINE
  5
4112
  8
FUTO
 10
13841.516406988911
 20
16678.1669860847
 30
0.0
 11
13456.56547898891
 21
16678.1669860847
 31
0.0
  0
LINE
  5
4113
  8
FUTO
 10
13487.573046988909
 20
16734.766962084708
 30
0.0
 11
13458.525927988911
 21
16684.456049084711
 31
0.0
  0
ARC
  5
4114
  8
FUTO
 10
13491.90312498891
 20
16732.266962084708
 30
0.0
 40
4.9999580000000003
 50
90.000000000000028
 51
149.9997180000272
  0
ARC
  5
4115
  8
FUTO
 10
13471.516406988911
 20
16676.956049084711
 30
0.0
 40
15.0
 50
150.00018300001821
 51
180.0
  0
LINE
  5
4116
  8
FUTO
 10
13727.016406988911
 20
16087.767023084711
 30
0.0
 11
13649.016406988911
 21
16087.767023084711
 31
0.0
  0
LINE
  5
4117
  8
FUTO
 10
13839.016406988911
 20
16169.267023084711
 30
0.0
 11
13649.016406988911
 21
16169.267023084711
 31
0.0
  0
LINE
  5
4118
  8
FUTO
 10
13811.016406988911
 20
16174.267023084711
 30
0.0
 11
13649.016406988911
 21
16174.267023084711
 31
0.0
  0
LINE
  5
4119
  8
FUTO
 10
13456.199023988909
 20
16612.466913084711
 30
0.0
 11
13841.516406988911
 21
16612.466913084711
 31
0.0
  0
LINE
  5
411A
  8
FUTO
 10
13445.82988298891
 20
16582.266962084708
 30
0.0
 11
13852.203027187779
 21
16582.266962084708
 31
0.0
  0
LINE
  5
411B
  8
FUTO
 10
13445.516406988911
 20
16532.266962084708
 30
0.0
 11
13850.69462998891
 21
16532.266962084708
 31
0.0
  0
LINE
  5
411C
  8
FUTO
 10
13811.016406988911
 20
16174.267023084711
 30
0.0
 11
13649.016406988911
 21
16174.267023084711
 31
0.0
  0
CIRCLE
  5
411D
  8
FUTO
 10
13505.12016598891
 20
16567.266962084708
 30
0.0
 40
6.5
  0
LINE
  5
411E
  8
FUTO
 10
13508.87285198891
 20
16560.766962084708
 30
0.0
 11
13501.367480988911
 21
16560.766962084708
 31
0.0
  0
LINE
  5
411F
  8
FUTO
 10
13508.87285198891
 20
16573.766962084708
 30
0.0
 11
13501.367480988911
 21
16573.766962084708
 31
0.0
  0
LINE
  5
4120
  8
CT
 10
13513.51079098891
 20
16567.266962084708
 30
0.0
 11
13496.68925798891
 21
16567.266962084708
 31
0.0
  0
LINE
  5
4121
  8
CT
 10
13505.12016598891
 20
16559.824823084709
 30
0.0
 11
13505.12016598891
 21
16574.280878084712
 31
0.0
  0
LINE
  5
4122
  8
FUTO
 10
13508.87285198891
 20
16560.766962084708
 30
0.0
 11
13512.625781988911
 21
16567.266962084708
 31
0.0
  0
LINE
  5
4123
  8
FUTO
 10
13512.625781988911
 20
16567.266962084708
 30
0.0
 11
13508.87285198891
 21
16573.766962084708
 31
0.0
  0
LINE
  5
4124
  8
FUTO
 10
13445.516406988911
 20
16532.266962084708
 30
0.0
 11
13445.516406988911
 21
16578.740351084711
 31
0.0
  0
LINE
  5
4125
  8
FUTO
 10
13446.722460988911
 20
16585.580805084712
 30
0.0
 11
13455.31035198891
 21
16609.17540908471
 31
0.0
  0
LINE
  5
4126
  8
FUTO
 10
13497.61455098891
 20
16567.266962084708
 30
0.0
 11
13501.367480988911
 21
16573.766962084708
 31
0.0
  0
LINE
  5
4127
  8
FUTO
 10
13501.367480988911
 20
16560.766962084708
 30
0.0
 11
13497.61455098891
 21
16567.266962084708
 31
0.0
  0
ARC
  5
4128
  8
FUTO
 10
13436.516406988911
 20
16616.01574108471
 30
0.0
 40
20.0
 50
340.0002749999968
 51
0.000000000000007
  0
ARC
  5
4129
  8
FUTO
 10
13465.516406988911
 20
16578.740351084711
 30
0.0
 40
20.0
 50
159.99995399999131
 51
180.0
  0
LINE
  5
412A
  8
FUTO
 10
13445.516406988911
 20
16530.077793833741
 30
0.0
 11
13447.33818398891
 21
16532.266962084708
 31
0.0
  0
LINE
  5
412B
  8
FUTO
 10
13487.016406988911
 20
16174.267023084711
 30
0.0
 11
13649.016406988911
 21
16174.267023084711
 31
0.0
  0
LINE
  5
412C
  8
FUTO
 10
13496.390429988909
 20
16106.57317508471
 30
0.0
 11
13584.98173898891
 21
16101.93035308471
 31
0.0
  0
LINE
  5
412D
  8
FUTO
 10
13459.016406988911
 20
16169.267023084711
 30
0.0
 11
13649.016406988911
 21
16169.267023084711
 31
0.0
  0
LINE
  5
412E
  8
FUTO
 10
13487.016406988911
 20
16174.267023084711
 30
0.0
 11
13649.016406988911
 21
16174.267023084711
 31
0.0
  0
LINE
  5
412F
  8
FUTO
 10
13679.016406988911
 20
16077.767023084711
 30
0.0
 11
13679.016406988911
 21
15937.767023084711
 31
0.0
  0
LINE
  5
4130
  8
FUTO
 10
13619.016406988911
 20
16077.767023084711
 30
0.0
 11
13619.016406988911
 21
15937.767023084711
 31
0.0
  0
LINE
  5
4131
  8
FUTO
 10
13571.016406988911
 20
16087.767023084711
 30
0.0
 11
13649.016406988911
 21
16087.767023084711
 31
0.0
  0
LINE
  5
4132
  8
FUTO
 10
13681.516406988911
 20
16077.767023084711
 30
0.0
 11
13616.516406988911
 21
16077.767023084711
 31
0.0
  0
LINE
  5
4133
  8
FUTO
 10
13681.516406988911
 20
16077.767023084711
 30
0.0
 11
13681.516406988911
 21
16087.767023084711
 31
0.0
  0
LINE
  5
4134
  8
FUTO
 10
13616.516406988911
 20
16077.767023084711
 30
0.0
 11
13616.516406988911
 21
16087.767023084711
 31
0.0
  0
LINE
  5
4135
  8
FUTO
 10
13569.016406988911
 20
16099.920099084709
 30
0.0
 11
13569.016406988911
 21
16089.767023084711
 31
0.0
  0
ARC
  5
4136
  8
FUTO
 10
13566.016406988911
 20
16099.920099084709
 30
0.0
 40
2.9999599999999988
 50
0.000000000000007
 51
87.000442999965941
  0
ARC
  5
4137
  8
FUTO
 10
13571.016406988911
 20
16089.767023084711
 30
0.0
 40
2.0
 50
180.0
 51
270.0
  0
LINE
  5
4138
  8
FUTO
 10
13619.016406988911
 20
15937.767023084711
 30
0.0
 11
13679.016406988911
 21
15937.767023084711
 31
0.0
  0
LINE
  5
4139
  8
FUTO
 10
13445.516406988911
 20
16196.45611008471
 30
0.0
 11
13452.016406988911
 21
16188.64519708471
 31
0.0
  0
LINE
  5
413A
  8
FUTO
 10
13459.016406988911
 20
16169.267023084711
 30
0.0
 11
13459.926562988911
 21
16143.20379108471
 31
0.0
  0
LINE
  5
413B
  8
FUTO
 10
13452.016406988911
 20
16188.64519708471
 30
0.0
 11
13487.016406988911
 21
16179.267023084711
 31
0.0
  0
LINE
  5
413C
  8
FUTO
 10
13487.016406988911
 20
16174.267023084711
 30
0.0
 11
13487.016406988911
 21
16179.267023084711
 31
0.0
  0
LINE
  5
413D
  8
FUTO
 10
13487.016406988911
 20
16169.267023084711
 30
0.0
 11
13487.016406988911
 21
16174.267023084711
 31
0.0
  0
LINE
  5
413E
  8
FUTO
 10
13462.84941398891
 20
16136.48162308471
 30
0.0
 11
13489.84257898891
 21
16109.48845908471
 31
0.0
  0
ARC
  5
413F
  8
FUTO
 10
13496.91362298891
 20
16116.559503084711
 30
0.0
 40
10.000024
 50
225.0
 51
267.00096100006488
  0
ARC
  5
4140
  8
FUTO
 10
13469.92045898891
 20
16143.552668084711
 30
0.0
 40
9.9999679999999991
 50
181.99932899999791
 51
225.0
  0
LINE
  5
4142
  8
FUTO
 10
15497.09590198789
 20
12942.378326890799
 30
0.0
 11
15511.775332912201
 21
12942.378326890799
 31
0.0
  0
LINE
  5
4143
  8
FUTO
 10
15499.775393912199
 20
12922.378326890799
 30
0.0
 11
15534.775393912199
 21
12922.378326890799
 31
0.0
  0
LINE
  5
4144
  8
FUTO
 10
15172.454885836511
 20
12942.378326890799
 30
0.0
 11
15157.775393912199
 21
12942.378326890799
 31
0.0
  0
LINE
  5
4145
  8
FUTO
 10
15169.775393912199
 20
12922.378326890799
 30
0.0
 11
15134.775393912199
 21
12922.378326890799
 31
0.0
  0
LINE
  5
4147
  8
FUTO
 10
15234.775393912199
 20
12917.378326890799
 30
0.0
 11
15234.775393912199
 21
12922.378326890799
 31
0.0
  0
LINE
  5
4148
  8
FUTO
 10
15434.775393912199
 20
12922.378326890799
 30
0.0
 11
15434.775393912199
 21
12917.378326890799
 31
0.0
  0
LINE
  5
4153
  8
FUTO
 10
15189.775393912199
 20
12950.8539128908
 30
0.0
 11
15173.775393912199
 21
12941.616608890799
 31
0.0
  0
LINE
  5
4154
  8
FUTO
 10
15205.775393912199
 20
12941.616608890799
 30
0.0
 11
15189.775393912199
 21
12950.8539128908
 31
0.0
  0
LINE
  5
4155
  8
FUTO
 10
15189.775393912199
 20
12913.9037178908
 30
0.0
 11
15173.775393912199
 21
12923.141022890801
 31
0.0
  0
LINE
  5
4156
  8
FUTO
 10
15205.775393912199
 20
12923.141022890801
 30
0.0
 11
15189.775393912199
 21
12913.9037178908
 31
0.0
  0
LINE
  5
4157
  8
CT
 10
15159.775393912199
 20
12932.378326890799
 30
0.0
 11
15219.775393912199
 21
12932.378326890799
 31
0.0
  0
CIRCLE
  5
4158
  8
FUTO
 10
15189.775393912199
 20
12932.378326890799
 30
0.0
 40
16.0
  0
LINE
  5
4159
  8
FUTO
 10
15205.775393912199
 20
12923.141022890801
 30
0.0
 11
15205.775393912199
 21
12941.616608890799
 31
0.0
  0
LINE
  5
415A
  8
FUTO
 10
15173.775393912199
 20
12923.141022890801
 30
0.0
 11
15173.775393912199
 21
12941.616608890799
 31
0.0
  0
ARC
  5
415B
  8
FUTO
 10
15189.775393912199
 20
12932.378326890799
 30
0.0
 40
20.0
 50
0.000000000000007
 51
180.0
  0
ARC
  5
415C
  8
FUTO
 10
15082.775393912199
 20
12889.378326890799
 30
0.0
 40
3.0
 50
90.0
 51
180.0
  0
LINE
  5
415D
  8
FUTO
 10
15131.650393912199
 20
12892.378326890799
 30
0.0
 11
15082.775393912199
 21
12892.378326890799
 31
0.0
  0
LINE
  5
415E
  8
FUTO
 10
15136.775393912199
 20
12862.378326890799
 30
0.0
 11
15136.775393912199
 21
12867.378326890799
 31
0.0
  0
LINE
  5
415F
  8
FUTO
 10
15126.775393912199
 20
12874.378326890799
 30
0.0
 11
15126.775393912199
 21
12867.378326890799
 31
0.0
  0
LINE
  5
4160
  8
FUTO
 10
15136.775393912199
 20
12862.378326890799
 30
0.0
 11
15079.775393912199
 21
12862.378326890799
 31
0.0
  0
LINE
  5
4161
  8
FUTO
 10
15079.775393912199
 20
12862.378326890799
 30
0.0
 11
15079.775393912199
 21
12889.378326890799
 31
0.0
  0
LINE
  5
4162
  8
CT
 10
15104.775393912199
 20
12912.378326890799
 30
0.0
 11
15104.775393912199
 21
12842.378326890799
 31
0.0
  0
LINE
  5
4163
  8
FUTO
 10
15126.775393912199
 20
12874.378326890799
 30
0.0
 11
15169.775393912199
 21
12874.378326890799
 31
0.0
  0
LINE
  5
4164
  8
FUTO
 10
15134.775393912199
 20
12922.378326890799
 30
0.0
 11
15129.775393912199
 21
12874.378326890799
 31
0.0
  0
LINE
  5
4165
  8
FUTO
 10
15209.775393912199
 20
12932.378326890799
 30
0.0
 11
15209.775393912199
 21
12867.378326890799
 31
0.0
  0
LINE
  5
4166
  8
FUTO
 10
15169.775393912199
 20
12867.378326890799
 30
0.0
 11
15169.775393912199
 21
12932.378326890799
 31
0.0
  0
LINE
  5
4167
  8
CT
 10
15189.775393912199
 20
12857.378326890799
 30
0.0
 11
15189.775393912199
 21
12962.378326890799
 31
0.0
  0
LINE
  5
4168
  8
FUTO
 10
15463.775393912199
 20
12941.616608890799
 30
0.0
 11
15479.775393912199
 21
12950.8539128908
 31
0.0
  0
LINE
  5
4169
  8
FUTO
 10
15463.775393912199
 20
12923.141022890801
 30
0.0
 11
15479.775393912199
 21
12913.9037178908
 31
0.0
  0
LINE
  5
416A
  8
FUTO
 10
15463.775393912199
 20
12923.141022890801
 30
0.0
 11
15463.775393912199
 21
12941.616608890799
 31
0.0
  0
LINE
  5
416B
  8
FUTO
 10
15495.775393912199
 20
12923.141022890801
 30
0.0
 11
15495.775393912199
 21
12941.616608890799
 31
0.0
  0
CIRCLE
  5
416C
  8
FUTO
 10
15479.775393912199
 20
12932.378326890799
 30
0.0
 40
16.0
  0
LINE
  5
416D
  8
FUTO
 10
15479.775393912199
 20
12950.8539128908
 30
0.0
 11
15495.775393912199
 21
12941.616608890799
 31
0.0
  0
LINE
  5
416E
  8
FUTO
 10
15479.775393912199
 20
12913.9037178908
 30
0.0
 11
15495.775393912199
 21
12923.141022890801
 31
0.0
  0
ARC
  5
416F
  8
FUTO
 10
15479.775393912199
 20
12932.378326890799
 30
0.0
 40
20.0
 50
0.000000000000007
 51
180.0
  0
LINE
  5
4170
  8
CT
 10
15509.775393912199
 20
12932.378326890799
 30
0.0
 11
15449.775393912199
 21
12932.378326890799
 31
0.0
  0
LINE
  5
4171
  8
FUTO
 10
15234.775393912199
 20
12917.378326890799
 30
0.0
 11
15434.775393912199
 21
12917.378326890799
 31
0.0
  0
LINE
  5
4172
  8
FUTO
 10
15532.775393912199
 20
12862.378326890799
 30
0.0
 11
15532.775393912199
 21
12867.378326890799
 31
0.0
  0
LINE
  5
4173
  8
FUTO
 10
15542.775393912199
 20
12874.378326890799
 30
0.0
 11
15542.775393912199
 21
12867.378326890799
 31
0.0
  0
LINE
  5
4174
  8
FUTO
 10
15542.775393912199
 20
12874.378326890799
 30
0.0
 11
15499.775393912199
 21
12874.378326890799
 31
0.0
  0
LINE
  5
4175
  8
CT
 10
15564.775393912199
 20
12912.378326890799
 30
0.0
 11
15564.775393912199
 21
12842.378326890799
 31
0.0
  0
ARC
  5
4176
  8
FUTO
 10
15586.775393912199
 20
12889.378326890799
 30
0.0
 40
3.0
 50
0.000000000000007
 51
90.0
  0
LINE
  5
4177
  8
FUTO
 10
15589.775393912199
 20
12862.378326890799
 30
0.0
 11
15589.775393912199
 21
12889.378326890799
 31
0.0
  0
LINE
  5
4178
  8
FUTO
 10
15537.900393912199
 20
12892.378326890799
 30
0.0
 11
15586.775393912199
 21
12892.378326890799
 31
0.0
  0
LINE
  5
4179
  8
FUTO
 10
15532.775393912199
 20
12862.378326890799
 30
0.0
 11
15589.775393912199
 21
12862.378326890799
 31
0.0
  0
LINE
  5
417A
  8
FUTO
 10
15534.775393912199
 20
12922.378326890799
 30
0.0
 11
15539.775393912199
 21
12874.378326890799
 31
0.0
  0
LINE
  5
417B
  8
FUTO
 10
15459.775393912199
 20
12932.378326890799
 30
0.0
 11
15459.775393912199
 21
12867.378326890799
 31
0.0
  0
LINE
  5
417C
  8
FUTO
 10
15499.775393912199
 20
12867.378326890799
 30
0.0
 11
15499.775393912199
 21
12932.378326890799
 31
0.0
  0
LINE
  5
417D
  8
CT
 10
15479.775393912199
 20
12857.378326890799
 30
0.0
 11
15479.775393912199
 21
12962.378326890799
 31
0.0
  0
LINE
  5
41CF
  8
FUTO
 10
15209.775393912199
 20
12874.378326890799
 30
0.0
 11
15459.775393912199
 21
12874.378326890799
 31
0.0
  0
LINE
  5
41D0
  8
FUTO
 10
15126.775393912199
 20
12867.378326890799
 30
0.0
 11
15542.775393912199
 21
12867.378326890799
 31
0.0
  0
LINE
  5
41D1
  8
FUTO
 10
15150.775393912199
 20
13284.378326890799
 30
0.0
 11
15150.775393912199
 21
13247.37832689079
 31
0.0
  0
ARC
  5
41D2
  8
FUTO
 10
15115.061038912199
 20
13301.474274890799
 30
0.0
 40
9.9999679999999991
 50
91.999328999997914
 51
135.0
  0
ARC
  5
41D3
  8
FUTO
 10
15088.0678739122
 20
13274.4811108908
 30
0.0
 40
10.000024
 50
135.0
 51
177.00096100006479
  0
LINE
  5
41D4
  8
FUTO
 10
15107.989993912201
 20
13308.5453198908
 30
0.0
 11
15080.996829912199
 21
13281.5521548908
 31
0.0
  0
LINE
  5
41D5
  8
FUTO
 10
15140.775393912199
 20
13284.378326890799
 30
0.0
 11
15145.775393912199
 21
13284.378326890799
 31
0.0
  0
LINE
  5
41D6
  8
FUTO
 10
15145.775393912199
 20
13284.378326890799
 30
0.0
 11
15150.775393912199
 21
13284.378326890799
 31
0.0
  0
LINE
  5
41D7
  8
FUTO
 10
15160.153567912201
 20
13319.378326890799
 30
0.0
 11
15150.775393912199
 21
13284.378326890799
 31
0.0
  0
LINE
  5
41D8
  8
FUTO
 10
15140.775393912199
 20
13312.37832689079
 30
0.0
 11
15114.712161912201
 21
13311.468170890799
 31
0.0
  0
LINE
  5
41DA
  8
FUTO
 10
15175.775393912199
 20
13332.37832689079
 30
0.0
 11
15160.153567912201
 21
13319.378326890799
 31
0.0
  0
LINE
  5
41DB
  8
FUTO
 10
14909.275393912199
 20
13156.378326890799
 30
0.0
 11
14909.275393912199
 21
13092.378326890799
 31
0.0
  0
ARC
  5
41DC
  8
FUTO
 10
15061.275393912199
 20
13200.378326890799
 30
0.0
 40
2.0
 50
90.0
 51
180.0
  0
ARC
  5
41EB
  8
FUTO
 10
15160.775393912199
 20
13247.37832689079
 30
0.0
 40
10.0
 50
90.0
 51
180.0
  0
ARC
  5
41EE
  8
FUTO
 10
15071.4284699122
 20
13205.378326890799
 30
0.0
 40
2.9999599999999988
 50
270.0
 51
357.00044299996591
  0
LINE
  5
41EF
  8
FUTO
 10
15071.4284699122
 20
13202.378326890799
 30
0.0
 11
15061.275393912199
 21
13202.378326890799
 31
0.0
  0
LINE
  5
41F0
  8
FUTO
 10
15019.275393912199
 20
13156.378326890799
 30
0.0
 11
15019.275393912199
 21
13152.378326890799
 31
0.0
  0
LINE
  5
41F1
  8
FUTO
 10
15049.275393912199
 20
13154.878326890799
 30
0.0
 11
15059.275393912199
 21
13154.878326890799
 31
0.0
  0
LINE
  5
41F2
  8
FUTO
 10
15049.275393912199
 20
13089.878326890799
 30
0.0
 11
15059.275393912199
 21
13089.878326890799
 31
0.0
  0
LINE
  5
41F3
  8
FUTO
 10
15049.275393912199
 20
13089.878326890799
 30
0.0
 11
15049.275393912199
 21
13154.878326890799
 31
0.0
  0
ARC
  5
41F4
  8
FUTO
 10
15160.775393912199
 20
13147.378326890799
 30
0.0
 40
10.0
 50
180.0
 51
270.0
  0
LINE
  5
41F5
  8
FUTO
 10
15059.275393912199
 20
13200.378326890799
 30
0.0
 11
15059.275393912199
 21
13122.378326890799
 31
0.0
  0
LINE
  5
41F6
  8
FUTO
 10
15150.775393912199
 20
13147.378326890799
 30
0.0
 11
15150.775393912199
 21
13247.37832689079
 31
0.0
  0
LINE
  5
41F7
  8
FUTO
 10
15049.275393912199
 20
13152.378326890799
 30
0.0
 11
14909.275393912199
 21
13152.378326890799
 31
0.0
  0
LINE
  5
41F8
  8
FUTO
 10
15049.275393912199
 20
13092.378326890799
 30
0.0
 11
14909.275393912199
 21
13092.378326890799
 31
0.0
  0
LINE
  5
41F9
  8
FUTO
 10
15019.275393912199
 20
13156.378326890799
 30
0.0
 11
14909.275393912199
 21
13156.378326890799
 31
0.0
  0
LINE
  5
41FA
  8
FUTO
 10
15145.775393912199
 20
13284.378326890799
 30
0.0
 11
15145.775393912199
 21
13122.378326890799
 31
0.0
  0
LINE
  5
41FB
  8
FUTO
 10
15140.775393912199
 20
13312.37832689079
 30
0.0
 11
15140.775393912199
 21
13122.378326890799
 31
0.0
  0
LINE
  5
41FC
  8
FUTO
 10
15078.0815459122
 20
13275.004303890801
 30
0.0
 11
15073.438723912201
 21
13186.412994890799
 31
0.0
  0
LINE
  5
41FE
  8
FUTO
 10
15145.775393912199
 20
13284.378326890799
 30
0.0
 11
15145.775393912199
 21
13122.378326890799
 31
0.0
  0
ARC
  5
41FF
  8
FUTO
 10
15323.5404089122
 20
13340.657440890791
 30
0.0
 40
2.9999909999999992
 50
96.115172999988943
 51
174.80557100002201
  0
LINE
  5
4200
  8
FUTO
 10
15320.5527379122
 20
13340.92904789079
 30
0.0
 11
15319.775393912199
 21
13332.37832689079
 31
0.0
  0
ARC
  5
4201
  8
FUTO
 10
15313.8170199122
 20
13333.108124890799
 30
0.0
 40
5.9999760000000002
 50
354.8055729999931
 51
54.396262999995557
  0
ARC
  5
4202
  8
FUTO
 10
15346.0103789122
 20
13340.657440890791
 30
0.0
 40
2.999981
 50
5.194427000006832
 51
83.884827000011072
  0
ARC
  5
4203
  8
FUTO
 10
15334.775393912199
 20
13362.378326890799
 30
0.0
 40
30.0
 50
305.19004800000442
 51
305.60386699997889
  0
LINE
  5
4204
  8
FUTO
 10
15334.775393912199
 20
13344.87832689079
 30
0.0
 11
15346.3299589122
 21
13343.64035089079
 31
0.0
  0
LINE
  5
4205
  8
FUTO
 10
15348.998049912199
 20
13340.92904789079
 30
0.0
 11
15349.775393912199
 21
13332.37832689079
 31
0.0
  0
ARC
  5
4206
  8
FUTO
 10
15355.733767912199
 20
13333.108124890799
 30
0.0
 40
5.9999820000000001
 50
125.6037370000044
 51
185.19442700000681
  0
LINE
  5
4207
  8
FUTO
 10
15334.775393912199
 20
13344.87832689079
 30
0.0
 11
15323.220828912201
 21
13343.64035089079
 31
0.0
  0
LINE
  5
4208
  8
FUTO
 10
15323.220828912201
 20
13343.64035089079
 30
0.0
 11
15346.3299589122
 21
13343.64035089079
 31
0.0
  0
LINE
  5
4209
  8
CT
 10
15374.775393912199
 20
13362.378326890799
 30
0.0
 11
15294.775393912199
 21
13362.378326890799
 31
0.0
  0
LINE
  5
420A
  8
FUTO
 10
15275.775393912199
 20
13271.37832689079
 30
0.0
 11
15393.775393912199
 21
13271.37832689079
 31
0.0
  0
CIRCLE
  5
420B
  8
FUTO
 10
15334.775393912199
 20
13362.378326890799
 30
0.0
 40
17.5
  0
ARC
  5
420C
  8
FUTO
 10
15334.775393912199
 20
13362.378326890799
 30
0.0
 40
30.0
 50
305.60386699997889
 51
234.39614899998969
  0
LINE
  5
420D
  8
FUTO
 10
15493.775332912201
 20
13332.37832689079
 30
0.0
 11
15503.775332912201
 21
13324.0565498908
 31
0.0
  0
ARC
  5
420E
  8
FUTO
 10
15550.248721912199
 20
13305.87832689079
 30
0.0
 40
20.0
 50
69.999953999991405
 51
90.0
  0
ARC
  5
420F
  8
FUTO
 10
15587.5241119122
 20
13334.87832689079
 30
0.0
 40
20.0
 50
250.0002749999968
 51
270.0
  0
LINE
  5
4212
  8
FUTO
 10
15557.089175912201
 20
13324.672272890801
 30
0.0
 11
15580.6837799122
 21
13316.0843818908
 31
0.0
  0
LINE
  5
4213
  8
FUTO
 10
15503.775332912201
 20
13325.87832689079
 30
0.0
 11
15550.248721912199
 21
13325.87832689079
 31
0.0
  0
LINE
  5
4214
  8
FUTO
 10
15493.775332912201
 20
13332.37832689079
 30
0.0
 11
15334.775393912199
 21
13332.37832689079
 31
0.0
  0
LINE
  5
4215
  8
FUTO
 10
15396.775332912201
 20
13264.37832689079
 30
0.0
 11
15272.775393912199
 21
13264.37832689079
 31
0.0
  0
ARC
  5
4216
  8
FUTO
 10
15272.775393912199
 20
13089.6805728908
 30
0.0
 40
20.0
 50
180.0
 51
270.0
  0
CIRCLE
  5
4217
  8
FUTO
 10
15334.775393912199
 20
13056.6805728908
 30
0.0
 40
3.5
  0
LINE
  5
4218
  8
CT
 10
15341.228274912201
 20
13056.6805728908
 30
0.0
 11
15326.639163912199
 21
13056.6805728908
 31
0.0
  0
LINE
  5
4219
  8
FUTO
 10
15272.775393912199
 20
13069.6805728908
 30
0.0
 11
15396.775393912199
 21
13069.6805728908
 31
0.0
  0
LINE
  5
421A
  8
FUTO
 10
15393.775332912201
 20
13049.6805728908
 30
0.0
 11
15275.775393912199
 21
13049.6805728908
 31
0.0
  0
LINE
  5
421B
  8
FUTO
 10
15252.775393912199
 20
13244.37832689079
 30
0.0
 11
15252.775393912199
 21
13089.6805728908
 31
0.0
  0
LINE
  5
421C
  8
FUTO
 10
15245.775393912199
 20
13241.378326890799
 30
0.0
 11
15245.775393912199
 21
13079.6805728908
 31
0.0
  0
LINE
  5
421D
  8
FUTO
 10
15503.775332912201
 20
13257.378326890799
 30
0.0
 11
15419.1525299122
 21
13257.378326890799
 31
0.0
  0
LINE
  5
4221
  8
FUTO
 10
15503.775332912201
 20
13137.378326890799
 30
0.0
 11
15423.775332912201
 21
13137.378326890799
 31
0.0
  0
LINE
  5
4222
  8
FUTO
 10
15416.775332912201
 20
13244.37832689079
 30
0.0
 11
15416.775332912201
 21
13089.6805728908
 31
0.0
  0
LINE
  5
4223
  8
FUTO
 10
15423.775332912201
 20
13241.378326890799
 30
0.0
 11
15423.775332912201
 21
13079.6805728908
 31
0.0
  0
ARC
  5
4224
  8
FUTO
 10
15396.775332912201
 20
13089.6805728908
 30
0.0
 40
20.0
 50
270.0
 51
0.000000000000007
  0
LINE
  5
4225
  8
CT
 10
15443.775332912201
 20
13197.378326890799
 30
0.0
 11
15225.775393912199
 21
13197.378326890799
 31
0.0
  0
ARC
  5
4226
  8
FUTO
 10
15396.775332912201
 20
13244.37832689079
 30
0.0
 40
20.0
 50
0.000000000000007
 51
90.0
  0
ARC
  5
4227
  8
FUTO
 10
15272.775393912199
 20
13244.37832689079
 30
0.0
 40
20.0
 50
90.0
 51
180.0
  0
ARC
  5
4228
  8
FUTO
 10
15275.775393912199
 20
13241.378326890799
 30
0.0
 40
30.0
 50
90.0
 51
180.0
  0
ARC
  5
4229
  8
FUTO
 10
15393.775332912201
 20
13241.378326890799
 30
0.0
 40
30.0
 50
0.000000000000007
 51
90.0
  0
LINE
  5
422E
  8
FUTO
 10
15175.775393912199
 20
13332.37832689079
 30
0.0
 11
15334.775393912199
 21
13332.37832689079
 31
0.0
  0
LINE
  5
422F
  8
FUTO
 10
15160.775393912199
 20
13257.378326890799
 30
0.0
 11
15250.3981969122
 21
13257.378326890799
 31
0.0
  0
LINE
  5
4230
  8
FUTO
 10
15160.775393912199
 20
13137.378326890799
 30
0.0
 11
15245.775393912199
 21
13137.378326890799
 31
0.0
  0
ARC
  5
4231
  8
FUTO
 10
15061.275393912199
 20
13044.378326890799
 30
0.0
 40
2.0
 50
180.0
 51
270.0
  0
ARC
  5
4232
  8
FUTO
 10
15071.4284699122
 20
13039.378326890799
 30
0.0
 40
3.0
 50
2.9995570000340721
 51
90.0
  0
ARC
  5
4233
  8
FUTO
 10
15086.1250029122
 20
13007.346588890799
 30
0.0
 40
10.000139999999989
 50
183.00042699998181
 51
225.00097700000649
  0
ARC
  5
4241
  8
FUTO
 10
15114.917483912201
 20
12978.554108890799
 30
0.0
 40
10.0
 50
225.0
 51
270.0
  0
ARC
  5
4242
  8
FUTO
 10
15088.0678739122
 20
12970.27554389079
 30
0.0
 40
9.9999679999999991
 50
182.9990539999759
 51
225.0
  0
LINE
  5
4243
  8
FUTO
 10
15150.775393912199
 20
12970.61758489079
 30
0.0
 11
15169.864016912201
 21
12970.61758489079
 31
0.0
  0
LINE
  5
4244
  8
FUTO
 10
15151.811282912189
 20
12960.378326890799
 30
0.0
 11
15145.775393912199
 21
12960.378326890799
 31
0.0
  0
LINE
  5
4245
  8
FUTO
 10
15140.775393912199
 20
12960.378326890799
 30
0.0
 11
15145.775393912199
 21
12960.378326890799
 31
0.0
  0
ARC
  5
4246
  8
FUTO
 10
15157.775393912199
 20
12939.378326890799
 30
0.0
 40
3.0
 50
90.0
 51
180.0
  0
ARC
  5
4247
  8
FUTO
 10
15164.864016912201
 20
12947.378326890799
 30
0.0
 40
5.0
 50
270.0
 51
0.000000000000007
  0
LINE
  5
4248
  8
FUTO
 10
15150.775393912199
 20
12963.5047918908
 30
0.0
 11
15153.3339879122
 21
12963.5047918908
 31
0.0
  0
LINE
  5
4249
  8
FUTO
 10
15157.775393912199
 20
12942.378326890799
 30
0.0
 11
15150.775393912199
 21
12963.5047918908
 31
0.0
  0
LINE
  5
424A
  8
FUTO
 10
15169.864016912201
 20
12947.378326890799
 30
0.0
 11
15169.864016912201
 21
12970.61758489079
 31
0.0
  0
LINE
  5
424B
  8
FUTO
 10
15160.9335969122
 20
12942.378326890799
 30
0.0
 11
15150.775393912199
 21
12970.61758489079
 31
0.0
  0
LINE
  5
424C
  8
FUTO
 10
15114.917483912201
 20
12968.55410889079
 30
0.0
 11
15140.775393912199
 21
12968.55410889079
 31
0.0
  0
LINE
  5
424E
  8
FUTO
 10
15074.4067419122
 20
13039.873566890799
 30
0.0
 11
15078.0815459122
 21
12969.752350890791
 31
0.0
  0
LINE
  5
4250
  8
FUTO
 10
15107.8464389122
 20
12971.48306389079
 30
0.0
 11
15079.0539579122
 21
13000.275299890791
 31
0.0
  0
LINE
  5
4253
  8
FUTO
 10
15071.4284699122
 20
13042.378326890799
 30
0.0
 11
15061.275393912199
 21
13042.378326890799
 31
0.0
  0
ARC
  5
4254
  8
FUTO
 10
15115.061038912199
 20
12943.28237989079
 30
0.0
 40
9.9999839999999995
 50
225.0
 51
268.00067100000211
  0
LINE
  5
4255
  8
FUTO
 10
15140.775393912199
 20
12932.378326890799
 30
0.0
 11
15114.712161912201
 21
12933.28848389079
 31
0.0
  0
LINE
  5
4256
  8
FUTO
 10
15154.775393912199
 20
12922.378326890799
 30
0.0
 11
15154.775393912199
 21
12939.378326890799
 31
0.0
  0
LINE
  5
4257
  8
FUTO
 10
15107.989993912201
 20
12936.21133489079
 30
0.0
 11
15080.996829912199
 21
12963.2044988908
 31
0.0
  0
LINE
  5
4258
  8
FUTO
 10
15295.1752959122
 20
12943.9862378908
 30
0.0
 11
15214.775393912199
 21
12942.378326890799
 31
0.0
  0
ARC
  5
4259
  8
FUTO
 10
15309.775393912199
 20
13004.87442089079
 30
0.0
 40
5.0
 50
0.000000000000007
 51
90.0
  0
ARC
  5
425A
  8
FUTO
 10
15359.775393912199
 20
13004.87442089079
 30
0.0
 40
5.0
 50
90.0
 51
180.0
  0
ARC
  5
425B
  8
FUTO
 10
15374.775332912201
 20
12963.982330890791
 30
0.0
 40
20.000091999999999
 50
180.0
 51
268.85427899999138
  0
LINE
  5
425C
  8
FUTO
 10
15354.775393912199
 20
13004.87442089079
 30
0.0
 11
15354.775393912199
 21
12963.982330890791
 31
0.0
  0
LINE
  5
425D
  8
FUTO
 10
15314.775393912199
 20
13004.87442089079
 30
0.0
 11
15314.775393912199
 21
12963.982330890791
 31
0.0
  0
ARC
  5
425E
  8
FUTO
 10
15294.775393912199
 20
12963.982330890791
 30
0.0
 40
20.0
 50
271.14572100000839
 51
0.000000000000007
  0
LINE
  5
425F
  8
FUTO
 10
15234.775393912199
 20
12922.378326890799
 30
0.0
 11
15234.775393912199
 21
12923.378326890799
 31
0.0
  0
ARC
  5
4260
  8
FUTO
 10
15239.775393912199
 20
12923.378326890799
 30
0.0
 40
5.0
 50
90.0
 51
180.0
  0
LINE
  5
4261
  8
FUTO
 10
15239.775393912199
 20
12928.378326890799
 30
0.0
 11
15334.775393912199
 21
12928.378326890799
 31
0.0
  0
ARC
  5
4262
  8
FUTO
 10
15511.775332912201
 20
12939.378326890799
 30
0.0
 40
3.0
 50
0.000000000000007
 51
90.0
  0
LINE
  5
4263
  8
FUTO
 10
15454.775332912201
 20
12942.378326890799
 30
0.0
 11
15462.454885836511
 21
12942.378326890799
 31
0.0
  0
ARC
  5
426D
  8
FUTO
 10
15429.775332912201
 20
12923.378326890799
 30
0.0
 40
5.0
 50
0.000000000000007
 51
90.0
  0
LINE
  5
426E
  8
FUTO
 10
15434.775332912201
 20
12922.378326890799
 30
0.0
 11
15434.775332912201
 21
12923.378326890799
 31
0.0
  0
LINE
  5
426F
  8
FUTO
 10
15434.775332912201
 20
12922.378326890799
 30
0.0
 11
15459.775393912199
 21
12922.378326890799
 31
0.0
  0
LINE
  5
4270
  8
FUTO
 10
15574.3814119122
 20
12926.378326890799
 30
0.0
 11
15583.9973789122
 21
12929.878326890799
 31
0.0
  0
LINE
  5
4271
  8
FUTO
 10
15574.3814119122
 20
12926.378326890799
 30
0.0
 11
15514.775332912201
 21
12926.378326890799
 31
0.0
  0
LINE
  5
4272
  8
FUTO
 10
15514.775332912201
 20
12922.378326890799
 30
0.0
 11
15514.775332912201
 21
12939.378326890799
 31
0.0
  0
LINE
  5
4273
  8
FUTO
 10
15374.3754309122
 20
12943.9862378908
 30
0.0
 11
15454.775332912201
 21
12942.378326890799
 31
0.0
  0
LINE
  5
4274
  8
FUTO
 10
15429.775332912201
 20
12928.378326890799
 30
0.0
 11
15334.775393912199
 21
12928.378326890799
 31
0.0
  0
LINE
  5
4275
  8
FUTO
 10
15214.775393912199
 20
12942.378326890799
 30
0.0
 11
15207.09590198789
 21
12942.378326890799
 31
0.0
  0
LINE
  5
4276
  8
FUTO
 10
15234.775393912199
 20
12922.378326890799
 30
0.0
 11
15209.775393912199
 21
12922.378326890799
 31
0.0
  0
ARC
  5
4277
  8
FUTO
 10
15393.775332912201
 20
13079.6805728908
 30
0.0
 40
30.0
 50
270.0
 51
0.000000000000007
  0
ARC
  5
4278
  8
FUTO
 10
15275.775393912199
 20
13079.6805728908
 30
0.0
 40
30.0
 50
180.0
 51
270.0
  0
LINE
  5
4279
  8
CT
 10
15334.775393912199
 20
13412.37832689079
 30
0.0
 11
15334.775393912199
 21
12842.378326890799
 31
0.0
  0
LINE
  5
427A
  8
FUTO
 10
15145.775393912199
 20
12960.378326890799
 30
0.0
 11
15145.775393912199
 21
13122.378326890799
 31
0.0
  0
LINE
  5
427B
  8
FUTO
 10
15503.775332912201
 20
13325.87832689079
 30
0.0
 11
15503.775332912201
 21
12942.378326890799
 31
0.0
  0
LINE
  5
427C
  8
FUTO
 10
15553.775332912201
 20
13325.5648508908
 30
0.0
 11
15553.775332912201
 21
12926.378326890799
 31
0.0
  0
LINE
  5
427D
  8
FUTO
 10
15583.975283912199
 20
13315.195709890801
 30
0.0
 11
15583.975283912199
 21
12929.878326890799
 31
0.0
  0
LINE
  5
427E
  8
FUTO
 10
15145.775393912199
 20
12960.378326890799
 30
0.0
 11
15145.775393912199
 21
13122.378326890799
 31
0.0
  0
LINE
  5
427F
  8
FUTO
 10
15140.775393912199
 20
12932.378326890799
 30
0.0
 11
15140.775393912199
 21
13122.378326890799
 31
0.0
  0
LINE
  5
4280
  8
FUTO
 10
15059.275393912199
 20
13044.378326890799
 30
0.0
 11
15059.275393912199
 21
13122.378326890799
 31
0.0
  0
ARC
  5
4281
  8
FUTO
 10
15648.464419912199
 20
13299.87832689079
 30
0.0
 40
15.0
 50
60.00018300001819
 51
90.0
  0
ARC
  5
4282
  8
FUTO
 10
15703.775332912201
 20
13279.491608890799
 30
0.0
 40
4.9999580000000003
 50
0.000000000000007
 51
59.999718000027237
  0
LINE
  5
4283
  8
FUTO
 10
15706.275332912201
 20
13283.821686890789
 30
0.0
 11
15655.964419912199
 21
13312.868805890799
 31
0.0
  0
ARC
  5
42CC
  8
FUTO
 10
15703.775332912201
 20
12965.26504589079
 30
0.0
 40
5.0
 50
300.00027500002068
 51
0.000000000000007
  0
ARC
  5
42CE
  8
FUTO
 10
15648.464419912199
 20
12944.878326890799
 30
0.0
 40
15.000085
 50
270.0
 51
299.99981699998182
  0
LINE
  5
42CF
  8
FUTO
 10
15706.275332912201
 20
12960.9349678908
 30
0.0
 11
15655.964419912199
 21
12931.887848890799
 31
0.0
  0
LINE
  5
4301
  8
FUTO
 10
15649.675356912199
 20
12929.878326890799
 30
0.0
 11
15649.675356912199
 21
13314.829254890799
 31
0.0
  0
LINE
  5
4305
  8
FUTO
 10
15708.775393912199
 20
13280.02829089079
 30
0.0
 11
15708.775393912199
 21
12965.23797689079
 31
0.0
  0
LINE
  5
4306
  8
CT
 10
14889.275393912199
 20
13122.378326890799
 30
0.0
 11
15728.775393912199
 21
13122.378326890799
 31
0.0
  0
LINE
  5
4307
  8
FUTO
 10
15587.5241119122
 20
13314.87832689079
 30
0.0
 11
15648.464419912199
 21
13314.87832689079
 31
0.0
  0
LINE
  5
4308
  8
FUTO
 10
15583.975283912199
 20
12929.878326890799
 30
0.0
 11
15648.464419912199
 21
12929.878326890799
 31
0.0
  0
LINE
  5
430D
  8
CT
 10
13514.016406988911
 20
16133.267023084711
 30
0.0
 11
13464.016406988911
 21
16133.267023084711
 31
0.0
  0
LINE
  5
430E
  8
CT
 10
13489.016406988911
 20
16108.267023084711
 30
0.0
 11
13489.016406988911
 21
16158.267023084711
 31
0.0
  0
LINE
  5
430F
  8
CT
 10
13809.016406988911
 20
16108.267023084711
 30
0.0
 11
13809.016406988911
 21
16158.267023084711
 31
0.0
  0
LINE
  5
4310
  8
CT
 10
13784.016406988911
 20
16133.267023084711
 30
0.0
 11
13834.016406988911
 21
16133.267023084711
 31
0.0
  0
LINE
  5
4311
  8
CT
 10
13784.016406988911
 20
16593.267023084711
 30
0.0
 11
13834.016406988911
 21
16593.267023084711
 31
0.0
  0
LINE
  5
4312
  8
CT
 10
13809.016406988911
 20
16618.267023084711
 30
0.0
 11
13809.016406988911
 21
16568.267023084711
 31
0.0
  0
LINE
  5
4313
  8
CT
 10
13489.016406988911
 20
16618.267023084711
 30
0.0
 11
13489.016406988911
 21
16568.267023084711
 31
0.0
  0
LINE
  5
4314
  8
CT
 10
13514.016406988911
 20
16593.267023084711
 30
0.0
 11
13464.016406988911
 21
16593.267023084711
 31
0.0
  0
LINE
  5
4315
  8
FUTO
 10
13869.016406988911
 20
16082.767023084711
 30
0.0
 11
13869.016406988911
 21
15827.767023084711
 31
0.0
  0
LINE
  5
4316
  8
FUTO
 10
13999.016406988911
 20
16133.767023084711
 30
0.0
 11
13999.016406988911
 21
16060.767023084711
 31
0.0
  0
LINE
  5
4317
  8
FUTO
 10
13859.016406988911
 20
17036.767023084711
 30
0.0
 11
13859.016406988911
 21
16133.767023084711
 31
0.0
  0
LINE
  5
4319
  8
FUTO
 10
13514.016406988911
 20
17036.767023084711
 30
0.0
 11
13514.016406988911
 21
16737.267023084711
 31
0.0
  0
LINE
  5
431A
  8
FUTO
 10
13439.016406988911
 20
17036.767023084711
 30
0.0
 11
13439.016406988911
 21
16133.767023084711
 31
0.0
  0
LINE
  5
431B
  8
SL
 10
13784.016406988911
 20
16737.267023084711
 30
0.0
 11
13784.016406988911
 21
16127.767023084711
 31
0.0
  0
LINE
  5
431C
  8
SL
 10
13514.016406988911
 20
16737.267023084711
 30
0.0
 11
13514.016406988911
 21
16127.767023084711
 31
0.0
  0
LINE
  5
431D
  8
FUTO
 10
11446.016406988911
 20
18185.767023084711
 30
0.0
 11
11446.016406988911
 21
17647.767023084711
 31
0.0
  0
LINE
  5
431F
  8
FUTO
 10
11396.016406988911
 20
18231.767023084711
 30
0.0
 11
11396.016406988911
 21
17647.767023084711
 31
0.0
  0
LINE
  5
432D
  8
FUTO
 10
11396.016406988911
 20
18231.767023084711
 30
0.0
 11
13994.016406988911
 21
18231.767023084711
 31
0.0
  0
LINE
  5
433D
  8
FUTO
 10
13994.016406988911
 20
17063.767023084711
 30
0.0
 11
13994.016406988911
 21
18231.767023084711
 31
0.0
  0
LINE
  5
433E
  8
FUTO
 10
12490.016406988911
 20
17063.767023084711
 30
0.0
 11
12490.016406988911
 21
18185.767023084711
 31
0.0
  0
LINE
  5
433F
  8
FUTO
 10
12436.016406988911
 20
17063.767023084711
 30
0.0
 11
12436.016406988911
 21
18231.767023084711
 31
0.0
  0
LINE
  5
4341
  8
FUTO
 10
11396.016406988911
 20
17063.767023084711
 30
0.0
 11
13994.016406988911
 21
17063.767023084711
 31
0.0
  0
LINE
  5
4342
  8
FUTO
 10
11446.016406988911
 20
17109.767023084711
 30
0.0
 11
13299.016406988911
 21
17109.767023084711
 31
0.0
  0
LINE
  5
4343
  8
FUTO
 10
11446.016406988911
 20
17109.767023084711
 30
0.0
 11
11446.016406988911
 21
17647.767023084711
 31
0.0
  0
LINE
  5
4344
  8
FUTO
 10
11396.016406988911
 20
17063.767023084711
 30
0.0
 11
11396.016406988911
 21
17647.767023084711
 31
0.0
  0
LINE
  5
4345
  8
FUTO
 10
13940.016406988911
 20
17111.7670230847
 30
0.0
 11
13940.016406988911
 21
18185.767023084711
 31
0.0
  0
LINE
  5
4347
  8
FUTO
 10
11599.016406988911
 20
17063.767023084711
 30
0.0
 11
11599.016406988911
 21
17036.767023084711
 31
0.0
  0
LINE
  5
4348
  8
FUTO
 10
13994.016406988911
 20
17111.7670230847
 30
0.0
 11
13999.016406988911
 21
17111.767023084711
 31
0.0
  0
LINE
  5
4349
  8
FUTO
 10
12750.549906592491
 20
16133.767023084711
 30
0.0
 11
12750.549906592491
 21
17063.767023084711
 31
0.0
  0
LINE
  5
434A
  8
FUTO
 10
12147.482907385331
 20
16133.767023084711
 30
0.0
 11
12147.482907385331
 21
17063.767023084711
 31
0.0
  0
LINE
  5
434B
  8
SL
 10
13940.016406988911
 20
18185.767023084711
 30
0.0
 11
12490.016406988911
 21
17111.767023084711
 31
0.0
  0
LINE
  5
434C
  8
SL
 10
12490.016406988911
 20
18185.767023084711
 30
0.0
 11
13940.016406988911
 21
17111.7670230847
 31
0.0
  0
INSERT
  5
4367
  8
FUTO
  6
CONTINUOUS
  2
*U20
 10
0.0
 20
0.0
 30
0.0
1001
ACAD
1002
{
1000
R14_HATCH_DATA
1000
4367
1011
1.0
1021
7.7018649960190590E+258
1031
1.4169581010877703E+168
1021
0.0
1031
0.0
1011
0.0
1021
7.7018649960190590E+258
1031
1.4169581010877703E+168
1021
1.0
1031
0.0
1011
0.0
1021
7.7018649960190590E+258
1031
1.4169581010877703E+168
1021
0.0
1031
1.0
1040
0.0
1010
0.0
1020
0.0
1030
1.0
1000
SOLID
1070
     1
1070
     0
1071
        2
1071
        7
1070
     0
1070
     1
1071
        4
1040
13949.016406988911
1040
12712.37832689079
1040
13949.016406988911
1040
12602.37832689079
1040
13989.016406988911
1040
12602.37832689079
1040
13989.016406988911
1040
12712.378326890799
1071
        0
1071
        7
1070
     0
1070
     1
1071
        4
1040
13909.016406988911
1040
12712.378326890799
1040
13909.016406988911
1040
12602.37832689079
1040
13949.016406988911
1040
12602.378326890799
1040
13949.016406988911
1040
12712.378326890799
1071
        0
1070
     0
1070
     1
1040
0.2518002073071134
1071
        2
1040
13966.465738737459
1040
12702.411669186131
1040
0.0
1040
13925.644461751541
1040
12708.95846401842
1040
0.0
1002
}
  0
DIMENSION
  5
4368
  8
FUTO
  2
*D10
 10
12449.016406988911
 20
15216.208710440031
 30
0.0
 11
13221.516406988911
 21
15276.208710440031
 31
0.0
 70
     0
 13
13994.016406988911
 23
14882.37832689079
 33
0.0
 14
12449.016406988911
 24
14953.93972121076
 34
0.0
 50
180.0
1001
ACAD
1000
DSTYLE
1002
{
1070
    40
1040
30.0
1070
   176
1070
     2
1070
   177
1070
     2
1070
   178
1070
     2
1070
   341
1005
44D5
1070
     5
1000
OPEN30
1002
}
  0
LINE
  5
457C
  8
FUTO
 62
     2
 10
11569.016406988911
 20
12712.378326890799
 30
0.0
 11
10941.12460793719
 21
12712.378326890799
 31
0.0
  0
LINE
  5
457D
  8
FUTO
 62
     2
 10
11569.016406988911
 20
12597.378326890799
 30
0.0
 11
10941.12460793719
 21
12597.378326890799
 31
0.0
  0
LINE
  5
457E
  8
FUTO
 62
     2
 10
10971.12460793719
 20
12772.37832689079
 30
0.0
 11
10971.12460793719
 21
12832.37832689079
 31
0.0
  0
LINE
  5
457F
  8
FUTO
 62
     2
 10
10971.12460793719
 20
12537.378326890799
 30
0.0
 11
10971.12460793719
 21
12186.482708260721
 31
0.0
  0
LINE
  5
4580
  8
FUTO
 62
     2
 10
10971.12460793719
 20
12712.378326890799
 30
0.0
 11
10971.12460793719
 21
12597.378326890799
 31
0.0
  0
INSERT
  5
4581
  8
FUTO
 62
     2
  2
_OPEN30
 10
10971.12460793719
 20
12712.378326890799
 30
0.0
 41
-60.0
 42
60.0
 43
60.0
 50
90.0
  0
INSERT
  5
4582
  8
FUTO
 62
     2
  2
_OPEN30
 10
10971.12460793719
 20
12597.378326890799
 30
0.0
 41
-60.0
 42
60.0
 43
60.0
 50
270.0
  0
TEXT
  5
4583
  8
FUTO
 62
     2
 10
10829.472729775551
 20
12528.473650694281
 30
0.0
 40
90.0
  1
(115)
 50
90.0
 51
15.0
  7
SUNPOU
  0
DIMENSION
  5
4584
  8
FUTO
  2
*D15
 10
10971.12460793719
 20
12447.37832689079
 30
0.0
 11
10911.124607937179
 21
12267.378326890799
 31
0.0
 70
     0
 13
11599.016406988911
 23
12597.378326890799
 33
0.0
 14
11599.016406988911
 24
12447.37832689079
 34
0.0
 50
90.0
1001
ACAD
1000
DSTYLE
1002
{
1070
    40
1040
30.0
1070
   176
1070
     2
1070
   177
1070
     2
1070
   178
1070
     2
1070
   341
1005
44D5
1070
     5
1000
OPEN30
1002
}
  0
LINE
  5
4593
  8
FUTO
 10
12861.118531327489
 20
13298.177363393581
 30
0.0
 11
12949.016406988911
 21
12862.37832689079
 31
0.0
  0
LINE
  5
4594
  8
FUTO
 10
12127.88579069275
 20
13749.21551711191
 30
0.0
 11
11949.016406988911
 21
12862.37832689079
 31
0.0
  0
LINE
  5
4595
  8
KL
 10
13280.016406988911
 20
13734.558558892921
 30
0.0
 11
13280.016406988911
 21
13072.07719725674
 31
0.0
  0
LINE
  5
4596
  8
KL
 10
13289.016406988911
 20
13726.751953743449
 30
0.0
 11
13289.016406988911
 21
13067.21944644571
 31
0.0
  0
LINE
  5
4597
  8
FUTO
 10
13280.016406988911
 20
13072.07719725674
 30
0.0
 11
13280.016406988911
 21
12862.37832689079
 31
0.0
  0
LINE
  5
4598
  8
FUTO
 10
13289.016406988911
 20
13067.21944644571
 30
0.0
 11
13289.016406988911
 21
12862.37832689079
 31
0.0
  0
DIMENSION
  5
459B
  8
FUTO
  2
*D16
 10
11396.016406988911
 20
18666.202846277589
 30
0.0
 11
11922.516406988911
 21
18726.202846277589
 31
0.0
 70
     0
 13
12449.016406988911
 23
18562.63960073431
 33
0.0
 14
11396.016406988911
 24
18231.767023084711
 34
0.0
 50
180.0
1001
ACAD
1000
DSTYLE
1002
{
1070
    40
1040
30.0
1070
   176
1070
     2
1070
   177
1070
     2
1070
   178
1070
     2
1070
   341
1005
44D5
1070
     5
1000
OPEN30
1002
}
  0
DIMENSION
  5
45A8
  8
FUTO
  2
*D17
 10
13999.016406988911
 20
18666.202846277589
 30
0.0
 11
13224.016406988911
 21
18726.202846277589
 31
0.0
 70
     0
 13
12449.016406988911
 23
18562.63960073431
 33
0.0
 14
13999.016406988911
 24
17036.767023084711
 34
0.0
 50
180.0
1001
ACAD
1000
DSTYLE
1002
{
1070
    40
1040
30.0
1070
   176
1070
     2
1070
   177
1070
     2
1070
   178
1070
     2
1070
   341
1005
44D5
1070
     5
1000
OPEN30
1002
}
  0
DIMENSION
  5
45B5
  8
FUTO
  2
*D18
 10
11038.710504149039
 20
18281.767023084711
 30
0.0
 11
10978.710504149039
 21
17964.767023084711
 31
0.0
 70
     0
 13
11271.496406409389
 23
17647.767023084711
 33
0.0
 14
11699.016406988911
 24
18281.767023084711
 34
0.0
 50
90.0
1001
ACAD
1000
DSTYLE
1002
{
1070
    40
1040
30.0
1070
   176
1070
     2
1070
   177
1070
     2
1070
   178
1070
     2
1070
   341
1005
44D5
1070
     5
1000
OPEN30
1002
}
  0
DIMENSION
  5
45C2
  8
FUTO
  2
*D19
 10
11038.710504149039
 20
15827.767023084711
 30
0.0
 11
10978.710504149039
 21
16737.767023084711
 31
0.0
 70
     0
 13
11038.710504149039
 23
17647.767023084711
 33
0.0
 14
12069.016406988911
 24
15827.767023084711
 34
0.0
 50
90.0
1001
ACAD
1000
DSTYLE
1002
{
1070
    40
1040
30.0
1070
   176
1070
     2
1070
   177
1070
     2
1070
   178
1070
     2
1070
   341
1005
44D5
1070
     5
1000
OPEN30
1002
}
  0
INSERT
  5
471C
  8
FUTO
  6
CONTINUOUS
  2
*U21
 10
0.0
 20
0.0
 30
0.0
1001
ACAD
1002
{
1000
R14_HATCH_DATA
1000
471C
1011
1.0
1021
7.7018649960190590E+258
1031
1.4169581010877703E+168
1021
0.0
1031
0.0
1011
0.0
1021
7.7018649960190590E+258
1031
1.4169581010877703E+168
1021
1.0
1031
0.0
1011
0.0
1021
7.7018649960190590E+258
1031
1.4169581010877703E+168
1021
0.0
1031
1.0
1040
0.0
1010
0.0
1020
0.0
1030
1.0
1000
SOLID
1070
     1
1070
     0
1071
        2
1071
        7
1070
     0
1070
     1
1071
        4
1040
11801.74825633494
1040
12712.378326890799
1040
11761.74825633494
1040
12712.378326890799
1040
11761.74825633494
1040
12602.37832689079
1040
11801.74825633494
1040
12602.37832689079
1071
        0
1071
        7
1070
     0
1070
     1
1071
        4
1040
11841.74825633494
1040
12712.378326890799
1040
11801.74825633494
1040
12712.378326890799
1040
11801.74825633494
1040
12602.37832689079
1040
11841.74825633494
1040
12602.378326890799
1071
        0
1070
     0
1070
     1
1040
2.668774061825677
1071
        2
1040
11774.382676118061
1040
12659.98389456627
1040
0.0
1040
11827.7969234384
1040
12665.3214447836
1040
0.0
1002
}
  0
INSERT
  5
4775
  8
FUTO
  6
CONTINUOUS
  2
*U22
 10
0.0
 20
0.0
 30
0.0
1001
ACAD
1002
{
1000
R14_HATCH_DATA
1000
4775
1011
1.0
1021
7.7018649960190590E+258
1031
1.4169581010877703E+168
1021
0.0
1031
0.0
1011
0.0
1021
7.7018649960190590E+258
1031
1.4169581010877703E+168
1021
1.0
1031
0.0
1011
0.0
1021
7.7018649960190590E+258
1031
1.4169581010877703E+168
1021
0.0
1031
1.0
1040
0.0
1010
0.0
1020
0.0
1030
1.0
1000
SOLID
1070
     1
1070
     0
1071
        4
1071
        7
1070
     0
1070
     1
1071
        5
1040
15066.275393912199
1040
12712.378326890799
1040
15031.275393912199
1040
12712.378326890799
1040
15026.275393912199
1040
12712.378326890799
1040
15026.275393912199
1040
12602.378326890799
1040
15066.275393912199
1040
12602.378326890799
1071
        0
1071
        7
1070
     0
1070
     1
1071
        4
1040
15106.275393912199
1040
12712.378326890799
1040
15066.275393912199
1040
12712.378326890799
1040
15066.275393912199
1040
12602.378326890799
1040
15106.275393912199
1040
12602.378326890799
1071
        0
1071
        7
1070
     0
1070
     1
1071
        4
1040
17196.275393912201
1040
12712.378326890799
1040
17156.275393912201
1040
12712.378326890799
1040
17156.275393912201
1040
12602.378326890799
1040
17196.275393912201
1040
12602.378326890799
1071
        0
1071
        7
1070
     0
1070
     1
1071
        5
1040
17234.275393912201
1040
12712.378326890799
1040
17196.275393912201
1040
12712.378326890799
1040
17196.275393912201
1040
12602.378326890799
1040
17231.275393912201
1040
12602.378326890799
1040
17234.275393912201
1040
12602.378326890799
1071
        0
1070
     0
1070
     1
1040
2.8220011841934571
1071
        4
1040
15043.53088441756
1040
12650.744493325041
1040
0.0
1040
15083.067589648659
1040
12664.85449880982
1040
0.0
1040
17172.864932746961
1040
12678.96450429461
1040
0.0
1040
17209.577595004099
1040
12676.142503197651
1040
0.0
1002
}
  0
TEXT
  5
4E95
  8
SP
 10
9402.3324647494974
 20
6666.7562062528332
 30
0.0
 40
100.0
  1
 
  0
TEXT
  5
5150
  8
SP
 10
18959.283894752949
 20
14095.353878347671
 30
0.0
 40
100.0
  1
 
  0
LINE
  5
5151
  8
4
 10
18060.534325779779
 20
10494.300651059129
 30
0.0
 11
18060.534325779779
 21
9494.3006510591313
 31
0.0
  0
LINE
  5
5152
  8
4
 10
14560.534325779779
 20
10494.300651059129
 30
0.0
 11
14560.534325779779
 21
9494.3006510591313
 31
0.0
  0
LINE
  5
5153
  8
4
 10
12060.534325779779
 20
10494.300651059129
 30
0.0
 11
12060.534325779779
 21
9494.3006510591313
 31
0.0
  0
LINE
  5
5156
  8
4
 10
12060.534325779779
 20
9494.3006510591313
 30
0.0
 11
18060.534325779779
 21
9494.3006510591313
 31
0.0
  0
LINE
  5
5157
  8
4
 10
12060.534325779779
 20
9994.3006510591349
 30
0.0
 11
18060.534325779779
 21
9994.3006510591349
 31
0.0
  0
TEXT
  5
5158
  8
4
 10
12253.044730014301
 20
10152.015780392199
 30
0.0
 40
250.0
  1
機器名称
  0
TEXT
  5
5159
  8
4
 10
12241.82485590378
 20
9602.5264347191878
 30
0.0
 40
250.0
  1
機器型番
  0
TEXT
  5
515A
  8
4
 10
14584.49963428499
 20
10105.23716284387
 30
0.0
 40
225.0
  1
ミツヤリミットロードファン
  0
TEXT
  5
515B
  8
4
 10
14743.806803707201
 20
9580.0985724588481
 30
0.0
 40
250.0
  1
LL#9-1
  0
TEXT
  5
515D
  8
4
 10
12685.69606774867
 20
19911.444857721712
 30
0.0
 40
270.0
  1
床置防振ベット
  0
TEXT
  5
515E
  8
4
 10
10391.37229242701
 20
20663.705532055621
 30
0.0
 40
360.0
  1
遠心式片吸込片持リミットロードファン
  0
LINE
  5
515F
  8
4
 10
10060.534325779779
 20
20341.344422383161
 30
0.0
 11
18060.534325779779
 21
20341.344422383161
 31
0.0
  0
LINE
  5
5160
  8
4
 10
10060.534325779779
 20
21341.344422383161
 30
0.0
 11
18060.534325779779
 21
21341.344422383161
 31
0.0
  0
LINE
  5
5161
  8
4
 10
12060.534325779779
 20
10494.300651059129
 30
0.0
 11
18060.534325779779
 21
10494.300651059129
 31
0.0
  0
LINE
  5
5162
  8
4
 10
10060.534325779779
 20
21341.344422383161
 30
0.0
 11
10060.534325779779
 21
20341.344422383161
 31
0.0
  0
TEXT
  5
5163
  8
4
 10
10506.401906535149
 20
19905.898038790849
 30
0.0
 40
270.0
  1
左回転上向
  0
TEXT
  5
5164
  8
4
 10
16155.38212202624
 20
21524.606058535672
 30
0.0
 40
280.0
  1
No.
  0
TEXT
  5
5165
  8
4
 10
16222.313549036549
 20
19415.18001471151
 30
0.0
 40
270.0
  1
縮尺：1/50
  0
LINE
  5
5166
  8
4
 10
18060.534325779779
 20
21341.344422383161
 30
0.0
 11
18060.534325779779
 21
20341.344422383161
 31
0.0
  0
LINE
  5
5167
  8
4
 10
19310.534325779779
 20
22744.300651059129
 30
0.0
 11
19310.534325779779
 21
22744.300651059129
 31
0.0
  0
LINE
  5
5168
  8
4
 10
16013.62143757911
 20
21400.618566686138
 30
0.0
 11
16013.62143757911
 21
21927.561958807892
 31
0.0
  0
LINE
  5
5169
  8
4
 10
16013.62143757911
 20
21927.561958807892
 30
0.0
 11
18060.534325779779
 21
21927.561958807892
 31
0.0
  0
LINE
  5
516A
  8
4
 10
18060.534325779779
 20
21927.561958807892
 30
0.0
 11
18060.534325779779
 21
21400.618566686138
 31
0.0
  0
LINE
  5
516B
  8
4
 10
18060.534325779779
 20
21400.618566686138
 30
0.0
 11
16013.62143757911
 21
21400.618566686138
 31
0.0
  0
LINE
  5
516C
  8
4
 10
8810.5343257797867
 20
7994.3006510591331
 30
0.0
 11
8810.5343257797867
 21
22744.300651059129
 31
0.0
  0
LINE
  5
516D
  8
4
 10
8810.5343257797867
 20
22744.300651059129
 30
0.0
 11
19310.534325779779
 21
22744.300651059129
 31
0.0
  0
LINE
  5
516E
  8
4
 10
19310.534325779779
 20
22744.300651059129
 30
0.0
 11
19310.534325779779
 21
7994.3006510591331
 31
0.0
  0
LINE
  5
516F
  8
4
 10
19310.534325779779
 20
7994.3006510591331
 30
0.0
 11
8810.5343257797867
 21
7994.3006510591331
 31
0.0
  0
LINE
  5
53D3
  8
SP
 10
17398.030066929012
 20
14482.592944585669
 30
0.0
 11
17502.113568119279
 21
14482.592944585669
 31
0.0
  0
LINE
  5
53D4
  8
SP
 10
17502.113568119279
 20
14482.592944585669
 30
0.0
 11
17502.113568119279
 21
14534.667485835889
 31
0.0
  0
LINE
  5
53D5
  8
SP
 10
17502.113568119279
 20
14534.667485835889
 30
0.0
 11
17398.030066929012
 21
14534.667485835889
 31
0.0
  0
LINE
  5
53D6
  8
SP
 10
17398.030066929012
 20
14534.667485835889
 30
0.0
 11
17398.030066929012
 21
14572.7505246331
 31
0.0
  0
LINE
  5
53D7
  8
SP
 10
17398.030066929012
 20
14572.7505246331
 30
0.0
 11
17315.122174601602
 21
14508.63021521078
 31
0.0
  0
LINE
  5
53D8
  8
SP
 10
17315.122174601602
 20
14508.63021521078
 30
0.0
 11
17398.030066929012
 21
14444.50990578846
 31
0.0
  0
LINE
  5
53D9
  8
SP
 10
17398.030066929012
 20
14444.50990578846
 30
0.0
 11
17398.030066929012
 21
14482.592944585669
 31
0.0
  0
LINE
  5
53DA
  8
SP
 10
13535.041024106689
 20
15029.32838729319
 30
0.0
 11
13535.041024106689
 21
14925.244886102921
 31
0.0
  0
LINE
  5
53DB
  8
SP
 10
13535.041024106689
 20
14925.244886102921
 30
0.0
 11
13482.966482856469
 21
14925.244886102921
 31
0.0
  0
LINE
  5
53DC
  8
SP
 10
13482.966482856469
 20
14925.244886102921
 30
0.0
 11
13482.966482856469
 21
15029.32838729319
 31
0.0
  0
LINE
  5
53DD
  8
SP
 10
13482.966482856469
 20
15029.32838729319
 30
0.0
 11
13444.883444059269
 21
15029.32838729319
 31
0.0
  0
LINE
  5
53DE
  8
SP
 10
13444.883444059269
 20
15029.32838729319
 30
0.0
 11
13509.00375348158
 21
15112.2362796206
 31
0.0
  0
LINE
  5
53DF
  8
SP
 10
13509.00375348158
 20
15112.2362796206
 30
0.0
 11
13573.1240629039
 21
15029.32838729319
 31
0.0
  0
LINE
  5
53E0
  8
SP
 10
13573.1240629039
 20
15029.32838729319
 30
0.0
 11
13535.041024106689
 21
15029.32838729319
 31
0.0
  0
LINE
  5
53E1
  8
SP
 10
12358.86841025068
 20
14515.97612139579
 30
0.0
 11
12348.031268904209
 21
14555.215104478901
 31
0.0
  0
LINE
  5
53E2
  8
SP
 10
12348.031268904209
 20
14555.215104478901
 30
0.0
 11
12271.00751190705
 21
14466.25714674852
 31
0.0
  0
LINE
  5
53E3
  8
SP
 10
12271.00751190705
 20
14466.25714674852
 30
0.0
 11
12376.16687539548
 21
14453.342059563531
 31
0.0
  0
LINE
  5
53E4
  8
SP
 10
12376.16687539548
 20
14453.342059563531
 30
0.0
 11
12367.38733788508
 21
14485.13089693624
 31
0.0
  0
ARC
  5
53E5
  8
SP
 10
12458.79481020043
 20
14154.1638877243
 30
0.0
 40
343.35766655454478
 50
67.881388989190285
 51
105.4392492787098
  0
LINE
  5
53E6
  8
SP
 10
12588.0776247798
 20
14472.2526191126
 30
0.0
 11
12600.12643122718
 21
14501.897623130029
 31
0.0
  0
ARC
  5
53E7
  8
SP
 10
12458.79481020043
 20
14154.1638877243
 30
0.0
 40
375.35766655454609
 50
67.881388989190285
 51
105.4392492787098
  0
LINE
  5
53E8
  8
SP
 10
11918.801789294041
 20
18426.521696101529
 30
0.0
 11
11918.801789294041
 21
18530.605197291788
 31
0.0
  0
LINE
  5
53E9
  8
SP
 10
11918.801789294041
 20
18530.605197291788
 30
0.0
 11
11866.727248043821
 21
18530.605197291788
 31
0.0
  0
LINE
  5
53EA
  8
SP
 10
11866.727248043821
 20
18530.605197291788
 30
0.0
 11
11866.727248043821
 21
18426.521696101529
 31
0.0
  0
LINE
  5
53EB
  8
SP
 10
11866.727248043821
 20
18426.521696101529
 30
0.0
 11
11828.64420924661
 21
18426.521696101529
 31
0.0
  0
LINE
  5
53EC
  8
SP
 10
11828.64420924661
 20
18426.521696101529
 30
0.0
 11
11892.76451866893
 21
18343.613803774111
 31
0.0
  0
LINE
  5
53ED
  8
SP
 10
11892.76451866893
 20
18343.613803774111
 30
0.0
 11
11956.884828091241
 21
18426.521696101529
 31
0.0
  0
LINE
  5
53EE
  8
SP
 10
11956.884828091241
 20
18426.521696101529
 30
0.0
 11
11918.801789294041
 21
18426.521696101529
 31
0.0
  0
LINE
  5
53EF
  8
FUTO
 10
17156.275393912201
 20
12712.378326890799
 30
0.0
 11
17156.275393912201
 21
12862.378326890799
 31
0.0
1001
ACAD
1000
ASC_BOUNDS
1002
{
1070
    19
1002
}
  0
LINE
  5
53F0
  8
FUTO
 10
17156.275393912201
 20
12862.378326890799
 30
0.0
 11
17231.275393912201
 21
12862.378326890799
 31
0.0
1001
ACAD
1000
ASC_BOUNDS
1002
{
1070
    19
1002
}
  0
LINE
  5
53F1
  8
FUTO
 10
17231.275393912201
 20
12862.378326890799
 30
0.0
 11
17231.275393912201
 21
12859.040138312619
 31
0.0
1001
ACAD
1000
ASC_BOUNDS
1002
{
1070
    19
1002
}
  0
ARC
  5
53F2
  8
FUTO
 10
17227.275393912201
 20
12859.04013831263
 30
0.0
 40
4.0
 50
274.99999999997232
 51
359.99999999994782
1001
ACAD
1000
ASC_BOUNDS
1002
{
1070
    19
1002
}
  0
LINE
  5
53F3
  8
FUTO
 10
17227.62401688319
 20
12855.05535952026
 30
0.0
 11
17166.426770941202
 21
12849.701294261329
 31
0.0
1001
ACAD
1000
ASC_BOUNDS
1002
{
1070
    19
1002
}
  0
ARC
  5
53F4
  8
FUTO
 10
17166.775393912201
 20
12845.716515468959
 30
0.0
 40
3.9999999999995191
 50
95.000000000026546
 51
180.0
1001
ACAD
1000
ASC_BOUNDS
1002
{
1070
    19
1002
}
  0
LINE
  5
53F5
  8
FUTO
 10
17162.775393912201
 20
12845.716515468959
 30
0.0
 11
17162.775393912201
 21
12729.04013831263
 31
0.0
1001
ACAD
1000
ASC_BOUNDS
1002
{
1070
    19
1002
}
  0
ARC
  5
53F6
  8
FUTO
 10
17166.775393912201
 20
12729.04013831263
 30
0.0
 40
4.0
 50
179.99999999997391
 51
264.9999999999734
1001
ACAD
1000
ASC_BOUNDS
1002
{
1070
    19
1002
}
  0
LINE
  5
53F7
  8
FUTO
 10
17166.426770941202
 20
12725.05535952026
 30
0.0
 11
17227.62401688319
 21
12719.701294261329
 31
0.0
1001
ACAD
1000
ASC_BOUNDS
1002
{
1070
    19
1002
}
  0
ARC
  5
53F8
  8
FUTO
 10
17227.275393912201
 20
12715.716515468959
 30
0.0
 40
4.0000000000010143
 50
0.0000000000260551
 51
85.00000000002764
1001
ACAD
1000
ASC_BOUNDS
1002
{
1070
    19
1002
}
  0
LINE
  5
53F9
  8
FUTO
 10
17231.275393912201
 20
12715.716515468959
 30
0.0
 11
17231.275393912201
 21
12712.378326890799
 31
0.0
1001
ACAD
1000
ASC_BOUNDS
1002
{
1070
    19
1002
}
  0
LINE
  5
53FA
  8
FUTO
 10
17231.275393912201
 20
12712.378326890799
 30
0.0
 11
17156.275393912201
 21
12712.378326890799
 31
0.0
1001
ACAD
1000
ASC_BOUNDS
1002
{
1070
    19
1002
}
  0
LINE
  5
53FB
  8
FUTO
 10
15106.275393912199
 20
12862.378326890799
 30
0.0
 11
15031.275393912199
 21
12862.378326890799
 31
0.0
  0
LINE
  5
53FC
  8
FUTO
 10
15096.12401688319
 20
12849.701294261329
 30
0.0
 11
15034.9267709412
 21
12855.05535952026
 31
0.0
  0
LINE
  5
53FD
  8
FUTO
 10
15106.275393912199
 20
12712.378326890799
 30
0.0
 11
15031.275393912199
 21
12712.378326890799
 31
0.0
  0
LINE
  5
53FE
  8
FUTO
 10
15096.12401688319
 20
12725.05535952026
 30
0.0
 11
15034.9267709412
 21
12719.701294261329
 31
0.0
  0
LINE
  5
53FF
  8
FUTO
 10
15099.775393912199
 20
12729.04013831263
 30
0.0
 11
15099.775393912199
 21
12845.716515468959
 31
0.0
  0
ARC
  5
5400
  8
FUTO
 10
15095.775393912199
 20
12845.716515468959
 30
0.0
 40
4.0
 50
0.0
 51
85.000000000023093
  0
LINE
  5
5401
  8
FUTO
 10
15106.275393912199
 20
12712.378326890799
 30
0.0
 11
15106.275393912199
 21
12862.378326890799
 31
0.0
  0
ARC
  5
5402
  8
FUTO
 10
15095.775393912199
 20
12729.04013831263
 30
0.0
 40
4.0
 50
274.99999999997681
 51
0.0
  0
ARC
  5
5403
  8
FUTO
 10
15035.275393912199
 20
12859.04013831263
 30
0.0
 40
4.0
 50
180.0
 51
265.00000000002308
  0
LINE
  5
5404
  8
FUTO
 10
15031.275393912199
 20
12862.378326890799
 30
0.0
 11
15031.275393912199
 21
12859.04013831263
 31
0.0
  0
LINE
  5
5405
  8
FUTO
 10
15031.275393912199
 20
12712.378326890799
 30
0.0
 11
15031.275393912199
 21
12715.716515468959
 31
0.0
  0
ARC
  5
5406
  8
FUTO
 10
15035.275393912199
 20
12715.716515468959
 30
0.0
 40
4.0
 50
94.999999999976893
 51
180.0
  0
LINE
  5
5407
  8
FUTO
 10
16080.275393912199
 20
12597.378326890799
 30
0.0
 11
16005.275393912199
 21
12597.378326890799
 31
0.0
  0
LINE
  5
5408
  8
FUTO
 10
16070.12401688319
 20
12584.701294261329
 30
0.0
 11
16008.926770941211
 21
12590.05535952026
 31
0.0
  0
LINE
  5
5409
  8
FUTO
 10
16080.275393912199
 20
12447.378326890799
 30
0.0
 11
16005.275393912199
 21
12447.378326890799
 31
0.0
  0
LINE
  5
540A
  8
FUTO
 10
16070.12401688319
 20
12460.05535952026
 30
0.0
 11
16008.926770941211
 21
12454.701294261329
 31
0.0
  0
LINE
  5
540B
  8
FUTO
 10
16073.775393912199
 20
12464.04013831263
 30
0.0
 11
16073.775393912199
 21
12580.716515468959
 31
0.0
  0
ARC
  5
540C
  8
FUTO
 10
16069.775393912199
 20
12580.716515468959
 30
0.0
 40
4.0
 50
0.0
 51
85.000000000023093
  0
LINE
  5
540D
  8
FUTO
 10
16080.275393912199
 20
12447.378326890799
 30
0.0
 11
16080.275393912199
 21
12597.378326890799
 31
0.0
  0
ARC
  5
540E
  8
FUTO
 10
16069.775393912199
 20
12464.04013831263
 30
0.0
 40
4.0
 50
274.99999999997681
 51
0.0
  0
ARC
  5
540F
  8
FUTO
 10
16009.275393912199
 20
12594.04013831263
 30
0.0
 40
4.0
 50
180.0
 51
265.00000000002308
  0
LINE
  5
5410
  8
FUTO
 10
16005.275393912199
 20
12597.378326890799
 30
0.0
 11
16005.275393912199
 21
12594.04013831263
 31
0.0
  0
LINE
  5
5411
  8
FUTO
 10
16005.275393912199
 20
12447.378326890799
 30
0.0
 11
16005.275393912199
 21
12450.716515468959
 31
0.0
  0
ARC
  5
5412
  8
FUTO
 10
16009.275393912199
 20
12450.716515468959
 30
0.0
 40
4.0
 50
94.999999999976893
 51
180.0
  0
ENDSEC
  0
EOF
