  0
SECTION
  2
HEADER
  9
$ACADVER
  1
AC1009
  9
$INSBASE
 10
0.0
 20
0.0
 30
0.0
  9
$EXTMIN
 10
1712.366174859987
 20
19382.302093484221
 30
0.0
  9
$EXTMAX
 10
31924.31456187513
 20
34132.302093484221
 30
0.0
  9
$LIMMIN
 10
0.0
 20
0.0
  9
$LIMMAX
 10
420.0
 20
297.0
  9
$ORTHOMODE
 70
     0
  9
$REGENMODE
 70
     1
  9
$FILLMODE
 70
     1
  9
$QTEXTMODE
 70
     0
  9
$MIRRTEXT
 70
     0
  9
$DRAGMODE
 70
     2
  9
$LTSCALE
 40
150.0
  9
$OSMODE
 70
    37
  9
$ATTMODE
 70
     1
  9
$TEXTSIZE
 40
90.0
  9
$TRACEWID
 40
0.05
  9
$TEXTSTYLE
  7
STANDARD
  9
$CLAYER
  8
FUTO
  9
$CELTYPE
  6
BYLAYER
  9
$CECOLOR
 62
   256
  9
$DIMSCALE
 40
30.0
  9
$DIMASZ
 40
2.0
  9
$DIMEXO
 40
1.0
  9
$DIMDLI
 40
10.0
  9
$DIMRND
 40
0.0
  9
$DIMDLE
 40
0.0
  9
$DIMEXE
 40
1.0
  9
$DIMTP
 40
0.0
  9
$DIMTM
 40
0.0
  9
$DIMTXT
 40
3.0
  9
$DIMCEN
 40
0.0
  9
$DIMTSZ
 40
0.0
  9
$DIMTOL
 70
     0
  9
$DIMLIM
 70
     0
  9
$DIMTIH
 70
     0
  9
$DIMTOH
 70
     0
  9
$DIMSE1
 70
     0
  9
$DIMSE2
 70
     0
  9
$DIMTAD
 70
     1
  9
$DIMZIN
 70
     8
  9
$DIMBLK
  1
OPEN30
  9
$DIMASO
 70
     1
  9
$DIMSHO
 70
     1
  9
$DIMPOST
  1

  9
$DIMAPOST
  1

  9
$DIMALT
 70
     0
  9
$DIMALTD
 70
     2
  9
$DIMALTF
 40
0.03937
  9
$DIMLFAC
 40
1.0
  9
$DIMTOFL
 70
     1
  9
$DIMTVP
 40
0.0
  9
$DIMTIX
 70
     0
  9
$DIMSOXD
 70
     0
  9
$DIMSAH
 70
     0
  9
$DIMBLK1
  1

  9
$DIMBLK2
  1

  9
$DIMSTYLE
  2
MATSU
  9
$DIMCLRD
 70
     2
  9
$DIMCLRE
 70
     2
  9
$DIMCLRT
 70
     2
  9
$DIMTFAC
 40
1.0
  9
$DIMGAP
 40
0.5
  9
$LUNITS
 70
     2
  9
$LUPREC
 70
     1
  9
$SKETCHINC
 40
0.1
  9
$FILLETRAD
 40
0.0
  9
$AUNITS
 70
     0
  9
$AUPREC
 70
     0
  9
$MENU
  1
SSMENU
  9
$ELEVATION
 40
0.0
  9
$PELEVATION
 40
0.0
  9
$THICKNESS
 40
0.0
  9
$LIMCHECK
 70
     0
  9
$BLIPMODE
 70
     0
  9
$CHAMFERA
 40
20.0
  9
$CHAMFERB
 40
20.0
  9
$SKPOLY
 70
     0
  9
$TDCREATE
 40
2450714.9573032409
  9
$TDUPDATE
 40
2454953.6489022681
  9
$TDINDWG
 40
1.416406088
  9
$TDUSRTIMER
 40
1.416406088
  9
$USRTIMER
 70
     1
  9
$ANGBASE
 50
0.0
  9
$ANGDIR
 70
     0
  9
$PDMODE
 70
     0
  9
$PDSIZE
 40
1.0
  9
$PLINEWID
 40
0.0
  9
$COORDS
 70
     1
  9
$SPLFRAME
 70
     0
  9
$SPLINETYPE
 70
     6
  9
$SPLINESEGS
 70
     8
  9
$ATTDIA
 70
     0
  9
$ATTREQ
 70
     1
  9
$HANDLING
 70
 10241
  9
$HANDSEED
  5
5696
  9
$SURFTAB1
 70
     6
  9
$SURFTAB2
 70
     6
  9
$SURFTYPE
 70
     6
  9
$SURFU
 70
     6
  9
$SURFV
 70
     6
  9
$UCSNAME
  2

  9
$UCSORG
 10
0.0
 20
0.0
 30
0.0
  9
$UCSXDIR
 10
1.0
 20
0.0
 30
0.0
  9
$UCSYDIR
 10
0.0
 20
1.0
 30
0.0
  9
$PUCSNAME
  2

  9
$PUCSORG
 10
0.0
 20
0.0
 30
0.0
  9
$PUCSXDIR
 10
1.0
 20
0.0
 30
0.0
  9
$PUCSYDIR
 10
0.0
 20
1.0
 30
0.0
  9
$USERI1
 70
     0
  9
$USERI2
 70
     0
  9
$USERI3
 70
     0
  9
$USERI4
 70
     0
  9
$USERI5
 70
     0
  9
$USERR1
 40
0.0
  9
$USERR2
 40
0.0
  9
$USERR3
 40
0.0
  9
$USERR4
 40
0.0
  9
$USERR5
 40
0.0
  9
$WORLDVIEW
 70
     1
  9
$SHADEDGE
 70
     3
  9
$SHADEDIF
 70
    70
  9
$TILEMODE
 70
     1
  9
$MAXACTVP
 70
    16
  9
$PLIMCHECK
 70
     0
  9
$PEXTMIN
 10
0.0
 20
0.0
 30
0.0
  9
$PEXTMAX
 10
12.561051004636781
 20
9.0
 30
0.0
  9
$PLIMMIN
 10
0.0
 20
0.0
  9
$PLIMMAX
 10
12.0
 20
9.0
  9
$UNITMODE
 70
     0
  9
$VISRETAIN
 70
     0
  9
$PLINEGEN
 70
     0
  9
$PSLTSCALE
 70
     0
  0
ENDSEC
  0
SECTION
  2
TABLES
  0
TABLE
  2
VPORT
 70
     2
  0
VPORT
  2
*ACTIVE
 70
     0
 10
0.0
 20
0.0
 11
1.0
 21
1.0
 12
31140.598112678941
 22
21023.536371949489
 13
0.0
 23
0.0
 14
5.0
 24
5.0
 15
0.0
 25
0.0
 16
0.0
 26
0.0
 36
1.0
 17
0.0
 27
0.0
 37
0.0
 40
4397.234215392421
 41
3.1666666666666661
 42
50.0
 43
0.0
 44
0.0
 50
0.0
 51
0.0
 71
     0
 72
   500
 73
     1
 74
     0
 75
     0
 76
     0
 77
     0
 78
     0
  0
ENDTAB
  0
TABLE
  2
LTYPE
 70
     4
  0
LTYPE
  2
CONTINUOUS
 70
     0
  3
実線
 72
    65
 73
     0
 40
0.0
  0
LTYPE
  2
CENTER
 70
     0
  3
____ _ ____ _ ____ _ ____ _ ____ _ ____ _ ____ 
 72
    65
 73
     4
 40
2.0
 49
1.25
 49
-0.25
 49
0.25
 49
-0.25
  0
LTYPE
  2
HIDDEN
 70
     0
  3
__ __ __ __ __ __ __ __ __ __ __ __ __ __ __ __
 72
    65
 73
     2
 40
0.375
 49
0.25
 49
-0.125
  0
LTYPE
  2
PHANTOM
 70
     0
  3
______  __  __  ______  __  __  ______  __  __ 
 72
    65
 73
     6
 40
2.5
 49
1.25
 49
-0.25
 49
0.25
 49
-0.25
 49
0.25
 49
-0.25
  0
ENDTAB
  0
TABLE
  2
LAYER
 70
     9
  0
LAYER
  2
0
 70
     0
 62
     7
  6
CONTINUOUS
  0
LAYER
  2
FUTO
 70
     0
 62
     4
  6
CONTINUOUS
  0
LAYER
  2
CT
 70
     0
 62
     3
  6
CENTER
  0
LAYER
  2
HOSO
 70
     0
 62
     7
  6
CONTINUOUS
  0
LAYER
  2
KL
 70
     0
 62
     7
  6
HIDDEN
  0
LAYER
  2
SL
 70
     0
 62
     1
  6
PHANTOM
  0
LAYER
  2
SP
 70
     0
 62
     2
  6
CONTINUOUS
  0
LAYER
  2
DEFPOINTS
 70
     0
 62
     7
  6
CONTINUOUS
  0
LAYER
  2
4
 70
     0
 62
     7
  6
CONTINUOUS
  0
ENDTAB
  0
TABLE
  2
STYLE
 70
     2
  0
STYLE
  2
STANDARD
 70
     0
 40
0.0
 41
1.0
 50
15.0
 71
     0
 42
90.0
  3
SIMPLEX
  4
EXTFONT
  0
STYLE
  2
SUNPOU
 70
     0
 40
0.0
 41
1.0
 50
15.0
 71
     0
 42
5.0
  3
simplex.shx
  4
extfont.shx
  0
ENDTAB
  0
TABLE
  2
VIEW
 70
     0
  0
ENDTAB
  0
TABLE
  2
UCS
 70
     0
  0
ENDTAB
  0
TABLE
  2
APPID
 70
     1
  0
APPID
  2
ACAD
 70
     0
  0
ENDTAB
  0
TABLE
  2
DIMSTYLE
 70
     1
  0
DIMSTYLE
  2
MATSU
 70
     0
  3

  4

  5
CLOSED
  6

  7

 40
10.0
 41
2.0
 42
1.0
 43
10.0
 44
1.0
 45
0.0
 46
0.0
 47
0.0
 48
0.0
140
3.0
141
0.0
142
0.0
143
0.03937
144
1.0
145
0.0
146
1.0
147
0.5
 71
     0
 72
     0
 73
     0
 74
     0
 75
     0
 76
     0
 77
     1
 78
     8
170
     0
171
     2
172
     1
173
     0
174
     0
175
     0
176
   256
177
   256
178
   256
  0
ENDTAB
  0
ENDSEC
  0
SECTION
  2
BLOCKS
  0
BLOCK
  8
0
  2
$MODEL_SPACE
 70
     0
 10
0.0
 20
0.0
 30
0.0
  3
$MODEL_SPACE
  1

  0
ENDBLK
  5
7
  8
0
  0
BLOCK
 67
     1
  8
0
  2
$PAPER_SPACE
 70
     0
 10
0.0
 20
0.0
 30
0.0
  3
$PAPER_SPACE
  1

  0
ENDBLK
  5
A
 67
     1
  8
0
  0
BLOCK
  8
0
  2
K150-75
 70
     0
 10
0.0
 20
0.0
 30
0.0
  3
K150-75
  1

  0
LINE
  5
3EA
  8
FUTO
 10
-75.000000000000455
 20
0.0
 30
0.0
 11
0.0000000000004547
 21
0.0
 31
0.0
  0
LINE
  5
3EB
  8
FUTO
 10
-64.848622970991073
 20
12.677032629465881
 30
0.0
 11
-3.651377029009836
 21
7.3229673705341147
 31
0.0
  0
LINE
  5
3EC
  8
FUTO
 10
-75.0
 20
150.0
 30
0.0
 11
0.0
 21
150.0000000000004
 31
0.0
  0
LINE
  5
3ED
  8
FUTO
 10
-64.848622970991073
 20
137.32296737053409
 30
0.0
 11
-3.651377029009836
 21
142.6770326294658
 31
0.0
  0
LINE
  5
3EE
  8
FUTO
 10
-68.500000000000455
 20
133.33818857816729
 30
0.0
 11
-68.5
 21
16.661811421832681
 31
0.0
  0
ARC
  5
3EF
  8
FUTO
 10
-64.500000000000455
 20
16.661811421832681
 30
0.0
 40
4.0
 50
180.0
 51
264.99999999999989
  0
LINE
  5
3F0
  8
FUTO
 10
-75.0
 20
150.0
 30
0.0
 11
-75.000000000000455
 21
0.0
 31
0.0
  0
ARC
  5
3F1
  8
FUTO
 10
-64.500000000000455
 20
133.33818857816729
 30
0.0
 40
4.0
 50
95.000000000000057
 51
180.0
  0
ARC
  5
3F2
  8
FUTO
 10
-4.0000000000004539
 20
3.3381885781673191
 30
0.0
 40
4.0
 50
0.0
 51
84.999999999999801
  0
LINE
  5
3F3
  8
FUTO
 10
0.0
 20
-0.0000000000004547
 30
0.0
 11
-0.0000000000004547
 21
3.3381885781673191
 31
0.0
  0
LINE
  5
3F4
  8
FUTO
 10
0.0
 20
150.0000000000004
 30
0.0
 11
-0.0000000000004547
 21
146.6618114218326
 31
0.0
  0
ARC
  5
3F5
  8
FUTO
 10
-4.0000000000004539
 20
146.6618114218326
 30
0.0
 40
4.0
 50
275.00000000000011
 51
0.0
  0
ENDBLK
  5
3F7
  8
0
  0
BLOCK
  8
0
  2
まっすぐの矢印
 70
     0
 10
0.0
 20
0.0
 30
0.0
  3
まっすぐの矢印
  1

  0
LINE
  5
599
  8
SP
 10
13.01863531255526
 20
-41.453946163708451
 30
0.0
 11
13.01863531255526
 21
-93.495696758840026
 31
0.0
  0
LINE
  5
59A
  8
SP
 10
13.01863531255526
 20
-93.495696758840026
 30
0.0
 11
-13.01863531255526
 21
-93.495696758840026
 31
0.0
  0
LINE
  5
59B
  8
SP
 10
-13.01863531255526
 20
-93.495696758840026
 30
0.0
 11
-13.01863531255526
 21
-41.453946163708451
 31
0.0
  0
LINE
  5
59C
  8
SP
 10
-13.01863531255526
 20
-41.453946163708451
 30
0.0
 11
-32.06015471115802
 21
-41.453946163708451
 31
0.0
  0
LINE
  5
59D
  8
SP
 10
-32.06015471115802
 20
-41.453946163708451
 30
0.0
 11
0.0
 21
0.0
 31
0.0
  0
LINE
  5
59E
  8
SP
 10
0.0
 20
0.0
 30
0.0
 11
32.06015471115802
 21
-41.453946163708451
 31
0.0
  0
LINE
  5
59F
  8
SP
 10
32.06015471115802
 20
-41.453946163708451
 30
0.0
 11
13.01863531255526
 21
-41.453946163708451
 31
0.0
  0
ENDBLK
  5
5A1
  8
0
  0
BLOCK
  8
0
  2
左回転矢印
 70
     0
 10
0.0
 20
0.0
 30
0.0
  3
左回転矢印
  1

  0
LINE
  5
57C
  8
SP
 10
43.930449171819873
 20
24.859487323637271
 30
0.0
 11
38.511878498580238
 21
44.478978865188871
 31
0.0
  0
LINE
  5
57D
  8
SP
 10
38.511878498580238
 20
44.478978865188871
 30
0.0
 11
0.0
 21
0.0
 31
0.0
  0
LINE
  5
57E
  8
SP
 10
0.0
 20
0.0
 30
0.0
 11
52.57968174421967
 21
-6.4575435924972453
 31
0.0
  0
LINE
  5
57F
  8
SP
 10
52.57968174421967
 20
-6.4575435924972453
 30
0.0
 11
48.189912989015284
 21
9.436875093862227
 31
0.0
  0
ARC
  5
580
  8
SP
 10
93.893649146691985
 20
-156.0466295121104
 30
0.0
 40
171.67883327727239
 50
67.881388989212894
 51
105.4392492786835
  0
LINE
  5
581
  8
SP
 10
158.53505643637521
 20
2.997736182040398
 30
0.0
 11
164.55945966006539
 21
17.820238190756751
 31
0.0
  0
ARC
  5
582
  8
SP
 10
93.893649146692198
 20
-156.04662951211091
 30
0.0
 40
187.67883327727299
 50
67.881388989212994
 51
105.4392492786836
  0
ENDBLK
  5
584
  8
0
  0
BLOCK
  8
0
  2
*D3
 70
     1
 10
0.0
 20
0.0
 30
0.0
  3
*D3
  1

  0
LINE
  5
55AF
  8
FUTO
 62
     2
 10
24791.825556723921
 20
23660.085874792971
 30
0.0
 11
24791.825556723921
 21
23447.868165871689
 31
0.0
  0
LINE
  5
55B0
  8
FUTO
 62
     2
 10
26341.825556723921
 20
23612.16802583672
 30
0.0
 11
26341.825556723921
 21
23447.868165871689
 31
0.0
  0
LINE
  5
55B1
  8
FUTO
 62
     2
 10
24851.825556723921
 20
23477.868165871689
 30
0.0
 11
26281.825556723921
 21
23477.868165871689
 31
0.0
  0
INSERT
  5
55B2
  8
FUTO
 62
     2
  2
_OPEN30
 10
24791.825556723921
 20
23477.868165871689
 30
0.0
 41
60.0
 42
60.0
 43
60.0
 50
180.0
  0
INSERT
  5
55B3
  8
FUTO
 62
     2
  2
_OPEN30
 10
26341.825556723921
 20
23477.868165871689
 30
0.0
 41
60.0
 42
60.0
 43
60.0
  0
TEXT
  8
0
  40
90
  5
567D
  62
2
  72
0
  71
0
 10
25386.8
 20
23378.6
 30
0.000000
  1
1550
  7
SUNPOU
  0
POINT
  5
55B5
  8
DEFPOINTS
 62
     0
 10
24791.825556723921
 20
23690.085874792971
 30
0.0
  0
POINT
  5
55B6
  8
DEFPOINTS
 62
     0
 10
26341.825556723921
 20
23642.16802583672
 30
0.0
  0
POINT
  5
55B7
  8
DEFPOINTS
 62
     0
 10
26341.825556723921
 20
23477.868165871689
 30
0.0
  0
ENDBLK
  5
3643
  8
0
  0
BLOCK
  8
0
  2
*D4
 70
     1
 10
0.0
 20
0.0
 30
0.0
  3
*D4
  1

  0
LINE
  5
55B8
  8
FUTO
 62
     2
 10
26341.825556723921
 20
23687.16802583672
 30
0.0
 11
26341.825556723921
 21
23264.950848887602
 31
0.0
  0
LINE
  5
55B9
  8
FUTO
 62
     2
 10
23941.825556723921
 20
23687.16802583672
 30
0.0
 11
23941.825556723921
 21
23264.950848887602
 31
0.0
  0
LINE
  5
55BA
  8
FUTO
 62
     2
 10
26281.825556723921
 20
23294.950848887609
 30
0.0
 11
24001.825556723921
 21
23294.950848887609
 31
0.0
  0
INSERT
  5
55BB
  8
FUTO
 62
     2
  2
_OPEN30
 10
26341.825556723921
 20
23294.950848887609
 30
0.0
 41
60.0
 42
60.0
 43
60.0
  0
INSERT
  5
55BC
  8
FUTO
 62
     2
  2
_OPEN30
 10
23941.825556723921
 20
23294.950848887609
 30
0.0
 41
60.0
 42
60.0
 43
60.0
 50
180.0
  0
TEXT
  8
0
  40
90
  5
567E
  62
2
  72
0
  71
0
 10
24961.8
 20
23195.7
 30
0.000000
  1
2400
  7
SUNPOU
  0
POINT
  5
55BE
  8
DEFPOINTS
 62
     0
 10
26341.825556723921
 20
23717.16802583672
 30
0.0
  0
POINT
  5
55BF
  8
DEFPOINTS
 62
     0
 10
23941.825556723921
 20
23717.16802583672
 30
0.0
  0
POINT
  5
55C0
  8
DEFPOINTS
 62
     0
 10
23941.825556723921
 20
23294.950848887609
 30
0.0
  0
ENDBLK
  5
3638
  8
0
  0
BLOCK
  8
0
  2
*D5
 70
     1
 10
0.0
 20
0.0
 30
0.0
  3
*D5
  1

  0
LINE
  5
55C1
  8
FUTO
 62
     2
 10
24791.825556723921
 20
23660.085874792971
 30
0.0
 11
24791.825556723921
 21
23447.868165871689
 31
0.0
  0
LINE
  5
55C2
  8
FUTO
 62
     2
 10
23941.825556723921
 20
23612.16802583672
 30
0.0
 11
23941.825556723921
 21
23447.868165871689
 31
0.0
  0
LINE
  5
55C3
  8
FUTO
 62
     2
 10
24731.825556723921
 20
23477.868165871689
 30
0.0
 11
24001.825556723921
 21
23477.868165871689
 31
0.0
  0
INSERT
  5
55C4
  8
FUTO
 62
     2
  2
_OPEN30
 10
24791.825556723921
 20
23477.868165871689
 30
0.0
 41
60.0
 42
60.0
 43
60.0
  0
INSERT
  5
55C5
  8
FUTO
 62
     2
  2
_OPEN30
 10
23941.825556723921
 20
23477.868165871689
 30
0.0
 41
60.0
 42
60.0
 43
60.0
 50
180.0
  0
TEXT
  8
0
  40
90
  5
567F
  62
2
  72
0
  71
0
 10
24186.8
 20
23378.6
 30
0.000000
  1
850
  7
SUNPOU
  0
POINT
  5
55C7
  8
DEFPOINTS
 62
     0
 10
24791.825556723921
 20
23690.085874792971
 30
0.0
  0
POINT
  5
55C8
  8
DEFPOINTS
 62
     0
 10
23941.825556723921
 20
23642.16802583672
 30
0.0
  0
POINT
  5
55C9
  8
DEFPOINTS
 62
     0
 10
23941.825556723921
 20
23477.868165871689
 30
0.0
  0
ENDBLK
  5
3667
  8
0
  0
BLOCK
  8
0
  2
*D6
 70
     1
 10
0.0
 20
0.0
 30
0.0
  3
*D6
  1

  0
LINE
  5
55F6
  8
FUTO
 62
     2
 10
27779.768968762561
 20
23687.16802583672
 30
0.0
 11
27779.768968762561
 21
23269.13410359477
 31
0.0
  0
LINE
  5
55F7
  8
FUTO
 62
     2
 10
29979.768968762561
 20
23687.16802583672
 30
0.0
 11
29979.768968762561
 21
23269.13410359477
 31
0.0
  0
LINE
  5
55F8
  8
FUTO
 62
     2
 10
27839.768968762561
 20
23299.134103594759
 30
0.0
 11
29919.768968762561
 21
23299.134103594759
 31
0.0
  0
INSERT
  5
55F9
  8
FUTO
 62
     2
  2
_OPEN30
 10
27779.768968762561
 20
23299.134103594759
 30
0.0
 41
60.0
 42
60.0
 43
60.0
 50
180.0
  0
INSERT
  5
55FA
  8
FUTO
 62
     2
  2
_OPEN30
 10
29979.768968762561
 20
23299.134103594759
 30
0.0
 41
60.0
 42
60.0
 43
60.0
  0
TEXT
  8
0
  40
90
  5
5680
  62
2
  72
0
  71
0
 10
28699.8
 20
23199.8
 30
0.000000
  1
2200
  7
SUNPOU
  0
POINT
  5
55FC
  8
DEFPOINTS
 62
     0
 10
27779.768968762561
 20
23717.16802583672
 30
0.0
  0
POINT
  5
55FD
  8
DEFPOINTS
 62
     0
 10
29979.768968762561
 20
23717.16802583672
 30
0.0
  0
POINT
  5
55FE
  8
DEFPOINTS
 62
     0
 10
29979.768968762561
 20
23299.134103594759
 30
0.0
  0
ENDBLK
  5
34E6
  8
0
  0
BLOCK
  8
0
  2
*D7
 70
     1
 10
0.0
 20
0.0
 30
0.0
  3
*D7
  1

  0
LINE
  5
55FF
  8
FUTO
 62
     2
 10
29367.768968762561
 20
23687.16802583672
 30
0.0
 11
29367.768968762561
 21
23450.464544852359
 31
0.0
  0
LINE
  5
5600
  8
FUTO
 62
     2
 10
29979.768968762561
 20
23687.16802583672
 30
0.0
 11
29979.768968762561
 21
23450.464544852359
 31
0.0
  0
LINE
  5
5601
  8
FUTO
 62
     2
 10
29427.768968762561
 20
23480.464544852359
 30
0.0
 11
29919.768968762561
 21
23480.464544852359
 31
0.0
  0
INSERT
  5
5602
  8
FUTO
 62
     2
  2
_OPEN30
 10
29367.768968762561
 20
23480.464544852359
 30
0.0
 41
60.0
 42
60.0
 43
60.0
 50
180.0
  0
INSERT
  5
5603
  8
FUTO
 62
     2
  2
_OPEN30
 10
29979.768968762561
 20
23480.464544852359
 30
0.0
 41
60.0
 42
60.0
 43
60.0
  0
TEXT
  8
0
  40
90
  5
5681
  62
2
  72
0
  71
0
 10
29493.8
 20
23381.2
 30
0.000000
  1
612
  7
SUNPOU
  0
POINT
  5
5605
  8
DEFPOINTS
 62
     0
 10
29367.768968762561
 20
23717.16802583672
 30
0.0
  0
POINT
  5
5606
  8
DEFPOINTS
 62
     0
 10
29979.768968762561
 20
23717.168025836731
 30
0.0
  0
POINT
  5
5607
  8
DEFPOINTS
 62
     0
 10
29979.768968762561
 20
23480.464544852359
 30
0.0
  0
ENDBLK
  5
393A
  8
0
  0
BLOCK
  8
0
  2
*D8
 70
     1
 10
0.0
 20
0.0
 30
0.0
  3
*D8
  1

  0
LINE
  5
5608
  8
FUTO
 62
     2
 10
29367.768968762561
 20
23687.16802583672
 30
0.0
 11
29367.768968762561
 21
23450.469785774949
 31
0.0
  0
LINE
  5
5609
  8
FUTO
 62
     2
 10
27779.768968762561
 20
23687.16802583672
 30
0.0
 11
27779.768968762561
 21
23450.469785774949
 31
0.0
  0
LINE
  5
560A
  8
FUTO
 62
     2
 10
29307.768968762561
 20
23480.469785774949
 30
0.0
 11
27839.768968762561
 21
23480.469785774949
 31
0.0
  0
INSERT
  5
560B
  8
FUTO
 62
     2
  2
_OPEN30
 10
29367.768968762561
 20
23480.469785774949
 30
0.0
 41
60.0
 42
60.0
 43
60.0
  0
INSERT
  5
560C
  8
FUTO
 62
     2
  2
_OPEN30
 10
27779.768968762561
 20
23480.469785774949
 30
0.0
 41
60.0
 42
60.0
 43
60.0
 50
180.0
  0
TEXT
  8
0
  40
90
  5
5682
  62
2
  72
0
  71
0
 10
28393.8
 20
23381.2
 30
0.000000
  1
1588
  7
SUNPOU
  0
POINT
  5
560E
  8
DEFPOINTS
 62
     0
 10
29367.768968762561
 20
23717.16802583672
 30
0.0
  0
POINT
  5
560F
  8
DEFPOINTS
 62
     0
 10
27779.768968762561
 20
23717.16802583672
 30
0.0
  0
POINT
  5
5610
  8
DEFPOINTS
 62
     0
 10
27779.768968762561
 20
23480.469785774949
 30
0.0
  0
ENDBLK
  5
3947
  8
0
  0
BLOCK
  8
0
  2
_CLOSED
 70
     0
 10
0.0
 20
0.0
 30
0.0
  3
_CLOSED
  1

  0
LINE
  5
3BE3
  8
0
  6
BYBLOCK
 62
     0
 10
-1.0
 20
0.1666666666666666
 30
0.0
 11
0.0
 21
0.0
 31
0.0
  0
LINE
  5
3BE4
  8
0
  6
BYBLOCK
 62
     0
 10
0.0
 20
0.0
 30
0.0
 11
-1.0
 21
-0.1666666666666666
 31
0.0
  0
LINE
  5
3BE5
  8
0
  6
BYBLOCK
 62
     0
 10
-1.0
 20
0.1666666666666666
 30
0.0
 11
-1.0
 21
-0.1666666666666666
 31
0.0
  0
ENDBLK
  5
3BE6
  8
0
  0
BLOCK
  8
0
  2
*D10
 70
     1
 10
0.0
 20
0.0
 30
0.0
  3
*D10
  1

  0
LINE
  5
5614
  8
SP
 62
     2
 10
27547.768968762561
 20
25432.16802583672
 30
0.0
 11
27547.768968762561
 21
26874.71445812031
 31
0.0
  0
LINE
  5
5615
  8
SP
 62
     2
 10
29367.768968762561
 20
26750.327363779648
 30
0.0
 11
29367.768968762561
 21
26874.71445812031
 31
0.0
  0
LINE
  5
5616
  8
SP
 62
     2
 10
27607.768968762561
 20
26844.71445812031
 30
0.0
 11
29307.768968762561
 21
26844.71445812031
 31
0.0
  0
INSERT
  5
5617
  8
SP
 62
     2
  2
_OPEN30
 10
27547.768968762561
 20
26844.71445812031
 30
0.0
 41
60.0
 42
60.0
 43
60.0
 50
180.0
  0
INSERT
  5
5618
  8
SP
 62
     2
  2
_OPEN30
 10
29367.768968762561
 20
26844.71445812031
 30
0.0
 41
60.0
 42
60.0
 43
60.0
  0
TEXT
  8
0
  40
90
  5
5683
  62
2
  72
0
  71
0
 10
28277.8
 20
26745.4
 30
0.000000
  1
1820
  7
SUNPOU
  0
POINT
  5
561A
  8
DEFPOINTS
 62
     0
 10
27547.768968762561
 20
25402.16802583672
 30
0.0
  0
POINT
  5
561B
  8
DEFPOINTS
 62
     0
 10
29367.768968762561
 20
26720.327363779648
 30
0.0
  0
POINT
  5
561C
  8
DEFPOINTS
 62
     0
 10
29367.768968762561
 20
26844.71445812031
 30
0.0
  0
ENDBLK
  5
3C57
  8
0
  0
BLOCK
  8
0
  2
*D11
 70
     1
 10
0.0
 20
0.0
 30
0.0
  3
*D11
  1

  0
LINE
  5
561D
  8
FUTO
 62
     2
 10
23831.825556723921
 20
26567.16802583672
 30
0.0
 11
23283.933757672199
 21
26567.16802583672
 31
0.0
  0
LINE
  5
561E
  8
FUTO
 62
     2
 10
23760.264162403961
 20
25022.16802583672
 30
0.0
 11
23283.933757672199
 21
25022.16802583672
 31
0.0
  0
LINE
  5
561F
  8
FUTO
 62
     2
 10
23313.933757672199
 20
26507.16802583672
 30
0.0
 11
23313.933757672199
 21
25082.16802583672
 31
0.0
  0
INSERT
  5
5620
  8
FUTO
 62
     2
  2
_OPEN30
 10
23313.933757672199
 20
26567.16802583672
 30
0.0
 41
60.0
 42
60.0
 43
60.0
 50
90.0
  0
INSERT
  5
5621
  8
FUTO
 62
     2
  2
_OPEN30
 10
23313.933757672199
 20
25022.16802583672
 30
0.0
 41
60.0
 42
60.0
 43
60.0
 50
270.0
  0
TEXT
  8
0
  40
90
  5
5684
  62
2
  72
0
  71
0
 10
23073.9
 20
25635.4
 30
0.000000
  1
1545
  7
SUNPOU
  0
POINT
  5
5623
  8
DEFPOINTS
 62
     0
 10
23861.825556723921
 20
26567.16802583672
 30
0.0
  0
POINT
  5
5624
  8
DEFPOINTS
 62
     0
 10
23790.264162403961
 20
25022.16802583672
 30
0.0
  0
POINT
  5
5625
  8
DEFPOINTS
 62
     0
 10
23313.933757672199
 20
25022.16802583672
 30
0.0
  0
ENDBLK
  5
4374
  8
0
  0
BLOCK
  8
0
  2
*D12
 70
     1
 10
0.0
 20
0.0
 30
0.0
  3
*D12
  1

  0
LINE
  5
55CA
  8
FUTO
 62
     2
 10
30031.768968762561
 20
25722.16802583672
 30
0.0
 11
30397.378830518792
 21
25722.16802583672
 31
0.0
  0
LINE
  5
55CB
  8
FUTO
 62
     2
 10
30031.768968762561
 20
24322.16802583672
 30
0.0
 11
30397.378830518781
 21
24322.16802583672
 31
0.0
  0
LINE
  5
55CC
  8
FUTO
 62
     2
 10
30367.378830518792
 20
25662.16802583672
 30
0.0
 11
30367.378830518781
 21
24382.16802583672
 31
0.0
  0
INSERT
  5
55CD
  8
FUTO
 62
     2
  2
_OPEN30
 10
30367.378830518792
 20
25722.16802583672
 30
0.0
 41
60.0
 42
60.0
 43
60.0
 50
90.0
  0
INSERT
  5
55CE
  8
FUTO
 62
     2
  2
_OPEN30
 10
30367.378830518781
 20
24322.16802583672
 30
0.0
 41
60.0
 42
60.0
 43
60.0
 50
270.0
  0
TEXT
  8
0
  40
90
  5
5685
  62
2
  72
0
  71
0
 10
30127.4
 20
24862.9
 30
0.000000
  1
%%C1400
  7
SUNPOU
  0
POINT
  5
55D0
  8
DEFPOINTS
 62
     0
 10
30001.768968762561
 20
25722.16802583672
 30
0.0
  0
POINT
  5
55D1
  8
DEFPOINTS
 62
     0
 10
30001.768968762561
 20
24322.16802583672
 30
0.0
  0
POINT
  5
55D2
  8
DEFPOINTS
 62
     0
 10
30367.378830518781
 20
24322.16802583672
 30
0.0
  0
ENDBLK
  5
4473
  8
0
  0
BLOCK
  8
0
  2
*D13
 70
     1
 10
0.0
 20
0.0
 30
0.0
  3
*D13
  1

  0
LINE
  5
55D3
  8
FUTO
 62
     2
 10
29367.768968762561
 20
26720.327363779648
 30
0.0
 11
29367.768968762561
 21
26874.71445812031
 31
0.0
  0
LINE
  5
55D4
  8
FUTO
 62
     2
 10
30001.768968762561
 20
25802.16802583672
 30
0.0
 11
30001.768968762561
 21
26874.71445812031
 31
0.0
  0
LINE
  5
55D5
  8
FUTO
 62
     2
 10
29427.768968762561
 20
26844.71445812031
 30
0.0
 11
29941.768968762561
 21
26844.71445812031
 31
0.0
  0
INSERT
  5
55D6
  8
FUTO
 62
     2
  2
_OPEN30
 10
29367.768968762561
 20
26844.71445812031
 30
0.0
 41
60.0
 42
60.0
 43
60.0
 50
180.0
  0
INSERT
  5
55D7
  8
FUTO
 62
     2
  2
_OPEN30
 10
30001.768968762561
 20
26844.71445812031
 30
0.0
 41
60.0
 42
60.0
 43
60.0
  0
TEXT
  8
0
  40
90
  5
5686
  62
2
  72
0
  71
0
 10
29504.8
 20
26745.4
 30
0.000000
  1
634
  7
SUNPOU
  0
POINT
  5
55D9
  8
DEFPOINTS
 62
     0
 10
29367.768968762561
 20
26690.327363779641
 30
0.0
  0
POINT
  5
55DA
  8
DEFPOINTS
 62
     0
 10
30001.768968762561
 20
25772.16802583672
 30
0.0
  0
POINT
  5
55DB
  8
DEFPOINTS
 62
     0
 10
30001.768968762561
 20
26844.71445812031
 30
0.0
  0
ENDBLK
  5
447F
  8
0
  0
BLOCK
  8
0
  2
_OPEN30
 70
     0
 10
0.0
 20
0.0
 30
0.0
  3
_OPEN30
  1

  0
LINE
  5
44D6
  8
FUTO
 62
     0
 10
-1.0
 20
0.26794919
 30
0.0
 11
0.0
 21
0.0
 31
0.0
  0
LINE
  5
44D7
  8
FUTO
 62
     0
 10
0.0
 20
0.0
 30
0.0
 11
-1.0
 21
-0.26794919
 31
0.0
  0
LINE
  5
44D8
  8
FUTO
 62
     0
 10
0.0
 20
0.0
 30
0.0
 11
-1.0
 21
0.0
 31
0.0
  0
ENDBLK
  5
44DA
  8
0
  0
BLOCK
  8
0
  2
*D15
 70
     1
 10
0.0
 20
0.0
 30
0.0
  3
*D15
  1

  0
LINE
  5
5626
  8
FUTO
 62
     2
 10
23911.825556723921
 20
23867.16802583672
 30
0.0
 11
23283.933757672199
 21
23867.16802583672
 31
0.0
  0
LINE
  5
5627
  8
FUTO
 62
     2
 10
23911.825556723921
 20
23717.16802583672
 30
0.0
 11
23283.933757672199
 21
23717.16802583672
 31
0.0
  0
LINE
  5
5628
  8
FUTO
 62
     2
 10
23313.933757672199
 20
23807.16802583672
 30
0.0
 11
23313.933757672199
 21
23777.16802583672
 31
0.0
  0
LINE
  5
5629
  8
FUTO
 62
     2
 10
23313.933757672199
 20
23717.16802583672
 30
0.0
 11
23313.933757672199
 21
23417.16802583672
 31
0.0
  0
INSERT
  5
562A
  8
FUTO
 62
     2
  2
_OPEN30
 10
23313.933757672199
 20
23867.16802583672
 30
0.0
 41
60.0
 42
60.0
 43
60.0
 50
90.0
  0
INSERT
  5
562B
  8
FUTO
 62
     2
  2
_OPEN30
 10
23313.933757672199
 20
23717.16802583672
 30
0.0
 41
60.0
 42
60.0
 43
60.0
 50
270.0
  0
TEXT
  8
0
  40
90
  5
5687
  62
2
  72
0
  71
0
 10
23073.9
 20
23377.9
 30
0.000000
  1
150
  7
SUNPOU
  0
POINT
  5
562D
  8
DEFPOINTS
 62
     0
 10
23941.825556723921
 20
23867.16802583672
 30
0.0
  0
POINT
  5
562E
  8
DEFPOINTS
 62
     0
 10
23941.825556723921
 20
23717.16802583672
 30
0.0
  0
POINT
  5
562F
  8
DEFPOINTS
 62
     0
 10
23313.933757672199
 20
23717.16802583672
 30
0.0
  0
ENDBLK
  5
4591
  8
0
  0
BLOCK
  8
0
  2
*D16
 70
     1
 10
0.0
 20
0.0
 30
0.0
  3
*D16
  1

  0
LINE
  5
5630
  8
FUTO
 62
     2
 10
24791.825556723921
 20
30165.740740207952
 30
0.0
 11
24791.825556723921
 21
30269.303985751241
 31
0.0
  0
LINE
  5
5631
  8
FUTO
 62
     2
 10
26341.825556723921
 20
28639.868162558349
 30
0.0
 11
26341.825556723921
 21
30269.303985751241
 31
0.0
  0
LINE
  5
5632
  8
FUTO
 62
     2
 10
24851.825556723921
 20
30239.303985751241
 30
0.0
 11
26281.825556723921
 21
30239.303985751241
 31
0.0
  0
INSERT
  5
5633
  8
FUTO
 62
     2
  2
_OPEN30
 10
24791.825556723921
 20
30239.303985751241
 30
0.0
 41
60.0
 42
60.0
 43
60.0
 50
180.0
  0
INSERT
  5
5634
  8
FUTO
 62
     2
  2
_OPEN30
 10
26341.825556723921
 20
30239.303985751241
 30
0.0
 41
60.0
 42
60.0
 43
60.0
  0
TEXT
  8
0
  40
90
  5
5688
  62
2
  72
0
  71
0
 10
25386.8
 20
30140.0
 30
0.000000
  1
1550
  7
SUNPOU
  0
POINT
  5
5636
  8
DEFPOINTS
 62
     0
 10
24791.825556723921
 20
30135.740740207952
 30
0.0
  0
POINT
  5
5637
  8
DEFPOINTS
 62
     0
 10
26341.825556723921
 20
28609.868162558349
 30
0.0
  0
POINT
  5
5638
  8
DEFPOINTS
 62
     0
 10
26341.825556723921
 20
30239.303985751241
 30
0.0
  0
ENDBLK
  5
45B4
  8
0
  0
BLOCK
  8
0
  2
*D17
 70
     1
 10
0.0
 20
0.0
 30
0.0
  3
*D17
  1

  0
LINE
  5
5639
  8
FUTO
 62
     2
 10
23584.305556144402
 20
29220.868162558349
 30
0.0
 11
23351.51965388405
 21
29220.868162558349
 31
0.0
  0
LINE
  5
563A
  8
FUTO
 62
     2
 10
24011.825556723921
 20
29854.868162558349
 30
0.0
 11
23351.51965388405
 21
29854.868162558349
 31
0.0
  0
LINE
  5
563B
  8
FUTO
 62
     2
 10
23381.51965388405
 20
29280.868162558349
 30
0.0
 11
23381.51965388405
 21
29794.868162558349
 31
0.0
  0
INSERT
  5
563C
  8
FUTO
 62
     2
  2
_OPEN30
 10
23381.51965388405
 20
29220.868162558349
 30
0.0
 41
60.0
 42
60.0
 43
60.0
 50
270.0
  0
INSERT
  5
563D
  8
FUTO
 62
     2
  2
_OPEN30
 10
23381.51965388405
 20
29854.868162558349
 30
0.0
 41
60.0
 42
60.0
 43
60.0
 50
90.0
  0
TEXT
  8
0
  40
90
  5
5689
  62
2
  72
0
  71
0
 10
23141.5
 20
29378.6
 30
0.000000
  1
634
  7
SUNPOU
  0
POINT
  5
563F
  8
DEFPOINTS
 62
     0
 10
23614.305556144402
 20
29220.868162558349
 30
0.0
  0
POINT
  5
5640
  8
DEFPOINTS
 62
     0
 10
24041.825556723921
 20
29854.868162558349
 30
0.0
  0
POINT
  5
5641
  8
DEFPOINTS
 62
     0
 10
23381.51965388405
 20
29854.868162558349
 30
0.0
  0
ENDBLK
  5
45C1
  8
0
  0
BLOCK
  8
0
  2
*D18
 70
     1
 10
0.0
 20
0.0
 30
0.0
  3
*D18
  1

  0
LINE
  5
5642
  8
FUTO
 62
     2
 10
24381.825556723921
 20
27400.868162558349
 30
0.0
 11
23351.51965388405
 21
27400.868162558349
 31
0.0
  0
LINE
  5
5643
  8
FUTO
 62
     2
 10
23381.51965388405
 20
29160.868162558349
 30
0.0
 11
23381.51965388405
 21
27460.868162558349
 31
0.0
  0
INSERT
  5
5644
  8
FUTO
 62
     2
  2
_OPEN30
 10
23381.51965388405
 20
29220.868162558349
 30
0.0
 41
60.0
 42
60.0
 43
60.0
 50
90.0
  0
INSERT
  5
5645
  8
FUTO
 62
     2
  2
_OPEN30
 10
23381.51965388405
 20
27400.868162558349
 30
0.0
 41
60.0
 42
60.0
 43
60.0
 50
270.0
  0
TEXT
  8
0
  40
90
  5
568A
  62
2
  72
0
  71
0
 10
23141.5
 20
28151.6
 30
0.000000
  1
1820
  7
SUNPOU
  0
POINT
  5
5647
  8
DEFPOINTS
 62
     0
 10
23381.51965388405
 20
29220.868162558349
 30
0.0
  0
POINT
  5
5648
  8
DEFPOINTS
 62
     0
 10
24411.825556723921
 20
27400.868162558349
 30
0.0
  0
POINT
  5
5649
  8
DEFPOINTS
 62
     0
 10
23381.51965388405
 20
27400.868162558349
 30
0.0
  0
ENDBLK
  5
45CD
  8
0
  0
BLOCK
  8
0
  2
*D19
 70
     1
 10
0.0
 20
0.0
 30
0.0
  3
*D19
  1

  0
LINE
  5
564A
  8
FUTO
 62
     2
 10
24791.825556723921
 20
26576.594771094158
 30
0.0
 11
24791.825556723921
 21
26874.71445812031
 31
0.0
  0
LINE
  5
564B
  8
FUTO
 62
     2
 10
23861.825556723921
 20
26597.168025836709
 30
0.0
 11
23861.825556723921
 21
26874.71445812031
 31
0.0
  0
LINE
  5
564C
  8
FUTO
 62
     2
 10
24731.825556723921
 20
26844.71445812031
 30
0.0
 11
23921.825556723921
 21
26844.71445812031
 31
0.0
  0
INSERT
  5
564D
  8
FUTO
 62
     2
  2
_OPEN30
 10
24791.825556723921
 20
26844.71445812031
 30
0.0
 41
60.0
 42
60.0
 43
60.0
  0
INSERT
  5
564E
  8
FUTO
 62
     2
  2
_OPEN30
 10
23861.825556723921
 20
26844.71445812031
 30
0.0
 41
60.0
 42
60.0
 43
60.0
 50
180.0
  0
TEXT
  8
0
  40
90
  5
568B
  62
2
  72
0
  71
0
 10
24146.8
 20
26745.4
 30
0.000000
  1
930
  7
SUNPOU
  0
POINT
  5
5650
  8
DEFPOINTS
 62
     0
 10
24791.825556723921
 20
26546.594771094158
 30
0.0
  0
POINT
  5
5651
  8
DEFPOINTS
 62
     0
 10
23861.825556723921
 20
26567.16802583672
 30
0.0
  0
POINT
  5
5652
  8
DEFPOINTS
 62
     0
 10
23861.825556723921
 20
26844.71445812031
 30
0.0
  0
ENDBLK
  5
46F2
  8
0
  0
BLOCK
  8
0
  2
*D20
 70
     1
 10
0.0
 20
0.0
 30
0.0
  3
*D20
  1

  0
LINE
  5
5653
  8
FUTO
 62
     2
 10
23730.264162403961
 20
25022.16802583672
 30
0.0
 11
23283.933757672199
 21
25022.16802583672
 31
0.0
  0
LINE
  5
5654
  8
FUTO
 62
     2
 10
23911.825556723921
 20
23982.16802583672
 30
0.0
 11
23283.933757672199
 21
23982.16802583672
 31
0.0
  0
LINE
  5
5655
  8
FUTO
 62
     2
 10
23313.933757672199
 20
24962.16802583672
 30
0.0
 11
23313.933757672199
 21
24042.16802583672
 31
0.0
  0
INSERT
  5
5656
  8
FUTO
 62
     2
  2
_OPEN30
 10
23313.933757672199
 20
25022.16802583672
 30
0.0
 41
60.0
 42
60.0
 43
60.0
 50
90.0
  0
INSERT
  5
5657
  8
FUTO
 62
     2
  2
_OPEN30
 10
23313.933757672199
 20
23982.16802583672
 30
0.0
 41
60.0
 42
60.0
 43
60.0
 50
270.0
  0
TEXT
  8
0
  40
90
  5
568C
  62
2
  72
0
  71
0
 10
23073.9
 20
24342.9
 30
0.000000
  1
1040
  7
SUNPOU
  0
POINT
  5
5659
  8
DEFPOINTS
 62
     0
 10
23760.264162403961
 20
25022.16802583672
 30
0.0
  0
POINT
  5
565A
  8
DEFPOINTS
 62
     0
 10
23941.825556723921
 20
23982.16802583672
 30
0.0
  0
POINT
  5
565B
  8
DEFPOINTS
 62
     0
 10
23313.933757672199
 20
23982.16802583672
 30
0.0
  0
ENDBLK
  5
4700
  8
0
  0
BLOCK
  8
0
  2
*D21
 70
     1
 10
0.0
 20
0.0
 30
0.0
  3
*D21
  1

  0
LINE
  5
565C
  8
FUTO
 62
     2
 10
24791.825556723921
 20
30165.740740207952
 30
0.0
 11
24791.825556723921
 21
30269.303985751241
 31
0.0
  0
LINE
  5
565D
  8
FUTO
 62
     2
 10
23861.825556723921
 20
29834.868162558349
 30
0.0
 11
23861.825556723921
 21
30269.303985751241
 31
0.0
  0
LINE
  5
565E
  8
FUTO
 62
     2
 10
24731.825556723921
 20
30239.303985751241
 30
0.0
 11
23921.825556723921
 21
30239.303985751241
 31
0.0
  0
INSERT
  5
565F
  8
FUTO
 62
     2
  2
_OPEN30
 10
24791.825556723921
 20
30239.303985751241
 30
0.0
 41
60.0
 42
60.0
 43
60.0
  0
INSERT
  5
5660
  8
FUTO
 62
     2
  2
_OPEN30
 10
23861.825556723921
 20
30239.303985751241
 30
0.0
 41
60.0
 42
60.0
 43
60.0
 50
180.0
  0
TEXT
  8
0
  40
90
  5
568D
  62
2
  72
0
  71
0
 10
24146.8
 20
30140.0
 30
0.000000
  1
930
  7
SUNPOU
  0
POINT
  5
5662
  8
DEFPOINTS
 62
     0
 10
24791.825556723921
 20
30135.740740207952
 30
0.0
  0
POINT
  5
5663
  8
DEFPOINTS
 62
     0
 10
23861.825556723921
 20
29804.868162558349
 30
0.0
  0
POINT
  5
5664
  8
DEFPOINTS
 62
     0
 10
23861.825556723921
 20
30239.303985751241
 30
0.0
  0
ENDBLK
  5
471E
  8
0
  0
BLOCK
  8
0
  2
*U22
 70
     1
 10
0.0
 20
0.0
 30
0.0
  3
*U22
  1

  0
SOLID
  5
5666
  8
FUTO
  6
CONTINUOUS
 10
1752.3661748599859
 20
24338.075662787331
 30
0.0
 11
1712.366174859987
 21
24338.075662787331
 31
0.0
 12
1752.366174859987
 22
24228.075662787331
 32
0.0
 13
1752.366174859987
 23
24228.075662787331
 33
0.0
210
0.0
220
0.0
230
1.0
  0
SOLID
  5
5667
  8
FUTO
  6
CONTINUOUS
 10
1712.366174859987
 20
24228.075662787331
 30
0.0
 11
1752.366174859987
 21
24228.075662787331
 31
0.0
 12
1712.366174859987
 22
24338.075662787331
 32
0.0
 13
1712.366174859987
 23
24338.075662787331
 33
0.0
210
0.0
220
0.0
230
1.0
  0
SOLID
  5
5668
  8
FUTO
  6
CONTINUOUS
 10
1792.366174859987
 20
24228.075662787331
 30
0.0
 11
1792.366174859987
 21
24338.075662787331
 31
0.0
 12
1752.3661748599859
 22
24338.075662787331
 32
0.0
 13
1752.3661748599859
 23
24338.075662787331
 33
0.0
210
0.0
220
0.0
230
1.0
  0
SOLID
  5
5669
  8
FUTO
  6
CONTINUOUS
 10
1752.3661748599859
 20
24338.075662787331
 30
0.0
 11
1752.366174859987
 21
24228.075662787331
 31
0.0
 12
1792.366174859987
 22
24228.075662787331
 32
0.0
 13
1792.366174859987
 23
24228.075662787331
 33
0.0
210
0.0
220
0.0
230
1.0
  0
SOLID
  5
566A
  8
FUTO
  6
CONTINUOUS
 10
3899.6343255139568
 20
24228.075662787331
 30
0.0
 11
3899.6343255139582
 21
24338.075662787331
 31
0.0
 12
3859.6343255139582
 22
24338.075662787331
 32
0.0
 13
3859.6343255139582
 23
24338.075662787331
 33
0.0
210
0.0
220
0.0
230
1.0
  0
SOLID
  5
566B
  8
FUTO
  6
CONTINUOUS
 10
3859.6343255139582
 20
24338.075662787331
 30
0.0
 11
3859.6343255139591
 21
24228.075662787331
 31
0.0
 12
3899.6343255139568
 22
24228.075662787331
 32
0.0
 13
3899.6343255139568
 23
24228.075662787331
 33
0.0
210
0.0
220
0.0
230
1.0
  0
SOLID
  5
566C
  8
FUTO
  6
CONTINUOUS
 10
3939.6343255139582
 20
24338.075662787331
 30
0.0
 11
3899.6343255139568
 21
24338.075662787331
 31
0.0
 12
3939.6343255139582
 22
24228.075662787331
 32
0.0
 13
3939.6343255139582
 23
24228.075662787331
 33
0.0
210
0.0
220
0.0
230
1.0
  0
SOLID
  5
566D
  8
FUTO
  6
CONTINUOUS
 10
3899.6343255139568
 20
24228.075662787331
 30
0.0
 11
3939.6343255139582
 21
24228.075662787331
 31
0.0
 12
3899.6343255139568
 22
24338.075662787331
 32
0.0
 13
3899.6343255139568
 23
24338.075662787331
 33
0.0
210
0.0
220
0.0
230
1.0
  0
ENDBLK
  5
566F
  8
0
  0
BLOCK
  8
0
  2
*U23
 70
     1
 10
0.0
 20
0.0
 30
0.0
  3
*U23
  1

  0
SOLID
  5
5671
  8
FUTO
  6
CONTINUOUS
 10
5422.5777375525977
 20
24338.075662787331
 30
0.0
 11
5387.5777375525968
 21
24338.075662787331
 31
0.0
 12
5422.5777375525977
 22
24228.075662787342
 32
0.0
 13
5422.5777375525977
 23
24228.075662787342
 33
0.0
  0
SOLID
  5
5672
  8
FUTO
  6
CONTINUOUS
 10
5382.5777375525977
 20
24338.075662787331
 30
0.0
 11
5422.5777375525977
 21
24228.075662787342
 31
0.0
 12
5387.5777375525968
 22
24338.075662787331
 32
0.0
 13
5387.5777375525968
 23
24338.075662787331
 33
0.0
  0
SOLID
  5
5673
  8
FUTO
  6
CONTINUOUS
 10
5422.5777375525977
 20
24228.075662787342
 30
0.0
 11
5382.5777375525977
 21
24338.075662787331
 31
0.0
 12
5382.5777375525968
 22
24228.075662787342
 32
0.0
 13
5382.5777375525968
 23
24228.075662787342
 33
0.0
210
0.0
220
0.0
230
1.0
  0
SOLID
  5
5674
  8
FUTO
  6
CONTINUOUS
 10
7512.5777375525977
 20
24228.075662787342
 30
0.0
 11
7552.5777375525968
 21
24338.075662787331
 31
0.0
 12
7512.5777375526004
 22
24338.075662787331
 32
0.0
 13
7512.5777375526004
 23
24338.075662787331
 33
0.0
  0
SOLID
  5
5675
  8
FUTO
  6
CONTINUOUS
 10
7552.5777375525968
 20
24338.075662787331
 30
0.0
 11
7512.5777375525977
 21
24228.075662787342
 31
0.0
 12
7552.5777375525986
 22
24228.075662787331
 32
0.0
 13
7552.5777375525986
 23
24228.075662787331
 33
0.0
210
0.0
220
0.0
230
1.0
  0
SOLID
  5
5676
  8
FUTO
  6
CONTINUOUS
 10
5422.5777375525977
 20
24338.075662787331
 30
0.0
 11
5422.5777375525977
 21
24228.075662787331
 31
0.0
 12
5462.5777375525986
 22
24228.075662787331
 32
0.0
 13
5462.5777375525986
 23
24228.075662787331
 33
0.0
210
0.0
220
0.0
230
1.0
  0
SOLID
  5
5677
  8
FUTO
  6
CONTINUOUS
 10
5462.5777375525977
 20
24338.075662787342
 30
0.0
 11
5422.5777375525977
 21
24338.075662787331
 31
0.0
 12
5462.5777375525986
 22
24228.075662787331
 32
0.0
 13
5462.5777375525986
 23
24228.075662787331
 33
0.0
210
0.0
220
0.0
230
1.0
  0
SOLID
  5
5678
  8
FUTO
  6
CONTINUOUS
 10
7590.5777375526004
 20
24338.075662787342
 30
0.0
 11
7552.5777375525968
 21
24338.075662787342
 31
0.0
 12
7590.5777375525968
 22
24228.075662787331
 32
0.0
 13
7590.5777375525968
 23
24228.075662787331
 33
0.0
210
0.0
220
0.0
230
1.0
  0
SOLID
  5
5679
  8
FUTO
  6
CONTINUOUS
 10
7552.5777375525968
 20
24228.075662787342
 30
0.0
 11
7590.5777375525968
 21
24228.075662787331
 31
0.0
 12
7552.5777375525968
 22
24338.075662787342
 32
0.0
 13
7552.5777375525968
 23
24338.075662787342
 33
0.0
210
0.0
220
0.0
230
1.0
  0
SOLID
  5
567A
  8
FUTO
  6
CONTINUOUS
 10
7590.5777375525968
 20
24228.075662787331
 30
0.0
 11
7552.5777375525968
 21
24228.075662787342
 31
0.0
 12
7587.5777375525986
 22
24228.075662787331
 32
0.0
 13
7587.5777375525986
 23
24228.075662787331
 33
0.0
210
0.0
220
0.0
230
1.0
  0
ENDBLK
  5
567C
  8
0
  0
ENDSEC
  0
SECTION
  2
ENTITIES
  0
LINE
  5
1F
  8
FUTO
 10
27774.768968762561
 20
23867.16802583672
 30
0.0
 11
29982.768968762561
 21
23867.16802583672
 31
0.0
1001
ACAD
1000
ASC_BOUNDS
1002
{
1070
    19
1005
3975
1002
}
  0
LINE
  5
41
  8
FUTO
 10
27779.768968762561
 20
23717.16802583672
 30
0.0
 11
29979.768968762561
 21
23717.168025836731
 31
0.0
  0
LINE
  5
42
  8
FUTO
 10
27774.768968762561
 20
23982.16802583672
 30
0.0
 11
29982.768968762572
 21
23982.16802583672
 31
0.0
1001
ACAD
1000
ASC_BOUNDS
1002
{
1070
    19
1005
3975
1002
}
  0
LINE
  5
116
  8
FUTO
 10
28696.768968762561
 20
25067.16802583672
 30
0.0
 11
28758.268968762561
 21
25067.16802583672
 31
0.0
  0
LINE
  5
117
  8
FUTO
 10
28696.768968762561
 20
24977.16802583672
 30
0.0
 11
28759.56896876256
 21
24977.16802583672
 31
0.0
  0
LINE
  5
118
  8
FUTO
 10
27780.768968762561
 20
24132.16802583672
 30
0.0
 11
29979.968968762561
 21
24132.16802583672
 31
0.0
  0
LINE
  5
119
  8
CT
 10
27496.918835277182
 20
25022.16802583672
 30
0.0
 11
30095.096446734569
 21
25022.16802583672
 31
0.0
  0
ARC
  5
11C
  8
FUTO
 10
24893.825556723921
 20
25124.16802583672
 30
0.0
 40
1125.0
 50
337.74343389962638
 51
354.79803891510841
  0
LINE
  5
14C
  8
SL
 10
27757.768968762561
 20
25102.16802583672
 30
0.0
 11
27757.768968762561
 21
24942.16802583672
 31
0.0
  0
LINE
  5
162
  8
CT
 10
27917.768968762561
 20
25140.671522796842
 30
0.0
 11
27917.768968762561
 21
24859.337394049999
 31
0.0
  0
LINE
  5
163
  8
CT
 10
24646.825556723921
 20
24912.16802583672
 30
0.0
 11
24646.825556723921
 21
24966.16802583672
 31
0.0
  0
ARC
  5
164
  8
FUTO
 10
24680.825556723921
 20
24972.16802583672
 30
0.0
 40
16.0
 50
270.0
 51
0.000000000000007
  0
ARC
  5
165
  8
FUTO
 10
24791.825556723921
 20
25022.16802583672
 30
0.0
 40
95.000000000000071
 50
209.9999999999994
 51
230.94387397238239
  0
ARC
  5
168
  8
FUTO
 10
24791.825556723921
 20
25022.16802583672
 30
0.0
 40
94.999999999997485
 50
309.05612602761818
 51
330.00000000000108
  0
LINE
  5
169
  8
CT
 10
24936.825556723921
 20
24912.16802583672
 30
0.0
 11
24936.825556723921
 21
24966.16802583672
 31
0.0
  0
ARC
  5
16A
  8
FUTO
 10
24902.825556723921
 20
24972.16802583672
 30
0.0
 40
16.0
 50
180.0
 51
270.0
  0
LINE
  5
16B
  8
CT
 10
24791.825556723921
 20
25146.671522796842
 30
0.0
 11
24791.825556723921
 21
24904.926686681119
 31
0.0
  0
ARC
  5
178
  8
KL
 10
24877.325556723921
 20
24936.668025836731
 30
0.0
 40
917.5
 50
180.0
 51
270.0
  0
LINE
  5
17D
  8
FUTO
 10
27547.768968762561
 20
25402.16802583672
 30
0.0
 11
27547.768968762561
 21
24172.16802583672
 31
0.0
  0
LINE
  5
17E
  8
SL
 10
27657.768968762561
 20
25272.16802583672
 30
0.0
 11
27657.768968762561
 21
24286.16802583672
 31
0.0
  0
LINE
  5
17F
  8
SL
 10
27735.668968762559
 20
25272.16802583672
 30
0.0
 11
27735.668968762559
 21
24286.16802583672
 31
0.0
  0
ARC
  5
180
  8
FUTO
 10
24689.825556723921
 20
25124.16802583672
 30
0.0
 40
1329.0
 50
355.59825262435089
 51
85.598252624351105
  0
ARC
  5
183
  8
FUTO
 10
24791.825556723921
 20
25022.16802583672
 30
0.0
 40
380.0
 50
55.52077512793651
 51
249.0802792559534
  0
LINE
  5
184
  8
CT
 10
24791.825556723921
 20
26546.594771094158
 30
0.0
 11
24791.825556723921
 21
23522.16802583672
 31
0.0
  0
LINE
  5
185
  8
FUTO
 10
25631.825556723921
 20
26061.652425706929
 30
0.0
 11
25631.825556723921
 21
24906.27994585428
 31
0.0
  0
LINE
  5
186
  8
FUTO
 10
25622.825556723921
 20
26070.60978315727
 30
0.0
 11
25622.825556723921
 21
24912.460670869281
 31
0.0
  0
LINE
  5
187
  8
FUTO
 10
23951.825556723921
 20
26525.131207505081
 30
0.0
 11
23951.825556723921
 21
24132.16802583672
 31
0.0
  0
LINE
  5
188
  8
FUTO
 10
23960.825556723921
 20
26524.319406085378
 30
0.0
 11
23960.825556723921
 21
24132.16802583672
 31
0.0
  0
CIRCLE
  5
18B
  8
SL
 10
24791.825556723921
 20
25022.16802583672
 30
0.0
 40
250.0
  0
ARC
  5
18C
  8
KL
 10
24689.825556723921
 20
25124.16802583672
 30
0.0
 40
1309.0
 50
0.000000000000007
 51
84.845859597543125
  0
LINE
  5
19A
  8
CT
 10
28627.768968762561
 20
25140.671522796842
 30
0.0
 11
28627.768968762561
 21
24837.003862621568
 31
0.0
  0
LINE
  5
19B
  8
FUTO
 10
23941.825556723921
 20
23982.16802583672
 30
0.0
 11
26341.825556723921
 21
23982.16802583672
 31
0.0
1001
ACAD
1000
ASC_BOUNDS
1002
{
1070
    19
1005
0
1005
0
1005
0
1005
0
1005
0
1005
0
1005
0
1005
0
1005
0
1005
0
1005
0
1005
0
1005
0
1005
0
1005
0
1005
0
1005
0
1005
0
1005
0
1005
0
1005
0
1002
}
  0
LINE
  5
19C
  8
FUTO
 10
23941.825556723921
 20
23867.16802583672
 30
0.0
 11
26341.825556723921
 21
23867.16802583672
 31
0.0
1001
ACAD
1000
ASC_BOUNDS
1002
{
1070
    19
1005
0
1005
0
1005
0
1005
0
1005
0
1005
0
1005
0
1005
0
1005
0
1005
0
1005
0
1005
0
1005
0
1005
0
1005
0
1005
0
1005
0
1005
0
1005
0
1005
0
1005
0
1002
}
  0
DIMENSION
  5
276
  8
FUTO
  2
*D3
 10
26341.825556723921
 20
23477.868165871689
 30
0.0
 11
25566.825556723921
 21
23537.868165871689
 31
0.0
 70
     0
 13
24791.825556723921
 23
23690.085874792971
 33
0.0
 14
26341.825556723921
 24
23642.16802583672
 34
0.0
 50
180.0
1001
ACAD
1000
DSTYLE
1002
{
1070
    40
1040
30.0
1070
   176
1070
     2
1070
   177
1070
     2
1070
   178
1070
     2
1070
   341
1005
44D5
1070
     5
1000
OPEN30
1002
}
  0
DIMENSION
  5
283
  8
FUTO
  2
*D4
 10
23941.825556723921
 20
23294.950848887609
 30
0.0
 11
25141.825556723921
 21
23354.950848887609
 31
0.0
 70
     0
 13
26341.825556723921
 23
23717.16802583672
 33
0.0
 14
23941.825556723921
 24
23717.16802583672
 34
0.0
 50
180.0
1001
ACAD
1000
DSTYLE
1002
{
1070
    40
1040
30.0
1070
   176
1070
     2
1070
   177
1070
     2
1070
   178
1070
     2
1070
   341
1005
44D5
1070
     5
1000
OPEN30
1002
}
  0
LINE
  5
293
  8
FUTO
 10
25731.825556723921
 20
24206.661661254191
 30
0.0
 11
25678.62462361978
 21
24206.661661254191
 31
0.0
  0
LINE
  5
294
  8
FUTO
 10
23941.825556723921
 20
24132.16802583672
 30
0.0
 11
26341.825556723921
 21
24132.16802583672
 31
0.0
  0
LINE
  5
295
  8
FUTO
 10
23941.825556723921
 20
23717.16802583672
 30
0.0
 11
26341.825556723921
 21
23717.16802583672
 31
0.0
  0
LINE
  5
2AC
  8
FUTO
 10
25731.825556723921
 20
24132.16802583672
 30
0.0
 11
25731.825556723921
 21
24223.348458178931
 31
0.0
  0
LINE
  5
2AD
  8
FUTO
 10
25731.825556723921
 20
24132.16802583672
 30
0.0
 11
25741.83389263436
 21
24192.16802583672
 31
0.0
  0
LINE
  5
2AE
  8
FUTO
 10
26251.825556723921
 20
24132.16802583672
 30
0.0
 11
26251.825556723921
 21
24223.348458178931
 31
0.0
  0
LINE
  5
2AF
  8
FUTO
 10
26251.825556723921
 20
24132.16802583672
 30
0.0
 11
26241.817220813478
 21
24192.16802583672
 31
0.0
  0
ARC
  5
2B0
  8
FUTO
 10
25991.825556723921
 20
24392.16802583672
 30
0.0
 40
220.0
 50
249.08027925595351
 51
55.520775127936567
  0
LINE
  5
2B2
  8
FUTO
 10
26341.825556723921
 20
23867.16802583672
 30
0.0
 11
26341.825556723921
 21
23717.16802583672
 31
0.0
  0
POINT
  5
2B3
  8
DEFPOINTS
 10
26341.825556723921
 20
23982.16802583672
 30
0.0
  0
POINT
  5
2B4
  8
DEFPOINTS
 10
26341.825556723921
 20
23867.16802583672
 30
0.0
  0
POINT
  5
2B5
  8
DEFPOINTS
 10
26341.825556723921
 20
23867.16802583672
 30
0.0
  0
LINE
  5
2B6
  8
FUTO
 10
26341.825556723921
 20
24132.16802583672
 30
0.0
 11
26341.825556723921
 21
23982.16802583672
 31
0.0
  0
LINE
  5
2BD
  8
CT
 10
26194.380732723919
 20
24467.16802583672
 30
0.0
 11
26230.814082723919
 21
24467.16802583672
 31
0.0
  0
LINE
  5
2BE
  8
FUTO
 10
26211.825556723921
 20
24407.16802583672
 30
0.0
 11
26194.772089723931
 21
24407.16802583672
 31
0.0
  0
LINE
  5
2BF
  8
FUTO
 10
26211.825556723921
 20
24527.16802583672
 30
0.0
 11
26144.09923872392
 21
24527.16802583672
 31
0.0
  0
ARC
  5
2C0
  8
FUTO
 10
26220.02550772392
 20
24533.634578836722
 30
0.0
 40
8.1999940000000002
 50
107.30986
 51
180.0
  0
LINE
  5
2C1
  8
FUTO
 10
26241.817220813478
 20
24192.16802583672
 30
0.0
 11
26075.163876302169
 21
24192.16802583672
 31
0.0
  0
LINE
  5
2C2
  8
FUTO
 10
26190.280529313059
 20
24206.661661254191
 30
0.0
 11
26225.095081017182
 21
24206.661661254191
 31
0.0
  0
LINE
  5
2C3
  8
FUTO
 10
26212.09752972392
 20
24393.525935836718
 30
0.0
 11
26222.496088723921
 21
24349.85186383672
 31
0.0
  0
LINE
  5
2C4
  8
FUTO
 10
26388.618159723919
 20
24359.582576836721
 30
0.0
 11
26388.618159723919
 21
24497.375056836721
 31
0.0
  0
LINE
  5
2C5
  8
FUTO
 10
26228.618159723919
 20
24577.02984183672
 30
0.0
 11
26377.368159723919
 21
24319.387263836721
 31
0.0
  0
LINE
  5
2C6
  8
FUTO
 10
26223.075556723921
 20
24573.829890836721
 30
0.0
 11
26371.825556723921
 21
24316.187312836719
 31
0.0
  0
LINE
  5
2C7
  8
FUTO
 10
26234.825556723921
 20
24312.16802583672
 30
0.0
 11
26354.825556723921
 21
24312.16802583672
 31
0.0
  0
LINE
  5
2C8
  8
FUTO
 10
26232.224116723919
 20
24342.16802583672
 30
0.0
 11
26356.825556723921
 21
24342.16802583672
 31
0.0
  0
ARC
  5
2C9
  8
FUTO
 10
26365.350458723919
 20
24344.20269383672
 30
0.0
 40
2.0000450000000001
 50
107.313553
 51
209.99818400000001
  0
LINE
  5
2CA
  8
FUTO
 10
26382.85802772392
 20
24351.753962836719
 30
0.0
 11
26364.755244723921
 21
24346.112117836721
 31
0.0
  0
LINE
  5
2CB
  8
FUTO
 10
26377.368159723919
 20
24319.387263836721
 30
0.0
 11
26371.825556723921
 21
24316.187312836719
 31
0.0
  0
LINE
  5
2CC
  8
FUTO
 10
26354.825556723921
 20
24312.16802583672
 30
0.0
 11
26354.825556723921
 21
24342.16802583672
 31
0.0
  0
ARC
  5
2CD
  8
FUTO
 10
26380.418085723919
 20
24359.582576836721
 30
0.0
 40
8.2000299999999982
 50
287.31066900000002
 51
0.000000000000007
  0
LINE
  5
2CE
  8
FUTO
 10
26234.825556723921
 20
24312.16802583672
 30
0.0
 11
26234.825556723921
 21
24342.16802583672
 31
0.0
  0
LINE
  5
2CF
  8
FUTO
 10
26264.825556723921
 20
24312.16802583672
 30
0.0
 11
26264.825556723921
 21
24342.16802583672
 31
0.0
  0
LINE
  5
2D0
  8
FUTO
 10
26267.825556723921
 20
24312.16802583672
 30
0.0
 11
26267.825556723921
 21
24342.16802583672
 31
0.0
  0
ARC
  5
2D1
  8
FUTO
 10
26232.224116723919
 20
24352.16802583672
 30
0.0
 40
9.9999559999999992
 50
193.392303
 51
270.0
  0
LINE
  5
2D2
  8
CT
 10
26294.825556723921
 20
24356.251033836721
 30
0.0
 11
26294.825556723921
 21
24304.029597836721
 31
0.0
  0
LINE
  5
2D3
  8
FUTO
 10
26324.825556723921
 20
24312.16802583672
 30
0.0
 11
26324.825556723921
 21
24342.16802583672
 31
0.0
  0
LINE
  5
2D4
  8
FUTO
 10
26321.825556723921
 20
24312.16802583672
 30
0.0
 11
26321.825556723921
 21
24342.16802583672
 31
0.0
  0
LINE
  5
2D5
  8
FUTO
 10
26251.825556723921
 20
24206.661661254191
 30
0.0
 11
26305.026489828058
 21
24206.661661254191
 31
0.0
  0
LINE
  5
2D6
  8
FUTO
 10
26305.026489828058
 20
24214.117456682401
 30
0.0
 11
26313.907729966879
 21
24214.117456682401
 31
0.0
  0
LINE
  5
2D7
  8
FUTO
 10
26305.026489828058
 20
24199.91593176889
 30
0.0
 11
26305.026489828058
 21
24214.117456682401
 31
0.0
  0
LINE
  5
2D8
  8
FUTO
 10
26314.262980810239
 20
24199.91593176889
 30
0.0
 11
26305.026489828058
 21
24199.91593176889
 31
0.0
  0
LINE
  5
2D9
  8
FUTO
 10
26314.262980810239
 20
24213.762423710941
 30
0.0
 11
26314.262980810239
 21
24199.91593176889
 31
0.0
  0
LINE
  5
2DA
  8
FUTO
 10
26225.095081017182
 20
24223.348458178931
 30
0.0
 11
26225.095081017182
 21
24192.16802583672
 31
0.0
  0
LINE
  5
2DB
  8
FUTO
 10
26251.825556723921
 20
24223.348458178931
 30
0.0
 11
26225.095081017182
 21
24223.348458178931
 31
0.0
  0
LINE
  5
2DC
  8
FUTO
 10
26368.21947772392
 20
24551.049128836719
 30
0.0
 11
26243.618159723919
 21
24551.049128836719
 31
0.0
  0
ARC
  5
2DD
  8
FUTO
 10
26368.21947772392
 20
24541.049128836719
 30
0.0
 40
10.000075000000001
 50
13.392141000000001
 51
90.0
  0
ARC
  5
2DE
  8
FUTO
 10
26378.617426723918
 20
24497.374812836719
 30
0.0
 40
10.000731999999999
 50
0.0013990000000172
 51
13.392693
  0
LINE
  5
2DF
  8
FUTO
 10
26377.947626723919
 20
24543.365291836719
 30
0.0
 11
26388.34618672392
 21
24499.691218836721
 31
0.0
  0
LINE
  5
2E0
  8
FUTO
 10
26228.618159723919
 20
24577.02984183672
 30
0.0
 11
26223.075556723921
 21
24573.829890836721
 31
0.0
  0
ARC
  5
2E1
  8
FUTO
 10
26235.093256723922
 20
24549.014460836719
 30
0.0
 40
2.000008999999999
 50
287.31021099999992
 51
29.999931000000021
  0
LINE
  5
2E2
  8
FUTO
 10
26235.688349723921
 20
24547.105037836722
 30
0.0
 11
26217.585688723921
 21
24541.463191836719
 31
0.0
  0
ARC
  5
2E3
  8
FUTO
 10
26221.825556723921
 20
24395.842097836721
 30
0.0
 40
10.0
 50
180.0
 51
193.392303
  0
LINE
  5
2E4
  8
FUTO
 10
26211.825556723921
 20
24395.842097836721
 30
0.0
 11
26211.825556723921
 21
24533.634578836722
 31
0.0
  0
LINE
  5
2E5
  8
FUTO
 10
25985.575556723921
 20
24605.814998836719
 30
0.0
 11
25985.575556723921
 21
24655.91802583672
 31
0.0
  0
LINE
  5
2E6
  8
FUTO
 10
25998.075556723921
 20
24605.814998836719
 30
0.0
 11
25998.075556723921
 21
24655.91802583672
 31
0.0
  0
LINE
  5
2E7
  8
CT
 10
25991.825556723921
 20
24668.487117836721
 30
0.0
 11
25991.825556723921
 21
24188.463191836719
 31
0.0
  0
CIRCLE
  5
2E8
  8
FUTO
 10
25991.825556723921
 20
24392.16802583672
 30
0.0
 40
40.0
  0
LINE
  5
2E9
  8
FUTO
 10
26046.56359372392
 20
24196.16802583672
 30
0.0
 11
25937.087519723918
 21
24196.16802583672
 31
0.0
  0
LINE
  5
2EA
  8
CT
 10
25776.98644572392
 20
24392.16802583672
 30
0.0
 11
26205.81664572392
 21
24392.16802583672
 31
0.0
  0
LINE
  5
2EB
  8
CT
 10
25804.325556723921
 20
24392.16802583672
 30
0.0
 11
26191.860514070038
 21
24392.16802583672
 31
0.0
  0
CIRCLE
  5
2EC
  8
SL
 10
25991.825556723921
 20
24392.16802583672
 30
0.0
 40
106.0
  0
LINE
  5
2ED
  8
FUTO
 10
25908.487237145669
 20
24182.691681275119
 30
0.0
 11
25991.838337611451
 21
24182.691681275119
 31
0.0
  0
ARC
  5
2EE
  8
FUTO
 10
25991.825556723921
 20
24392.16802583672
 30
0.0
 40
203.5
 50
285.60376000000002
 51
254.3962709999999
  0
CIRCLE
  5
2EF
  8
FUTO
 10
25991.825556723921
 20
24392.16802583672
 30
0.0
 40
7.5
  0
LINE
  5
2F0
  8
CT
 10
25991.825556723921
 20
24179.66802583672
 30
0.0
 11
25991.825556723921
 21
24595.291031187269
 31
0.0
  0
LINE
  5
2F1
  8
FUTO
 10
26142.739619723921
 20
24255.64971483672
 30
0.0
 11
26147.53771472392
 21
24251.615291836719
 31
0.0
  0
LINE
  5
2F2
  8
FUTO
 10
26144.334345723921
 20
24249.700251836719
 30
0.0
 11
26140.742304723921
 21
24253.292292836719
 31
0.0
  0
LINE
  5
2F3
  8
FUTO
 10
26144.334345723921
 20
24248.851619836722
 30
0.0
 11
26144.334345723921
 21
24249.700251836719
 31
0.0
  0
LINE
  5
2F4
  8
FUTO
 10
26142.046992723921
 20
24247.41265483672
 30
0.0
 11
26142.895624723918
 21
24247.41265483672
 31
0.0
  0
LINE
  5
2F5
  8
FUTO
 10
26142.046992723921
 20
24247.41265483672
 30
0.0
 11
26142.046992723921
 21
24246.564265836721
 31
0.0
  0
ARC
  5
2F6
  8
FUTO
 10
26144.319941723919
 20
24247.788386836721
 30
0.0
 40
5.0000339999999994
 50
316.563965
 51
49.941891000000027
  0
LINE
  5
2F7
  8
FUTO
 10
26134.293330723918
 20
24239.65923683672
 30
0.0
 11
26130.701289723918
 21
24243.25127783672
 31
0.0
  0
LINE
  5
2F8
  8
FUTO
 10
26134.293330723918
 20
24239.65923683672
 30
0.0
 11
26135.141962723919
 21
24239.65923683672
 31
0.0
  0
LINE
  5
2F9
  8
FUTO
 10
26136.580683723922
 20
24241.94658983672
 30
0.0
 11
26136.580683723922
 21
24241.097957836719
 31
0.0
  0
LINE
  5
2FA
  8
FUTO
 10
26136.580683723922
 20
24241.94658983672
 30
0.0
 11
26132.988642723922
 21
24245.53863083672
 31
0.0
  0
LINE
  5
2FB
  8
FUTO
 10
26136.580683723922
 20
24241.94658983672
 30
0.0
 11
26137.429316723919
 21
24241.94658983672
 31
0.0
  0
LINE
  5
2FC
  8
FUTO
 10
26140.742304723921
 20
24253.292292836719
 30
0.0
 11
26130.701289723918
 21
24243.25127783672
 31
0.0
  0
LINE
  5
2FD
  8
CT
 10
26140.266474723921
 20
24243.727107836719
 30
0.0
 11
26135.01842772392
 21
24248.97515483672
 31
0.0
  0
LINE
  5
2FE
  8
FUTO
 10
26144.334345723921
 20
24248.851619836722
 30
0.0
 11
26135.141962723919
 21
24239.65923683672
 31
0.0
  0
LINE
  5
2FF
  8
FUTO
 10
26142.046992723921
 20
24247.41265483672
 30
0.0
 11
26138.454951723921
 21
24251.004939836719
 31
0.0
  0
LINE
  5
300
  8
FUTO
 10
26118.011835723919
 20
24212.16802583672
 30
0.0
 11
26113.490473723919
 21
24229.042537836722
 31
0.0
  0
LINE
  5
301
  8
FUTO
 10
26113.490351723922
 20
24229.042537836722
 30
0.0
 11
26118.011835723919
 21
24212.16802583672
 31
0.0
  0
ARC
  5
302
  8
FUTO
 10
26119.610224723921
 20
24225.521541836719
 30
0.0
 40
5.0
 50
195.00116
 51
307.48202500000008
  0
ARC
  5
303
  8
FUTO
 10
25991.825556723921
 20
24392.16802583672
 30
0.0
 40
214.9999849999999
 50
307.48104899999998
 51
316.565674
  0
ARC
  5
304
  8
FUTO
 10
26104.325556723921
 20
24209.16802583672
 30
0.0
 40
3.0
 50
90.0
 51
180.0
  0
LINE
  5
305
  8
FUTO
 10
26141.575556723921
 20
24204.16802583672
 30
0.0
 11
26141.575556723921
 21
24200.16802583672
 31
0.0
  0
LINE
  5
306
  8
FUTO
 10
26141.575556723921
 20
24196.16802583672
 30
0.0
 11
26141.575556723921
 21
24192.16802583672
 31
0.0
  0
LINE
  5
307
  8
FUTO
 10
26101.325556723921
 20
24209.16802583672
 30
0.0
 11
26101.325556723921
 21
24192.16802583672
 31
0.0
  0
LINE
  5
308
  8
FUTO
 10
26101.325556723921
 20
24197.16802583672
 30
0.0
 11
26095.65050772392
 21
24218.348201836721
 31
0.0
  0
LINE
  5
309
  8
CT
 10
26150.825556723921
 20
24216.591853836719
 30
0.0
 11
26150.825556723921
 21
24187.47613083672
 31
0.0
  0
LINE
  5
30A
  8
FUTO
 10
26141.575556723921
 20
24212.16802583672
 30
0.0
 11
26141.575556723921
 21
24208.16802583672
 31
0.0
  0
ARC
  5
30B
  8
FUTO
 10
26175.825556723921
 20
24266.494685836718
 30
0.0
 40
5.0
 50
0.000000000000007
 51
55.056338999999987
  0
ARC
  5
30C
  8
FUTO
 10
26177.825556723921
 20
24209.16802583672
 30
0.0
 40
3.0
 50
0.000000000000007
 51
90.0
  0
LINE
  5
30D
  8
FUTO
 10
26160.075556723921
 20
24204.16802583672
 30
0.0
 11
26160.075556723921
 21
24200.16802583672
 31
0.0
  0
LINE
  5
30E
  8
FUTO
 10
26160.075556723921
 20
24196.16802583672
 30
0.0
 11
26160.075556723921
 21
24192.16802583672
 31
0.0
  0
LINE
  5
30F
  8
FUTO
 10
26160.075556723921
 20
24212.16802583672
 30
0.0
 11
26160.075556723921
 21
24208.16802583672
 31
0.0
  0
LINE
  5
310
  8
FUTO
 10
26180.825556723921
 20
24266.494685836718
 30
0.0
 11
26180.825556723921
 21
24192.16802583672
 31
0.0
  0
LINE
  5
311
  8
FUTO
 10
26180.825556723921
 20
24192.16802583672
 30
0.0
 11
26101.325556723921
 21
24192.16802583672
 31
0.0
  0
LINE
  5
312
  8
FUTO
 10
26104.325556723921
 20
24212.16802583672
 30
0.0
 11
26177.825556723921
 21
24212.16802583672
 31
0.0
  0
LINE
  5
313
  8
FUTO
 10
26178.689448723919
 20
24270.59331883672
 30
0.0
 11
26162.751582723919
 21
24281.729792836719
 31
0.0
  0
LINE
  5
314
  8
FUTO
 10
26075.163876302169
 20
24192.16802583672
 30
0.0
 11
26075.163876302169
 21
24182.691681275119
 31
0.0
  0
LINE
  5
315
  8
FUTO
 10
26075.163876302169
 20
24182.691681275119
 30
0.0
 11
25991.812775836392
 21
24182.691681275119
 31
0.0
  0
LINE
  5
316
  8
FUTO
 10
26135.141962723919
 20
24544.676814836719
 30
0.0
 11
26134.293452723919
 21
24544.676814836719
 31
0.0
  0
LINE
  5
317
  8
FUTO
 10
26136.580805723919
 20
24542.389460836719
 30
0.0
 11
26136.580805723919
 21
24543.238093836721
 31
0.0
  0
LINE
  5
318
  8
FUTO
 10
26136.580805723919
 20
24542.389460836719
 30
0.0
 11
26137.429316723919
 21
24542.389460836719
 31
0.0
  0
LINE
  5
319
  8
FUTO
 10
26134.293452723919
 20
24544.676814836719
 30
0.0
 11
26130.701289723918
 21
24541.084773836719
 31
0.0
  0
LINE
  5
31A
  8
FUTO
 10
26144.334345723921
 20
24534.63579883672
 30
0.0
 11
26144.334345723921
 21
24535.484431836721
 31
0.0
  0
LINE
  5
31B
  8
FUTO
 10
26142.046992723921
 20
24536.92315283672
 30
0.0
 11
26142.895624723918
 21
24536.92315283672
 31
0.0
  0
LINE
  5
31C
  8
FUTO
 10
26142.046992723921
 20
24536.92315283672
 30
0.0
 11
26142.046992723921
 21
24537.771785836721
 31
0.0
  0
LINE
  5
31D
  8
FUTO
 10
26142.046992723921
 20
24536.92315283672
 30
0.0
 11
26138.454951723921
 21
24533.33111183672
 31
0.0
  0
LINE
  5
31E
  8
FUTO
 10
26136.580805723919
 20
24542.389460836719
 30
0.0
 11
26132.988642723922
 21
24538.797419836719
 31
0.0
  0
LINE
  5
31F
  8
FUTO
 10
26140.266596723919
 20
24540.60894383672
 30
0.0
 11
26135.01842772392
 21
24535.360896836719
 31
0.0
  0
LINE
  5
320
  8
FUTO
 10
26135.141962723919
 20
24544.676814836719
 30
0.0
 11
26144.334345723921
 21
24535.484431836721
 31
0.0
  0
LINE
  5
321
  8
FUTO
 10
26201.825556723921
 20
24407.16802583672
 30
0.0
 11
26201.825556723921
 21
24527.16802583672
 31
0.0
  0
LINE
  5
322
  8
FUTO
 10
26144.334345723921
 20
24534.63579883672
 30
0.0
 11
26140.742304723921
 21
24531.04375783672
 31
0.0
  0
LINE
  5
323
  8
FUTO
 10
26130.701289723918
 20
24541.084773836719
 30
0.0
 11
26140.742304723921
 21
24531.04375783672
 31
0.0
  0
ARC
  5
324
  8
FUTO
 10
26004.825556723921
 20
24611.35796683672
 30
0.0
 40
2.0
 50
0.000000000000007
 51
84.289063000000013
  0
LINE
  5
325
  8
FUTO
 10
25998.282648723922
 20
24614.022273836719
 30
0.0
 11
26005.024592723919
 21
24613.348201836721
 31
0.0
  0
ARC
  5
326
  8
FUTO
 10
25978.825556723921
 20
24611.35796683672
 30
0.0
 40
2.0001619999999991
 50
95.710937999999985
 51
180.0
  0
LINE
  5
327
  8
FUTO
 10
25985.725458723919
 20
24614.057917836719
 30
0.0
 11
25978.626520723919
 21
24613.348201836721
 31
0.0
  0
ARC
  5
328
  8
FUTO
 10
25991.825556723921
 20
24392.16802583672
 30
0.0
 40
210.0001069999999
 50
86.232985999999997
 51
86.266968000000006
  0
ARC
  5
329
  8
FUTO
 10
26005.42528872392
 20
24598.72075983672
 30
0.0
 40
2.999933
 50
357.44390900000002
 51
86.232291999999973
  0
ARC
  5
32A
  8
FUTO
 10
26005.302851723922
 20
24598.728816836719
 30
0.0
 40
3.0000169999999988
 50
86.267189000000045
 51
175.056107
  0
LINE
  5
32B
  8
FUTO
 10
26008.42223672392
 20
24598.586970836721
 30
0.0
 11
26008.262324723921
 21
24595.003230836719
 31
0.0
  0
LINE
  5
32C
  8
FUTO
 10
26002.313959723921
 20
24598.98736183672
 30
0.0
 11
26002.004877723921
 21
24595.41338683671
 31
0.0
  0
LINE
  5
32D
  8
FUTO
 10
25981.337275723919
 20
24598.98736183672
 30
0.0
 11
25981.646357723919
 21
24595.41338683671
 31
0.0
  0
ARC
  5
32E
  8
FUTO
 10
25991.825556723921
 20
24392.16802583672
 30
0.0
 40
210.0
 50
93.732971000000006
 51
93.766974999999974
  0
ARC
  5
32F
  8
FUTO
 10
25978.22594772392
 20
24598.72075983672
 30
0.0
 40
3.0001370000000001
 50
93.767708000000013
 51
182.555984
  0
LINE
  5
330
  8
FUTO
 10
25975.228876723919
 20
24598.586970836721
 30
0.0
 11
25975.38891172392
 21
24595.003230836719
 31
0.0
  0
ARC
  5
331
  8
FUTO
 10
25978.348383723918
 20
24598.728816836719
 30
0.0
 40
3.000052999999999
 50
4.9438900000000174
 51
93.732811000000027
  0
LINE
  5
332
  8
FUTO
 10
25979.325556723921
 20
24602.16802583672
 30
0.0
 11
26004.325556723921
 21
24602.16802583672
 31
0.0
  0
LINE
  5
333
  8
FUTO
 10
25976.825556723921
 20
24602.16802583672
 30
0.0
 11
26006.825556723921
 21
24602.16802583672
 31
0.0
  0
LINE
  5
334
  8
FUTO
 10
25976.825556723921
 20
24602.16802583672
 30
0.0
 11
25976.825556723921
 21
24611.35796683672
 31
0.0
  0
LINE
  5
335
  8
FUTO
 10
26006.825556723921
 20
24602.16802583672
 30
0.0
 11
26006.825556723921
 21
24611.35796683672
 31
0.0
  0
ARC
  5
336
  8
FUTO
 10
25983.575556723921
 20
24605.814998836719
 30
0.0
 40
2.0
 50
270.0
 51
0.000000000000007
  0
ARC
  5
337
  8
FUTO
 10
26000.075556723921
 20
24605.814998836719
 30
0.0
 40
2.0
 50
180.0
 51
270.0
  0
LINE
  5
338
  8
FUTO
 10
25802.825556723921
 20
24192.16802583672
 30
0.0
 11
25882.325556723921
 21
24192.16802583672
 31
0.0
  0
LINE
  5
339
  8
FUTO
 10
25879.325556723921
 20
24212.16802583672
 30
0.0
 11
25805.825556723921
 21
24212.16802583672
 31
0.0
  0
LINE
  5
33A
  8
FUTO
 10
25852.949824723921
 20
24243.25127783672
 30
0.0
 11
25842.908808723922
 21
24253.292292836719
 31
0.0
  0
LINE
  5
33B
  8
FUTO
 10
25849.357783723921
 20
24239.65923683672
 30
0.0
 11
25852.949824723921
 21
24243.25127783672
 31
0.0
  0
ARC
  5
33C
  8
FUTO
 10
25991.825556723921
 20
24392.16802583672
 30
0.0
 40
214.9999849999999
 50
223.43432599999991
 51
232.51896699999989
  0
LINE
  5
33D
  8
FUTO
 10
25741.83389263436
 20
24192.16802583672
 30
0.0
 11
25908.487237145669
 21
24192.16802583672
 31
0.0
  0
LINE
  5
33E
  8
FUTO
 10
25829.825556723921
 20
24192.16802583672
 30
0.0
 11
25889.825556723921
 21
24192.16802583672
 31
0.0
  0
LINE
  5
33F
  8
FUTO
 10
25870.160761723921
 20
24229.042537836722
 30
0.0
 11
25865.63927772392
 21
24212.16802583672
 31
0.0
  0
ARC
  5
340
  8
FUTO
 10
25864.040888723921
 20
24225.521541836719
 30
0.0
 40
5.0
 50
232.51852400000001
 51
344.99902300000002
  0
ARC
  5
341
  8
FUTO
 10
25879.325556723921
 20
24209.16802583672
 30
0.0
 40
3.0
 50
0.000000000000007
 51
90.0
  0
LINE
  5
342
  8
FUTO
 10
25882.325556723921
 20
24209.16802583672
 30
0.0
 11
25882.325556723921
 21
24192.16802583672
 31
0.0
  0
LINE
  5
343
  8
FUTO
 10
25882.325556723921
 20
24197.16802583672
 30
0.0
 11
25888.000849723921
 21
24218.348201836721
 31
0.0
  0
LINE
  5
344
  8
FUTO
 10
25908.487237145669
 20
24192.16802583672
 30
0.0
 11
25908.487237145669
 21
24182.691681275119
 31
0.0
  0
LINE
  5
345
  8
FUTO
 10
25823.575556723921
 20
24204.16802583672
 30
0.0
 11
25823.575556723921
 21
24200.16802583672
 31
0.0
  0
LINE
  5
346
  8
FUTO
 10
25823.575556723921
 20
24196.16802583672
 30
0.0
 11
25823.575556723921
 21
24192.16802583672
 31
0.0
  0
LINE
  5
347
  8
FUTO
 10
25823.575556723921
 20
24212.16802583672
 30
0.0
 11
25823.575556723921
 21
24208.16802583672
 31
0.0
  0
ARC
  5
348
  8
FUTO
 10
25807.825556723921
 20
24266.494685836718
 30
0.0
 40
5.0000669999999987
 50
124.943665
 51
180.0
  0
ARC
  5
349
  8
FUTO
 10
25805.825556723921
 20
24209.16802583672
 30
0.0
 40
3.0
 50
90.0
 51
180.0
  0
LINE
  5
34A
  8
FUTO
 10
25802.825556723921
 20
24266.494685836718
 30
0.0
 11
25802.825556723921
 21
24192.16802583672
 31
0.0
  0
LINE
  5
34B
  8
FUTO
 10
25839.316767723922
 20
24249.700251836719
 30
0.0
 11
25842.908808723922
 21
24253.292292836719
 31
0.0
  0
LINE
  5
34C
  8
FUTO
 10
25839.316767723922
 20
24249.700251836719
 30
0.0
 11
25839.316767723922
 21
24248.851619836722
 31
0.0
  0
LINE
  5
34D
  8
FUTO
 10
25841.604121723922
 20
24247.412898836719
 30
0.0
 11
25840.75548872392
 21
24247.412898836719
 31
0.0
  0
LINE
  5
34E
  8
FUTO
 10
25841.604121723922
 20
24247.412898836719
 30
0.0
 11
25845.196162723922
 21
24251.004939836719
 31
0.0
  0
LINE
  5
34F
  8
FUTO
 10
25841.604121723922
 20
24247.412898836719
 30
0.0
 11
25841.604121723922
 21
24246.564265836721
 31
0.0
  0
LINE
  5
350
  8
FUTO
 10
25840.91173872392
 20
24255.64971483672
 30
0.0
 11
25836.11352072392
 21
24251.615291836719
 31
0.0
  0
LINE
  5
351
  8
FUTO
 10
25848.509150723919
 20
24239.65923683672
 30
0.0
 11
25849.357783723921
 21
24239.65923683672
 31
0.0
  0
LINE
  5
352
  8
FUTO
 10
25847.070185723918
 20
24241.94658983672
 30
0.0
 11
25847.070185723918
 21
24241.097957836719
 31
0.0
  0
LINE
  5
353
  8
FUTO
 10
25847.070185723918
 20
24241.94658983672
 30
0.0
 11
25850.662470723921
 21
24245.53863083672
 31
0.0
  0
LINE
  5
354
  8
FUTO
 10
25847.070185723918
 20
24241.94658983672
 30
0.0
 11
25846.221796723919
 21
24241.94658983672
 31
0.0
  0
ARC
  5
355
  8
FUTO
 10
25839.331415723918
 20
24247.788386836721
 30
0.0
 40
5.0000049999999998
 50
130.05917400000001
 51
223.43505899999991
  0
LINE
  5
356
  8
CT
 10
25843.384638723921
 20
24243.727107836719
 30
0.0
 11
25848.632685723918
 21
24248.97515483672
 31
0.0
  0
LINE
  5
357
  8
FUTO
 10
25848.509150723919
 20
24239.65923683672
 30
0.0
 11
25839.316767723922
 21
24248.851619836722
 31
0.0
  0
LINE
  5
358
  8
FUTO
 10
25842.075556723921
 20
24204.16802583672
 30
0.0
 11
25842.075556723921
 21
24200.16802583672
 31
0.0
  0
LINE
  5
359
  8
FUTO
 10
25842.075556723921
 20
24196.16802583672
 30
0.0
 11
25842.075556723921
 21
24192.16802583672
 31
0.0
  0
LINE
  5
35A
  8
CT
 10
25832.825556723921
 20
24216.591853836719
 30
0.0
 11
25832.825556723921
 21
24187.47613083672
 31
0.0
  0
LINE
  5
35B
  8
FUTO
 10
25842.075556723921
 20
24212.16802583672
 30
0.0
 11
25842.075556723921
 21
24208.16802583672
 31
0.0
  0
LINE
  5
35C
  8
FUTO
 10
25731.825556723921
 20
24223.348458178931
 30
0.0
 11
25758.556032430672
 21
24223.348458178931
 31
0.0
  0
LINE
  5
35D
  8
FUTO
 10
25793.370584134791
 20
24206.661661254191
 30
0.0
 11
25758.556032430672
 21
24206.661661254191
 31
0.0
  0
LINE
  5
35E
  8
FUTO
 10
25758.556032430672
 20
24223.348458178931
 30
0.0
 11
25758.556032430672
 21
24192.16802583672
 31
0.0
  0
LINE
  5
35F
  8
FUTO
 10
25804.961787723922
 20
24270.59331883672
 30
0.0
 11
25820.899653723922
 21
24281.729792836719
 31
0.0
  0
LINE
  5
360
  8
FUTO
 10
25849.357783723921
 20
24544.676814836719
 30
0.0
 11
25852.949824723921
 21
24541.084773836719
 31
0.0
  0
LINE
  5
361
  8
FUTO
 10
25842.908808723922
 20
24531.04375783672
 30
0.0
 11
25852.949824723921
 21
24541.084773836719
 31
0.0
  0
ARC
  5
362
  8
FUTO
 10
25991.825556723921
 20
24392.16802583672
 30
0.0
 40
210.00004599999991
 50
131.23298600000001
 51
131.26696799999991
  0
ARC
  5
363
  8
FUTO
 10
25855.29491672392
 20
24547.758357836719
 30
0.0
 40
2.9999169999999991
 50
131.26663199999999
 51
220.05661000000001
  0
ARC
  5
364
  8
FUTO
 10
25855.387080723918
 20
24547.839412836722
 30
0.0
 40
2.999909999999999
 50
42.440556000000022
 51
131.23197899999991
  0
LINE
  5
365
  8
FUTO
 10
25852.99865272392
 20
24545.82769383672
 30
0.0
 11
25855.307368723919
 21
24543.081843836721
 31
0.0
  0
LINE
  5
366
  8
FUTO
 10
25857.60094772392
 20
24549.863826836721
 30
0.0
 11
25860.02208972392
 21
24547.21660983672
 31
0.0
  0
LINE
  5
367
  8
FUTO
 10
25849.357783723921
 20
24544.676814836719
 30
0.0
 11
25848.509150723919
 21
24544.676814836719
 31
0.0
  0
LINE
  5
368
  8
FUTO
 10
25847.070429723921
 20
24542.389460836719
 30
0.0
 11
25847.070429723921
 21
24543.238093836721
 31
0.0
  0
LINE
  5
369
  8
FUTO
 10
25847.070429723921
 20
24542.389460836719
 30
0.0
 11
25846.221796723919
 21
24542.389460836719
 31
0.0
  0
LINE
  5
36A
  8
FUTO
 10
25839.316767723922
 20
24535.484431836721
 30
0.0
 11
25839.316767723922
 21
24534.63579883672
 31
0.0
  0
LINE
  5
36B
  8
FUTO
 10
25841.604121723922
 20
24536.923396836719
 30
0.0
 11
25840.75548872392
 21
24536.923396836719
 31
0.0
  0
LINE
  5
36C
  8
FUTO
 10
25841.604121723922
 20
24536.923396836719
 30
0.0
 11
25845.196162723922
 21
24533.33111183672
 31
0.0
  0
LINE
  5
36D
  8
FUTO
 10
25841.604121723922
 20
24536.923396836719
 30
0.0
 11
25841.604121723922
 21
24537.771785836721
 31
0.0
  0
LINE
  5
36E
  8
FUTO
 10
25843.384638723921
 20
24540.60894383672
 30
0.0
 11
25848.632685723918
 21
24535.360896836719
 31
0.0
  0
LINE
  5
36F
  8
FUTO
 10
25839.316767723922
 20
24535.484431836721
 30
0.0
 11
25848.509150723919
 21
24544.676814836719
 31
0.0
  0
LINE
  5
370
  8
FUTO
 10
25847.070429723921
 20
24542.389460836719
 30
0.0
 11
25850.662470723921
 21
24538.797419836719
 31
0.0
  0
ARC
  5
371
  8
FUTO
 10
25991.825556723921
 20
24392.16802583672
 30
0.0
 40
210.0
 50
138.73297099999991
 51
138.76696799999991
  0
ARC
  5
372
  8
FUTO
 10
25836.235224723921
 20
24528.698787836722
 30
0.0
 40
2.9999560000000001
 50
49.941890999999998
 51
138.7316129999999
  0
LINE
  5
373
  8
FUTO
 10
25834.12975572392
 20
24526.39263483672
 30
0.0
 11
25836.777094723919
 21
24523.97173683672
 31
0.0
  0
ARC
  5
374
  8
FUTO
 10
25836.154414723918
 20
24528.606501836719
 30
0.0
 40
2.9999500000000001
 50
138.768021
 51
227.55600000000001
  0
LINE
  5
375
  8
FUTO
 10
25838.165888723921
 20
24530.994929836721
 30
0.0
 11
25840.91173872392
 21
24528.686335836719
 31
0.0
  0
LINE
  5
376
  8
FUTO
 10
25839.316767723922
 20
24534.63579883672
 30
0.0
 11
25842.908808723922
 21
24531.04375783672
 31
0.0
  0
ARC
  5
377
  8
FUTO
 10
25991.825556723921
 20
24655.91802583672
 30
0.0
 40
6.25
 50
90.0
 51
180.0
  0
ARC
  5
378
  8
FUTO
 10
25991.825556723921
 20
24655.91802583672
 30
0.0
 40
6.25
 50
0.000000000000007
 51
90.0
  0
ARC
  5
396
  8
KL
 10
24893.825556723921
 20
25124.16802583672
 30
0.0
 40
1105.0
 50
269.14442036456973
 51
0.000000000000007
  0
ARC
  5
397
  8
FUTO
 10
24791.825556723921
 20
25022.16802583672
 30
0.0
 40
95.000000000003084
 50
249.05612602761781
 51
270.0
  0
LINE
  5
398
  8
FUTO
 10
24701.825556723921
 20
24925.16802583672
 30
0.0
 11
24791.825556723921
 21
24925.16802583672
 31
0.0
  0
LINE
  5
399
  8
KL
 10
24490.29205712035
 20
24916.16802583672
 30
0.0
 11
24791.825556723921
 21
24916.16802583672
 31
0.0
  0
LINE
  5
39A
  8
FUTO
 10
24591.825556723921
 20
24922.16802583672
 30
0.0
 11
24991.825556723921
 21
24922.16802583672
 31
0.0
  0
DIMENSION
  5
39B
  8
FUTO
  2
*D5
 10
23941.825556723921
 20
23477.868165871689
 30
0.0
 11
24366.825556723921
 21
23537.868165871689
 31
0.0
 70
     0
 13
24791.825556723921
 23
23690.085874792971
 33
0.0
 14
23941.825556723921
 24
23642.16802583672
 34
0.0
 50
180.0
1001
ACAD
1000
DSTYLE
1002
{
1070
    40
1040
30.0
1070
   176
1070
     2
1070
   177
1070
     2
1070
   178
1070
     2
1070
   341
1005
44D5
1070
     5
1000
OPEN30
1002
}
  0
LINE
  5
3B5
  8
FUTO
 10
25669.388132637599
 20
24213.762423710941
 30
0.0
 11
25669.388132637599
 21
24199.91593176889
 31
0.0
  0
LINE
  5
3B6
  8
FUTO
 10
25669.388132637599
 20
24199.91593176889
 30
0.0
 11
25678.62462361978
 21
24199.91593176889
 31
0.0
  0
LINE
  5
3B7
  8
FUTO
 10
25678.62462361978
 20
24199.91593176889
 30
0.0
 11
25678.62462361978
 21
24214.117456682401
 31
0.0
  0
LINE
  5
3B8
  8
FUTO
 10
25678.62462361978
 20
24214.117456682401
 30
0.0
 11
25669.74338348096
 21
24214.117456682401
 31
0.0
  0
LINE
  5
3BA
  8
KL
 10
25093.359056327499
 20
24916.16802583672
 30
0.0
 11
24791.825556723921
 21
24916.16802583672
 31
0.0
  0
LINE
  5
3BD
  8
FUTO
 10
24971.825556723921
 20
24922.16802583672
 30
0.0
 11
24881.825556723921
 21
24922.16802583672
 31
0.0
  0
LINE
  5
3BF
  8
FUTO
 10
24991.825556723921
 20
24922.16802583672
 30
0.0
 11
24991.825556723921
 21
24916.16802583672
 31
0.0
  0
ARC
  5
3C0
  8
FUTO
 10
24968.825556723921
 20
24953.16802583672
 30
0.0
 40
2.9999999999999991
 50
0.000000000000007
 51
90.0
  0
LINE
  5
3C1
  8
FUTO
 10
24971.825556723921
 20
24953.16802583672
 30
0.0
 11
24971.825556723921
 21
24922.16802583672
 31
0.0
  0
LINE
  5
3C2
  8
FUTO
 10
24902.825556723921
 20
24956.16802583672
 30
0.0
 11
24968.825556723921
 21
24956.16802583672
 31
0.0
  0
ARC
  5
3C3
  8
FUTO
 10
24791.825556723921
 20
25022.16802583672
 30
0.0
 40
94.999999999998295
 50
270.0
 51
290.94387397238302
  0
LINE
  5
3C4
  8
FUTO
 10
24881.825556723921
 20
24922.16802583672
 30
0.0
 11
24881.825556723921
 21
24925.16802583672
 31
0.0
  0
ARC
  5
3C5
  8
FUTO
 10
24839.325556723921
 20
24939.895612477201
 30
0.0
 40
14.999999999999909
 50
300.0000000000008
 51
34.528063013809827
  0
LINE
  5
3C6
  8
FUTO
 10
24881.825556723921
 20
24925.16802583672
 30
0.0
 11
24791.825556723921
 21
24925.16802583672
 31
0.0
  0
ARC
  5
3C7
  8
FUTO
 10
24839.325556723921
 20
24939.895612477201
 30
0.0
 40
15.000000000000419
 50
205.4719369861869
 51
300.00000000000011
  0
LINE
  5
3CF
  8
FUTO
 10
24291.825556723921
 20
23867.16802583672
 30
0.0
 11
24291.825556723921
 21
23717.16802583672
 31
0.0
  0
LINE
  5
3D0
  8
FUTO
 10
24291.825556723921
 20
24132.16802583672
 30
0.0
 11
24291.825556723921
 21
23982.16802583672
 31
0.0
  0
LINE
  5
3D1
  8
FUTO
 10
24184.557406069951
 20
23982.16802583672
 30
0.0
 11
24184.557406069951
 21
23872.16802583672
 31
0.0
  0
LINE
  5
3D2
  8
FUTO
 10
24144.557406069951
 20
24018.57945472033
 30
0.0
 11
24144.557406069951
 21
23828.754520756662
 31
0.0
1001
ACAD
1000
ASC_BOUNDS
1002
{
1070
    19
1005
0
1005
0
1005
0
1002
}
  0
POINT
  5
3D3
  8
DEFPOINTS
  6
BYBLOCK
 62
     0
 10
23941.825556723921
 20
23717.16802583672
 30
0.0
  0
LINE
  5
3D4
  8
FUTO
 10
24104.557406069951
 20
23982.16802583672
 30
0.0
 11
24104.557406069951
 21
23872.16802583672
 31
0.0
  0
LINE
  5
3D5
  8
FUTO
 10
23941.825556723921
 20
23867.16802583672
 30
0.0
 11
23941.825556723921
 21
23717.16802583672
 31
0.0
  0
POINT
  5
3D6
  8
DEFPOINTS
  6
BYBLOCK
 62
     0
 10
23941.825556723921
 20
23982.16802583672
 30
0.0
  0
POINT
  5
3D7
  8
DEFPOINTS
  6
BYBLOCK
 62
     0
 10
23941.825556723921
 20
23867.16802583672
 30
0.0
  0
POINT
  5
3D8
  8
DEFPOINTS
  6
BYBLOCK
 62
     0
 10
23941.825556723921
 20
23867.16802583672
 30
0.0
  0
LINE
  5
3D9
  8
FUTO
 10
23941.825556723921
 20
24132.16802583672
 30
0.0
 11
23941.825556723921
 21
23982.16802583672
 31
0.0
  0
LINE
  5
3DD
  8
FUTO
 10
24680.825556723921
 20
24956.16802583672
 30
0.0
 11
24614.825556723921
 21
24956.16802583672
 31
0.0
  0
LINE
  5
3DE
  8
FUTO
 10
24611.825556723921
 20
24922.16802583672
 30
0.0
 11
24701.825556723921
 21
24922.16802583672
 31
0.0
  0
LINE
  5
3E0
  8
FUTO
 10
24701.825556723921
 20
24922.16802583672
 30
0.0
 11
24701.825556723921
 21
24925.16802583672
 31
0.0
  0
ARC
  5
3E1
  8
FUTO
 10
24744.325556723921
 20
24939.895612477201
 30
0.0
 40
14.99999999999998
 50
145.47193698619191
 51
240.0000000000006
  0
ARC
  5
3E2
  8
FUTO
 10
24744.325556723921
 20
24939.895612477201
 30
0.0
 40
14.99999999999978
 50
239.99999999999989
 51
334.52806301381321
  0
LINE
  5
3E3
  8
FUTO
 10
24591.825556723921
 20
24922.16802583672
 30
0.0
 11
24591.825556723921
 21
24916.16802583672
 31
0.0
  0
ARC
  5
3E5
  8
FUTO
 10
24614.825556723921
 20
24953.16802583672
 30
0.0
 40
2.9999999999999991
 50
90.0
 51
180.0
  0
LINE
  5
3E6
  8
FUTO
 10
24611.825556723921
 20
24953.16802583672
 30
0.0
 11
24611.825556723921
 21
24922.16802583672
 31
0.0
  0
INSERT
  5
3E8
  8
FUTO
  2
K150-75
 10
27779.768968762561
 20
24132.16802583672
 30
0.0
 50
180.0
1001
ACAD
1000
ASC_BOUNDS
1002
{
1070
    19
1005
3975
1002
}
  0
LINE
  5
405
  8
SL
 10
27735.668968762559
 20
24942.16802583672
 30
0.0
 11
27757.768968762561
 21
24942.16802583672
 31
0.0
  0
LINE
  5
406
  8
CT
 10
27510.812239241852
 20
24392.16802583672
 30
0.0
 11
27813.630922353292
 21
24392.16802583672
 31
0.0
  0
LINE
  5
407
  8
FUTO
 10
27547.768968762561
 20
24172.16802583672
 30
0.0
 11
27802.768968762561
 21
24172.16802583672
 31
0.0
  0
LINE
  5
408
  8
SL
 10
27735.668968762559
 20
24332.16802583672
 30
0.0
 11
27750.768968762561
 21
24332.16802583672
 31
0.0
  0
LINE
  5
409
  8
SL
 10
27735.668968762559
 20
24452.16802583672
 30
0.0
 11
27750.768968762561
 21
24452.16802583672
 31
0.0
  0
LINE
  5
40D
  8
FUTO
 10
27774.768968762561
 20
23982.16802583672
 30
0.0
 11
27774.768968762561
 21
23872.16802583672
 31
0.0
1001
ACAD
1000
ASC_BOUNDS
1002
{
1070
    19
1005
3975
1002
}
  0
LINE
  5
40E
  8
SL
 10
27657.768968762561
 20
24286.16802583672
 30
0.0
 11
27735.668968762559
 21
24286.16802583672
 31
0.0
  0
LINE
  5
40F
  8
SL
 10
27657.768968762561
 20
24498.16802583672
 30
0.0
 11
27735.668968762559
 21
24498.16802583672
 31
0.0
  0
LINE
  5
410
  8
SL
 10
27657.768968762561
 20
24772.16802583672
 30
0.0
 11
27735.668968762559
 21
24772.16802583672
 31
0.0
  0
LINE
  5
415
  8
CT
 10
27814.768968762561
 20
24002.06020243571
 30
0.0
 11
27814.768968762561
 21
23855.276532493939
 31
0.0
1001
ACAD
1000
ASC_BOUNDS
1002
{
1070
    19
1005
0
1005
3975
1005
3975
1002
}
  0
LINE
  5
41A
  8
SL
 10
27750.768968762561
 20
24452.16802583672
 30
0.0
 11
27750.768968762561
 21
24332.16802583672
 31
0.0
  0
LINE
  5
41B
  8
FUTO
 10
27802.768968762561
 20
24339.225452112511
 30
0.0
 11
27802.768968762561
 21
24172.16802583672
 31
0.0
  0
LINE
  5
42E
  8
FUTO
 10
23904.685517603801
 20
24938.027657809202
 30
0.0
 11
24413.062733364481
 21
24991.529428597521
 31
0.0
  0
LINE
  5
42F
  8
FUTO
 10
23906.55405520479
 20
24920.12490474623
 30
0.0
 11
24414.938555441258
 21
24973.627442154972
 31
0.0
  0
LINE
  5
430
  8
FUTO
 10
23861.825556723921
 20
25009.16802583672
 30
0.0
 11
23861.825556723921
 21
26567.16802583672
 31
0.0
  0
LINE
  5
431
  8
HOSO
 10
23861.825556723921
 20
25063.16802583672
 30
0.0
 11
23861.825556723921
 21
26513.16802583672
 31
0.0
  0
LINE
  5
44C
  8
FUTO
 10
23911.825556723921
 20
25009.16802583672
 30
0.0
 11
23911.825556723921
 21
26567.16802583672
 31
0.0
  0
LINE
  5
44D
  8
FUTO
 10
23865.825556723921
 20
25009.16802583672
 30
0.0
 11
23865.825556723921
 21
26567.16802583672
 31
0.0
  0
LINE
  5
44E
  8
CT
 10
23613.82157807659
 20
25022.16802583672
 30
0.0
 11
26321.915135811891
 21
25022.16802583672
 31
0.0
  0
LINE
  5
478
  8
FUTO
 10
23941.825556723921
 20
28609.868162558349
 30
0.0
 11
26341.825556723921
 21
28609.868162558349
 31
0.0
  0
LINE
  5
479
  8
FUTO
 10
23941.825556723921
 20
28684.868162558349
 30
0.0
 11
25998.825556723921
 21
28684.868162558349
 31
0.0
  0
LINE
  5
47A
  8
FUTO
 10
24291.825556723921
 20
27706.868162558349
 30
0.0
 11
26341.825556723921
 21
27706.868162558349
 31
0.0
  0
LINE
  5
488
  8
FUTO
 10
24291.825556723921
 20
27633.868162558349
 30
0.0
 11
26341.825556723921
 21
27633.868162558349
 31
0.0
  0
LINE
  5
489
  8
FUTO
 10
24291.825556723921
 20
27633.868162558349
 30
0.0
 11
26341.825556723921
 21
27633.868162558349
 31
0.0
  0
LINE
  5
4A3
  8
FUTO
 10
26341.825556723921
 20
28684.868162558349
 30
0.0
 11
26341.825556723921
 21
28609.868162558349
 31
0.0
  0
LINE
  5
4A4
  8
FUTO
 10
26126.825556723921
 20
28609.868162558349
 30
0.0
 11
26126.825556723921
 21
28310.368162558349
 31
0.0
  0
LINE
  5
4A5
  8
CT
 10
25991.825556723921
 20
28449.452651758271
 30
0.0
 11
25991.825556723921
 21
27273.736330640339
 31
0.0
  0
LINE
  5
4AD
  8
KL
 10
23861.825556723921
 20
26513.16802583672
 30
0.0
 11
24807.42015345917
 21
26427.875244048952
 31
0.0
  0
LINE
  5
4AE
  8
FUTO
 10
23911.825556723921
 20
26528.73921381485
 30
0.0
 11
24791.825556723921
 21
26449.36307499979
 31
0.0
  0
LINE
  5
4B2
  8
FUTO
 10
23861.825556723921
 20
26567.16802583672
 30
0.0
 11
23911.825556723921
 21
26567.16802583672
 31
0.0
  0
LINE
  5
51D
  8
CT
 10
24791.825556723921
 20
30135.740740207952
 30
0.0
 11
24791.825556723921
 21
27310.00807461861
 31
0.0
  0
LINE
  5
52A
  8
FUTO
 10
24291.825556723921
 20
28609.868162558349
 30
0.0
 11
24291.825556723921
 21
27633.868162558349
 31
0.0
  0
LINE
  5
52C
  8
FUTO
 10
24366.825556723921
 20
28609.868162558349
 30
0.0
 11
24366.825556723921
 21
27700.868162558349
 31
0.0
  0
ARC
  5
559
  8
FUTO
 10
24877.325556723921
 20
24936.668025836731
 30
0.0
 40
937.5
 50
180.0
 51
232.53790487866371
  0
ARC
  5
577
  8
FUTO
 10
24706.62555672392
 20
24936.66802583672
 30
0.0
 40
766.5
 50
172.0132987821784
 51
180.0
  0
CIRCLE
  5
578
  8
FUTO
 10
24791.825556723921
 20
25022.16802583672
 30
0.0
 40
36.5
  0
ARC
  5
579
  8
FUTO
 10
24791.825556723921
 20
25022.16802583672
 30
0.0
 40
94.999999999998053
 50
90.0
 51
110.94387397238231
  0
INSERT
  5
57A
  8
FUTO
  2
左回転矢印
 10
24613.81666164206
 20
25536.046845694451
 30
0.0
 41
2.0
 42
2.0
 43
2.0
  0
ARC
  5
585
  8
KL
 10
24706.62555672392
 20
24936.66802583672
 30
0.0
 40
746.49999999999989
 50
144.1215022574147
 51
180.0
  0
ARC
  5
587
  8
FUTO
 10
24886.825556723921
 20
25022.16802583672
 30
0.0
 40
14.999999999999909
 50
265.47193698619128
 51
359.9999999999996
  0
ARC
  5
588
  8
FUTO
 10
24886.825556723921
 20
25022.16802583672
 30
0.0
 40
15.000000000000121
 50
359.9999999999996
 51
94.528063013807852
  0
LINE
  5
589
  8
FUTO
 10
24807.507219421721
 20
25115.86479982084
 30
0.0
 11
24807.507219421721
 21
25122.16802583672
 31
0.0
  0
LINE
  5
58A
  8
FUTO
 10
24776.143894026121
 20
25115.86479982084
 30
0.0
 11
24776.143894026121
 21
25122.16802583672
 31
0.0
  0
LINE
  5
58B
  8
FUTO
 10
24776.143894026121
 20
25122.16802583672
 30
0.0
 11
24807.507219421721
 21
25122.16802583672
 31
0.0
  0
LINE
  5
58C
  8
FUTO
 10
24886.825556723921
 20
25007.16802583672
 30
0.0
 11
24886.825556723921
 21
24972.16802583672
 31
0.0
  0
ARC
  5
58D
  8
FUTO
 10
24791.825556723921
 20
25022.16802583672
 30
0.0
 40
95.000000000000995
 50
329.99999999999932
 51
350.94387397238222
  0
ARC
  5
58E
  8
FUTO
 10
24791.825556723921
 20
25022.16802583672
 30
0.0
 40
94.999999999997456
 50
9.0561260276185163
 51
30.000000000001421
  0
ARC
  5
58F
  8
FUTO
 10
24791.825556723921
 20
25022.16802583672
 30
0.0
 40
95.000000000000071
 50
29.999999999999481
 51
50.943873972382391
  0
ARC
  5
590
  8
FUTO
 10
24791.825556723921
 20
25022.16802583672
 30
0.0
 40
94.999999999998494
 50
69.056126027616216
 51
90.0
  0
ARC
  5
591
  8
FUTO
 10
24839.325556723921
 20
25104.440439196242
 30
0.0
 40
14.99999999999976
 50
325.47193698619111
 51
59.999999999999517
  0
ARC
  5
592
  8
FUTO
 10
24839.325556723921
 20
25104.440439196242
 30
0.0
 40
15.00000000000038
 50
59.999999999999517
 51
154.52806301381301
  0
CIRCLE
  5
593
  8
KL
 10
24086.359880306729
 20
25382.730882299242
 30
0.0
 40
17.407412889793701
  0
LINE
  5
594
  8
FUTO
 10
23911.825556723921
 20
25009.16802583672
 30
0.0
 11
23861.825556723921
 21
25009.16802583672
 31
0.0
  0
LINE
  5
595
  8
KL
 10
23861.825556723921
 20
25063.16802583672
 30
0.0
 11
23970.921812000539
 21
25063.16802583672
 31
0.0
  0
LINE
  5
596
  8
FUTO
 10
23911.825556723921
 20
25043.16802583672
 30
0.0
 11
23947.560342134289
 21
25043.16802583672
 31
0.0
  0
INSERT
  5
597
  8
FUTO
  2
まっすぐの矢印
 10
23631.967603994119
 20
26082.155372329391
 30
0.0
 41
2.0
 42
2.0
 43
2.0
 50
90.0
  0
LINE
  5
5A2
  8
FUTO
 10
24696.825556723921
 20
25007.16802583672
 30
0.0
 11
24696.825556723921
 21
24972.16802583672
 31
0.0
  0
ARC
  5
5A3
  8
FUTO
 10
24791.825556723921
 20
25022.16802583672
 30
0.0
 40
94.999999999999389
 50
149.99999999999969
 51
170.94387397238259
  0
ARC
  5
5A4
  8
FUTO
 10
24696.825556723921
 20
25022.16802583672
 30
0.0
 40
15.000000000000121
 50
85.471936986192148
 51
180.00000000000051
  0
ARC
  5
5A5
  8
FUTO
 10
24696.825556723921
 20
25022.16802583672
 30
0.0
 40
14.999999999999909
 50
180.0000000000004
 51
274.52806301380861
  0
ARC
  5
5A6
  8
FUTO
 10
24791.825556723921
 20
25022.16802583672
 30
0.0
 40
94.999999999999389
 50
189.0561260276173
 51
210.0000000000002
  0
ARC
  5
5A7
  8
FUTO
 10
24791.825556723921
 20
25022.16802583672
 30
0.0
 40
94.999999999999915
 50
129.0561260276165
 51
149.9999999999994
  0
ARC
  5
5A8
  8
FUTO
 10
24744.325556723921
 20
25104.440439196242
 30
0.0
 40
15.00000000000038
 50
25.4719369861869
 51
120.0000000000005
  0
ARC
  5
5A9
  8
FUTO
 10
24744.325556723921
 20
25104.440439196242
 30
0.0
 40
15.00000000000006
 50
120.0000000000008
 51
214.5280630138098
  0
LINE
  5
605
  8
FUTO
 10
27547.768968762561
 20
25402.16802583672
 30
0.0
 11
27802.768968762561
 21
25402.16802583672
 31
0.0
  0
LINE
  5
606
  8
SL
 10
27735.668968762559
 20
25102.16802583672
 30
0.0
 11
27757.768968762561
 21
25102.16802583672
 31
0.0
  0
POINT
  5
609
  8
DEFPOINTS
 10
27547.768968762561
 20
25402.16802583672
 30
0.0
  0
LINE
  5
60A
  8
SL
 10
27657.768968762561
 20
25272.16802583672
 30
0.0
 11
27735.668968762559
 21
25272.16802583672
 31
0.0
  0
LINE
  5
60E
  8
FUTO
 10
27987.768968762561
 20
24977.16802583672
 30
0.0
 11
28556.768968762561
 21
24977.16802583672
 31
0.0
  0
LINE
  5
60F
  8
FUTO
 10
27987.768968762561
 20
25067.16802583672
 30
0.0
 11
28556.768968762561
 21
25067.16802583672
 31
0.0
  0
LINE
  5
610
  8
FUTO
 10
27802.768968762561
 20
25402.16802583672
 30
0.0
 11
27802.768968762561
 21
25175.858395742431
 31
0.0
  0
LINE
  5
611
  8
FUTO
 10
27757.768968762561
 20
24979.66802583672
 30
0.0
 11
27847.268968762561
 21
24979.66802583672
 31
0.0
  0
LINE
  5
612
  8
FUTO
 10
27757.768968762561
 20
25064.66802583672
 30
0.0
 11
27847.268968762561
 21
25064.66802583672
 31
0.0
  0
LINE
  5
68C
  8
FUTO
 10
23941.825556723921
 20
29833.868162558349
 30
0.0
 11
25641.825556723921
 21
29833.868162558349
 31
0.0
  0
LINE
  5
68D
  8
FUTO
 10
23861.825556723921
 20
29758.868162558349
 30
0.0
 11
25998.825556723921
 21
29758.868162558349
 31
0.0
  0
LINE
  5
68E
  8
CT
 10
23614.305556144402
 20
29220.868162558349
 30
0.0
 11
26707.037629499369
 21
29220.868162558349
 31
0.0
  0
LINE
  5
68F
  8
FUTO
 10
25641.825556723921
 20
29833.868162558349
 30
0.0
 11
25641.825556723921
 21
29804.868162558349
 31
0.0
  0
LINE
  5
6A9
  8
FUTO
 10
23941.825556723921
 20
29833.868162558349
 30
0.0
 11
23941.825556723921
 21
29804.868162558349
 31
0.0
  0
LINE
  5
6C2
  8
FUTO
 10
28837.768968762561
 20
25013.16802583672
 30
0.0
 11
28837.768968762561
 21
24132.16802583672
 31
0.0
  0
LINE
  5
6C3
  8
FUTO
 10
28833.268968762561
 20
25013.16802583672
 30
0.0
 11
28833.268968762561
 21
24132.16802583672
 31
0.0
  0
LINE
  5
6C5
  8
FUTO
 10
29897.768968762561
 20
25013.16802583672
 30
0.0
 11
29897.768968762561
 21
24132.16802583672
 31
0.0
  0
LINE
  5
6C6
  8
KL
 10
29903.768968762561
 20
25726.48076814575
 30
0.0
 11
29903.768968762561
 21
24317.85528352769
 31
0.0
  0
LINE
  5
6CD
  8
CT
 10
29367.768968762561
 20
26727.090139966749
 30
0.0
 11
29367.768968762561
 21
23522.16802583672
 31
0.0
  0
LINE
  5
6D4
  8
FUTO
 10
28758.268968762561
 20
26517.168025836709
 30
0.0
 11
28758.268968762561
 21
24132.16802583672
 31
0.0
  0
DIMENSION
  5
6D5
  8
FUTO
  2
*D12
 10
30367.378830518781
 20
24322.16802583672
 30
0.0
 11
30307.378830518781
 21
25022.16802583672
 31
0.0
 70
     0
  1
%%C<>
 13
30001.768968762561
 23
25722.16802583672
 33
0.0
 14
30001.768968762561
 24
24322.16802583672
 34
0.0
 50
90.0
1001
ACAD
1000
DSTYLE
1002
{
1070
    40
1040
30.0
1070
   176
1070
     2
1070
   177
1070
     2
1070
   178
1070
     2
1070
   341
1005
44D5
1070
     5
1000
OPEN30
1002
}
  0
LINE
  5
6E2
  8
KL
 10
29906.968968762561
 20
25013.16802583672
 30
0.0
 11
29906.968968762561
 21
24272.16802583672
 31
0.0
  0
LINE
  5
6E6
  8
FUTO
 10
29995.768968762561
 20
25772.16802583672
 30
0.0
 11
29995.768968762561
 21
24272.16802583672
 31
0.0
  0
LINE
  5
6E7
  8
FUTO
 10
30001.768968762561
 20
25772.16802583672
 30
0.0
 11
30001.768968762561
 21
24272.16802583672
 31
0.0
  0
LINE
  5
703
  8
KL
 10
28833.268968762561
 20
24019.26306276723
 30
0.0
 11
29900.968968762561
 21
24019.26306276723
 31
0.0
  0
LINE
  5
70B
  8
CT
 10
28788.768968762561
 20
24002.332106968439
 30
0.0
 11
28788.768968762561
 21
23846.799271845739
 31
0.0
1001
ACAD
1000
ASC_BOUNDS
1002
{
1070
    19
1002
}
  0
LINE
  5
70E
  8
KL
 10
28833.268968762561
 20
24132.16802583672
 30
0.0
 11
28833.268968762561
 21
24019.26306276723
 31
0.0
  0
LINE
  5
70F
  8
KL
 10
28837.768968762561
 20
24132.16802583672
 30
0.0
 11
28837.768968762561
 21
24019.26306276723
 31
0.0
  0
LINE
  5
723
  8
FUTO
 10
29904.768968762561
 20
23982.16802583672
 30
0.0
 11
29904.768968762561
 21
23872.16802583672
 31
0.0
1001
ACAD
1000
ASC_BOUNDS
1002
{
1070
    19
1002
}
  0
LINE
  5
724
  8
CT
 10
29944.768968762561
 20
24001.691454768192
 30
0.0
 11
29944.768968762561
 21
23858.720801194231
 31
0.0
1001
ACAD
1000
ASC_BOUNDS
1002
{
1070
    19
1002
}
  0
LINE
  5
725
  8
KL
 10
29897.768968762561
 20
24132.16802583672
 30
0.0
 11
29897.768968762561
 21
24019.26306276723
 31
0.0
  0
LINE
  5
72A
  8
FUTO
 10
29982.768968762572
 20
23982.16802583672
 30
0.0
 11
29982.768968762561
 21
23872.16802583672
 31
0.0
1001
ACAD
1000
ASC_BOUNDS
1002
{
1070
    19
1002
}
  0
LINE
  5
72B
  8
KL
 10
29906.968968762561
 20
24316.16802583672
 30
0.0
 11
29975.968968762561
 21
24316.16802583672
 31
0.0
  0
LINE
  5
72C
  8
KL
 10
29900.968968762561
 20
24322.16802583672
 30
0.0
 11
30001.768968762561
 21
24322.16802583672
 31
0.0
  0
LINE
  5
72D
  8
CT
 10
29868.484271167461
 20
24289.66802583672
 30
0.0
 11
29925.5270042995
 21
24289.66802583672
 31
0.0
  0
LINE
  5
72E
  8
KL
 10
29900.968968762561
 20
24272.16802583672
 30
0.0
 11
29906.968968762561
 21
24272.16802583672
 31
0.0
  0
LINE
  5
72F
  8
FUTO
 10
29975.968968762561
 20
24316.16802583672
 30
0.0
 11
29995.768968762561
 21
24316.16802583672
 31
0.0
  0
LINE
  5
730
  8
CT
 10
29972.649233849919
 20
24289.66802583672
 30
0.0
 11
30032.792087603801
 21
24289.66802583672
 31
0.0
  0
LINE
  5
731
  8
FUTO
 10
29995.768968762561
 20
24272.16802583672
 30
0.0
 11
30001.768968762561
 21
24272.16802583672
 31
0.0
  0
DIMENSION
  5
800
  8
FUTO
  2
*D13
 10
30001.768968762561
 20
26844.71445812031
 30
0.0
 11
29684.768968762561
 21
26904.71445812031
 31
0.0
 70
     0
 13
29367.768968762561
 23
26690.327363779641
 33
0.0
 14
30001.768968762561
 24
25772.16802583672
 34
0.0
1001
ACAD
1000
DSTYLE
1002
{
1070
    40
1040
30.0
1070
   176
1070
     2
1070
   177
1070
     2
1070
   178
1070
     2
1070
   341
1005
44D5
1070
     5
1000
OPEN30
1002
}
  0
LINE
  5
826
  8
FUTO
 10
28833.268968762572
 20
26517.168025836709
 30
0.0
 11
28833.268968762561
 21
25031.16802583672
 31
0.0
  0
LINE
  5
827
  8
FUTO
 10
28837.768968762561
 20
26517.168025836709
 30
0.0
 11
28837.768968762561
 21
25031.16802583672
 31
0.0
  0
LINE
  5
831
  8
FUTO
 10
28783.268968762561
 20
26567.16802583672
 30
0.0
 11
28783.268968762561
 21
26517.168025836709
 31
0.0
  0
INSERT
  5
841
  8
FUTO
  2
まっすぐの矢印
 10
30063.615749451961
 20
25578.419914156701
 30
0.0
 41
-2.0
 42
2.0
 43
2.0
 50
90.0
  0
LINE
  5
842
  8
FUTO
 10
29897.768968762561
 20
26517.16802583672
 30
0.0
 11
29897.768968762561
 21
25031.16802583672
 31
0.0
  0
LINE
  5
844
  8
KL
 10
29906.968968762561
 20
25772.16802583672
 30
0.0
 11
29906.968968762561
 21
25031.16802583672
 31
0.0
  0
LINE
  5
845
  8
KL
 10
29906.968968762561
 20
25728.16802583672
 30
0.0
 11
29977.268968762561
 21
25728.168025836709
 31
0.0
  0
LINE
  5
846
  8
KL
 10
29900.968968762561
 20
25722.16802583672
 30
0.0
 11
30001.768968762561
 21
25722.16802583672
 31
0.0
  0
LINE
  5
847
  8
CT
 10
29878.3128675187
 20
25754.66802583672
 30
0.0
 11
29921.01850594395
 21
25754.66802583672
 31
0.0
  0
LINE
  5
848
  8
KL
 10
29900.968968762561
 20
25772.16802583672
 30
0.0
 11
29906.968968762561
 21
25772.16802583672
 31
0.0
  0
LINE
  5
849
  8
FUTO
 10
29952.268968762579
 20
26567.16802583672
 30
0.0
 11
29952.268968762579
 21
26517.168025836709
 31
0.0
  0
LINE
  5
84A
  8
FUTO
 10
29977.268968762561
 20
25728.16802583672
 30
0.0
 11
29995.768968762561
 21
25728.16802583672
 31
0.0
  0
LINE
  5
84B
  8
CT
 10
29973.007981500359
 20
25754.66802583672
 30
0.0
 11
30024.997457056768
 21
25754.66802583672
 31
0.0
  0
LINE
  5
84C
  8
FUTO
 10
29995.768968762561
 20
25772.16802583672
 30
0.0
 11
30001.768968762561
 21
25772.16802583672
 31
0.0
  0
POLYLINE
  8
0
  5
568E
  62
2
  66
     1
 10
0.000000
 20
0.000000
 30
0.000000
  70
     8
  0
VERTEX
  8
0
  5
568F
 10
26110.0
 20
25146.3
 30
0.000000
  70
    32
  0
VERTEX
  8
0
  5
5690
 10
26110.0
 20
25022.2
 30
0.000000
  70
    32
  0
SEQEND
  8
0
  5
5691
  0
POLYLINE
  8
0
  5
5692
  62
2
  66
     1
 10
0.000000
 20
0.000000
 30
0.000000
  70
     8
  0
VERTEX
  8
0
  5
5693
 10
26110.0
 20
24898.0
 30
0.000000
  70
    32
  0
VERTEX
  8
0
  5
5694
 10
26110.0
 20
25022.2
 30
0.000000
  70
    32
  0
SEQEND
  8
0
  5
5695
  0
LINE
  5
971
  8
KL
 10
24591.971809445979
 20
25010.357873468209
 30
0.0
 11
24593.840347046989
 21
24992.45512040524
 31
0.0
  0
LINE
  5
972
  8
KL
 10
24991.825556723921
 20
25031.168025836709
 30
0.0
 11
24991.825556723921
 21
25013.16802583672
 31
0.0
  0
LINE
  5
973
  8
KL
 10
24991.825556723921
 20
25031.168025836709
 30
0.0
 11
25449.97104659551
 21
25031.168025836709
 31
0.0
  0
LINE
  5
974
  8
KL
 10
24991.825556723921
 20
25013.16802583672
 30
0.0
 11
25476.181563906459
 21
25013.16802583672
 31
0.0
  0
LINE
  5
990
  8
FUTO
 10
23904.685517603801
 20
24938.027657809202
 30
0.0
 11
23906.55405520479
 21
24920.12490474623
 31
0.0
  0
POLYLINE
  5
119F
  8
FUTO
 66
     1
 10
0.0
 20
0.0
 30
0.0
 70
     1
1001
ACAD
1000
ASC_BOUNDS
1002
{
1070
    19
1002
}
  0
VERTEX
  5
55DC
  8
FUTO
 10
28753.768968762561
 20
23982.16802583672
 30
0.0
  0
VERTEX
  5
55DD
  8
FUTO
 10
28753.768968762561
 20
23985.506214414891
 30
0.0
 42
-0.3888787318529885
  0
VERTEX
  5
55DE
  8
FUTO
 10
28757.420345791568
 20
23989.490993207251
 30
0.0
  0
VERTEX
  5
55DF
  8
FUTO
 10
28818.617591733549
 20
23994.845058466191
 30
0.0
 42
0.3888787318529894
  0
VERTEX
  5
55E0
  8
FUTO
 10
28822.268968762561
 20
23998.829837258549
 30
0.0
  0
VERTEX
  5
55E1
  8
FUTO
 10
28822.268968762561
 20
24115.506214414891
 30
0.0
 42
0.3888787318529893
  0
VERTEX
  5
55E2
  8
FUTO
 10
28818.617591733549
 20
24119.490993207259
 30
0.0
  0
VERTEX
  5
55E3
  8
FUTO
 10
28757.420345791568
 20
24124.845058466191
 30
0.0
 42
-0.3888787318529887
  0
VERTEX
  5
55E4
  8
FUTO
 10
28753.768968762561
 20
24128.829837258549
 30
0.0
  0
VERTEX
  5
55E5
  8
FUTO
 10
28753.768968762561
 20
24132.16802583672
 30
0.0
  0
VERTEX
  5
55E6
  8
FUTO
 10
28828.768968762561
 20
24132.16802583672
 30
0.0
  0
VERTEX
  5
55E7
  8
FUTO
 10
28828.768968762561
 20
23982.16802583672
 30
0.0
  0
SEQEND
  5
55E8
  8
FUTO
  0
POLYLINE
  5
11AD
  8
FUTO
 66
     1
 10
0.0
 20
0.0
 30
0.0
 70
     1
1001
ACAD
1000
ASC_BOUNDS
1002
{
1070
    19
1002
}
  0
VERTEX
  5
55E9
  8
FUTO
 10
29904.768968762561
 20
23982.16802583672
 30
0.0
  0
VERTEX
  5
55EA
  8
FUTO
 10
29904.768968762561
 20
24132.16802583672
 30
0.0
  0
VERTEX
  5
55EB
  8
FUTO
 10
29979.768968762561
 20
24132.16802583672
 30
0.0
  0
VERTEX
  5
55EC
  8
FUTO
 10
29979.768968762561
 20
24128.829837258549
 30
0.0
 42
-0.3888787318527922
  0
VERTEX
  5
55ED
  8
FUTO
 10
29976.117591733549
 20
24124.845058466191
 30
0.0
  0
VERTEX
  5
55EE
  8
FUTO
 10
29914.920345791568
 20
24119.490993207259
 30
0.0
 42
0.3888787318529906
  0
VERTEX
  5
55EF
  8
FUTO
 10
29911.268968762561
 20
24115.506214414891
 30
0.0
  0
VERTEX
  5
55F0
  8
FUTO
 10
29911.268968762561
 20
23998.829837258549
 30
0.0
 42
0.388878731852991
  0
VERTEX
  5
55F1
  8
FUTO
 10
29914.920345791568
 20
23994.845058466191
 30
0.0
  0
VERTEX
  5
55F2
  8
FUTO
 10
29976.117591733549
 20
23989.490993207251
 30
0.0
 42
-0.3888787318529234
  0
VERTEX
  5
55F3
  8
FUTO
 10
29979.768968762561
 20
23985.506214414891
 30
0.0
  0
VERTEX
  5
55F4
  8
FUTO
 10
29979.768968762561
 20
23982.16802583672
 30
0.0
  0
SEQEND
  5
55F5
  8
FUTO
  0
LINE
  5
11F6
  8
FUTO
 10
27854.768968762561
 20
23867.16802583672
 30
0.0
 11
27779.768968762561
 21
23867.16802583672
 31
0.0
1001
ACAD
1000
ASC_BOUNDS
1002
{
1070
    19
1005
3975
1002
}
  0
LINE
  5
11F7
  8
FUTO
 10
27844.617591733549
 20
23854.490993207251
 30
0.0
 11
27783.420345791568
 21
23859.845058466191
 31
0.0
  0
LINE
  5
11F8
  8
FUTO
 10
27854.768968762561
 20
23717.16802583672
 30
0.0
 11
27779.768968762561
 21
23717.16802583672
 31
0.0
  0
LINE
  5
11F9
  8
FUTO
 10
27844.617591733549
 20
23729.845058466191
 30
0.0
 11
27783.420345791568
 21
23724.490993207251
 31
0.0
  0
LINE
  5
11FA
  8
FUTO
 10
27848.268968762561
 20
23733.829837258549
 30
0.0
 11
27848.268968762561
 21
23850.506214414891
 31
0.0
  0
ARC
  5
11FB
  8
FUTO
 10
27844.268968762561
 20
23850.506214414891
 30
0.0
 40
4.0
 50
0.0
 51
84.999999999999943
  0
LINE
  5
11FC
  8
FUTO
 10
27854.768968762561
 20
23717.16802583672
 30
0.0
 11
27854.768968762561
 21
23867.16802583672
 31
0.0
  0
ARC
  5
11FD
  8
FUTO
 10
27844.268968762561
 20
23733.829837258549
 30
0.0
 40
4.0
 50
275.0
 51
0.0
  0
ARC
  5
11FE
  8
FUTO
 10
27783.768968762561
 20
23863.829837258549
 30
0.0
 40
4.0
 50
180.0
 51
264.99999999999972
  0
LINE
  5
11FF
  8
FUTO
 10
27779.768968762561
 20
23867.16802583672
 30
0.0
 11
27779.768968762561
 21
23863.829837258549
 31
0.0
  0
LINE
  5
1200
  8
FUTO
 10
27779.768968762561
 20
23717.16802583672
 30
0.0
 11
27779.768968762561
 21
23720.506214414891
 31
0.0
  0
ARC
  5
1201
  8
FUTO
 10
27783.768968762561
 20
23720.506214414891
 30
0.0
 40
4.0
 50
95.000000000000227
 51
180.0
  0
INSERT
  5
1202
  8
FUTO
  2
K150-75
 10
28753.768968762561
 20
23867.16802583672
 30
0.0
 50
180.0
1001
ACAD
1000
ASC_BOUNDS
1002
{
1070
    19
1002
}
  0
LINE
  5
1204
  8
FUTO
 10
29904.768968762561
 20
23867.16802583672
 30
0.0
 11
29979.768968762561
 21
23867.16802583672
 31
0.0
1001
ACAD
1000
ASC_BOUNDS
1002
{
1070
    19
1002
}
  0
LINE
  5
1205
  8
FUTO
 10
29914.920345791568
 20
23854.490993207251
 30
0.0
 11
29976.117591733549
 21
23859.845058466191
 31
0.0
  0
LINE
  5
1206
  8
FUTO
 10
29904.768968762561
 20
23717.16802583672
 30
0.0
 11
29979.768968762561
 21
23717.16802583672
 31
0.0
  0
LINE
  5
1207
  8
FUTO
 10
29914.920345791568
 20
23729.845058466191
 30
0.0
 11
29976.117591733549
 21
23724.490993207251
 31
0.0
  0
LINE
  5
1208
  8
FUTO
 10
29911.268968762561
 20
23733.829837258549
 30
0.0
 11
29911.268968762561
 21
23850.506214414891
 31
0.0
  0
ARC
  5
1209
  8
FUTO
 10
29915.268968762561
 20
23850.506214414891
 30
0.0
 40
4.0
 50
94.999999999999758
 51
180.0
  0
LINE
  5
120A
  8
FUTO
 10
29904.768968762561
 20
23717.16802583672
 30
0.0
 11
29904.768968762561
 21
23867.16802583672
 31
0.0
  0
ARC
  5
120B
  8
FUTO
 10
29915.268968762561
 20
23733.829837258549
 30
0.0
 40
4.0
 50
180.0
 51
265.00000000000028
  0
ARC
  5
120C
  8
FUTO
 10
29975.768968762561
 20
23863.829837258549
 30
0.0
 40
4.0
 50
275.00000000000011
 51
0.0
  0
LINE
  5
120D
  8
FUTO
 10
29979.768968762561
 20
23867.16802583672
 30
0.0
 11
29979.768968762561
 21
23863.829837258549
 31
0.0
  0
LINE
  5
120E
  8
FUTO
 10
29979.768968762561
 20
23717.16802583672
 30
0.0
 11
29979.768968762561
 21
23720.506214414891
 31
0.0
  0
ARC
  5
120F
  8
FUTO
 10
29975.768968762561
 20
23720.506214414891
 30
0.0
 40
4.0
 50
0.0
 51
84.999999999999844
  0
LINE
  5
1840
  8
FUTO
 10
25216.825556723921
 20
28609.868162558349
 30
0.0
 11
25216.825556723921
 21
27700.868162558349
 31
0.0
  0
LINE
  5
1841
  8
FUTO
 10
25291.825556723921
 20
28609.868162558349
 30
0.0
 11
25291.825556723921
 21
27700.868162558349
 31
0.0
  0
LINE
  5
1FF1
  8
FUTO
 10
29900.968968762551
 20
26517.16802583672
 30
0.0
 11
29900.968968762561
 21
25031.16802583672
 31
0.0
  0
LINE
  5
1FF2
  8
FUTO
 10
29900.968968762561
 20
25013.16802583672
 30
0.0
 11
29900.968968762561
 21
24132.16802583672
 31
0.0
  0
LINE
  5
1FF3
  8
KL
 10
29900.968968762561
 20
24132.16802583672
 30
0.0
 11
29900.968968762561
 21
24019.26306276723
 31
0.0
  0
LINE
  5
1FF5
  8
FUTO
 10
29975.968968762561
 20
26517.168025836709
 30
0.0
 11
29975.968968762561
 21
24132.16802583672
 31
0.0
  0
DIMENSION
  5
2003
  8
FUTO
  2
*D6
 10
29979.768968762561
 20
23299.134103594759
 30
0.0
 11
28879.768968762561
 21
23359.13410359477
 31
0.0
 70
     0
 13
27779.768968762561
 23
23717.16802583672
 33
0.0
 14
29979.768968762561
 24
23717.16802583672
 34
0.0
1001
ACAD
1000
DSTYLE
1002
{
1070
    40
1040
30.0
1070
   176
1070
     2
1070
   177
1070
     2
1070
   178
1070
     2
1070
   341
1005
44D5
1070
     5
1000
OPEN30
1002
}
  0
LINE
  5
25BB
  8
CT
 10
24791.825556723921
 20
28217.54143127942
 30
0.0
 11
24791.825556723921
 21
28215.482300948239
 31
0.0
  0
LINE
  5
279A
  8
FUTO
 10
27854.768968762561
 20
23982.16802583672
 30
0.0
 11
27854.768968762561
 21
23872.16802583672
 31
0.0
1001
ACAD
1000
ASC_BOUNDS
1002
{
1070
    19
1005
3975
1002
}
  0
TEXT
  5
29E7
  8
SP
 10
9149.8042194081445
 20
6129.2813767066364
 30
0.0
 40
100.0
  1
 
  0
LINE
  5
3207
  8
FUTO
 10
29901.044387423652
 20
24065.068162003401
 30
0.0
 11
30044.244387423649
 21
24065.068162003441
 31
0.0
  0
LINE
  5
3208
  8
FUTO
 10
29901.044387423659
 20
24031.068162003401
 30
0.0
 11
30044.24438742366
 21
24031.06816200343
 31
0.0
  0
LINE
  5
320D
  8
FUTO
 10
30044.244387423671
 20
24026.06816200343
 30
0.0
 11
30074.244387423671
 21
24026.068162003441
 31
0.0
  0
LINE
  5
320E
  8
FUTO
 10
30044.244387423649
 20
24070.06816200343
 30
0.0
 11
30074.244387423649
 21
24070.068162003441
 31
0.0
  0
LINE
  5
320F
  8
FUTO
 10
30044.244387423649
 20
24070.06816200343
 30
0.0
 11
30044.24438742366
 21
24026.06816200343
 31
0.0
  0
LINE
  5
3210
  8
FUTO
 10
30074.244387423649
 20
24070.068162003441
 30
0.0
 11
30074.244387423671
 21
24026.068162003441
 31
0.0
  0
LINE
  5
3235
  8
FUTO
 10
26002.32181590773
 20
24813.558424981791
 30
0.0
 11
25979.571419327462
 21
24821.046409882831
 31
0.0
  0
LINE
  5
3236
  8
FUTO
 10
25963.242108901479
 20
24694.824367103251
 30
0.0
 11
25936.942413903591
 21
24703.480555506441
 31
0.0
  0
LINE
  5
3237
  8
FUTO
 10
26008.69416397751
 20
24800.93332379101
 30
0.0
 11
25975.867210092259
 21
24701.196715173031
 31
0.0
  0
ARC
  5
3238
  8
FUTO
 10
25999.19543934723
 20
24804.05970035151
 30
0.0
 40
10.0
 50
341.78173999721008
 51
71.781739997210067
  0
ARC
  5
3239
  8
FUTO
 10
25966.368485461979
 20
24704.323091733531
 30
0.0
 40
10.0
 50
251.78173999721
 51
341.78173999721008
  0
LINE
  5
323A
  8
FUTO
 10
26005.44819246823
 20
24823.057149612079
 30
0.0
 11
25982.498812758949
 21
24830.61062711498
 31
0.0
  0
ARC
  5
323B
  8
FUTO
 10
25999.19543934723
 20
24804.05970035151
 30
0.0
 40
20.0
 50
341.78173999721008
 51
71.781739997210067
  0
LINE
  5
323C
  8
FUTO
 10
26018.192888607799
 20
24797.806947230511
 30
0.0
 11
25985.365934722551
 21
24698.070338612539
 31
0.0
  0
ARC
  5
323D
  8
FUTO
 10
25966.368485461979
 20
24704.323091733531
 30
0.0
 40
20.0
 50
251.78173999721
 51
341.78173999721008
  0
LINE
  5
323E
  8
FUTO
 10
25960.115732340979
 20
24685.32564247297
 30
0.0
 11
25933.047585788041
 21
24694.234756297519
 31
0.0
  0
LINE
  5
3241
  8
CT
 10
26043.762000369061
 20
24734.120642465488
 30
0.0
 11
25860.711214925788
 21
24794.369329238289
 31
0.0
  0
DIMENSION
  5
393B
  8
FUTO
  2
*D7
 10
29979.768968762561
 20
23480.464544852359
 30
0.0
 11
29673.768968762561
 21
23540.464544852352
 31
0.0
 70
     0
 13
29367.768968762561
 23
23717.16802583672
 33
0.0
 14
29979.768968762561
 24
23717.168025836731
 34
0.0
1001
ACAD
1000
DSTYLE
1002
{
1070
    40
1040
30.0
1070
   176
1070
     2
1070
   177
1070
     2
1070
   178
1070
     2
1070
   341
1005
44D5
1070
     5
1000
OPEN30
1002
}
  0
DIMENSION
  5
3948
  8
FUTO
  2
*D8
 10
27779.768968762561
 20
23480.469785774949
 30
0.0
 11
28573.768968762561
 21
23540.469785774949
 31
0.0
 70
     0
 13
29367.768968762561
 23
23717.16802583672
 33
0.0
 14
27779.768968762561
 24
23717.16802583672
 34
0.0
1001
ACAD
1000
DSTYLE
1002
{
1070
    40
1040
30.0
1070
   176
1070
     2
1070
   177
1070
     2
1070
   178
1070
     2
1070
   341
1005
44D5
1070
     5
1000
OPEN30
1002
}
  0
POLYLINE
  5
3949
  8
FUTO
 66
     1
 10
0.0
 20
0.0
 30
0.0
  0
VERTEX
  5
5611
  8
FUTO
 10
28757.768968762561
 20
24132.16802583672
 30
0.0
  0
VERTEX
  5
5612
  8
FUTO
 10
28832.768968762561
 20
24132.16802583672
 30
0.0
  0
SEQEND
  5
5613
  8
FUTO
  0
LINE
  5
39B1
  8
FUTO
 10
26331.825556723921
 20
23982.16802583672
 30
0.0
 11
26331.825556723921
 21
23872.16802583672
 31
0.0
  0
LINE
  5
39B2
  8
FUTO
 10
26251.825556723921
 20
23982.16802583672
 30
0.0
 11
26251.825556723921
 21
23872.16802583672
 31
0.0
  0
LINE
  5
39B3
  8
FUTO
 10
26291.825556723921
 20
24018.57945472033
 30
0.0
 11
26291.825556723921
 21
23828.754520756662
 31
0.0
1001
ACAD
1000
ASC_BOUNDS
1002
{
1070
    19
1005
0
1005
0
1005
0
1002
}
  0
LINE
  5
3AE6
  8
FUTO
 10
27841.268968762561
 20
24914.16802583672
 30
0.0
 11
27841.268968762561
 21
24132.16802583672
 31
0.0
  0
LINE
  5
3AE7
  8
FUTO
 10
27841.268968762561
 20
24914.16802583672
 30
0.0
 11
27851.268968762561
 21
24914.16802583672
 31
0.0
  0
LINE
  5
3AE8
  8
FUTO
 10
27851.268968762561
 20
24914.16802583672
 30
0.0
 11
27851.268968762561
 21
24904.16802583672
 31
0.0
  0
LINE
  5
3AEA
  8
FUTO
 10
27851.268968762561
 20
24904.16802583672
 30
0.0
 11
28758.268968762561
 21
24904.16802583672
 31
0.0
  0
LINE
  5
3B39
  8
FUTO
 10
27961.768968762561
 20
24959.16802583672
 30
0.0
 11
27873.768968762561
 21
24959.16802583672
 31
0.0
  0
LINE
  5
3B3A
  8
FUTO
 10
27862.768968762561
 20
24922.16802583672
 30
0.0
 11
27972.768968762561
 21
24922.168025836709
 31
0.0
  0
LINE
  5
3B3B
  8
FUTO
 10
27967.768968762561
 20
25115.16802583672
 30
0.0
 11
27867.768968762561
 21
25115.16802583672
 31
0.0
  0
LINE
  5
3B3C
  8
FUTO
 10
27867.768968762561
 20
25115.16802583672
 30
0.0
 11
27867.768968762561
 21
24922.16802583672
 31
0.0
  0
LINE
  5
3B3D
  8
FUTO
 10
27847.268968762561
 20
25097.16802583672
 30
0.0
 11
27847.268968762561
 21
24947.16802583672
 31
0.0
  0
LINE
  5
3B3E
  8
FUTO
 10
27852.768968762561
 20
25106.16802583672
 30
0.0
 11
27852.768968762561
 21
24938.16802583672
 31
0.0
  0
LINE
  5
3B40
  8
FUTO
 10
27847.268968762561
 20
24947.16802583672
 30
0.0
 11
27852.768968762561
 21
24947.16802583672
 31
0.0
  0
ARC
  5
3B41
  8
FUTO
 10
27873.768968762561
 20
24953.16802583672
 30
0.0
 40
6.0
 50
90.0
 51
180.0
  0
LINE
  5
3B42
  8
FUTO
 10
27858.768968762561
 20
24932.16802583672
 30
0.0
 11
27867.768968762561
 21
24932.16802583672
 31
0.0
  0
ARC
  5
3B43
  8
FUTO
 10
27858.768968762561
 20
24938.16802583672
 30
0.0
 40
6.0
 50
180.0
 51
270.0
  0
LINE
  5
3B44
  8
FUTO
 10
27852.768968762561
 20
25097.16802583672
 30
0.0
 11
27847.268968762561
 21
25097.16802583672
 31
0.0
  0
ARC
  5
3B45
  8
FUTO
 10
27858.768968762561
 20
25106.16802583672
 30
0.0
 40
6.0
 50
90.0
 51
180.0
  0
LINE
  5
3B46
  8
FUTO
 10
27867.768968762561
 20
25112.16802583672
 30
0.0
 11
27858.768968762561
 21
25112.16802583672
 31
0.0
  0
LINE
  5
3B47
  8
FUTO
 10
27967.768968762561
 20
24922.16802583672
 30
0.0
 11
27967.768968762561
 21
25115.16802583672
 31
0.0
  0
LINE
  5
3B48
  8
FUTO
 10
27982.768968762561
 20
25106.16802583672
 30
0.0
 11
27982.768968762561
 21
24938.16802583672
 31
0.0
  0
LINE
  5
3B49
  8
FUTO
 10
27988.268968762561
 20
25097.16802583672
 30
0.0
 11
27988.268968762561
 21
24947.16802583672
 31
0.0
  0
LINE
  5
3B4A
  8
FUTO
 10
27976.768968762561
 20
24932.16802583672
 30
0.0
 11
27967.768968762561
 21
24932.16802583672
 31
0.0
  0
ARC
  5
3B4B
  8
FUTO
 10
27961.768968762561
 20
24953.16802583672
 30
0.0
 40
6.0
 50
0.0
 51
90.0
  0
ARC
  5
3B4C
  8
FUTO
 10
27976.768968762561
 20
24938.16802583672
 30
0.0
 40
6.0
 50
270.0
 51
0.0
  0
LINE
  5
3B4D
  8
FUTO
 10
27988.268968762561
 20
24947.16802583672
 30
0.0
 11
27982.768968762561
 21
24947.16802583672
 31
0.0
  0
LINE
  5
3B4E
  8
FUTO
 10
27967.768968762561
 20
25112.16802583672
 30
0.0
 11
27976.768968762561
 21
25112.16802583672
 31
0.0
  0
ARC
  5
3B4F
  8
FUTO
 10
27976.768968762561
 20
25106.16802583672
 30
0.0
 40
6.0
 50
0.0
 51
90.0
  0
LINE
  5
3B50
  8
FUTO
 10
27982.768968762561
 20
25097.16802583672
 30
0.0
 11
27988.268968762561
 21
25097.16802583672
 31
0.0
  0
LINE
  5
3B51
  8
FUTO
 10
27862.768968762561
 20
24922.16802583672
 30
0.0
 11
27862.768968762561
 21
24904.16802583672
 31
0.0
  0
LINE
  5
3B52
  8
FUTO
 10
27972.768968762561
 20
24922.168025836709
 30
0.0
 11
27972.768968762561
 21
24904.16802583672
 31
0.0
  0
LINE
  5
3BBC
  8
FUTO
 10
28694.268968762561
 20
25126.16802583672
 30
0.0
 11
28561.268968762561
 21
25126.16802583672
 31
0.0
  0
LINE
  5
3BBD
  8
FUTO
 10
28676.768968762561
 20
24946.16802583672
 30
0.0
 11
28578.768968762561
 21
24946.16802583672
 31
0.0
  0
LINE
  5
3BBE
  8
FUTO
 10
28562.768968762561
 20
24910.16802583672
 30
0.0
 11
28692.768968762561
 21
24910.16802583672
 31
0.0
  0
LINE
  5
3BC0
  8
FUTO
 10
28572.768968762561
 20
25126.16802583672
 30
0.0
 11
28572.768968762561
 21
24910.16802583672
 31
0.0
  0
LINE
  5
3BC1
  8
FUTO
 10
28550.268968762561
 20
25112.16802583672
 30
0.0
 11
28550.268968762561
 21
24932.16802583672
 31
0.0
  0
LINE
  5
3BC2
  8
FUTO
 10
28555.268968762561
 20
25120.16802583672
 30
0.0
 11
28555.268968762561
 21
24924.16802583672
 31
0.0
  0
LINE
  5
3BC3
  8
FUTO
 10
28550.268968762561
 20
24932.16802583672
 30
0.0
 11
28555.268968762561
 21
24932.16802583672
 31
0.0
  0
ARC
  5
3BC4
  8
FUTO
 10
28578.768968762561
 20
24940.16802583672
 30
0.0
 40
6.0
 50
90.0
 51
180.0
  0
LINE
  5
3BC5
  8
FUTO
 10
28561.268968762561
 20
24918.16802583672
 30
0.0
 11
28572.768968762561
 21
24918.16802583672
 31
0.0
  0
ARC
  5
3BC6
  8
FUTO
 10
28561.268968762561
 20
24924.16802583672
 30
0.0
 40
6.0
 50
180.0
 51
270.0
  0
LINE
  5
3BC7
  8
FUTO
 10
28555.268968762561
 20
25112.16802583672
 30
0.0
 11
28550.268968762561
 21
25112.16802583672
 31
0.0
  0
ARC
  5
3BC8
  8
FUTO
 10
28561.268968762561
 20
25120.16802583672
 30
0.0
 40
6.0
 50
90.0
 51
180.0
  0
LINE
  5
3BC9
  8
FUTO
 10
28682.768968762561
 20
25126.16802583672
 30
0.0
 11
28682.768968762561
 21
24910.16802583672
 31
0.0
  0
LINE
  5
3BCA
  8
FUTO
 10
28700.268968762561
 20
25120.16802583672
 30
0.0
 11
28700.268968762561
 21
24924.16802583672
 31
0.0
  0
LINE
  5
3BCB
  8
FUTO
 10
28705.268968762561
 20
25112.16802583672
 30
0.0
 11
28705.268968762561
 21
24932.16802583672
 31
0.0
  0
ARC
  5
3BCC
  8
FUTO
 10
28676.768968762561
 20
24940.16802583672
 30
0.0
 40
6.0
 50
0.0
 51
90.0
  0
LINE
  5
3BCD
  8
FUTO
 10
28694.268968762561
 20
24918.16802583672
 30
0.0
 11
28682.768968762561
 21
24918.16802583672
 31
0.0
  0
ARC
  5
3BCE
  8
FUTO
 10
28694.268968762561
 20
24924.16802583672
 30
0.0
 40
6.0
 50
270.0
 51
0.0
  0
LINE
  5
3BCF
  8
FUTO
 10
28705.268968762561
 20
24932.16802583672
 30
0.0
 11
28700.268968762561
 21
24932.16802583672
 31
0.0
  0
ARC
  5
3BD0
  8
FUTO
 10
28694.268968762561
 20
25120.16802583672
 30
0.0
 40
6.0
 50
0.0
 51
90.0
  0
LINE
  5
3BD1
  8
FUTO
 10
28700.268968762561
 20
25112.16802583672
 30
0.0
 11
28705.268968762561
 21
25112.16802583672
 31
0.0
  0
LINE
  5
3C31
  8
SL
 10
28032.010985982051
 20
25148.866928867868
 30
0.0
 11
28497.287398867651
 21
25148.866928867868
 31
0.0
  0
LINE
  5
3C32
  8
FUTO
 10
28562.768968762561
 20
24910.16802583672
 30
0.0
 11
28562.768968762561
 21
24904.16802583672
 31
0.0
  0
LINE
  5
3C33
  8
FUTO
 10
28692.768968762561
 20
24910.16802583672
 30
0.0
 11
28692.768968762561
 21
24904.16802583672
 31
0.0
  0
DIMENSION
  5
3C4B
  8
SP
  2
*D10
 10
29367.768968762561
 20
26844.71445812031
 30
0.0
 11
28457.768968762561
 21
26904.71445812031
 31
0.0
 70
     0
 13
27547.768968762561
 23
25402.16802583672
 33
0.0
 14
29367.768968762561
 24
26720.327363779648
 34
0.0
1001
ACAD
1000
DSTYLE
1002
{
1070
    40
1040
30.0
1070
   176
1070
     2
1070
   177
1070
     2
1070
   178
1070
     2
1070
   341
1005
44D5
1070
     5
1000
OPEN30
1002
}
  0
LINE
  5
3C62
  8
SL
 10
28032.010985982051
 20
25148.866928867868
 30
0.0
 11
28032.010985982051
 21
24894.16802583672
 31
0.0
  0
LINE
  5
3C63
  8
SL
 10
28497.287398867651
 20
25148.866928867868
 30
0.0
 11
28497.287398867651
 21
24894.16802583672
 31
0.0
  0
LINE
  5
3C79
  8
FUTO
 10
24746.825556723921
 20
27840.868162558349
 30
0.0
 11
24746.825556723921
 21
28409.868162558349
 31
0.0
  0
LINE
  5
3C7A
  8
FUTO
 10
24836.825556723921
 20
27840.868162558349
 30
0.0
 11
24836.825556723921
 21
28409.868162558349
 31
0.0
  0
LINE
  5
3C7B
  8
FUTO
 10
24411.825556723921
 20
27400.868162558349
 30
0.0
 11
26211.825556723921
 21
27400.868162558349
 31
0.0
  0
LINE
  5
3C7D
  8
SL
 10
24541.825556723921
 20
27588.76816255835
 30
0.0
 11
26097.825556723921
 21
27588.76816255835
 31
0.0
  0
LINE
  5
3C7E
  8
SL
 10
24541.825556723921
 20
27510.868162558349
 30
0.0
 11
26097.825556723921
 21
27510.868162558349
 31
0.0
  0
LINE
  5
3C7F
  8
CT
 10
24673.322059763799
 20
27770.868162558349
 30
0.0
 11
24954.656188510631
 21
27770.868162558349
 31
0.0
  0
LINE
  5
3C80
  8
CT
 10
25991.825556723921
 20
27363.91143303764
 30
0.0
 11
25991.825556723921
 21
27666.73011614908
 31
0.0
  0
LINE
  5
3C81
  8
SL
 10
25885.825556723921
 20
27510.868162558349
 30
0.0
 11
25885.825556723921
 21
27588.76816255835
 31
0.0
  0
LINE
  5
3C82
  8
SL
 10
26097.825556723921
 20
27510.868162558349
 30
0.0
 11
26097.825556723921
 21
27588.76816255835
 31
0.0
  0
LINE
  5
3C83
  8
FUTO
 10
26044.76813044813
 20
27655.868162558349
 30
0.0
 11
26211.825556723921
 21
27655.868162558349
 31
0.0
  0
LINE
  5
3C84
  8
SL
 10
25931.825556723921
 20
27603.868162558349
 30
0.0
 11
26051.825556723921
 21
27603.868162558349
 31
0.0
  0
LINE
  5
3C85
  8
SL
 10
25931.825556723921
 20
27588.76816255835
 30
0.0
 11
25931.825556723921
 21
27603.868162558349
 31
0.0
  0
LINE
  5
3C86
  8
SL
 10
26051.825556723921
 20
27588.76816255835
 30
0.0
 11
26051.825556723921
 21
27603.868162558349
 31
0.0
  0
LINE
  5
3C87
  8
SL
 10
25041.825556723921
 20
27510.868162558349
 30
0.0
 11
25041.825556723921
 21
27588.76816255835
 31
0.0
  0
LINE
  5
3C88
  8
FUTO
 10
24698.825556723921
 20
27820.868162558349
 30
0.0
 11
24698.825556723921
 21
27720.868162558349
 31
0.0
  0
LINE
  5
3C8B
  8
FUTO
 10
24411.825556723921
 20
27655.868162558349
 30
0.0
 11
24638.13518681821
 21
27655.868162558349
 31
0.0
  0
LINE
  5
3C8C
  8
SL
 10
24541.825556723921
 20
27510.868162558349
 30
0.0
 11
24541.825556723921
 21
27588.76816255835
 31
0.0
  0
LINE
  5
3C8D
  8
FUTO
 10
24749.325556723921
 20
27610.868162558349
 30
0.0
 11
24749.325556723921
 21
27700.368162558349
 31
0.0
  0
LINE
  5
3C8E
  8
FUTO
 10
24834.325556723921
 20
27610.868162558349
 30
0.0
 11
24834.325556723921
 21
27700.368162558349
 31
0.0
  0
LINE
  5
3C8F
  8
SL
 10
24711.825556723921
 20
27588.76816255835
 30
0.0
 11
24711.825556723921
 21
27610.868162558349
 31
0.0
  0
LINE
  5
3C90
  8
SL
 10
24871.825556723921
 20
27588.76816255835
 30
0.0
 11
24871.825556723921
 21
27610.868162558349
 31
0.0
  0
LINE
  5
3C91
  8
SL
 10
24711.825556723921
 20
27610.868162558349
 30
0.0
 11
24871.825556723921
 21
27610.868162558349
 31
0.0
  0
LINE
  5
3C94
  8
FUTO
 10
24701.825556723921
 20
27720.868162558349
 30
0.0
 11
24701.825556723921
 21
27711.868162558349
 31
0.0
  0
ARC
  5
3C95
  8
FUTO
 10
24707.825556723921
 20
27711.868162558349
 30
0.0
 40
6.0
 50
180.0
 51
270.0
  0
LINE
  5
3C96
  8
FUTO
 10
24716.825556723921
 20
27705.868162558349
 30
0.0
 11
24716.825556723921
 21
27700.368162558349
 31
0.0
  0
ARC
  5
3C97
  8
FUTO
 10
24875.825556723921
 20
27711.868162558349
 30
0.0
 40
6.0
 50
270.0
 51
0.000000000000007
  0
LINE
  5
3C98
  8
FUTO
 10
24881.825556723921
 20
27711.868162558349
 30
0.0
 11
24881.825556723921
 21
27720.868162558349
 31
0.0
  0
LINE
  5
3C9A
  8
FUTO
 10
24866.825556723921
 20
27700.368162558349
 30
0.0
 11
24866.825556723921
 21
27705.868162558349
 31
0.0
  0
LINE
  5
3C9B
  8
FUTO
 10
24707.825556723921
 20
27705.868162558349
 30
0.0
 11
24875.825556723921
 21
27705.868162558349
 31
0.0
  0
LINE
  5
3C9C
  8
FUTO
 10
24716.825556723921
 20
27700.368162558349
 30
0.0
 11
24866.825556723921
 21
27700.368162558349
 31
0.0
  0
LINE
  5
3C9D
  8
FUTO
 10
24698.825556723921
 20
27720.868162558349
 30
0.0
 11
24884.825556723921
 21
27720.868162558349
 31
0.0
  0
LINE
  5
3C9F
  8
FUTO
 10
24411.825556723921
 20
27400.868162558349
 30
0.0
 11
24411.825556723921
 21
27655.868162558349
 31
0.0
  0
POINT
  5
3CA0
  8
DEFPOINTS
 10
24411.825556723921
 20
27400.868162558349
 30
0.0
  0
LINE
  5
3CA3
  8
FUTO
 10
24716.825556723921
 20
27835.868162558349
 30
0.0
 11
24716.825556723921
 21
27841.368162558349
 31
0.0
  0
ARC
  5
3CA4
  8
FUTO
 10
24707.825556723921
 20
27829.868162558349
 30
0.0
 40
6.0
 50
90.0
 51
180.0
  0
LINE
  5
3CA5
  8
FUTO
 10
24701.825556723921
 20
27820.868162558349
 30
0.0
 11
24701.825556723921
 21
27829.868162558349
 31
0.0
  0
LINE
  5
3CA6
  8
FUTO
 10
24866.825556723921
 20
27841.368162558349
 30
0.0
 11
24866.825556723921
 21
27835.868162558349
 31
0.0
  0
ARC
  5
3CA7
  8
FUTO
 10
24875.825556723921
 20
27829.868162558349
 30
0.0
 40
6.0
 50
0.000000000000007
 51
90.0
  0
LINE
  5
3CA9
  8
FUTO
 10
24881.825556723921
 20
27829.868162558349
 30
0.0
 11
24881.825556723921
 21
27820.868162558349
 31
0.0
  0
LINE
  5
3CAA
  8
FUTO
 10
24716.825556723921
 20
27841.368162558349
 30
0.0
 11
24866.825556723921
 21
27841.368162558349
 31
0.0
  0
LINE
  5
3CAB
  8
FUTO
 10
24707.825556723921
 20
27835.868162558349
 30
0.0
 11
24875.825556723921
 21
27835.868162558349
 31
0.0
  0
LINE
  5
3CAC
  8
FUTO
 10
24884.825556723921
 20
27820.868162558349
 30
0.0
 11
24698.825556723921
 21
27820.868162558349
 31
0.0
  0
LINE
  5
3CAF
  8
FUTO
 10
24041.825556723921
 20
29854.868162558349
 30
0.0
 11
25541.825556723921
 21
29854.868162558349
 31
0.0
  0
LINE
  5
3CB0
  8
FUTO
 10
24041.825556723921
 20
29848.868162558349
 30
0.0
 11
25541.825556723921
 21
29848.868162558349
 31
0.0
  0
LINE
  5
3CB1
  8
KL
 10
24800.825556723921
 20
29760.068162558349
 30
0.0
 11
25541.825556723921
 21
29760.068162558349
 31
0.0
  0
LINE
  5
3CB5
  8
KL
 10
24087.512814414891
 20
29756.868162558349
 30
0.0
 11
25496.138299032951
 21
29756.868162558349
 31
0.0
  0
LINE
  5
3CB9
  8
CT
 10
24673.322059763799
 20
28480.868162558349
 30
0.0
 11
24976.98971993908
 21
28480.868162558349
 31
0.0
  0
LINE
  5
3CBA
  8
KL
 10
25491.825556723921
 20
29754.068162558349
 30
0.0
 11
25491.825556723921
 21
29854.868162558349
 31
0.0
  0
LINE
  5
3CBB
  8
KL
 10
25497.825556723921
 20
29760.068162558349
 30
0.0
 11
25497.825556723921
 21
29829.068162558349
 31
0.0
  0
LINE
  5
3CBC
  8
KL
 10
25541.825556723921
 20
29754.068162558349
 30
0.0
 11
25541.825556723921
 21
29760.068162558349
 31
0.0
  0
LINE
  5
3CBD
  8
CT
 10
25524.325556723921
 20
29721.583464963249
 30
0.0
 11
25524.325556723921
 21
29778.626198095291
 31
0.0
  0
LINE
  5
3CBE
  8
FUTO
 10
25541.825556723921
 20
29848.868162558349
 30
0.0
 11
25541.825556723921
 21
29854.868162558349
 31
0.0
  0
LINE
  5
3CBF
  8
CT
 10
25524.325556723921
 20
29825.748427645722
 30
0.0
 11
25524.325556723921
 21
29885.891281399588
 31
0.0
  0
LINE
  5
3CC0
  8
FUTO
 10
25497.825556723921
 20
29829.068162558349
 30
0.0
 11
25497.825556723921
 21
29848.868162558349
 31
0.0
  0
LINE
  5
3CC7
  8
FUTO
 10
24687.825556723921
 20
28547.368162558349
 30
0.0
 11
24687.825556723921
 21
28414.368162558349
 31
0.0
  0
ARC
  5
3CCA
  8
FUTO
 10
24693.825556723921
 20
28414.368162558349
 30
0.0
 40
6.0
 50
180.0
 51
270.0
  0
LINE
  5
3CCB
  8
FUTO
 10
24701.825556723921
 20
28408.368162558349
 30
0.0
 11
24701.825556723921
 21
28403.368162558349
 31
0.0
  0
ARC
  5
3CCC
  8
FUTO
 10
24889.825556723921
 20
28414.368162558349
 30
0.0
 40
6.0
 50
270.0
 51
0.000000000000007
  0
LINE
  5
3CCD
  8
FUTO
 10
24895.825556723921
 20
28414.368162558349
 30
0.0
 11
24895.825556723921
 21
28425.868162558349
 31
0.0
  0
LINE
  5
3CCF
  8
FUTO
 10
24881.825556723921
 20
28403.368162558349
 30
0.0
 11
24881.825556723921
 21
28408.368162558349
 31
0.0
  0
LINE
  5
3CD0
  8
FUTO
 10
24693.825556723921
 20
28408.368162558349
 30
0.0
 11
24889.825556723921
 21
28408.368162558349
 31
0.0
  0
LINE
  5
3CD1
  8
FUTO
 10
24701.825556723921
 20
28403.368162558349
 30
0.0
 11
24881.825556723921
 21
28403.368162558349
 31
0.0
  0
LINE
  5
3CD2
  8
FUTO
 10
24687.825556723921
 20
28425.868162558349
 30
0.0
 11
24895.825556723921
 21
28425.868162558349
 31
0.0
  0
LINE
  5
3CD4
  8
FUTO
 10
24701.825556723921
 20
28553.368162558349
 30
0.0
 11
24701.825556723921
 21
28558.368162558349
 31
0.0
  0
ARC
  5
3CD5
  8
FUTO
 10
24693.825556723921
 20
28547.368162558349
 30
0.0
 40
6.0
 50
90.0
 51
180.0
  0
LINE
  5
3CD6
  8
FUTO
 10
24881.825556723921
 20
28558.368162558349
 30
0.0
 11
24881.825556723921
 21
28553.368162558349
 31
0.0
  0
ARC
  5
3CD7
  8
FUTO
 10
24889.825556723921
 20
28547.368162558349
 30
0.0
 40
6.0
 50
0.000000000000007
 51
90.0
  0
LINE
  5
3CD8
  8
FUTO
 10
24895.825556723921
 20
28547.368162558349
 30
0.0
 11
24895.825556723921
 21
28535.868162558349
 31
0.0
  0
LINE
  5
3CDA
  8
FUTO
 10
24701.825556723921
 20
28558.368162558349
 30
0.0
 11
24881.825556723921
 21
28558.368162558349
 31
0.0
  0
LINE
  5
3CDB
  8
FUTO
 10
24693.825556723921
 20
28553.368162558349
 30
0.0
 11
24889.825556723921
 21
28553.368162558349
 31
0.0
  0
LINE
  5
3CDC
  8
FUTO
 10
24687.825556723921
 20
28535.868162558349
 30
0.0
 11
24895.825556723921
 21
28535.868162558349
 31
0.0
  0
LINE
  5
3CDD
  8
FUTO
 10
24836.825556723921
 20
28549.868162558349
 30
0.0
 11
24836.825556723921
 21
28612.668162558351
 31
0.0
  0
LINE
  5
3CDE
  8
FUTO
 10
24746.825556723921
 20
28549.868162558349
 30
0.0
 11
24746.825556723921
 21
28611.368162558359
 31
0.0
  0
LINE
  5
3CE2
  8
KL
 10
24041.825556723921
 20
29760.068162558349
 30
0.0
 11
24782.825556723921
 21
29760.068162558349
 31
0.0
  0
INSERT
  5
3CE3
  8
FUTO
  2
まっすぐの矢印
 10
24235.57366840394
 20
29916.714943247749
 30
0.0
 41
-2.0
 42
2.0
 43
2.0
 50
180.0
  0
LINE
  5
3CE4
  8
KL
 10
24091.825556723921
 20
29754.068162558349
 30
0.0
 11
24091.825556723921
 21
29854.868162558349
 31
0.0
  0
LINE
  5
3CE5
  8
KL
 10
24085.825556723921
 20
29760.068162558349
 30
0.0
 11
24085.825556723921
 21
29830.368162558349
 31
0.0
  0
LINE
  5
3CE6
  8
KL
 10
24041.825556723921
 20
29754.068162558349
 30
0.0
 11
24041.825556723921
 21
29760.068162558349
 31
0.0
  0
LINE
  5
3CE7
  8
CT
 10
24059.325556723921
 20
29731.412061314491
 30
0.0
 11
24059.325556723921
 21
29774.117699739742
 31
0.0
  0
LINE
  5
3CE8
  8
FUTO
 10
24041.825556723921
 20
29848.868162558349
 30
0.0
 11
24041.825556723921
 21
29854.868162558349
 31
0.0
  0
LINE
  5
3CE9
  8
CT
 10
24059.325556723921
 20
29826.107175296151
 30
0.0
 11
24059.325556723921
 21
29878.09665085256
 31
0.0
  0
LINE
  5
3CEA
  8
FUTO
 10
24085.825556723921
 20
29830.368162558349
 30
0.0
 11
24085.825556723921
 21
29848.868162558349
 31
0.0
  0
LINE
  5
3D2A
  8
FUTO
 10
24895.825556723921
 20
28547.368162558349
 30
0.0
 11
24895.825556723921
 21
28414.368162558349
 31
0.0
  0
LINE
  5
3D2B
  8
FUTO
 10
24884.825556723921
 20
27820.868162558349
 30
0.0
 11
24884.825556723921
 21
27720.868162558349
 31
0.0
  0
ARC
  5
4030
  8
FUTO
 10
25991.825556723921
 20
27611.868162558349
 30
0.0
 40
9.0
 50
0.000000000000007
 51
180.0
  0
LINE
  5
4031
  8
FUTO
 10
26000.825556723921
 20
27510.868162558349
 30
0.0
 11
26000.825556723921
 21
27611.868162558349
 31
0.0
  0
LINE
  5
4032
  8
FUTO
 10
25982.825556723921
 20
27510.868162558349
 30
0.0
 11
25982.825556723921
 21
27611.868162558349
 31
0.0
  0
LINE
  5
4033
  8
FUTO
 10
26248.825495723919
 20
28025.36810155835
 30
0.0
 11
26248.825495723919
 21
28061.368162558349
 31
0.0
  0
LINE
  5
4034
  8
FUTO
 10
26251.825495723919
 20
28025.36810155835
 30
0.0
 11
26251.825495723919
 21
28061.368162558349
 31
0.0
  0
LINE
  5
4035
  8
FUTO
 10
26243.825495723919
 20
28025.36810155835
 30
0.0
 11
26243.825495723919
 21
28072.368162558349
 31
0.0
  0
LINE
  5
4036
  8
FUTO
 10
26201.825556723921
 20
27686.368162558349
 30
0.0
 11
26201.825556723921
 21
27733.243162558349
 31
0.0
  0
LINE
  5
4037
  8
FUTO
 10
26149.517191719438
 20
27681.368162558349
 30
0.0
 11
26196.825556723921
 21
27681.368162558349
 31
0.0
  0
ARC
  5
4038
  8
FUTO
 10
26196.825556723921
 20
27686.368162558349
 30
0.0
 40
5.0
 50
270.0
 51
0.000000000000007
  0
LINE
  5
4039
  8
FUTO
 10
26181.50690194235
 20
27733.243162558349
 30
0.0
 11
26201.825556723921
 21
27733.243162558349
 31
0.0
  0
LINE
  5
403A
  8
FUTO
 10
26201.825556723921
 20
27731.368162558349
 30
0.0
 11
26248.825495723919
 21
27731.368162558349
 31
0.0
  0
LINE
  5
403B
  8
FUTO
 10
26201.825556723921
 20
27728.368162558349
 30
0.0
 11
26251.825495723919
 21
27728.368162558349
 31
0.0
  0
LINE
  5
403C
  8
FUTO
 10
26181.6160302922
 20
27736.368162558349
 30
0.0
 11
26243.825495723919
 21
27736.368162558349
 31
0.0
  0
LINE
  5
403D
  8
FUTO
 10
26243.825495723919
 20
27736.368162558349
 30
0.0
 11
26248.825495723919
 21
27731.368162558349
 31
0.0
  0
LINE
  5
403E
  8
FUTO
 10
26276.825495723919
 20
27771.368162558349
 30
0.0
 11
26276.825495723919
 21
27811.368162558349
 31
0.0
  0
LINE
  5
403F
  8
FUTO
 10
26246.825495723919
 20
27771.368162558349
 30
0.0
 11
26246.825495723919
 21
27811.368162558349
 31
0.0
  0
LINE
  5
4040
  8
FUTO
 10
26276.825495723919
 20
27811.368162558349
 30
0.0
 11
26246.825495723919
 21
27811.368162558349
 31
0.0
  0
LINE
  5
4041
  8
FUTO
 10
26246.825495723919
 20
27771.368162558349
 30
0.0
 11
26276.825495723919
 21
27771.368162558349
 31
0.0
  0
LINE
  5
4042
  8
CT
 10
26195.325556723921
 20
27791.368162558349
 30
0.0
 11
26362.87993872392
 21
27791.368162558349
 31
0.0
  0
LINE
  5
4043
  8
FUTO
 10
26351.279963723919
 20
27808.95800655835
 30
0.0
 11
26339.179987723921
 21
27808.95800655835
 31
0.0
  0
LINE
  5
4044
  8
FUTO
 10
26351.279963723919
 20
27773.778319558351
 30
0.0
 11
26339.179987723921
 21
27773.778319558351
 31
0.0
  0
LINE
  5
4045
  8
FUTO
 10
26351.279963723919
 20
27801.073240558351
 30
0.0
 11
26339.179987723921
 21
27801.073240558351
 31
0.0
  0
LINE
  5
4046
  8
FUTO
 10
26351.279963723919
 20
27781.66308455835
 30
0.0
 11
26339.179987723921
 21
27781.66308455835
 31
0.0
  0
LINE
  5
4047
  8
FUTO
 10
26352.87993872392
 20
27807.35839755835
 30
0.0
 11
26352.87993872392
 21
27775.378904558351
 31
0.0
  0
LINE
  5
4048
  8
FUTO
 10
26351.279963723919
 20
27773.778319558351
 30
0.0
 11
26352.87993872392
 21
27775.378904558351
 31
0.0
  0
LINE
  5
4049
  8
FUTO
 10
26351.279963723919
 20
27781.66308455835
 30
0.0
 11
26352.87993872392
 21
27780.063475558349
 31
0.0
  0
LINE
  5
404A
  8
FUTO
 10
26351.279963723919
 20
27781.66308455835
 30
0.0
 11
26352.87993872392
 21
27783.26367055835
 31
0.0
  0
LINE
  5
404B
  8
FUTO
 10
26352.87993872392
 20
27807.35839755835
 30
0.0
 11
26351.279963723919
 21
27808.95800655835
 31
0.0
  0
LINE
  5
404C
  8
FUTO
 10
26351.279963723919
 20
27801.073240558351
 30
0.0
 11
26352.87993872392
 21
27802.673826558352
 31
0.0
  0
LINE
  5
404D
  8
FUTO
 10
26351.279963723919
 20
27801.073240558351
 30
0.0
 11
26352.87993872392
 21
27799.473631558361
 31
0.0
  0
LINE
  5
404E
  8
FUTO
 10
26339.179987723921
 20
27808.95800655835
 30
0.0
 11
26339.179987723921
 21
27773.778319558351
 31
0.0
  0
LINE
  5
404F
  8
FUTO
 10
26339.179987723921
 20
27782.368162558349
 30
0.0
 11
26276.825495723919
 21
27782.368162558349
 31
0.0
  0
LINE
  5
4050
  8
HOSO
 10
26276.825495723919
 20
27784.368162558349
 30
0.0
 11
26339.18004872392
 21
27784.368162558349
 31
0.0
  0
LINE
  5
4051
  8
HOSO
 10
26339.179987723921
 20
27798.368162558349
 30
0.0
 11
26276.825495723919
 21
27798.368162558349
 31
0.0
  0
LINE
  5
4052
  8
FUTO
 10
26276.825495723919
 20
27800.368162558349
 30
0.0
 11
26339.18004872392
 21
27800.368162558349
 31
0.0
  0
LINE
  5
4053
  8
FUTO
 10
26246.825495723919
 20
27782.368162558349
 30
0.0
 11
26195.325556723921
 21
27782.368162558349
 31
0.0
  0
LINE
  5
4054
  8
HOSO
 10
26195.325556723921
 20
27784.368162558349
 30
0.0
 11
26246.825495723919
 21
27784.368162558349
 31
0.0
  0
LINE
  5
4055
  8
FUTO
 10
26195.325556723921
 20
27800.368162558349
 30
0.0
 11
26246.825495723919
 21
27800.368162558349
 31
0.0
  0
LINE
  5
4056
  8
HOSO
 10
26246.825495723919
 20
27798.368162558349
 30
0.0
 11
26195.325556723921
 21
27798.368162558349
 31
0.0
  0
LINE
  5
4057
  8
FUTO
 10
26251.825495723919
 20
27728.368162558349
 30
0.0
 11
26251.825495723919
 21
27771.368162558349
 31
0.0
  0
LINE
  5
4058
  8
FUTO
 10
26248.825495723919
 20
27731.368162558349
 30
0.0
 11
26248.825495723919
 21
27771.368162558349
 31
0.0
  0
LINE
  5
4059
  8
FUTO
 10
26243.825495723919
 20
27736.368162558349
 30
0.0
 11
26243.825495723919
 21
27782.368162558349
 31
0.0
  0
LINE
  5
405A
  8
FUTO
 10
26251.825495723919
 20
27811.368162558349
 30
0.0
 11
26251.825495723919
 21
27847.368162558349
 31
0.0
  0
LINE
  5
405B
  8
FUTO
 10
26248.825495723919
 20
27811.368162558349
 30
0.0
 11
26248.825495723919
 21
27847.368162558349
 31
0.0
  0
LINE
  5
405C
  8
FUTO
 10
26243.825495723919
 20
27800.368162558349
 30
0.0
 11
26243.825495723919
 21
27847.368162558349
 31
0.0
  0
LINE
  5
405D
  8
FUTO
 10
26276.825495723919
 20
28072.368162558349
 30
0.0
 11
26339.18004872392
 21
28072.368162558349
 31
0.0
  0
LINE
  5
405E
  8
HOSO
 10
26339.179987723921
 20
28074.368162558349
 30
0.0
 11
26276.825495723919
 21
28074.368162558349
 31
0.0
  0
LINE
  5
405F
  8
HOSO
 10
26276.825495723919
 20
28088.368162558349
 30
0.0
 11
26339.18004872392
 21
28088.368162558349
 31
0.0
  0
LINE
  5
4060
  8
FUTO
 10
26339.179987723921
 20
28090.368162558349
 30
0.0
 11
26276.825495723919
 21
28090.368162558349
 31
0.0
  0
LINE
  5
4061
  8
FUTO
 10
26339.179987723921
 20
28063.77831855835
 30
0.0
 11
26339.179987723921
 21
28098.95800555835
 31
0.0
  0
LINE
  5
4062
  8
FUTO
 10
26351.279963723919
 20
28071.66308455835
 30
0.0
 11
26352.87993872392
 21
28073.26269355835
 31
0.0
  0
LINE
  5
4063
  8
FUTO
 10
26351.279963723919
 20
28071.66308455835
 30
0.0
 11
26352.87993872392
 21
28070.062498558349
 31
0.0
  0
LINE
  5
4064
  8
FUTO
 10
26352.87993872392
 20
28065.377927558351
 30
0.0
 11
26351.279963723919
 21
28063.77831855835
 31
0.0
  0
LINE
  5
4065
  8
FUTO
 10
26351.279963723919
 20
28091.073240558351
 30
0.0
 11
26352.87993872392
 21
28089.472654558351
 31
0.0
  0
LINE
  5
4066
  8
FUTO
 10
26351.279963723919
 20
28091.073240558351
 30
0.0
 11
26352.87993872392
 21
28092.672849558348
 31
0.0
  0
LINE
  5
4067
  8
FUTO
 10
26351.279963723919
 20
28098.95800555835
 30
0.0
 11
26352.87993872392
 21
28097.35742055835
 31
0.0
  0
LINE
  5
4068
  8
FUTO
 10
26352.87993872392
 20
28065.377927558351
 30
0.0
 11
26352.87993872392
 21
28097.35742055835
 31
0.0
  0
LINE
  5
4069
  8
FUTO
 10
26351.279963723919
 20
28091.073240558351
 30
0.0
 11
26339.179987723921
 21
28091.073240558351
 31
0.0
  0
LINE
  5
406A
  8
FUTO
 10
26351.279963723919
 20
28071.66308455835
 30
0.0
 11
26339.179987723921
 21
28071.66308455835
 31
0.0
  0
LINE
  5
406B
  8
FUTO
 10
26351.279963723919
 20
28098.95800555835
 30
0.0
 11
26339.179987723921
 21
28098.95800555835
 31
0.0
  0
LINE
  5
406C
  8
FUTO
 10
26351.279963723919
 20
28063.77831855835
 30
0.0
 11
26339.179987723921
 21
28063.77831855835
 31
0.0
  0
LINE
  5
406D
  8
FUTO
 10
26246.825495723919
 20
28101.368162558349
 30
0.0
 11
26276.825495723919
 21
28101.368162558349
 31
0.0
  0
LINE
  5
406E
  8
FUTO
 10
26276.825495723919
 20
28061.368162558349
 30
0.0
 11
26246.825495723919
 21
28061.368162558349
 31
0.0
  0
LINE
  5
406F
  8
FUTO
 10
26246.825495723919
 20
28101.368162558349
 30
0.0
 11
26246.825495723919
 21
28061.368162558349
 31
0.0
  0
LINE
  5
4070
  8
FUTO
 10
26276.825495723919
 20
28101.368162558349
 30
0.0
 11
26276.825495723919
 21
28061.368162558349
 31
0.0
  0
LINE
  5
4071
  8
HOSO
 10
26246.825495723919
 20
28074.368162558349
 30
0.0
 11
26195.325556723921
 21
28074.368162558349
 31
0.0
  0
LINE
  5
4072
  8
FUTO
 10
26195.325556723921
 20
28072.368162558349
 30
0.0
 11
26246.825495723919
 21
28072.368162558349
 31
0.0
  0
LINE
  5
4073
  8
HOSO
 10
26195.325556723921
 20
28088.368162558349
 30
0.0
 11
26246.825495723919
 21
28088.368162558349
 31
0.0
  0
LINE
  5
4074
  8
FUTO
 10
26246.825495723919
 20
28090.368162558349
 30
0.0
 11
26195.325556723921
 21
28090.368162558349
 31
0.0
  0
LINE
  5
4075
  8
CT
 10
26195.325556723921
 20
28081.368162558349
 30
0.0
 11
26362.87993872392
 21
28081.368162558349
 31
0.0
  0
LINE
  5
4076
  8
FUTO
 10
26243.825495723919
 20
28136.368162558349
 30
0.0
 11
26248.825495723919
 21
28141.368162558349
 31
0.0
  0
LINE
  5
4077
  8
FUTO
 10
26201.825556723921
 20
28144.368162558349
 30
0.0
 11
26251.825495723919
 21
28144.368162558349
 31
0.0
  0
LINE
  5
4078
  8
FUTO
 10
26201.825556723921
 20
28141.368162558349
 30
0.0
 11
26248.825495723919
 21
28141.368162558349
 31
0.0
  0
LINE
  5
4079
  8
FUTO
 10
26195.325556723921
 20
28139.493162558349
 30
0.0
 11
26201.825556723921
 21
28139.493162558349
 31
0.0
  0
LINE
  5
407A
  8
FUTO
 10
26195.325556723921
 20
28136.368162558349
 30
0.0
 11
26243.825495723919
 21
28136.368162558349
 31
0.0
  0
LINE
  5
407B
  8
FUTO
 10
26243.825495723919
 20
28136.368162558349
 30
0.0
 11
26243.825495723919
 21
28090.368162558349
 31
0.0
  0
LINE
  5
407C
  8
FUTO
 10
26248.825495723919
 20
28141.368162558349
 30
0.0
 11
26248.825495723919
 21
28101.368162558349
 31
0.0
  0
LINE
  5
407D
  8
FUTO
 10
26251.825495723919
 20
28144.368162558349
 30
0.0
 11
26251.825495723919
 21
28101.368162558349
 31
0.0
  0
ARC
  5
407E
  8
FUTO
 10
26196.825556723921
 20
28186.368162558349
 30
0.0
 40
5.0
 50
0.000000000000007
 51
90.000000000000028
  0
LINE
  5
407F
  8
FUTO
 10
26201.825556723921
 20
28186.368162558349
 30
0.0
 11
26201.825556723921
 21
28139.493162558349
 31
0.0
  0
LINE
  5
4080
  8
FUTO
 10
26184.325556723921
 20
28191.368162558349
 30
0.0
 11
26196.825556723921
 21
28191.368162558349
 31
0.0
  0
LINE
  5
4081
  8
CT
 10
25788.325556723921
 20
28081.368162558349
 30
0.0
 11
25620.771174723919
 21
28081.368162558349
 31
0.0
  0
LINE
  5
4082
  8
FUTO
 10
25736.82561772392
 20
28090.368162558349
 30
0.0
 11
25788.325556723921
 21
28090.368162558349
 31
0.0
  0
LINE
  5
4083
  8
HOSO
 10
25788.325556723921
 20
28088.368162558349
 30
0.0
 11
25736.82561772392
 21
28088.368162558349
 31
0.0
  0
LINE
  5
4084
  8
FUTO
 10
25788.325556723921
 20
28072.368162558349
 30
0.0
 11
25736.82561772392
 21
28072.368162558349
 31
0.0
  0
LINE
  5
4085
  8
HOSO
 10
25736.82561772392
 20
28074.368162558349
 30
0.0
 11
25788.325556723921
 21
28074.368162558349
 31
0.0
  0
LINE
  5
4086
  8
FUTO
 10
25706.82561772392
 20
28101.368162558349
 30
0.0
 11
25706.82561772392
 21
28061.368162558349
 31
0.0
  0
LINE
  5
4087
  8
FUTO
 10
25736.82561772392
 20
28101.368162558349
 30
0.0
 11
25736.82561772392
 21
28061.368162558349
 31
0.0
  0
LINE
  5
4088
  8
FUTO
 10
25706.82561772392
 20
28061.368162558349
 30
0.0
 11
25736.82561772392
 21
28061.368162558349
 31
0.0
  0
LINE
  5
4089
  8
FUTO
 10
25736.82561772392
 20
28101.368162558349
 30
0.0
 11
25706.82561772392
 21
28101.368162558349
 31
0.0
  0
LINE
  5
408A
  8
FUTO
 10
25632.37114972392
 20
28063.77831855835
 30
0.0
 11
25644.471125723921
 21
28063.77831855835
 31
0.0
  0
LINE
  5
408B
  8
FUTO
 10
25632.37114972392
 20
28098.95800555835
 30
0.0
 11
25644.471125723921
 21
28098.95800555835
 31
0.0
  0
LINE
  5
408C
  8
FUTO
 10
25632.37114972392
 20
28071.66308455835
 30
0.0
 11
25644.471125723921
 21
28071.66308455835
 31
0.0
  0
LINE
  5
408D
  8
FUTO
 10
25632.37114972392
 20
28091.073240558351
 30
0.0
 11
25644.471125723921
 21
28091.073240558351
 31
0.0
  0
LINE
  5
408E
  8
FUTO
 10
25630.771174723919
 20
28065.377927558351
 30
0.0
 11
25630.771174723919
 21
28097.35742055835
 31
0.0
  0
LINE
  5
408F
  8
FUTO
 10
25632.37114972392
 20
28098.95800555835
 30
0.0
 11
25630.771174723919
 21
28097.35742055835
 31
0.0
  0
LINE
  5
4090
  8
FUTO
 10
25632.37114972392
 20
28091.073240558351
 30
0.0
 11
25630.771174723919
 21
28092.672849558348
 31
0.0
  0
LINE
  5
4091
  8
FUTO
 10
25632.37114972392
 20
28091.073240558351
 30
0.0
 11
25630.771174723919
 21
28089.472654558351
 31
0.0
  0
LINE
  5
4092
  8
FUTO
 10
25630.771174723919
 20
28065.377927558351
 30
0.0
 11
25632.37114972392
 21
28063.77831855835
 31
0.0
  0
LINE
  5
4093
  8
FUTO
 10
25632.37114972392
 20
28071.66308455835
 30
0.0
 11
25630.771174723919
 21
28070.062498558349
 31
0.0
  0
LINE
  5
4094
  8
FUTO
 10
25632.37114972392
 20
28071.66308455835
 30
0.0
 11
25630.771174723919
 21
28073.26269355835
 31
0.0
  0
LINE
  5
4095
  8
FUTO
 10
25644.471125723921
 20
28063.77831855835
 30
0.0
 11
25644.471125723921
 21
28098.95800555835
 31
0.0
  0
LINE
  5
4096
  8
FUTO
 10
25644.471125723921
 20
28090.368162558349
 30
0.0
 11
25706.82561772392
 21
28090.368162558349
 31
0.0
  0
LINE
  5
4097
  8
HOSO
 10
25706.82561772392
 20
28088.368162558349
 30
0.0
 11
25644.471064723919
 21
28088.368162558349
 31
0.0
  0
LINE
  5
4098
  8
HOSO
 10
25644.471125723921
 20
28074.368162558349
 30
0.0
 11
25706.82561772392
 21
28074.368162558349
 31
0.0
  0
LINE
  5
4099
  8
FUTO
 10
25706.82561772392
 20
28072.368162558349
 30
0.0
 11
25644.471064723919
 21
28072.368162558349
 31
0.0
  0
LINE
  5
409A
  8
FUTO
 10
25731.82561772392
 20
28144.368162558349
 30
0.0
 11
25731.82561772392
 21
28101.368162558349
 31
0.0
  0
LINE
  5
409B
  8
FUTO
 10
25734.82561772392
 20
28141.368162558349
 30
0.0
 11
25734.82561772392
 21
28101.368162558349
 31
0.0
  0
LINE
  5
409C
  8
FUTO
 10
25739.82561772392
 20
28136.368162558349
 30
0.0
 11
25739.82561772392
 21
28090.368162558349
 31
0.0
  0
LINE
  5
409D
  8
FUTO
 10
25799.325556723921
 20
28191.368162558349
 30
0.0
 11
25786.825556723921
 21
28191.368162558349
 31
0.0
  0
LINE
  5
409E
  8
FUTO
 10
25788.325556723921
 20
28136.368162558349
 30
0.0
 11
25739.82561772392
 21
28136.368162558349
 31
0.0
  0
LINE
  5
409F
  8
FUTO
 10
25788.325556723921
 20
28139.493162558349
 30
0.0
 11
25781.825556723921
 21
28139.493162558349
 31
0.0
  0
LINE
  5
40A0
  8
FUTO
 10
25781.825556723921
 20
28186.368162558349
 30
0.0
 11
25781.825556723921
 21
28139.493162558349
 31
0.0
  0
LINE
  5
40A1
  8
FUTO
 10
25781.825556723921
 20
28141.368162558349
 30
0.0
 11
25734.82561772392
 21
28141.368162558349
 31
0.0
  0
LINE
  5
40A2
  8
FUTO
 10
25781.825556723921
 20
28144.368162558349
 30
0.0
 11
25731.82561772392
 21
28144.368162558349
 31
0.0
  0
ARC
  5
40A3
  8
FUTO
 10
25786.825556723921
 20
28186.368162558349
 30
0.0
 40
5.0
 50
90.000000000000028
 51
180.0
  0
LINE
  5
40A4
  8
FUTO
 10
25739.82561772392
 20
28136.368162558349
 30
0.0
 11
25734.82561772392
 21
28141.368162558349
 31
0.0
  0
LINE
  5
40A5
  8
FUTO
 10
25802.144211505489
 20
27733.243162558349
 30
0.0
 11
25781.825556723921
 21
27733.243162558349
 31
0.0
  0
LINE
  5
40A6
  8
FUTO
 10
25739.82561772392
 20
27800.368162558349
 30
0.0
 11
25739.82561772392
 21
28072.368162558349
 31
0.0
  0
LINE
  5
40A7
  8
FUTO
 10
25739.82561772392
 20
27736.368162558349
 30
0.0
 11
25734.82561772392
 21
27731.368162558349
 31
0.0
  0
LINE
  5
40A8
  8
FUTO
 10
25739.82561772392
 20
27736.368162558349
 30
0.0
 11
25739.82561772392
 21
27782.368162558349
 31
0.0
  0
LINE
  5
40A9
  8
FUTO
 10
25802.035083155639
 20
27736.368162558349
 30
0.0
 11
25739.82561772392
 21
27736.368162558349
 31
0.0
  0
ARC
  5
40AA
  8
FUTO
 10
25786.825556723921
 20
27686.368162558349
 30
0.0
 40
5.0
 50
180.0
 51
270.0
  0
LINE
  5
40AB
  8
FUTO
 10
25781.825556723921
 20
27728.368162558349
 30
0.0
 11
25731.82561772392
 21
27728.368162558349
 31
0.0
  0
LINE
  5
40AC
  8
FUTO
 10
25781.825556723921
 20
27731.368162558349
 30
0.0
 11
25734.82561772392
 21
27731.368162558349
 31
0.0
  0
LINE
  5
40AD
  8
FUTO
 10
25834.1339217284
 20
27681.368162558349
 30
0.0
 11
25786.825556723921
 21
27681.368162558349
 31
0.0
  0
LINE
  5
40AE
  8
FUTO
 10
25781.825556723921
 20
27686.368162558349
 30
0.0
 11
25781.825556723921
 21
27733.243162558349
 31
0.0
  0
LINE
  5
40AF
  8
FUTO
 10
25734.82561772392
 20
27811.368162558349
 30
0.0
 11
25734.82561772392
 21
28061.368162558349
 31
0.0
  0
LINE
  5
40B0
  8
FUTO
 10
25731.82561772392
 20
27811.368162558349
 30
0.0
 11
25731.82561772392
 21
28061.368162558349
 31
0.0
  0
LINE
  5
40B1
  8
FUTO
 10
25734.82561772392
 20
27731.368162558349
 30
0.0
 11
25734.82561772392
 21
27771.368162558349
 31
0.0
  0
LINE
  5
40B2
  8
FUTO
 10
25731.82561772392
 20
27728.368162558349
 30
0.0
 11
25731.82561772392
 21
27771.368162558349
 31
0.0
  0
LINE
  5
40B3
  8
HOSO
 10
25736.82561772392
 20
27798.368162558349
 30
0.0
 11
25788.325556723921
 21
27798.368162558349
 31
0.0
  0
LINE
  5
40B4
  8
FUTO
 10
25788.325556723921
 20
27800.368162558349
 30
0.0
 11
25736.82561772392
 21
27800.368162558349
 31
0.0
  0
LINE
  5
40B5
  8
HOSO
 10
25788.325556723921
 20
27784.368162558349
 30
0.0
 11
25736.82561772392
 21
27784.368162558349
 31
0.0
  0
LINE
  5
40B6
  8
FUTO
 10
25736.82561772392
 20
27782.368162558349
 30
0.0
 11
25788.325556723921
 21
27782.368162558349
 31
0.0
  0
LINE
  5
40B7
  8
FUTO
 10
25706.82561772392
 20
27800.368162558349
 30
0.0
 11
25644.471064723919
 21
27800.368162558349
 31
0.0
  0
LINE
  5
40B8
  8
HOSO
 10
25644.471125723921
 20
27798.368162558349
 30
0.0
 11
25706.82561772392
 21
27798.368162558349
 31
0.0
  0
LINE
  5
40B9
  8
HOSO
 10
25706.82561772392
 20
27784.368162558349
 30
0.0
 11
25644.471064723919
 21
27784.368162558349
 31
0.0
  0
LINE
  5
40BA
  8
FUTO
 10
25644.471125723921
 20
27782.368162558349
 30
0.0
 11
25706.82561772392
 21
27782.368162558349
 31
0.0
  0
LINE
  5
40BB
  8
FUTO
 10
25644.471125723921
 20
27808.95800655835
 30
0.0
 11
25644.471125723921
 21
27773.778319558351
 31
0.0
  0
LINE
  5
40BC
  8
FUTO
 10
25632.37114972392
 20
27801.073240558351
 30
0.0
 11
25630.771174723919
 21
27799.473631558361
 31
0.0
  0
LINE
  5
40BD
  8
FUTO
 10
25632.37114972392
 20
27801.073240558351
 30
0.0
 11
25630.771174723919
 21
27802.673826558352
 31
0.0
  0
LINE
  5
40BE
  8
FUTO
 10
25630.771174723919
 20
27807.35839755835
 30
0.0
 11
25632.37114972392
 21
27808.95800655835
 31
0.0
  0
LINE
  5
40BF
  8
FUTO
 10
25632.37114972392
 20
27781.66308455835
 30
0.0
 11
25630.771174723919
 21
27783.26367055835
 31
0.0
  0
LINE
  5
40C0
  8
FUTO
 10
25632.37114972392
 20
27781.66308455835
 30
0.0
 11
25630.771174723919
 21
27780.063475558349
 31
0.0
  0
LINE
  5
40C1
  8
FUTO
 10
25632.37114972392
 20
27773.778319558351
 30
0.0
 11
25630.771174723919
 21
27775.378904558351
 31
0.0
  0
LINE
  5
40C2
  8
FUTO
 10
25630.771174723919
 20
27807.35839755835
 30
0.0
 11
25630.771174723919
 21
27775.378904558351
 31
0.0
  0
LINE
  5
40C3
  8
FUTO
 10
25632.37114972392
 20
27781.66308455835
 30
0.0
 11
25644.471125723921
 21
27781.66308455835
 31
0.0
  0
LINE
  5
40C4
  8
FUTO
 10
25632.37114972392
 20
27801.073240558351
 30
0.0
 11
25644.471125723921
 21
27801.073240558351
 31
0.0
  0
LINE
  5
40C5
  8
FUTO
 10
25632.37114972392
 20
27773.778319558351
 30
0.0
 11
25644.471125723921
 21
27773.778319558351
 31
0.0
  0
LINE
  5
40C6
  8
FUTO
 10
25632.37114972392
 20
27808.95800655835
 30
0.0
 11
25644.471125723921
 21
27808.95800655835
 31
0.0
  0
LINE
  5
40C7
  8
CT
 10
25788.325556723921
 20
27791.368162558349
 30
0.0
 11
25620.771174723919
 21
27791.368162558349
 31
0.0
  0
LINE
  5
40C8
  8
FUTO
 10
25736.82561772392
 20
27771.368162558349
 30
0.0
 11
25706.82561772392
 21
27771.368162558349
 31
0.0
  0
LINE
  5
40C9
  8
FUTO
 10
25706.82561772392
 20
27811.368162558349
 30
0.0
 11
25736.82561772392
 21
27811.368162558349
 31
0.0
  0
LINE
  5
40CA
  8
FUTO
 10
25736.82561772392
 20
27771.368162558349
 30
0.0
 11
25736.82561772392
 21
27811.368162558349
 31
0.0
  0
LINE
  5
40CB
  8
FUTO
 10
25706.82561772392
 20
27771.368162558349
 30
0.0
 11
25706.82561772392
 21
27811.368162558349
 31
0.0
  0
ARC
  5
40CC
  8
FUTO
 10
26323.454706723918
 20
27998.36810155835
 30
0.0
 40
20.0
 50
0.000000000000007
 51
90.000000000000028
  0
ARC
  5
40CD
  8
FUTO
 10
26323.454706723918
 20
27874.368162558349
 30
0.0
 40
20.0
 50
270.0
 51
0.000000000000007
  0
ARC
  5
40CE
  8
FUTO
 10
26333.454706723918
 20
27857.368162558349
 30
0.0
 40
10.0
 50
270.0
 51
0.000000000000007
  0
ARC
  5
40CF
  8
FUTO
 10
26333.454706723918
 20
28015.36810155835
 30
0.0
 40
10.0
 50
0.000000000000007
 51
90.000000000000028
  0
ARC
  5
40D0
  8
FUTO
 10
26230.597981825031
 20
27857.368162558349
 30
0.0
 40
10.0
 50
180.0
 51
270.0
  0
ARC
  5
40D1
  8
FUTO
 10
26233.765097363361
 20
27857.368162558349
 30
0.0
 40
10.0
 50
180.0
 51
270.0
  0
ARC
  5
40D2
  8
FUTO
 10
26230.597981825031
 20
28015.36810155835
 30
0.0
 40
10.0
 50
90.000000000000028
 51
180.0
  0
ARC
  5
40D3
  8
FUTO
 10
26233.765097363361
 20
28015.36810155835
 30
0.0
 40
10.0
 50
90.000000000000028
 51
180.0
  0
LINE
  5
40D4
  8
FUTO
 10
26230.96170064282
 20
27854.368162558349
 30
0.0
 11
26323.454706723918
 21
27854.368162558349
 31
0.0
  0
LINE
  5
40D5
  8
FUTO
 10
26230.96170064282
 20
28018.36810155835
 30
0.0
 11
26323.454706723918
 21
28018.36810155835
 31
0.0
  0
ARC
  5
40D6
  8
FUTO
 10
26216.825556723921
 20
27859.368162558349
 30
0.0
 40
5.0
 50
180.0
 51
270.0
  0
ARC
  5
40D7
  8
FUTO
 10
26216.825556723921
 20
28013.36810155835
 30
0.0
 40
5.0
 50
90.000000000000028
 51
180.0
  0
ARC
  5
40D8
  8
FUTO
 10
26230.96170064282
 20
27859.368162558349
 30
0.0
 40
5.0
 50
180.0
 51
270.0
  0
ARC
  5
40D9
  8
FUTO
 10
26230.96170064282
 20
28013.36810155835
 30
0.0
 40
5.0
 50
90.000000000000028
 51
180.0
  0
LINE
  5
40DA
  8
FUTO
 10
26230.597981825031
 20
27847.368162558349
 30
0.0
 11
26333.454706723918
 21
27847.368162558349
 31
0.0
  0
LINE
  5
40DB
  8
FUTO
 10
26216.825556723921
 20
27854.368162558349
 30
0.0
 11
26220.597981825031
 21
27854.368162558349
 31
0.0
  0
LINE
  5
40DC
  8
FUTO
 10
26230.597981825031
 20
28025.36810155835
 30
0.0
 11
26333.454706723918
 21
28025.36810155835
 31
0.0
  0
LINE
  5
40DD
  8
FUTO
 10
26216.825556723921
 20
28018.36810155835
 30
0.0
 11
26220.597981825031
 21
28018.36810155835
 31
0.0
  0
LINE
  5
40DE
  8
FUTO
 10
26195.325556723921
 20
27996.368162558349
 30
0.0
 11
26195.325556723921
 21
28103.17893330739
 31
0.0
  0
LINE
  5
40DF
  8
FUTO
 10
26211.825556723921
 20
27876.368162558349
 30
0.0
 11
26144.099159163739
 21
27876.368162558349
 31
0.0
  0
LINE
  5
40E0
  8
FUTO
 10
26211.825556723921
 20
27996.368162558349
 30
0.0
 11
26144.099159163739
 21
27996.368162558349
 31
0.0
  0
LINE
  5
40E1
  8
FUTO
 10
26302.144892723922
 20
27874.368162558349
 30
0.0
 11
26302.144892723922
 21
27998.36810155835
 31
0.0
  0
LINE
  5
40E2
  8
FUTO
 10
26225.96170064282
 20
27859.368162558349
 30
0.0
 11
26225.96170064282
 21
28013.36810155835
 31
0.0
  0
LINE
  5
40E3
  8
FUTO
 10
26223.765097363361
 20
27857.368162558349
 30
0.0
 11
26223.765097363361
 21
28015.36810155835
 31
0.0
  0
LINE
  5
40E4
  8
FUTO
 10
26220.597981825031
 20
27857.368162558349
 30
0.0
 11
26220.597981825031
 21
28015.36810155835
 31
0.0
  0
LINE
  5
40E5
  8
FUTO
 10
26211.825556723921
 20
27859.368162558349
 30
0.0
 11
26211.825556723921
 21
28013.36810155835
 31
0.0
  0
LINE
  5
40E6
  8
FUTO
 10
26201.825556723921
 20
27876.368162558349
 30
0.0
 11
26201.825556723921
 21
27996.368162558349
 31
0.0
  0
LINE
  5
40E7
  8
FUTO
 10
26144.099159163739
 20
27876.368162558349
 30
0.0
 11
26144.099159163739
 21
27996.368162558349
 31
0.0
  0
LINE
  5
40E8
  8
FUTO
 10
26343.454706723918
 20
27857.368162558349
 30
0.0
 11
26343.454706723918
 21
28015.36810155835
 31
0.0
  0
LINE
  5
40E9
  8
FUTO
 10
25998.075556723921
 20
27912.618162558349
 30
0.0
 11
25998.075556723921
 21
27960.118162558349
 31
0.0
  0
ARC
  5
40EA
  8
FUTO
 10
25991.825556723921
 20
27912.618162558349
 30
0.0
 40
6.25
 50
180.0
 51
0.000000000000007
  0
ARC
  5
40EB
  8
FUTO
 10
25991.825556723921
 20
27960.118162558349
 30
0.0
 40
6.25
 50
0.000000000000007
 51
180.0
  0
LINE
  5
40EC
  8
CT
 10
26363.454706723918
 20
27936.368162558349
 30
0.0
 11
25711.82561772392
 21
27936.368162558349
 31
0.0
  0
LINE
  5
40ED
  8
FUTO
 10
25985.575556723921
 20
27912.618162558349
 30
0.0
 11
25985.575556723921
 21
27960.118162558349
 31
0.0
  0
LINE
  5
40EE
  8
FUTO
 10
26195.325556723921
 20
28103.17893330739
 30
0.0
 11
26193.50377972392
 21
28105.36810155835
 31
0.0
  0
LINE
  5
40EF
  8
FUTO
 10
26195.325556723921
 20
27769.557249558351
 30
0.0
 11
26188.825556723921
 21
27761.74633655835
 31
0.0
  0
LINE
  5
40F0
  8
FUTO
 10
26195.325556723921
 20
27769.557249558351
 30
0.0
 11
26195.325556723921
 21
27876.368162558349
 31
0.0
  0
LINE
  5
40F1
  8
FUTO
 10
25788.325556723921
 20
27769.557249558351
 30
0.0
 11
25788.325556723921
 21
28103.17893330739
 31
0.0
  0
ARC
  5
40F2
  8
FUTO
 10
26069.825556723921
 20
27662.868162558349
 30
0.0
 40
2.0
 50
270.0
 51
0.000000000000007
  0
ARC
  5
40F3
  8
FUTO
 10
26074.825556723921
 20
27673.021238558351
 30
0.0
 40
2.9999599999999988
 50
92.999557000034059
 51
180.0
  0
LINE
  5
40F4
  8
FUTO
 10
26071.825556723921
 20
27673.021238558351
 30
0.0
 11
26071.825556723921
 21
27662.868162558349
 31
0.0
  0
ARC
  5
40F5
  8
FUTO
 10
26170.921504723919
 20
27716.653807558348
 30
0.0
 40
9.9999679999999991
 50
315.0
 51
358.00067100000211
  0
ARC
  5
40F6
  8
FUTO
 10
26143.92834072392
 20
27689.660642558349
 30
0.0
 40
10.000024
 50
272.99903899993512
 51
315.0
  0
LINE
  5
40F7
  8
FUTO
 10
26177.99254972392
 20
27709.582762558352
 30
0.0
 11
26150.99938472392
 21
27682.589598558348
 31
0.0
  0
LINE
  5
40F8
  8
FUTO
 10
26181.825556723921
 20
27742.368162558349
 30
0.0
 11
26180.915400723919
 21
27716.304930558352
 31
0.0
  0
LINE
  5
40F9
  8
FUTO
 10
26144.451533723921
 20
27679.67431455836
 30
0.0
 11
26055.860224723921
 21
27675.031492558352
 31
0.0
  0
LINE
  5
40FA
  8
FUTO
 10
26153.825556723921
 20
27752.368162558349
 30
0.0
 11
25829.825556723921
 21
27752.368162558349
 31
0.0
  0
LINE
  5
40FB
  8
FUTO
 10
26153.825556723921
 20
27742.368162558349
 30
0.0
 11
26153.825556723921
 21
27747.368162558349
 31
0.0
  0
LINE
  5
40FC
  8
FUTO
 10
26153.825556723921
 20
27747.368162558349
 30
0.0
 11
26153.825556723921
 21
27752.368162558349
 31
0.0
  0
LINE
  5
40FD
  8
FUTO
 10
26188.825556723921
 20
27761.74633655835
 30
0.0
 11
26153.825556723921
 21
27752.368162558349
 31
0.0
  0
ARC
  5
40FE
  8
FUTO
 10
26175.325556723921
 20
28151.841490558349
 30
0.0
 40
20.0
 50
0.000000000000007
 51
20.000046000008609
  0
ARC
  5
40FF
  8
FUTO
 10
26204.325556723921
 20
28189.116880558351
 30
0.0
 40
20.0
 50
180.0
 51
199.9997250000032
  0
LINE
  5
4100
  8
FUTO
 10
26139.474482723919
 20
28133.86810155835
 30
0.0
 11
26143.227412723922
 21
28140.36810155835
 31
0.0
  0
LINE
  5
4101
  8
FUTO
 10
26143.227412723922
 20
28140.36810155835
 30
0.0
 11
26139.474482723919
 21
28146.86810155835
 31
0.0
  0
LINE
  5
4102
  8
FUTO
 10
26194.119502723919
 20
28158.681944558361
 30
0.0
 11
26185.53161172392
 21
28182.276548558351
 31
0.0
  0
LINE
  5
4103
  8
FUTO
 10
26195.325556723921
 20
28105.36810155835
 30
0.0
 11
26195.325556723921
 21
28151.841490558349
 31
0.0
  0
LINE
  5
4104
  8
FUTO
 10
26128.216181723921
 20
28140.36810155835
 30
0.0
 11
26131.96911172392
 21
28146.86810155835
 31
0.0
  0
LINE
  5
4105
  8
FUTO
 10
26131.96911172392
 20
28133.86810155835
 30
0.0
 11
26128.216181723921
 21
28140.36810155835
 31
0.0
  0
LINE
  5
4106
  8
CT
 10
26135.72179772392
 20
28132.925962558351
 30
0.0
 11
26135.72179772392
 21
28147.38201755835
 31
0.0
  0
LINE
  5
4107
  8
CT
 10
26127.33117272392
 20
28140.36810155835
 30
0.0
 11
26144.152705723918
 21
28140.36810155835
 31
0.0
  0
LINE
  5
4108
  8
FUTO
 10
26131.96911172392
 20
28146.86810155835
 30
0.0
 11
26139.474482723919
 21
28146.86810155835
 31
0.0
  0
LINE
  5
4109
  8
FUTO
 10
26131.96911172392
 20
28133.86810155835
 30
0.0
 11
26139.474482723919
 21
28133.86810155835
 31
0.0
  0
CIRCLE
  5
410A
  8
FUTO
 10
26135.72179772392
 20
28140.36810155835
 30
0.0
 40
6.5
  0
ARC
  5
410B
  8
FUTO
 10
26169.325556723921
 20
28250.057188558349
 30
0.0
 40
15.0
 50
0.000000000000007
 51
29.999816999981821
  0
ARC
  5
410C
  8
FUTO
 10
26148.93883872392
 20
28305.36810155835
 30
0.0
 40
4.9999580000000003
 50
30.000281999972739
 51
90.000000000000028
  0
LINE
  5
410D
  8
FUTO
 10
26153.268916723919
 20
28307.86810155835
 30
0.0
 11
26182.316035723921
 21
28257.557188558349
 31
0.0
  0
LINE
  5
410E
  8
FUTO
 10
26184.325556723921
 20
28189.116880558351
 30
0.0
 11
26184.325556723921
 21
28250.057188558349
 31
0.0
  0
LINE
  5
410F
  8
FUTO
 10
25799.325556723921
 20
28189.116880558351
 30
0.0
 11
25799.325556723921
 21
28250.057188558349
 31
0.0
  0
LINE
  5
4110
  8
CT
 10
25991.825556723921
 20
27490.868162558349
 30
0.0
 11
25991.825556723921
 21
28330.368162558349
 31
0.0
  0
LINE
  5
4111
  8
FUTO
 10
25834.175592723921
 20
28310.368162558349
 30
0.0
 11
26148.965906723919
 21
28310.368162558349
 31
0.0
  0
LINE
  5
4112
  8
FUTO
 10
26184.325556723921
 20
28251.268125558348
 30
0.0
 11
25799.374628723919
 21
28251.268125558348
 31
0.0
  0
LINE
  5
4113
  8
FUTO
 10
25830.38219672392
 20
28307.86810155835
 30
0.0
 11
25801.335077723921
 21
28257.557188558349
 31
0.0
  0
ARC
  5
4114
  8
FUTO
 10
25834.712274723919
 20
28305.36810155835
 30
0.0
 40
4.9999580000000003
 50
90.000000000000028
 51
149.9997180000272
  0
ARC
  5
4115
  8
FUTO
 10
25814.325556723921
 20
28250.057188558349
 30
0.0
 40
15.0
 50
150.00018300001821
 51
180.0
  0
LINE
  5
4116
  8
FUTO
 10
26069.825556723921
 20
27660.868162558349
 30
0.0
 11
25991.825556723921
 21
27660.868162558349
 31
0.0
  0
LINE
  5
4117
  8
FUTO
 10
26181.825556723921
 20
27742.368162558349
 30
0.0
 11
25991.825556723921
 21
27742.368162558349
 31
0.0
  0
LINE
  5
4118
  8
FUTO
 10
26153.825556723921
 20
27747.368162558349
 30
0.0
 11
25991.825556723921
 21
27747.368162558349
 31
0.0
  0
LINE
  5
4119
  8
FUTO
 10
25799.00817372392
 20
28185.568052558348
 30
0.0
 11
26184.325556723921
 21
28185.568052558348
 31
0.0
  0
LINE
  5
411A
  8
FUTO
 10
25788.639032723921
 20
28155.36810155835
 30
0.0
 11
26195.012176922792
 21
28155.36810155835
 31
0.0
  0
LINE
  5
411B
  8
FUTO
 10
25788.325556723921
 20
28105.36810155835
 30
0.0
 11
26193.50377972392
 21
28105.36810155835
 31
0.0
  0
LINE
  5
411C
  8
FUTO
 10
26153.825556723921
 20
27747.368162558349
 30
0.0
 11
25991.825556723921
 21
27747.368162558349
 31
0.0
  0
CIRCLE
  5
411D
  8
FUTO
 10
25847.929315723919
 20
28140.36810155835
 30
0.0
 40
6.5
  0
LINE
  5
411E
  8
FUTO
 10
25851.682001723919
 20
28133.86810155835
 30
0.0
 11
25844.17663072392
 21
28133.86810155835
 31
0.0
  0
LINE
  5
411F
  8
FUTO
 10
25851.682001723919
 20
28146.86810155835
 30
0.0
 11
25844.17663072392
 21
28146.86810155835
 31
0.0
  0
LINE
  5
4120
  8
CT
 10
25856.319940723919
 20
28140.36810155835
 30
0.0
 11
25839.498407723921
 21
28140.36810155835
 31
0.0
  0
LINE
  5
4121
  8
CT
 10
25847.929315723919
 20
28132.925962558351
 30
0.0
 11
25847.929315723919
 21
28147.38201755835
 31
0.0
  0
LINE
  5
4122
  8
FUTO
 10
25851.682001723919
 20
28133.86810155835
 30
0.0
 11
25855.434931723921
 21
28140.36810155835
 31
0.0
  0
LINE
  5
4123
  8
FUTO
 10
25855.434931723921
 20
28140.36810155835
 30
0.0
 11
25851.682001723919
 21
28146.86810155835
 31
0.0
  0
LINE
  5
4124
  8
FUTO
 10
25788.325556723921
 20
28105.36810155835
 30
0.0
 11
25788.325556723921
 21
28151.841490558349
 31
0.0
  0
LINE
  5
4125
  8
FUTO
 10
25789.53161072392
 20
28158.681944558361
 30
0.0
 11
25798.119501723919
 21
28182.276548558351
 31
0.0
  0
LINE
  5
4126
  8
FUTO
 10
25840.423700723921
 20
28140.36810155835
 30
0.0
 11
25844.17663072392
 21
28146.86810155835
 31
0.0
  0
LINE
  5
4127
  8
FUTO
 10
25844.17663072392
 20
28133.86810155835
 30
0.0
 11
25840.423700723921
 21
28140.36810155835
 31
0.0
  0
ARC
  5
4128
  8
FUTO
 10
25779.325556723921
 20
28189.116880558351
 30
0.0
 40
20.0
 50
340.0002749999968
 51
0.000000000000007
  0
ARC
  5
4129
  8
FUTO
 10
25808.325556723921
 20
28151.841490558349
 30
0.0
 40
20.0
 50
159.99995399999131
 51
180.0
  0
LINE
  5
412A
  8
FUTO
 10
25788.325556723921
 20
28103.17893330739
 30
0.0
 11
25790.147333723919
 21
28105.36810155835
 31
0.0
  0
LINE
  5
412B
  8
FUTO
 10
25829.825556723921
 20
27747.368162558349
 30
0.0
 11
25991.825556723921
 21
27747.368162558349
 31
0.0
  0
LINE
  5
412C
  8
FUTO
 10
25839.199579723921
 20
27679.67431455836
 30
0.0
 11
25927.790888723921
 21
27675.031492558352
 31
0.0
  0
LINE
  5
412D
  8
FUTO
 10
25801.825556723921
 20
27742.368162558349
 30
0.0
 11
25991.825556723921
 21
27742.368162558349
 31
0.0
  0
LINE
  5
412E
  8
FUTO
 10
25829.825556723921
 20
27747.368162558349
 30
0.0
 11
25991.825556723921
 21
27747.368162558349
 31
0.0
  0
LINE
  5
412F
  8
FUTO
 10
26021.825556723921
 20
27650.868162558349
 30
0.0
 11
26021.825556723921
 21
27510.868162558349
 31
0.0
  0
LINE
  5
4130
  8
FUTO
 10
25961.825556723921
 20
27650.868162558349
 30
0.0
 11
25961.825556723921
 21
27510.868162558349
 31
0.0
  0
LINE
  5
4131
  8
FUTO
 10
25913.825556723921
 20
27660.868162558349
 30
0.0
 11
25991.825556723921
 21
27660.868162558349
 31
0.0
  0
LINE
  5
4132
  8
FUTO
 10
26024.325556723921
 20
27650.868162558349
 30
0.0
 11
25959.325556723921
 21
27650.868162558349
 31
0.0
  0
LINE
  5
4133
  8
FUTO
 10
26024.325556723921
 20
27650.868162558349
 30
0.0
 11
26024.325556723921
 21
27660.868162558349
 31
0.0
  0
LINE
  5
4134
  8
FUTO
 10
25959.325556723921
 20
27650.868162558349
 30
0.0
 11
25959.325556723921
 21
27660.868162558349
 31
0.0
  0
LINE
  5
4135
  8
FUTO
 10
25911.825556723921
 20
27673.021238558351
 30
0.0
 11
25911.825556723921
 21
27662.868162558349
 31
0.0
  0
ARC
  5
4136
  8
FUTO
 10
25908.825556723921
 20
27673.021238558351
 30
0.0
 40
2.9999599999999988
 50
0.000000000000007
 51
87.000442999965941
  0
ARC
  5
4137
  8
FUTO
 10
25913.825556723921
 20
27662.868162558349
 30
0.0
 40
2.0
 50
180.0
 51
270.0
  0
LINE
  5
4138
  8
FUTO
 10
25961.825556723921
 20
27510.868162558349
 30
0.0
 11
26021.825556723921
 21
27510.868162558349
 31
0.0
  0
LINE
  5
4139
  8
FUTO
 10
25788.325556723921
 20
27769.557249558351
 30
0.0
 11
25794.825556723921
 21
27761.74633655835
 31
0.0
  0
LINE
  5
413A
  8
FUTO
 10
25801.825556723921
 20
27742.368162558349
 30
0.0
 11
25802.735712723919
 21
27716.304930558352
 31
0.0
  0
LINE
  5
413B
  8
FUTO
 10
25794.825556723921
 20
27761.74633655835
 30
0.0
 11
25829.825556723921
 21
27752.368162558349
 31
0.0
  0
LINE
  5
413C
  8
FUTO
 10
25829.825556723921
 20
27747.368162558349
 30
0.0
 11
25829.825556723921
 21
27752.368162558349
 31
0.0
  0
LINE
  5
413D
  8
FUTO
 10
25829.825556723921
 20
27742.368162558349
 30
0.0
 11
25829.825556723921
 21
27747.368162558349
 31
0.0
  0
LINE
  5
413E
  8
FUTO
 10
25805.658563723919
 20
27709.582762558352
 30
0.0
 11
25832.651728723918
 21
27682.589598558348
 31
0.0
  0
ARC
  5
413F
  8
FUTO
 10
25839.722772723919
 20
27689.660642558349
 30
0.0
 40
10.000024
 50
225.0
 51
267.00096100006488
  0
ARC
  5
4140
  8
FUTO
 10
25812.729608723919
 20
27716.653807558348
 30
0.0
 40
9.9999679999999991
 50
181.99932899999791
 51
225.0
  0
LINE
  5
4142
  8
FUTO
 10
28245.58947683825
 20
24212.16802583672
 30
0.0
 11
28260.268907762558
 21
24212.16802583672
 31
0.0
  0
LINE
  5
4143
  8
FUTO
 10
28248.268968762561
 20
24192.16802583672
 30
0.0
 11
28283.268968762561
 21
24192.16802583672
 31
0.0
  0
LINE
  5
4144
  8
FUTO
 10
27920.948460686868
 20
24212.16802583672
 30
0.0
 11
27906.268968762561
 21
24212.16802583672
 31
0.0
  0
LINE
  5
4145
  8
FUTO
 10
27918.268968762561
 20
24192.16802583672
 30
0.0
 11
27883.268968762561
 21
24192.16802583672
 31
0.0
  0
LINE
  5
4147
  8
FUTO
 10
27983.268968762561
 20
24187.16802583672
 30
0.0
 11
27983.268968762561
 21
24192.16802583672
 31
0.0
  0
LINE
  5
4148
  8
FUTO
 10
28183.268968762561
 20
24192.16802583672
 30
0.0
 11
28183.268968762561
 21
24187.16802583672
 31
0.0
  0
LINE
  5
4153
  8
FUTO
 10
27938.268968762561
 20
24220.64361183672
 30
0.0
 11
27922.268968762561
 21
24211.406307836722
 31
0.0
  0
LINE
  5
4154
  8
FUTO
 10
27954.268968762561
 20
24211.406307836722
 30
0.0
 11
27938.268968762561
 21
24220.64361183672
 31
0.0
  0
LINE
  5
4155
  8
FUTO
 10
27938.268968762561
 20
24183.693416836719
 30
0.0
 11
27922.268968762561
 21
24192.930721836721
 31
0.0
  0
LINE
  5
4156
  8
FUTO
 10
27954.268968762561
 20
24192.930721836721
 30
0.0
 11
27938.268968762561
 21
24183.693416836719
 31
0.0
  0
LINE
  5
4157
  8
CT
 10
27908.268968762561
 20
24202.16802583672
 30
0.0
 11
27968.268968762561
 21
24202.16802583672
 31
0.0
  0
CIRCLE
  5
4158
  8
FUTO
 10
27938.268968762561
 20
24202.16802583672
 30
0.0
 40
16.0
  0
LINE
  5
4159
  8
FUTO
 10
27954.268968762561
 20
24192.930721836721
 30
0.0
 11
27954.268968762561
 21
24211.406307836722
 31
0.0
  0
LINE
  5
415A
  8
FUTO
 10
27922.268968762561
 20
24192.930721836721
 30
0.0
 11
27922.268968762561
 21
24211.406307836722
 31
0.0
  0
ARC
  5
415B
  8
FUTO
 10
27938.268968762561
 20
24202.16802583672
 30
0.0
 40
20.0
 50
0.000000000000007
 51
180.0
  0
ARC
  5
415C
  8
FUTO
 10
27831.268968762561
 20
24159.16802583672
 30
0.0
 40
3.0
 50
90.0
 51
180.0
  0
LINE
  5
415D
  8
FUTO
 10
27880.143968762561
 20
24162.16802583672
 30
0.0
 11
27831.268968762561
 21
24162.16802583672
 31
0.0
  0
LINE
  5
415E
  8
FUTO
 10
27885.268968762561
 20
24132.16802583672
 30
0.0
 11
27885.268968762561
 21
24137.16802583672
 31
0.0
  0
LINE
  5
415F
  8
FUTO
 10
27875.268968762561
 20
24144.16802583672
 30
0.0
 11
27875.268968762561
 21
24137.16802583672
 31
0.0
  0
LINE
  5
4160
  8
FUTO
 10
27885.268968762561
 20
24132.16802583672
 30
0.0
 11
27828.268968762561
 21
24132.16802583672
 31
0.0
  0
LINE
  5
4161
  8
FUTO
 10
27828.268968762561
 20
24132.16802583672
 30
0.0
 11
27828.268968762561
 21
24159.16802583672
 31
0.0
  0
LINE
  5
4162
  8
CT
 10
27853.268968762561
 20
24182.16802583672
 30
0.0
 11
27853.268968762561
 21
24112.16802583672
 31
0.0
  0
LINE
  5
4163
  8
FUTO
 10
27875.268968762561
 20
24144.16802583672
 30
0.0
 11
27918.268968762561
 21
24144.16802583672
 31
0.0
  0
LINE
  5
4164
  8
FUTO
 10
27883.268968762561
 20
24192.16802583672
 30
0.0
 11
27878.268968762561
 21
24144.16802583672
 31
0.0
  0
LINE
  5
4165
  8
FUTO
 10
27958.268968762561
 20
24202.16802583672
 30
0.0
 11
27958.268968762561
 21
24137.16802583672
 31
0.0
  0
LINE
  5
4166
  8
FUTO
 10
27918.268968762561
 20
24137.16802583672
 30
0.0
 11
27918.268968762561
 21
24202.16802583672
 31
0.0
  0
LINE
  5
4167
  8
CT
 10
27938.268968762561
 20
24127.16802583672
 30
0.0
 11
27938.268968762561
 21
24232.16802583672
 31
0.0
  0
LINE
  5
4168
  8
FUTO
 10
28212.268968762561
 20
24211.406307836722
 30
0.0
 11
28228.268968762561
 21
24220.64361183672
 31
0.0
  0
LINE
  5
4169
  8
FUTO
 10
28212.268968762561
 20
24192.930721836721
 30
0.0
 11
28228.268968762561
 21
24183.693416836719
 31
0.0
  0
LINE
  5
416A
  8
FUTO
 10
28212.268968762561
 20
24192.930721836721
 30
0.0
 11
28212.268968762561
 21
24211.406307836722
 31
0.0
  0
LINE
  5
416B
  8
FUTO
 10
28244.268968762561
 20
24192.930721836721
 30
0.0
 11
28244.268968762561
 21
24211.406307836722
 31
0.0
  0
CIRCLE
  5
416C
  8
FUTO
 10
28228.268968762561
 20
24202.16802583672
 30
0.0
 40
16.0
  0
LINE
  5
416D
  8
FUTO
 10
28228.268968762561
 20
24220.64361183672
 30
0.0
 11
28244.268968762561
 21
24211.406307836722
 31
0.0
  0
LINE
  5
416E
  8
FUTO
 10
28228.268968762561
 20
24183.693416836719
 30
0.0
 11
28244.268968762561
 21
24192.930721836721
 31
0.0
  0
ARC
  5
416F
  8
FUTO
 10
28228.268968762561
 20
24202.16802583672
 30
0.0
 40
20.0
 50
0.000000000000007
 51
180.0
  0
LINE
  5
4170
  8
CT
 10
28258.268968762561
 20
24202.16802583672
 30
0.0
 11
28198.268968762561
 21
24202.16802583672
 31
0.0
  0
LINE
  5
4171
  8
FUTO
 10
27983.268968762561
 20
24187.16802583672
 30
0.0
 11
28183.268968762561
 21
24187.16802583672
 31
0.0
  0
LINE
  5
4172
  8
FUTO
 10
28281.268968762561
 20
24132.16802583672
 30
0.0
 11
28281.268968762561
 21
24137.16802583672
 31
0.0
  0
LINE
  5
4173
  8
FUTO
 10
28291.268968762561
 20
24144.16802583672
 30
0.0
 11
28291.268968762561
 21
24137.16802583672
 31
0.0
  0
LINE
  5
4174
  8
FUTO
 10
28291.268968762561
 20
24144.16802583672
 30
0.0
 11
28248.268968762561
 21
24144.16802583672
 31
0.0
  0
LINE
  5
4175
  8
CT
 10
28313.268968762561
 20
24182.16802583672
 30
0.0
 11
28313.268968762561
 21
24112.16802583672
 31
0.0
  0
ARC
  5
4176
  8
FUTO
 10
28335.268968762561
 20
24159.16802583672
 30
0.0
 40
3.0
 50
0.000000000000007
 51
90.0
  0
LINE
  5
4177
  8
FUTO
 10
28338.268968762561
 20
24132.16802583672
 30
0.0
 11
28338.268968762561
 21
24159.16802583672
 31
0.0
  0
LINE
  5
4178
  8
FUTO
 10
28286.393968762561
 20
24162.16802583672
 30
0.0
 11
28335.268968762561
 21
24162.16802583672
 31
0.0
  0
LINE
  5
4179
  8
FUTO
 10
28281.268968762561
 20
24132.16802583672
 30
0.0
 11
28338.268968762561
 21
24132.16802583672
 31
0.0
  0
LINE
  5
417A
  8
FUTO
 10
28283.268968762561
 20
24192.16802583672
 30
0.0
 11
28288.268968762561
 21
24144.16802583672
 31
0.0
  0
LINE
  5
417B
  8
FUTO
 10
28208.268968762561
 20
24202.16802583672
 30
0.0
 11
28208.268968762561
 21
24137.16802583672
 31
0.0
  0
LINE
  5
417C
  8
FUTO
 10
28248.268968762561
 20
24137.16802583672
 30
0.0
 11
28248.268968762561
 21
24202.16802583672
 31
0.0
  0
LINE
  5
417D
  8
CT
 10
28228.268968762561
 20
24127.16802583672
 30
0.0
 11
28228.268968762561
 21
24232.16802583672
 31
0.0
  0
LINE
  5
41CF
  8
FUTO
 10
27958.268968762561
 20
24144.16802583672
 30
0.0
 11
28208.268968762561
 21
24144.16802583672
 31
0.0
  0
LINE
  5
41D0
  8
FUTO
 10
27875.268968762561
 20
24137.16802583672
 30
0.0
 11
28291.268968762561
 21
24137.16802583672
 31
0.0
  0
LINE
  5
41D1
  8
FUTO
 10
27899.268968762561
 20
24554.16802583672
 30
0.0
 11
27899.268968762561
 21
24517.16802583672
 31
0.0
  0
ARC
  5
41D2
  8
FUTO
 10
27863.554613762561
 20
24571.263973836722
 30
0.0
 40
9.9999679999999991
 50
91.999328999997914
 51
135.0
  0
ARC
  5
41D3
  8
FUTO
 10
27836.561448762561
 20
24544.270809836718
 30
0.0
 40
10.000024
 50
135.0
 51
177.00096100006479
  0
LINE
  5
41D4
  8
FUTO
 10
27856.48356876256
 20
24578.335018836719
 30
0.0
 11
27829.490404762561
 21
24551.341853836719
 31
0.0
  0
LINE
  5
41D5
  8
FUTO
 10
27889.268968762561
 20
24554.16802583672
 30
0.0
 11
27894.268968762561
 21
24554.16802583672
 31
0.0
  0
LINE
  5
41D6
  8
FUTO
 10
27894.268968762561
 20
24554.16802583672
 30
0.0
 11
27899.268968762561
 21
24554.16802583672
 31
0.0
  0
LINE
  5
41D7
  8
FUTO
 10
27908.647142762558
 20
24589.16802583672
 30
0.0
 11
27899.268968762561
 21
24554.16802583672
 31
0.0
  0
LINE
  5
41D8
  8
FUTO
 10
27889.268968762561
 20
24582.16802583672
 30
0.0
 11
27863.20573676256
 21
24581.257869836722
 31
0.0
  0
LINE
  5
41DA
  8
FUTO
 10
27924.268968762561
 20
24602.16802583672
 30
0.0
 11
27908.647142762558
 21
24589.16802583672
 31
0.0
  0
LINE
  5
41DB
  8
FUTO
 10
27657.768968762561
 20
24426.16802583672
 30
0.0
 11
27657.768968762561
 21
24362.16802583672
 31
0.0
  0
ARC
  5
41DC
  8
FUTO
 10
27809.768968762561
 20
24470.16802583672
 30
0.0
 40
2.0
 50
90.0
 51
180.0
  0
ARC
  5
41EB
  8
FUTO
 10
27909.268968762561
 20
24517.16802583672
 30
0.0
 40
10.0
 50
90.0
 51
180.0
  0
ARC
  5
41EE
  8
FUTO
 10
27819.922044762559
 20
24475.16802583672
 30
0.0
 40
2.9999599999999988
 50
270.0
 51
357.00044299996591
  0
LINE
  5
41EF
  8
FUTO
 10
27819.922044762559
 20
24472.16802583672
 30
0.0
 11
27809.768968762561
 21
24472.16802583672
 31
0.0
  0
LINE
  5
41F0
  8
FUTO
 10
27767.768968762561
 20
24426.16802583672
 30
0.0
 11
27767.768968762561
 21
24422.16802583672
 31
0.0
  0
LINE
  5
41F1
  8
FUTO
 10
27797.768968762561
 20
24424.66802583672
 30
0.0
 11
27807.768968762561
 21
24424.66802583672
 31
0.0
  0
LINE
  5
41F2
  8
FUTO
 10
27797.768968762561
 20
24359.66802583672
 30
0.0
 11
27807.768968762561
 21
24359.66802583672
 31
0.0
  0
LINE
  5
41F3
  8
FUTO
 10
27797.768968762561
 20
24359.66802583672
 30
0.0
 11
27797.768968762561
 21
24424.66802583672
 31
0.0
  0
ARC
  5
41F4
  8
FUTO
 10
27909.268968762561
 20
24417.16802583672
 30
0.0
 40
10.0
 50
180.0
 51
270.0
  0
LINE
  5
41F5
  8
FUTO
 10
27807.768968762561
 20
24470.16802583672
 30
0.0
 11
27807.768968762561
 21
24392.16802583672
 31
0.0
  0
LINE
  5
41F6
  8
FUTO
 10
27899.268968762561
 20
24417.16802583672
 30
0.0
 11
27899.268968762561
 21
24517.16802583672
 31
0.0
  0
LINE
  5
41F7
  8
FUTO
 10
27797.768968762561
 20
24422.16802583672
 30
0.0
 11
27657.768968762561
 21
24422.16802583672
 31
0.0
  0
LINE
  5
41F8
  8
FUTO
 10
27797.768968762561
 20
24362.16802583672
 30
0.0
 11
27657.768968762561
 21
24362.16802583672
 31
0.0
  0
LINE
  5
41F9
  8
FUTO
 10
27767.768968762561
 20
24426.16802583672
 30
0.0
 11
27657.768968762561
 21
24426.16802583672
 31
0.0
  0
LINE
  5
41FA
  8
FUTO
 10
27894.268968762561
 20
24554.16802583672
 30
0.0
 11
27894.268968762561
 21
24392.16802583672
 31
0.0
  0
LINE
  5
41FB
  8
FUTO
 10
27889.268968762561
 20
24582.16802583672
 30
0.0
 11
27889.268968762561
 21
24392.16802583672
 31
0.0
  0
LINE
  5
41FC
  8
FUTO
 10
27826.575120762562
 20
24544.794002836719
 30
0.0
 11
27821.93229876256
 21
24456.20269383672
 31
0.0
  0
LINE
  5
41FE
  8
FUTO
 10
27894.268968762561
 20
24554.16802583672
 30
0.0
 11
27894.268968762561
 21
24392.16802583672
 31
0.0
  0
ARC
  5
41FF
  8
FUTO
 10
28072.033983762562
 20
24610.44713983672
 30
0.0
 40
2.9999909999999992
 50
96.115172999988943
 51
174.80557100002201
  0
LINE
  5
4200
  8
FUTO
 10
28069.046312762559
 20
24610.718746836719
 30
0.0
 11
28068.268968762561
 21
24602.16802583672
 31
0.0
  0
ARC
  5
4201
  8
FUTO
 10
28062.310594762559
 20
24602.89782383672
 30
0.0
 40
5.9999760000000002
 50
354.8055729999931
 51
54.396262999995557
  0
ARC
  5
4202
  8
FUTO
 10
28094.50395376256
 20
24610.44713983672
 30
0.0
 40
2.999981
 50
5.194427000006832
 51
83.884827000011072
  0
ARC
  5
4203
  8
FUTO
 10
28083.268968762561
 20
24632.16802583672
 30
0.0
 40
30.0
 50
305.19004800000442
 51
305.60386699997889
  0
LINE
  5
4204
  8
FUTO
 10
28083.268968762561
 20
24614.66802583672
 30
0.0
 11
28094.823533762559
 21
24613.430049836719
 31
0.0
  0
LINE
  5
4205
  8
FUTO
 10
28097.491624762559
 20
24610.718746836719
 30
0.0
 11
28098.268968762561
 21
24602.16802583672
 31
0.0
  0
ARC
  5
4206
  8
FUTO
 10
28104.227342762559
 20
24602.89782383672
 30
0.0
 40
5.9999820000000001
 50
125.6037370000044
 51
185.19442700000681
  0
LINE
  5
4207
  8
FUTO
 10
28083.268968762561
 20
24614.66802583672
 30
0.0
 11
28071.714403762559
 21
24613.430049836719
 31
0.0
  0
LINE
  5
4208
  8
FUTO
 10
28071.714403762559
 20
24613.430049836719
 30
0.0
 11
28094.823533762559
 21
24613.430049836719
 31
0.0
  0
LINE
  5
4209
  8
CT
 10
28123.268968762561
 20
24632.16802583672
 30
0.0
 11
28043.268968762561
 21
24632.16802583672
 31
0.0
  0
LINE
  5
420A
  8
FUTO
 10
28024.268968762561
 20
24541.16802583672
 30
0.0
 11
28142.268968762561
 21
24541.16802583672
 31
0.0
  0
CIRCLE
  5
420B
  8
FUTO
 10
28083.268968762561
 20
24632.16802583672
 30
0.0
 40
17.5
  0
ARC
  5
420C
  8
FUTO
 10
28083.268968762561
 20
24632.16802583672
 30
0.0
 40
30.0
 50
305.60386699997889
 51
234.39614899998969
  0
LINE
  5
420D
  8
FUTO
 10
28242.268907762558
 20
24602.16802583672
 30
0.0
 11
28252.268907762558
 21
24593.846248836719
 31
0.0
  0
ARC
  5
420E
  8
FUTO
 10
28298.742296762561
 20
24575.66802583672
 30
0.0
 40
20.0
 50
69.999953999991405
 51
90.0
  0
ARC
  5
420F
  8
FUTO
 10
28336.01768676256
 20
24604.66802583672
 30
0.0
 40
20.0
 50
250.0002749999968
 51
270.0
  0
LINE
  5
4212
  8
FUTO
 10
28305.582750762562
 20
24594.461971836721
 30
0.0
 11
28329.17735476256
 21
24585.874080836718
 31
0.0
  0
LINE
  5
4213
  8
FUTO
 10
28252.268907762558
 20
24595.66802583672
 30
0.0
 11
28298.742296762561
 21
24595.66802583672
 31
0.0
  0
LINE
  5
4214
  8
FUTO
 10
28242.268907762558
 20
24602.16802583672
 30
0.0
 11
28083.268968762561
 21
24602.16802583672
 31
0.0
  0
LINE
  5
4215
  8
FUTO
 10
28145.268907762558
 20
24534.16802583672
 30
0.0
 11
28021.268968762561
 21
24534.16802583672
 31
0.0
  0
ARC
  5
4216
  8
FUTO
 10
28021.268968762561
 20
24359.470271836719
 30
0.0
 40
20.0
 50
180.0
 51
270.0
  0
CIRCLE
  5
4217
  8
FUTO
 10
28083.268968762561
 20
24326.470271836719
 30
0.0
 40
3.5
  0
LINE
  5
4218
  8
FUTO
 10
28089.721849762562
 20
24326.470271836719
 30
0.0
 11
28075.132738762561
 21
24326.470271836719
 31
0.0
  0
LINE
  5
4219
  8
FUTO
 10
28021.268968762561
 20
24339.470271836719
 30
0.0
 11
28145.268968762561
 21
24339.470271836719
 31
0.0
  0
LINE
  5
421A
  8
FUTO
 10
28142.268907762558
 20
24319.470271836719
 30
0.0
 11
28024.268968762561
 21
24319.470271836719
 31
0.0
  0
LINE
  5
421B
  8
FUTO
 10
28001.268968762561
 20
24514.16802583672
 30
0.0
 11
28001.268968762561
 21
24359.470271836719
 31
0.0
  0
LINE
  5
421C
  8
FUTO
 10
27994.268968762561
 20
24511.16802583672
 30
0.0
 11
27994.268968762561
 21
24349.470271836719
 31
0.0
  0
LINE
  5
421D
  8
FUTO
 10
28252.268907762558
 20
24527.16802583672
 30
0.0
 11
28167.64610476256
 21
24527.16802583672
 31
0.0
  0
LINE
  5
4221
  8
FUTO
 10
28252.268907762558
 20
24407.16802583672
 30
0.0
 11
28172.268907762558
 21
24407.16802583672
 31
0.0
  0
LINE
  5
4222
  8
FUTO
 10
28165.268907762558
 20
24514.16802583672
 30
0.0
 11
28165.268907762558
 21
24359.470271836719
 31
0.0
  0
LINE
  5
4223
  8
FUTO
 10
28172.268907762558
 20
24511.16802583672
 30
0.0
 11
28172.268907762558
 21
24349.470271836719
 31
0.0
  0
ARC
  5
4224
  8
FUTO
 10
28145.268907762558
 20
24359.470271836719
 30
0.0
 40
20.0
 50
270.0
 51
0.000000000000007
  0
LINE
  5
4225
  8
CT
 10
28192.268907762558
 20
24467.16802583672
 30
0.0
 11
27974.268968762561
 21
24467.16802583672
 31
0.0
  0
ARC
  5
4226
  8
FUTO
 10
28145.268907762558
 20
24514.16802583672
 30
0.0
 40
20.0
 50
0.000000000000007
 51
90.0
  0
ARC
  5
4227
  8
FUTO
 10
28021.268968762561
 20
24514.16802583672
 30
0.0
 40
20.0
 50
90.0
 51
180.0
  0
ARC
  5
4228
  8
FUTO
 10
28024.268968762561
 20
24511.16802583672
 30
0.0
 40
30.0
 50
90.0
 51
180.0
  0
ARC
  5
4229
  8
FUTO
 10
28142.268907762558
 20
24511.16802583672
 30
0.0
 40
30.0
 50
0.000000000000007
 51
90.0
  0
LINE
  5
422E
  8
FUTO
 10
27924.268968762561
 20
24602.16802583672
 30
0.0
 11
28083.268968762561
 21
24602.16802583672
 31
0.0
  0
LINE
  5
422F
  8
FUTO
 10
27909.268968762561
 20
24527.16802583672
 30
0.0
 11
27998.891771762559
 21
24527.16802583672
 31
0.0
  0
LINE
  5
4230
  8
FUTO
 10
27909.268968762561
 20
24407.16802583672
 30
0.0
 11
27994.268968762561
 21
24407.16802583672
 31
0.0
  0
ARC
  5
4231
  8
FUTO
 10
27809.768968762561
 20
24314.16802583672
 30
0.0
 40
2.0
 50
180.0
 51
270.0
  0
ARC
  5
4232
  8
FUTO
 10
27819.922044762559
 20
24309.16802583672
 30
0.0
 40
3.0
 50
2.9995570000340721
 51
90.0
  0
ARC
  5
4233
  8
FUTO
 10
27834.618577762561
 20
24277.136287836722
 30
0.0
 40
10.000139999999989
 50
183.00042699998181
 51
225.00097700000649
  0
ARC
  5
4241
  8
FUTO
 10
27863.411058762558
 20
24248.343807836722
 30
0.0
 40
10.0
 50
225.0
 51
270.0
  0
ARC
  5
4242
  8
FUTO
 10
27836.561448762561
 20
24240.065242836721
 30
0.0
 40
9.9999679999999991
 50
182.9990539999759
 51
225.0
  0
LINE
  5
4243
  8
FUTO
 10
27899.268968762561
 20
24240.407283836721
 30
0.0
 11
27918.35759176256
 21
24240.407283836721
 31
0.0
  0
LINE
  5
4244
  8
FUTO
 10
27900.30485776256
 20
24230.16802583672
 30
0.0
 11
27894.268968762561
 21
24230.16802583672
 31
0.0
  0
LINE
  5
4245
  8
FUTO
 10
27889.268968762561
 20
24230.16802583672
 30
0.0
 11
27894.268968762561
 21
24230.16802583672
 31
0.0
  0
ARC
  5
4246
  8
FUTO
 10
27906.268968762561
 20
24209.16802583672
 30
0.0
 40
3.0
 50
90.0
 51
180.0
  0
ARC
  5
4247
  8
FUTO
 10
27913.35759176256
 20
24217.16802583672
 30
0.0
 40
5.0
 50
270.0
 51
0.000000000000007
  0
LINE
  5
4248
  8
FUTO
 10
27899.268968762561
 20
24233.294490836721
 30
0.0
 11
27901.827562762559
 21
24233.294490836721
 31
0.0
  0
LINE
  5
4249
  8
FUTO
 10
27906.268968762561
 20
24212.16802583672
 30
0.0
 11
27899.268968762561
 21
24233.294490836721
 31
0.0
  0
LINE
  5
424A
  8
FUTO
 10
27918.35759176256
 20
24217.16802583672
 30
0.0
 11
27918.35759176256
 21
24240.407283836721
 31
0.0
  0
LINE
  5
424B
  8
FUTO
 10
27909.42717176256
 20
24212.16802583672
 30
0.0
 11
27899.268968762561
 21
24240.407283836721
 31
0.0
  0
LINE
  5
424C
  8
FUTO
 10
27863.411058762558
 20
24238.343807836722
 30
0.0
 11
27889.268968762561
 21
24238.343807836722
 31
0.0
  0
LINE
  5
424E
  8
FUTO
 10
27822.90031676256
 20
24309.66326583672
 30
0.0
 11
27826.575120762562
 21
24239.54204983672
 31
0.0
  0
LINE
  5
4250
  8
FUTO
 10
27856.340013762561
 20
24241.272762836721
 30
0.0
 11
27827.547532762561
 21
24270.064998836719
 31
0.0
  0
LINE
  5
4253
  8
FUTO
 10
27819.922044762559
 20
24312.16802583672
 30
0.0
 11
27809.768968762561
 21
24312.16802583672
 31
0.0
  0
ARC
  5
4254
  8
FUTO
 10
27863.554613762561
 20
24213.072078836722
 30
0.0
 40
9.9999839999999995
 50
225.0
 51
268.00067100000211
  0
LINE
  5
4255
  8
FUTO
 10
27889.268968762561
 20
24202.16802583672
 30
0.0
 11
27863.20573676256
 21
24203.078182836722
 31
0.0
  0
LINE
  5
4256
  8
FUTO
 10
27903.268968762561
 20
24192.16802583672
 30
0.0
 11
27903.268968762561
 21
24209.16802583672
 31
0.0
  0
LINE
  5
4257
  8
FUTO
 10
27856.48356876256
 20
24206.001033836721
 30
0.0
 11
27829.490404762561
 21
24232.994197836721
 31
0.0
  0
LINE
  5
4258
  8
FUTO
 10
28043.668870762562
 20
24213.775936836719
 30
0.0
 11
27963.268968762561
 21
24212.16802583672
 31
0.0
  0
ARC
  5
4259
  8
FUTO
 10
28058.268968762561
 20
24274.664119836722
 30
0.0
 40
5.0
 50
0.000000000000007
 51
90.0
  0
ARC
  5
425A
  8
FUTO
 10
28108.268968762561
 20
24274.664119836722
 30
0.0
 40
5.0
 50
90.0
 51
180.0
  0
ARC
  5
425B
  8
FUTO
 10
28123.268907762558
 20
24233.77202983672
 30
0.0
 40
20.000091999999999
 50
180.0
 51
268.85427899999138
  0
LINE
  5
425C
  8
FUTO
 10
28103.268968762561
 20
24274.664119836722
 30
0.0
 11
28103.268968762561
 21
24233.77202983672
 31
0.0
  0
LINE
  5
425D
  8
FUTO
 10
28063.268968762561
 20
24274.664119836722
 30
0.0
 11
28063.268968762561
 21
24233.77202983672
 31
0.0
  0
ARC
  5
425E
  8
FUTO
 10
28043.268968762561
 20
24233.77202983672
 30
0.0
 40
20.0
 50
271.14572100000839
 51
0.000000000000007
  0
LINE
  5
425F
  8
FUTO
 10
27983.268968762561
 20
24192.16802583672
 30
0.0
 11
27983.268968762561
 21
24193.16802583672
 31
0.0
  0
ARC
  5
4260
  8
FUTO
 10
27988.268968762561
 20
24193.16802583672
 30
0.0
 40
5.0
 50
90.0
 51
180.0
  0
LINE
  5
4261
  8
FUTO
 10
27988.268968762561
 20
24198.16802583672
 30
0.0
 11
28083.268968762561
 21
24198.16802583672
 31
0.0
  0
ARC
  5
4262
  8
FUTO
 10
28260.268907762558
 20
24209.16802583672
 30
0.0
 40
3.0
 50
0.000000000000007
 51
90.0
  0
LINE
  5
4263
  8
FUTO
 10
28203.268907762558
 20
24212.16802583672
 30
0.0
 11
28210.948460686868
 21
24212.16802583672
 31
0.0
  0
ARC
  5
426D
  8
FUTO
 10
28178.268907762558
 20
24193.16802583672
 30
0.0
 40
5.0
 50
0.000000000000007
 51
90.0
  0
LINE
  5
426E
  8
FUTO
 10
28183.268907762558
 20
24192.16802583672
 30
0.0
 11
28183.268907762558
 21
24193.16802583672
 31
0.0
  0
LINE
  5
426F
  8
FUTO
 10
28183.268907762558
 20
24192.16802583672
 30
0.0
 11
28208.268968762561
 21
24192.16802583672
 31
0.0
  0
LINE
  5
4270
  8
FUTO
 10
28322.874986762559
 20
24196.16802583672
 30
0.0
 11
28332.490953762561
 21
24199.66802583672
 31
0.0
  0
LINE
  5
4271
  8
FUTO
 10
28322.874986762559
 20
24196.16802583672
 30
0.0
 11
28263.268907762558
 21
24196.16802583672
 31
0.0
  0
LINE
  5
4272
  8
FUTO
 10
28263.268907762558
 20
24192.16802583672
 30
0.0
 11
28263.268907762558
 21
24209.16802583672
 31
0.0
  0
LINE
  5
4273
  8
FUTO
 10
28122.869005762561
 20
24213.775936836719
 30
0.0
 11
28203.268907762558
 21
24212.16802583672
 31
0.0
  0
LINE
  5
4274
  8
FUTO
 10
28178.268907762558
 20
24198.16802583672
 30
0.0
 11
28083.268968762561
 21
24198.16802583672
 31
0.0
  0
LINE
  5
4275
  8
FUTO
 10
27963.268968762561
 20
24212.16802583672
 30
0.0
 11
27955.58947683825
 21
24212.16802583672
 31
0.0
  0
LINE
  5
4276
  8
FUTO
 10
27983.268968762561
 20
24192.16802583672
 30
0.0
 11
27958.268968762561
 21
24192.16802583672
 31
0.0
  0
ARC
  5
4277
  8
FUTO
 10
28142.268907762558
 20
24349.470271836719
 30
0.0
 40
30.0
 50
270.0
 51
0.000000000000007
  0
ARC
  5
4278
  8
FUTO
 10
28024.268968762561
 20
24349.470271836719
 30
0.0
 40
30.0
 50
180.0
 51
270.0
  0
LINE
  5
4279
  8
CT
 10
28083.268968762561
 20
24682.16802583672
 30
0.0
 11
28083.268968762561
 21
24112.16802583672
 31
0.0
  0
LINE
  5
427A
  8
FUTO
 10
27894.268968762561
 20
24230.16802583672
 30
0.0
 11
27894.268968762561
 21
24392.16802583672
 31
0.0
  0
LINE
  5
427B
  8
FUTO
 10
28252.268907762558
 20
24595.66802583672
 30
0.0
 11
28252.268907762558
 21
24212.16802583672
 31
0.0
  0
LINE
  5
427C
  8
FUTO
 10
28302.268907762558
 20
24595.35454983672
 30
0.0
 11
28302.268907762558
 21
24196.16802583672
 31
0.0
  0
LINE
  5
427D
  8
FUTO
 10
28332.468858762561
 20
24584.985408836721
 30
0.0
 11
28332.468858762561
 21
24199.66802583672
 31
0.0
  0
LINE
  5
427E
  8
FUTO
 10
27894.268968762561
 20
24230.16802583672
 30
0.0
 11
27894.268968762561
 21
24392.16802583672
 31
0.0
  0
LINE
  5
427F
  8
FUTO
 10
27889.268968762561
 20
24202.16802583672
 30
0.0
 11
27889.268968762561
 21
24392.16802583672
 31
0.0
  0
LINE
  5
4280
  8
FUTO
 10
27807.768968762561
 20
24314.16802583672
 30
0.0
 11
27807.768968762561
 21
24392.16802583672
 31
0.0
  0
ARC
  5
4281
  8
FUTO
 10
28396.957994762561
 20
24569.66802583672
 30
0.0
 40
15.0
 50
60.00018300001819
 51
90.0
  0
ARC
  5
4282
  8
FUTO
 10
28452.268907762558
 20
24549.281307836722
 30
0.0
 40
4.9999580000000003
 50
0.000000000000007
 51
59.999718000027237
  0
LINE
  5
4283
  8
FUTO
 10
28454.768907762558
 20
24553.611385836721
 30
0.0
 11
28404.457994762561
 21
24582.65850483672
 31
0.0
  0
ARC
  5
42CC
  8
FUTO
 10
28452.268907762558
 20
24235.054744836722
 30
0.0
 40
5.0
 50
300.00027500002068
 51
0.000000000000007
  0
ARC
  5
42CE
  8
FUTO
 10
28396.957994762561
 20
24214.66802583672
 30
0.0
 40
15.000085
 50
270.0
 51
299.99981699998182
  0
LINE
  5
42CF
  8
FUTO
 10
28454.768907762558
 20
24230.724666836719
 30
0.0
 11
28404.457994762561
 21
24201.67754783672
 31
0.0
  0
LINE
  5
4301
  8
FUTO
 10
28398.168931762561
 20
24199.66802583672
 30
0.0
 11
28398.168931762561
 21
24584.618953836722
 31
0.0
  0
LINE
  5
4305
  8
FUTO
 10
28457.268968762561
 20
24549.81798983672
 30
0.0
 11
28457.268968762561
 21
24235.027675836722
 31
0.0
  0
LINE
  5
4306
  8
CT
 10
27637.768968762561
 20
24392.16802583672
 30
0.0
 11
28477.268968762561
 21
24392.16802583672
 31
0.0
  0
LINE
  5
4307
  8
FUTO
 10
28336.01768676256
 20
24584.66802583672
 30
0.0
 11
28396.957994762561
 21
24584.66802583672
 31
0.0
  0
LINE
  5
4308
  8
FUTO
 10
28332.468858762561
 20
24199.66802583672
 30
0.0
 11
28396.957994762561
 21
24199.66802583672
 31
0.0
  0
LINE
  5
430D
  8
CT
 10
25856.825556723921
 20
27706.368162558349
 30
0.0
 11
25806.825556723921
 21
27706.368162558349
 31
0.0
  0
LINE
  5
430E
  8
CT
 10
25831.825556723921
 20
27681.368162558349
 30
0.0
 11
25831.825556723921
 21
27731.368162558349
 31
0.0
  0
LINE
  5
430F
  8
CT
 10
26151.825556723921
 20
27681.368162558349
 30
0.0
 11
26151.825556723921
 21
27731.368162558349
 31
0.0
  0
LINE
  5
4310
  8
CT
 10
26126.825556723921
 20
27706.368162558349
 30
0.0
 11
26176.825556723921
 21
27706.368162558349
 31
0.0
  0
LINE
  5
4311
  8
CT
 10
26126.825556723921
 20
28166.368162558349
 30
0.0
 11
26176.825556723921
 21
28166.368162558349
 31
0.0
  0
LINE
  5
4312
  8
CT
 10
26151.825556723921
 20
28191.368162558349
 30
0.0
 11
26151.825556723921
 21
28141.368162558349
 31
0.0
  0
LINE
  5
4313
  8
CT
 10
25831.825556723921
 20
28191.368162558349
 30
0.0
 11
25831.825556723921
 21
28141.368162558349
 31
0.0
  0
LINE
  5
4314
  8
CT
 10
25856.825556723921
 20
28166.368162558349
 30
0.0
 11
25806.825556723921
 21
28166.368162558349
 31
0.0
  0
LINE
  5
4315
  8
FUTO
 10
26211.825556723921
 20
27655.868162558349
 30
0.0
 11
26211.825556723921
 21
27400.868162558349
 31
0.0
  0
LINE
  5
4316
  8
FUTO
 10
26341.825556723921
 20
27706.868162558349
 30
0.0
 11
26341.825556723921
 21
27633.868162558349
 31
0.0
  0
LINE
  5
4317
  8
FUTO
 10
26201.825556723921
 20
28609.868162558349
 30
0.0
 11
26201.825556723921
 21
27706.868162558349
 31
0.0
  0
LINE
  5
4319
  8
FUTO
 10
25856.825556723921
 20
28609.868162558349
 30
0.0
 11
25856.825556723921
 21
28310.368162558349
 31
0.0
  0
LINE
  5
431A
  8
FUTO
 10
25781.825556723921
 20
28609.868162558349
 30
0.0
 11
25781.825556723921
 21
27706.868162558349
 31
0.0
  0
LINE
  5
431B
  8
SL
 10
26126.825556723921
 20
28310.368162558349
 30
0.0
 11
26126.825556723921
 21
27700.868162558349
 31
0.0
  0
LINE
  5
431C
  8
SL
 10
25856.825556723921
 20
28310.368162558349
 30
0.0
 11
25856.825556723921
 21
27700.868162558349
 31
0.0
  0
LINE
  5
432D
  8
FUTO
 10
23861.825556723921
 20
29804.868162558349
 30
0.0
 11
26048.825556723921
 21
29804.868162558349
 31
0.0
  0
LINE
  5
4341
  8
FUTO
 10
23861.825556723921
 20
28636.868162558349
 30
0.0
 11
26048.825556723921
 21
28636.868162558349
 31
0.0
  0
LINE
  5
4342
  8
FUTO
 10
23861.825556723921
 20
28682.868162558349
 30
0.0
 11
25641.825556723921
 21
28682.868162558349
 31
0.0
  0
LINE
  5
4347
  8
FUTO
 10
23941.825556723921
 20
28636.868162558349
 30
0.0
 11
23941.825556723921
 21
28609.868162558349
 31
0.0
  0
LINE
  5
4348
  8
FUTO
 10
26247.04925508477
 20
28684.868162558319
 30
0.0
 11
26341.825556723921
 21
28684.868162558349
 31
0.0
  0
LINE
  5
4349
  8
FUTO
 10
25093.359056327499
 20
27706.868162558349
 30
0.0
 11
25093.359056327499
 21
28636.868162558349
 31
0.0
  0
LINE
  5
434A
  8
FUTO
 10
24490.29205712035
 20
27706.868162558349
 30
0.0
 11
24490.29205712035
 21
28636.868162558349
 31
0.0
  0
DIMENSION
  5
4368
  8
FUTO
  2
*D11
 10
23313.933757672199
 20
25022.16802583672
 30
0.0
 11
23253.933757672188
 21
25794.66802583672
 31
0.0
 70
     0
 13
23861.825556723921
 23
26567.16802583672
 33
0.0
 14
23790.264162403961
 24
25022.16802583672
 34
0.0
 50
270.0
1001
ACAD
1000
DSTYLE
1002
{
1070
    40
1040
30.0
1070
   176
1070
     2
1070
   177
1070
     2
1070
   178
1070
     2
1070
   341
1005
44D5
1070
     5
1000
OPEN30
1002
}
  0
LINE
  5
457C
  8
FUTO
 62
     2
 10
23911.825556723921
 20
23982.16802583672
 30
0.0
 11
23283.933757672199
 21
23982.16802583672
 31
0.0
  0
LINE
  5
457D
  8
FUTO
 62
     2
 10
23911.825556723921
 20
23867.16802583672
 30
0.0
 11
23283.933757672199
 21
23867.16802583672
 31
0.0
  0
LINE
  5
457E
  8
FUTO
 62
     2
 10
23313.933757672199
 20
24042.16802583672
 30
0.0
 11
23313.933757672199
 21
24102.16802583672
 31
0.0
  0
LINE
  5
457F
  8
FUTO
 62
     2
 10
23313.933757672199
 20
23807.16802583672
 30
0.0
 11
23313.933757672199
 21
23456.272407206648
 31
0.0
  0
LINE
  5
4580
  8
FUTO
 62
     2
 10
23313.933757672199
 20
23982.16802583672
 30
0.0
 11
23313.933757672199
 21
23872.16802583672
 31
0.0
  0
INSERT
  5
4581
  8
FUTO
 62
     2
  2
_OPEN30
 10
23313.933757672199
 20
23982.16802583672
 30
0.0
 41
-60.0
 42
60.0
 43
60.0
 50
90.0
  0
INSERT
  5
4582
  8
FUTO
 62
     2
  2
_OPEN30
 10
23313.933757672199
 20
23867.16802583672
 30
0.0
 41
-60.0
 42
60.0
 43
60.0
 50
270.0
  0
TEXT
  5
4583
  8
FUTO
 62
     2
 10
23172.28187951056
 20
23769.16240167047
 30
0.0
 40
90.0
  1
(115)
 50
90.0
 51
15.0
  7
SUNPOU
  0
DIMENSION
  5
4584
  8
FUTO
  2
*D15
 10
23313.933757672199
 20
23717.16802583672
 30
0.0
 11
23253.933757672199
 21
23537.16802583672
 31
0.0
 70
     0
 13
23941.825556723921
 23
23867.16802583672
 33
0.0
 14
23941.825556723921
 24
23717.16802583672
 34
0.0
 50
90.0
1001
ACAD
1000
DSTYLE
1002
{
1070
    40
1040
30.0
1070
   176
1070
     2
1070
   177
1070
     2
1070
   178
1070
     2
1070
   341
1005
44D5
1070
     5
1000
OPEN30
1002
}
  0
LINE
  5
4595
  8
KL
 10
25622.825556723921
 20
24297.695516550772
 30
0.0
 11
25622.825556723921
 21
24141.866896202671
 31
0.0
  0
LINE
  5
4596
  8
KL
 10
25631.825556723921
 20
24294.255200841792
 30
0.0
 11
25631.825556723921
 21
24137.009145391639
 31
0.0
  0
LINE
  5
4597
  8
FUTO
 10
25622.825556723921
 20
24297.695516550772
 30
0.0
 11
25622.825556723921
 21
24132.16802583672
 31
0.0
  0
LINE
  5
4598
  8
FUTO
 10
25631.825556723921
 20
24294.255200841792
 30
0.0
 11
25631.825556723921
 21
24132.16802583672
 31
0.0
  0
DIMENSION
  5
45A8
  8
FUTO
  2
*D16
 10
26341.825556723921
 20
30239.303985751241
 30
0.0
 11
25566.825556723921
 21
30299.303985751241
 31
0.0
 70
     0
 13
24791.825556723921
 23
30135.740740207952
 33
0.0
 14
26341.825556723921
 24
28609.868162558349
 34
0.0
 50
180.0
1001
ACAD
1000
DSTYLE
1002
{
1070
    40
1040
30.0
1070
   176
1070
     2
1070
   177
1070
     2
1070
   178
1070
     2
1070
   341
1005
44D5
1070
     5
1000
OPEN30
1002
}
  0
DIMENSION
  5
45B5
  8
FUTO
  2
*D17
 10
23381.51965388405
 20
29854.868162558349
 30
0.0
 11
23321.519653884039
 21
29537.868162558359
 31
0.0
 70
     0
 13
23614.305556144402
 23
29220.868162558349
 33
0.0
 14
24041.825556723921
 24
29854.868162558349
 34
0.0
 50
90.0
1001
ACAD
1000
DSTYLE
1002
{
1070
    40
1040
30.0
1070
   176
1070
     2
1070
   177
1070
     2
1070
   178
1070
     2
1070
   341
1005
44D5
1070
     5
1000
OPEN30
1002
}
  0
DIMENSION
  5
45C2
  8
FUTO
  2
*D18
 10
23381.51965388405
 20
27400.868162558349
 30
0.0
 11
23321.519653884039
 21
28310.868162558359
 31
0.0
 70
     0
 13
23381.51965388405
 23
29220.868162558349
 33
0.0
 14
24411.825556723921
 24
27400.868162558349
 34
0.0
 50
90.0
1001
ACAD
1000
DSTYLE
1002
{
1070
    40
1040
30.0
1070
   176
1070
     2
1070
   177
1070
     2
1070
   178
1070
     2
1070
   341
1005
44D5
1070
     5
1000
OPEN30
1002
}
  0
LINE
  5
466E
  8
CT
 10
23869.21643468702
 20
24925.246523324589
 30
0.0
 11
24791.825556723921
 21
25022.16802583672
 31
0.0
  0
LINE
  5
4670
  8
FUTO
 10
25994.10779324326
 20
25022.16802583672
 30
0.0
 11
25994.10779324326
 21
25152.11618449663
 31
0.0
  0
LINE
  5
4671
  8
FUTO
 10
26044.10779324326
 20
25013.16802583672
 30
0.0
 11
26044.10779324326
 21
25031.16802583672
 31
0.0
  0
LINE
  5
46A1
  8
FUTO
 10
24291.825556723921
 20
24132.16802583672
 30
0.0
 11
24467.14457202435
 21
24824.72877397804
 31
0.0
  0
LINE
  5
46A2
  8
FUTO
 10
25291.825556723921
 20
24132.16802583672
 30
0.0
 11
25209.972396284062
 21
24455.511651368812
 31
0.0
  0
LINE
  5
46A3
  8
SL
 10
24930.894138686901
 20
25229.917705766209
 30
0.0
 11
26050.790635476231
 21
24480.25389012682
 31
0.0
  0
LINE
  5
46A4
  8
SL
 10
24699.792741541929
 20
24789.72456834721
 30
0.0
 11
25952.803643086751
 21
24293.611999861168
 31
0.0
  0
LINE
  5
46A5
  8
FUTO
 10
25006.946359668062
 20
25335.41399969858
 30
0.0
 11
26116.369179481058
 21
24573.520958072531
 31
0.0
  0
LINE
  5
46A6
  8
FUTO
 10
24656.142937676559
 20
24667.217005429051
 30
0.0
 11
25913.272461485969
 21
24186.670066653329
 31
0.0
  0
ARC
  5
46A7
  8
FUTO
 10
24893.825556723921
 20
25124.16802583672
 30
0.0
 40
1125.0
 50
298.14243507090117
 51
312.02555928933799
  0
LINE
  5
46A8
  8
KL
 10
24467.14457202435
 20
24824.72877397804
 30
0.0
 11
24490.29205712035
 21
24916.16802583672
 31
0.0
  0
LINE
  5
46A9
  8
KL
 10
25209.972396284062
 20
24455.511651368812
 30
0.0
 11
25093.359056327499
 21
24916.16802583672
 31
0.0
  0
LINE
  5
46AB
  8
KL
 10
25622.825556723921
 20
24912.460670869281
 30
0.0
 11
25622.825556723921
 21
24297.695516550772
 31
0.0
  0
LINE
  5
46AC
  8
KL
 10
25631.825556723921
 20
24906.27994585428
 30
0.0
 11
25631.825556723921
 21
24294.255200841792
 31
0.0
  0
LINE
  5
46AD
  8
FUTO
 10
25449.97104659551
 20
25031.168025836709
 30
0.0
 11
26044.10779324326
 21
25031.16802583672
 31
0.0
  0
LINE
  5
46AE
  8
FUTO
 10
25476.181563906459
 20
25013.16802583672
 30
0.0
 11
26044.10779324326
 21
25013.16802583672
 31
0.0
  0
LINE
  5
46AF
  8
KL
 10
24413.062733364481
 20
24991.529428597521
 30
0.0
 11
24591.971809445979
 21
25010.357873468209
 31
0.0
  0
LINE
  5
46B0
  8
KL
 10
24414.938555441258
 20
24973.627442154972
 30
0.0
 11
24593.840347046989
 21
24992.45512040524
 31
0.0
  0
LINE
  5
46CD
  8
FUTO
 10
28758.268968762561
 20
25031.16802583672
 30
0.0
 11
29975.968968762561
 21
25031.16802583672
 31
0.0
  0
LINE
  5
46CE
  8
FUTO
 10
28758.268968762561
 20
25013.16802583672
 30
0.0
 11
29975.968968762561
 21
25013.16802583672
 31
0.0
  0
LINE
  5
46E1
  8
FUTO
 10
28783.268968762561
 20
26567.16802583672
 30
0.0
 11
29952.268968762579
 21
26567.16802583672
 31
0.0
  0
LINE
  5
46E2
  8
FUTO
 10
28758.268968762561
 20
26517.168025836709
 30
0.0
 11
29975.968968762561
 21
26517.168025836709
 31
0.0
  0
DIMENSION
  5
46E6
  8
FUTO
  2
*D19
 10
23861.825556723921
 20
26844.71445812031
 30
0.0
 11
24326.825556723921
 21
26904.71445812031
 31
0.0
 70
     0
 13
24791.825556723921
 23
26546.594771094158
 33
0.0
 14
23861.825556723921
 24
26567.16802583672
 34
0.0
 50
180.0
1001
ACAD
1000
DSTYLE
1002
{
1070
    40
1040
30.0
1070
   176
1070
     2
1070
   177
1070
     2
1070
   178
1070
     2
1070
   341
1005
44D5
1070
     5
1000
OPEN30
1002
}
  0
DIMENSION
  5
46F4
  8
FUTO
  2
*D20
 10
23313.933757672199
 20
23982.16802583672
 30
0.0
 11
23253.933757672199
 21
24502.168025836731
 31
0.0
 70
     0
 13
23760.264162403961
 23
25022.16802583672
 33
0.0
 14
23941.825556723921
 24
23982.16802583672
 34
0.0
 50
90.0
1001
ACAD
1000
DSTYLE
1002
{
1070
    40
1040
30.0
1070
   176
1070
     2
1070
   177
1070
     2
1070
   178
1070
     2
1070
   341
1005
44D5
1070
     5
1000
OPEN30
1002
}
  0
LINE
  5
470A
  8
FUTO
 10
23861.825556723921
 20
28636.868162558349
 30
0.0
 11
23861.825556723921
 21
29804.868162558349
 31
0.0
  0
LINE
  5
470B
  8
HOSO
 10
23861.825556723921
 20
28636.868162558349
 30
0.0
 11
23861.825556723921
 21
29804.868162558349
 31
0.0
  0
LINE
  5
470C
  8
FUTO
 10
23911.825556723921
 20
28636.868162558349
 30
0.0
 11
23911.825556723921
 21
29804.868162558349
 31
0.0
  0
LINE
  5
470D
  8
FUTO
 10
23865.825556723921
 20
28636.868162558349
 30
0.0
 11
23865.825556723921
 21
29804.868162558349
 31
0.0
  0
LINE
  5
470E
  8
FUTO
 10
25998.825556723921
 20
29758.868162558359
 30
0.0
 11
25998.825556723921
 21
28684.868162558349
 31
0.0
  0
LINE
  5
470F
  8
FUTO
 10
26048.825556723921
 20
29804.868162558349
 30
0.0
 11
26048.825556723921
 21
28636.868162558349
 31
0.0
  0
LINE
  5
4710
  8
FUTO
 10
26048.825556723921
 20
28684.868162558349
 30
0.0
 11
26282.825556723921
 21
28684.868162558349
 31
0.0
  0
DIMENSION
  5
4712
  8
FUTO
  2
*D21
 10
23861.825556723921
 20
30239.303985751241
 30
0.0
 11
24326.825556723921
 21
30299.303985751241
 31
0.0
 70
     0
 13
24791.825556723921
 23
30135.740740207952
 33
0.0
 14
23861.825556723921
 24
29804.868162558349
 34
0.0
 50
180.0
1001
ACAD
1000
DSTYLE
1002
{
1070
    40
1040
30.0
1070
   176
1070
     2
1070
   177
1070
     2
1070
   178
1070
     2
1070
   341
1005
44D5
1070
     5
1000
OPEN30
1002
}
  0
INSERT
  5
4865
  8
FUTO
  6
CONTINUOUS
  2
*U22
 10
0.0
 20
0.0
 30
0.0
1001
ACAD
1002
{
1000
R14_HATCH_DATA
1000
4865
1011
1.0
1021
5.0906117412778122E+058
1031
0.0
1021
0.0
1031
0.0
1011
0.0
1021
5.0906117412778122E+058
1031
0.0
1021
1.0
1031
0.0
1011
0.0
1021
5.0906117412778122E+058
1031
0.0
1021
0.0
1031
1.0
1040
0.0
1010
0.0
1020
0.0
1030
1.0
1000
SOLID
1070
     1
1070
     0
1071
        4
1071
        7
1070
     0
1070
     1
1071
        4
1040
1752.3661748599859
1040
24338.075662787331
1040
1712.366174859987
1040
24338.075662787331
1040
1712.366174859987
1040
24228.075662787331
1040
1752.366174859987
1040
24228.075662787331
1071
        0
1071
        7
1070
     0
1070
     1
1071
        4
1040
1792.366174859987
1040
24338.075662787331
1040
1752.3661748599859
1040
24338.075662787331
1040
1752.366174859987
1040
24228.075662787331
1040
1792.366174859987
1040
24228.075662787331
1071
        0
1071
        7
1070
     0
1070
     1
1071
        4
1040
3899.6343255139582
1040
24338.075662787331
1040
3859.6343255139582
1040
24338.075662787331
1040
3859.6343255139591
1040
24228.075662787331
1040
3899.6343255139568
1040
24228.075662787331
1071
        0
1071
        7
1070
     0
1070
     1
1071
        4
1040
3939.6343255139582
1040
24338.075662787331
1040
3899.6343255139568
1040
24338.075662787331
1040
3899.6343255139568
1040
24228.075662787331
1040
3939.6343255139582
1040
24228.075662787331
1071
        0
1070
     0
1070
     1
1040
3.2023201075504022
1071
        4
1040
1730.295001373677
1040
24272.4253922315
1040
0.0
1040
1768.7507610452519
1040
24282.03235760019
1040
0.0
1040
3880.6122014497992
1040
24266.020759615862
1040
0.0
1040
3919.0679340476299
1040
24278.830041292382
1040
0.0
1002
}
  0
INSERT
  5
48C9
  8
FUTO
  6
CONTINUOUS
  2
*U23
 10
0.0
 20
0.0
 30
0.0
1001
ACAD
1002
{
1000
R14_HATCH_DATA
1000
48C9
1011
1.0
1021
5.0906117412778122E+058
1031
0.0
1021
0.0
1031
0.0
1011
0.0
1021
5.0906117412778122E+058
1031
0.0
1021
1.0
1031
0.0
1011
0.0
1021
5.0906117412778122E+058
1031
0.0
1021
0.0
1031
1.0
1040
0.0
1010
0.0
1020
0.0
1030
1.0
1000
SOLID
1070
     1
1070
     0
1071
        4
1071
        7
1070
     0
1070
     1
1071
        5
1040
5422.5777375525977
1040
24338.075662787331
1040
5387.5777375525968
1040
24338.075662787331
1040
5382.5777375525977
1040
24338.075662787331
1040
5382.5777375525968
1040
24228.075662787342
1040
5422.5777375525977
1040
24228.075662787342
1071
        0
1071
        7
1070
     0
1070
     1
1071
        4
1040
5462.5777375525977
1040
24338.075662787342
1040
5422.5777375525977
1040
24338.075662787331
1040
5422.5777375525977
1040
24228.075662787331
1040
5462.5777375525986
1040
24228.075662787331
1071
        0
1071
        7
1070
     0
1070
     1
1071
        4
1040
7552.5777375525968
1040
24338.075662787331
1040
7512.5777375526004
1040
24338.075662787331
1040
7512.5777375525977
1040
24228.075662787342
1040
7552.5777375525986
1040
24228.075662787331
1071
        0
1071
        7
1070
     0
1070
     1
1071
        5
1040
7590.5777375526004
1040
24338.075662787342
1040
7552.5777375525968
1040
24338.075662787342
1040
7552.5777375525968
1040
24228.075662787342
1040
7587.5777375525986
1040
24228.075662787331
1040
7590.5777375525968
1040
24228.075662787331
1071
        0
1070
     0
1070
     1
1040
3.670730742474213
1071
        4
1040
5414.7226687035509
1040
24280.747836147038
1040
0.0
1040
5436.7630500754904
1040
24288.089288451829
1040
0.0
1040
7534.2723749815186
1040
24280.747836147038
1040
0.0
1040
7574.6797453423642
1040
24280.747836147038
1040
0.0
1002
}
  0
TEXT
  5
4FDF
  8
SP
 10
22016.112700844838
 20
18054.757648677922
 30
0.0
 40
100.0
  1
 
  0
TEXT
  5
529A
  8
SP
 10
31573.064130848288
 20
25483.35532077276
 30
0.0
 40
100.0
  1
 
  0
LINE
  5
529B
  8
4
 10
30674.31456187513
 20
21882.302093484221
 30
0.0
 11
30674.31456187513
 21
20882.30209348421
 31
0.0
  0
LINE
  5
529C
  8
4
 10
27174.31456187513
 20
21882.302093484221
 30
0.0
 11
27174.31456187513
 21
20882.30209348421
 31
0.0
  0
LINE
  5
529D
  8
4
 10
24674.31456187513
 20
21882.302093484221
 30
0.0
 11
24674.31456187513
 21
20882.30209348421
 31
0.0
  0
LINE
  5
52A0
  8
4
 10
24674.31456187513
 20
20882.30209348421
 30
0.0
 11
30674.31456187513
 21
20882.30209348421
 31
0.0
  0
LINE
  5
52A1
  8
4
 10
24674.31456187513
 20
21382.302093484221
 30
0.0
 11
30674.31456187513
 21
21382.302093484221
 31
0.0
  0
TEXT
  5
52A2
  8
4
 10
24866.824966109642
 20
21540.017222817289
 30
0.0
 40
250.0
  1
機器名称
  0
TEXT
  5
52A3
  8
4
 10
24855.605091999121
 20
20990.527877144272
 30
0.0
 40
250.0
  1
機器型番
  0
TEXT
  5
52A4
  8
4
 10
27198.279870380338
 20
21493.238605268951
 30
0.0
 40
225.0
  1
ミツヤリミットロードファン
  0
TEXT
  5
52A5
  8
4
 10
27357.58703980254
 20
20968.10001488393
 30
0.0
 40
250.0
  1
LL#9-1
  0
TEXT
  5
52A7
  8
4
 10
25299.476303844011
 20
31299.446300146799
 30
0.0
 40
270.0
  1
床置防振ベット
  0
TEXT
  5
52A8
  8
4
 10
23005.152528522362
 20
32051.706974480709
 30
0.0
 40
360.0
  1
遠心式片吸込片持リミットロードファン
  0
LINE
  5
52A9
  8
4
 10
22674.314561875119
 20
31729.345864808241
 30
0.0
 11
30674.31456187513
 21
31729.345864808241
 31
0.0
  0
LINE
  5
52AA
  8
4
 10
22674.314561875119
 20
32729.345864808249
 30
0.0
 11
30674.31456187513
 21
32729.345864808249
 31
0.0
  0
LINE
  5
52AB
  8
4
 10
24674.31456187513
 20
21882.302093484221
 30
0.0
 11
30674.31456187513
 21
21882.302093484221
 31
0.0
  0
LINE
  5
52AC
  8
4
 10
22674.314561875119
 20
32729.345864808249
 30
0.0
 11
22674.314561875119
 21
31729.345864808241
 31
0.0
  0
TEXT
  5
52AD
  8
4
 10
23120.182142630489
 20
31293.89948121594
 30
0.0
 40
270.0
  1
左回転左横向
  0
TEXT
  5
52AE
  8
4
 10
28769.162358121579
 20
32912.607500960759
 30
0.0
 40
280.0
  1
No.
  0
TEXT
  5
52AF
  8
4
 10
28836.093785131899
 20
30803.181457136601
 30
0.0
 40
270.0
  1
縮尺：1/50
  0
LINE
  5
52B0
  8
4
 10
30674.31456187513
 20
32729.345864808249
 30
0.0
 11
30674.31456187513
 21
31729.345864808241
 31
0.0
  0
LINE
  5
52B1
  8
4
 10
31924.31456187513
 20
34132.302093484221
 30
0.0
 11
31924.31456187513
 21
34132.302093484221
 31
0.0
  0
LINE
  5
52B2
  8
4
 10
28627.401673674449
 20
32788.620009111219
 30
0.0
 11
28627.401673674449
 21
33315.563401232983
 31
0.0
  0
LINE
  5
52B3
  8
4
 10
28627.401673674449
 20
33315.563401232983
 30
0.0
 11
30674.31456187513
 21
33315.563401232983
 31
0.0
  0
LINE
  5
52B4
  8
4
 10
30674.31456187513
 20
33315.563401232983
 30
0.0
 11
30674.31456187513
 21
32788.620009111219
 31
0.0
  0
LINE
  5
52B5
  8
4
 10
30674.31456187513
 20
32788.620009111219
 30
0.0
 11
28627.401673674449
 21
32788.620009111219
 31
0.0
  0
LINE
  5
52B6
  8
4
 10
21424.314561875119
 20
19382.302093484221
 30
0.0
 11
21424.314561875119
 21
34132.302093484221
 31
0.0
  0
LINE
  5
52B7
  8
4
 10
21424.314561875119
 20
34132.302093484221
 30
0.0
 11
31924.31456187513
 21
34132.302093484221
 31
0.0
  0
LINE
  5
52B8
  8
4
 10
31924.31456187513
 20
34132.302093484221
 30
0.0
 11
31924.31456187513
 21
19382.302093484221
 31
0.0
  0
LINE
  5
52B9
  8
4
 10
31924.31456187513
 20
19382.302093484221
 30
0.0
 11
21424.314561875119
 21
19382.302093484221
 31
0.0
  0
ENDSEC
  0
EOF
