  0
SECTION
  2
HEADER
  9
$ACADVER
  1
AC1009
  9
$INSBASE
 10
0.0
 20
0.0
 30
0.0
  9
$EXTMIN
 10
9143.8674377153111
 20
13420.979690845041
 30
0.0
  9
$EXTMAX
 10
19643.867437715311
 20
28170.979690845041
 30
0.0
  9
$LIMMIN
 10
0.0
 20
0.0
  9
$LIMMAX
 10
420.0
 20
297.0
  9
$ORTHOMODE
 70
     0
  9
$REGENMODE
 70
     1
  9
$FILLMODE
 70
     1
  9
$QTEXTMODE
 70
     0
  9
$MIRRTEXT
 70
     0
  9
$DRAGMODE
 70
     2
  9
$LTSCALE
 40
150.0
  9
$OSMODE
 70
    37
  9
$ATTMODE
 70
     1
  9
$TEXTSIZE
 40
90.0
  9
$TRACEWID
 40
0.05
  9
$TEXTSTYLE
  7
STANDARD
  9
$CLAYER
  8
FUTO
  9
$CELTYPE
  6
BYLAYER
  9
$CECOLOR
 62
   256
  9
$DIMSCALE
 40
30.0
  9
$DIMASZ
 40
2.0
  9
$DIMEXO
 40
1.0
  9
$DIMDLI
 40
10.0
  9
$DIMRND
 40
0.0
  9
$DIMDLE
 40
0.0
  9
$DIMEXE
 40
1.0
  9
$DIMTP
 40
0.0
  9
$DIMTM
 40
0.0
  9
$DIMTXT
 40
3.0
  9
$DIMCEN
 40
0.0
  9
$DIMTSZ
 40
0.0
  9
$DIMTOL
 70
     0
  9
$DIMLIM
 70
     0
  9
$DIMTIH
 70
     0
  9
$DIMTOH
 70
     0
  9
$DIMSE1
 70
     0
  9
$DIMSE2
 70
     0
  9
$DIMTAD
 70
     1
  9
$DIMZIN
 70
     8
  9
$DIMBLK
  1
OPEN30
  9
$DIMASO
 70
     1
  9
$DIMSHO
 70
     1
  9
$DIMPOST
  1

  9
$DIMAPOST
  1

  9
$DIMALT
 70
     0
  9
$DIMALTD
 70
     2
  9
$DIMALTF
 40
0.03937
  9
$DIMLFAC
 40
1.0
  9
$DIMTOFL
 70
     1
  9
$DIMTVP
 40
0.0
  9
$DIMTIX
 70
     0
  9
$DIMSOXD
 70
     0
  9
$DIMSAH
 70
     0
  9
$DIMBLK1
  1

  9
$DIMBLK2
  1

  9
$DIMSTYLE
  2
MATSU
  9
$DIMCLRD
 70
     2
  9
$DIMCLRE
 70
     2
  9
$DIMCLRT
 70
     2
  9
$DIMTFAC
 40
1.0
  9
$DIMGAP
 40
0.5
  9
$LUNITS
 70
     2
  9
$LUPREC
 70
     1
  9
$SKETCHINC
 40
0.1
  9
$FILLETRAD
 40
0.0
  9
$AUNITS
 70
     0
  9
$AUPREC
 70
     0
  9
$MENU
  1
SSMENU
  9
$ELEVATION
 40
0.0
  9
$PELEVATION
 40
0.0
  9
$THICKNESS
 40
0.0
  9
$LIMCHECK
 70
     0
  9
$BLIPMODE
 70
     0
  9
$CHAMFERA
 40
20.0
  9
$CHAMFERB
 40
20.0
  9
$SKPOLY
 70
     0
  9
$TDCREATE
 40
2450714.9573032409
  9
$TDUPDATE
 40
2454953.648846562
  9
$TDINDWG
 40
1.4469903819000001
  9
$TDUSRTIMER
 40
1.4469903819000001
  9
$USRTIMER
 70
     1
  9
$ANGBASE
 50
0.0
  9
$ANGDIR
 70
     0
  9
$PDMODE
 70
     0
  9
$PDSIZE
 40
1.0
  9
$PLINEWID
 40
0.0
  9
$COORDS
 70
     1
  9
$SPLFRAME
 70
     0
  9
$SPLINETYPE
 70
     6
  9
$SPLINESEGS
 70
     8
  9
$ATTDIA
 70
     0
  9
$ATTREQ
 70
     1
  9
$HANDLING
 70
 10241
  9
$HANDSEED
  5
5612
  9
$SURFTAB1
 70
     6
  9
$SURFTAB2
 70
     6
  9
$SURFTYPE
 70
     6
  9
$SURFU
 70
     6
  9
$SURFV
 70
     6
  9
$UCSNAME
  2

  9
$UCSORG
 10
0.0
 20
0.0
 30
0.0
  9
$UCSXDIR
 10
1.0
 20
0.0
 30
0.0
  9
$UCSYDIR
 10
0.0
 20
1.0
 30
0.0
  9
$PUCSNAME
  2

  9
$PUCSORG
 10
0.0
 20
0.0
 30
0.0
  9
$PUCSXDIR
 10
1.0
 20
0.0
 30
0.0
  9
$PUCSYDIR
 10
0.0
 20
1.0
 30
0.0
  9
$USERI1
 70
     0
  9
$USERI2
 70
     0
  9
$USERI3
 70
     0
  9
$USERI4
 70
     0
  9
$USERI5
 70
     0
  9
$USERR1
 40
0.0
  9
$USERR2
 40
0.0
  9
$USERR3
 40
0.0
  9
$USERR4
 40
0.0
  9
$USERR5
 40
0.0
  9
$WORLDVIEW
 70
     1
  9
$SHADEDGE
 70
     3
  9
$SHADEDIF
 70
    70
  9
$TILEMODE
 70
     1
  9
$MAXACTVP
 70
    16
  9
$PLIMCHECK
 70
     0
  9
$PEXTMIN
 10
0.0
 20
0.0
 30
0.0
  9
$PEXTMAX
 10
12.561051004636781
 20
9.0
 30
0.0
  9
$PLIMMIN
 10
0.0
 20
0.0
  9
$PLIMMAX
 10
12.0
 20
9.0
  9
$UNITMODE
 70
     0
  9
$VISRETAIN
 70
     0
  9
$PLINEGEN
 70
     0
  9
$PSLTSCALE
 70
     0
  0
ENDSEC
  0
SECTION
  2
TABLES
  0
TABLE
  2
VPORT
 70
     2
  0
VPORT
  2
*ACTIVE
 70
     0
 10
0.0
 20
0.0
 11
1.0
 21
1.0
 12
18780.896659750619
 22
15128.361175142611
 13
0.0
 23
0.0
 14
5.0
 24
5.0
 15
0.0
 25
0.0
 16
0.0
 26
0.0
 36
1.0
 17
0.0
 27
0.0
 37
0.0
 40
4164.3998062470619
 41
3.1666666666666661
 42
50.0
 43
0.0
 44
0.0
 50
0.0
 51
0.0
 71
     0
 72
   500
 73
     1
 74
     0
 75
     0
 76
     0
 77
     0
 78
     0
  0
ENDTAB
  0
TABLE
  2
LTYPE
 70
     4
  0
LTYPE
  2
CONTINUOUS
 70
     0
  3
実線
 72
    65
 73
     0
 40
0.0
  0
LTYPE
  2
CENTER
 70
     0
  3
____ _ ____ _ ____ _ ____ _ ____ _ ____ _ ____ 
 72
    65
 73
     4
 40
2.0
 49
1.25
 49
-0.25
 49
0.25
 49
-0.25
  0
LTYPE
  2
HIDDEN
 70
     0
  3
__ __ __ __ __ __ __ __ __ __ __ __ __ __ __ __
 72
    65
 73
     2
 40
0.375
 49
0.25
 49
-0.125
  0
LTYPE
  2
PHANTOM
 70
     0
  3
______  __  __  ______  __  __  ______  __  __ 
 72
    65
 73
     6
 40
2.5
 49
1.25
 49
-0.25
 49
0.25
 49
-0.25
 49
0.25
 49
-0.25
  0
ENDTAB
  0
TABLE
  2
LAYER
 70
     9
  0
LAYER
  2
0
 70
     0
 62
     7
  6
CONTINUOUS
  0
LAYER
  2
FUTO
 70
     0
 62
     4
  6
CONTINUOUS
  0
LAYER
  2
CT
 70
     0
 62
     3
  6
CENTER
  0
LAYER
  2
HOSO
 70
     0
 62
     7
  6
CONTINUOUS
  0
LAYER
  2
KL
 70
     0
 62
     7
  6
HIDDEN
  0
LAYER
  2
SL
 70
     0
 62
     1
  6
PHANTOM
  0
LAYER
  2
SP
 70
     0
 62
     2
  6
CONTINUOUS
  0
LAYER
  2
DEFPOINTS
 70
     0
 62
     7
  6
CONTINUOUS
  0
LAYER
  2
4
 70
     0
 62
     7
  6
CONTINUOUS
  0
ENDTAB
  0
TABLE
  2
STYLE
 70
     2
  0
STYLE
  2
STANDARD
 70
     0
 40
0.0
 41
1.0
 50
15.0
 71
     0
 42
90.0
  3
SIMPLEX
  4
EXTFONT
  0
STYLE
  2
SUNPOU
 70
     0
 40
0.0
 41
1.0
 50
15.0
 71
     0
 42
5.0
  3
simplex.shx
  4
extfont.shx
  0
ENDTAB
  0
TABLE
  2
VIEW
 70
     0
  0
ENDTAB
  0
TABLE
  2
UCS
 70
     0
  0
ENDTAB
  0
TABLE
  2
APPID
 70
     1
  0
APPID
  2
ACAD
 70
     0
  0
ENDTAB
  0
TABLE
  2
DIMSTYLE
 70
     1
  0
DIMSTYLE
  2
MATSU
 70
     0
  3

  4

  5
CLOSED
  6

  7

 40
10.0
 41
2.0
 42
1.0
 43
10.0
 44
1.0
 45
0.0
 46
0.0
 47
0.0
 48
0.0
140
3.0
141
0.0
142
0.0
143
0.03937
144
1.0
145
0.0
146
1.0
147
0.5
 71
     0
 72
     0
 73
     0
 74
     0
 75
     0
 76
     0
 77
     1
 78
     8
170
     0
171
     2
172
     1
173
     0
174
     0
175
     0
176
   256
177
   256
178
   256
  0
ENDTAB
  0
ENDSEC
  0
SECTION
  2
BLOCKS
  0
BLOCK
  8
0
  2
$MODEL_SPACE
 70
     0
 10
0.0
 20
0.0
 30
0.0
  3
$MODEL_SPACE
  1

  0
ENDBLK
  5
7
  8
0
  0
BLOCK
 67
     1
  8
0
  2
$PAPER_SPACE
 70
     0
 10
0.0
 20
0.0
 30
0.0
  3
$PAPER_SPACE
  1

  0
ENDBLK
  5
A
 67
     1
  8
0
  0
BLOCK
  8
0
  2
K150-75
 70
     0
 10
0.0
 20
0.0
 30
0.0
  3
K150-75
  1

  0
LINE
  5
3EA
  8
FUTO
 10
-75.000000000000455
 20
0.0
 30
0.0
 11
0.0000000000004547
 21
0.0
 31
0.0
  0
LINE
  5
3EB
  8
FUTO
 10
-64.848622970991073
 20
12.677032629465881
 30
0.0
 11
-3.651377029009836
 21
7.3229673705341147
 31
0.0
  0
LINE
  5
3EC
  8
FUTO
 10
-75.0
 20
150.0
 30
0.0
 11
0.0
 21
150.0000000000004
 31
0.0
  0
LINE
  5
3ED
  8
FUTO
 10
-64.848622970991073
 20
137.32296737053409
 30
0.0
 11
-3.651377029009836
 21
142.6770326294658
 31
0.0
  0
LINE
  5
3EE
  8
FUTO
 10
-68.500000000000455
 20
133.33818857816729
 30
0.0
 11
-68.5
 21
16.661811421832681
 31
0.0
  0
ARC
  5
3EF
  8
FUTO
 10
-64.500000000000455
 20
16.661811421832681
 30
0.0
 40
4.0
 50
180.0
 51
264.99999999999989
  0
LINE
  5
3F0
  8
FUTO
 10
-75.0
 20
150.0
 30
0.0
 11
-75.000000000000455
 21
0.0
 31
0.0
  0
ARC
  5
3F1
  8
FUTO
 10
-64.500000000000455
 20
133.33818857816729
 30
0.0
 40
4.0
 50
95.000000000000057
 51
180.0
  0
ARC
  5
3F2
  8
FUTO
 10
-4.0000000000004539
 20
3.3381885781673191
 30
0.0
 40
4.0
 50
0.0
 51
84.999999999999801
  0
LINE
  5
3F3
  8
FUTO
 10
0.0
 20
-0.0000000000004547
 30
0.0
 11
-0.0000000000004547
 21
3.3381885781673191
 31
0.0
  0
LINE
  5
3F4
  8
FUTO
 10
0.0
 20
150.0000000000004
 30
0.0
 11
-0.0000000000004547
 21
146.6618114218326
 31
0.0
  0
ARC
  5
3F5
  8
FUTO
 10
-4.0000000000004539
 20
146.6618114218326
 30
0.0
 40
4.0
 50
275.00000000000011
 51
0.0
  0
ENDBLK
  5
3F7
  8
0
  0
BLOCK
  8
0
  2
まっすぐの矢印
 70
     0
 10
0.0
 20
0.0
 30
0.0
  3
まっすぐの矢印
  1

  0
LINE
  5
599
  8
SP
 10
13.01863531255526
 20
-41.453946163708451
 30
0.0
 11
13.01863531255526
 21
-93.495696758840026
 31
0.0
  0
LINE
  5
59A
  8
SP
 10
13.01863531255526
 20
-93.495696758840026
 30
0.0
 11
-13.01863531255526
 21
-93.495696758840026
 31
0.0
  0
LINE
  5
59B
  8
SP
 10
-13.01863531255526
 20
-93.495696758840026
 30
0.0
 11
-13.01863531255526
 21
-41.453946163708451
 31
0.0
  0
LINE
  5
59C
  8
SP
 10
-13.01863531255526
 20
-41.453946163708451
 30
0.0
 11
-32.06015471115802
 21
-41.453946163708451
 31
0.0
  0
LINE
  5
59D
  8
SP
 10
-32.06015471115802
 20
-41.453946163708451
 30
0.0
 11
0.0
 21
0.0
 31
0.0
  0
LINE
  5
59E
  8
SP
 10
0.0
 20
0.0
 30
0.0
 11
32.06015471115802
 21
-41.453946163708451
 31
0.0
  0
LINE
  5
59F
  8
SP
 10
32.06015471115802
 20
-41.453946163708451
 30
0.0
 11
13.01863531255526
 21
-41.453946163708451
 31
0.0
  0
ENDBLK
  5
5A1
  8
0
  0
BLOCK
  8
0
  2
左回転矢印
 70
     0
 10
0.0
 20
0.0
 30
0.0
  3
左回転矢印
  1

  0
LINE
  5
57C
  8
SP
 10
43.930449171819873
 20
24.859487323637271
 30
0.0
 11
38.511878498580238
 21
44.478978865188871
 31
0.0
  0
LINE
  5
57D
  8
SP
 10
38.511878498580238
 20
44.478978865188871
 30
0.0
 11
0.0
 21
0.0
 31
0.0
  0
LINE
  5
57E
  8
SP
 10
0.0
 20
0.0
 30
0.0
 11
52.57968174421967
 21
-6.4575435924972453
 31
0.0
  0
LINE
  5
57F
  8
SP
 10
52.57968174421967
 20
-6.4575435924972453
 30
0.0
 11
48.189912989015284
 21
9.436875093862227
 31
0.0
  0
ARC
  5
580
  8
SP
 10
93.893649146691985
 20
-156.0466295121104
 30
0.0
 40
171.67883327727239
 50
67.881388989212894
 51
105.4392492786835
  0
LINE
  5
581
  8
SP
 10
158.53505643637521
 20
2.997736182040398
 30
0.0
 11
164.55945966006539
 21
17.820238190756751
 31
0.0
  0
ARC
  5
582
  8
SP
 10
93.893649146692198
 20
-156.04662951211091
 30
0.0
 40
187.67883327727299
 50
67.881388989212994
 51
105.4392492786836
  0
ENDBLK
  5
584
  8
0
  0
BLOCK
  8
0
  2
*D3
 70
     1
 10
0.0
 20
0.0
 30
0.0
  3
*D3
  1

  0
LINE
  5
5535
  8
FUTO
 62
     2
 10
12934.73337478242
 20
17797.421674299479
 30
0.0
 11
12934.73337478242
 21
17585.203965378201
 31
0.0
  0
LINE
  5
5536
  8
FUTO
 62
     2
 10
14484.73337478242
 20
17749.503825343229
 30
0.0
 11
14484.73337478242
 21
17585.203965378201
 31
0.0
  0
LINE
  5
5537
  8
FUTO
 62
     2
 10
12994.73337478242
 20
17615.203965378201
 30
0.0
 11
14424.73337478242
 21
17615.203965378201
 31
0.0
  0
INSERT
  5
5538
  8
FUTO
 62
     2
  2
_OPEN30
 10
12934.73337478242
 20
17615.203965378201
 30
0.0
 41
60.0
 42
60.0
 43
60.0
 50
180.0
  0
INSERT
  5
5539
  8
FUTO
 62
     2
  2
_OPEN30
 10
14484.73337478242
 20
17615.203965378201
 30
0.0
 41
60.0
 42
60.0
 43
60.0
  0
TEXT
  8
0
  40
90
  5
55F9
  62
2
  72
0
  71
0
 10
13529.7
 20
17515.9
 30
0.000000
  1
1550
  7
SUNPOU
  0
POINT
  5
553B
  8
DEFPOINTS
 62
     0
 10
12934.73337478242
 20
17827.421674299479
 30
0.0
  0
POINT
  5
553C
  8
DEFPOINTS
 62
     0
 10
14484.73337478242
 20
17779.503825343229
 30
0.0
  0
POINT
  5
553D
  8
DEFPOINTS
 62
     0
 10
14484.73337478242
 20
17615.203965378201
 30
0.0
  0
ENDBLK
  5
3643
  8
0
  0
BLOCK
  8
0
  2
*D4
 70
     1
 10
0.0
 20
0.0
 30
0.0
  3
*D4
  1

  0
LINE
  5
553E
  8
FUTO
 62
     2
 10
14484.73337478242
 20
17824.503825343229
 30
0.0
 11
14484.73337478242
 21
17402.286648394111
 31
0.0
  0
LINE
  5
553F
  8
FUTO
 62
     2
 10
12084.73337478242
 20
17824.503825343229
 30
0.0
 11
12084.73337478242
 21
17402.286648394111
 31
0.0
  0
LINE
  5
5540
  8
FUTO
 62
     2
 10
14424.73337478242
 20
17432.286648394122
 30
0.0
 11
12144.73337478242
 21
17432.286648394122
 31
0.0
  0
INSERT
  5
5541
  8
FUTO
 62
     2
  2
_OPEN30
 10
14484.73337478242
 20
17432.286648394122
 30
0.0
 41
60.0
 42
60.0
 43
60.0
  0
INSERT
  5
5542
  8
FUTO
 62
     2
  2
_OPEN30
 10
12084.73337478242
 20
17432.286648394122
 30
0.0
 41
60.0
 42
60.0
 43
60.0
 50
180.0
  0
TEXT
  8
0
  40
90
  5
55FA
  62
2
  72
0
  71
0
 10
13104.7
 20
17333.0
 30
0.000000
  1
2400
  7
SUNPOU
  0
POINT
  5
5544
  8
DEFPOINTS
 62
     0
 10
14484.73337478242
 20
17854.503825343229
 30
0.0
  0
POINT
  5
5545
  8
DEFPOINTS
 62
     0
 10
12084.73337478242
 20
17854.503825343229
 30
0.0
  0
POINT
  5
5546
  8
DEFPOINTS
 62
     0
 10
12084.73337478242
 20
17432.286648394122
 30
0.0
  0
ENDBLK
  5
3638
  8
0
  0
BLOCK
  8
0
  2
*D5
 70
     1
 10
0.0
 20
0.0
 30
0.0
  3
*D5
  1

  0
LINE
  5
5547
  8
FUTO
 62
     2
 10
12934.73337478242
 20
17797.421674299479
 30
0.0
 11
12934.73337478242
 21
17585.203965378201
 31
0.0
  0
LINE
  5
5548
  8
FUTO
 62
     2
 10
12084.73337478242
 20
17749.503825343229
 30
0.0
 11
12084.73337478242
 21
17585.203965378201
 31
0.0
  0
LINE
  5
5549
  8
FUTO
 62
     2
 10
12874.73337478242
 20
17615.203965378201
 30
0.0
 11
12144.73337478242
 21
17615.203965378201
 31
0.0
  0
INSERT
  5
554A
  8
FUTO
 62
     2
  2
_OPEN30
 10
12934.73337478242
 20
17615.203965378201
 30
0.0
 41
60.0
 42
60.0
 43
60.0
  0
INSERT
  5
554B
  8
FUTO
 62
     2
  2
_OPEN30
 10
12084.73337478242
 20
17615.203965378201
 30
0.0
 41
60.0
 42
60.0
 43
60.0
 50
180.0
  0
TEXT
  8
0
  40
90
  5
55FB
  62
2
  72
0
  71
0
 10
12329.7
 20
17515.9
 30
0.000000
  1
850
  7
SUNPOU
  0
POINT
  5
554D
  8
DEFPOINTS
 62
     0
 10
12934.73337478242
 20
17827.421674299479
 30
0.0
  0
POINT
  5
554E
  8
DEFPOINTS
 62
     0
 10
12084.73337478242
 20
17779.503825343229
 30
0.0
  0
POINT
  5
554F
  8
DEFPOINTS
 62
     0
 10
12084.73337478242
 20
17615.203965378201
 30
0.0
  0
ENDBLK
  5
3667
  8
0
  0
BLOCK
  8
0
  2
*D6
 70
     1
 10
0.0
 20
0.0
 30
0.0
  3
*D6
  1

  0
LINE
  5
557C
  8
FUTO
 62
     2
 10
15427.824787988269
 20
17824.503825343229
 30
0.0
 11
15427.824787988269
 21
17406.469903101279
 31
0.0
  0
LINE
  5
557D
  8
FUTO
 62
     2
 10
17627.824787988269
 20
17824.503825343229
 30
0.0
 11
17627.824787988269
 21
17406.469903101279
 31
0.0
  0
LINE
  5
557E
  8
FUTO
 62
     2
 10
15487.824787988269
 20
17436.469903101271
 30
0.0
 11
17567.824787988269
 21
17436.469903101271
 31
0.0
  0
INSERT
  5
557F
  8
FUTO
 62
     2
  2
_OPEN30
 10
15427.824787988269
 20
17436.469903101271
 30
0.0
 41
60.0
 42
60.0
 43
60.0
 50
180.0
  0
INSERT
  5
5580
  8
FUTO
 62
     2
  2
_OPEN30
 10
17627.824787988269
 20
17436.469903101271
 30
0.0
 41
60.0
 42
60.0
 43
60.0
  0
TEXT
  8
0
  40
90
  5
55FC
  62
2
  72
0
  71
0
 10
16347.8
 20
17337.2
 30
0.000000
  1
2200
  7
SUNPOU
  0
POINT
  5
5582
  8
DEFPOINTS
 62
     0
 10
15427.824787988269
 20
17854.503825343229
 30
0.0
  0
POINT
  5
5583
  8
DEFPOINTS
 62
     0
 10
17627.824787988269
 20
17854.503825343229
 30
0.0
  0
POINT
  5
5584
  8
DEFPOINTS
 62
     0
 10
17627.824787988269
 20
17436.469903101271
 30
0.0
  0
ENDBLK
  5
34E6
  8
0
  0
BLOCK
  8
0
  2
*D7
 70
     1
 10
0.0
 20
0.0
 30
0.0
  3
*D7
  1

  0
LINE
  5
5585
  8
FUTO
 62
     2
 10
17015.824787988269
 20
17824.503825343229
 30
0.0
 11
17015.824787988269
 21
17587.80034435886
 31
0.0
  0
LINE
  5
5586
  8
FUTO
 62
     2
 10
17627.824787988269
 20
17824.503825343229
 30
0.0
 11
17627.824787988269
 21
17587.80034435886
 31
0.0
  0
LINE
  5
5587
  8
FUTO
 62
     2
 10
17075.824787988269
 20
17617.80034435886
 30
0.0
 11
17567.824787988269
 21
17617.80034435886
 31
0.0
  0
INSERT
  5
5588
  8
FUTO
 62
     2
  2
_OPEN30
 10
17015.824787988269
 20
17617.80034435886
 30
0.0
 41
60.0
 42
60.0
 43
60.0
 50
180.0
  0
INSERT
  5
5589
  8
FUTO
 62
     2
  2
_OPEN30
 10
17627.824787988269
 20
17617.80034435886
 30
0.0
 41
60.0
 42
60.0
 43
60.0
  0
TEXT
  8
0
  40
90
  5
55FD
  62
2
  72
0
  71
0
 10
17141.8
 20
17518.5
 30
0.000000
  1
612
  7
SUNPOU
  0
POINT
  5
558B
  8
DEFPOINTS
 62
     0
 10
17015.824787988269
 20
17854.503825343229
 30
0.0
  0
POINT
  5
558C
  8
DEFPOINTS
 62
     0
 10
17627.824787988269
 20
17854.503825343229
 30
0.0
  0
POINT
  5
558D
  8
DEFPOINTS
 62
     0
 10
17627.824787988269
 20
17617.80034435886
 30
0.0
  0
ENDBLK
  5
393A
  8
0
  0
BLOCK
  8
0
  2
*D8
 70
     1
 10
0.0
 20
0.0
 30
0.0
  3
*D8
  1

  0
LINE
  5
558E
  8
FUTO
 62
     2
 10
17015.824787988269
 20
17824.503825343229
 30
0.0
 11
17015.824787988269
 21
17587.805585281461
 31
0.0
  0
LINE
  5
558F
  8
FUTO
 62
     2
 10
15427.824787988269
 20
17824.503825343229
 30
0.0
 11
15427.824787988269
 21
17587.805585281461
 31
0.0
  0
LINE
  5
5590
  8
FUTO
 62
     2
 10
16955.824787988269
 20
17617.805585281461
 30
0.0
 11
15487.824787988269
 21
17617.805585281461
 31
0.0
  0
INSERT
  5
5591
  8
FUTO
 62
     2
  2
_OPEN30
 10
17015.824787988269
 20
17617.805585281461
 30
0.0
 41
60.0
 42
60.0
 43
60.0
  0
INSERT
  5
5592
  8
FUTO
 62
     2
  2
_OPEN30
 10
15427.824787988269
 20
17617.805585281461
 30
0.0
 41
60.0
 42
60.0
 43
60.0
 50
180.0
  0
TEXT
  8
0
  40
90
  5
55FE
  62
2
  72
0
  71
0
 10
16041.8
 20
17518.5
 30
0.000000
  1
1588
  7
SUNPOU
  0
POINT
  5
5594
  8
DEFPOINTS
 62
     0
 10
17015.824787988269
 20
17854.503825343229
 30
0.0
  0
POINT
  5
5595
  8
DEFPOINTS
 62
     0
 10
15427.824787988269
 20
17854.503825343229
 30
0.0
  0
POINT
  5
5596
  8
DEFPOINTS
 62
     0
 10
15427.824787988269
 20
17617.805585281461
 30
0.0
  0
ENDBLK
  5
3947
  8
0
  0
BLOCK
  8
0
  2
_CLOSED
 70
     0
 10
0.0
 20
0.0
 30
0.0
  3
_CLOSED
  1

  0
LINE
  5
3BE3
  8
0
  6
BYBLOCK
 62
     0
 10
-1.0
 20
0.1666666666666666
 30
0.0
 11
0.0
 21
0.0
 31
0.0
  0
LINE
  5
3BE4
  8
0
  6
BYBLOCK
 62
     0
 10
0.0
 20
0.0
 30
0.0
 11
-1.0
 21
-0.1666666666666666
 31
0.0
  0
LINE
  5
3BE5
  8
0
  6
BYBLOCK
 62
     0
 10
-1.0
 20
0.1666666666666666
 30
0.0
 11
-1.0
 21
-0.1666666666666666
 31
0.0
  0
ENDBLK
  5
3BE6
  8
0
  0
BLOCK
  8
0
  2
*D10
 70
     1
 10
0.0
 20
0.0
 30
0.0
  3
*D10
  1

  0
LINE
  5
559A
  8
SP
 62
     2
 10
15195.824787988269
 20
20134.503825343229
 30
0.0
 11
15195.824787988269
 21
21073.126580023381
 31
0.0
  0
LINE
  5
559B
  8
SP
 62
     2
 10
17015.824787988269
 20
20936.221312927431
 30
0.0
 11
17015.824787988269
 21
21073.126580023381
 31
0.0
  0
LINE
  5
559C
  8
SP
 62
     2
 10
15255.824787988269
 20
21043.126580023381
 30
0.0
 11
16955.824787988269
 21
21043.126580023381
 31
0.0
  0
INSERT
  5
559D
  8
SP
 62
     2
  2
_OPEN30
 10
15195.824787988269
 20
21043.126580023381
 30
0.0
 41
60.0
 42
60.0
 43
60.0
 50
180.0
  0
INSERT
  5
559E
  8
SP
 62
     2
  2
_OPEN30
 10
17015.824787988269
 20
21043.126580023381
 30
0.0
 41
60.0
 42
60.0
 43
60.0
  0
TEXT
  8
0
  40
90
  5
55FF
  62
2
  72
0
  71
0
 10
15925.8
 20
20943.8
 30
0.000000
  1
1820
  7
SUNPOU
  0
POINT
  5
55A0
  8
DEFPOINTS
 62
     0
 10
15195.824787988269
 20
20104.503825343229
 30
0.0
  0
POINT
  5
55A1
  8
DEFPOINTS
 62
     0
 10
17015.824787988269
 20
20906.221312927431
 30
0.0
  0
POINT
  5
55A2
  8
DEFPOINTS
 62
     0
 10
17015.824787988269
 20
21043.126580023381
 30
0.0
  0
ENDBLK
  5
3C57
  8
0
  0
BLOCK
  8
0
  2
*D11
 70
     1
 10
0.0
 20
0.0
 30
0.0
  3
*D11
  1

  0
LINE
  5
5550
  8
FUTO
 62
     2
 10
17679.824787988269
 20
20424.503825343229
 30
0.0
 11
18045.434649744489
 21
20424.503825343229
 31
0.0
  0
LINE
  5
5551
  8
FUTO
 62
     2
 10
17679.824787988269
 20
19024.503825343229
 30
0.0
 11
18045.434649744489
 21
19024.503825343229
 31
0.0
  0
LINE
  5
5552
  8
FUTO
 62
     2
 10
18015.434649744489
 20
20364.503825343229
 30
0.0
 11
18015.434649744489
 21
19084.503825343229
 31
0.0
  0
INSERT
  5
5553
  8
FUTO
 62
     2
  2
_OPEN30
 10
18015.434649744489
 20
20424.503825343229
 30
0.0
 41
60.0
 42
60.0
 43
60.0
 50
90.0
  0
INSERT
  5
5554
  8
FUTO
 62
     2
  2
_OPEN30
 10
18015.434649744489
 20
19024.503825343229
 30
0.0
 41
60.0
 42
60.0
 43
60.0
 50
270.0
  0
TEXT
  8
0
  40
90
  5
5600
  62
2
  72
0
  71
0
 10
17775.4
 20
19565.2
 30
0.000000
  1
%%C1400
  7
SUNPOU
  0
POINT
  5
5556
  8
DEFPOINTS
 62
     0
 10
17649.824787988269
 20
20424.503825343229
 30
0.0
  0
POINT
  5
5557
  8
DEFPOINTS
 62
     0
 10
17649.824787988269
 20
19024.503825343229
 30
0.0
  0
POINT
  5
5558
  8
DEFPOINTS
 62
     0
 10
18015.434649744489
 20
19024.503825343229
 30
0.0
  0
ENDBLK
  5
4473
  8
0
  0
BLOCK
  8
0
  2
*D12
 70
     1
 10
0.0
 20
0.0
 30
0.0
  3
*D12
  1

  0
LINE
  5
5559
  8
FUTO
 62
     2
 10
17015.824787988269
 20
20906.221312927431
 30
0.0
 11
17015.824787988269
 21
21073.126580023381
 31
0.0
  0
LINE
  5
555A
  8
FUTO
 62
     2
 10
17649.824787988269
 20
20504.503825343229
 30
0.0
 11
17649.824787988269
 21
21073.126580023381
 31
0.0
  0
LINE
  5
555B
  8
FUTO
 62
     2
 10
17075.824787988269
 20
21043.126580023381
 30
0.0
 11
17589.824787988269
 21
21043.126580023381
 31
0.0
  0
INSERT
  5
555C
  8
FUTO
 62
     2
  2
_OPEN30
 10
17015.824787988269
 20
21043.126580023381
 30
0.0
 41
60.0
 42
60.0
 43
60.0
 50
180.0
  0
INSERT
  5
555D
  8
FUTO
 62
     2
  2
_OPEN30
 10
17649.824787988269
 20
21043.126580023381
 30
0.0
 41
60.0
 42
60.0
 43
60.0
  0
TEXT
  8
0
  40
90
  5
5601
  62
2
  72
0
  71
0
 10
17152.8
 20
20943.8
 30
0.000000
  1
634
  7
SUNPOU
  0
POINT
  5
555F
  8
DEFPOINTS
 62
     0
 10
17015.824787988269
 20
20876.221312927431
 30
0.0
  0
POINT
  5
5560
  8
DEFPOINTS
 62
     0
 10
17649.824787988269
 20
20474.503825343229
 30
0.0
  0
POINT
  5
5561
  8
DEFPOINTS
 62
     0
 10
17649.824787988269
 20
21043.126580023381
 30
0.0
  0
ENDBLK
  5
447F
  8
0
  0
BLOCK
  8
0
  2
_OPEN30
 70
     0
 10
0.0
 20
0.0
 30
0.0
  3
_OPEN30
  1

  0
LINE
  5
44D6
  8
FUTO
 62
     0
 10
-1.0
 20
0.26794919
 30
0.0
 11
0.0
 21
0.0
 31
0.0
  0
LINE
  5
44D7
  8
FUTO
 62
     0
 10
0.0
 20
0.0
 30
0.0
 11
-1.0
 21
-0.26794919
 31
0.0
  0
LINE
  5
44D8
  8
FUTO
 62
     0
 10
0.0
 20
0.0
 30
0.0
 11
-1.0
 21
0.0
 31
0.0
  0
ENDBLK
  5
44DA
  8
0
  0
BLOCK
  8
0
  2
*D14
 70
     1
 10
0.0
 20
0.0
 30
0.0
  3
*D14
  1

  0
LINE
  5
55B1
  8
FUTO
 62
     2
 10
12054.73337478242
 20
18004.503825343229
 30
0.0
 11
11426.841575730699
 21
18004.503825343229
 31
0.0
  0
LINE
  5
55B2
  8
FUTO
 62
     2
 10
12054.73337478242
 20
17854.503825343229
 30
0.0
 11
11426.841575730699
 21
17854.503825343229
 31
0.0
  0
LINE
  5
55B3
  8
FUTO
 62
     2
 10
11456.841575730699
 20
17944.503825343229
 30
0.0
 11
11456.841575730699
 21
17914.503825343229
 31
0.0
  0
LINE
  5
55B4
  8
FUTO
 62
     2
 10
11456.841575730699
 20
17854.503825343229
 30
0.0
 11
11456.841575730699
 21
17554.503825343229
 31
0.0
  0
INSERT
  5
55B5
  8
FUTO
 62
     2
  2
_OPEN30
 10
11456.841575730699
 20
18004.503825343229
 30
0.0
 41
60.0
 42
60.0
 43
60.0
 50
90.0
  0
INSERT
  5
55B6
  8
FUTO
 62
     2
  2
_OPEN30
 10
11456.841575730699
 20
17854.503825343229
 30
0.0
 41
60.0
 42
60.0
 43
60.0
 50
270.0
  0
TEXT
  8
0
  40
90
  5
5602
  62
2
  72
0
  71
0
 10
11216.8
 20
17515.2
 30
0.000000
  1
150
  7
SUNPOU
  0
POINT
  5
55B8
  8
DEFPOINTS
 62
     0
 10
12084.73337478242
 20
18004.503825343229
 30
0.0
  0
POINT
  5
55B9
  8
DEFPOINTS
 62
     0
 10
12084.73337478242
 20
17854.503825343229
 30
0.0
  0
POINT
  5
55BA
  8
DEFPOINTS
 62
     0
 10
11456.841575730699
 20
17854.503825343229
 30
0.0
  0
ENDBLK
  5
4591
  8
0
  0
BLOCK
  8
0
  2
*D15
 70
     1
 10
0.0
 20
0.0
 30
0.0
  3
*D15
  1

  0
LINE
  5
55BB
  8
FUTO
 62
     2
 10
12934.73337478242
 20
24411.621536138369
 30
0.0
 11
12934.73337478242
 21
24515.184781681659
 31
0.0
  0
LINE
  5
55BC
  8
FUTO
 62
     2
 10
14484.73337478242
 20
22885.748958488781
 30
0.0
 11
14484.73337478242
 21
24515.184781681659
 31
0.0
  0
LINE
  5
55BD
  8
FUTO
 62
     2
 10
12994.73337478242
 20
24485.18478168167
 30
0.0
 11
14424.73337478242
 21
24485.18478168167
 31
0.0
  0
INSERT
  5
55BE
  8
FUTO
 62
     2
  2
_OPEN30
 10
12934.73337478242
 20
24485.18478168167
 30
0.0
 41
60.0
 42
60.0
 43
60.0
 50
180.0
  0
INSERT
  5
55BF
  8
FUTO
 62
     2
  2
_OPEN30
 10
14484.73337478242
 20
24485.18478168167
 30
0.0
 41
60.0
 42
60.0
 43
60.0
  0
TEXT
  8
0
  40
90
  5
5603
  62
2
  72
0
  71
0
 10
13529.7
 20
24385.9
 30
0.000000
  1
1550
  7
SUNPOU
  0
POINT
  5
55C1
  8
DEFPOINTS
 62
     0
 10
12934.73337478242
 20
24381.62153613838
 30
0.0
  0
POINT
  5
55C2
  8
DEFPOINTS
 62
     0
 10
14484.73337478242
 20
22855.748958488781
 30
0.0
  0
POINT
  5
55C3
  8
DEFPOINTS
 62
     0
 10
14484.73337478242
 20
24485.18478168167
 30
0.0
  0
ENDBLK
  5
45B4
  8
0
  0
BLOCK
  8
0
  2
*D16
 70
     1
 10
0.0
 20
0.0
 30
0.0
  3
*D16
  1

  0
LINE
  5
55C4
  8
FUTO
 62
     2
 10
11727.2133742029
 20
23466.748958488781
 30
0.0
 11
11494.42747194255
 21
23466.748958488781
 31
0.0
  0
LINE
  5
55C5
  8
FUTO
 62
     2
 10
12154.73337478242
 20
24100.748958488781
 30
0.0
 11
11494.42747194255
 21
24100.748958488781
 31
0.0
  0
LINE
  5
55C6
  8
FUTO
 62
     2
 10
11524.42747194255
 20
23526.748958488781
 30
0.0
 11
11524.42747194255
 21
24040.748958488781
 31
0.0
  0
INSERT
  5
55C7
  8
FUTO
 62
     2
  2
_OPEN30
 10
11524.42747194255
 20
23466.748958488781
 30
0.0
 41
60.0
 42
60.0
 43
60.0
 50
270.0
  0
INSERT
  5
55C8
  8
FUTO
 62
     2
  2
_OPEN30
 10
11524.42747194255
 20
24100.748958488781
 30
0.0
 41
60.0
 42
60.0
 43
60.0
 50
90.0
  0
TEXT
  8
0
  40
90
  5
5604
  62
2
  72
0
  71
0
 10
11284.4
 20
23624.4
 30
0.000000
  1
634
  7
SUNPOU
  0
POINT
  5
55CA
  8
DEFPOINTS
 62
     0
 10
11757.2133742029
 20
23466.748958488781
 30
0.0
  0
POINT
  5
55CB
  8
DEFPOINTS
 62
     0
 10
12184.73337478242
 20
24100.748958488781
 30
0.0
  0
POINT
  5
55CC
  8
DEFPOINTS
 62
     0
 10
11524.42747194255
 20
24100.748958488781
 30
0.0
  0
ENDBLK
  5
45C1
  8
0
  0
BLOCK
  8
0
  2
*D17
 70
     1
 10
0.0
 20
0.0
 30
0.0
  3
*D17
  1

  0
LINE
  5
55CD
  8
FUTO
 62
     2
 10
12524.73337478242
 20
21646.748958488781
 30
0.0
 11
11494.42747194255
 21
21646.748958488781
 31
0.0
  0
LINE
  5
55CE
  8
FUTO
 62
     2
 10
11524.42747194255
 20
23406.748958488781
 30
0.0
 11
11524.42747194255
 21
21706.748958488781
 31
0.0
  0
INSERT
  5
55CF
  8
FUTO
 62
     2
  2
_OPEN30
 10
11524.42747194255
 20
23466.748958488781
 30
0.0
 41
60.0
 42
60.0
 43
60.0
 50
90.0
  0
INSERT
  5
55D0
  8
FUTO
 62
     2
  2
_OPEN30
 10
11524.42747194255
 20
21646.748958488781
 30
0.0
 41
60.0
 42
60.0
 43
60.0
 50
270.0
  0
TEXT
  8
0
  40
90
  5
5605
  62
2
  72
0
  71
0
 10
11284.4
 20
22397.4
 30
0.000000
  1
1820
  7
SUNPOU
  0
POINT
  5
55D2
  8
DEFPOINTS
 62
     0
 10
11524.42747194255
 20
23466.748958488781
 30
0.0
  0
POINT
  5
55D3
  8
DEFPOINTS
 62
     0
 10
12554.73337478242
 20
21646.748958488781
 30
0.0
  0
POINT
  5
55D4
  8
DEFPOINTS
 62
     0
 10
11524.42747194255
 20
21646.748958488781
 30
0.0
  0
ENDBLK
  5
45CD
  8
0
  0
BLOCK
  8
0
  2
*D18
 70
     1
 10
0.0
 20
0.0
 30
0.0
  3
*D18
  1

  0
LINE
  5
55D5
  8
FUTO
 62
     2
 10
12934.73337478242
 20
24411.621536138369
 30
0.0
 11
12934.73337478242
 21
24515.184781681659
 31
0.0
  0
LINE
  5
55D6
  8
FUTO
 62
     2
 10
12004.73337478242
 20
24080.748958488781
 30
0.0
 11
12004.73337478242
 21
24515.184781681659
 31
0.0
  0
LINE
  5
55D7
  8
FUTO
 62
     2
 10
12874.73337478242
 20
24485.18478168167
 30
0.0
 11
12064.73337478242
 21
24485.18478168167
 31
0.0
  0
INSERT
  5
55D8
  8
FUTO
 62
     2
  2
_OPEN30
 10
12934.73337478242
 20
24485.18478168167
 30
0.0
 41
60.0
 42
60.0
 43
60.0
  0
INSERT
  5
55D9
  8
FUTO
 62
     2
  2
_OPEN30
 10
12004.73337478242
 20
24485.18478168167
 30
0.0
 41
60.0
 42
60.0
 43
60.0
 50
180.0
  0
TEXT
  8
0
  40
90
  5
5606
  62
2
  72
0
  71
0
 10
12289.7
 20
24385.9
 30
0.000000
  1
930
  7
SUNPOU
  0
POINT
  5
55DB
  8
DEFPOINTS
 62
     0
 10
12934.73337478242
 20
24381.62153613838
 30
0.0
  0
POINT
  5
55DC
  8
DEFPOINTS
 62
     0
 10
12004.73337478242
 20
24050.748958488781
 30
0.0
  0
POINT
  5
55DD
  8
DEFPOINTS
 62
     0
 10
12004.73337478242
 20
24485.18478168167
 30
0.0
  0
ENDBLK
  5
471E
  8
0
  0
BLOCK
  8
0
  2
*D19
 70
     1
 10
0.0
 20
0.0
 30
0.0
  3
*D19
  1

  0
LINE
  5
55DE
  8
FUTO
 62
     2
 10
12054.73337478242
 20
18024.503825343229
 30
0.0
 11
11426.841575730699
 21
18024.503825343229
 31
0.0
  0
LINE
  5
55DF
  8
FUTO
 62
     2
 10
11726.72939613509
 20
19724.503825343229
 30
0.0
 11
11426.841575730699
 21
19724.503825343229
 31
0.0
  0
LINE
  5
55E0
  8
FUTO
 62
     2
 10
11456.841575730699
 20
18084.503825343229
 30
0.0
 11
11456.841575730699
 21
19664.503825343229
 31
0.0
  0
INSERT
  5
55E1
  8
FUTO
 62
     2
  2
_OPEN30
 10
11456.841575730699
 20
18024.503825343229
 30
0.0
 41
60.0
 42
60.0
 43
60.0
 50
270.0
  0
INSERT
  5
55E2
  8
FUTO
 62
     2
  2
_OPEN30
 10
11456.841575730699
 20
19724.503825343229
 30
0.0
 41
60.0
 42
60.0
 43
60.0
 50
90.0
  0
TEXT
  8
0
  40
90
  5
5607
  62
2
  72
0
  71
0
 10
11216.8
 20
18715.2
 30
0.000000
  1
1700
  7
SUNPOU
  0
POINT
  5
55E4
  8
DEFPOINTS
 62
     0
 10
12084.73337478242
 20
18024.503825343229
 30
0.0
  0
POINT
  5
55E5
  8
DEFPOINTS
 62
     0
 10
11756.72939613509
 20
19724.503825343229
 30
0.0
  0
POINT
  5
55E6
  8
DEFPOINTS
 62
     0
 10
11456.841575730699
 20
19724.503825343229
 30
0.0
  0
ENDBLK
  5
4899
  8
0
  0
BLOCK
  8
0
  2
*D20
 70
     1
 10
0.0
 20
0.0
 30
0.0
  3
*D20
  1

  0
LINE
  5
55E7
  8
FUTO
 62
     2
 10
11726.72939613509
 20
19724.503825343229
 30
0.0
 11
11426.84157573069
 21
19724.503825343229
 31
0.0
  0
LINE
  5
55E8
  8
FUTO
 62
     2
 10
12797.61977193985
 20
20727.503825343229
 30
0.0
 11
11426.841575730699
 21
20727.503825343229
 31
0.0
  0
LINE
  5
55E9
  8
FUTO
 62
     2
 10
11456.841575730699
 20
19784.503825343229
 30
0.0
 11
11456.841575730699
 21
20667.503825343229
 31
0.0
  0
INSERT
  5
55EA
  8
FUTO
 62
     2
  2
_OPEN30
 10
11456.841575730699
 20
19724.503825343229
 30
0.0
 41
60.0
 42
60.0
 43
60.0
 50
270.0
  0
INSERT
  5
55EB
  8
FUTO
 62
     2
  2
_OPEN30
 10
11456.841575730699
 20
20727.503825343229
 30
0.0
 41
60.0
 42
60.0
 43
60.0
 50
90.0
  0
TEXT
  8
0
  40
90
  5
5608
  62
2
  72
0
  71
0
 10
11216.8
 20
20066.7
 30
0.000000
  1
1003
  7
SUNPOU
  0
POINT
  5
55ED
  8
DEFPOINTS
 62
     0
 10
11756.72939613509
 20
19724.503825343229
 30
0.0
  0
POINT
  5
55EE
  8
DEFPOINTS
 62
     0
 10
12827.61977193985
 20
20727.503825343229
 30
0.0
  0
POINT
  5
55EF
  8
DEFPOINTS
 62
     0
 10
11456.841575730699
 20
20727.503825343229
 30
0.0
  0
ENDBLK
  5
48A7
  8
0
  0
BLOCK
  8
0
  2
*D21
 70
     1
 10
0.0
 20
0.0
 30
0.0
  3
*D21
  1

  0
LINE
  5
55F0
  8
FUTO
 62
     2
 10
12934.73337478242
 20
20857.533758641279
 30
0.0
 11
12934.73337478242
 21
21058.379319733431
 31
0.0
  0
LINE
  5
55F1
  8
FUTO
 62
     2
 10
12004.73337478242
 20
19767.503825343229
 30
0.0
 11
12004.73337478242
 21
21058.379319733431
 31
0.0
  0
LINE
  5
55F2
  8
FUTO
 62
     2
 10
12874.73337478242
 20
21028.379319733431
 30
0.0
 11
12064.73337478242
 21
21028.379319733431
 31
0.0
  0
INSERT
  5
55F3
  8
FUTO
 62
     2
  2
_OPEN30
 10
12934.73337478242
 20
21028.379319733431
 30
0.0
 41
60.0
 42
60.0
 43
60.0
  0
INSERT
  5
55F4
  8
FUTO
 62
     2
  2
_OPEN30
 10
12004.73337478242
 20
21028.379319733431
 30
0.0
 41
60.0
 42
60.0
 43
60.0
 50
180.0
  0
TEXT
  8
0
  40
90
  5
5609
  62
2
  72
0
  71
0
 10
12289.7
 20
20929.1
 30
0.000000
  1
930
  7
SUNPOU
  0
POINT
  5
55F6
  8
DEFPOINTS
 62
     0
 10
12934.73337478242
 20
20827.533758641279
 30
0.0
  0
POINT
  5
55F7
  8
DEFPOINTS
 62
     0
 10
12004.73337478242
 20
19737.503825343229
 30
0.0
  0
POINT
  5
55F8
  8
DEFPOINTS
 62
     0
 10
12004.73337478242
 20
21028.379319733431
 30
0.0
  0
ENDBLK
  5
48B4
  8
0
  0
BLOCK
  8
0
  2
*U22
 70
     1
 10
0.0
 20
0.0
 30
0.0
  3
*U22
  1

  0
SOLID
  5
55A4
  8
FUTO
  6
CONTINUOUS
 10
-12287.465224128449
 20
18024.503825343229
 30
0.0
 11
-12327.465224128449
 21
18024.503825343229
 31
0.0
 12
-12287.465224128449
 22
18004.503825343229
 32
0.0
 13
-12287.465224128449
 23
18004.503825343229
 33
0.0
210
0.0
220
0.0
230
-1.0
  0
SOLID
  5
55A5
  8
FUTO
  6
CONTINUOUS
 10
-12327.465224128449
 20
18004.503825343229
 30
0.0
 11
-12287.465224128449
 21
18004.503825343229
 31
0.0
 12
-12327.465224128449
 22
18024.503825343229
 32
0.0
 13
-12327.465224128449
 23
18024.503825343229
 33
0.0
210
0.0
220
0.0
230
-1.0
  0
SOLID
  5
55A6
  8
FUTO
  6
CONTINUOUS
 10
-12247.465224128449
 20
18024.503825343229
 30
0.0
 11
-12287.465224128449
 21
18024.503825343229
 31
0.0
 12
-12247.465224128449
 22
18004.503825343229
 32
0.0
 13
-12247.465224128449
 23
18004.503825343229
 33
0.0
210
0.0
220
0.0
230
-1.0
  0
SOLID
  5
55A7
  8
FUTO
  6
CONTINUOUS
 10
-12287.465224128449
 20
18004.503825343229
 30
0.0
 11
-12247.465224128449
 21
18004.503825343229
 31
0.0
 12
-12287.465224128449
 22
18024.503825343229
 32
0.0
 13
-12287.465224128449
 23
18024.503825343229
 33
0.0
210
0.0
220
0.0
230
-1.0
  0
ENDBLK
  5
55A9
  8
0
  0
BLOCK
  8
0
  2
*U23
 70
     1
 10
0.0
 20
0.0
 30
0.0
  3
*U23
  1

  0
SOLID
  5
55AB
  8
FUTO
  6
CONTINUOUS
 10
14434.73337478242
 20
18024.503825343229
 30
0.0
 11
14434.73337478242
 21
18004.503825343229
 31
0.0
 12
14474.73337478242
 22
18024.503825343229
 32
0.0
 13
14474.73337478242
 23
18024.503825343229
 33
0.0
210
0.0
220
0.0
230
1.0
  0
SOLID
  5
55AC
  8
FUTO
  6
CONTINUOUS
 10
14474.73337478242
 20
18004.503825343229
 30
0.0
 11
14474.73337478242
 21
18024.503825343229
 31
0.0
 12
14434.73337478242
 22
18004.503825343229
 32
0.0
 13
14434.73337478242
 23
18004.503825343229
 33
0.0
210
0.0
220
0.0
230
1.0
  0
SOLID
  5
55AD
  8
FUTO
  6
CONTINUOUS
 10
14394.73337478242
 20
18024.503825343229
 30
0.0
 11
14394.73337478242
 21
18004.503825343229
 31
0.0
 12
14434.73337478242
 22
18024.503825343229
 32
0.0
 13
14434.73337478242
 23
18024.503825343229
 33
0.0
210
0.0
220
0.0
230
1.0
  0
SOLID
  5
55AE
  8
FUTO
  6
CONTINUOUS
 10
14434.73337478242
 20
18004.503825343229
 30
0.0
 11
14434.73337478242
 21
18024.503825343229
 31
0.0
 12
14394.73337478242
 22
18004.503825343229
 32
0.0
 13
14394.73337478242
 23
18004.503825343229
 33
0.0
210
0.0
220
0.0
230
1.0
  0
ENDBLK
  5
55B0
  8
0
  0
ENDSEC
  0
SECTION
  2
ENTITIES
  0
LINE
  5
1F
  8
FUTO
 10
15422.824787988269
 20
18004.503825343229
 30
0.0
 11
17630.824787988269
 21
18004.503825343229
 31
0.0
1001
ACAD
1000
ASC_BOUNDS
1002
{
1070
    19
1005
3975
1002
}
  0
LINE
  5
41
  8
FUTO
 10
15427.824787988269
 20
17854.503825343229
 30
0.0
 11
17627.824787988269
 21
17854.503825343229
 31
0.0
  0
LINE
  5
42
  8
FUTO
 10
15422.824787988269
 20
18024.503825343229
 30
0.0
 11
17630.824787988269
 21
18024.503825343229
 31
0.0
1001
ACAD
1000
ASC_BOUNDS
1002
{
1070
    19
1005
3975
1002
}
  0
LINE
  5
116
  8
FUTO
 10
16344.824787988269
 20
19769.503825343229
 30
0.0
 11
16406.324787988269
 21
19769.503825343229
 31
0.0
  0
LINE
  5
117
  8
FUTO
 10
16344.824787988269
 20
19679.503825343229
 30
0.0
 11
16407.624787988269
 21
19679.503825343229
 31
0.0
  0
LINE
  5
118
  8
FUTO
 10
15428.824787988269
 20
18174.503825343229
 30
0.0
 11
17628.02478798827
 21
18174.503825343229
 31
0.0
  0
LINE
  5
119
  8
CT
 10
15144.97465450289
 20
19724.503825343229
 30
0.0
 11
17743.152265960271
 21
19724.503825343229
 31
0.0
  0
ARC
  5
11C
  8
FUTO
 10
13036.73337478242
 20
19622.503825343229
 30
0.0
 40
1125.0
 50
5.201961084891658
 51
95.201961084891551
  0
LINE
  5
14C
  8
SL
 10
15405.824787988269
 20
19804.503825343229
 30
0.0
 11
15405.824787988269
 21
19644.503825343229
 31
0.0
  0
LINE
  5
162
  8
CT
 10
15565.824787988269
 20
19843.007322303351
 30
0.0
 11
15565.824787988269
 21
19561.673193556511
 31
0.0
  0
LINE
  5
163
  8
CT
 10
12789.73337478242
 20
19614.503825343229
 30
0.0
 11
12789.73337478242
 21
19668.503825343229
 31
0.0
  0
ARC
  5
164
  8
FUTO
 10
12823.73337478242
 20
19674.503825343229
 30
0.0
 40
16.0
 50
270.0
 51
0.000000000000007
  0
ARC
  5
165
  8
FUTO
 10
12934.73337478242
 20
19724.503825343221
 30
0.0
 40
95.000000000000071
 50
209.9999999999994
 51
230.94387397238239
  0
ARC
  5
168
  8
FUTO
 10
12934.73337478242
 20
19724.503825343221
 30
0.0
 40
94.999999999997485
 50
309.05612602761818
 51
330.00000000000108
  0
LINE
  5
169
  8
CT
 10
13079.73337478242
 20
19614.503825343229
 30
0.0
 11
13079.73337478242
 21
19668.503825343229
 31
0.0
  0
ARC
  5
16A
  8
FUTO
 10
13045.73337478242
 20
19674.503825343229
 30
0.0
 40
16.0
 50
180.0
 51
270.0
  0
LINE
  5
16B
  8
CT
 10
12934.73337478242
 20
19849.007322303351
 30
0.0
 11
12934.73337478242
 21
19607.262486187628
 31
0.0
  0
ARC
  5
178
  8
KL
 10
13020.23337478242
 20
19810.003825343229
 30
0.0
 40
917.5
 50
90.000000000000071
 51
180.0
  0
LINE
  5
17D
  8
FUTO
 10
15195.824787988269
 20
20104.503825343229
 30
0.0
 11
15195.824787988269
 21
18214.503825343229
 31
0.0
  0
LINE
  5
17E
  8
SL
 10
15305.824787988269
 20
19974.503825343229
 30
0.0
 11
15305.824787988269
 21
18328.503825343229
 31
0.0
  0
LINE
  5
17F
  8
SL
 10
15383.724787988271
 20
19974.503825343229
 30
0.0
 11
15383.724787988271
 21
18328.503825343229
 31
0.0
  0
ARC
  5
180
  8
FUTO
 10
12832.73337478242
 20
19622.503825343229
 30
0.0
 40
1329.0
 50
295.3074078808778
 51
307.91318572112198
  0
ARC
  5
183
  8
FUTO
 10
12934.73337478242
 20
19724.503825343229
 30
0.0
 40
380.0
 50
37.719539827013911
 51
228.14039886690389
  0
LINE
  5
184
  8
CT
 10
12934.73337478242
 20
20827.533758641279
 30
0.0
 11
12934.73337478242
 21
17806.706067555438
 31
0.0
  0
LINE
  5
185
  8
FUTO
 10
13774.73337478242
 20
20471.609825793112
 30
0.0
 11
13774.73337478242
 21
19259.557739514919
 31
0.0
  0
LINE
  5
186
  8
FUTO
 10
13765.73337478242
 20
20479.34920229288
 30
0.0
 11
13765.73337478242
 21
19271.19417495151
 31
0.0
  0
LINE
  5
187
  8
FUTO
 10
12094.73337478242
 20
18174.503825343229
 30
0.0
 11
12094.73337478242
 21
19959.52305487575
 31
0.0
  0
LINE
  5
188
  8
FUTO
 10
12103.73337478242
 20
18174.503825343229
 30
0.0
 11
12103.73337478242
 21
20007.32082917208
 31
0.0
  0
CIRCLE
  5
18B
  8
SL
 10
12934.73337478242
 20
19724.503825343229
 30
0.0
 40
250.0
  0
ARC
  5
18C
  8
KL
 10
12832.73337478242
 20
19622.503825343229
 30
0.0
 40
1309.0
 50
275.15414040245679
 51
0.0000000000000635
  0
LINE
  5
19A
  8
CT
 10
16275.824787988269
 20
19843.007322303351
 30
0.0
 11
16275.824787988269
 21
19539.33966212807
 31
0.0
  0
LINE
  5
19B
  8
FUTO
 10
12084.73337478242
 20
18024.503825343229
 30
0.0
 11
14484.73337478242
 21
18024.503825343229
 31
0.0
1001
ACAD
1000
ASC_BOUNDS
1002
{
1070
    19
1005
0
1005
0
1005
0
1005
0
1005
0
1005
0
1005
0
1005
0
1005
0
1005
0
1005
0
1005
0
1005
0
1005
0
1005
0
1005
0
1005
0
1005
0
1005
0
1005
0
1005
0
1002
}
  0
LINE
  5
19C
  8
FUTO
 10
12084.73337478242
 20
18004.503825343229
 30
0.0
 11
14484.73337478242
 21
18004.503825343229
 31
0.0
1001
ACAD
1000
ASC_BOUNDS
1002
{
1070
    19
1005
0
1005
0
1005
0
1005
0
1005
0
1005
0
1005
0
1005
0
1005
0
1005
0
1005
0
1005
0
1005
0
1005
0
1005
0
1005
0
1005
0
1005
0
1005
0
1005
0
1005
0
1002
}
  0
DIMENSION
  5
276
  8
FUTO
  2
*D3
 10
14484.73337478242
 20
17615.203965378201
 30
0.0
 11
13709.73337478242
 21
17675.203965378201
 31
0.0
 70
     0
 13
12934.73337478242
 23
17827.421674299479
 33
0.0
 14
14484.73337478242
 24
17779.503825343229
 34
0.0
 50
180.0
1001
ACAD
1000
DSTYLE
1002
{
1070
    40
1040
30.0
1070
   176
1070
     2
1070
   177
1070
     2
1070
   178
1070
     2
1070
   341
1005
44D5
1070
     5
1000
OPEN30
1002
}
  0
DIMENSION
  5
283
  8
FUTO
  2
*D4
 10
12084.73337478242
 20
17432.286648394122
 30
0.0
 11
13284.73337478242
 21
17492.286648394111
 31
0.0
 70
     0
 13
14484.73337478242
 23
17854.503825343229
 33
0.0
 14
12084.73337478242
 24
17854.503825343229
 34
0.0
 50
180.0
1001
ACAD
1000
DSTYLE
1002
{
1070
    40
1040
30.0
1070
   176
1070
     2
1070
   177
1070
     2
1070
   178
1070
     2
1070
   341
1005
44D5
1070
     5
1000
OPEN30
1002
}
  0
LINE
  5
293
  8
FUTO
 10
13874.73337478242
 20
18248.9974607607
 30
0.0
 11
13821.53244167827
 21
18248.9974607607
 31
0.0
  0
LINE
  5
294
  8
FUTO
 10
12084.73337478242
 20
18174.503825343229
 30
0.0
 11
14484.73337478242
 21
18174.503825343229
 31
0.0
  0
LINE
  5
295
  8
FUTO
 10
12084.73337478242
 20
17854.503825343229
 30
0.0
 11
14484.73337478242
 21
17854.503825343229
 31
0.0
  0
LINE
  5
2AC
  8
FUTO
 10
13874.73337478242
 20
18174.503825343229
 30
0.0
 11
13874.73337478242
 21
18265.684257685429
 31
0.0
  0
LINE
  5
2AD
  8
FUTO
 10
13874.73337478242
 20
18174.503825343229
 30
0.0
 11
13884.741710692861
 21
18234.503825343229
 31
0.0
  0
LINE
  5
2AE
  8
FUTO
 10
14394.73337478242
 20
18174.503825343229
 30
0.0
 11
14394.73337478242
 21
18265.684257685429
 31
0.0
  0
LINE
  5
2AF
  8
FUTO
 10
14394.73337478242
 20
18174.503825343229
 30
0.0
 11
14384.72503887198
 21
18234.503825343229
 31
0.0
  0
ARC
  5
2B0
  8
FUTO
 10
14134.73337478242
 20
18434.503825343229
 30
0.0
 40
220.0
 50
228.14039886690381
 51
37.719539827013897
  0
LINE
  5
2B2
  8
FUTO
 10
14484.73337478242
 20
18004.503825343221
 30
0.0
 11
14484.73337478242
 21
17854.503825343221
 31
0.0
  0
POINT
  5
2B3
  8
DEFPOINTS
 10
14484.73337478242
 20
18024.503825343229
 30
0.0
  0
POINT
  5
2B4
  8
DEFPOINTS
 10
14484.73337478242
 20
18004.503825343229
 30
0.0
  0
POINT
  5
2B5
  8
DEFPOINTS
 10
14484.73337478242
 20
18004.503825343229
 30
0.0
  0
LINE
  5
2B6
  8
FUTO
 10
14484.73337478242
 20
18174.503825343229
 30
0.0
 11
14484.73337478242
 21
18024.503825343229
 31
0.0
  0
LINE
  5
2BD
  8
CT
 10
14337.288550782419
 20
18509.503825343229
 30
0.0
 11
14373.721900782421
 21
18509.503825343229
 31
0.0
  0
LINE
  5
2BE
  8
FUTO
 10
14354.73337478242
 20
18449.503825343229
 30
0.0
 11
14337.67990778242
 21
18449.503825343229
 31
0.0
  0
LINE
  5
2BF
  8
FUTO
 10
14354.73337478242
 20
18569.503825343229
 30
0.0
 11
14287.00705678242
 21
18569.503825343229
 31
0.0
  0
ARC
  5
2C0
  8
FUTO
 10
14362.93332578242
 20
18575.970378343231
 30
0.0
 40
8.1999940000000002
 50
107.30986
 51
180.0
  0
LINE
  5
2C1
  8
FUTO
 10
14384.72503887198
 20
18234.503825343229
 30
0.0
 11
14218.071694360669
 21
18234.503825343229
 31
0.0
  0
LINE
  5
2C2
  8
FUTO
 10
14333.18834737155
 20
18248.9974607607
 30
0.0
 11
14368.002899075669
 21
18248.9974607607
 31
0.0
  0
LINE
  5
2C3
  8
FUTO
 10
14355.00534778242
 20
18435.861735343231
 30
0.0
 11
14365.40390678242
 21
18392.187663343229
 31
0.0
  0
LINE
  5
2C4
  8
FUTO
 10
14531.525977782419
 20
18401.91837634323
 30
0.0
 11
14531.525977782419
 21
18539.71085634323
 31
0.0
  0
LINE
  5
2C5
  8
FUTO
 10
14371.525977782419
 20
18619.365641343229
 30
0.0
 11
14520.275977782419
 21
18361.72306334323
 31
0.0
  0
LINE
  5
2C6
  8
FUTO
 10
14365.98337478242
 20
18616.16569034323
 30
0.0
 11
14514.73337478242
 21
18358.523112343231
 31
0.0
  0
LINE
  5
2C7
  8
FUTO
 10
14377.73337478242
 20
18354.503825343229
 30
0.0
 11
14497.73337478242
 21
18354.503825343229
 31
0.0
  0
LINE
  5
2C8
  8
FUTO
 10
14375.131934782419
 20
18384.503825343229
 30
0.0
 11
14499.73337478242
 21
18384.503825343229
 31
0.0
  0
ARC
  5
2C9
  8
FUTO
 10
14508.258276782421
 20
18386.538493343229
 30
0.0
 40
2.0000450000000001
 50
107.313553
 51
209.99818400000001
  0
LINE
  5
2CA
  8
FUTO
 10
14525.76584578242
 20
18394.089762343228
 30
0.0
 11
14507.66306278242
 21
18388.44791734323
 31
0.0
  0
LINE
  5
2CB
  8
FUTO
 10
14520.275977782419
 20
18361.72306334323
 30
0.0
 11
14514.73337478242
 21
18358.523112343231
 31
0.0
  0
LINE
  5
2CC
  8
FUTO
 10
14497.73337478242
 20
18354.503825343229
 30
0.0
 11
14497.73337478242
 21
18384.503825343229
 31
0.0
  0
ARC
  5
2CD
  8
FUTO
 10
14523.325903782419
 20
18401.91837634323
 30
0.0
 40
8.2000299999999982
 50
287.31066900000002
 51
0.000000000000007
  0
LINE
  5
2CE
  8
FUTO
 10
14377.73337478242
 20
18354.503825343229
 30
0.0
 11
14377.73337478242
 21
18384.503825343229
 31
0.0
  0
LINE
  5
2CF
  8
FUTO
 10
14407.73337478242
 20
18354.503825343229
 30
0.0
 11
14407.73337478242
 21
18384.503825343229
 31
0.0
  0
LINE
  5
2D0
  8
FUTO
 10
14410.73337478242
 20
18354.503825343229
 30
0.0
 11
14410.73337478242
 21
18384.503825343229
 31
0.0
  0
ARC
  5
2D1
  8
FUTO
 10
14375.131934782419
 20
18394.503825343229
 30
0.0
 40
9.9999559999999992
 50
193.392303
 51
270.0
  0
LINE
  5
2D2
  8
CT
 10
14437.73337478242
 20
18398.58683334323
 30
0.0
 11
14437.73337478242
 21
18346.36539734323
 31
0.0
  0
LINE
  5
2D3
  8
FUTO
 10
14467.73337478242
 20
18354.503825343229
 30
0.0
 11
14467.73337478242
 21
18384.503825343229
 31
0.0
  0
LINE
  5
2D4
  8
FUTO
 10
14464.73337478242
 20
18354.503825343229
 30
0.0
 11
14464.73337478242
 21
18384.503825343229
 31
0.0
  0
LINE
  5
2D5
  8
FUTO
 10
14394.73337478242
 20
18248.9974607607
 30
0.0
 11
14447.93430788656
 21
18248.9974607607
 31
0.0
  0
LINE
  5
2D6
  8
FUTO
 10
14447.93430788656
 20
18256.453256188899
 30
0.0
 11
14456.815548025381
 21
18256.453256188899
 31
0.0
  0
LINE
  5
2D7
  8
FUTO
 10
14447.93430788656
 20
18242.251731275399
 30
0.0
 11
14447.93430788656
 21
18256.453256188899
 31
0.0
  0
LINE
  5
2D8
  8
FUTO
 10
14457.170798868739
 20
18242.251731275399
 30
0.0
 11
14447.93430788656
 21
18242.251731275399
 31
0.0
  0
LINE
  5
2D9
  8
FUTO
 10
14457.170798868739
 20
18256.09822321745
 30
0.0
 11
14457.170798868739
 21
18242.251731275399
 31
0.0
  0
LINE
  5
2DA
  8
FUTO
 10
14368.002899075669
 20
18265.684257685429
 30
0.0
 11
14368.002899075669
 21
18234.503825343229
 31
0.0
  0
LINE
  5
2DB
  8
FUTO
 10
14394.73337478242
 20
18265.684257685429
 30
0.0
 11
14368.002899075669
 21
18265.684257685429
 31
0.0
  0
LINE
  5
2DC
  8
FUTO
 10
14511.12729578242
 20
18593.384928343228
 30
0.0
 11
14386.525977782419
 21
18593.384928343228
 31
0.0
  0
ARC
  5
2DD
  8
FUTO
 10
14511.12729578242
 20
18583.384928343228
 30
0.0
 40
10.000075000000001
 50
13.392141000000001
 51
90.0
  0
ARC
  5
2DE
  8
FUTO
 10
14521.52524478242
 20
18539.710612343231
 30
0.0
 40
10.000731999999999
 50
0.0013990000000172
 51
13.392693
  0
LINE
  5
2DF
  8
FUTO
 10
14520.855444782421
 20
18585.701091343231
 30
0.0
 11
14531.25400478242
 21
18542.027018343229
 31
0.0
  0
LINE
  5
2E0
  8
FUTO
 10
14371.525977782419
 20
18619.365641343229
 30
0.0
 11
14365.98337478242
 21
18616.16569034323
 31
0.0
  0
ARC
  5
2E1
  8
FUTO
 10
14378.00107478242
 20
18591.350260343232
 30
0.0
 40
2.000008999999999
 50
287.31021099999992
 51
29.999931000000021
  0
LINE
  5
2E2
  8
FUTO
 10
14378.59616778242
 20
18589.440837343231
 30
0.0
 11
14360.493506782421
 21
18583.798991343228
 31
0.0
  0
ARC
  5
2E3
  8
FUTO
 10
14364.73337478242
 20
18438.17789734323
 30
0.0
 40
10.0
 50
180.0
 51
193.392303
  0
LINE
  5
2E4
  8
FUTO
 10
14354.73337478242
 20
18438.17789734323
 30
0.0
 11
14354.73337478242
 21
18575.970378343231
 31
0.0
  0
LINE
  5
2E5
  8
FUTO
 10
14128.48337478242
 20
18648.150798343231
 30
0.0
 11
14128.48337478242
 21
18698.253825343229
 31
0.0
  0
LINE
  5
2E6
  8
FUTO
 10
14140.98337478242
 20
18648.150798343231
 30
0.0
 11
14140.98337478242
 21
18698.253825343229
 31
0.0
  0
LINE
  5
2E7
  8
CT
 10
14134.73337478242
 20
18710.82291734323
 30
0.0
 11
14134.73337478242
 21
18230.798991343228
 31
0.0
  0
CIRCLE
  5
2E8
  8
FUTO
 10
14134.73337478242
 20
18434.503825343229
 30
0.0
 40
40.0
  0
LINE
  5
2E9
  8
FUTO
 10
14189.471411782421
 20
18238.503825343229
 30
0.0
 11
14079.99533778242
 21
18238.503825343229
 31
0.0
  0
LINE
  5
2EA
  8
CT
 10
13919.89426378242
 20
18434.503825343229
 30
0.0
 11
14348.724463782421
 21
18434.503825343229
 31
0.0
  0
LINE
  5
2EB
  8
CT
 10
13947.23337478242
 20
18434.503825343229
 30
0.0
 11
14334.76833212854
 21
18434.503825343229
 31
0.0
  0
CIRCLE
  5
2EC
  8
SL
 10
14134.73337478242
 20
18434.503825343229
 30
0.0
 40
106.0
  0
LINE
  5
2ED
  8
FUTO
 10
14051.39505520417
 20
18225.027480781631
 30
0.0
 11
14134.746155669951
 21
18225.027480781631
 31
0.0
  0
ARC
  5
2EE
  8
FUTO
 10
14134.73337478242
 20
18434.503825343229
 30
0.0
 40
203.5
 50
285.60376000000002
 51
254.3962709999999
  0
CIRCLE
  5
2EF
  8
FUTO
 10
14134.73337478242
 20
18434.503825343229
 30
0.0
 40
7.5
  0
LINE
  5
2F0
  8
CT
 10
14134.73337478242
 20
18222.003825343229
 30
0.0
 11
14134.73337478242
 21
18637.626830693782
 31
0.0
  0
LINE
  5
2F1
  8
FUTO
 10
14285.64743778242
 20
18297.985514343229
 30
0.0
 11
14290.44553278242
 21
18293.951091343231
 31
0.0
  0
LINE
  5
2F2
  8
FUTO
 10
14287.242163782421
 20
18292.036051343232
 30
0.0
 11
14283.650122782419
 21
18295.628092343231
 31
0.0
  0
LINE
  5
2F3
  8
FUTO
 10
14287.242163782421
 20
18291.18741934323
 30
0.0
 11
14287.242163782421
 21
18292.036051343232
 31
0.0
  0
LINE
  5
2F4
  8
FUTO
 10
14284.954810782419
 20
18289.748454343229
 30
0.0
 11
14285.80344278242
 21
18289.748454343229
 31
0.0
  0
LINE
  5
2F5
  8
FUTO
 10
14284.954810782419
 20
18289.748454343229
 30
0.0
 11
14284.954810782419
 21
18288.90006534323
 31
0.0
  0
ARC
  5
2F6
  8
FUTO
 10
14287.22775978242
 20
18290.12418634323
 30
0.0
 40
5.0000339999999994
 50
316.563965
 51
49.941891000000027
  0
LINE
  5
2F7
  8
FUTO
 10
14277.20114878242
 20
18281.995036343229
 30
0.0
 11
14273.60910778242
 21
18285.587077343229
 31
0.0
  0
LINE
  5
2F8
  8
FUTO
 10
14277.20114878242
 20
18281.995036343229
 30
0.0
 11
14278.049780782419
 21
18281.995036343229
 31
0.0
  0
LINE
  5
2F9
  8
FUTO
 10
14279.48850178242
 20
18284.282389343229
 30
0.0
 11
14279.48850178242
 21
18283.433757343231
 31
0.0
  0
LINE
  5
2FA
  8
FUTO
 10
14279.48850178242
 20
18284.282389343229
 30
0.0
 11
14275.89646078242
 21
18287.874430343229
 31
0.0
  0
LINE
  5
2FB
  8
FUTO
 10
14279.48850178242
 20
18284.282389343229
 30
0.0
 11
14280.33713478242
 21
18284.282389343229
 31
0.0
  0
LINE
  5
2FC
  8
FUTO
 10
14283.650122782419
 20
18295.628092343231
 30
0.0
 11
14273.60910778242
 21
18285.587077343229
 31
0.0
  0
LINE
  5
2FD
  8
CT
 10
14283.17429278242
 20
18286.062907343228
 30
0.0
 11
14277.926245782421
 21
18291.310954343229
 31
0.0
  0
LINE
  5
2FE
  8
FUTO
 10
14287.242163782421
 20
18291.18741934323
 30
0.0
 11
14278.049780782419
 21
18281.995036343229
 31
0.0
  0
LINE
  5
2FF
  8
FUTO
 10
14284.954810782419
 20
18289.748454343229
 30
0.0
 11
14281.362769782419
 21
18293.340739343232
 31
0.0
  0
LINE
  5
300
  8
FUTO
 10
14260.919653782419
 20
18254.503825343229
 30
0.0
 11
14256.39829178242
 21
18271.378337343231
 31
0.0
  0
LINE
  5
301
  8
FUTO
 10
14256.39816978242
 20
18271.378337343231
 30
0.0
 11
14260.919653782419
 21
18254.503825343229
 31
0.0
  0
ARC
  5
302
  8
FUTO
 10
14262.51804278242
 20
18267.857341343231
 30
0.0
 40
5.0
 50
195.00116
 51
307.48202500000008
  0
ARC
  5
303
  8
FUTO
 10
14134.73337478242
 20
18434.503825343229
 30
0.0
 40
214.9999849999999
 50
307.48104899999998
 51
316.565674
  0
ARC
  5
304
  8
FUTO
 10
14247.23337478242
 20
18251.503825343229
 30
0.0
 40
3.0
 50
90.0
 51
180.0
  0
LINE
  5
305
  8
FUTO
 10
14284.48337478242
 20
18246.503825343229
 30
0.0
 11
14284.48337478242
 21
18242.503825343229
 31
0.0
  0
LINE
  5
306
  8
FUTO
 10
14284.48337478242
 20
18238.503825343229
 30
0.0
 11
14284.48337478242
 21
18234.503825343229
 31
0.0
  0
LINE
  5
307
  8
FUTO
 10
14244.23337478242
 20
18251.503825343229
 30
0.0
 11
14244.23337478242
 21
18234.503825343229
 31
0.0
  0
LINE
  5
308
  8
FUTO
 10
14244.23337478242
 20
18239.503825343229
 30
0.0
 11
14238.55832578242
 21
18260.68400134323
 31
0.0
  0
LINE
  5
309
  8
CT
 10
14293.73337478242
 20
18258.927653343231
 30
0.0
 11
14293.73337478242
 21
18229.811930343229
 31
0.0
  0
LINE
  5
30A
  8
FUTO
 10
14284.48337478242
 20
18254.503825343229
 30
0.0
 11
14284.48337478242
 21
18250.503825343229
 31
0.0
  0
ARC
  5
30B
  8
FUTO
 10
14318.73337478242
 20
18308.830485343231
 30
0.0
 40
5.0
 50
0.000000000000007
 51
55.056338999999987
  0
ARC
  5
30C
  8
FUTO
 10
14320.73337478242
 20
18251.503825343229
 30
0.0
 40
3.0
 50
0.000000000000007
 51
90.0
  0
LINE
  5
30D
  8
FUTO
 10
14302.98337478242
 20
18246.503825343229
 30
0.0
 11
14302.98337478242
 21
18242.503825343229
 31
0.0
  0
LINE
  5
30E
  8
FUTO
 10
14302.98337478242
 20
18238.503825343229
 30
0.0
 11
14302.98337478242
 21
18234.503825343229
 31
0.0
  0
LINE
  5
30F
  8
FUTO
 10
14302.98337478242
 20
18254.503825343229
 30
0.0
 11
14302.98337478242
 21
18250.503825343229
 31
0.0
  0
LINE
  5
310
  8
FUTO
 10
14323.73337478242
 20
18308.830485343231
 30
0.0
 11
14323.73337478242
 21
18234.503825343229
 31
0.0
  0
LINE
  5
311
  8
FUTO
 10
14323.73337478242
 20
18234.503825343229
 30
0.0
 11
14244.23337478242
 21
18234.503825343229
 31
0.0
  0
LINE
  5
312
  8
FUTO
 10
14247.23337478242
 20
18254.503825343229
 30
0.0
 11
14320.73337478242
 21
18254.503825343229
 31
0.0
  0
LINE
  5
313
  8
FUTO
 10
14321.597266782421
 20
18312.929118343229
 30
0.0
 11
14305.659400782421
 21
18324.065592343231
 31
0.0
  0
LINE
  5
314
  8
FUTO
 10
14218.071694360669
 20
18234.503825343229
 30
0.0
 11
14218.071694360669
 21
18225.027480781631
 31
0.0
  0
LINE
  5
315
  8
FUTO
 10
14218.071694360669
 20
18225.027480781631
 30
0.0
 11
14134.72059389489
 21
18225.027480781631
 31
0.0
  0
LINE
  5
316
  8
FUTO
 10
14278.049780782419
 20
18587.012614343232
 30
0.0
 11
14277.20127078242
 21
18587.012614343232
 31
0.0
  0
LINE
  5
317
  8
FUTO
 10
14279.488623782419
 20
18584.725260343232
 30
0.0
 11
14279.488623782419
 21
18585.573893343229
 31
0.0
  0
LINE
  5
318
  8
FUTO
 10
14279.488623782419
 20
18584.725260343232
 30
0.0
 11
14280.33713478242
 21
18584.725260343232
 31
0.0
  0
LINE
  5
319
  8
FUTO
 10
14277.20127078242
 20
18587.012614343232
 30
0.0
 11
14273.60910778242
 21
18583.420573343232
 31
0.0
  0
LINE
  5
31A
  8
FUTO
 10
14287.242163782421
 20
18576.971598343229
 30
0.0
 11
14287.242163782421
 21
18577.82023134323
 31
0.0
  0
LINE
  5
31B
  8
FUTO
 10
14284.954810782419
 20
18579.258952343229
 30
0.0
 11
14285.80344278242
 21
18579.258952343229
 31
0.0
  0
LINE
  5
31C
  8
FUTO
 10
14284.954810782419
 20
18579.258952343229
 30
0.0
 11
14284.954810782419
 21
18580.10758534323
 31
0.0
  0
LINE
  5
31D
  8
FUTO
 10
14284.954810782419
 20
18579.258952343229
 30
0.0
 11
14281.362769782419
 21
18575.666911343229
 31
0.0
  0
LINE
  5
31E
  8
FUTO
 10
14279.488623782419
 20
18584.725260343232
 30
0.0
 11
14275.89646078242
 21
18581.133219343232
 31
0.0
  0
LINE
  5
31F
  8
FUTO
 10
14283.174414782419
 20
18582.944743343229
 30
0.0
 11
14277.926245782421
 21
18577.696696343231
 31
0.0
  0
LINE
  5
320
  8
FUTO
 10
14278.049780782419
 20
18587.012614343232
 30
0.0
 11
14287.242163782421
 21
18577.82023134323
 31
0.0
  0
LINE
  5
321
  8
FUTO
 10
14344.73337478242
 20
18449.503825343229
 30
0.0
 11
14344.73337478242
 21
18569.503825343229
 31
0.0
  0
LINE
  5
322
  8
FUTO
 10
14287.242163782421
 20
18576.971598343229
 30
0.0
 11
14283.650122782419
 21
18573.379557343229
 31
0.0
  0
LINE
  5
323
  8
FUTO
 10
14273.60910778242
 20
18583.420573343232
 30
0.0
 11
14283.650122782419
 21
18573.379557343229
 31
0.0
  0
ARC
  5
324
  8
FUTO
 10
14147.73337478242
 20
18653.693766343229
 30
0.0
 40
2.0
 50
0.000000000000007
 51
84.289063000000013
  0
LINE
  5
325
  8
FUTO
 10
14141.19046678242
 20
18656.358073343232
 30
0.0
 11
14147.93241078242
 21
18655.68400134323
 31
0.0
  0
ARC
  5
326
  8
FUTO
 10
14121.73337478242
 20
18653.693766343229
 30
0.0
 40
2.0001619999999991
 50
95.710937999999985
 51
180.0
  0
LINE
  5
327
  8
FUTO
 10
14128.633276782421
 20
18656.393717343231
 30
0.0
 11
14121.53433878242
 21
18655.68400134323
 31
0.0
  0
ARC
  5
328
  8
FUTO
 10
14134.73337478242
 20
18434.503825343229
 30
0.0
 40
210.0001069999999
 50
86.232985999999997
 51
86.266968000000006
  0
ARC
  5
329
  8
FUTO
 10
14148.33310678242
 20
18641.056559343229
 30
0.0
 40
2.999933
 50
357.44390900000002
 51
86.232291999999973
  0
ARC
  5
32A
  8
FUTO
 10
14148.21066978242
 20
18641.064616343228
 30
0.0
 40
3.0000169999999988
 50
86.267189000000045
 51
175.056107
  0
LINE
  5
32B
  8
FUTO
 10
14151.33005478242
 20
18640.92277034323
 30
0.0
 11
14151.170142782419
 21
18637.339030343232
 31
0.0
  0
LINE
  5
32C
  8
FUTO
 10
14145.221777782421
 20
18641.323161343229
 30
0.0
 11
14144.912695782419
 21
18637.74918634323
 31
0.0
  0
LINE
  5
32D
  8
FUTO
 10
14124.24509378242
 20
18641.323161343229
 30
0.0
 11
14124.554175782419
 21
18637.74918634323
 31
0.0
  0
ARC
  5
32E
  8
FUTO
 10
14134.73337478242
 20
18434.503825343229
 30
0.0
 40
210.0
 50
93.732971000000006
 51
93.766974999999974
  0
ARC
  5
32F
  8
FUTO
 10
14121.133765782421
 20
18641.056559343229
 30
0.0
 40
3.0001370000000001
 50
93.767708000000013
 51
182.555984
  0
LINE
  5
330
  8
FUTO
 10
14118.136694782421
 20
18640.92277034323
 30
0.0
 11
14118.29672978242
 21
18637.339030343232
 31
0.0
  0
ARC
  5
331
  8
FUTO
 10
14121.25620178242
 20
18641.064616343228
 30
0.0
 40
3.000052999999999
 50
4.9438900000000174
 51
93.732811000000027
  0
LINE
  5
332
  8
FUTO
 10
14122.23337478242
 20
18644.503825343229
 30
0.0
 11
14147.23337478242
 21
18644.503825343229
 31
0.0
  0
LINE
  5
333
  8
FUTO
 10
14119.73337478242
 20
18644.503825343229
 30
0.0
 11
14149.73337478242
 21
18644.503825343229
 31
0.0
  0
LINE
  5
334
  8
FUTO
 10
14119.73337478242
 20
18644.503825343229
 30
0.0
 11
14119.73337478242
 21
18653.693766343229
 31
0.0
  0
LINE
  5
335
  8
FUTO
 10
14149.73337478242
 20
18644.503825343229
 30
0.0
 11
14149.73337478242
 21
18653.693766343229
 31
0.0
  0
ARC
  5
336
  8
FUTO
 10
14126.48337478242
 20
18648.150798343231
 30
0.0
 40
2.0
 50
270.0
 51
0.000000000000007
  0
ARC
  5
337
  8
FUTO
 10
14142.98337478242
 20
18648.150798343231
 30
0.0
 40
2.0
 50
180.0
 51
270.0
  0
LINE
  5
338
  8
FUTO
 10
13945.73337478242
 20
18234.503825343229
 30
0.0
 11
14025.23337478242
 21
18234.503825343229
 31
0.0
  0
LINE
  5
339
  8
FUTO
 10
14022.23337478242
 20
18254.503825343229
 30
0.0
 11
13948.73337478242
 21
18254.503825343229
 31
0.0
  0
LINE
  5
33A
  8
FUTO
 10
13995.857642782419
 20
18285.587077343229
 30
0.0
 11
13985.81662678242
 21
18295.628092343231
 31
0.0
  0
LINE
  5
33B
  8
FUTO
 10
13992.265601782419
 20
18281.995036343229
 30
0.0
 11
13995.857642782419
 21
18285.587077343229
 31
0.0
  0
ARC
  5
33C
  8
FUTO
 10
14134.73337478242
 20
18434.503825343229
 30
0.0
 40
214.9999849999999
 50
223.43432599999991
 51
232.51896699999989
  0
LINE
  5
33D
  8
FUTO
 10
13884.741710692861
 20
18234.503825343229
 30
0.0
 11
14051.39505520417
 21
18234.503825343229
 31
0.0
  0
LINE
  5
33E
  8
FUTO
 10
13972.73337478242
 20
18234.503825343229
 30
0.0
 11
14032.73337478242
 21
18234.503825343229
 31
0.0
  0
LINE
  5
33F
  8
FUTO
 10
14013.068579782421
 20
18271.378337343231
 30
0.0
 11
14008.54709578242
 21
18254.503825343229
 31
0.0
  0
ARC
  5
340
  8
FUTO
 10
14006.948706782419
 20
18267.857341343231
 30
0.0
 40
5.0
 50
232.51852400000001
 51
344.99902300000002
  0
ARC
  5
341
  8
FUTO
 10
14022.23337478242
 20
18251.503825343229
 30
0.0
 40
3.0
 50
0.000000000000007
 51
90.0
  0
LINE
  5
342
  8
FUTO
 10
14025.23337478242
 20
18251.503825343229
 30
0.0
 11
14025.23337478242
 21
18234.503825343229
 31
0.0
  0
LINE
  5
343
  8
FUTO
 10
14025.23337478242
 20
18239.503825343229
 30
0.0
 11
14030.90866778242
 21
18260.68400134323
 31
0.0
  0
LINE
  5
344
  8
FUTO
 10
14051.39505520417
 20
18234.503825343229
 30
0.0
 11
14051.39505520417
 21
18225.027480781631
 31
0.0
  0
LINE
  5
345
  8
FUTO
 10
13966.48337478242
 20
18246.503825343229
 30
0.0
 11
13966.48337478242
 21
18242.503825343229
 31
0.0
  0
LINE
  5
346
  8
FUTO
 10
13966.48337478242
 20
18238.503825343229
 30
0.0
 11
13966.48337478242
 21
18234.503825343229
 31
0.0
  0
LINE
  5
347
  8
FUTO
 10
13966.48337478242
 20
18254.503825343229
 30
0.0
 11
13966.48337478242
 21
18250.503825343229
 31
0.0
  0
ARC
  5
348
  8
FUTO
 10
13950.73337478242
 20
18308.830485343231
 30
0.0
 40
5.0000669999999987
 50
124.943665
 51
180.0
  0
ARC
  5
349
  8
FUTO
 10
13948.73337478242
 20
18251.503825343229
 30
0.0
 40
3.0
 50
90.0
 51
180.0
  0
LINE
  5
34A
  8
FUTO
 10
13945.73337478242
 20
18308.830485343231
 30
0.0
 11
13945.73337478242
 21
18234.503825343229
 31
0.0
  0
LINE
  5
34B
  8
FUTO
 10
13982.22458578242
 20
18292.036051343232
 30
0.0
 11
13985.81662678242
 21
18295.628092343231
 31
0.0
  0
LINE
  5
34C
  8
FUTO
 10
13982.22458578242
 20
18292.036051343232
 30
0.0
 11
13982.22458578242
 21
18291.18741934323
 31
0.0
  0
LINE
  5
34D
  8
FUTO
 10
13984.51193978242
 20
18289.748698343232
 30
0.0
 11
13983.66330678242
 21
18289.748698343232
 31
0.0
  0
LINE
  5
34E
  8
FUTO
 10
13984.51193978242
 20
18289.748698343232
 30
0.0
 11
13988.10398078242
 21
18293.340739343232
 31
0.0
  0
LINE
  5
34F
  8
FUTO
 10
13984.51193978242
 20
18289.748698343232
 30
0.0
 11
13984.51193978242
 21
18288.90006534323
 31
0.0
  0
LINE
  5
350
  8
FUTO
 10
13983.81955678242
 20
18297.985514343229
 30
0.0
 11
13979.021338782421
 21
18293.951091343231
 31
0.0
  0
LINE
  5
351
  8
FUTO
 10
13991.41696878242
 20
18281.995036343229
 30
0.0
 11
13992.265601782419
 21
18281.995036343229
 31
0.0
  0
LINE
  5
352
  8
FUTO
 10
13989.97800378242
 20
18284.282389343229
 30
0.0
 11
13989.97800378242
 21
18283.433757343231
 31
0.0
  0
LINE
  5
353
  8
FUTO
 10
13989.97800378242
 20
18284.282389343229
 30
0.0
 11
13993.570288782421
 21
18287.874430343229
 31
0.0
  0
LINE
  5
354
  8
FUTO
 10
13989.97800378242
 20
18284.282389343229
 30
0.0
 11
13989.12961478242
 21
18284.282389343229
 31
0.0
  0
ARC
  5
355
  8
FUTO
 10
13982.23923378242
 20
18290.12418634323
 30
0.0
 40
5.0000049999999998
 50
130.05917400000001
 51
223.43505899999991
  0
LINE
  5
356
  8
CT
 10
13986.292456782419
 20
18286.062907343228
 30
0.0
 11
13991.54050378242
 21
18291.310954343229
 31
0.0
  0
LINE
  5
357
  8
FUTO
 10
13991.41696878242
 20
18281.995036343229
 30
0.0
 11
13982.22458578242
 21
18291.18741934323
 31
0.0
  0
LINE
  5
358
  8
FUTO
 10
13984.98337478242
 20
18246.503825343229
 30
0.0
 11
13984.98337478242
 21
18242.503825343229
 31
0.0
  0
LINE
  5
359
  8
FUTO
 10
13984.98337478242
 20
18238.503825343229
 30
0.0
 11
13984.98337478242
 21
18234.503825343229
 31
0.0
  0
LINE
  5
35A
  8
CT
 10
13975.73337478242
 20
18258.927653343231
 30
0.0
 11
13975.73337478242
 21
18229.811930343229
 31
0.0
  0
LINE
  5
35B
  8
FUTO
 10
13984.98337478242
 20
18254.503825343229
 30
0.0
 11
13984.98337478242
 21
18250.503825343229
 31
0.0
  0
LINE
  5
35C
  8
FUTO
 10
13874.73337478242
 20
18265.684257685429
 30
0.0
 11
13901.46385048917
 21
18265.684257685429
 31
0.0
  0
LINE
  5
35D
  8
FUTO
 10
13936.27840219328
 20
18248.9974607607
 30
0.0
 11
13901.46385048917
 21
18248.9974607607
 31
0.0
  0
LINE
  5
35E
  8
FUTO
 10
13901.46385048917
 20
18265.684257685429
 30
0.0
 11
13901.46385048917
 21
18234.503825343229
 31
0.0
  0
LINE
  5
35F
  8
FUTO
 10
13947.86960578242
 20
18312.929118343229
 30
0.0
 11
13963.80747178242
 21
18324.065592343231
 31
0.0
  0
LINE
  5
360
  8
FUTO
 10
13992.265601782419
 20
18587.012614343232
 30
0.0
 11
13995.857642782419
 21
18583.420573343232
 31
0.0
  0
LINE
  5
361
  8
FUTO
 10
13985.81662678242
 20
18573.379557343229
 30
0.0
 11
13995.857642782419
 21
18583.420573343232
 31
0.0
  0
ARC
  5
362
  8
FUTO
 10
14134.73337478242
 20
18434.503825343229
 30
0.0
 40
210.00004599999991
 50
131.23298600000001
 51
131.26696799999991
  0
ARC
  5
363
  8
FUTO
 10
13998.202734782421
 20
18590.094157343228
 30
0.0
 40
2.9999169999999991
 50
131.26663199999999
 51
220.05661000000001
  0
ARC
  5
364
  8
FUTO
 10
13998.29489878242
 20
18590.175212343231
 30
0.0
 40
2.999909999999999
 50
42.440556000000022
 51
131.23197899999991
  0
LINE
  5
365
  8
FUTO
 10
13995.90647078242
 20
18588.163493343229
 30
0.0
 11
13998.21518678242
 21
18585.417643343229
 31
0.0
  0
LINE
  5
366
  8
FUTO
 10
14000.508765782421
 20
18592.19962634323
 30
0.0
 11
14002.92990778242
 21
18589.552409343229
 31
0.0
  0
LINE
  5
367
  8
FUTO
 10
13992.265601782419
 20
18587.012614343232
 30
0.0
 11
13991.41696878242
 21
18587.012614343232
 31
0.0
  0
LINE
  5
368
  8
FUTO
 10
13989.978247782419
 20
18584.725260343232
 30
0.0
 11
13989.978247782419
 21
18585.573893343229
 31
0.0
  0
LINE
  5
369
  8
FUTO
 10
13989.978247782419
 20
18584.725260343232
 30
0.0
 11
13989.12961478242
 21
18584.725260343232
 31
0.0
  0
LINE
  5
36A
  8
FUTO
 10
13982.22458578242
 20
18577.82023134323
 30
0.0
 11
13982.22458578242
 21
18576.971598343229
 31
0.0
  0
LINE
  5
36B
  8
FUTO
 10
13984.51193978242
 20
18579.259196343231
 30
0.0
 11
13983.66330678242
 21
18579.259196343231
 31
0.0
  0
LINE
  5
36C
  8
FUTO
 10
13984.51193978242
 20
18579.259196343231
 30
0.0
 11
13988.10398078242
 21
18575.666911343229
 31
0.0
  0
LINE
  5
36D
  8
FUTO
 10
13984.51193978242
 20
18579.259196343231
 30
0.0
 11
13984.51193978242
 21
18580.10758534323
 31
0.0
  0
LINE
  5
36E
  8
FUTO
 10
13986.292456782419
 20
18582.944743343229
 30
0.0
 11
13991.54050378242
 21
18577.696696343231
 31
0.0
  0
LINE
  5
36F
  8
FUTO
 10
13982.22458578242
 20
18577.82023134323
 30
0.0
 11
13991.41696878242
 21
18587.012614343232
 31
0.0
  0
LINE
  5
370
  8
FUTO
 10
13989.978247782419
 20
18584.725260343232
 30
0.0
 11
13993.570288782421
 21
18581.133219343232
 31
0.0
  0
ARC
  5
371
  8
FUTO
 10
14134.73337478242
 20
18434.503825343229
 30
0.0
 40
210.0
 50
138.73297099999991
 51
138.76696799999991
  0
ARC
  5
372
  8
FUTO
 10
13979.14304278242
 20
18571.034587343231
 30
0.0
 40
2.9999560000000001
 50
49.941890999999998
 51
138.7316129999999
  0
LINE
  5
373
  8
FUTO
 10
13977.03757378242
 20
18568.728434343229
 30
0.0
 11
13979.684912782421
 21
18566.307536343229
 31
0.0
  0
ARC
  5
374
  8
FUTO
 10
13979.06223278242
 20
18570.942301343232
 30
0.0
 40
2.9999500000000001
 50
138.768021
 51
227.55600000000001
  0
LINE
  5
375
  8
FUTO
 10
13981.073706782419
 20
18573.33072934323
 30
0.0
 11
13983.81955678242
 21
18571.022135343232
 31
0.0
  0
LINE
  5
376
  8
FUTO
 10
13982.22458578242
 20
18576.971598343229
 30
0.0
 11
13985.81662678242
 21
18573.379557343229
 31
0.0
  0
ARC
  5
377
  8
FUTO
 10
14134.73337478242
 20
18698.253825343229
 30
0.0
 40
6.25
 50
90.0
 51
180.0
  0
ARC
  5
378
  8
FUTO
 10
14134.73337478242
 20
18698.253825343229
 30
0.0
 40
6.25
 50
0.000000000000007
 51
90.0
  0
ARC
  5
396
  8
KL
 10
13036.73337478242
 20
19622.503825343229
 30
0.0
 40
1105.0
 50
0.0000000000000635
 51
90.855579635430288
  0
ARC
  5
397
  8
FUTO
 10
12934.73337478242
 20
19724.503825343229
 30
0.0
 40
95.000000000003084
 50
249.05612602761781
 51
270.0
  0
LINE
  5
398
  8
FUTO
 10
12844.73337478242
 20
19627.503825343229
 30
0.0
 11
12934.73337478242
 21
19627.503825343229
 31
0.0
  0
LINE
  5
399
  8
KL
 10
12633.19987517884
 20
19618.503825343229
 30
0.0
 11
12934.73337478242
 21
19618.503825343229
 31
0.0
  0
LINE
  5
39A
  8
FUTO
 10
12734.73337478242
 20
19624.503825343229
 30
0.0
 11
13134.73337478242
 21
19624.503825343229
 31
0.0
  0
DIMENSION
  5
39B
  8
FUTO
  2
*D5
 10
12084.73337478242
 20
17615.203965378201
 30
0.0
 11
12509.73337478242
 21
17675.203965378201
 31
0.0
 70
     0
 13
12934.73337478242
 23
17827.421674299479
 33
0.0
 14
12084.73337478242
 24
17779.503825343229
 34
0.0
 50
180.0
1001
ACAD
1000
DSTYLE
1002
{
1070
    40
1040
30.0
1070
   176
1070
     2
1070
   177
1070
     2
1070
   178
1070
     2
1070
   341
1005
44D5
1070
     5
1000
OPEN30
1002
}
  0
LINE
  5
3B5
  8
FUTO
 10
13812.2959506961
 20
18256.09822321745
 30
0.0
 11
13812.2959506961
 21
18242.251731275399
 31
0.0
  0
LINE
  5
3B6
  8
FUTO
 10
13812.2959506961
 20
18242.251731275399
 30
0.0
 11
13821.53244167827
 21
18242.251731275399
 31
0.0
  0
LINE
  5
3B7
  8
FUTO
 10
13821.53244167827
 20
18242.251731275399
 30
0.0
 11
13821.53244167827
 21
18256.453256188899
 31
0.0
  0
LINE
  5
3B8
  8
FUTO
 10
13821.53244167827
 20
18256.453256188899
 30
0.0
 11
13812.65120153946
 21
18256.453256188899
 31
0.0
  0
LINE
  5
3BA
  8
KL
 10
13236.266874385999
 20
19618.503825343229
 30
0.0
 11
12934.73337478242
 21
19618.503825343229
 31
0.0
  0
LINE
  5
3BD
  8
FUTO
 10
13114.73337478242
 20
19624.503825343229
 30
0.0
 11
13024.73337478242
 21
19624.503825343229
 31
0.0
  0
LINE
  5
3BF
  8
FUTO
 10
13134.73337478242
 20
19624.503825343229
 30
0.0
 11
13134.73337478242
 21
19618.503825343229
 31
0.0
  0
ARC
  5
3C0
  8
FUTO
 10
13111.73337478242
 20
19655.503825343229
 30
0.0
 40
2.9999999999999991
 50
0.000000000000007
 51
90.0
  0
LINE
  5
3C1
  8
FUTO
 10
13114.73337478242
 20
19655.503825343229
 30
0.0
 11
13114.73337478242
 21
19624.503825343229
 31
0.0
  0
LINE
  5
3C2
  8
FUTO
 10
13045.73337478242
 20
19658.503825343229
 30
0.0
 11
13111.73337478242
 21
19658.503825343229
 31
0.0
  0
ARC
  5
3C3
  8
FUTO
 10
12934.73337478242
 20
19724.503825343221
 30
0.0
 40
94.999999999998295
 50
270.0
 51
290.94387397238302
  0
LINE
  5
3C4
  8
FUTO
 10
13024.73337478242
 20
19624.503825343229
 30
0.0
 11
13024.73337478242
 21
19627.503825343229
 31
0.0
  0
ARC
  5
3C5
  8
FUTO
 10
12982.23337478242
 20
19642.23141198371
 30
0.0
 40
14.999999999999909
 50
300.0000000000008
 51
34.528063013809827
  0
LINE
  5
3C6
  8
FUTO
 10
13024.73337478242
 20
19627.503825343229
 30
0.0
 11
12934.73337478242
 21
19627.503825343229
 31
0.0
  0
ARC
  5
3C7
  8
FUTO
 10
12982.23337478242
 20
19642.23141198371
 30
0.0
 40
15.000000000000419
 50
205.4719369861869
 51
300.00000000000011
  0
LINE
  5
3CF
  8
FUTO
 10
12434.73337478242
 20
18004.503825343229
 30
0.0
 11
12434.73337478242
 21
17854.503825343229
 31
0.0
  0
LINE
  5
3D0
  8
FUTO
 10
12434.73337478242
 20
18174.503825343229
 30
0.0
 11
12434.73337478242
 21
18024.503825343221
 31
0.0
  0
LINE
  5
3D1
  8
FUTO
 10
12327.465224128449
 20
18024.503825343229
 30
0.0
 11
12327.465224128449
 21
18004.503825343229
 31
0.0
  0
LINE
  5
3D2
  8
FUTO
 10
12287.465224128449
 20
18060.915254226831
 30
0.0
 11
12287.465224128449
 21
17961.090320263171
 31
0.0
1001
ACAD
1000
ASC_BOUNDS
1002
{
1070
    19
1005
0
1005
0
1005
0
1002
}
  0
POINT
  5
3D3
  8
DEFPOINTS
  6
BYBLOCK
 62
     0
 10
12084.73337478242
 20
17854.503825343229
 30
0.0
  0
LINE
  5
3D4
  8
FUTO
 10
12247.465224128449
 20
18024.503825343229
 30
0.0
 11
12247.465224128449
 21
18004.503825343229
 31
0.0
  0
LINE
  5
3D5
  8
FUTO
 10
12084.73337478242
 20
18004.503825343229
 30
0.0
 11
12084.73337478242
 21
17854.503825343229
 31
0.0
  0
POINT
  5
3D6
  8
DEFPOINTS
  6
BYBLOCK
 62
     0
 10
12084.73337478242
 20
18024.503825343229
 30
0.0
  0
POINT
  5
3D7
  8
DEFPOINTS
  6
BYBLOCK
 62
     0
 10
12084.73337478242
 20
18004.503825343229
 30
0.0
  0
POINT
  5
3D8
  8
DEFPOINTS
  6
BYBLOCK
 62
     0
 10
12084.73337478242
 20
18004.503825343229
 30
0.0
  0
LINE
  5
3D9
  8
FUTO
 10
12084.73337478242
 20
18174.503825343229
 30
0.0
 11
12084.73337478242
 21
18024.503825343229
 31
0.0
  0
LINE
  5
3DD
  8
FUTO
 10
12823.73337478242
 20
19658.503825343229
 30
0.0
 11
12757.73337478242
 21
19658.503825343229
 31
0.0
  0
LINE
  5
3DE
  8
FUTO
 10
12754.73337478242
 20
19624.503825343229
 30
0.0
 11
12844.73337478242
 21
19624.503825343229
 31
0.0
  0
LINE
  5
3E0
  8
FUTO
 10
12844.73337478242
 20
19624.503825343229
 30
0.0
 11
12844.73337478242
 21
19627.503825343229
 31
0.0
  0
ARC
  5
3E1
  8
FUTO
 10
12887.23337478242
 20
19642.23141198371
 30
0.0
 40
14.99999999999998
 50
145.47193698619191
 51
240.0000000000006
  0
ARC
  5
3E2
  8
FUTO
 10
12887.23337478242
 20
19642.23141198371
 30
0.0
 40
14.99999999999978
 50
239.99999999999989
 51
334.52806301381321
  0
LINE
  5
3E3
  8
FUTO
 10
12734.73337478242
 20
19624.503825343229
 30
0.0
 11
12734.73337478242
 21
19618.503825343229
 31
0.0
  0
ARC
  5
3E5
  8
FUTO
 10
12757.73337478242
 20
19655.503825343229
 30
0.0
 40
2.9999999999999991
 50
90.0
 51
180.0
  0
LINE
  5
3E6
  8
FUTO
 10
12754.73337478242
 20
19655.503825343229
 30
0.0
 11
12754.73337478242
 21
19624.503825343229
 31
0.0
  0
INSERT
  5
3E8
  8
FUTO
  2
K150-75
 10
15427.824787988269
 20
18174.503825343229
 30
0.0
 50
180.0
1001
ACAD
1000
ASC_BOUNDS
1002
{
1070
    19
1005
3975
1002
}
  0
LINE
  5
405
  8
SL
 10
15383.724787988271
 20
19644.503825343229
 30
0.0
 11
15405.824787988269
 21
19644.503825343229
 31
0.0
  0
LINE
  5
406
  8
CT
 10
15158.868058467549
 20
18434.503825343229
 30
0.0
 11
15461.686741579
 21
18434.503825343229
 31
0.0
  0
LINE
  5
407
  8
FUTO
 10
15195.824787988269
 20
18214.503825343229
 30
0.0
 11
15450.824787988269
 21
18214.503825343229
 31
0.0
  0
LINE
  5
408
  8
SL
 10
15383.724787988271
 20
18374.503825343229
 30
0.0
 11
15398.824787988269
 21
18374.503825343229
 31
0.0
  0
LINE
  5
409
  8
SL
 10
15383.724787988271
 20
18494.503825343229
 30
0.0
 11
15398.824787988269
 21
18494.503825343229
 31
0.0
  0
LINE
  5
40D
  8
FUTO
 10
15422.824787988269
 20
18024.503825343229
 30
0.0
 11
15422.824787988269
 21
18004.503825343229
 31
0.0
1001
ACAD
1000
ASC_BOUNDS
1002
{
1070
    19
1005
3975
1002
}
  0
LINE
  5
40E
  8
SL
 10
15305.824787988269
 20
18328.503825343229
 30
0.0
 11
15383.724787988271
 21
18328.503825343229
 31
0.0
  0
LINE
  5
40F
  8
SL
 10
15305.824787988269
 20
18540.503825343229
 30
0.0
 11
15383.724787988271
 21
18540.503825343229
 31
0.0
  0
LINE
  5
410
  8
SL
 10
15305.824787988269
 20
19474.503825343229
 30
0.0
 11
15383.724787988271
 21
19474.503825343229
 31
0.0
  0
LINE
  5
415
  8
CT
 10
15462.824787988269
 20
18044.396001942219
 30
0.0
 11
15462.824787988269
 21
17987.612332000452
 31
0.0
1001
ACAD
1000
ASC_BOUNDS
1002
{
1070
    19
1005
0
1005
3975
1005
3975
1002
}
  0
LINE
  5
41A
  8
SL
 10
15398.824787988269
 20
18494.503825343229
 30
0.0
 11
15398.824787988269
 21
18374.503825343229
 31
0.0
  0
LINE
  5
41B
  8
FUTO
 10
15450.824787988269
 20
18381.561251619019
 30
0.0
 11
15450.824787988269
 21
18214.503825343229
 31
0.0
  0
LINE
  5
42E
  8
FUTO
 10
12047.59333566229
 20
19808.644193370739
 30
0.0
 11
12555.970551422981
 21
19755.142422582419
 31
0.0
  0
LINE
  5
42F
  8
FUTO
 10
12049.46187326329
 20
19826.546946433711
 30
0.0
 11
12557.84637349976
 21
19773.044409024969
 31
0.0
  0
LINE
  5
430
  8
FUTO
 10
12004.73337478242
 20
19737.503825343229
 30
0.0
 11
12004.73337478242
 21
18179.503825343229
 31
0.0
  0
LINE
  5
431
  8
HOSO
 10
12004.73337478242
 20
19683.503825343229
 30
0.0
 11
12004.73337478242
 21
18233.503825343221
 31
0.0
  0
LINE
  5
44C
  8
FUTO
 10
12054.73337478242
 20
19737.503825343229
 30
0.0
 11
12054.73337478242
 21
18179.503825343229
 31
0.0
  0
LINE
  5
44D
  8
FUTO
 10
12008.73337478242
 20
19737.503825343229
 30
0.0
 11
12008.73337478242
 21
18179.503825343229
 31
0.0
  0
LINE
  5
44E
  8
CT
 10
11756.72939613509
 20
19724.503825343229
 30
0.0
 11
14464.822953870391
 21
19724.503825343229
 31
0.0
  0
LINE
  5
478
  8
FUTO
 10
12084.73337478242
 20
22855.748958488781
 30
0.0
 11
14484.73337478242
 21
22855.748958488781
 31
0.0
  0
LINE
  5
479
  8
FUTO
 10
12084.73337478242
 20
22930.748958488781
 30
0.0
 11
14141.73337478242
 21
22930.748958488781
 31
0.0
  0
LINE
  5
47A
  8
FUTO
 10
12434.73337478242
 20
21952.748958488781
 30
0.0
 11
14484.73337478242
 21
21952.748958488781
 31
0.0
  0
LINE
  5
488
  8
FUTO
 10
12434.73337478242
 20
21879.748958488781
 30
0.0
 11
14484.73337478242
 21
21879.748958488781
 31
0.0
  0
LINE
  5
489
  8
FUTO
 10
12434.73337478242
 20
21879.748958488781
 30
0.0
 11
14484.73337478242
 21
21879.748958488781
 31
0.0
  0
LINE
  5
4A3
  8
FUTO
 10
14484.73337478242
 20
22930.748958488781
 30
0.0
 11
14484.73337478242
 21
22855.748958488781
 31
0.0
  0
LINE
  5
4A4
  8
FUTO
 10
14269.73337478242
 20
22855.748958488781
 30
0.0
 11
14269.73337478242
 21
22556.248958488781
 31
0.0
  0
LINE
  5
4A5
  8
CT
 10
14134.73337478242
 20
22695.333447688688
 30
0.0
 11
14134.73337478242
 21
21519.61712657076
 31
0.0
  0
LINE
  5
4AD
  8
KL
 10
12004.73337478242
 20
18233.503825343221
 30
0.0
 11
12950.32797151767
 21
18318.796607131
 31
0.0
  0
LINE
  5
4AE
  8
FUTO
 10
12054.73337478242
 20
18217.932637365091
 30
0.0
 11
12445.547365730219
 21
18253.184120997299
 31
0.0
  0
LINE
  5
4B2
  8
FUTO
 10
12004.73337478242
 20
18179.503825343229
 30
0.0
 11
12054.73337478242
 21
18179.503825343229
 31
0.0
  0
LINE
  5
51D
  8
CT
 10
12934.73337478242
 20
24381.62153613838
 30
0.0
 11
12934.73337478242
 21
21555.888870549032
 31
0.0
  0
LINE
  5
52A
  8
FUTO
 10
12434.73337478242
 20
22855.748958488781
 30
0.0
 11
12434.73337478242
 21
21879.748958488781
 31
0.0
  0
LINE
  5
52C
  8
FUTO
 10
12509.73337478242
 20
22855.748958488781
 30
0.0
 11
12509.73337478242
 21
21946.748958488781
 31
0.0
  0
ARC
  5
559
  8
FUTO
 10
13020.23337478242
 20
19810.003825343229
 30
0.0
 40
937.5
 50
95.232645962334615
 51
180.0
  0
ARC
  5
577
  8
FUTO
 10
12849.533374782421
 20
19810.003825343229
 30
0.0
 40
766.5
 50
180.0
 51
187.98670121782149
  0
CIRCLE
  5
578
  8
FUTO
 10
12934.73337478242
 20
19724.503825343229
 30
0.0
 40
36.5
  0
ARC
  5
579
  8
FUTO
 10
12934.73337478242
 20
19724.503825343229
 30
0.0
 40
94.999999999998053
 50
90.0
 51
110.94387397238231
  0
INSERT
  5
57A
  8
FUTO
  2
左回転矢印
 10
13112.74226986428
 20
20238.38264520096
 30
0.0
 41
-2.0
 42
2.0
 43
2.0
  0
ARC
  5
585
  8
KL
 10
12849.533374782421
 20
19810.003825343229
 30
0.0
 40
746.49999999999989
 50
180.0
 51
215.8784977425853
  0
ARC
  5
587
  8
FUTO
 10
13029.73337478242
 20
19724.503825343229
 30
0.0
 40
14.999999999999909
 50
265.47193698619128
 51
359.9999999999996
  0
ARC
  5
588
  8
FUTO
 10
13029.73337478242
 20
19724.503825343229
 30
0.0
 40
15.000000000000121
 50
359.9999999999996
 51
94.528063013807852
  0
LINE
  5
589
  8
FUTO
 10
12950.415037480219
 20
19818.200599327349
 30
0.0
 11
12950.415037480219
 21
19824.503825343229
 31
0.0
  0
LINE
  5
58A
  8
FUTO
 10
12919.05171208462
 20
19818.200599327349
 30
0.0
 11
12919.05171208462
 21
19824.503825343229
 31
0.0
  0
LINE
  5
58B
  8
FUTO
 10
12919.05171208462
 20
19824.503825343229
 30
0.0
 11
12950.415037480219
 21
19824.503825343229
 31
0.0
  0
LINE
  5
58C
  8
FUTO
 10
13029.73337478242
 20
19709.503825343229
 30
0.0
 11
13029.73337478242
 21
19674.503825343229
 31
0.0
  0
ARC
  5
58D
  8
FUTO
 10
12934.73337478242
 20
19724.503825343229
 30
0.0
 40
95.000000000000995
 50
329.99999999999932
 51
350.94387397238222
  0
ARC
  5
58E
  8
FUTO
 10
12934.73337478242
 20
19724.503825343221
 30
0.0
 40
94.999999999997456
 50
9.0561260276185163
 51
30.000000000001421
  0
ARC
  5
58F
  8
FUTO
 10
12934.73337478242
 20
19724.503825343221
 30
0.0
 40
95.000000000000071
 50
29.999999999999481
 51
50.943873972382391
  0
ARC
  5
590
  8
FUTO
 10
12934.73337478242
 20
19724.503825343229
 30
0.0
 40
94.999999999998494
 50
69.056126027616216
 51
90.0
  0
ARC
  5
591
  8
FUTO
 10
12982.23337478242
 20
19806.776238702751
 30
0.0
 40
14.99999999999976
 50
325.47193698619111
 51
59.999999999999517
  0
ARC
  5
592
  8
FUTO
 10
12982.23337478242
 20
19806.776238702751
 30
0.0
 40
15.00000000000038
 50
59.999999999999517
 51
154.52806301381301
  0
CIRCLE
  5
593
  8
KL
 10
12229.26769836522
 20
19363.940968880699
 30
0.0
 40
17.407412889793701
  0
LINE
  5
594
  8
FUTO
 10
12054.73337478242
 20
19737.503825343229
 30
0.0
 11
12004.73337478242
 21
19737.503825343229
 31
0.0
  0
LINE
  5
595
  8
KL
 10
12004.73337478242
 20
19683.503825343229
 30
0.0
 11
12113.829630059039
 21
19683.503825343229
 31
0.0
  0
LINE
  5
596
  8
FUTO
 10
12054.73337478242
 20
19703.503825343229
 30
0.0
 11
12090.46816019279
 21
19703.503825343221
 31
0.0
  0
INSERT
  5
597
  8
FUTO
  2
まっすぐの矢印
 10
11774.87542205261
 20
18664.51647885055
 30
0.0
 41
-2.0
 42
2.0
 43
2.0
 50
90.000000000000071
  0
LINE
  5
5A2
  8
FUTO
 10
12839.73337478242
 20
19709.503825343229
 30
0.0
 11
12839.73337478242
 21
19674.503825343229
 31
0.0
  0
ARC
  5
5A3
  8
FUTO
 10
12934.73337478242
 20
19724.503825343229
 30
0.0
 40
94.999999999999389
 50
149.99999999999969
 51
170.94387397238259
  0
ARC
  5
5A4
  8
FUTO
 10
12839.73337478242
 20
19724.503825343229
 30
0.0
 40
15.000000000000121
 50
85.471936986192148
 51
180.00000000000051
  0
ARC
  5
5A5
  8
FUTO
 10
12839.73337478242
 20
19724.503825343229
 30
0.0
 40
14.999999999999909
 50
180.0000000000004
 51
274.52806301380861
  0
ARC
  5
5A6
  8
FUTO
 10
12934.73337478242
 20
19724.503825343229
 30
0.0
 40
94.999999999999389
 50
189.0561260276173
 51
210.0000000000002
  0
ARC
  5
5A7
  8
FUTO
 10
12934.73337478242
 20
19724.503825343221
 30
0.0
 40
94.999999999999915
 50
129.0561260276165
 51
149.9999999999994
  0
ARC
  5
5A8
  8
FUTO
 10
12887.23337478242
 20
19806.776238702751
 30
0.0
 40
15.00000000000038
 50
25.4719369861869
 51
120.0000000000005
  0
ARC
  5
5A9
  8
FUTO
 10
12887.23337478242
 20
19806.776238702751
 30
0.0
 40
15.00000000000006
 50
120.0000000000008
 51
214.5280630138098
  0
LINE
  5
605
  8
FUTO
 10
15195.824787988269
 20
20104.503825343229
 30
0.0
 11
15450.824787988269
 21
20104.503825343229
 31
0.0
  0
LINE
  5
606
  8
SL
 10
15383.724787988271
 20
19804.503825343229
 30
0.0
 11
15405.824787988269
 21
19804.503825343229
 31
0.0
  0
POINT
  5
609
  8
DEFPOINTS
 10
15195.824787988269
 20
20104.503825343229
 30
0.0
  0
LINE
  5
60A
  8
SL
 10
15305.824787988269
 20
19974.503825343229
 30
0.0
 11
15383.724787988271
 21
19974.503825343229
 31
0.0
  0
LINE
  5
60E
  8
FUTO
 10
15635.824787988269
 20
19679.503825343229
 30
0.0
 11
16204.824787988269
 21
19679.503825343229
 31
0.0
  0
LINE
  5
60F
  8
FUTO
 10
15635.824787988269
 20
19769.503825343229
 30
0.0
 11
16204.824787988269
 21
19769.503825343229
 31
0.0
  0
LINE
  5
610
  8
FUTO
 10
15450.824787988269
 20
20104.503825343229
 30
0.0
 11
15450.824787988269
 21
19878.19419524894
 31
0.0
  0
LINE
  5
611
  8
FUTO
 10
15405.824787988269
 20
19682.003825343229
 30
0.0
 11
15495.324787988269
 21
19682.003825343229
 31
0.0
  0
LINE
  5
612
  8
FUTO
 10
15405.824787988269
 20
19767.003825343229
 30
0.0
 11
15495.324787988269
 21
19767.003825343229
 31
0.0
  0
LINE
  5
68C
  8
FUTO
 10
12084.73337478242
 20
24079.748958488781
 30
0.0
 11
13784.73337478242
 21
24079.748958488781
 31
0.0
  0
LINE
  5
68D
  8
FUTO
 10
12004.73337478242
 20
24004.748958488781
 30
0.0
 11
14141.73337478242
 21
24004.748958488781
 31
0.0
  0
LINE
  5
68E
  8
CT
 10
11757.2133742029
 20
23466.748958488781
 30
0.0
 11
14293.066615345449
 21
23466.748958488781
 31
0.0
  0
LINE
  5
68F
  8
FUTO
 10
13784.73337478242
 20
24079.748958488781
 30
0.0
 11
13784.73337478242
 21
24050.748958488781
 31
0.0
  0
LINE
  5
6A9
  8
FUTO
 10
12084.73337478242
 20
24079.748958488781
 30
0.0
 11
12084.73337478242
 21
24050.748958488781
 31
0.0
  0
LINE
  5
6C2
  8
FUTO
 10
16485.824787988269
 20
19715.503825343229
 30
0.0
 11
16485.824787988269
 21
18174.503825343229
 31
0.0
  0
LINE
  5
6C3
  8
FUTO
 10
16481.324787988269
 20
19715.503825343229
 30
0.0
 11
16481.324787988258
 21
18174.503825343229
 31
0.0
  0
LINE
  5
6C5
  8
FUTO
 10
17545.824787988269
 20
19715.503825343229
 30
0.0
 11
17545.824787988269
 21
18174.503825343229
 31
0.0
  0
LINE
  5
6C6
  8
KL
 10
17551.824787988269
 20
20428.816567652259
 30
0.0
 11
17551.824787988269
 21
19020.191083034199
 31
0.0
  0
LINE
  5
6CD
  8
CT
 10
17015.824787988269
 20
20863.171384015579
 30
0.0
 11
17015.824787988269
 21
17811.763784409632
 31
0.0
  0
LINE
  5
6D4
  8
FUTO
 10
16406.324787988269
 20
20727.503825343229
 30
0.0
 11
16406.324787988258
 21
18174.503825343229
 31
0.0
  0
DIMENSION
  5
6D5
  8
FUTO
  2
*D11
 10
18015.434649744489
 20
19024.503825343229
 30
0.0
 11
17955.434649744489
 21
19724.503825343229
 31
0.0
 70
     0
  1
%%C<>
 13
17649.824787988269
 23
20424.503825343229
 33
0.0
 14
17649.824787988269
 24
19024.503825343229
 34
0.0
 50
90.0
1001
ACAD
1000
DSTYLE
1002
{
1070
    40
1040
30.0
1070
   176
1070
     2
1070
   177
1070
     2
1070
   178
1070
     2
1070
   341
1005
44D5
1070
     5
1000
OPEN30
1002
}
  0
LINE
  5
6E2
  8
KL
 10
17555.02478798827
 20
19715.503825343229
 30
0.0
 11
17555.02478798827
 21
18974.503825343229
 31
0.0
  0
LINE
  5
6E6
  8
FUTO
 10
17643.824787988269
 20
20474.503825343229
 30
0.0
 11
17643.824787988269
 21
18974.503825343229
 31
0.0
  0
LINE
  5
6E7
  8
FUTO
 10
17649.824787988269
 20
20474.503825343229
 30
0.0
 11
17649.824787988269
 21
18974.503825343229
 31
0.0
  0
LINE
  5
70B
  8
CT
 10
16436.824787988269
 20
18044.667906474951
 30
0.0
 11
16436.824787988269
 21
17979.135071352241
 31
0.0
1001
ACAD
1000
ASC_BOUNDS
1002
{
1070
    19
1002
}
  0
LINE
  5
723
  8
FUTO
 10
17552.824787988269
 20
18024.503825343229
 30
0.0
 11
17552.824787988269
 21
18004.503825343229
 31
0.0
1001
ACAD
1000
ASC_BOUNDS
1002
{
1070
    19
1002
}
  0
LINE
  5
724
  8
CT
 10
17592.824787988269
 20
18044.02725427469
 30
0.0
 11
17592.824787988269
 21
17991.05660070074
 31
0.0
1001
ACAD
1000
ASC_BOUNDS
1002
{
1070
    19
1002
}
  0
LINE
  5
72A
  8
FUTO
 10
17630.824787988269
 20
18024.503825343229
 30
0.0
 11
17630.824787988269
 21
18004.503825343229
 31
0.0
1001
ACAD
1000
ASC_BOUNDS
1002
{
1070
    19
1002
}
  0
LINE
  5
72B
  8
KL
 10
17555.02478798827
 20
19018.503825343229
 30
0.0
 11
17624.02478798827
 21
19018.503825343229
 31
0.0
  0
LINE
  5
72C
  8
KL
 10
17549.02478798827
 20
19024.503825343229
 30
0.0
 11
17649.824787988269
 21
19024.503825343229
 31
0.0
  0
LINE
  5
72D
  8
CT
 10
17516.54009039317
 20
18992.003825343229
 30
0.0
 11
17573.582823525208
 21
18992.003825343229
 31
0.0
  0
LINE
  5
72E
  8
KL
 10
17549.02478798827
 20
18974.503825343229
 30
0.0
 11
17555.02478798827
 21
18974.503825343229
 31
0.0
  0
LINE
  5
72F
  8
FUTO
 10
17624.02478798827
 20
19018.503825343229
 30
0.0
 11
17643.824787988269
 21
19018.503825343229
 31
0.0
  0
LINE
  5
730
  8
CT
 10
17620.705053075631
 20
18992.003825343229
 30
0.0
 11
17680.847906829509
 21
18992.003825343229
 31
0.0
  0
LINE
  5
731
  8
FUTO
 10
17643.824787988269
 20
18974.503825343229
 30
0.0
 11
17649.824787988269
 21
18974.503825343229
 31
0.0
  0
DIMENSION
  5
800
  8
FUTO
  2
*D12
 10
17649.824787988269
 20
21043.126580023381
 30
0.0
 11
17332.824787988269
 21
21103.126580023381
 31
0.0
 70
     0
 13
17015.824787988269
 23
20876.221312927431
 33
0.0
 14
17649.824787988269
 24
20474.503825343229
 34
0.0
1001
ACAD
1000
DSTYLE
1002
{
1070
    40
1040
30.0
1070
   176
1070
     2
1070
   177
1070
     2
1070
   178
1070
     2
1070
   341
1005
44D5
1070
     5
1000
OPEN30
1002
}
  0
LINE
  5
826
  8
FUTO
 10
16481.324787988269
 20
20727.503825343229
 30
0.0
 11
16481.324787988258
 21
19733.503825343229
 31
0.0
  0
LINE
  5
827
  8
FUTO
 10
16485.824787988269
 20
20727.503825343229
 30
0.0
 11
16485.824787988269
 21
19733.503825343229
 31
0.0
  0
INSERT
  5
841
  8
FUTO
  2
まっすぐの矢印
 10
17711.67156867767
 20
20280.755713663209
 30
0.0
 41
-2.0
 42
2.0
 43
2.0
 50
90.0
  0
LINE
  5
842
  8
FUTO
 10
17545.824787988269
 20
20727.503825343229
 30
0.0
 11
17545.824787988269
 21
19733.503825343229
 31
0.0
  0
LINE
  5
844
  8
KL
 10
17555.02478798827
 20
20474.503825343229
 30
0.0
 11
17555.02478798827
 21
19733.503825343229
 31
0.0
  0
LINE
  5
845
  8
KL
 10
17555.02478798827
 20
20430.503825343229
 30
0.0
 11
17625.324787988269
 21
20430.503825343221
 31
0.0
  0
LINE
  5
846
  8
KL
 10
17549.02478798827
 20
20424.503825343229
 30
0.0
 11
17649.824787988269
 21
20424.503825343229
 31
0.0
  0
LINE
  5
847
  8
CT
 10
17526.368686744401
 20
20457.003825343229
 30
0.0
 11
17569.074325169659
 21
20457.003825343229
 31
0.0
  0
LINE
  5
848
  8
KL
 10
17549.02478798827
 20
20474.503825343229
 30
0.0
 11
17555.02478798827
 21
20474.503825343229
 31
0.0
  0
LINE
  5
84A
  8
FUTO
 10
17625.324787988269
 20
20430.503825343229
 30
0.0
 11
17643.824787988269
 21
20430.503825343229
 31
0.0
  0
LINE
  5
84B
  8
CT
 10
17621.063800726071
 20
20457.003825343229
 30
0.0
 11
17673.053276282481
 21
20457.003825343229
 31
0.0
  0
LINE
  5
84C
  8
FUTO
 10
17643.824787988269
 20
20474.503825343229
 30
0.0
 11
17649.824787988269
 21
20474.503825343229
 31
0.0
  0
POLYLINE
  8
0
  5
560A
  62
2
  66
     1
 10
0.000000
 20
0.000000
 30
0.000000
  70
     8
  0
VERTEX
  8
0
  5
560B
 10
14252.9
 20
19848.7
 30
0.000000
  70
    32
  0
VERTEX
  8
0
  5
560C
 10
14252.9
 20
19724.5
 30
0.000000
  70
    32
  0
SEQEND
  8
0
  5
560D
  0
POLYLINE
  8
0
  5
560E
  62
2
  66
     1
 10
0.000000
 20
0.000000
 30
0.000000
  70
     8
  0
VERTEX
  8
0
  5
560F
 10
14252.9
 20
19600.3
 30
0.000000
  70
    32
  0
VERTEX
  8
0
  5
5610
 10
14252.9
 20
19724.5
 30
0.000000
  70
    32
  0
SEQEND
  8
0
  5
5611
  0
LINE
  5
971
  8
KL
 10
12734.879627504481
 20
19736.313977711739
 30
0.0
 11
12736.74816510548
 21
19754.216730774711
 31
0.0
  0
LINE
  5
972
  8
KL
 10
13134.73337478242
 20
19733.503825343229
 30
0.0
 11
13134.73337478242
 21
19715.503825343229
 31
0.0
  0
LINE
  5
973
  8
KL
 10
13134.73337478242
 20
19733.503825343229
 30
0.0
 11
13408.16796085486
 21
19733.503825343229
 31
0.0
  0
LINE
  5
974
  8
KL
 10
13134.73337478242
 20
19715.503825343229
 30
0.0
 11
13422.0897499528
 21
19715.503825343229
 31
0.0
  0
LINE
  5
990
  8
FUTO
 10
12047.59333566229
 20
19808.644193370739
 30
0.0
 11
12049.46187326329
 21
19826.546946433711
 31
0.0
  0
POLYLINE
  5
119F
  8
FUTO
 66
     1
 10
0.0
 20
0.0
 30
0.0
 70
     1
1001
ACAD
1000
ASC_BOUNDS
1002
{
1070
    19
1002
}
  0
VERTEX
  5
5562
  8
FUTO
 10
16401.824787988269
 20
18024.503825343229
 30
0.0
  0
VERTEX
  5
5563
  8
FUTO
 10
16401.824787988269
 20
18027.842013921399
 30
0.0
 42
-0.3888787318529885
  0
VERTEX
  5
5564
  8
FUTO
 10
16405.47616501728
 20
18031.82679271376
 30
0.0
  0
VERTEX
  5
5565
  8
FUTO
 10
16466.673410959262
 20
18037.1808579727
 30
0.0
 42
0.3888787318529894
  0
VERTEX
  5
5566
  8
FUTO
 10
16470.324787988269
 20
18041.165636765061
 30
0.0
  0
VERTEX
  5
5567
  8
FUTO
 10
16470.324787988269
 20
18157.842013921399
 30
0.0
 42
0.3888787318529893
  0
VERTEX
  5
5568
  8
FUTO
 10
16466.673410959262
 20
18161.82679271376
 30
0.0
  0
VERTEX
  5
5569
  8
FUTO
 10
16405.47616501728
 20
18167.180857972689
 30
0.0
 42
-0.3888787318529887
  0
VERTEX
  5
556A
  8
FUTO
 10
16401.824787988269
 20
18171.165636765061
 30
0.0
  0
VERTEX
  5
556B
  8
FUTO
 10
16401.824787988269
 20
18174.503825343229
 30
0.0
  0
VERTEX
  5
556C
  8
FUTO
 10
16476.824787988269
 20
18174.503825343229
 30
0.0
  0
VERTEX
  5
556D
  8
FUTO
 10
16476.824787988269
 20
18024.503825343229
 30
0.0
  0
SEQEND
  5
556E
  8
FUTO
  0
POLYLINE
  5
11AD
  8
FUTO
 66
     1
 10
0.0
 20
0.0
 30
0.0
 70
     1
1001
ACAD
1000
ASC_BOUNDS
1002
{
1070
    19
1002
}
  0
VERTEX
  5
556F
  8
FUTO
 10
17552.824787988269
 20
18024.503825343229
 30
0.0
  0
VERTEX
  5
5570
  8
FUTO
 10
17552.824787988269
 20
18174.503825343229
 30
0.0
  0
VERTEX
  5
5571
  8
FUTO
 10
17627.824787988269
 20
18174.503825343229
 30
0.0
  0
VERTEX
  5
5572
  8
FUTO
 10
17627.824787988269
 20
18171.165636765061
 30
0.0
 42
-0.3888787318527922
  0
VERTEX
  5
5573
  8
FUTO
 10
17624.173410959262
 20
18167.180857972689
 30
0.0
  0
VERTEX
  5
5574
  8
FUTO
 10
17562.97616501728
 20
18161.82679271376
 30
0.0
 42
0.3888787318529906
  0
VERTEX
  5
5575
  8
FUTO
 10
17559.324787988269
 20
18157.842013921399
 30
0.0
  0
VERTEX
  5
5576
  8
FUTO
 10
17559.324787988269
 20
18041.165636765061
 30
0.0
 42
0.388878731852991
  0
VERTEX
  5
5577
  8
FUTO
 10
17562.97616501728
 20
18037.1808579727
 30
0.0
  0
VERTEX
  5
5578
  8
FUTO
 10
17624.173410959262
 20
18031.82679271376
 30
0.0
 42
-0.3888787318529234
  0
VERTEX
  5
5579
  8
FUTO
 10
17627.824787988269
 20
18027.842013921399
 30
0.0
  0
VERTEX
  5
557A
  8
FUTO
 10
17627.824787988269
 20
18024.503825343229
 30
0.0
  0
SEQEND
  5
557B
  8
FUTO
  0
LINE
  5
11F6
  8
FUTO
 10
15502.824787988269
 20
18004.503825343229
 30
0.0
 11
15427.824787988269
 21
18004.503825343229
 31
0.0
1001
ACAD
1000
ASC_BOUNDS
1002
{
1070
    19
1005
3975
1002
}
  0
LINE
  5
11F7
  8
FUTO
 10
15492.67341095926
 20
17991.82679271376
 30
0.0
 11
15431.47616501728
 21
17997.1808579727
 31
0.0
  0
LINE
  5
11F8
  8
FUTO
 10
15502.824787988269
 20
17854.503825343229
 30
0.0
 11
15427.824787988269
 21
17854.503825343229
 31
0.0
  0
LINE
  5
11F9
  8
FUTO
 10
15492.67341095926
 20
17867.1808579727
 30
0.0
 11
15431.47616501728
 21
17861.82679271376
 31
0.0
  0
LINE
  5
11FA
  8
FUTO
 10
15496.324787988269
 20
17871.165636765061
 30
0.0
 11
15496.324787988269
 21
17987.842013921389
 31
0.0
  0
ARC
  5
11FB
  8
FUTO
 10
15492.324787988269
 20
17987.842013921389
 30
0.0
 40
4.0
 50
0.0
 51
84.999999999999943
  0
LINE
  5
11FC
  8
FUTO
 10
15502.824787988269
 20
17854.503825343229
 30
0.0
 11
15502.824787988269
 21
18004.503825343229
 31
0.0
  0
ARC
  5
11FD
  8
FUTO
 10
15492.324787988269
 20
17871.165636765061
 30
0.0
 40
4.0
 50
275.0
 51
0.0
  0
ARC
  5
11FE
  8
FUTO
 10
15431.824787988269
 20
18001.165636765061
 30
0.0
 40
4.0
 50
180.0
 51
264.99999999999972
  0
LINE
  5
11FF
  8
FUTO
 10
15427.824787988269
 20
18004.503825343229
 30
0.0
 11
15427.824787988269
 21
18001.165636765061
 31
0.0
  0
LINE
  5
1200
  8
FUTO
 10
15427.824787988269
 20
17854.503825343229
 30
0.0
 11
15427.824787988269
 21
17857.842013921399
 31
0.0
  0
ARC
  5
1201
  8
FUTO
 10
15431.824787988269
 20
17857.842013921399
 30
0.0
 40
4.0
 50
95.000000000000227
 51
180.0
  0
INSERT
  5
1202
  8
FUTO
  2
K150-75
 10
16401.824787988269
 20
18004.503825343229
 30
0.0
 50
180.0
1001
ACAD
1000
ASC_BOUNDS
1002
{
1070
    19
1002
}
  0
LINE
  5
1204
  8
FUTO
 10
17552.824787988269
 20
18004.503825343229
 30
0.0
 11
17627.824787988269
 21
18004.503825343229
 31
0.0
1001
ACAD
1000
ASC_BOUNDS
1002
{
1070
    19
1002
}
  0
LINE
  5
1205
  8
FUTO
 10
17562.97616501728
 20
17991.82679271376
 30
0.0
 11
17624.173410959262
 21
17997.1808579727
 31
0.0
  0
LINE
  5
1206
  8
FUTO
 10
17552.824787988269
 20
17854.503825343229
 30
0.0
 11
17627.824787988269
 21
17854.503825343229
 31
0.0
  0
LINE
  5
1207
  8
FUTO
 10
17562.97616501728
 20
17867.1808579727
 30
0.0
 11
17624.173410959262
 21
17861.82679271376
 31
0.0
  0
LINE
  5
1208
  8
FUTO
 10
17559.324787988269
 20
17871.165636765061
 30
0.0
 11
17559.324787988269
 21
17987.842013921389
 31
0.0
  0
ARC
  5
1209
  8
FUTO
 10
17563.324787988269
 20
17987.842013921389
 30
0.0
 40
4.0
 50
94.999999999999758
 51
180.0
  0
LINE
  5
120A
  8
FUTO
 10
17552.824787988269
 20
17854.503825343229
 30
0.0
 11
17552.824787988269
 21
18004.503825343229
 31
0.0
  0
ARC
  5
120B
  8
FUTO
 10
17563.324787988269
 20
17871.165636765061
 30
0.0
 40
4.0
 50
180.0
 51
265.00000000000028
  0
ARC
  5
120C
  8
FUTO
 10
17623.824787988269
 20
18001.165636765061
 30
0.0
 40
4.0
 50
275.00000000000011
 51
0.0
  0
LINE
  5
120D
  8
FUTO
 10
17627.824787988269
 20
18004.503825343229
 30
0.0
 11
17627.824787988269
 21
18001.165636765061
 31
0.0
  0
LINE
  5
120E
  8
FUTO
 10
17627.824787988269
 20
17854.503825343229
 30
0.0
 11
17627.824787988269
 21
17857.842013921399
 31
0.0
  0
ARC
  5
120F
  8
FUTO
 10
17623.824787988269
 20
17857.842013921399
 30
0.0
 40
4.0
 50
0.0
 51
84.999999999999844
  0
LINE
  5
1840
  8
FUTO
 10
13359.73337478242
 20
22855.748958488781
 30
0.0
 11
13359.73337478242
 21
21946.748958488781
 31
0.0
  0
LINE
  5
1841
  8
FUTO
 10
13434.73337478242
 20
22855.748958488781
 30
0.0
 11
13434.73337478242
 21
21946.748958488781
 31
0.0
  0
LINE
  5
1FF1
  8
FUTO
 10
17549.024787988259
 20
20727.503825343229
 30
0.0
 11
17549.02478798827
 21
19733.503825343229
 31
0.0
  0
LINE
  5
1FF2
  8
FUTO
 10
17549.02478798827
 20
19715.503825343229
 30
0.0
 11
17549.024787988259
 21
18174.503825343229
 31
0.0
  0
LINE
  5
1FF5
  8
FUTO
 10
17624.02478798827
 20
20727.503825343229
 30
0.0
 11
17624.02478798827
 21
18174.503825343229
 31
0.0
  0
DIMENSION
  5
2003
  8
FUTO
  2
*D6
 10
17627.824787988269
 20
17436.469903101271
 30
0.0
 11
16527.824787988269
 21
17496.469903101271
 31
0.0
 70
     0
 13
15427.824787988269
 23
17854.503825343229
 33
0.0
 14
17627.824787988269
 24
17854.503825343229
 34
0.0
1001
ACAD
1000
DSTYLE
1002
{
1070
    40
1040
30.0
1070
   176
1070
     2
1070
   177
1070
     2
1070
   178
1070
     2
1070
   341
1005
44D5
1070
     5
1000
OPEN30
1002
}
  0
LINE
  5
25BB
  8
CT
 10
12934.73337478242
 20
22463.422227209841
 30
0.0
 11
12934.73337478242
 21
22461.363096878671
 31
0.0
  0
LINE
  5
279A
  8
FUTO
 10
15502.824787988269
 20
18024.503825343229
 30
0.0
 11
15502.824787988269
 21
18004.503825343229
 31
0.0
1001
ACAD
1000
ASC_BOUNDS
1002
{
1070
    19
1005
3975
1002
}
  0
TEXT
  5
29E7
  8
SP
 10
9149.8042194081445
 20
6129.2813767066364
 30
0.0
 40
100.0
  1
 
  0
LINE
  5
3235
  8
FUTO
 10
14134.51642546314
 20
19254.10482548624
 30
0.0
 11
14111.766028882859
 21
19261.592810387268
 31
0.0
  0
LINE
  5
3236
  8
FUTO
 10
14095.436718456889
 20
19135.370767607688
 30
0.0
 11
14069.137023458999
 21
19144.026956010872
 31
0.0
  0
LINE
  5
3237
  8
FUTO
 10
14140.888773532921
 20
19241.479724295448
 30
0.0
 11
14108.06181964767
 21
19141.743115677469
 31
0.0
  0
ARC
  5
3238
  8
FUTO
 10
14131.39004890264
 20
19244.606100855952
 30
0.0
 40
10.0
 50
341.78173999721008
 51
71.781739997210067
  0
ARC
  5
3239
  8
FUTO
 10
14098.56309501738
 20
19144.86949223798
 30
0.0
 40
10.0
 50
251.78173999721
 51
341.78173999721008
  0
LINE
  5
323A
  8
FUTO
 10
14137.642802023631
 20
19263.603550116521
 30
0.0
 11
14114.69342231436
 21
19271.157027619422
 31
0.0
  0
ARC
  5
323B
  8
FUTO
 10
14131.39004890264
 20
19244.606100855952
 30
0.0
 40
20.0
 50
341.78173999721008
 51
71.781739997210067
  0
LINE
  5
323C
  8
FUTO
 10
14150.3874981632
 20
19238.353347734948
 30
0.0
 11
14117.560544277951
 21
19138.616739116969
 31
0.0
  0
ARC
  5
323D
  8
FUTO
 10
14098.56309501738
 20
19144.86949223798
 30
0.0
 40
20.0
 50
251.78173999721
 51
341.78173999721008
  0
LINE
  5
323E
  8
FUTO
 10
14092.31034189638
 20
19125.872042977411
 30
0.0
 11
14065.24219534344
 21
19134.781156801972
 31
0.0
  0
LINE
  5
3241
  8
CT
 10
14175.956609924469
 20
19174.66704296993
 30
0.0
 11
13992.905824481189
 21
19234.91572974273
 31
0.0
  0
DIMENSION
  5
393B
  8
FUTO
  2
*D7
 10
17627.824787988269
 20
17617.80034435886
 30
0.0
 11
17321.824787988269
 21
17677.80034435886
 31
0.0
 70
     0
 13
17015.824787988269
 23
17854.503825343229
 33
0.0
 14
17627.824787988269
 24
17854.503825343229
 34
0.0
1001
ACAD
1000
DSTYLE
1002
{
1070
    40
1040
30.0
1070
   176
1070
     2
1070
   177
1070
     2
1070
   178
1070
     2
1070
   341
1005
44D5
1070
     5
1000
OPEN30
1002
}
  0
DIMENSION
  5
3948
  8
FUTO
  2
*D8
 10
15427.824787988269
 20
17617.805585281461
 30
0.0
 11
16221.824787988269
 21
17677.805585281461
 31
0.0
 70
     0
 13
17015.824787988269
 23
17854.503825343229
 33
0.0
 14
15427.824787988269
 24
17854.503825343229
 34
0.0
1001
ACAD
1000
DSTYLE
1002
{
1070
    40
1040
30.0
1070
   176
1070
     2
1070
   177
1070
     2
1070
   178
1070
     2
1070
   341
1005
44D5
1070
     5
1000
OPEN30
1002
}
  0
POLYLINE
  5
3949
  8
FUTO
 66
     1
 10
0.0
 20
0.0
 30
0.0
  0
VERTEX
  5
5597
  8
FUTO
 10
16405.824787988269
 20
18174.503825343229
 30
0.0
  0
VERTEX
  5
5598
  8
FUTO
 10
16480.824787988269
 20
18174.503825343229
 30
0.0
  0
SEQEND
  5
5599
  8
FUTO
  0
LINE
  5
39B1
  8
FUTO
 10
14474.73337478242
 20
18024.503825343229
 30
0.0
 11
14474.73337478242
 21
18004.503825343229
 31
0.0
  0
LINE
  5
39B2
  8
FUTO
 10
14394.73337478242
 20
18024.503825343229
 30
0.0
 11
14394.73337478242
 21
18004.503825343229
 31
0.0
  0
LINE
  5
39B3
  8
FUTO
 10
14434.73337478242
 20
18060.915254226838
 30
0.0
 11
14434.73337478242
 21
17961.090320263171
 31
0.0
1001
ACAD
1000
ASC_BOUNDS
1002
{
1070
    19
1005
0
1005
0
1005
0
1002
}
  0
LINE
  5
3AE6
  8
FUTO
 10
15489.324787988269
 20
19616.503825343229
 30
0.0
 11
15489.324787988269
 21
18174.503825343229
 31
0.0
  0
LINE
  5
3AE7
  8
FUTO
 10
15489.324787988269
 20
19616.503825343229
 30
0.0
 11
15499.324787988269
 21
19616.503825343229
 31
0.0
  0
LINE
  5
3AE8
  8
FUTO
 10
15499.324787988269
 20
19616.503825343229
 30
0.0
 11
15499.324787988269
 21
19606.503825343229
 31
0.0
  0
LINE
  5
3AEA
  8
FUTO
 10
15499.324787988269
 20
19606.503825343229
 30
0.0
 11
16406.324787988258
 21
19606.503825343229
 31
0.0
  0
LINE
  5
3B39
  8
FUTO
 10
15609.824787988269
 20
19661.503825343229
 30
0.0
 11
15521.824787988269
 21
19661.503825343229
 31
0.0
  0
LINE
  5
3B3A
  8
FUTO
 10
15510.824787988269
 20
19624.503825343229
 30
0.0
 11
15620.824787988269
 21
19624.503825343221
 31
0.0
  0
LINE
  5
3B3B
  8
FUTO
 10
15615.824787988269
 20
19817.503825343229
 30
0.0
 11
15515.824787988269
 21
19817.503825343229
 31
0.0
  0
LINE
  5
3B3C
  8
FUTO
 10
15515.824787988269
 20
19817.503825343229
 30
0.0
 11
15515.824787988269
 21
19624.503825343229
 31
0.0
  0
LINE
  5
3B3D
  8
FUTO
 10
15495.324787988269
 20
19799.503825343229
 30
0.0
 11
15495.324787988269
 21
19649.503825343229
 31
0.0
  0
LINE
  5
3B3E
  8
FUTO
 10
15500.824787988269
 20
19808.503825343229
 30
0.0
 11
15500.824787988269
 21
19640.503825343229
 31
0.0
  0
LINE
  5
3B40
  8
FUTO
 10
15495.324787988269
 20
19649.503825343229
 30
0.0
 11
15500.824787988269
 21
19649.503825343229
 31
0.0
  0
ARC
  5
3B41
  8
FUTO
 10
15521.824787988269
 20
19655.503825343229
 30
0.0
 40
6.0
 50
90.0
 51
180.0
  0
LINE
  5
3B42
  8
FUTO
 10
15506.824787988269
 20
19634.503825343229
 30
0.0
 11
15515.824787988269
 21
19634.503825343229
 31
0.0
  0
ARC
  5
3B43
  8
FUTO
 10
15506.824787988269
 20
19640.503825343229
 30
0.0
 40
6.0
 50
180.0
 51
270.0
  0
LINE
  5
3B44
  8
FUTO
 10
15500.824787988269
 20
19799.503825343229
 30
0.0
 11
15495.324787988269
 21
19799.503825343229
 31
0.0
  0
ARC
  5
3B45
  8
FUTO
 10
15506.824787988269
 20
19808.503825343229
 30
0.0
 40
6.0
 50
90.0
 51
180.0
  0
LINE
  5
3B46
  8
FUTO
 10
15515.824787988269
 20
19814.503825343229
 30
0.0
 11
15506.824787988269
 21
19814.503825343229
 31
0.0
  0
LINE
  5
3B47
  8
FUTO
 10
15615.824787988269
 20
19624.503825343229
 30
0.0
 11
15615.824787988269
 21
19817.503825343229
 31
0.0
  0
LINE
  5
3B48
  8
FUTO
 10
15630.824787988269
 20
19808.503825343229
 30
0.0
 11
15630.824787988269
 21
19640.503825343229
 31
0.0
  0
LINE
  5
3B49
  8
FUTO
 10
15636.324787988269
 20
19799.503825343229
 30
0.0
 11
15636.324787988269
 21
19649.503825343229
 31
0.0
  0
LINE
  5
3B4A
  8
FUTO
 10
15624.824787988269
 20
19634.503825343229
 30
0.0
 11
15615.824787988269
 21
19634.503825343229
 31
0.0
  0
ARC
  5
3B4B
  8
FUTO
 10
15609.824787988269
 20
19655.503825343229
 30
0.0
 40
6.0
 50
0.0
 51
90.0
  0
ARC
  5
3B4C
  8
FUTO
 10
15624.824787988269
 20
19640.503825343229
 30
0.0
 40
6.0
 50
270.0
 51
0.0
  0
LINE
  5
3B4D
  8
FUTO
 10
15636.324787988269
 20
19649.503825343229
 30
0.0
 11
15630.824787988269
 21
19649.503825343229
 31
0.0
  0
LINE
  5
3B4E
  8
FUTO
 10
15615.824787988269
 20
19814.503825343229
 30
0.0
 11
15624.824787988269
 21
19814.503825343229
 31
0.0
  0
ARC
  5
3B4F
  8
FUTO
 10
15624.824787988269
 20
19808.503825343229
 30
0.0
 40
6.0
 50
0.0
 51
90.0
  0
LINE
  5
3B50
  8
FUTO
 10
15630.824787988269
 20
19799.503825343229
 30
0.0
 11
15636.324787988269
 21
19799.503825343229
 31
0.0
  0
LINE
  5
3B51
  8
FUTO
 10
15510.824787988269
 20
19624.503825343229
 30
0.0
 11
15510.824787988269
 21
19606.503825343229
 31
0.0
  0
LINE
  5
3B52
  8
FUTO
 10
15620.824787988269
 20
19624.503825343221
 30
0.0
 11
15620.824787988269
 21
19606.503825343229
 31
0.0
  0
LINE
  5
3BBC
  8
FUTO
 10
16342.324787988269
 20
19828.503825343229
 30
0.0
 11
16209.324787988269
 21
19828.503825343229
 31
0.0
  0
LINE
  5
3BBD
  8
FUTO
 10
16324.824787988269
 20
19648.503825343229
 30
0.0
 11
16226.824787988269
 21
19648.503825343229
 31
0.0
  0
LINE
  5
3BBE
  8
FUTO
 10
16210.824787988269
 20
19612.503825343229
 30
0.0
 11
16340.824787988269
 21
19612.503825343229
 31
0.0
  0
LINE
  5
3BC0
  8
FUTO
 10
16220.824787988269
 20
19828.503825343229
 30
0.0
 11
16220.824787988269
 21
19612.503825343229
 31
0.0
  0
LINE
  5
3BC1
  8
FUTO
 10
16198.324787988269
 20
19814.503825343229
 30
0.0
 11
16198.324787988269
 21
19634.503825343229
 31
0.0
  0
LINE
  5
3BC2
  8
FUTO
 10
16203.324787988269
 20
19822.503825343229
 30
0.0
 11
16203.324787988269
 21
19626.503825343229
 31
0.0
  0
LINE
  5
3BC3
  8
FUTO
 10
16198.324787988269
 20
19634.503825343229
 30
0.0
 11
16203.324787988269
 21
19634.503825343229
 31
0.0
  0
ARC
  5
3BC4
  8
FUTO
 10
16226.824787988269
 20
19642.503825343229
 30
0.0
 40
6.0
 50
90.0
 51
180.0
  0
LINE
  5
3BC5
  8
FUTO
 10
16209.324787988269
 20
19620.503825343229
 30
0.0
 11
16220.824787988269
 21
19620.503825343229
 31
0.0
  0
ARC
  5
3BC6
  8
FUTO
 10
16209.324787988269
 20
19626.503825343229
 30
0.0
 40
6.0
 50
180.0
 51
270.0
  0
LINE
  5
3BC7
  8
FUTO
 10
16203.324787988269
 20
19814.503825343229
 30
0.0
 11
16198.324787988269
 21
19814.503825343229
 31
0.0
  0
ARC
  5
3BC8
  8
FUTO
 10
16209.324787988269
 20
19822.503825343229
 30
0.0
 40
6.0
 50
90.0
 51
180.0
  0
LINE
  5
3BC9
  8
FUTO
 10
16330.824787988269
 20
19828.503825343229
 30
0.0
 11
16330.824787988269
 21
19612.503825343229
 31
0.0
  0
LINE
  5
3BCA
  8
FUTO
 10
16348.324787988269
 20
19822.503825343229
 30
0.0
 11
16348.324787988269
 21
19626.503825343229
 31
0.0
  0
LINE
  5
3BCB
  8
FUTO
 10
16353.324787988269
 20
19814.503825343229
 30
0.0
 11
16353.324787988269
 21
19634.503825343229
 31
0.0
  0
ARC
  5
3BCC
  8
FUTO
 10
16324.824787988269
 20
19642.503825343229
 30
0.0
 40
6.0
 50
0.0
 51
90.0
  0
LINE
  5
3BCD
  8
FUTO
 10
16342.324787988269
 20
19620.503825343229
 30
0.0
 11
16330.824787988269
 21
19620.503825343229
 31
0.0
  0
ARC
  5
3BCE
  8
FUTO
 10
16342.324787988269
 20
19626.503825343229
 30
0.0
 40
6.0
 50
270.0
 51
0.0
  0
LINE
  5
3BCF
  8
FUTO
 10
16353.324787988269
 20
19634.503825343229
 30
0.0
 11
16348.324787988269
 21
19634.503825343229
 31
0.0
  0
ARC
  5
3BD0
  8
FUTO
 10
16342.324787988269
 20
19822.503825343229
 30
0.0
 40
6.0
 50
0.0
 51
90.0
  0
LINE
  5
3BD1
  8
FUTO
 10
16348.324787988269
 20
19814.503825343229
 30
0.0
 11
16353.324787988269
 21
19814.503825343229
 31
0.0
  0
LINE
  5
3C31
  8
SL
 10
15680.06680520776
 20
19851.202728374381
 30
0.0
 11
16145.34321809336
 21
19851.202728374381
 31
0.0
  0
LINE
  5
3C32
  8
FUTO
 10
16210.824787988269
 20
19612.503825343229
 30
0.0
 11
16210.824787988269
 21
19606.503825343229
 31
0.0
  0
LINE
  5
3C33
  8
FUTO
 10
16340.824787988269
 20
19612.503825343229
 30
0.0
 11
16340.824787988269
 21
19606.503825343229
 31
0.0
  0
DIMENSION
  5
3C4B
  8
SP
  2
*D10
 10
17015.824787988269
 20
21043.126580023381
 30
0.0
 11
16105.824787988269
 21
21103.126580023381
 31
0.0
 70
     0
 13
15195.824787988269
 23
20104.503825343229
 33
0.0
 14
17015.824787988269
 24
20906.221312927431
 34
0.0
1001
ACAD
1000
DSTYLE
1002
{
1070
    40
1040
30.0
1070
   176
1070
     2
1070
   177
1070
     2
1070
   178
1070
     2
1070
   341
1005
44D5
1070
     5
1000
OPEN30
1002
}
  0
LINE
  5
3C62
  8
SL
 10
15680.06680520776
 20
19851.202728374381
 30
0.0
 11
15680.06680520776
 21
19596.503825343229
 31
0.0
  0
LINE
  5
3C63
  8
SL
 10
16145.34321809336
 20
19851.202728374381
 30
0.0
 11
16145.34321809336
 21
19596.503825343229
 31
0.0
  0
LINE
  5
3C79
  8
FUTO
 10
12889.73337478242
 20
22086.74895848877
 30
0.0
 11
12889.73337478242
 21
22655.748958488781
 31
0.0
  0
LINE
  5
3C7A
  8
FUTO
 10
12979.73337478242
 20
22086.74895848877
 30
0.0
 11
12979.73337478242
 21
22655.748958488781
 31
0.0
  0
LINE
  5
3C7B
  8
FUTO
 10
12554.73337478242
 20
21646.748958488781
 30
0.0
 11
14354.73337478242
 21
21646.748958488781
 31
0.0
  0
LINE
  5
3C7D
  8
SL
 10
12684.73337478242
 20
21834.648958488779
 30
0.0
 11
14240.73337478242
 21
21834.648958488779
 31
0.0
  0
LINE
  5
3C7E
  8
SL
 10
12684.73337478242
 20
21756.748958488781
 30
0.0
 11
14240.73337478242
 21
21756.748958488781
 31
0.0
  0
LINE
  5
3C7F
  8
CT
 10
12816.229877822299
 20
22016.748958488781
 30
0.0
 11
13097.56400656913
 21
22016.748958488781
 31
0.0
  0
LINE
  5
3C80
  8
CT
 10
14134.73337478242
 20
21609.792228968061
 30
0.0
 11
14134.73337478242
 21
21912.610912079512
 31
0.0
  0
LINE
  5
3C81
  8
SL
 10
14028.73337478242
 20
21756.748958488781
 30
0.0
 11
14028.73337478242
 21
21834.648958488779
 31
0.0
  0
LINE
  5
3C82
  8
SL
 10
14240.73337478242
 20
21756.748958488781
 30
0.0
 11
14240.73337478242
 21
21834.648958488779
 31
0.0
  0
LINE
  5
3C83
  8
FUTO
 10
14187.67594850663
 20
21901.748958488781
 30
0.0
 11
14354.73337478242
 21
21901.748958488781
 31
0.0
  0
LINE
  5
3C84
  8
SL
 10
14074.73337478242
 20
21849.748958488781
 30
0.0
 11
14194.73337478242
 21
21849.748958488781
 31
0.0
  0
LINE
  5
3C85
  8
SL
 10
14074.73337478242
 20
21834.648958488779
 30
0.0
 11
14074.73337478242
 21
21849.748958488781
 31
0.0
  0
LINE
  5
3C86
  8
SL
 10
14194.73337478242
 20
21834.648958488779
 30
0.0
 11
14194.73337478242
 21
21849.748958488781
 31
0.0
  0
LINE
  5
3C87
  8
SL
 10
13184.73337478242
 20
21756.748958488781
 30
0.0
 11
13184.73337478242
 21
21834.648958488779
 31
0.0
  0
LINE
  5
3C88
  8
FUTO
 10
12841.73337478242
 20
22066.748958488781
 30
0.0
 11
12841.73337478242
 21
21966.74895848877
 31
0.0
  0
LINE
  5
3C8B
  8
FUTO
 10
12554.73337478242
 20
21901.748958488781
 30
0.0
 11
12781.043004876699
 21
21901.748958488781
 31
0.0
  0
LINE
  5
3C8C
  8
SL
 10
12684.73337478242
 20
21756.748958488781
 30
0.0
 11
12684.73337478242
 21
21834.648958488779
 31
0.0
  0
LINE
  5
3C8D
  8
FUTO
 10
12892.23337478242
 20
21856.748958488781
 30
0.0
 11
12892.23337478242
 21
21946.248958488781
 31
0.0
  0
LINE
  5
3C8E
  8
FUTO
 10
12977.23337478242
 20
21856.748958488781
 30
0.0
 11
12977.23337478242
 21
21946.248958488781
 31
0.0
  0
LINE
  5
3C8F
  8
SL
 10
12854.73337478242
 20
21834.648958488779
 30
0.0
 11
12854.73337478242
 21
21856.748958488781
 31
0.0
  0
LINE
  5
3C90
  8
SL
 10
13014.73337478242
 20
21834.648958488779
 30
0.0
 11
13014.73337478242
 21
21856.748958488781
 31
0.0
  0
LINE
  5
3C91
  8
SL
 10
12854.73337478242
 20
21856.748958488781
 30
0.0
 11
13014.73337478242
 21
21856.748958488781
 31
0.0
  0
LINE
  5
3C94
  8
FUTO
 10
12844.73337478242
 20
21966.74895848877
 30
0.0
 11
12844.73337478242
 21
21957.748958488781
 31
0.0
  0
ARC
  5
3C95
  8
FUTO
 10
12850.73337478242
 20
21957.748958488781
 30
0.0
 40
6.0
 50
180.0
 51
270.0
  0
LINE
  5
3C96
  8
FUTO
 10
12859.73337478242
 20
21951.748958488781
 30
0.0
 11
12859.73337478242
 21
21946.248958488781
 31
0.0
  0
ARC
  5
3C97
  8
FUTO
 10
13018.73337478242
 20
21957.748958488781
 30
0.0
 40
6.0
 50
270.0
 51
0.000000000000007
  0
LINE
  5
3C98
  8
FUTO
 10
13024.73337478242
 20
21957.748958488781
 30
0.0
 11
13024.73337478242
 21
21966.74895848877
 31
0.0
  0
LINE
  5
3C9A
  8
FUTO
 10
13009.73337478242
 20
21946.248958488781
 30
0.0
 11
13009.73337478242
 21
21951.748958488781
 31
0.0
  0
LINE
  5
3C9B
  8
FUTO
 10
12850.73337478242
 20
21951.748958488781
 30
0.0
 11
13018.73337478242
 21
21951.748958488781
 31
0.0
  0
LINE
  5
3C9C
  8
FUTO
 10
12859.73337478242
 20
21946.248958488781
 30
0.0
 11
13009.73337478242
 21
21946.248958488781
 31
0.0
  0
LINE
  5
3C9D
  8
FUTO
 10
12841.73337478242
 20
21966.74895848877
 30
0.0
 11
13027.73337478242
 21
21966.74895848877
 31
0.0
  0
LINE
  5
3C9F
  8
FUTO
 10
12554.73337478242
 20
21646.748958488781
 30
0.0
 11
12554.73337478242
 21
21901.748958488781
 31
0.0
  0
POINT
  5
3CA0
  8
DEFPOINTS
 10
12554.73337478242
 20
21646.748958488781
 30
0.0
  0
LINE
  5
3CA3
  8
FUTO
 10
12859.73337478242
 20
22081.748958488781
 30
0.0
 11
12859.73337478242
 21
22087.248958488781
 31
0.0
  0
ARC
  5
3CA4
  8
FUTO
 10
12850.73337478242
 20
22075.748958488781
 30
0.0
 40
6.0
 50
90.0
 51
180.0
  0
LINE
  5
3CA5
  8
FUTO
 10
12844.73337478242
 20
22066.748958488781
 30
0.0
 11
12844.73337478242
 21
22075.748958488781
 31
0.0
  0
LINE
  5
3CA6
  8
FUTO
 10
13009.73337478242
 20
22087.248958488781
 30
0.0
 11
13009.73337478242
 21
22081.748958488781
 31
0.0
  0
ARC
  5
3CA7
  8
FUTO
 10
13018.73337478242
 20
22075.748958488781
 30
0.0
 40
6.0
 50
0.000000000000007
 51
90.0
  0
LINE
  5
3CA9
  8
FUTO
 10
13024.73337478242
 20
22075.748958488781
 30
0.0
 11
13024.73337478242
 21
22066.748958488781
 31
0.0
  0
LINE
  5
3CAA
  8
FUTO
 10
12859.73337478242
 20
22087.248958488781
 30
0.0
 11
13009.73337478242
 21
22087.248958488781
 31
0.0
  0
LINE
  5
3CAB
  8
FUTO
 10
12850.73337478242
 20
22081.748958488781
 30
0.0
 11
13018.73337478242
 21
22081.748958488781
 31
0.0
  0
LINE
  5
3CAC
  8
FUTO
 10
13027.73337478242
 20
22066.748958488781
 30
0.0
 11
12841.73337478242
 21
22066.748958488781
 31
0.0
  0
LINE
  5
3CAF
  8
FUTO
 10
12184.73337478242
 20
24100.748958488781
 30
0.0
 11
13684.73337478242
 21
24100.748958488781
 31
0.0
  0
LINE
  5
3CB0
  8
FUTO
 10
12184.73337478242
 20
24094.748958488781
 30
0.0
 11
13684.73337478242
 21
24094.748958488781
 31
0.0
  0
LINE
  5
3CB1
  8
KL
 10
12943.73337478242
 20
24005.948958488781
 30
0.0
 11
13684.73337478242
 21
24005.948958488781
 31
0.0
  0
LINE
  5
3CB5
  8
KL
 10
12230.42063247339
 20
24002.748958488781
 30
0.0
 11
13639.04611709145
 21
24002.748958488781
 31
0.0
  0
LINE
  5
3CB9
  8
CT
 10
12816.229877822299
 20
22726.748958488781
 30
0.0
 11
13119.897537997571
 21
22726.748958488781
 31
0.0
  0
LINE
  5
3CBA
  8
KL
 10
13634.73337478242
 20
23999.948958488781
 30
0.0
 11
13634.73337478242
 21
24100.748958488781
 31
0.0
  0
LINE
  5
3CBB
  8
KL
 10
13640.73337478242
 20
24005.948958488781
 30
0.0
 11
13640.73337478242
 21
24074.948958488781
 31
0.0
  0
LINE
  5
3CBC
  8
KL
 10
13684.73337478242
 20
23999.948958488781
 30
0.0
 11
13684.73337478242
 21
24005.948958488781
 31
0.0
  0
LINE
  5
3CBD
  8
CT
 10
13667.23337478242
 20
23967.464260893681
 30
0.0
 11
13667.23337478242
 21
24024.50699402572
 31
0.0
  0
LINE
  5
3CBE
  8
FUTO
 10
13684.73337478242
 20
24094.748958488781
 30
0.0
 11
13684.73337478242
 21
24100.748958488781
 31
0.0
  0
LINE
  5
3CBF
  8
CT
 10
13667.23337478242
 20
24071.629223576139
 30
0.0
 11
13667.23337478242
 21
24131.772077330021
 31
0.0
  0
LINE
  5
3CC0
  8
FUTO
 10
13640.73337478242
 20
24074.948958488781
 30
0.0
 11
13640.73337478242
 21
24094.748958488781
 31
0.0
  0
LINE
  5
3CC7
  8
FUTO
 10
12830.73337478242
 20
22793.248958488781
 30
0.0
 11
12830.73337478242
 21
22660.248958488781
 31
0.0
  0
ARC
  5
3CCA
  8
FUTO
 10
12836.73337478242
 20
22660.248958488781
 30
0.0
 40
6.0
 50
180.0
 51
270.0
  0
LINE
  5
3CCB
  8
FUTO
 10
12844.73337478242
 20
22654.248958488781
 30
0.0
 11
12844.73337478242
 21
22649.248958488781
 31
0.0
  0
ARC
  5
3CCC
  8
FUTO
 10
13032.73337478242
 20
22660.248958488781
 30
0.0
 40
6.0
 50
270.0
 51
0.000000000000007
  0
LINE
  5
3CCD
  8
FUTO
 10
13038.73337478242
 20
22660.248958488781
 30
0.0
 11
13038.73337478242
 21
22671.74895848877
 31
0.0
  0
LINE
  5
3CCF
  8
FUTO
 10
13024.73337478242
 20
22649.248958488781
 30
0.0
 11
13024.73337478242
 21
22654.248958488781
 31
0.0
  0
LINE
  5
3CD0
  8
FUTO
 10
12836.73337478242
 20
22654.248958488781
 30
0.0
 11
13032.73337478242
 21
22654.248958488781
 31
0.0
  0
LINE
  5
3CD1
  8
FUTO
 10
12844.73337478242
 20
22649.248958488781
 30
0.0
 11
13024.73337478242
 21
22649.248958488781
 31
0.0
  0
LINE
  5
3CD2
  8
FUTO
 10
12830.73337478242
 20
22671.74895848877
 30
0.0
 11
13038.73337478242
 21
22671.74895848877
 31
0.0
  0
LINE
  5
3CD4
  8
FUTO
 10
12844.73337478242
 20
22799.248958488781
 30
0.0
 11
12844.73337478242
 21
22804.248958488781
 31
0.0
  0
ARC
  5
3CD5
  8
FUTO
 10
12836.73337478242
 20
22793.248958488781
 30
0.0
 40
6.0
 50
90.0
 51
180.0
  0
LINE
  5
3CD6
  8
FUTO
 10
13024.73337478242
 20
22804.248958488781
 30
0.0
 11
13024.73337478242
 21
22799.248958488781
 31
0.0
  0
ARC
  5
3CD7
  8
FUTO
 10
13032.73337478242
 20
22793.248958488781
 30
0.0
 40
6.0
 50
0.000000000000007
 51
90.0
  0
LINE
  5
3CD8
  8
FUTO
 10
13038.73337478242
 20
22793.248958488781
 30
0.0
 11
13038.73337478242
 21
22781.748958488781
 31
0.0
  0
LINE
  5
3CDA
  8
FUTO
 10
12844.73337478242
 20
22804.248958488781
 30
0.0
 11
13024.73337478242
 21
22804.248958488781
 31
0.0
  0
LINE
  5
3CDB
  8
FUTO
 10
12836.73337478242
 20
22799.248958488781
 30
0.0
 11
13032.73337478242
 21
22799.248958488781
 31
0.0
  0
LINE
  5
3CDC
  8
FUTO
 10
12830.73337478242
 20
22781.748958488781
 30
0.0
 11
13038.73337478242
 21
22781.748958488781
 31
0.0
  0
LINE
  5
3CDD
  8
FUTO
 10
12979.73337478242
 20
22795.748958488781
 30
0.0
 11
12979.73337478242
 21
22858.54895848878
 31
0.0
  0
LINE
  5
3CDE
  8
FUTO
 10
12889.73337478242
 20
22795.748958488781
 30
0.0
 11
12889.73337478242
 21
22857.248958488781
 31
0.0
  0
LINE
  5
3CE2
  8
KL
 10
12184.73337478242
 20
24005.948958488781
 30
0.0
 11
12925.73337478242
 21
24005.948958488781
 31
0.0
  0
INSERT
  5
3CE3
  8
FUTO
  2
まっすぐの矢印
 10
12378.48148646243
 20
24162.595739178181
 30
0.0
 41
-2.0
 42
2.0
 43
2.0
 50
180.0
  0
LINE
  5
3CE4
  8
KL
 10
12234.73337478242
 20
23999.948958488781
 30
0.0
 11
12234.73337478242
 21
24100.748958488781
 31
0.0
  0
LINE
  5
3CE5
  8
KL
 10
12228.73337478242
 20
24005.948958488781
 30
0.0
 11
12228.73337478242
 21
24076.248958488781
 31
0.0
  0
LINE
  5
3CE6
  8
KL
 10
12184.73337478242
 20
23999.948958488781
 30
0.0
 11
12184.73337478242
 21
24005.948958488781
 31
0.0
  0
LINE
  5
3CE7
  8
CT
 10
12202.23337478242
 20
23977.292857244909
 30
0.0
 11
12202.23337478242
 21
24019.99849567017
 31
0.0
  0
LINE
  5
3CE8
  8
FUTO
 10
12184.73337478242
 20
24094.748958488781
 30
0.0
 11
12184.73337478242
 21
24100.748958488781
 31
0.0
  0
LINE
  5
3CE9
  8
CT
 10
12202.23337478242
 20
24071.987971226579
 30
0.0
 11
12202.23337478242
 21
24123.977446782988
 31
0.0
  0
LINE
  5
3CEA
  8
FUTO
 10
12228.73337478242
 20
24076.248958488781
 30
0.0
 11
12228.73337478242
 21
24094.748958488781
 31
0.0
  0
LINE
  5
3D2A
  8
FUTO
 10
13038.73337478242
 20
22793.248958488781
 30
0.0
 11
13038.73337478242
 21
22660.248958488781
 31
0.0
  0
LINE
  5
3D2B
  8
FUTO
 10
13027.73337478242
 20
22066.748958488781
 30
0.0
 11
13027.73337478242
 21
21966.74895848877
 31
0.0
  0
ARC
  5
4030
  8
FUTO
 10
14134.73337478242
 20
21857.748958488781
 30
0.0
 40
9.0
 50
0.000000000000007
 51
180.0
  0
LINE
  5
4031
  8
FUTO
 10
14143.73337478242
 20
21756.748958488781
 30
0.0
 11
14143.73337478242
 21
21857.748958488781
 31
0.0
  0
LINE
  5
4032
  8
FUTO
 10
14125.73337478242
 20
21756.748958488781
 30
0.0
 11
14125.73337478242
 21
21857.748958488781
 31
0.0
  0
LINE
  5
4033
  8
FUTO
 10
14391.733313782421
 20
22271.248897488778
 30
0.0
 11
14391.733313782421
 21
22307.248958488781
 31
0.0
  0
LINE
  5
4034
  8
FUTO
 10
14394.733313782421
 20
22271.248897488778
 30
0.0
 11
14394.733313782421
 21
22307.248958488781
 31
0.0
  0
LINE
  5
4035
  8
FUTO
 10
14386.733313782421
 20
22271.248897488778
 30
0.0
 11
14386.733313782421
 21
22318.248958488781
 31
0.0
  0
LINE
  5
4036
  8
FUTO
 10
14344.73337478242
 20
21932.248958488781
 30
0.0
 11
14344.73337478242
 21
21979.123958488781
 31
0.0
  0
LINE
  5
4037
  8
FUTO
 10
14292.42500977794
 20
21927.248958488781
 30
0.0
 11
14339.73337478242
 21
21927.248958488781
 31
0.0
  0
ARC
  5
4038
  8
FUTO
 10
14339.73337478242
 20
21932.248958488781
 30
0.0
 40
5.0
 50
270.0
 51
0.000000000000007
  0
LINE
  5
4039
  8
FUTO
 10
14324.41472000085
 20
21979.123958488781
 30
0.0
 11
14344.73337478242
 21
21979.123958488781
 31
0.0
  0
LINE
  5
403A
  8
FUTO
 10
14344.73337478242
 20
21977.248958488781
 30
0.0
 11
14391.733313782421
 21
21977.248958488781
 31
0.0
  0
LINE
  5
403B
  8
FUTO
 10
14344.73337478242
 20
21974.248958488781
 30
0.0
 11
14394.733313782421
 21
21974.248958488781
 31
0.0
  0
LINE
  5
403C
  8
FUTO
 10
14324.5238483507
 20
21982.248958488781
 30
0.0
 11
14386.733313782421
 21
21982.248958488781
 31
0.0
  0
LINE
  5
403D
  8
FUTO
 10
14386.733313782421
 20
21982.248958488781
 30
0.0
 11
14391.733313782421
 21
21977.248958488781
 31
0.0
  0
LINE
  5
403E
  8
FUTO
 10
14419.733313782421
 20
22017.248958488781
 30
0.0
 11
14419.733313782421
 21
22057.248958488781
 31
0.0
  0
LINE
  5
403F
  8
FUTO
 10
14389.733313782421
 20
22017.248958488781
 30
0.0
 11
14389.733313782421
 21
22057.248958488781
 31
0.0
  0
LINE
  5
4040
  8
FUTO
 10
14419.733313782421
 20
22057.248958488781
 30
0.0
 11
14389.733313782421
 21
22057.248958488781
 31
0.0
  0
LINE
  5
4041
  8
FUTO
 10
14389.733313782421
 20
22017.248958488781
 30
0.0
 11
14419.733313782421
 21
22017.248958488781
 31
0.0
  0
LINE
  5
4042
  8
CT
 10
14338.23337478242
 20
22037.24895848877
 30
0.0
 11
14505.78775678242
 21
22037.24895848877
 31
0.0
  0
LINE
  5
4043
  8
FUTO
 10
14494.187781782421
 20
22054.838802488779
 30
0.0
 11
14482.087805782419
 21
22054.838802488779
 31
0.0
  0
LINE
  5
4044
  8
FUTO
 10
14494.187781782421
 20
22019.659115488779
 30
0.0
 11
14482.087805782419
 21
22019.659115488779
 31
0.0
  0
LINE
  5
4045
  8
FUTO
 10
14494.187781782421
 20
22046.954036488769
 30
0.0
 11
14482.087805782419
 21
22046.954036488769
 31
0.0
  0
LINE
  5
4046
  8
FUTO
 10
14494.187781782421
 20
22027.543880488782
 30
0.0
 11
14482.087805782419
 21
22027.543880488782
 31
0.0
  0
LINE
  5
4047
  8
FUTO
 10
14495.78775678242
 20
22053.239193488778
 30
0.0
 11
14495.78775678242
 21
22021.259700488779
 31
0.0
  0
LINE
  5
4048
  8
FUTO
 10
14494.187781782421
 20
22019.659115488779
 30
0.0
 11
14495.78775678242
 21
22021.259700488779
 31
0.0
  0
LINE
  5
4049
  8
FUTO
 10
14494.187781782421
 20
22027.543880488782
 30
0.0
 11
14495.78775678242
 21
22025.94427148877
 31
0.0
  0
LINE
  5
404A
  8
FUTO
 10
14494.187781782421
 20
22027.543880488782
 30
0.0
 11
14495.78775678242
 21
22029.144466488779
 31
0.0
  0
LINE
  5
404B
  8
FUTO
 10
14495.78775678242
 20
22053.239193488778
 30
0.0
 11
14494.187781782421
 21
22054.838802488779
 31
0.0
  0
LINE
  5
404C
  8
FUTO
 10
14494.187781782421
 20
22046.954036488769
 30
0.0
 11
14495.78775678242
 21
22048.55462248878
 31
0.0
  0
LINE
  5
404D
  8
FUTO
 10
14494.187781782421
 20
22046.954036488769
 30
0.0
 11
14495.78775678242
 21
22045.354427488779
 31
0.0
  0
LINE
  5
404E
  8
FUTO
 10
14482.087805782419
 20
22054.838802488779
 30
0.0
 11
14482.087805782419
 21
22019.659115488779
 31
0.0
  0
LINE
  5
404F
  8
FUTO
 10
14482.087805782419
 20
22028.248958488781
 30
0.0
 11
14419.733313782421
 21
22028.248958488781
 31
0.0
  0
LINE
  5
4050
  8
HOSO
 10
14419.733313782421
 20
22030.248958488781
 30
0.0
 11
14482.08786678242
 21
22030.248958488781
 31
0.0
  0
LINE
  5
4051
  8
HOSO
 10
14482.087805782419
 20
22044.248958488781
 30
0.0
 11
14419.733313782421
 21
22044.248958488781
 31
0.0
  0
LINE
  5
4052
  8
FUTO
 10
14419.733313782421
 20
22046.248958488781
 30
0.0
 11
14482.08786678242
 21
22046.248958488781
 31
0.0
  0
LINE
  5
4053
  8
FUTO
 10
14389.733313782421
 20
22028.248958488781
 30
0.0
 11
14338.23337478242
 21
22028.248958488781
 31
0.0
  0
LINE
  5
4054
  8
HOSO
 10
14338.23337478242
 20
22030.248958488781
 30
0.0
 11
14389.733313782421
 21
22030.248958488781
 31
0.0
  0
LINE
  5
4055
  8
FUTO
 10
14338.23337478242
 20
22046.248958488781
 30
0.0
 11
14389.733313782421
 21
22046.248958488781
 31
0.0
  0
LINE
  5
4056
  8
HOSO
 10
14389.733313782421
 20
22044.248958488781
 30
0.0
 11
14338.23337478242
 21
22044.248958488781
 31
0.0
  0
LINE
  5
4057
  8
FUTO
 10
14394.733313782421
 20
21974.248958488781
 30
0.0
 11
14394.733313782421
 21
22017.248958488781
 31
0.0
  0
LINE
  5
4058
  8
FUTO
 10
14391.733313782421
 20
21977.248958488781
 30
0.0
 11
14391.733313782421
 21
22017.248958488781
 31
0.0
  0
LINE
  5
4059
  8
FUTO
 10
14386.733313782421
 20
21982.248958488781
 30
0.0
 11
14386.733313782421
 21
22028.248958488781
 31
0.0
  0
LINE
  5
405A
  8
FUTO
 10
14394.733313782421
 20
22057.248958488781
 30
0.0
 11
14394.733313782421
 21
22093.248958488781
 31
0.0
  0
LINE
  5
405B
  8
FUTO
 10
14391.733313782421
 20
22057.248958488781
 30
0.0
 11
14391.733313782421
 21
22093.248958488781
 31
0.0
  0
LINE
  5
405C
  8
FUTO
 10
14386.733313782421
 20
22046.248958488781
 30
0.0
 11
14386.733313782421
 21
22093.248958488781
 31
0.0
  0
LINE
  5
405D
  8
FUTO
 10
14419.733313782421
 20
22318.248958488781
 30
0.0
 11
14482.08786678242
 21
22318.248958488781
 31
0.0
  0
LINE
  5
405E
  8
HOSO
 10
14482.087805782419
 20
22320.248958488781
 30
0.0
 11
14419.733313782421
 21
22320.248958488781
 31
0.0
  0
LINE
  5
405F
  8
HOSO
 10
14419.733313782421
 20
22334.248958488781
 30
0.0
 11
14482.08786678242
 21
22334.248958488781
 31
0.0
  0
LINE
  5
4060
  8
FUTO
 10
14482.087805782419
 20
22336.248958488781
 30
0.0
 11
14419.733313782421
 21
22336.248958488781
 31
0.0
  0
LINE
  5
4061
  8
FUTO
 10
14482.087805782419
 20
22309.659114488779
 30
0.0
 11
14482.087805782419
 21
22344.838801488779
 31
0.0
  0
LINE
  5
4062
  8
FUTO
 10
14494.187781782421
 20
22317.543880488782
 30
0.0
 11
14495.78775678242
 21
22319.143489488772
 31
0.0
  0
LINE
  5
4063
  8
FUTO
 10
14494.187781782421
 20
22317.543880488782
 30
0.0
 11
14495.78775678242
 21
22315.943294488781
 31
0.0
  0
LINE
  5
4064
  8
FUTO
 10
14495.78775678242
 20
22311.25872348878
 30
0.0
 11
14494.187781782421
 21
22309.659114488779
 31
0.0
  0
LINE
  5
4065
  8
FUTO
 10
14494.187781782421
 20
22336.95403648878
 30
0.0
 11
14495.78775678242
 21
22335.353450488779
 31
0.0
  0
LINE
  5
4066
  8
FUTO
 10
14494.187781782421
 20
22336.95403648878
 30
0.0
 11
14495.78775678242
 21
22338.553645488781
 31
0.0
  0
LINE
  5
4067
  8
FUTO
 10
14494.187781782421
 20
22344.838801488779
 30
0.0
 11
14495.78775678242
 21
22343.238216488779
 31
0.0
  0
LINE
  5
4068
  8
FUTO
 10
14495.78775678242
 20
22311.25872348878
 30
0.0
 11
14495.78775678242
 21
22343.238216488779
 31
0.0
  0
LINE
  5
4069
  8
FUTO
 10
14494.187781782421
 20
22336.95403648878
 30
0.0
 11
14482.087805782419
 21
22336.95403648878
 31
0.0
  0
LINE
  5
406A
  8
FUTO
 10
14494.187781782421
 20
22317.543880488782
 30
0.0
 11
14482.087805782419
 21
22317.543880488782
 31
0.0
  0
LINE
  5
406B
  8
FUTO
 10
14494.187781782421
 20
22344.838801488779
 30
0.0
 11
14482.087805782419
 21
22344.838801488779
 31
0.0
  0
LINE
  5
406C
  8
FUTO
 10
14494.187781782421
 20
22309.659114488779
 30
0.0
 11
14482.087805782419
 21
22309.659114488779
 31
0.0
  0
LINE
  5
406D
  8
FUTO
 10
14389.733313782421
 20
22347.248958488781
 30
0.0
 11
14419.733313782421
 21
22347.248958488781
 31
0.0
  0
LINE
  5
406E
  8
FUTO
 10
14419.733313782421
 20
22307.248958488781
 30
0.0
 11
14389.733313782421
 21
22307.248958488781
 31
0.0
  0
LINE
  5
406F
  8
FUTO
 10
14389.733313782421
 20
22347.248958488781
 30
0.0
 11
14389.733313782421
 21
22307.248958488781
 31
0.0
  0
LINE
  5
4070
  8
FUTO
 10
14419.733313782421
 20
22347.248958488781
 30
0.0
 11
14419.733313782421
 21
22307.248958488781
 31
0.0
  0
LINE
  5
4071
  8
HOSO
 10
14389.733313782421
 20
22320.248958488781
 30
0.0
 11
14338.23337478242
 21
22320.248958488781
 31
0.0
  0
LINE
  5
4072
  8
FUTO
 10
14338.23337478242
 20
22318.248958488781
 30
0.0
 11
14389.733313782421
 21
22318.248958488781
 31
0.0
  0
LINE
  5
4073
  8
HOSO
 10
14338.23337478242
 20
22334.248958488781
 30
0.0
 11
14389.733313782421
 21
22334.248958488781
 31
0.0
  0
LINE
  5
4074
  8
FUTO
 10
14389.733313782421
 20
22336.248958488781
 30
0.0
 11
14338.23337478242
 21
22336.248958488781
 31
0.0
  0
LINE
  5
4075
  8
CT
 10
14338.23337478242
 20
22327.248958488781
 30
0.0
 11
14505.78775678242
 21
22327.248958488781
 31
0.0
  0
LINE
  5
4076
  8
FUTO
 10
14386.733313782421
 20
22382.248958488781
 30
0.0
 11
14391.733313782421
 21
22387.248958488781
 31
0.0
  0
LINE
  5
4077
  8
FUTO
 10
14344.73337478242
 20
22390.248958488781
 30
0.0
 11
14394.733313782421
 21
22390.248958488781
 31
0.0
  0
LINE
  5
4078
  8
FUTO
 10
14344.73337478242
 20
22387.248958488781
 30
0.0
 11
14391.733313782421
 21
22387.248958488781
 31
0.0
  0
LINE
  5
4079
  8
FUTO
 10
14338.23337478242
 20
22385.373958488781
 30
0.0
 11
14344.73337478242
 21
22385.373958488781
 31
0.0
  0
LINE
  5
407A
  8
FUTO
 10
14338.23337478242
 20
22382.248958488781
 30
0.0
 11
14386.733313782421
 21
22382.248958488781
 31
0.0
  0
LINE
  5
407B
  8
FUTO
 10
14386.733313782421
 20
22382.248958488781
 30
0.0
 11
14386.733313782421
 21
22336.248958488781
 31
0.0
  0
LINE
  5
407C
  8
FUTO
 10
14391.733313782421
 20
22387.248958488781
 30
0.0
 11
14391.733313782421
 21
22347.248958488781
 31
0.0
  0
LINE
  5
407D
  8
FUTO
 10
14394.733313782421
 20
22390.248958488781
 30
0.0
 11
14394.733313782421
 21
22347.248958488781
 31
0.0
  0
ARC
  5
407E
  8
FUTO
 10
14339.73337478242
 20
22432.248958488781
 30
0.0
 40
5.0
 50
0.000000000000007
 51
90.000000000000028
  0
LINE
  5
407F
  8
FUTO
 10
14344.73337478242
 20
22432.248958488781
 30
0.0
 11
14344.73337478242
 21
22385.373958488781
 31
0.0
  0
LINE
  5
4080
  8
FUTO
 10
14327.23337478242
 20
22437.248958488781
 30
0.0
 11
14339.73337478242
 21
22437.248958488781
 31
0.0
  0
LINE
  5
4081
  8
CT
 10
13931.23337478242
 20
22327.248958488781
 30
0.0
 11
13763.678992782419
 21
22327.248958488781
 31
0.0
  0
LINE
  5
4082
  8
FUTO
 10
13879.73343578242
 20
22336.248958488781
 30
0.0
 11
13931.23337478242
 21
22336.248958488781
 31
0.0
  0
LINE
  5
4083
  8
HOSO
 10
13931.23337478242
 20
22334.248958488781
 30
0.0
 11
13879.73343578242
 21
22334.248958488781
 31
0.0
  0
LINE
  5
4084
  8
FUTO
 10
13931.23337478242
 20
22318.248958488781
 30
0.0
 11
13879.73343578242
 21
22318.248958488781
 31
0.0
  0
LINE
  5
4085
  8
HOSO
 10
13879.73343578242
 20
22320.248958488781
 30
0.0
 11
13931.23337478242
 21
22320.248958488781
 31
0.0
  0
LINE
  5
4086
  8
FUTO
 10
13849.73343578242
 20
22347.248958488781
 30
0.0
 11
13849.73343578242
 21
22307.248958488781
 31
0.0
  0
LINE
  5
4087
  8
FUTO
 10
13879.73343578242
 20
22347.248958488781
 30
0.0
 11
13879.73343578242
 21
22307.248958488781
 31
0.0
  0
LINE
  5
4088
  8
FUTO
 10
13849.73343578242
 20
22307.248958488781
 30
0.0
 11
13879.73343578242
 21
22307.248958488781
 31
0.0
  0
LINE
  5
4089
  8
FUTO
 10
13879.73343578242
 20
22347.248958488781
 30
0.0
 11
13849.73343578242
 21
22347.248958488781
 31
0.0
  0
LINE
  5
408A
  8
FUTO
 10
13775.27896778242
 20
22309.659114488779
 30
0.0
 11
13787.37894378242
 21
22309.659114488779
 31
0.0
  0
LINE
  5
408B
  8
FUTO
 10
13775.27896778242
 20
22344.838801488779
 30
0.0
 11
13787.37894378242
 21
22344.838801488779
 31
0.0
  0
LINE
  5
408C
  8
FUTO
 10
13775.27896778242
 20
22317.543880488782
 30
0.0
 11
13787.37894378242
 21
22317.543880488782
 31
0.0
  0
LINE
  5
408D
  8
FUTO
 10
13775.27896778242
 20
22336.95403648878
 30
0.0
 11
13787.37894378242
 21
22336.95403648878
 31
0.0
  0
LINE
  5
408E
  8
FUTO
 10
13773.678992782419
 20
22311.25872348878
 30
0.0
 11
13773.678992782419
 21
22343.238216488779
 31
0.0
  0
LINE
  5
408F
  8
FUTO
 10
13775.27896778242
 20
22344.838801488779
 30
0.0
 11
13773.678992782419
 21
22343.238216488779
 31
0.0
  0
LINE
  5
4090
  8
FUTO
 10
13775.27896778242
 20
22336.95403648878
 30
0.0
 11
13773.678992782419
 21
22338.553645488781
 31
0.0
  0
LINE
  5
4091
  8
FUTO
 10
13775.27896778242
 20
22336.95403648878
 30
0.0
 11
13773.678992782419
 21
22335.353450488779
 31
0.0
  0
LINE
  5
4092
  8
FUTO
 10
13773.678992782419
 20
22311.25872348878
 30
0.0
 11
13775.27896778242
 21
22309.659114488779
 31
0.0
  0
LINE
  5
4093
  8
FUTO
 10
13775.27896778242
 20
22317.543880488782
 30
0.0
 11
13773.678992782419
 21
22315.943294488781
 31
0.0
  0
LINE
  5
4094
  8
FUTO
 10
13775.27896778242
 20
22317.543880488782
 30
0.0
 11
13773.678992782419
 21
22319.143489488772
 31
0.0
  0
LINE
  5
4095
  8
FUTO
 10
13787.37894378242
 20
22309.659114488779
 30
0.0
 11
13787.37894378242
 21
22344.838801488779
 31
0.0
  0
LINE
  5
4096
  8
FUTO
 10
13787.37894378242
 20
22336.248958488781
 30
0.0
 11
13849.73343578242
 21
22336.248958488781
 31
0.0
  0
LINE
  5
4097
  8
HOSO
 10
13849.73343578242
 20
22334.248958488781
 30
0.0
 11
13787.378882782419
 21
22334.248958488781
 31
0.0
  0
LINE
  5
4098
  8
HOSO
 10
13787.37894378242
 20
22320.248958488781
 30
0.0
 11
13849.73343578242
 21
22320.248958488781
 31
0.0
  0
LINE
  5
4099
  8
FUTO
 10
13849.73343578242
 20
22318.248958488781
 30
0.0
 11
13787.378882782419
 21
22318.248958488781
 31
0.0
  0
LINE
  5
409A
  8
FUTO
 10
13874.73343578242
 20
22390.248958488781
 30
0.0
 11
13874.73343578242
 21
22347.248958488781
 31
0.0
  0
LINE
  5
409B
  8
FUTO
 10
13877.73343578242
 20
22387.248958488781
 30
0.0
 11
13877.73343578242
 21
22347.248958488781
 31
0.0
  0
LINE
  5
409C
  8
FUTO
 10
13882.73343578242
 20
22382.248958488781
 30
0.0
 11
13882.73343578242
 21
22336.248958488781
 31
0.0
  0
LINE
  5
409D
  8
FUTO
 10
13942.23337478242
 20
22437.248958488781
 30
0.0
 11
13929.73337478242
 21
22437.248958488781
 31
0.0
  0
LINE
  5
409E
  8
FUTO
 10
13931.23337478242
 20
22382.248958488781
 30
0.0
 11
13882.73343578242
 21
22382.248958488781
 31
0.0
  0
LINE
  5
409F
  8
FUTO
 10
13931.23337478242
 20
22385.373958488781
 30
0.0
 11
13924.73337478242
 21
22385.373958488781
 31
0.0
  0
LINE
  5
40A0
  8
FUTO
 10
13924.73337478242
 20
22432.248958488781
 30
0.0
 11
13924.73337478242
 21
22385.373958488781
 31
0.0
  0
LINE
  5
40A1
  8
FUTO
 10
13924.73337478242
 20
22387.248958488781
 30
0.0
 11
13877.73343578242
 21
22387.248958488781
 31
0.0
  0
LINE
  5
40A2
  8
FUTO
 10
13924.73337478242
 20
22390.248958488781
 30
0.0
 11
13874.73343578242
 21
22390.248958488781
 31
0.0
  0
ARC
  5
40A3
  8
FUTO
 10
13929.73337478242
 20
22432.248958488781
 30
0.0
 40
5.0
 50
90.000000000000028
 51
180.0
  0
LINE
  5
40A4
  8
FUTO
 10
13882.73343578242
 20
22382.248958488781
 30
0.0
 11
13877.73343578242
 21
22387.248958488781
 31
0.0
  0
LINE
  5
40A5
  8
FUTO
 10
13945.052029563991
 20
21979.123958488781
 30
0.0
 11
13924.73337478242
 21
21979.123958488781
 31
0.0
  0
LINE
  5
40A6
  8
FUTO
 10
13882.73343578242
 20
22046.248958488781
 30
0.0
 11
13882.73343578242
 21
22318.248958488781
 31
0.0
  0
LINE
  5
40A7
  8
FUTO
 10
13882.73343578242
 20
21982.248958488781
 30
0.0
 11
13877.73343578242
 21
21977.248958488781
 31
0.0
  0
LINE
  5
40A8
  8
FUTO
 10
13882.73343578242
 20
21982.248958488781
 30
0.0
 11
13882.73343578242
 21
22028.248958488781
 31
0.0
  0
LINE
  5
40A9
  8
FUTO
 10
13944.942901214141
 20
21982.248958488781
 30
0.0
 11
13882.73343578242
 21
21982.248958488781
 31
0.0
  0
ARC
  5
40AA
  8
FUTO
 10
13929.73337478242
 20
21932.248958488781
 30
0.0
 40
5.0
 50
180.0
 51
270.0
  0
LINE
  5
40AB
  8
FUTO
 10
13924.73337478242
 20
21974.248958488781
 30
0.0
 11
13874.73343578242
 21
21974.248958488781
 31
0.0
  0
LINE
  5
40AC
  8
FUTO
 10
13924.73337478242
 20
21977.248958488781
 30
0.0
 11
13877.73343578242
 21
21977.248958488781
 31
0.0
  0
LINE
  5
40AD
  8
FUTO
 10
13977.04173978689
 20
21927.248958488781
 30
0.0
 11
13929.73337478242
 21
21927.248958488781
 31
0.0
  0
LINE
  5
40AE
  8
FUTO
 10
13924.73337478242
 20
21932.248958488781
 30
0.0
 11
13924.73337478242
 21
21979.123958488781
 31
0.0
  0
LINE
  5
40AF
  8
FUTO
 10
13877.73343578242
 20
22057.248958488781
 30
0.0
 11
13877.73343578242
 21
22307.248958488781
 31
0.0
  0
LINE
  5
40B0
  8
FUTO
 10
13874.73343578242
 20
22057.248958488781
 30
0.0
 11
13874.73343578242
 21
22307.248958488781
 31
0.0
  0
LINE
  5
40B1
  8
FUTO
 10
13877.73343578242
 20
21977.248958488781
 30
0.0
 11
13877.73343578242
 21
22017.248958488781
 31
0.0
  0
LINE
  5
40B2
  8
FUTO
 10
13874.73343578242
 20
21974.248958488781
 30
0.0
 11
13874.73343578242
 21
22017.248958488781
 31
0.0
  0
LINE
  5
40B3
  8
HOSO
 10
13879.73343578242
 20
22044.248958488781
 30
0.0
 11
13931.23337478242
 21
22044.248958488781
 31
0.0
  0
LINE
  5
40B4
  8
FUTO
 10
13931.23337478242
 20
22046.248958488781
 30
0.0
 11
13879.73343578242
 21
22046.248958488781
 31
0.0
  0
LINE
  5
40B5
  8
HOSO
 10
13931.23337478242
 20
22030.248958488781
 30
0.0
 11
13879.73343578242
 21
22030.248958488781
 31
0.0
  0
LINE
  5
40B6
  8
FUTO
 10
13879.73343578242
 20
22028.248958488781
 30
0.0
 11
13931.23337478242
 21
22028.248958488781
 31
0.0
  0
LINE
  5
40B7
  8
FUTO
 10
13849.73343578242
 20
22046.248958488781
 30
0.0
 11
13787.378882782419
 21
22046.248958488781
 31
0.0
  0
LINE
  5
40B8
  8
HOSO
 10
13787.37894378242
 20
22044.248958488781
 30
0.0
 11
13849.73343578242
 21
22044.248958488781
 31
0.0
  0
LINE
  5
40B9
  8
HOSO
 10
13849.73343578242
 20
22030.248958488781
 30
0.0
 11
13787.378882782419
 21
22030.248958488781
 31
0.0
  0
LINE
  5
40BA
  8
FUTO
 10
13787.37894378242
 20
22028.248958488781
 30
0.0
 11
13849.73343578242
 21
22028.248958488781
 31
0.0
  0
LINE
  5
40BB
  8
FUTO
 10
13787.37894378242
 20
22054.838802488779
 30
0.0
 11
13787.37894378242
 21
22019.659115488779
 31
0.0
  0
LINE
  5
40BC
  8
FUTO
 10
13775.27896778242
 20
22046.954036488769
 30
0.0
 11
13773.678992782419
 21
22045.354427488779
 31
0.0
  0
LINE
  5
40BD
  8
FUTO
 10
13775.27896778242
 20
22046.954036488769
 30
0.0
 11
13773.678992782419
 21
22048.55462248878
 31
0.0
  0
LINE
  5
40BE
  8
FUTO
 10
13773.678992782419
 20
22053.239193488778
 30
0.0
 11
13775.27896778242
 21
22054.838802488779
 31
0.0
  0
LINE
  5
40BF
  8
FUTO
 10
13775.27896778242
 20
22027.543880488782
 30
0.0
 11
13773.678992782419
 21
22029.144466488779
 31
0.0
  0
LINE
  5
40C0
  8
FUTO
 10
13775.27896778242
 20
22027.543880488782
 30
0.0
 11
13773.678992782419
 21
22025.94427148877
 31
0.0
  0
LINE
  5
40C1
  8
FUTO
 10
13775.27896778242
 20
22019.659115488779
 30
0.0
 11
13773.678992782419
 21
22021.259700488779
 31
0.0
  0
LINE
  5
40C2
  8
FUTO
 10
13773.678992782419
 20
22053.239193488778
 30
0.0
 11
13773.678992782419
 21
22021.259700488779
 31
0.0
  0
LINE
  5
40C3
  8
FUTO
 10
13775.27896778242
 20
22027.543880488782
 30
0.0
 11
13787.37894378242
 21
22027.543880488782
 31
0.0
  0
LINE
  5
40C4
  8
FUTO
 10
13775.27896778242
 20
22046.954036488769
 30
0.0
 11
13787.37894378242
 21
22046.954036488769
 31
0.0
  0
LINE
  5
40C5
  8
FUTO
 10
13775.27896778242
 20
22019.659115488779
 30
0.0
 11
13787.37894378242
 21
22019.659115488779
 31
0.0
  0
LINE
  5
40C6
  8
FUTO
 10
13775.27896778242
 20
22054.838802488779
 30
0.0
 11
13787.37894378242
 21
22054.838802488779
 31
0.0
  0
LINE
  5
40C7
  8
CT
 10
13931.23337478242
 20
22037.24895848877
 30
0.0
 11
13763.678992782419
 21
22037.24895848877
 31
0.0
  0
LINE
  5
40C8
  8
FUTO
 10
13879.73343578242
 20
22017.248958488781
 30
0.0
 11
13849.73343578242
 21
22017.248958488781
 31
0.0
  0
LINE
  5
40C9
  8
FUTO
 10
13849.73343578242
 20
22057.248958488781
 30
0.0
 11
13879.73343578242
 21
22057.248958488781
 31
0.0
  0
LINE
  5
40CA
  8
FUTO
 10
13879.73343578242
 20
22017.248958488781
 30
0.0
 11
13879.73343578242
 21
22057.248958488781
 31
0.0
  0
LINE
  5
40CB
  8
FUTO
 10
13849.73343578242
 20
22017.248958488781
 30
0.0
 11
13849.73343578242
 21
22057.248958488781
 31
0.0
  0
ARC
  5
40CC
  8
FUTO
 10
14466.36252478242
 20
22244.248897488778
 30
0.0
 40
20.0
 50
0.000000000000007
 51
90.000000000000028
  0
ARC
  5
40CD
  8
FUTO
 10
14466.36252478242
 20
22120.248958488781
 30
0.0
 40
20.0
 50
270.0
 51
0.000000000000007
  0
ARC
  5
40CE
  8
FUTO
 10
14476.36252478242
 20
22103.248958488781
 30
0.0
 40
10.0
 50
270.0
 51
0.000000000000007
  0
ARC
  5
40CF
  8
FUTO
 10
14476.36252478242
 20
22261.248897488778
 30
0.0
 40
10.0
 50
0.000000000000007
 51
90.000000000000028
  0
ARC
  5
40D0
  8
FUTO
 10
14373.505799883529
 20
22103.248958488781
 30
0.0
 40
10.0
 50
180.0
 51
270.0
  0
ARC
  5
40D1
  8
FUTO
 10
14376.672915421859
 20
22103.248958488781
 30
0.0
 40
10.0
 50
180.0
 51
270.0
  0
ARC
  5
40D2
  8
FUTO
 10
14373.505799883529
 20
22261.248897488778
 30
0.0
 40
10.0
 50
90.000000000000028
 51
180.0
  0
ARC
  5
40D3
  8
FUTO
 10
14376.672915421859
 20
22261.248897488778
 30
0.0
 40
10.0
 50
90.000000000000028
 51
180.0
  0
LINE
  5
40D4
  8
FUTO
 10
14373.86951870132
 20
22100.248958488781
 30
0.0
 11
14466.36252478242
 21
22100.248958488781
 31
0.0
  0
LINE
  5
40D5
  8
FUTO
 10
14373.86951870132
 20
22264.248897488778
 30
0.0
 11
14466.36252478242
 21
22264.248897488778
 31
0.0
  0
ARC
  5
40D6
  8
FUTO
 10
14359.73337478242
 20
22105.248958488781
 30
0.0
 40
5.0
 50
180.0
 51
270.0
  0
ARC
  5
40D7
  8
FUTO
 10
14359.73337478242
 20
22259.248897488778
 30
0.0
 40
5.0
 50
90.000000000000028
 51
180.0
  0
ARC
  5
40D8
  8
FUTO
 10
14373.86951870132
 20
22105.248958488781
 30
0.0
 40
5.0
 50
180.0
 51
270.0
  0
ARC
  5
40D9
  8
FUTO
 10
14373.86951870132
 20
22259.248897488778
 30
0.0
 40
5.0
 50
90.000000000000028
 51
180.0
  0
LINE
  5
40DA
  8
FUTO
 10
14373.505799883529
 20
22093.248958488781
 30
0.0
 11
14476.36252478242
 21
22093.248958488781
 31
0.0
  0
LINE
  5
40DB
  8
FUTO
 10
14359.73337478242
 20
22100.248958488781
 30
0.0
 11
14363.505799883529
 21
22100.248958488781
 31
0.0
  0
LINE
  5
40DC
  8
FUTO
 10
14373.505799883529
 20
22271.248897488778
 30
0.0
 11
14476.36252478242
 21
22271.248897488778
 31
0.0
  0
LINE
  5
40DD
  8
FUTO
 10
14359.73337478242
 20
22264.248897488778
 30
0.0
 11
14363.505799883529
 21
22264.248897488778
 31
0.0
  0
LINE
  5
40DE
  8
FUTO
 10
14338.23337478242
 20
22242.248958488781
 30
0.0
 11
14338.23337478242
 21
22349.059729237812
 31
0.0
  0
LINE
  5
40DF
  8
FUTO
 10
14354.73337478242
 20
22122.248958488781
 30
0.0
 11
14287.00697722224
 21
22122.248958488781
 31
0.0
  0
LINE
  5
40E0
  8
FUTO
 10
14354.73337478242
 20
22242.248958488781
 30
0.0
 11
14287.00697722224
 21
22242.248958488781
 31
0.0
  0
LINE
  5
40E1
  8
FUTO
 10
14445.05271078242
 20
22120.248958488781
 30
0.0
 11
14445.05271078242
 21
22244.248897488778
 31
0.0
  0
LINE
  5
40E2
  8
FUTO
 10
14368.86951870132
 20
22105.248958488781
 30
0.0
 11
14368.86951870132
 21
22259.248897488778
 31
0.0
  0
LINE
  5
40E3
  8
FUTO
 10
14366.672915421859
 20
22103.248958488781
 30
0.0
 11
14366.672915421859
 21
22261.248897488778
 31
0.0
  0
LINE
  5
40E4
  8
FUTO
 10
14363.505799883529
 20
22103.248958488781
 30
0.0
 11
14363.505799883529
 21
22261.248897488778
 31
0.0
  0
LINE
  5
40E5
  8
FUTO
 10
14354.73337478242
 20
22105.248958488781
 30
0.0
 11
14354.73337478242
 21
22259.248897488778
 31
0.0
  0
LINE
  5
40E6
  8
FUTO
 10
14344.73337478242
 20
22122.248958488781
 30
0.0
 11
14344.73337478242
 21
22242.248958488781
 31
0.0
  0
LINE
  5
40E7
  8
FUTO
 10
14287.00697722224
 20
22122.248958488781
 30
0.0
 11
14287.00697722224
 21
22242.248958488781
 31
0.0
  0
LINE
  5
40E8
  8
FUTO
 10
14486.36252478242
 20
22103.248958488781
 30
0.0
 11
14486.36252478242
 21
22261.248897488778
 31
0.0
  0
LINE
  5
40E9
  8
FUTO
 10
14140.98337478242
 20
22158.498958488781
 30
0.0
 11
14140.98337478242
 21
22205.998958488781
 31
0.0
  0
ARC
  5
40EA
  8
FUTO
 10
14134.73337478242
 20
22158.498958488781
 30
0.0
 40
6.25
 50
180.0
 51
0.000000000000007
  0
ARC
  5
40EB
  8
FUTO
 10
14134.73337478242
 20
22205.998958488781
 30
0.0
 40
6.25
 50
0.000000000000007
 51
180.0
  0
LINE
  5
40EC
  8
CT
 10
14506.36252478242
 20
22182.248958488781
 30
0.0
 11
13854.73343578242
 21
22182.248958488781
 31
0.0
  0
LINE
  5
40ED
  8
FUTO
 10
14128.48337478242
 20
22158.498958488781
 30
0.0
 11
14128.48337478242
 21
22205.998958488781
 31
0.0
  0
LINE
  5
40EE
  8
FUTO
 10
14338.23337478242
 20
22349.059729237812
 30
0.0
 11
14336.41159778242
 21
22351.248897488778
 31
0.0
  0
LINE
  5
40EF
  8
FUTO
 10
14338.23337478242
 20
22015.43804548878
 30
0.0
 11
14331.73337478242
 21
22007.627132488771
 31
0.0
  0
LINE
  5
40F0
  8
FUTO
 10
14338.23337478242
 20
22015.43804548878
 30
0.0
 11
14338.23337478242
 21
22122.248958488781
 31
0.0
  0
LINE
  5
40F1
  8
FUTO
 10
13931.23337478242
 20
22015.43804548878
 30
0.0
 11
13931.23337478242
 21
22349.059729237812
 31
0.0
  0
ARC
  5
40F2
  8
FUTO
 10
14212.73337478242
 20
21908.748958488781
 30
0.0
 40
2.0
 50
270.0
 51
0.000000000000007
  0
ARC
  5
40F3
  8
FUTO
 10
14217.73337478242
 20
21918.902034488779
 30
0.0
 40
2.9999599999999988
 50
92.999557000034059
 51
180.0
  0
LINE
  5
40F4
  8
FUTO
 10
14214.73337478242
 20
21918.902034488779
 30
0.0
 11
14214.73337478242
 21
21908.748958488781
 31
0.0
  0
ARC
  5
40F5
  8
FUTO
 10
14313.82932278242
 20
21962.534603488781
 30
0.0
 40
9.9999679999999991
 50
315.0
 51
358.00067100000211
  0
ARC
  5
40F6
  8
FUTO
 10
14286.83615878242
 20
21935.541438488781
 30
0.0
 40
10.000024
 50
272.99903899993512
 51
315.0
  0
LINE
  5
40F7
  8
FUTO
 10
14320.90036778242
 20
21955.46355848878
 30
0.0
 11
14293.90720278242
 21
21928.470394488781
 31
0.0
  0
LINE
  5
40F8
  8
FUTO
 10
14324.73337478242
 20
21988.248958488781
 30
0.0
 11
14323.82321878242
 21
21962.18572648878
 31
0.0
  0
LINE
  5
40F9
  8
FUTO
 10
14287.359351782419
 20
21925.555110488782
 30
0.0
 11
14198.76804278242
 21
21920.91228848878
 31
0.0
  0
LINE
  5
40FA
  8
FUTO
 10
14296.73337478242
 20
21998.248958488781
 30
0.0
 11
13972.73337478242
 21
21998.248958488781
 31
0.0
  0
LINE
  5
40FB
  8
FUTO
 10
14296.73337478242
 20
21988.248958488781
 30
0.0
 11
14296.73337478242
 21
21993.248958488781
 31
0.0
  0
LINE
  5
40FC
  8
FUTO
 10
14296.73337478242
 20
21993.248958488781
 30
0.0
 11
14296.73337478242
 21
21998.248958488781
 31
0.0
  0
LINE
  5
40FD
  8
FUTO
 10
14331.73337478242
 20
22007.627132488771
 30
0.0
 11
14296.73337478242
 21
21998.248958488781
 31
0.0
  0
ARC
  5
40FE
  8
FUTO
 10
14318.23337478242
 20
22397.722286488781
 30
0.0
 40
20.0
 50
0.000000000000007
 51
20.000046000008609
  0
ARC
  5
40FF
  8
FUTO
 10
14347.23337478242
 20
22434.99767648878
 30
0.0
 40
20.0
 50
180.0
 51
199.9997250000032
  0
LINE
  5
4100
  8
FUTO
 10
14282.382300782419
 20
22379.748897488778
 30
0.0
 11
14286.13523078242
 21
22386.248897488778
 31
0.0
  0
LINE
  5
4101
  8
FUTO
 10
14286.13523078242
 20
22386.248897488778
 30
0.0
 11
14282.382300782419
 21
22392.748897488778
 31
0.0
  0
LINE
  5
4102
  8
FUTO
 10
14337.027320782419
 20
22404.562740488778
 30
0.0
 11
14328.43942978242
 21
22428.157344488769
 31
0.0
  0
LINE
  5
4103
  8
FUTO
 10
14338.23337478242
 20
22351.248897488778
 30
0.0
 11
14338.23337478242
 21
22397.722286488781
 31
0.0
  0
LINE
  5
4104
  8
FUTO
 10
14271.12399978242
 20
22386.248897488778
 30
0.0
 11
14274.87692978242
 21
22392.748897488778
 31
0.0
  0
LINE
  5
4105
  8
FUTO
 10
14274.87692978242
 20
22379.748897488778
 30
0.0
 11
14271.12399978242
 21
22386.248897488778
 31
0.0
  0
LINE
  5
4106
  8
CT
 10
14278.62961578242
 20
22378.806758488769
 30
0.0
 11
14278.62961578242
 21
22393.262813488778
 31
0.0
  0
LINE
  5
4107
  8
CT
 10
14270.23899078242
 20
22386.248897488778
 30
0.0
 11
14287.06052378242
 21
22386.248897488778
 31
0.0
  0
LINE
  5
4108
  8
FUTO
 10
14274.87692978242
 20
22392.748897488778
 30
0.0
 11
14282.382300782419
 21
22392.748897488778
 31
0.0
  0
LINE
  5
4109
  8
FUTO
 10
14274.87692978242
 20
22379.748897488778
 30
0.0
 11
14282.382300782419
 21
22379.748897488778
 31
0.0
  0
CIRCLE
  5
410A
  8
FUTO
 10
14278.62961578242
 20
22386.248897488778
 30
0.0
 40
6.5
  0
ARC
  5
410B
  8
FUTO
 10
14312.23337478242
 20
22495.937984488781
 30
0.0
 40
15.0
 50
0.000000000000007
 51
29.999816999981821
  0
ARC
  5
410C
  8
FUTO
 10
14291.84665678242
 20
22551.248897488778
 30
0.0
 40
4.9999580000000003
 50
30.000281999972739
 51
90.000000000000028
  0
LINE
  5
410D
  8
FUTO
 10
14296.176734782421
 20
22553.748897488778
 30
0.0
 11
14325.22385378242
 21
22503.437984488781
 31
0.0
  0
LINE
  5
410E
  8
FUTO
 10
14327.23337478242
 20
22434.99767648878
 30
0.0
 11
14327.23337478242
 21
22495.937984488781
 31
0.0
  0
LINE
  5
410F
  8
FUTO
 10
13942.23337478242
 20
22434.99767648878
 30
0.0
 11
13942.23337478242
 21
22495.937984488781
 31
0.0
  0
LINE
  5
4110
  8
CT
 10
14134.73337478242
 20
21736.748958488781
 30
0.0
 11
14134.73337478242
 21
22576.248958488781
 31
0.0
  0
LINE
  5
4111
  8
FUTO
 10
13977.083410782419
 20
22556.248958488781
 30
0.0
 11
14291.873724782419
 21
22556.248958488781
 31
0.0
  0
LINE
  5
4112
  8
FUTO
 10
14327.23337478242
 20
22497.148921488781
 30
0.0
 11
13942.282446782419
 21
22497.148921488781
 31
0.0
  0
LINE
  5
4113
  8
FUTO
 10
13973.29001478242
 20
22553.748897488778
 30
0.0
 11
13944.24289578242
 21
22503.437984488781
 31
0.0
  0
ARC
  5
4114
  8
FUTO
 10
13977.620092782419
 20
22551.248897488778
 30
0.0
 40
4.9999580000000003
 50
90.000000000000028
 51
149.9997180000272
  0
ARC
  5
4115
  8
FUTO
 10
13957.23337478242
 20
22495.937984488781
 30
0.0
 40
15.0
 50
150.00018300001821
 51
180.0
  0
LINE
  5
4116
  8
FUTO
 10
14212.73337478242
 20
21906.748958488781
 30
0.0
 11
14134.73337478242
 21
21906.748958488781
 31
0.0
  0
LINE
  5
4117
  8
FUTO
 10
14324.73337478242
 20
21988.248958488781
 30
0.0
 11
14134.73337478242
 21
21988.248958488781
 31
0.0
  0
LINE
  5
4118
  8
FUTO
 10
14296.73337478242
 20
21993.248958488781
 30
0.0
 11
14134.73337478242
 21
21993.248958488781
 31
0.0
  0
LINE
  5
4119
  8
FUTO
 10
13941.91599178242
 20
22431.448848488781
 30
0.0
 11
14327.23337478242
 21
22431.448848488781
 31
0.0
  0
LINE
  5
411A
  8
FUTO
 10
13931.546850782421
 20
22401.248897488778
 30
0.0
 11
14337.91999498129
 21
22401.248897488778
 31
0.0
  0
LINE
  5
411B
  8
FUTO
 10
13931.23337478242
 20
22351.248897488778
 30
0.0
 11
14336.41159778242
 21
22351.248897488778
 31
0.0
  0
LINE
  5
411C
  8
FUTO
 10
14296.73337478242
 20
21993.248958488781
 30
0.0
 11
14134.73337478242
 21
21993.248958488781
 31
0.0
  0
CIRCLE
  5
411D
  8
FUTO
 10
13990.837133782419
 20
22386.248897488778
 30
0.0
 40
6.5
  0
LINE
  5
411E
  8
FUTO
 10
13994.589819782421
 20
22379.748897488778
 30
0.0
 11
13987.08444878242
 21
22379.748897488778
 31
0.0
  0
LINE
  5
411F
  8
FUTO
 10
13994.589819782421
 20
22392.748897488778
 30
0.0
 11
13987.08444878242
 21
22392.748897488778
 31
0.0
  0
LINE
  5
4120
  8
CT
 10
13999.227758782419
 20
22386.248897488778
 30
0.0
 11
13982.406225782421
 21
22386.248897488778
 31
0.0
  0
LINE
  5
4121
  8
CT
 10
13990.837133782419
 20
22378.806758488769
 30
0.0
 11
13990.837133782419
 21
22393.262813488778
 31
0.0
  0
LINE
  5
4122
  8
FUTO
 10
13994.589819782421
 20
22379.748897488778
 30
0.0
 11
13998.34274978242
 21
22386.248897488778
 31
0.0
  0
LINE
  5
4123
  8
FUTO
 10
13998.34274978242
 20
22386.248897488778
 30
0.0
 11
13994.589819782421
 21
22392.748897488778
 31
0.0
  0
LINE
  5
4124
  8
FUTO
 10
13931.23337478242
 20
22351.248897488778
 30
0.0
 11
13931.23337478242
 21
22397.722286488781
 31
0.0
  0
LINE
  5
4125
  8
FUTO
 10
13932.43942878242
 20
22404.562740488778
 30
0.0
 11
13941.027319782421
 21
22428.157344488769
 31
0.0
  0
LINE
  5
4126
  8
FUTO
 10
13983.331518782419
 20
22386.248897488778
 30
0.0
 11
13987.08444878242
 21
22392.748897488778
 31
0.0
  0
LINE
  5
4127
  8
FUTO
 10
13987.08444878242
 20
22379.748897488778
 30
0.0
 11
13983.331518782419
 21
22386.248897488778
 31
0.0
  0
ARC
  5
4128
  8
FUTO
 10
13922.23337478242
 20
22434.99767648878
 30
0.0
 40
20.0
 50
340.0002749999968
 51
0.000000000000007
  0
ARC
  5
4129
  8
FUTO
 10
13951.23337478242
 20
22397.722286488781
 30
0.0
 40
20.0
 50
159.99995399999131
 51
180.0
  0
LINE
  5
412A
  8
FUTO
 10
13931.23337478242
 20
22349.059729237812
 30
0.0
 11
13933.055151782421
 21
22351.248897488778
 31
0.0
  0
LINE
  5
412B
  8
FUTO
 10
13972.73337478242
 20
21993.248958488781
 30
0.0
 11
14134.73337478242
 21
21993.248958488781
 31
0.0
  0
LINE
  5
412C
  8
FUTO
 10
13982.10739778242
 20
21925.555110488782
 30
0.0
 11
14070.698706782419
 21
21920.91228848878
 31
0.0
  0
LINE
  5
412D
  8
FUTO
 10
13944.73337478242
 20
21988.248958488781
 30
0.0
 11
14134.73337478242
 21
21988.248958488781
 31
0.0
  0
LINE
  5
412E
  8
FUTO
 10
13972.73337478242
 20
21993.248958488781
 30
0.0
 11
14134.73337478242
 21
21993.248958488781
 31
0.0
  0
LINE
  5
412F
  8
FUTO
 10
14164.73337478242
 20
21896.748958488781
 30
0.0
 11
14164.73337478242
 21
21756.748958488781
 31
0.0
  0
LINE
  5
4130
  8
FUTO
 10
14104.73337478242
 20
21896.748958488781
 30
0.0
 11
14104.73337478242
 21
21756.748958488781
 31
0.0
  0
LINE
  5
4131
  8
FUTO
 10
14056.73337478242
 20
21906.748958488781
 30
0.0
 11
14134.73337478242
 21
21906.748958488781
 31
0.0
  0
LINE
  5
4132
  8
FUTO
 10
14167.23337478242
 20
21896.748958488781
 30
0.0
 11
14102.23337478242
 21
21896.748958488781
 31
0.0
  0
LINE
  5
4133
  8
FUTO
 10
14167.23337478242
 20
21896.748958488781
 30
0.0
 11
14167.23337478242
 21
21906.748958488781
 31
0.0
  0
LINE
  5
4134
  8
FUTO
 10
14102.23337478242
 20
21896.748958488781
 30
0.0
 11
14102.23337478242
 21
21906.748958488781
 31
0.0
  0
LINE
  5
4135
  8
FUTO
 10
14054.73337478242
 20
21918.902034488779
 30
0.0
 11
14054.73337478242
 21
21908.748958488781
 31
0.0
  0
ARC
  5
4136
  8
FUTO
 10
14051.73337478242
 20
21918.902034488779
 30
0.0
 40
2.9999599999999988
 50
0.000000000000007
 51
87.000442999965941
  0
ARC
  5
4137
  8
FUTO
 10
14056.73337478242
 20
21908.748958488781
 30
0.0
 40
2.0
 50
180.0
 51
270.0
  0
LINE
  5
4138
  8
FUTO
 10
14104.73337478242
 20
21756.748958488781
 30
0.0
 11
14164.73337478242
 21
21756.748958488781
 31
0.0
  0
LINE
  5
4139
  8
FUTO
 10
13931.23337478242
 20
22015.43804548878
 30
0.0
 11
13937.73337478242
 21
22007.627132488771
 31
0.0
  0
LINE
  5
413A
  8
FUTO
 10
13944.73337478242
 20
21988.248958488781
 30
0.0
 11
13945.643530782419
 21
21962.18572648878
 31
0.0
  0
LINE
  5
413B
  8
FUTO
 10
13937.73337478242
 20
22007.627132488771
 30
0.0
 11
13972.73337478242
 21
21998.248958488781
 31
0.0
  0
LINE
  5
413C
  8
FUTO
 10
13972.73337478242
 20
21993.248958488781
 30
0.0
 11
13972.73337478242
 21
21998.248958488781
 31
0.0
  0
LINE
  5
413D
  8
FUTO
 10
13972.73337478242
 20
21988.248958488781
 30
0.0
 11
13972.73337478242
 21
21993.248958488781
 31
0.0
  0
LINE
  5
413E
  8
FUTO
 10
13948.566381782421
 20
21955.46355848878
 30
0.0
 11
13975.559546782421
 21
21928.470394488781
 31
0.0
  0
ARC
  5
413F
  8
FUTO
 10
13982.630590782421
 20
21935.541438488781
 30
0.0
 40
10.000024
 50
225.0
 51
267.00096100006488
  0
ARC
  5
4140
  8
FUTO
 10
13955.637426782419
 20
21962.534603488781
 30
0.0
 40
9.9999679999999991
 50
181.99932899999791
 51
225.0
  0
LINE
  5
4142
  8
FUTO
 10
15893.64529606396
 20
18254.503825343229
 30
0.0
 11
15908.32472698827
 21
18254.503825343229
 31
0.0
  0
LINE
  5
4143
  8
FUTO
 10
15896.324787988269
 20
18234.503825343229
 30
0.0
 11
15931.324787988269
 21
18234.503825343229
 31
0.0
  0
LINE
  5
4144
  8
FUTO
 10
15569.00427991258
 20
18254.503825343229
 30
0.0
 11
15554.324787988269
 21
18254.503825343229
 31
0.0
  0
LINE
  5
4145
  8
FUTO
 10
15566.324787988269
 20
18234.503825343229
 30
0.0
 11
15531.324787988269
 21
18234.503825343229
 31
0.0
  0
LINE
  5
4147
  8
FUTO
 10
15631.324787988269
 20
18229.503825343229
 30
0.0
 11
15631.324787988269
 21
18234.503825343229
 31
0.0
  0
LINE
  5
4148
  8
FUTO
 10
15831.324787988269
 20
18234.503825343229
 30
0.0
 11
15831.324787988269
 21
18229.503825343229
 31
0.0
  0
LINE
  5
4153
  8
FUTO
 10
15586.324787988269
 20
18262.979411343229
 30
0.0
 11
15570.324787988269
 21
18253.742107343231
 31
0.0
  0
LINE
  5
4154
  8
FUTO
 10
15602.324787988269
 20
18253.742107343231
 30
0.0
 11
15586.324787988269
 21
18262.979411343229
 31
0.0
  0
LINE
  5
4155
  8
FUTO
 10
15586.324787988269
 20
18226.029216343231
 30
0.0
 11
15570.324787988269
 21
18235.26652134323
 31
0.0
  0
LINE
  5
4156
  8
FUTO
 10
15602.324787988269
 20
18235.26652134323
 30
0.0
 11
15586.324787988269
 21
18226.029216343231
 31
0.0
  0
LINE
  5
4157
  8
CT
 10
15556.324787988269
 20
18244.503825343229
 30
0.0
 11
15616.324787988269
 21
18244.503825343229
 31
0.0
  0
CIRCLE
  5
4158
  8
FUTO
 10
15586.324787988269
 20
18244.503825343229
 30
0.0
 40
16.0
  0
LINE
  5
4159
  8
FUTO
 10
15602.324787988269
 20
18235.26652134323
 30
0.0
 11
15602.324787988269
 21
18253.742107343231
 31
0.0
  0
LINE
  5
415A
  8
FUTO
 10
15570.324787988269
 20
18235.26652134323
 30
0.0
 11
15570.324787988269
 21
18253.742107343231
 31
0.0
  0
ARC
  5
415B
  8
FUTO
 10
15586.324787988269
 20
18244.503825343229
 30
0.0
 40
20.0
 50
0.000000000000007
 51
180.0
  0
ARC
  5
415C
  8
FUTO
 10
15479.324787988269
 20
18201.503825343229
 30
0.0
 40
3.0
 50
90.0
 51
180.0
  0
LINE
  5
415D
  8
FUTO
 10
15528.199787988269
 20
18204.503825343229
 30
0.0
 11
15479.324787988269
 21
18204.503825343229
 31
0.0
  0
LINE
  5
415E
  8
FUTO
 10
15533.324787988269
 20
18174.503825343229
 30
0.0
 11
15533.324787988269
 21
18179.503825343229
 31
0.0
  0
LINE
  5
415F
  8
FUTO
 10
15523.324787988269
 20
18186.503825343229
 30
0.0
 11
15523.324787988269
 21
18179.503825343229
 31
0.0
  0
LINE
  5
4160
  8
FUTO
 10
15533.324787988269
 20
18174.503825343229
 30
0.0
 11
15476.324787988269
 21
18174.503825343229
 31
0.0
  0
LINE
  5
4161
  8
FUTO
 10
15476.324787988269
 20
18174.503825343229
 30
0.0
 11
15476.324787988269
 21
18201.503825343229
 31
0.0
  0
LINE
  5
4162
  8
CT
 10
15501.324787988269
 20
18224.503825343229
 30
0.0
 11
15501.324787988269
 21
18154.503825343229
 31
0.0
  0
LINE
  5
4163
  8
FUTO
 10
15523.324787988269
 20
18186.503825343229
 30
0.0
 11
15566.324787988269
 21
18186.503825343229
 31
0.0
  0
LINE
  5
4164
  8
FUTO
 10
15531.324787988269
 20
18234.503825343229
 30
0.0
 11
15526.324787988269
 21
18186.503825343229
 31
0.0
  0
LINE
  5
4165
  8
FUTO
 10
15606.324787988269
 20
18244.503825343229
 30
0.0
 11
15606.324787988269
 21
18179.503825343229
 31
0.0
  0
LINE
  5
4166
  8
FUTO
 10
15566.324787988269
 20
18179.503825343229
 30
0.0
 11
15566.324787988269
 21
18244.503825343229
 31
0.0
  0
LINE
  5
4167
  8
CT
 10
15586.324787988269
 20
18169.503825343229
 30
0.0
 11
15586.324787988269
 21
18274.503825343229
 31
0.0
  0
LINE
  5
4168
  8
FUTO
 10
15860.324787988269
 20
18253.742107343231
 30
0.0
 11
15876.324787988269
 21
18262.979411343229
 31
0.0
  0
LINE
  5
4169
  8
FUTO
 10
15860.324787988269
 20
18235.26652134323
 30
0.0
 11
15876.324787988269
 21
18226.029216343231
 31
0.0
  0
LINE
  5
416A
  8
FUTO
 10
15860.324787988269
 20
18235.26652134323
 30
0.0
 11
15860.324787988269
 21
18253.742107343231
 31
0.0
  0
LINE
  5
416B
  8
FUTO
 10
15892.324787988269
 20
18235.26652134323
 30
0.0
 11
15892.324787988269
 21
18253.742107343231
 31
0.0
  0
CIRCLE
  5
416C
  8
FUTO
 10
15876.324787988269
 20
18244.503825343229
 30
0.0
 40
16.0
  0
LINE
  5
416D
  8
FUTO
 10
15876.324787988269
 20
18262.979411343229
 30
0.0
 11
15892.324787988269
 21
18253.742107343231
 31
0.0
  0
LINE
  5
416E
  8
FUTO
 10
15876.324787988269
 20
18226.029216343231
 30
0.0
 11
15892.324787988269
 21
18235.26652134323
 31
0.0
  0
ARC
  5
416F
  8
FUTO
 10
15876.324787988269
 20
18244.503825343229
 30
0.0
 40
20.0
 50
0.000000000000007
 51
180.0
  0
LINE
  5
4170
  8
CT
 10
15906.324787988269
 20
18244.503825343229
 30
0.0
 11
15846.324787988269
 21
18244.503825343229
 31
0.0
  0
LINE
  5
4171
  8
FUTO
 10
15631.324787988269
 20
18229.503825343229
 30
0.0
 11
15831.324787988269
 21
18229.503825343229
 31
0.0
  0
LINE
  5
4172
  8
FUTO
 10
15929.324787988269
 20
18174.503825343229
 30
0.0
 11
15929.324787988269
 21
18179.503825343229
 31
0.0
  0
LINE
  5
4173
  8
FUTO
 10
15939.324787988269
 20
18186.503825343229
 30
0.0
 11
15939.324787988269
 21
18179.503825343229
 31
0.0
  0
LINE
  5
4174
  8
FUTO
 10
15939.324787988269
 20
18186.503825343229
 30
0.0
 11
15896.324787988269
 21
18186.503825343229
 31
0.0
  0
LINE
  5
4175
  8
CT
 10
15961.324787988269
 20
18224.503825343229
 30
0.0
 11
15961.324787988269
 21
18154.503825343229
 31
0.0
  0
ARC
  5
4176
  8
FUTO
 10
15983.324787988269
 20
18201.503825343229
 30
0.0
 40
3.0
 50
0.000000000000007
 51
90.0
  0
LINE
  5
4177
  8
FUTO
 10
15986.324787988269
 20
18174.503825343229
 30
0.0
 11
15986.324787988269
 21
18201.503825343229
 31
0.0
  0
LINE
  5
4178
  8
FUTO
 10
15934.449787988269
 20
18204.503825343229
 30
0.0
 11
15983.324787988269
 21
18204.503825343229
 31
0.0
  0
LINE
  5
4179
  8
FUTO
 10
15929.324787988269
 20
18174.503825343229
 30
0.0
 11
15986.324787988269
 21
18174.503825343229
 31
0.0
  0
LINE
  5
417A
  8
FUTO
 10
15931.324787988269
 20
18234.503825343229
 30
0.0
 11
15936.324787988269
 21
18186.503825343229
 31
0.0
  0
LINE
  5
417B
  8
FUTO
 10
15856.324787988269
 20
18244.503825343229
 30
0.0
 11
15856.324787988269
 21
18179.503825343229
 31
0.0
  0
LINE
  5
417C
  8
FUTO
 10
15896.324787988269
 20
18179.503825343229
 30
0.0
 11
15896.324787988269
 21
18244.503825343229
 31
0.0
  0
LINE
  5
417D
  8
CT
 10
15876.324787988269
 20
18169.503825343229
 30
0.0
 11
15876.324787988269
 21
18274.503825343229
 31
0.0
  0
LINE
  5
41CF
  8
FUTO
 10
15606.324787988269
 20
18186.503825343229
 30
0.0
 11
15856.324787988269
 21
18186.503825343229
 31
0.0
  0
LINE
  5
41D0
  8
FUTO
 10
15523.324787988269
 20
18179.503825343229
 30
0.0
 11
15939.324787988269
 21
18179.503825343229
 31
0.0
  0
LINE
  5
41D1
  8
FUTO
 10
15547.324787988269
 20
18596.503825343229
 30
0.0
 11
15547.324787988269
 21
18559.503825343229
 31
0.0
  0
ARC
  5
41D2
  8
FUTO
 10
15511.610432988269
 20
18613.59977334323
 30
0.0
 40
9.9999679999999991
 50
91.999328999997914
 51
135.0
  0
ARC
  5
41D3
  8
FUTO
 10
15484.617267988269
 20
18586.606609343231
 30
0.0
 40
10.000024
 50
135.0
 51
177.00096100006479
  0
LINE
  5
41D4
  8
FUTO
 10
15504.53938798827
 20
18620.670818343231
 30
0.0
 11
15477.546223988271
 21
18593.677653343231
 31
0.0
  0
LINE
  5
41D5
  8
FUTO
 10
15537.324787988269
 20
18596.503825343229
 30
0.0
 11
15542.324787988269
 21
18596.503825343229
 31
0.0
  0
LINE
  5
41D6
  8
FUTO
 10
15542.324787988269
 20
18596.503825343229
 30
0.0
 11
15547.324787988269
 21
18596.503825343229
 31
0.0
  0
LINE
  5
41D7
  8
FUTO
 10
15556.702961988271
 20
18631.503825343229
 30
0.0
 11
15547.324787988269
 21
18596.503825343229
 31
0.0
  0
LINE
  5
41D8
  8
FUTO
 10
15537.324787988269
 20
18624.503825343229
 30
0.0
 11
15511.261555988271
 21
18623.59366934323
 31
0.0
  0
LINE
  5
41DA
  8
FUTO
 10
15572.324787988269
 20
18644.503825343229
 30
0.0
 11
15556.702961988271
 21
18631.503825343229
 31
0.0
  0
LINE
  5
41DB
  8
FUTO
 10
15305.824787988269
 20
18468.503825343229
 30
0.0
 11
15305.824787988269
 21
18404.503825343229
 31
0.0
  0
ARC
  5
41DC
  8
FUTO
 10
15457.824787988269
 20
18512.503825343229
 30
0.0
 40
2.0
 50
90.0
 51
180.0
  0
ARC
  5
41EB
  8
FUTO
 10
15557.324787988269
 20
18559.503825343229
 30
0.0
 40
10.0
 50
90.0
 51
180.0
  0
ARC
  5
41EE
  8
FUTO
 10
15467.97786398827
 20
18517.503825343229
 30
0.0
 40
2.9999599999999988
 50
270.0
 51
357.00044299996591
  0
LINE
  5
41EF
  8
FUTO
 10
15467.97786398827
 20
18514.503825343229
 30
0.0
 11
15457.824787988269
 21
18514.503825343229
 31
0.0
  0
LINE
  5
41F0
  8
FUTO
 10
15415.824787988269
 20
18468.503825343229
 30
0.0
 11
15415.824787988269
 21
18464.503825343229
 31
0.0
  0
LINE
  5
41F1
  8
FUTO
 10
15445.824787988269
 20
18467.003825343229
 30
0.0
 11
15455.824787988269
 21
18467.003825343229
 31
0.0
  0
LINE
  5
41F2
  8
FUTO
 10
15445.824787988269
 20
18402.003825343229
 30
0.0
 11
15455.824787988269
 21
18402.003825343229
 31
0.0
  0
LINE
  5
41F3
  8
FUTO
 10
15445.824787988269
 20
18402.003825343229
 30
0.0
 11
15445.824787988269
 21
18467.003825343229
 31
0.0
  0
ARC
  5
41F4
  8
FUTO
 10
15557.324787988269
 20
18459.503825343229
 30
0.0
 40
10.0
 50
180.0
 51
270.0
  0
LINE
  5
41F5
  8
FUTO
 10
15455.824787988269
 20
18512.503825343229
 30
0.0
 11
15455.824787988269
 21
18434.503825343229
 31
0.0
  0
LINE
  5
41F6
  8
FUTO
 10
15547.324787988269
 20
18459.503825343229
 30
0.0
 11
15547.324787988269
 21
18559.503825343229
 31
0.0
  0
LINE
  5
41F7
  8
FUTO
 10
15445.824787988269
 20
18464.503825343229
 30
0.0
 11
15305.824787988269
 21
18464.503825343229
 31
0.0
  0
LINE
  5
41F8
  8
FUTO
 10
15445.824787988269
 20
18404.503825343229
 30
0.0
 11
15305.824787988269
 21
18404.503825343229
 31
0.0
  0
LINE
  5
41F9
  8
FUTO
 10
15415.824787988269
 20
18468.503825343229
 30
0.0
 11
15305.824787988269
 21
18468.503825343229
 31
0.0
  0
LINE
  5
41FA
  8
FUTO
 10
15542.324787988269
 20
18596.503825343229
 30
0.0
 11
15542.324787988269
 21
18434.503825343229
 31
0.0
  0
LINE
  5
41FB
  8
FUTO
 10
15537.324787988269
 20
18624.503825343229
 30
0.0
 11
15537.324787988269
 21
18434.503825343229
 31
0.0
  0
LINE
  5
41FC
  8
FUTO
 10
15474.63093998827
 20
18587.129802343228
 30
0.0
 11
15469.98811798827
 21
18498.538493343229
 31
0.0
  0
LINE
  5
41FE
  8
FUTO
 10
15542.324787988269
 20
18596.503825343229
 30
0.0
 11
15542.324787988269
 21
18434.503825343229
 31
0.0
  0
ARC
  5
41FF
  8
FUTO
 10
15720.08980298827
 20
18652.782939343229
 30
0.0
 40
2.9999909999999992
 50
96.115172999988943
 51
174.80557100002201
  0
LINE
  5
4200
  8
FUTO
 10
15717.102131988269
 20
18653.054546343232
 30
0.0
 11
15716.324787988269
 21
18644.503825343229
 31
0.0
  0
ARC
  5
4201
  8
FUTO
 10
15710.366413988269
 20
18645.233623343229
 30
0.0
 40
5.9999760000000002
 50
354.8055729999931
 51
54.396262999995557
  0
ARC
  5
4202
  8
FUTO
 10
15742.55977298827
 20
18652.782939343229
 30
0.0
 40
2.999981
 50
5.194427000006832
 51
83.884827000011072
  0
ARC
  5
4203
  8
FUTO
 10
15731.324787988269
 20
18674.503825343229
 30
0.0
 40
30.0
 50
305.19004800000442
 51
305.60386699997889
  0
LINE
  5
4204
  8
FUTO
 10
15731.324787988269
 20
18657.003825343229
 30
0.0
 11
15742.87935298827
 21
18655.765849343228
 31
0.0
  0
LINE
  5
4205
  8
FUTO
 10
15745.547443988269
 20
18653.054546343232
 30
0.0
 11
15746.324787988269
 21
18644.503825343229
 31
0.0
  0
ARC
  5
4206
  8
FUTO
 10
15752.283161988271
 20
18645.233623343229
 30
0.0
 40
5.9999820000000001
 50
125.6037370000044
 51
185.19442700000681
  0
LINE
  5
4207
  8
FUTO
 10
15731.324787988269
 20
18657.003825343229
 30
0.0
 11
15719.770222988271
 21
18655.765849343228
 31
0.0
  0
LINE
  5
4208
  8
FUTO
 10
15719.770222988271
 20
18655.765849343228
 30
0.0
 11
15742.87935298827
 21
18655.765849343228
 31
0.0
  0
LINE
  5
4209
  8
CT
 10
15771.324787988269
 20
18674.503825343229
 30
0.0
 11
15691.324787988269
 21
18674.503825343229
 31
0.0
  0
LINE
  5
420A
  8
FUTO
 10
15672.324787988269
 20
18583.503825343229
 30
0.0
 11
15790.324787988269
 21
18583.503825343229
 31
0.0
  0
CIRCLE
  5
420B
  8
FUTO
 10
15731.324787988269
 20
18674.503825343229
 30
0.0
 40
17.5
  0
ARC
  5
420C
  8
FUTO
 10
15731.324787988269
 20
18674.503825343229
 30
0.0
 40
30.0
 50
305.60386699997889
 51
234.39614899998969
  0
LINE
  5
420D
  8
FUTO
 10
15890.32472698827
 20
18644.503825343229
 30
0.0
 11
15900.32472698827
 21
18636.182048343231
 31
0.0
  0
ARC
  5
420E
  8
FUTO
 10
15946.798115988269
 20
18618.003825343229
 30
0.0
 40
20.0
 50
69.999953999991405
 51
90.0
  0
ARC
  5
420F
  8
FUTO
 10
15984.07350598827
 20
18647.003825343229
 30
0.0
 40
20.0
 50
250.0002749999968
 51
270.0
  0
LINE
  5
4212
  8
FUTO
 10
15953.63856998827
 20
18636.79777134323
 30
0.0
 11
15977.23317398827
 21
18628.209880343231
 31
0.0
  0
LINE
  5
4213
  8
FUTO
 10
15900.32472698827
 20
18638.003825343229
 30
0.0
 11
15946.798115988269
 21
18638.003825343229
 31
0.0
  0
LINE
  5
4214
  8
FUTO
 10
15890.32472698827
 20
18644.503825343229
 30
0.0
 11
15731.324787988269
 21
18644.503825343229
 31
0.0
  0
LINE
  5
4215
  8
FUTO
 10
15793.32472698827
 20
18576.503825343229
 30
0.0
 11
15669.324787988269
 21
18576.503825343229
 31
0.0
  0
ARC
  5
4216
  8
FUTO
 10
15669.324787988269
 20
18401.806071343231
 30
0.0
 40
20.0
 50
180.0
 51
270.0
  0
CIRCLE
  5
4217
  8
FUTO
 10
15731.324787988269
 20
18368.806071343231
 30
0.0
 40
3.5
  0
LINE
  5
4218
  8
FUTO
 10
15737.77766898827
 20
18368.806071343231
 30
0.0
 11
15723.188557988269
 21
18368.806071343231
 31
0.0
  0
LINE
  5
4219
  8
FUTO
 10
15669.324787988269
 20
18381.806071343231
 30
0.0
 11
15793.324787988269
 21
18381.806071343231
 31
0.0
  0
LINE
  5
421A
  8
FUTO
 10
15790.32472698827
 20
18361.806071343231
 30
0.0
 11
15672.324787988269
 21
18361.806071343231
 31
0.0
  0
LINE
  5
421B
  8
FUTO
 10
15649.324787988269
 20
18556.503825343229
 30
0.0
 11
15649.324787988269
 21
18401.806071343231
 31
0.0
  0
LINE
  5
421C
  8
FUTO
 10
15642.324787988269
 20
18553.503825343229
 30
0.0
 11
15642.324787988269
 21
18391.806071343231
 31
0.0
  0
LINE
  5
421D
  8
FUTO
 10
15900.32472698827
 20
18569.503825343229
 30
0.0
 11
15815.70192398827
 21
18569.503825343229
 31
0.0
  0
LINE
  5
4221
  8
FUTO
 10
15900.32472698827
 20
18449.503825343229
 30
0.0
 11
15820.32472698827
 21
18449.503825343229
 31
0.0
  0
LINE
  5
4222
  8
FUTO
 10
15813.32472698827
 20
18556.503825343229
 30
0.0
 11
15813.32472698827
 21
18401.806071343231
 31
0.0
  0
LINE
  5
4223
  8
FUTO
 10
15820.32472698827
 20
18553.503825343229
 30
0.0
 11
15820.32472698827
 21
18391.806071343231
 31
0.0
  0
ARC
  5
4224
  8
FUTO
 10
15793.32472698827
 20
18401.806071343231
 30
0.0
 40
20.0
 50
270.0
 51
0.000000000000007
  0
LINE
  5
4225
  8
CT
 10
15840.32472698827
 20
18509.503825343229
 30
0.0
 11
15622.324787988269
 21
18509.503825343229
 31
0.0
  0
ARC
  5
4226
  8
FUTO
 10
15793.32472698827
 20
18556.503825343229
 30
0.0
 40
20.0
 50
0.000000000000007
 51
90.0
  0
ARC
  5
4227
  8
FUTO
 10
15669.324787988269
 20
18556.503825343229
 30
0.0
 40
20.0
 50
90.0
 51
180.0
  0
ARC
  5
4228
  8
FUTO
 10
15672.324787988269
 20
18553.503825343229
 30
0.0
 40
30.0
 50
90.0
 51
180.0
  0
ARC
  5
4229
  8
FUTO
 10
15790.32472698827
 20
18553.503825343229
 30
0.0
 40
30.0
 50
0.000000000000007
 51
90.0
  0
LINE
  5
422E
  8
FUTO
 10
15572.324787988269
 20
18644.503825343229
 30
0.0
 11
15731.324787988269
 21
18644.503825343229
 31
0.0
  0
LINE
  5
422F
  8
FUTO
 10
15557.324787988269
 20
18569.503825343229
 30
0.0
 11
15646.947590988269
 21
18569.503825343229
 31
0.0
  0
LINE
  5
4230
  8
FUTO
 10
15557.324787988269
 20
18449.503825343229
 30
0.0
 11
15642.324787988269
 21
18449.503825343229
 31
0.0
  0
ARC
  5
4231
  8
FUTO
 10
15457.824787988269
 20
18356.503825343229
 30
0.0
 40
2.0
 50
180.0
 51
270.0
  0
ARC
  5
4232
  8
FUTO
 10
15467.97786398827
 20
18351.503825343229
 30
0.0
 40
3.0
 50
2.9995570000340721
 51
90.0
  0
ARC
  5
4233
  8
FUTO
 10
15482.67439698827
 20
18319.472087343231
 30
0.0
 40
10.000139999999989
 50
183.00042699998181
 51
225.00097700000649
  0
ARC
  5
4241
  8
FUTO
 10
15511.46687798827
 20
18290.679607343231
 30
0.0
 40
10.0
 50
225.0
 51
270.0
  0
ARC
  5
4242
  8
FUTO
 10
15484.617267988269
 20
18282.40104234323
 30
0.0
 40
9.9999679999999991
 50
182.9990539999759
 51
225.0
  0
LINE
  5
4243
  8
FUTO
 10
15547.324787988269
 20
18282.74308334323
 30
0.0
 11
15566.413410988271
 21
18282.74308334323
 31
0.0
  0
LINE
  5
4244
  8
FUTO
 10
15548.36067698827
 20
18272.503825343229
 30
0.0
 11
15542.324787988269
 21
18272.503825343229
 31
0.0
  0
LINE
  5
4245
  8
FUTO
 10
15537.324787988269
 20
18272.503825343229
 30
0.0
 11
15542.324787988269
 21
18272.503825343229
 31
0.0
  0
ARC
  5
4246
  8
FUTO
 10
15554.324787988269
 20
18251.503825343229
 30
0.0
 40
3.0
 50
90.0
 51
180.0
  0
ARC
  5
4247
  8
FUTO
 10
15561.413410988271
 20
18259.503825343229
 30
0.0
 40
5.0
 50
270.0
 51
0.000000000000007
  0
LINE
  5
4248
  8
FUTO
 10
15547.324787988269
 20
18275.63029034323
 30
0.0
 11
15549.883381988269
 21
18275.63029034323
 31
0.0
  0
LINE
  5
4249
  8
FUTO
 10
15554.324787988269
 20
18254.503825343229
 30
0.0
 11
15547.324787988269
 21
18275.63029034323
 31
0.0
  0
LINE
  5
424A
  8
FUTO
 10
15566.413410988271
 20
18259.503825343229
 30
0.0
 11
15566.413410988271
 21
18282.74308334323
 31
0.0
  0
LINE
  5
424B
  8
FUTO
 10
15557.48299098827
 20
18254.503825343229
 30
0.0
 11
15547.324787988269
 21
18282.74308334323
 31
0.0
  0
LINE
  5
424C
  8
FUTO
 10
15511.46687798827
 20
18280.679607343231
 30
0.0
 11
15537.324787988269
 21
18280.679607343231
 31
0.0
  0
LINE
  5
424E
  8
FUTO
 10
15470.95613598827
 20
18351.999065343229
 30
0.0
 11
15474.63093998827
 21
18281.877849343229
 31
0.0
  0
LINE
  5
4250
  8
FUTO
 10
15504.39583298827
 20
18283.60856234323
 30
0.0
 11
15475.603351988269
 21
18312.400798343231
 31
0.0
  0
LINE
  5
4253
  8
FUTO
 10
15467.97786398827
 20
18354.503825343229
 30
0.0
 11
15457.824787988269
 21
18354.503825343229
 31
0.0
  0
ARC
  5
4254
  8
FUTO
 10
15511.610432988269
 20
18255.407878343231
 30
0.0
 40
9.9999839999999995
 50
225.0
 51
268.00067100000211
  0
LINE
  5
4255
  8
FUTO
 10
15537.324787988269
 20
18244.503825343229
 30
0.0
 11
15511.261555988271
 21
18245.413982343231
 31
0.0
  0
LINE
  5
4256
  8
FUTO
 10
15551.324787988269
 20
18234.503825343229
 30
0.0
 11
15551.324787988269
 21
18251.503825343229
 31
0.0
  0
LINE
  5
4257
  8
FUTO
 10
15504.53938798827
 20
18248.33683334323
 30
0.0
 11
15477.546223988271
 21
18275.329997343229
 31
0.0
  0
LINE
  5
4258
  8
FUTO
 10
15691.72468998827
 20
18256.111736343231
 30
0.0
 11
15611.324787988269
 21
18254.503825343229
 31
0.0
  0
ARC
  5
4259
  8
FUTO
 10
15706.324787988269
 20
18316.99991934323
 30
0.0
 40
5.0
 50
0.000000000000007
 51
90.0
  0
ARC
  5
425A
  8
FUTO
 10
15756.324787988269
 20
18316.99991934323
 30
0.0
 40
5.0
 50
90.0
 51
180.0
  0
ARC
  5
425B
  8
FUTO
 10
15771.32472698827
 20
18276.107829343229
 30
0.0
 40
20.000091999999999
 50
180.0
 51
268.85427899999138
  0
LINE
  5
425C
  8
FUTO
 10
15751.324787988269
 20
18316.99991934323
 30
0.0
 11
15751.324787988269
 21
18276.107829343229
 31
0.0
  0
LINE
  5
425D
  8
FUTO
 10
15711.324787988269
 20
18316.99991934323
 30
0.0
 11
15711.324787988269
 21
18276.107829343229
 31
0.0
  0
ARC
  5
425E
  8
FUTO
 10
15691.324787988269
 20
18276.107829343229
 30
0.0
 40
20.0
 50
271.14572100000839
 51
0.000000000000007
  0
LINE
  5
425F
  8
FUTO
 10
15631.324787988269
 20
18234.503825343229
 30
0.0
 11
15631.324787988269
 21
18235.503825343229
 31
0.0
  0
ARC
  5
4260
  8
FUTO
 10
15636.324787988269
 20
18235.503825343229
 30
0.0
 40
5.0
 50
90.0
 51
180.0
  0
LINE
  5
4261
  8
FUTO
 10
15636.324787988269
 20
18240.503825343229
 30
0.0
 11
15731.324787988269
 21
18240.503825343229
 31
0.0
  0
ARC
  5
4262
  8
FUTO
 10
15908.32472698827
 20
18251.503825343229
 30
0.0
 40
3.0
 50
0.000000000000007
 51
90.0
  0
LINE
  5
4263
  8
FUTO
 10
15851.32472698827
 20
18254.503825343229
 30
0.0
 11
15859.00427991258
 21
18254.503825343229
 31
0.0
  0
ARC
  5
426D
  8
FUTO
 10
15826.32472698827
 20
18235.503825343229
 30
0.0
 40
5.0
 50
0.000000000000007
 51
90.0
  0
LINE
  5
426E
  8
FUTO
 10
15831.32472698827
 20
18234.503825343229
 30
0.0
 11
15831.32472698827
 21
18235.503825343229
 31
0.0
  0
LINE
  5
426F
  8
FUTO
 10
15831.32472698827
 20
18234.503825343229
 30
0.0
 11
15856.324787988269
 21
18234.503825343229
 31
0.0
  0
LINE
  5
4270
  8
FUTO
 10
15970.93080598827
 20
18238.503825343229
 30
0.0
 11
15980.546772988269
 21
18242.003825343229
 31
0.0
  0
LINE
  5
4271
  8
FUTO
 10
15970.93080598827
 20
18238.503825343229
 30
0.0
 11
15911.32472698827
 21
18238.503825343229
 31
0.0
  0
LINE
  5
4272
  8
FUTO
 10
15911.32472698827
 20
18234.503825343229
 30
0.0
 11
15911.32472698827
 21
18251.503825343229
 31
0.0
  0
LINE
  5
4273
  8
FUTO
 10
15770.924824988269
 20
18256.111736343231
 30
0.0
 11
15851.32472698827
 21
18254.503825343229
 31
0.0
  0
LINE
  5
4274
  8
FUTO
 10
15826.32472698827
 20
18240.503825343229
 30
0.0
 11
15731.324787988269
 21
18240.503825343229
 31
0.0
  0
LINE
  5
4275
  8
FUTO
 10
15611.324787988269
 20
18254.503825343229
 30
0.0
 11
15603.64529606396
 21
18254.503825343229
 31
0.0
  0
LINE
  5
4276
  8
FUTO
 10
15631.324787988269
 20
18234.503825343229
 30
0.0
 11
15606.324787988269
 21
18234.503825343229
 31
0.0
  0
ARC
  5
4277
  8
FUTO
 10
15790.32472698827
 20
18391.806071343231
 30
0.0
 40
30.0
 50
270.0
 51
0.000000000000007
  0
ARC
  5
4278
  8
FUTO
 10
15672.324787988269
 20
18391.806071343231
 30
0.0
 40
30.0
 50
180.0
 51
270.0
  0
LINE
  5
4279
  8
CT
 10
15731.324787988269
 20
18724.503825343229
 30
0.0
 11
15731.324787988269
 21
18154.503825343229
 31
0.0
  0
LINE
  5
427A
  8
FUTO
 10
15542.324787988269
 20
18272.503825343229
 30
0.0
 11
15542.324787988269
 21
18434.503825343229
 31
0.0
  0
LINE
  5
427B
  8
FUTO
 10
15900.32472698827
 20
18638.003825343229
 30
0.0
 11
15900.32472698827
 21
18254.503825343229
 31
0.0
  0
LINE
  5
427C
  8
FUTO
 10
15950.32472698827
 20
18637.690349343229
 30
0.0
 11
15950.32472698827
 21
18238.503825343229
 31
0.0
  0
LINE
  5
427D
  8
FUTO
 10
15980.524677988269
 20
18627.32120834323
 30
0.0
 11
15980.524677988269
 21
18242.003825343229
 31
0.0
  0
LINE
  5
427E
  8
FUTO
 10
15542.324787988269
 20
18272.503825343229
 30
0.0
 11
15542.324787988269
 21
18434.503825343229
 31
0.0
  0
LINE
  5
427F
  8
FUTO
 10
15537.324787988269
 20
18244.503825343229
 30
0.0
 11
15537.324787988269
 21
18434.503825343229
 31
0.0
  0
LINE
  5
4280
  8
FUTO
 10
15455.824787988269
 20
18356.503825343229
 30
0.0
 11
15455.824787988269
 21
18434.503825343229
 31
0.0
  0
ARC
  5
4281
  8
FUTO
 10
16045.013813988269
 20
18612.003825343229
 30
0.0
 40
15.0
 50
60.00018300001819
 51
90.0
  0
ARC
  5
4282
  8
FUTO
 10
16100.32472698827
 20
18591.617107343231
 30
0.0
 40
4.9999580000000003
 50
0.000000000000007
 51
59.999718000027237
  0
LINE
  5
4283
  8
FUTO
 10
16102.82472698827
 20
18595.94718534323
 30
0.0
 11
16052.513813988269
 21
18624.994304343229
 31
0.0
  0
ARC
  5
42CC
  8
FUTO
 10
16100.32472698827
 20
18277.39054434323
 30
0.0
 40
5.0
 50
300.00027500002068
 51
0.000000000000007
  0
ARC
  5
42CE
  8
FUTO
 10
16045.013813988269
 20
18257.003825343229
 30
0.0
 40
15.000085
 50
270.0
 51
299.99981699998182
  0
LINE
  5
42CF
  8
FUTO
 10
16102.82472698827
 20
18273.060466343231
 30
0.0
 11
16052.513813988269
 21
18244.013347343229
 31
0.0
  0
LINE
  5
4301
  8
FUTO
 10
16046.224750988271
 20
18242.003825343229
 30
0.0
 11
16046.224750988271
 21
18626.954753343231
 31
0.0
  0
LINE
  5
4305
  8
FUTO
 10
16105.324787988269
 20
18592.153789343229
 30
0.0
 11
16105.324787988269
 21
18277.363475343231
 31
0.0
  0
LINE
  5
4306
  8
CT
 10
15285.824787988269
 20
18434.503825343229
 30
0.0
 11
16125.324787988269
 21
18434.503825343229
 31
0.0
  0
LINE
  5
4307
  8
FUTO
 10
15984.07350598827
 20
18627.003825343229
 30
0.0
 11
16045.013813988269
 21
18627.003825343229
 31
0.0
  0
LINE
  5
4308
  8
FUTO
 10
15980.524677988269
 20
18242.003825343229
 30
0.0
 11
16045.013813988269
 21
18242.003825343229
 31
0.0
  0
LINE
  5
430D
  8
CT
 10
13999.73337478242
 20
21952.248958488781
 30
0.0
 11
13949.73337478242
 21
21952.248958488781
 31
0.0
  0
LINE
  5
430E
  8
CT
 10
13974.73337478242
 20
21927.248958488781
 30
0.0
 11
13974.73337478242
 21
21977.248958488781
 31
0.0
  0
LINE
  5
430F
  8
CT
 10
14294.73337478242
 20
21927.248958488781
 30
0.0
 11
14294.73337478242
 21
21977.248958488781
 31
0.0
  0
LINE
  5
4310
  8
CT
 10
14269.73337478242
 20
21952.248958488781
 30
0.0
 11
14319.73337478242
 21
21952.248958488781
 31
0.0
  0
LINE
  5
4311
  8
CT
 10
14269.73337478242
 20
22412.248958488781
 30
0.0
 11
14319.73337478242
 21
22412.248958488781
 31
0.0
  0
LINE
  5
4312
  8
CT
 10
14294.73337478242
 20
22437.248958488781
 30
0.0
 11
14294.73337478242
 21
22387.248958488781
 31
0.0
  0
LINE
  5
4313
  8
CT
 10
13974.73337478242
 20
22437.248958488781
 30
0.0
 11
13974.73337478242
 21
22387.248958488781
 31
0.0
  0
LINE
  5
4314
  8
CT
 10
13999.73337478242
 20
22412.248958488781
 30
0.0
 11
13949.73337478242
 21
22412.248958488781
 31
0.0
  0
LINE
  5
4315
  8
FUTO
 10
14354.73337478242
 20
21901.748958488781
 30
0.0
 11
14354.73337478242
 21
21646.748958488781
 31
0.0
  0
LINE
  5
4316
  8
FUTO
 10
14484.73337478242
 20
21952.748958488781
 30
0.0
 11
14484.73337478242
 21
21879.748958488781
 31
0.0
  0
LINE
  5
4317
  8
FUTO
 10
14344.73337478242
 20
22855.748958488781
 30
0.0
 11
14344.73337478242
 21
21952.748958488781
 31
0.0
  0
LINE
  5
4319
  8
FUTO
 10
13999.73337478242
 20
22855.748958488781
 30
0.0
 11
13999.73337478242
 21
22556.248958488781
 31
0.0
  0
LINE
  5
431A
  8
FUTO
 10
13924.73337478242
 20
22855.748958488781
 30
0.0
 11
13924.73337478242
 21
21952.748958488781
 31
0.0
  0
LINE
  5
431B
  8
SL
 10
14269.73337478242
 20
22556.248958488781
 30
0.0
 11
14269.73337478242
 21
21946.748958488781
 31
0.0
  0
LINE
  5
431C
  8
SL
 10
13999.73337478242
 20
22556.248958488781
 30
0.0
 11
13999.73337478242
 21
21946.748958488781
 31
0.0
  0
LINE
  5
432D
  8
FUTO
 10
12004.73337478242
 20
24050.748958488781
 30
0.0
 11
14191.73337478242
 21
24050.748958488781
 31
0.0
  0
LINE
  5
4341
  8
FUTO
 10
12004.73337478242
 20
22882.748958488781
 30
0.0
 11
14191.73337478242
 21
22882.748958488781
 31
0.0
  0
LINE
  5
4342
  8
FUTO
 10
12004.73337478242
 20
22928.748958488781
 30
0.0
 11
13784.73337478242
 21
22928.748958488781
 31
0.0
  0
LINE
  5
4347
  8
FUTO
 10
12084.73337478242
 20
22882.748958488781
 30
0.0
 11
12084.73337478242
 21
22855.748958488781
 31
0.0
  0
LINE
  5
4348
  8
FUTO
 10
14389.95707314327
 20
22930.748958488741
 30
0.0
 11
14484.73337478242
 21
22930.748958488781
 31
0.0
  0
LINE
  5
4349
  8
FUTO
 10
13236.266874385999
 20
21952.748958488781
 30
0.0
 11
13236.266874385999
 21
22882.748958488781
 31
0.0
  0
LINE
  5
434A
  8
FUTO
 10
12633.19987517884
 20
21952.748958488781
 30
0.0
 11
12633.19987517884
 21
22882.748958488781
 31
0.0
  0
INSERT
  5
435E
  8
FUTO
  6
CONTINUOUS
  2
*U22
 10
0.0
 20
0.0
 30
0.0
1001
ACAD
1002
{
1000
R14_HATCH_DATA
1000
435E
1011
1.0
1021
5.0906117412778122E+058
1031
0.0
1021
0.0
1031
0.0
1011
0.0
1021
5.0906117412778122E+058
1031
0.0
1021
1.0
1031
0.0
1011
0.0
1021
5.0906117412778122E+058
1031
0.0
1021
0.0
1031
1.0
1040
0.0
1010
0.0
1020
0.0
1030
1.0
1000
SOLID
1070
     1
1070
     0
1071
        2
1071
        7
1070
     0
1070
     1
1071
        4
1040
12287.465224128449
1040
18024.503825343229
1040
12327.465224128449
1040
18024.503825343229
1040
12327.465224128449
1040
18004.503825343229
1040
12287.465224128449
1040
18004.503825343229
1071
        0
1071
        7
1070
     0
1070
     1
1071
        4
1040
12247.465224128449
1040
18024.503825343229
1040
12287.465224128449
1040
18024.503825343229
1040
12287.465224128449
1040
18004.503825343229
1040
12247.465224128449
1040
18004.503825343229
1071
        0
1070
     0
1070
     1
1040
1.983058079063849
1071
        2
1040
12311.86789578041
1040
18023.730206739321
1040
0.0
1040
12263.838972144251
1040
18025.64996219668
1040
0.0
1002
}
  0
INSERT
  5
4367
  8
FUTO
  6
CONTINUOUS
  2
*U23
 10
0.0
 20
0.0
 30
0.0
1001
ACAD
1002
{
1000
R14_HATCH_DATA
1000
4367
1011
1.0
1021
5.0906117412778122E+058
1031
0.0
1021
0.0
1031
0.0
1011
0.0
1021
5.0906117412778122E+058
1031
0.0
1021
1.0
1031
0.0
1011
0.0
1021
5.0906117412778122E+058
1031
0.0
1021
0.0
1031
1.0
1040
0.0
1010
0.0
1020
0.0
1030
1.0
1000
SOLID
1070
     1
1070
     0
1071
        2
1071
        7
1070
     0
1070
     1
1071
        4
1040
14434.73337478242
1040
18024.503825343229
1040
14434.73337478242
1040
18004.503825343229
1040
14474.73337478242
1040
18004.503825343229
1040
14474.73337478242
1040
18024.503825343229
1071
        0
1071
        7
1070
     0
1070
     1
1071
        4
1040
14394.73337478242
1040
18024.503825343229
1040
14394.73337478242
1040
18004.503825343229
1040
14434.73337478242
1040
18004.503825343229
1040
14434.73337478242
1040
18024.503825343229
1071
        0
1070
     0
1070
     1
1040
0.2518002073071134
1071
        2
1040
14452.18270653097
1040
18014.537167638569
1040
0.0
1040
14411.36142954505
1040
18021.08396247085
1040
0.0
1002
}
  0
LINE
  5
457C
  8
FUTO
 62
     2
 10
12054.73337478242
 20
18024.503825343229
 30
0.0
 11
11426.841575730699
 21
18024.503825343229
 31
0.0
  0
LINE
  5
457D
  8
FUTO
 62
     2
 10
12054.73337478242
 20
18004.503825343229
 30
0.0
 11
11426.841575730699
 21
18004.503825343229
 31
0.0
  0
LINE
  5
457E
  8
FUTO
 62
     2
 10
11456.841575730699
 20
18084.503825343229
 30
0.0
 11
11456.841575730699
 21
18144.503825343229
 31
0.0
  0
LINE
  5
457F
  8
FUTO
 62
     2
 10
11456.841575730699
 20
17944.503825343229
 30
0.0
 11
11456.841575730699
 21
17593.60820671315
 31
0.0
  0
LINE
  5
4580
  8
FUTO
 62
     2
 10
11456.841575730699
 20
18024.503825343229
 30
0.0
 11
11456.841575730699
 21
18004.503825343229
 31
0.0
  0
INSERT
  5
4581
  8
FUTO
 62
     2
  2
_OPEN30
 10
11456.841575730699
 20
18024.503825343229
 30
0.0
 41
-60.0
 42
60.0
 43
60.0
 50
90.0
  0
INSERT
  5
4582
  8
FUTO
 62
     2
  2
_OPEN30
 10
11456.841575730699
 20
18004.503825343229
 30
0.0
 41
-60.0
 42
60.0
 43
60.0
 50
270.0
  0
TEXT
  5
4583
  8
FUTO
 62
     2
 10
11306.61826899763
 20
17854.869766083619
 30
0.0
 40
90.0
  1
(20)
 50
90.0
 51
15.0
  7
SUNPOU
  0
DIMENSION
  5
4584
  8
FUTO
  2
*D14
 10
11456.841575730699
 20
17854.503825343229
 30
0.0
 11
11396.841575730699
 21
17674.503825343229
 31
0.0
 70
     0
 13
12084.73337478242
 23
18004.503825343229
 33
0.0
 14
12084.73337478242
 24
17854.503825343229
 34
0.0
 50
90.0
1001
ACAD
1000
DSTYLE
1002
{
1070
    40
1040
30.0
1070
   176
1070
     2
1070
   177
1070
     2
1070
   178
1070
     2
1070
   341
1005
44D5
1070
     5
1000
OPEN30
1002
}
  0
LINE
  5
4595
  8
KL
 10
13765.73337478242
 20
18340.03131605727
 30
0.0
 11
13765.73337478242
 21
18184.20269570918
 31
0.0
  0
LINE
  5
4596
  8
KL
 10
13774.73337478242
 20
18336.5910003483
 30
0.0
 11
13774.73337478242
 21
18179.344944898148
 31
0.0
  0
LINE
  5
4597
  8
FUTO
 10
13765.73337478242
 20
18469.73089654943
 30
0.0
 11
13765.73337478242
 21
18174.503825343229
 31
0.0
  0
LINE
  5
4598
  8
FUTO
 10
13774.73337478242
 20
18461.667105741672
 30
0.0
 11
13774.73337478242
 21
18174.503825343229
 31
0.0
  0
DIMENSION
  5
45A8
  8
FUTO
  2
*D15
 10
14484.73337478242
 20
24485.18478168167
 30
0.0
 11
13709.73337478242
 21
24545.18478168167
 31
0.0
 70
     0
 13
12934.73337478242
 23
24381.62153613838
 33
0.0
 14
14484.73337478242
 24
22855.748958488781
 34
0.0
 50
180.0
1001
ACAD
1000
DSTYLE
1002
{
1070
    40
1040
30.0
1070
   176
1070
     2
1070
   177
1070
     2
1070
   178
1070
     2
1070
   341
1005
44D5
1070
     5
1000
OPEN30
1002
}
  0
DIMENSION
  5
45B5
  8
FUTO
  2
*D16
 10
11524.42747194255
 20
24100.748958488781
 30
0.0
 11
11464.427471942539
 21
23783.748958488781
 31
0.0
 70
     0
 13
11757.2133742029
 23
23466.748958488781
 33
0.0
 14
12184.73337478242
 24
24100.748958488781
 34
0.0
 50
90.0
1001
ACAD
1000
DSTYLE
1002
{
1070
    40
1040
30.0
1070
   176
1070
     2
1070
   177
1070
     2
1070
   178
1070
     2
1070
   341
1005
44D5
1070
     5
1000
OPEN30
1002
}
  0
DIMENSION
  5
45C2
  8
FUTO
  2
*D17
 10
11524.42747194255
 20
21646.748958488781
 30
0.0
 11
11464.427471942539
 21
22556.748958488781
 31
0.0
 70
     0
 13
11524.42747194255
 23
23466.748958488781
 33
0.0
 14
12554.73337478242
 24
21646.748958488781
 34
0.0
 50
90.0
1001
ACAD
1000
DSTYLE
1002
{
1070
    40
1040
30.0
1070
   176
1070
     2
1070
   177
1070
     2
1070
   178
1070
     2
1070
   341
1005
44D5
1070
     5
1000
OPEN30
1002
}
  0
LINE
  5
466E
  8
CT
 10
12012.12425274552
 20
19821.425327855359
 30
0.0
 11
12934.73337478242
 21
19724.503825343229
 31
0.0
  0
LINE
  5
4670
  8
FUTO
 10
14137.01561130176
 20
19724.503825343229
 30
0.0
 11
14137.01561130176
 21
19854.451984003139
 31
0.0
  0
LINE
  5
4671
  8
FUTO
 10
14187.01561130176
 20
19715.503825343229
 30
0.0
 11
14187.01561130176
 21
19733.503825343229
 31
0.0
  0
LINE
  5
46AB
  8
KL
 10
13765.73337478242
 20
19271.19417495151
 30
0.0
 11
13765.73337478242
 21
18469.73089654943
 31
0.0
  0
LINE
  5
46AC
  8
KL
 10
13774.73337478242
 20
19259.557739514919
 30
0.0
 11
13774.73337478242
 21
18461.667105741672
 31
0.0
  0
LINE
  5
46AD
  8
FUTO
 10
13408.16796085486
 20
19733.503825343229
 30
0.0
 11
14187.01561130176
 21
19733.503825343229
 31
0.0
  0
LINE
  5
46AE
  8
FUTO
 10
13422.089749952809
 20
19715.503825343229
 30
0.0
 11
14187.01561130176
 21
19715.503825343229
 31
0.0
  0
LINE
  5
46AF
  8
KL
 10
12555.970551422981
 20
19755.14242258243
 30
0.0
 11
12734.879627504481
 21
19736.313977711739
 31
0.0
  0
LINE
  5
46B0
  8
KL
 10
12557.84637349976
 20
19773.044409024969
 30
0.0
 11
12736.74816510548
 21
19754.216730774711
 31
0.0
  0
LINE
  5
46CD
  8
FUTO
 10
16406.324787988269
 20
19733.503825343229
 30
0.0
 11
17624.02478798827
 21
19733.503825343229
 31
0.0
  0
LINE
  5
46CE
  8
FUTO
 10
16406.324787988269
 20
19715.503825343229
 30
0.0
 11
17624.02478798827
 21
19715.503825343229
 31
0.0
  0
LINE
  5
470A
  8
FUTO
 10
12004.73337478242
 20
22882.748958488781
 30
0.0
 11
12004.73337478242
 21
24050.748958488781
 31
0.0
  0
LINE
  5
470B
  8
HOSO
 10
12004.73337478242
 20
22882.748958488781
 30
0.0
 11
12004.73337478242
 21
24050.748958488781
 31
0.0
  0
LINE
  5
470C
  8
FUTO
 10
12054.73337478242
 20
22882.748958488781
 30
0.0
 11
12054.73337478242
 21
24050.748958488781
 31
0.0
  0
LINE
  5
470D
  8
FUTO
 10
12008.73337478242
 20
22882.748958488781
 30
0.0
 11
12008.73337478242
 21
24050.748958488781
 31
0.0
  0
LINE
  5
470E
  8
FUTO
 10
14141.73337478242
 20
24004.748958488781
 30
0.0
 11
14141.73337478242
 21
22930.748958488781
 31
0.0
  0
LINE
  5
470F
  8
FUTO
 10
14191.73337478242
 20
24050.748958488781
 30
0.0
 11
14191.73337478242
 21
22882.748958488781
 31
0.0
  0
LINE
  5
4710
  8
FUTO
 10
14191.73337478242
 20
22930.748958488781
 30
0.0
 11
14425.73337478242
 21
22930.748958488781
 31
0.0
  0
DIMENSION
  5
4712
  8
FUTO
  2
*D18
 10
12004.73337478242
 20
24485.18478168167
 30
0.0
 11
12469.73337478242
 21
24545.18478168167
 31
0.0
 70
     0
 13
12934.73337478242
 23
24381.62153613838
 33
0.0
 14
12004.73337478242
 24
24050.748958488781
 34
0.0
 50
180.0
1001
ACAD
1000
DSTYLE
1002
{
1070
    40
1040
30.0
1070
   176
1070
     2
1070
   177
1070
     2
1070
   178
1070
     2
1070
   341
1005
44D5
1070
     5
1000
OPEN30
1002
}
  0
LINE
  5
485C
  8
FUTO
 10
16431.324787988269
 20
18179.503825343229
 30
0.0
 11
17600.324787988291
 21
18179.503825343229
 31
0.0
  0
LINE
  5
485D
  8
FUTO
 10
16481.324787988258
 20
18229.503825343229
 30
0.0
 11
17549.024787988259
 21
18229.503825343229
 31
0.0
  0
LINE
  5
485E
  8
KL
 10
16431.324787988269
 20
18179.503825343229
 30
0.0
 11
16431.324787988251
 21
18720.7440534241
 31
0.0
  0
LINE
  5
485F
  8
KL
 10
17600.324787988291
 20
18179.503825343229
 30
0.0
 11
17600.324787988258
 21
18733.096763867161
 31
0.0
  0
LINE
  5
4872
  8
SL
 10
13131.084718283149
 20
19879.24926115786
 30
0.0
 11
14217.98634442673
 21
18500.115890128629
 31
0.0
  0
LINE
  5
4873
  8
FUTO
 10
13235.31905017889
 20
19956.986624161651
 30
0.0
 11
14308.756660538271
 21
18569.09912992231
 31
0.0
  0
LINE
  5
4874
  8
SL
 10
14063.28208678496
 20
18356.204952787459
 30
0.0
 11
12766.216186109181
 21
19539.836673089048
 31
0.0
  0
LINE
  5
4875
  8
FUTO
 10
12681.156494205699
 20
19441.48657209357
 30
0.0
 11
13987.92570708011
 21
18270.651731356578
 31
0.0
  0
LINE
  5
4876
  8
FUTO
 10
12633.19987517884
 20
19618.503825343229
 30
0.0
 11
12434.73337478242
 21
18174.503825343229
 31
0.0
  0
LINE
  5
4877
  8
KL
 10
13236.266874385979
 20
19618.50382534325
 30
0.0
 11
13341.972720894229
 21
18849.41059271737
 31
0.0
  0
LINE
  5
4878
  8
FUTO
 10
13341.972720894229
 20
18849.41059271737
 30
0.0
 11
13434.733374782511
 21
18174.503825343261
 31
0.0
  0
LINE
  5
4879
  8
FUTO
 10
16406.324787988269
 20
20727.503825343229
 30
0.0
 11
17624.02478798827
 21
20727.503825343229
 31
0.0
  0
DIMENSION
  5
488D
  8
FUTO
  2
*D19
 10
11456.841575730699
 20
19724.503825343229
 30
0.0
 11
11396.841575730699
 21
18874.503825343229
 31
0.0
 70
     0
 13
12084.73337478242
 23
18024.503825343229
 33
0.0
 14
11756.72939613509
 24
19724.503825343229
 34
0.0
 50
90.0
1001
ACAD
1000
DSTYLE
1002
{
1070
    40
1040
30.0
1070
   176
1070
     2
1070
   177
1070
     2
1070
   178
1070
     2
1070
   341
1005
44D5
1070
     5
1000
OPEN30
1002
}
  0
LINE
  5
489A
  8
CT
 10
12827.61977193985
 20
20727.503825343229
 30
0.0
 11
12934.73337478242
 21
20727.503825343221
 31
0.0
  0
DIMENSION
  5
489B
  8
FUTO
  2
*D20
 10
11456.841575730699
 20
20727.503825343229
 30
0.0
 11
11396.84157573069
 21
20226.003825343229
 31
0.0
 70
     0
 13
11756.72939613509
 23
19724.503825343229
 33
0.0
 14
12827.61977193985
 24
20727.503825343229
 34
0.0
 50
90.0
1001
ACAD
1000
DSTYLE
1002
{
1070
    40
1040
30.0
1070
   176
1070
     2
1070
   177
1070
     2
1070
   178
1070
     2
1070
   341
1005
44D5
1070
     5
1000
OPEN30
1002
}
  0
DIMENSION
  5
48A8
  8
FUTO
  2
*D21
 10
12004.73337478242
 20
21028.379319733431
 30
0.0
 11
12469.73337478242
 21
21088.379319733431
 31
0.0
 70
     0
 13
12934.73337478242
 23
20827.533758641279
 33
0.0
 14
12004.73337478242
 24
19737.503825343229
 34
0.0
1001
ACAD
1000
DSTYLE
1002
{
1070
    40
1040
30.0
1070
   176
1070
     2
1070
   177
1070
     2
1070
   178
1070
     2
1070
   341
1005
44D5
1070
     5
1000
OPEN30
1002
}
  0
ARC
  5
48C7
  8
FUTO
 10
12832.73337478242
 20
19622.503825343229
 30
0.0
 40
1329.0
 50
330.89787166681361
 51
4.4017473756491317
  0
LINE
  5
48C8
  8
KL
 10
16481.324787988258
 20
18232.703825343229
 30
0.0
 11
17549.024787988259
 21
18232.703825343229
 31
0.0
  0
TEXT
  5
5048
  8
SP
 10
5574.810076059719
 20
9413.2717970984286
 30
0.0
 40
100.0
  1
 
  0
TEXT
  5
5303
  8
SP
 10
9735.6655766850236
 20
12093.43524603874
 30
0.0
 40
100.0
  1
 
  0
TEXT
  5
5304
  8
SP
 10
19292.61700668847
 20
19522.03291813358
 30
0.0
 40
100.0
  1
 
  0
LINE
  5
5305
  8
4
 10
18393.867437715311
 20
15920.979690845041
 30
0.0
 11
18393.867437715311
 21
14920.979690845041
 31
0.0
  0
LINE
  5
5306
  8
4
 10
14893.867437715309
 20
15920.979690845041
 30
0.0
 11
14893.867437715309
 21
14920.979690845041
 31
0.0
  0
LINE
  5
5307
  8
4
 10
12393.867437715309
 20
15920.979690845041
 30
0.0
 11
12393.867437715309
 21
14920.979690845041
 31
0.0
  0
LINE
  5
530A
  8
4
 10
12393.867437715309
 20
14920.979690845041
 30
0.0
 11
18393.867437715311
 21
14920.979690845041
 31
0.0
  0
LINE
  5
530B
  8
4
 10
12393.867437715309
 20
15420.979690845041
 30
0.0
 11
18393.867437715311
 21
15420.979690845041
 31
0.0
  0
TEXT
  5
530C
  8
4
 10
12586.37784194983
 20
15578.694820178111
 30
0.0
 40
250.0
  1
機器名称
  0
TEXT
  5
530D
  8
4
 10
12575.157967839301
 20
15029.20547450509
 30
0.0
 40
250.0
  1
機器型番
  0
TEXT
  5
530E
  8
4
 10
14917.83274622052
 20
15531.91620262978
 30
0.0
 40
225.0
  1
ミツヤリミットロードファン
  0
TEXT
  5
530F
  8
4
 10
15077.13991564272
 20
15006.77761224475
 30
0.0
 40
250.0
  1
LL#9-1
  0
TEXT
  5
5311
  8
4
 10
13019.02917968419
 20
25338.123897507619
 30
0.0
 40
270.0
  1
床置防振ベット
  0
TEXT
  5
5312
  8
4
 10
10724.705404362539
 20
26090.384571841529
 30
0.0
 40
360.0
  1
遠心式片吸込片持リミットロードファン
  0
LINE
  5
5313
  8
4
 10
10393.867437715309
 20
25768.023462169062
 30
0.0
 11
18393.867437715311
 21
25768.023462169062
 31
0.0
  0
LINE
  5
5314
  8
4
 10
10393.867437715309
 20
26768.023462169069
 30
0.0
 11
18393.867437715311
 21
26768.023462169069
 31
0.0
  0
LINE
  5
5315
  8
4
 10
12393.867437715309
 20
15920.979690845041
 30
0.0
 11
18393.867437715311
 21
15920.979690845041
 31
0.0
  0
LINE
  5
5316
  8
4
 10
10393.867437715309
 20
26768.023462169069
 30
0.0
 11
10393.867437715309
 21
25768.023462169062
 31
0.0
  0
TEXT
  5
5317
  8
4
 10
10839.73501847067
 20
25332.577078576749
 30
0.0
 40
270.0
  1
右回転左横向
  0
TEXT
  5
5318
  8
4
 10
16488.715233961761
 20
26951.28509832159
 30
0.0
 40
280.0
  1
No.
  0
TEXT
  5
5319
  8
4
 10
16555.646660972081
 20
24841.859054497421
 30
0.0
 40
270.0
  1
縮尺：1/50
  0
LINE
  5
531A
  8
4
 10
18393.867437715311
 20
26768.023462169069
 30
0.0
 11
18393.867437715311
 21
25768.023462169062
 31
0.0
  0
LINE
  5
531B
  8
4
 10
19643.867437715311
 20
28170.979690845041
 30
0.0
 11
19643.867437715311
 21
28170.979690845041
 31
0.0
  0
LINE
  5
531C
  8
4
 10
16346.95454951463
 20
26827.297606472039
 30
0.0
 11
16346.95454951463
 21
27354.240998593799
 31
0.0
  0
LINE
  5
531D
  8
4
 10
16346.95454951463
 20
27354.240998593799
 30
0.0
 11
18393.867437715311
 21
27354.240998593799
 31
0.0
  0
LINE
  5
531E
  8
4
 10
18393.867437715311
 20
27354.240998593799
 30
0.0
 11
18393.867437715311
 21
26827.297606472039
 31
0.0
  0
LINE
  5
531F
  8
4
 10
18393.867437715311
 20
26827.297606472039
 30
0.0
 11
16346.95454951463
 21
26827.297606472039
 31
0.0
  0
LINE
  5
5320
  8
4
 10
9143.8674377153111
 20
13420.979690845041
 30
0.0
 11
9143.8674377153111
 21
28170.979690845041
 31
0.0
  0
LINE
  5
5321
  8
4
 10
9143.8674377153111
 20
28170.979690845041
 30
0.0
 11
19643.867437715311
 21
28170.979690845041
 31
0.0
  0
LINE
  5
5322
  8
4
 10
19643.867437715311
 20
28170.979690845041
 30
0.0
 11
19643.867437715311
 21
13420.979690845041
 31
0.0
  0
LINE
  5
5323
  8
4
 10
19643.867437715311
 20
13420.979690845041
 30
0.0
 11
9143.8674377153111
 21
13420.979690845041
 31
0.0
  0
ENDSEC
  0
EOF
