  0
SECTION
  2
HEADER
  9
$ACADVER
  1
AC1009
  9
$INSBASE
 10
0.0
 20
0.0
 30
0.0
  9
$EXTMIN
 10
12718.861581063729
 20
10136.98927045325
 30
0.0
  9
$EXTMAX
 10
23218.861581063731
 20
24886.98927045325
 30
0.0
  9
$LIMMIN
 10
0.0
 20
0.0
  9
$LIMMAX
 10
420.0
 20
297.0
  9
$ORTHOMODE
 70
     0
  9
$REGENMODE
 70
     1
  9
$FILLMODE
 70
     1
  9
$QTEXTMODE
 70
     0
  9
$MIRRTEXT
 70
     0
  9
$DRAGMODE
 70
     2
  9
$LTSCALE
 40
150.0
  9
$OSMODE
 70
    37
  9
$ATTMODE
 70
     1
  9
$TEXTSIZE
 40
90.0
  9
$TRACEWID
 40
0.05
  9
$TEXTSTYLE
  7
STANDARD
  9
$CLAYER
  8
FUTO
  9
$CELTYPE
  6
BYLAYER
  9
$CECOLOR
 62
   256
  9
$DIMSCALE
 40
30.0
  9
$DIMASZ
 40
2.0
  9
$DIMEXO
 40
1.0
  9
$DIMDLI
 40
10.0
  9
$DIMRND
 40
0.0
  9
$DIMDLE
 40
0.0
  9
$DIMEXE
 40
1.0
  9
$DIMTP
 40
0.0
  9
$DIMTM
 40
0.0
  9
$DIMTXT
 40
3.0
  9
$DIMCEN
 40
0.0
  9
$DIMTSZ
 40
0.0
  9
$DIMTOL
 70
     0
  9
$DIMLIM
 70
     0
  9
$DIMTIH
 70
     0
  9
$DIMTOH
 70
     0
  9
$DIMSE1
 70
     0
  9
$DIMSE2
 70
     0
  9
$DIMTAD
 70
     1
  9
$DIMZIN
 70
     8
  9
$DIMBLK
  1
OPEN30
  9
$DIMASO
 70
     1
  9
$DIMSHO
 70
     1
  9
$DIMPOST
  1

  9
$DIMAPOST
  1

  9
$DIMALT
 70
     0
  9
$DIMALTD
 70
     2
  9
$DIMALTF
 40
0.03937
  9
$DIMLFAC
 40
1.0
  9
$DIMTOFL
 70
     1
  9
$DIMTVP
 40
0.0
  9
$DIMTIX
 70
     0
  9
$DIMSOXD
 70
     0
  9
$DIMSAH
 70
     0
  9
$DIMBLK1
  1

  9
$DIMBLK2
  1

  9
$DIMSTYLE
  2
MATSU
  9
$DIMCLRD
 70
     2
  9
$DIMCLRE
 70
     2
  9
$DIMCLRT
 70
     2
  9
$DIMTFAC
 40
1.0
  9
$DIMGAP
 40
0.5
  9
$LUNITS
 70
     2
  9
$LUPREC
 70
     1
  9
$SKETCHINC
 40
0.1
  9
$FILLETRAD
 40
0.0
  9
$AUNITS
 70
     0
  9
$AUPREC
 70
     0
  9
$MENU
  1
SSMENU
  9
$ELEVATION
 40
0.0
  9
$PELEVATION
 40
0.0
  9
$THICKNESS
 40
0.0
  9
$LIMCHECK
 70
     0
  9
$BLIPMODE
 70
     0
  9
$CHAMFERA
 40
20.0
  9
$CHAMFERB
 40
20.0
  9
$SKPOLY
 70
     0
  9
$TDCREATE
 40
2450714.9573032409
  9
$TDUPDATE
 40
2454953.6486734948
  9
$TDINDWG
 40
1.4482608217999999
  9
$TDUSRTIMER
 40
1.4482608217999999
  9
$USRTIMER
 70
     1
  9
$ANGBASE
 50
0.0
  9
$ANGDIR
 70
     0
  9
$PDMODE
 70
     0
  9
$PDSIZE
 40
1.0
  9
$PLINEWID
 40
0.0
  9
$COORDS
 70
     1
  9
$SPLFRAME
 70
     0
  9
$SPLINETYPE
 70
     6
  9
$SPLINESEGS
 70
     8
  9
$ATTDIA
 70
     0
  9
$ATTREQ
 70
     1
  9
$HANDLING
 70
 10241
  9
$HANDSEED
  5
5670
  9
$SURFTAB1
 70
     6
  9
$SURFTAB2
 70
     6
  9
$SURFTYPE
 70
     6
  9
$SURFU
 70
     6
  9
$SURFV
 70
     6
  9
$UCSNAME
  2

  9
$UCSORG
 10
0.0
 20
0.0
 30
0.0
  9
$UCSXDIR
 10
1.0
 20
0.0
 30
0.0
  9
$UCSYDIR
 10
0.0
 20
1.0
 30
0.0
  9
$PUCSNAME
  2

  9
$PUCSORG
 10
0.0
 20
0.0
 30
0.0
  9
$PUCSXDIR
 10
1.0
 20
0.0
 30
0.0
  9
$PUCSYDIR
 10
0.0
 20
1.0
 30
0.0
  9
$USERI1
 70
     0
  9
$USERI2
 70
     0
  9
$USERI3
 70
     0
  9
$USERI4
 70
     0
  9
$USERI5
 70
     0
  9
$USERR1
 40
0.0
  9
$USERR2
 40
0.0
  9
$USERR3
 40
0.0
  9
$USERR4
 40
0.0
  9
$USERR5
 40
0.0
  9
$WORLDVIEW
 70
     1
  9
$SHADEDGE
 70
     3
  9
$SHADEDIF
 70
    70
  9
$TILEMODE
 70
     1
  9
$MAXACTVP
 70
    16
  9
$PLIMCHECK
 70
     0
  9
$PEXTMIN
 10
0.0
 20
0.0
 30
0.0
  9
$PEXTMAX
 10
12.561051004636781
 20
9.0
 30
0.0
  9
$PLIMMIN
 10
0.0
 20
0.0
  9
$PLIMMAX
 10
12.0
 20
9.0
  9
$UNITMODE
 70
     0
  9
$VISRETAIN
 70
     0
  9
$PLINEGEN
 70
     0
  9
$PSLTSCALE
 70
     0
  0
ENDSEC
  0
SECTION
  2
TABLES
  0
TABLE
  2
VPORT
 70
     2
  0
VPORT
  2
*ACTIVE
 70
     0
 10
0.0
 20
0.0
 11
1.0
 21
1.0
 12
22617.551301188629
 22
11879.19758964916
 13
0.0
 23
0.0
 14
5.0
 24
5.0
 15
0.0
 25
0.0
 16
0.0
 26
0.0
 36
1.0
 17
0.0
 27
0.0
 37
0.0
 40
4483.9403040559791
 41
3.1666666666666661
 42
50.0
 43
0.0
 44
0.0
 50
0.0
 51
0.0
 71
     0
 72
   500
 73
     1
 74
     0
 75
     0
 76
     0
 77
     0
 78
     0
  0
ENDTAB
  0
TABLE
  2
LTYPE
 70
     4
  0
LTYPE
  2
CONTINUOUS
 70
     0
  3
実線
 72
    65
 73
     0
 40
0.0
  0
LTYPE
  2
CENTER
 70
     0
  3
____ _ ____ _ ____ _ ____ _ ____ _ ____ _ ____ 
 72
    65
 73
     4
 40
2.0
 49
1.25
 49
-0.25
 49
0.25
 49
-0.25
  0
LTYPE
  2
HIDDEN
 70
     0
  3
__ __ __ __ __ __ __ __ __ __ __ __ __ __ __ __
 72
    65
 73
     2
 40
0.375
 49
0.25
 49
-0.125
  0
LTYPE
  2
PHANTOM
 70
     0
  3
______  __  __  ______  __  __  ______  __  __ 
 72
    65
 73
     6
 40
2.5
 49
1.25
 49
-0.25
 49
0.25
 49
-0.25
 49
0.25
 49
-0.25
  0
ENDTAB
  0
TABLE
  2
LAYER
 70
     9
  0
LAYER
  2
0
 70
     0
 62
     7
  6
CONTINUOUS
  0
LAYER
  2
FUTO
 70
     0
 62
     4
  6
CONTINUOUS
  0
LAYER
  2
CT
 70
     0
 62
     3
  6
CENTER
  0
LAYER
  2
HOSO
 70
     0
 62
     7
  6
CONTINUOUS
  0
LAYER
  2
KL
 70
     0
 62
     7
  6
HIDDEN
  0
LAYER
  2
SL
 70
     0
 62
     1
  6
PHANTOM
  0
LAYER
  2
SP
 70
     0
 62
     2
  6
CONTINUOUS
  0
LAYER
  2
DEFPOINTS
 70
     0
 62
     7
  6
CONTINUOUS
  0
LAYER
  2
4
 70
     0
 62
     7
  6
CONTINUOUS
  0
ENDTAB
  0
TABLE
  2
STYLE
 70
     2
  0
STYLE
  2
STANDARD
 70
     0
 40
0.0
 41
1.0
 50
15.0
 71
     0
 42
90.0
  3
SIMPLEX
  4
EXTFONT
  0
STYLE
  2
SUNPOU
 70
     0
 40
0.0
 41
1.0
 50
15.0
 71
     0
 42
5.0
  3
simplex.shx
  4
extfont.shx
  0
ENDTAB
  0
TABLE
  2
VIEW
 70
     0
  0
ENDTAB
  0
TABLE
  2
UCS
 70
     0
  0
ENDTAB
  0
TABLE
  2
APPID
 70
     1
  0
APPID
  2
ACAD
 70
     0
  0
ENDTAB
  0
TABLE
  2
DIMSTYLE
 70
     1
  0
DIMSTYLE
  2
MATSU
 70
     0
  3

  4

  5
CLOSED
  6

  7

 40
10.0
 41
2.0
 42
1.0
 43
10.0
 44
1.0
 45
0.0
 46
0.0
 47
0.0
 48
0.0
140
3.0
141
0.0
142
0.0
143
0.03937
144
1.0
145
0.0
146
1.0
147
0.5
 71
     0
 72
     0
 73
     0
 74
     0
 75
     0
 76
     0
 77
     1
 78
     8
170
     0
171
     2
172
     1
173
     0
174
     0
175
     0
176
   256
177
   256
178
   256
  0
ENDTAB
  0
ENDSEC
  0
SECTION
  2
BLOCKS
  0
BLOCK
  8
0
  2
$MODEL_SPACE
 70
     0
 10
0.0
 20
0.0
 30
0.0
  3
$MODEL_SPACE
  1

  0
ENDBLK
  5
7
  8
0
  0
BLOCK
 67
     1
  8
0
  2
$PAPER_SPACE
 70
     0
 10
0.0
 20
0.0
 30
0.0
  3
$PAPER_SPACE
  1

  0
ENDBLK
  5
A
 67
     1
  8
0
  0
BLOCK
  8
0
  2
K150-75
 70
     0
 10
0.0
 20
0.0
 30
0.0
  3
K150-75
  1

  0
LINE
  5
3EA
  8
FUTO
 10
-75.000000000000455
 20
0.0
 30
0.0
 11
0.0000000000004547
 21
0.0
 31
0.0
  0
LINE
  5
3EB
  8
FUTO
 10
-64.848622970991073
 20
12.677032629465881
 30
0.0
 11
-3.651377029009836
 21
7.3229673705341147
 31
0.0
  0
LINE
  5
3EC
  8
FUTO
 10
-75.0
 20
150.0
 30
0.0
 11
0.0
 21
150.0000000000004
 31
0.0
  0
LINE
  5
3ED
  8
FUTO
 10
-64.848622970991073
 20
137.32296737053409
 30
0.0
 11
-3.651377029009836
 21
142.6770326294658
 31
0.0
  0
LINE
  5
3EE
  8
FUTO
 10
-68.500000000000455
 20
133.33818857816729
 30
0.0
 11
-68.5
 21
16.661811421832681
 31
0.0
  0
ARC
  5
3EF
  8
FUTO
 10
-64.500000000000455
 20
16.661811421832681
 30
0.0
 40
4.0
 50
180.0
 51
264.99999999999989
  0
LINE
  5
3F0
  8
FUTO
 10
-75.0
 20
150.0
 30
0.0
 11
-75.000000000000455
 21
0.0
 31
0.0
  0
ARC
  5
3F1
  8
FUTO
 10
-64.500000000000455
 20
133.33818857816729
 30
0.0
 40
4.0
 50
95.000000000000057
 51
180.0
  0
ARC
  5
3F2
  8
FUTO
 10
-4.0000000000004539
 20
3.3381885781673191
 30
0.0
 40
4.0
 50
0.0
 51
84.999999999999801
  0
LINE
  5
3F3
  8
FUTO
 10
0.0
 20
-0.0000000000004547
 30
0.0
 11
-0.0000000000004547
 21
3.3381885781673191
 31
0.0
  0
LINE
  5
3F4
  8
FUTO
 10
0.0
 20
150.0000000000004
 30
0.0
 11
-0.0000000000004547
 21
146.6618114218326
 31
0.0
  0
ARC
  5
3F5
  8
FUTO
 10
-4.0000000000004539
 20
146.6618114218326
 30
0.0
 40
4.0
 50
275.00000000000011
 51
0.0
  0
ENDBLK
  5
3F7
  8
0
  0
BLOCK
  8
0
  2
まっすぐの矢印
 70
     0
 10
0.0
 20
0.0
 30
0.0
  3
まっすぐの矢印
  1

  0
LINE
  5
599
  8
SP
 10
13.01863531255526
 20
-41.453946163708451
 30
0.0
 11
13.01863531255526
 21
-93.495696758840026
 31
0.0
  0
LINE
  5
59A
  8
SP
 10
13.01863531255526
 20
-93.495696758840026
 30
0.0
 11
-13.01863531255526
 21
-93.495696758840026
 31
0.0
  0
LINE
  5
59B
  8
SP
 10
-13.01863531255526
 20
-93.495696758840026
 30
0.0
 11
-13.01863531255526
 21
-41.453946163708451
 31
0.0
  0
LINE
  5
59C
  8
SP
 10
-13.01863531255526
 20
-41.453946163708451
 30
0.0
 11
-32.06015471115802
 21
-41.453946163708451
 31
0.0
  0
LINE
  5
59D
  8
SP
 10
-32.06015471115802
 20
-41.453946163708451
 30
0.0
 11
0.0
 21
0.0
 31
0.0
  0
LINE
  5
59E
  8
SP
 10
0.0
 20
0.0
 30
0.0
 11
32.06015471115802
 21
-41.453946163708451
 31
0.0
  0
LINE
  5
59F
  8
SP
 10
32.06015471115802
 20
-41.453946163708451
 30
0.0
 11
13.01863531255526
 21
-41.453946163708451
 31
0.0
  0
ENDBLK
  5
5A1
  8
0
  0
BLOCK
  8
0
  2
左回転矢印
 70
     0
 10
0.0
 20
0.0
 30
0.0
  3
左回転矢印
  1

  0
LINE
  5
57C
  8
SP
 10
43.930449171819873
 20
24.859487323637271
 30
0.0
 11
38.511878498580238
 21
44.478978865188871
 31
0.0
  0
LINE
  5
57D
  8
SP
 10
38.511878498580238
 20
44.478978865188871
 30
0.0
 11
0.0
 21
0.0
 31
0.0
  0
LINE
  5
57E
  8
SP
 10
0.0
 20
0.0
 30
0.0
 11
52.57968174421967
 21
-6.4575435924972453
 31
0.0
  0
LINE
  5
57F
  8
SP
 10
52.57968174421967
 20
-6.4575435924972453
 30
0.0
 11
48.189912989015284
 21
9.436875093862227
 31
0.0
  0
ARC
  5
580
  8
SP
 10
93.893649146691985
 20
-156.0466295121104
 30
0.0
 40
171.67883327727239
 50
67.881388989212894
 51
105.4392492786835
  0
LINE
  5
581
  8
SP
 10
158.53505643637521
 20
2.997736182040398
 30
0.0
 11
164.55945966006539
 21
17.820238190756751
 31
0.0
  0
ARC
  5
582
  8
SP
 10
93.893649146692198
 20
-156.04662951211091
 30
0.0
 40
187.67883327727299
 50
67.881388989212994
 51
105.4392492786836
  0
ENDBLK
  5
584
  8
0
  0
BLOCK
  8
0
  2
*D3
 70
     1
 10
0.0
 20
0.0
 30
0.0
  3
*D3
  1

  0
LINE
  5
5593
  8
FUTO
 62
     2
 10
16370.46969435617
 20
14332.43579877819
 30
0.0
 11
16370.46969435617
 21
14120.21808985692
 31
0.0
  0
LINE
  5
5594
  8
FUTO
 62
     2
 10
14820.46969435617
 20
14284.51794982194
 30
0.0
 11
14820.46969435617
 21
14120.21808985692
 31
0.0
  0
LINE
  5
5595
  8
FUTO
 62
     2
 10
16310.46969435617
 20
14150.21808985692
 30
0.0
 11
14880.46969435617
 21
14150.21808985692
 31
0.0
  0
INSERT
  5
5596
  8
FUTO
 62
     2
  2
_OPEN30
 10
16370.46969435617
 20
14150.21808985692
 30
0.0
 41
60.0
 42
60.0
 43
60.0
  0
INSERT
  5
5597
  8
FUTO
 62
     2
  2
_OPEN30
 10
14820.46969435617
 20
14150.21808985692
 30
0.0
 41
60.0
 42
60.0
 43
60.0
 50
180.0
  0
TEXT
  8
0
  40
90
  5
5657
  62
2
  72
0
  71
0
 10
15415.5
 20
14050.9
 30
0.000000
  1
1550
  7
SUNPOU
  0
POINT
  5
5599
  8
DEFPOINTS
 62
     0
 10
16370.46969435617
 20
14362.43579877819
 30
0.0
  0
POINT
  5
559A
  8
DEFPOINTS
 62
     0
 10
14820.46969435617
 20
14314.51794982194
 30
0.0
  0
POINT
  5
559B
  8
DEFPOINTS
 62
     0
 10
14820.46969435617
 20
14150.21808985692
 30
0.0
  0
ENDBLK
  5
3643
  8
0
  0
BLOCK
  8
0
  2
*D4
 70
     1
 10
0.0
 20
0.0
 30
0.0
  3
*D4
  1

  0
LINE
  5
559C
  8
FUTO
 62
     2
 10
14820.46969435617
 20
14359.51794982194
 30
0.0
 11
14820.46969435617
 21
13937.30077287283
 31
0.0
  0
LINE
  5
559D
  8
FUTO
 62
     2
 10
17220.469694356168
 20
14359.51794982194
 30
0.0
 11
17220.469694356168
 21
13937.30077287283
 31
0.0
  0
LINE
  5
559E
  8
FUTO
 62
     2
 10
14880.46969435617
 20
13967.30077287283
 30
0.0
 11
17160.469694356168
 21
13967.30077287283
 31
0.0
  0
INSERT
  5
559F
  8
FUTO
 62
     2
  2
_OPEN30
 10
14820.46969435617
 20
13967.30077287283
 30
0.0
 41
60.0
 42
60.0
 43
60.0
 50
180.0
  0
INSERT
  5
55A0
  8
FUTO
 62
     2
  2
_OPEN30
 10
17220.469694356168
 20
13967.30077287283
 30
0.0
 41
60.0
 42
60.0
 43
60.0
  0
TEXT
  8
0
  40
90
  5
5658
  62
2
  72
0
  71
0
 10
15840.5
 20
13868.0
 30
0.000000
  1
2400
  7
SUNPOU
  0
POINT
  5
55A2
  8
DEFPOINTS
 62
     0
 10
14820.46969435617
 20
14389.51794982194
 30
0.0
  0
POINT
  5
55A3
  8
DEFPOINTS
 62
     0
 10
17220.469694356168
 20
14389.51794982194
 30
0.0
  0
POINT
  5
55A4
  8
DEFPOINTS
 62
     0
 10
17220.469694356168
 20
13967.30077287283
 30
0.0
  0
ENDBLK
  5
3638
  8
0
  0
BLOCK
  8
0
  2
*D5
 70
     1
 10
0.0
 20
0.0
 30
0.0
  3
*D5
  1

  0
LINE
  5
55A5
  8
FUTO
 62
     2
 10
16370.46969435617
 20
14332.43579877819
 30
0.0
 11
16370.46969435617
 21
14120.21808985692
 31
0.0
  0
LINE
  5
55A6
  8
FUTO
 62
     2
 10
17220.469694356168
 20
14284.51794982194
 30
0.0
 11
17220.469694356168
 21
14120.21808985692
 31
0.0
  0
LINE
  5
55A7
  8
FUTO
 62
     2
 10
16430.469694356168
 20
14150.21808985692
 30
0.0
 11
17160.469694356168
 21
14150.21808985692
 31
0.0
  0
INSERT
  5
55A8
  8
FUTO
 62
     2
  2
_OPEN30
 10
16370.46969435617
 20
14150.21808985692
 30
0.0
 41
60.0
 42
60.0
 43
60.0
 50
180.0
  0
INSERT
  5
55A9
  8
FUTO
 62
     2
  2
_OPEN30
 10
17220.469694356168
 20
14150.21808985692
 30
0.0
 41
60.0
 42
60.0
 43
60.0
  0
TEXT
  8
0
  40
90
  5
5659
  62
2
  72
0
  71
0
 10
16615.5
 20
14050.9
 30
0.000000
  1
850
  7
SUNPOU
  0
POINT
  5
55AB
  8
DEFPOINTS
 62
     0
 10
16370.46969435617
 20
14362.43579877819
 30
0.0
  0
POINT
  5
55AC
  8
DEFPOINTS
 62
     0
 10
17220.469694356168
 20
14314.51794982194
 30
0.0
  0
POINT
  5
55AD
  8
DEFPOINTS
 62
     0
 10
17220.469694356168
 20
14150.21808985692
 30
0.0
  0
ENDBLK
  5
3667
  8
0
  0
BLOCK
  8
0
  2
*D6
 70
     1
 10
0.0
 20
0.0
 30
0.0
  3
*D6
  1

  0
LINE
  5
55DA
  8
FUTO
 62
     2
 10
18863.561107562022
 20
14359.51794982194
 30
0.0
 11
18863.561107562022
 21
13941.484027579991
 31
0.0
  0
LINE
  5
55DB
  8
FUTO
 62
     2
 10
21063.561107562022
 20
14359.51794982194
 30
0.0
 11
21063.561107562022
 21
13941.484027579991
 31
0.0
  0
LINE
  5
55DC
  8
FUTO
 62
     2
 10
18923.561107562022
 20
13971.484027579991
 30
0.0
 11
21003.561107562022
 21
13971.484027579991
 31
0.0
  0
INSERT
  5
55DD
  8
FUTO
 62
     2
  2
_OPEN30
 10
18863.561107562022
 20
13971.484027579991
 30
0.0
 41
60.0
 42
60.0
 43
60.0
 50
180.0
  0
INSERT
  5
55DE
  8
FUTO
 62
     2
  2
_OPEN30
 10
21063.561107562022
 20
13971.484027579991
 30
0.0
 41
60.0
 42
60.0
 43
60.0
  0
TEXT
  8
0
  40
90
  5
565A
  62
2
  72
0
  71
0
 10
19783.6
 20
13872.2
 30
0.000000
  1
2200
  7
SUNPOU
  0
POINT
  5
55E0
  8
DEFPOINTS
 62
     0
 10
18863.561107562022
 20
14389.51794982194
 30
0.0
  0
POINT
  5
55E1
  8
DEFPOINTS
 62
     0
 10
21063.561107562022
 20
14389.51794982194
 30
0.0
  0
POINT
  5
55E2
  8
DEFPOINTS
 62
     0
 10
21063.561107562022
 20
13971.484027579991
 30
0.0
  0
ENDBLK
  5
34E6
  8
0
  0
BLOCK
  8
0
  2
*D7
 70
     1
 10
0.0
 20
0.0
 30
0.0
  3
*D7
  1

  0
LINE
  5
55E3
  8
FUTO
 62
     2
 10
20451.561107562022
 20
14359.51794982194
 30
0.0
 11
20451.561107562022
 21
14122.81446883758
 31
0.0
  0
LINE
  5
55E4
  8
FUTO
 62
     2
 10
21063.561107562022
 20
14359.51794982194
 30
0.0
 11
21063.561107562022
 21
14122.81446883758
 31
0.0
  0
LINE
  5
55E5
  8
FUTO
 62
     2
 10
20511.561107562022
 20
14152.81446883758
 30
0.0
 11
21003.561107562022
 21
14152.81446883758
 31
0.0
  0
INSERT
  5
55E6
  8
FUTO
 62
     2
  2
_OPEN30
 10
20451.561107562022
 20
14152.81446883758
 30
0.0
 41
60.0
 42
60.0
 43
60.0
 50
180.0
  0
INSERT
  5
55E7
  8
FUTO
 62
     2
  2
_OPEN30
 10
21063.561107562022
 20
14152.81446883758
 30
0.0
 41
60.0
 42
60.0
 43
60.0
  0
TEXT
  8
0
  40
90
  5
565B
  62
2
  72
0
  71
0
 10
20577.6
 20
14053.5
 30
0.000000
  1
612
  7
SUNPOU
  0
POINT
  5
55E9
  8
DEFPOINTS
 62
     0
 10
20451.561107562022
 20
14389.51794982194
 30
0.0
  0
POINT
  5
55EA
  8
DEFPOINTS
 62
     0
 10
21063.561107562022
 20
14389.51794982195
 30
0.0
  0
POINT
  5
55EB
  8
DEFPOINTS
 62
     0
 10
21063.561107562022
 20
14152.81446883758
 30
0.0
  0
ENDBLK
  5
393A
  8
0
  0
BLOCK
  8
0
  2
*D8
 70
     1
 10
0.0
 20
0.0
 30
0.0
  3
*D8
  1

  0
LINE
  5
55EC
  8
FUTO
 62
     2
 10
20451.561107562022
 20
14359.51794982194
 30
0.0
 11
20451.561107562022
 21
14122.81970976017
 31
0.0
  0
LINE
  5
55ED
  8
FUTO
 62
     2
 10
18863.561107562022
 20
14359.51794982194
 30
0.0
 11
18863.561107562022
 21
14122.81970976017
 31
0.0
  0
LINE
  5
55EE
  8
FUTO
 62
     2
 10
20391.561107562022
 20
14152.819709760181
 30
0.0
 11
18923.561107562022
 21
14152.819709760181
 31
0.0
  0
INSERT
  5
55EF
  8
FUTO
 62
     2
  2
_OPEN30
 10
20451.561107562022
 20
14152.819709760181
 30
0.0
 41
60.0
 42
60.0
 43
60.0
  0
INSERT
  5
55F0
  8
FUTO
 62
     2
  2
_OPEN30
 10
18863.561107562022
 20
14152.819709760181
 30
0.0
 41
60.0
 42
60.0
 43
60.0
 50
180.0
  0
TEXT
  8
0
  40
90
  5
565C
  62
2
  72
0
  71
0
 10
19477.6
 20
14053.5
 30
0.000000
  1
1588
  7
SUNPOU
  0
POINT
  5
55F2
  8
DEFPOINTS
 62
     0
 10
20451.561107562022
 20
14389.51794982194
 30
0.0
  0
POINT
  5
55F3
  8
DEFPOINTS
 62
     0
 10
18863.561107562022
 20
14389.51794982194
 30
0.0
  0
POINT
  5
55F4
  8
DEFPOINTS
 62
     0
 10
18863.561107562022
 20
14152.819709760181
 30
0.0
  0
ENDBLK
  5
3947
  8
0
  0
BLOCK
  8
0
  2
_CLOSED
 70
     0
 10
0.0
 20
0.0
 30
0.0
  3
_CLOSED
  1

  0
LINE
  5
3BE3
  8
0
  6
BYBLOCK
 62
     0
 10
-1.0
 20
0.1666666666666666
 30
0.0
 11
0.0
 21
0.0
 31
0.0
  0
LINE
  5
3BE4
  8
0
  6
BYBLOCK
 62
     0
 10
0.0
 20
0.0
 30
0.0
 11
-1.0
 21
-0.1666666666666666
 31
0.0
  0
LINE
  5
3BE5
  8
0
  6
BYBLOCK
 62
     0
 10
-1.0
 20
0.1666666666666666
 30
0.0
 11
-1.0
 21
-0.1666666666666666
 31
0.0
  0
ENDBLK
  5
3BE6
  8
0
  0
BLOCK
  8
0
  2
*D10
 70
     1
 10
0.0
 20
0.0
 30
0.0
  3
*D10
  1

  0
LINE
  5
55F8
  8
SP
 62
     2
 10
18631.561107562022
 20
16669.51794982194
 30
0.0
 11
18631.561107562022
 21
17608.14070450209
 31
0.0
  0
LINE
  5
55F9
  8
SP
 62
     2
 10
20451.561107562022
 20
17471.23543740614
 30
0.0
 11
20451.561107562022
 21
17608.14070450209
 31
0.0
  0
LINE
  5
55FA
  8
SP
 62
     2
 10
18691.561107562022
 20
17578.14070450209
 30
0.0
 11
20391.561107562022
 21
17578.14070450209
 31
0.0
  0
INSERT
  5
55FB
  8
SP
 62
     2
  2
_OPEN30
 10
18631.561107562022
 20
17578.14070450209
 30
0.0
 41
60.0
 42
60.0
 43
60.0
 50
180.0
  0
INSERT
  5
55FC
  8
SP
 62
     2
  2
_OPEN30
 10
20451.561107562022
 20
17578.14070450209
 30
0.0
 41
60.0
 42
60.0
 43
60.0
  0
TEXT
  8
0
  40
90
  5
565D
  62
2
  72
0
  71
0
 10
19361.6
 20
17478.8
 30
0.000000
  1
1820
  7
SUNPOU
  0
POINT
  5
55FE
  8
DEFPOINTS
 62
     0
 10
18631.561107562022
 20
16639.51794982194
 30
0.0
  0
POINT
  5
55FF
  8
DEFPOINTS
 62
     0
 10
20451.561107562022
 20
17441.23543740614
 30
0.0
  0
POINT
  5
5600
  8
DEFPOINTS
 62
     0
 10
20451.561107562022
 20
17578.14070450209
 30
0.0
  0
ENDBLK
  5
3C57
  8
0
  0
BLOCK
  8
0
  2
*D11
 70
     1
 10
0.0
 20
0.0
 30
0.0
  3
*D11
  1

  0
LINE
  5
55AE
  8
FUTO
 62
     2
 10
21115.561107562022
 20
16959.51794982194
 30
0.0
 11
21481.170969318238
 21
16959.51794982194
 31
0.0
  0
LINE
  5
55AF
  8
FUTO
 62
     2
 10
21115.561107562022
 20
15559.51794982194
 30
0.0
 11
21481.170969318238
 21
15559.51794982194
 31
0.0
  0
LINE
  5
55B0
  8
FUTO
 62
     2
 10
21451.170969318249
 20
16899.51794982194
 30
0.0
 11
21451.170969318249
 21
15619.51794982194
 31
0.0
  0
INSERT
  5
55B1
  8
FUTO
 62
     2
  2
_OPEN30
 10
21451.170969318249
 20
16959.51794982194
 30
0.0
 41
60.0
 42
60.0
 43
60.0
 50
90.0
  0
INSERT
  5
55B2
  8
FUTO
 62
     2
  2
_OPEN30
 10
21451.170969318249
 20
15559.51794982194
 30
0.0
 41
60.0
 42
60.0
 43
60.0
 50
270.0
  0
TEXT
  8
0
  40
90
  5
565E
  62
2
  72
0
  71
0
 10
21211.2
 20
16100.2
 30
0.000000
  1
%%C1400
  7
SUNPOU
  0
POINT
  5
55B4
  8
DEFPOINTS
 62
     0
 10
21085.561107562022
 20
16959.51794982194
 30
0.0
  0
POINT
  5
55B5
  8
DEFPOINTS
 62
     0
 10
21085.561107562022
 20
15559.51794982194
 30
0.0
  0
POINT
  5
55B6
  8
DEFPOINTS
 62
     0
 10
21451.170969318249
 20
15559.51794982194
 30
0.0
  0
ENDBLK
  5
4473
  8
0
  0
BLOCK
  8
0
  2
*D12
 70
     1
 10
0.0
 20
0.0
 30
0.0
  3
*D12
  1

  0
LINE
  5
55B7
  8
FUTO
 62
     2
 10
20451.561107562022
 20
17441.23543740614
 30
0.0
 11
20451.561107562022
 21
17608.14070450209
 31
0.0
  0
LINE
  5
55B8
  8
FUTO
 62
     2
 10
21085.561107562022
 20
17039.51794982194
 30
0.0
 11
21085.561107562022
 21
17608.14070450209
 31
0.0
  0
LINE
  5
55B9
  8
FUTO
 62
     2
 10
20511.561107562022
 20
17578.14070450209
 30
0.0
 11
21025.561107562022
 21
17578.14070450209
 31
0.0
  0
INSERT
  5
55BA
  8
FUTO
 62
     2
  2
_OPEN30
 10
20451.561107562022
 20
17578.14070450209
 30
0.0
 41
60.0
 42
60.0
 43
60.0
 50
180.0
  0
INSERT
  5
55BB
  8
FUTO
 62
     2
  2
_OPEN30
 10
21085.561107562022
 20
17578.14070450209
 30
0.0
 41
60.0
 42
60.0
 43
60.0
  0
TEXT
  8
0
  40
90
  5
565F
  62
2
  72
0
  71
0
 10
20588.6
 20
17478.8
 30
0.000000
  1
634
  7
SUNPOU
  0
POINT
  5
55BD
  8
DEFPOINTS
 62
     0
 10
20451.561107562022
 20
17411.23543740614
 30
0.0
  0
POINT
  5
55BE
  8
DEFPOINTS
 62
     0
 10
21085.561107562022
 20
17009.51794982194
 30
0.0
  0
POINT
  5
55BF
  8
DEFPOINTS
 62
     0
 10
21085.561107562022
 20
17578.14070450209
 30
0.0
  0
ENDBLK
  5
447F
  8
0
  0
BLOCK
  8
0
  2
_OPEN30
 70
     0
 10
0.0
 20
0.0
 30
0.0
  3
_OPEN30
  1

  0
LINE
  5
44D6
  8
FUTO
 62
     0
 10
-1.0
 20
0.26794919
 30
0.0
 11
0.0
 21
0.0
 31
0.0
  0
LINE
  5
44D7
  8
FUTO
 62
     0
 10
0.0
 20
0.0
 30
0.0
 11
-1.0
 21
-0.26794919
 31
0.0
  0
LINE
  5
44D8
  8
FUTO
 62
     0
 10
0.0
 20
0.0
 30
0.0
 11
-1.0
 21
0.0
 31
0.0
  0
ENDBLK
  5
44DA
  8
0
  0
BLOCK
  8
0
  2
*D14
 70
     1
 10
0.0
 20
0.0
 30
0.0
  3
*D14
  1

  0
LINE
  5
560F
  8
FUTO
 62
     2
 10
17250.469694356168
 20
14539.51794982194
 30
0.0
 11
17878.361493407891
 21
14539.51794982194
 31
0.0
  0
LINE
  5
5610
  8
FUTO
 62
     2
 10
17250.469694356168
 20
14389.51794982194
 30
0.0
 11
17878.361493407891
 21
14389.51794982194
 31
0.0
  0
LINE
  5
5611
  8
FUTO
 62
     2
 10
17848.361493407891
 20
14479.51794982194
 30
0.0
 11
17848.361493407891
 21
14449.51794982194
 31
0.0
  0
LINE
  5
5612
  8
FUTO
 62
     2
 10
17848.361493407891
 20
14389.51794982194
 30
0.0
 11
17848.361493407891
 21
14089.51794982194
 31
0.0
  0
INSERT
  5
5613
  8
FUTO
 62
     2
  2
_OPEN30
 10
17848.361493407891
 20
14539.51794982194
 30
0.0
 41
60.0
 42
60.0
 43
60.0
 50
90.0
  0
INSERT
  5
5614
  8
FUTO
 62
     2
  2
_OPEN30
 10
17848.361493407891
 20
14389.51794982194
 30
0.0
 41
60.0
 42
60.0
 43
60.0
 50
270.0
  0
TEXT
  8
0
  40
90
  5
5660
  62
2
  72
0
  71
0
 10
17608.4
 20
14050.2
 30
0.000000
  1
150
  7
SUNPOU
  0
POINT
  5
5616
  8
DEFPOINTS
 62
     0
 10
17220.469694356168
 20
14539.51794982194
 30
0.0
  0
POINT
  5
5617
  8
DEFPOINTS
 62
     0
 10
17220.469694356168
 20
14389.51794982194
 30
0.0
  0
POINT
  5
5618
  8
DEFPOINTS
 62
     0
 10
17848.361493407891
 20
14389.51794982194
 30
0.0
  0
ENDBLK
  5
4591
  8
0
  0
BLOCK
  8
0
  2
*D15
 70
     1
 10
0.0
 20
0.0
 30
0.0
  3
*D15
  1

  0
LINE
  5
5619
  8
FUTO
 62
     2
 10
16370.46969435617
 20
20946.635660617088
 30
0.0
 11
16370.46969435617
 21
21050.198906160382
 31
0.0
  0
LINE
  5
561A
  8
FUTO
 62
     2
 10
14820.46969435617
 20
19420.763082967489
 30
0.0
 11
14820.46969435617
 21
21050.198906160382
 31
0.0
  0
LINE
  5
561B
  8
FUTO
 62
     2
 10
16310.46969435617
 20
21020.198906160382
 30
0.0
 11
14880.46969435617
 21
21020.198906160382
 31
0.0
  0
INSERT
  5
561C
  8
FUTO
 62
     2
  2
_OPEN30
 10
16370.46969435617
 20
21020.198906160382
 30
0.0
 41
60.0
 42
60.0
 43
60.0
  0
INSERT
  5
561D
  8
FUTO
 62
     2
  2
_OPEN30
 10
14820.46969435617
 20
21020.198906160382
 30
0.0
 41
60.0
 42
60.0
 43
60.0
 50
180.0
  0
TEXT
  8
0
  40
90
  5
5661
  62
2
  72
0
  71
0
 10
15415.5
 20
20920.9
 30
0.000000
  1
1550
  7
SUNPOU
  0
POINT
  5
561F
  8
DEFPOINTS
 62
     0
 10
16370.46969435617
 20
20916.635660617088
 30
0.0
  0
POINT
  5
5620
  8
DEFPOINTS
 62
     0
 10
14820.46969435617
 20
19390.763082967489
 30
0.0
  0
POINT
  5
5621
  8
DEFPOINTS
 62
     0
 10
14820.46969435617
 20
21020.198906160382
 30
0.0
  0
ENDBLK
  5
45B4
  8
0
  0
BLOCK
  8
0
  2
*D16
 70
     1
 10
0.0
 20
0.0
 30
0.0
  3
*D16
  1

  0
LINE
  5
5622
  8
FUTO
 62
     2
 10
17577.989694935692
 20
20001.763082967489
 30
0.0
 11
17810.77559719604
 21
20001.763082967489
 31
0.0
  0
LINE
  5
5623
  8
FUTO
 62
     2
 10
17150.469694356168
 20
20635.763082967489
 30
0.0
 11
17810.77559719604
 21
20635.763082967489
 31
0.0
  0
LINE
  5
5624
  8
FUTO
 62
     2
 10
17780.77559719604
 20
20061.763082967489
 30
0.0
 11
17780.77559719604
 21
20575.763082967489
 31
0.0
  0
INSERT
  5
5625
  8
FUTO
 62
     2
  2
_OPEN30
 10
17780.77559719604
 20
20001.763082967489
 30
0.0
 41
60.0
 42
60.0
 43
60.0
 50
270.0
  0
INSERT
  5
5626
  8
FUTO
 62
     2
  2
_OPEN30
 10
17780.77559719604
 20
20635.763082967489
 30
0.0
 41
60.0
 42
60.0
 43
60.0
 50
90.0
  0
TEXT
  8
0
  40
90
  5
5662
  62
2
  72
0
  71
0
 10
17540.8
 20
20159.5
 30
0.000000
  1
634
  7
SUNPOU
  0
POINT
  5
5628
  8
DEFPOINTS
 62
     0
 10
17547.989694935692
 20
20001.763082967489
 30
0.0
  0
POINT
  5
5629
  8
DEFPOINTS
 62
     0
 10
17120.469694356168
 20
20635.763082967489
 30
0.0
  0
POINT
  5
562A
  8
DEFPOINTS
 62
     0
 10
17780.77559719604
 20
20635.763082967489
 30
0.0
  0
ENDBLK
  5
45C1
  8
0
  0
BLOCK
  8
0
  2
*D17
 70
     1
 10
0.0
 20
0.0
 30
0.0
  3
*D17
  1

  0
LINE
  5
562B
  8
FUTO
 62
     2
 10
16780.469694356168
 20
18181.763082967489
 30
0.0
 11
17810.77559719604
 21
18181.763082967489
 31
0.0
  0
LINE
  5
562C
  8
FUTO
 62
     2
 10
17780.77559719604
 20
19941.763082967489
 30
0.0
 11
17780.77559719604
 21
18241.763082967489
 31
0.0
  0
INSERT
  5
562D
  8
FUTO
 62
     2
  2
_OPEN30
 10
17780.77559719604
 20
20001.763082967489
 30
0.0
 41
60.0
 42
60.0
 43
60.0
 50
90.0
  0
INSERT
  5
562E
  8
FUTO
 62
     2
  2
_OPEN30
 10
17780.77559719604
 20
18181.763082967489
 30
0.0
 41
60.0
 42
60.0
 43
60.0
 50
270.0
  0
TEXT
  8
0
  40
90
  5
5663
  62
2
  72
0
  71
0
 10
17540.8
 20
18932.5
 30
0.000000
  1
1820
  7
SUNPOU
  0
POINT
  5
5630
  8
DEFPOINTS
 62
     0
 10
17780.77559719604
 20
20001.763082967489
 30
0.0
  0
POINT
  5
5631
  8
DEFPOINTS
 62
     0
 10
16750.469694356168
 20
18181.763082967489
 30
0.0
  0
POINT
  5
5632
  8
DEFPOINTS
 62
     0
 10
17780.77559719604
 20
18181.763082967489
 30
0.0
  0
ENDBLK
  5
45CD
  8
0
  0
BLOCK
  8
0
  2
*D18
 70
     1
 10
0.0
 20
0.0
 30
0.0
  3
*D18
  1

  0
LINE
  5
5633
  8
FUTO
 62
     2
 10
16370.46969435617
 20
20946.635660617088
 30
0.0
 11
16370.46969435617
 21
21050.198906160382
 31
0.0
  0
LINE
  5
5634
  8
FUTO
 62
     2
 10
17300.469694356168
 20
20615.763082967489
 30
0.0
 11
17300.469694356168
 21
21050.198906160382
 31
0.0
  0
LINE
  5
5635
  8
FUTO
 62
     2
 10
16430.469694356168
 20
21020.198906160382
 30
0.0
 11
17240.469694356168
 21
21020.198906160382
 31
0.0
  0
INSERT
  5
5636
  8
FUTO
 62
     2
  2
_OPEN30
 10
16370.46969435617
 20
21020.198906160382
 30
0.0
 41
60.0
 42
60.0
 43
60.0
 50
180.0
  0
INSERT
  5
5637
  8
FUTO
 62
     2
  2
_OPEN30
 10
17300.469694356168
 20
21020.198906160382
 30
0.0
 41
60.0
 42
60.0
 43
60.0
  0
TEXT
  8
0
  40
90
  5
5664
  62
2
  72
0
  71
0
 10
16655.5
 20
20920.9
 30
0.000000
  1
930
  7
SUNPOU
  0
POINT
  5
5639
  8
DEFPOINTS
 62
     0
 10
16370.46969435617
 20
20916.635660617088
 30
0.0
  0
POINT
  5
563A
  8
DEFPOINTS
 62
     0
 10
17300.469694356168
 20
20585.763082967489
 30
0.0
  0
POINT
  5
563B
  8
DEFPOINTS
 62
     0
 10
17300.469694356168
 20
21020.198906160382
 30
0.0
  0
ENDBLK
  5
471E
  8
0
  0
BLOCK
  8
0
  2
*D19
 70
     1
 10
0.0
 20
0.0
 30
0.0
  3
*D19
  1

  0
LINE
  5
563C
  8
FUTO
 62
     2
 10
17250.469694356168
 20
14559.51794982194
 30
0.0
 11
17878.361493407891
 21
14559.51794982194
 31
0.0
  0
LINE
  5
563D
  8
FUTO
 62
     2
 10
17578.4736730035
 20
16259.51794982194
 30
0.0
 11
17878.361493407891
 21
16259.51794982194
 31
0.0
  0
LINE
  5
563E
  8
FUTO
 62
     2
 10
17848.361493407891
 20
14619.51794982194
 30
0.0
 11
17848.361493407891
 21
16199.51794982194
 31
0.0
  0
INSERT
  5
563F
  8
FUTO
 62
     2
  2
_OPEN30
 10
17848.361493407891
 20
14559.51794982194
 30
0.0
 41
60.0
 42
60.0
 43
60.0
 50
270.0
  0
INSERT
  5
5640
  8
FUTO
 62
     2
  2
_OPEN30
 10
17848.361493407891
 20
16259.51794982194
 30
0.0
 41
60.0
 42
60.0
 43
60.0
 50
90.0
  0
TEXT
  8
0
  40
90
  5
5665
  62
2
  72
0
  71
0
 10
17608.4
 20
15250.2
 30
0.000000
  1
1700
  7
SUNPOU
  0
POINT
  5
5642
  8
DEFPOINTS
 62
     0
 10
17220.469694356168
 20
14559.51794982194
 30
0.0
  0
POINT
  5
5643
  8
DEFPOINTS
 62
     0
 10
17548.4736730035
 20
16259.51794982194
 30
0.0
  0
POINT
  5
5644
  8
DEFPOINTS
 62
     0
 10
17848.361493407891
 20
16259.51794982194
 30
0.0
  0
ENDBLK
  5
4899
  8
0
  0
BLOCK
  8
0
  2
*D20
 70
     1
 10
0.0
 20
0.0
 30
0.0
  3
*D20
  1

  0
LINE
  5
5645
  8
FUTO
 62
     2
 10
17578.4736730035
 20
16259.51794982194
 30
0.0
 11
17878.361493407891
 21
16259.51794982194
 31
0.0
  0
LINE
  5
5646
  8
FUTO
 62
     2
 10
16507.58329719874
 20
17262.51794982194
 30
0.0
 11
17878.361493407891
 21
17262.51794982194
 31
0.0
  0
LINE
  5
5647
  8
FUTO
 62
     2
 10
17848.361493407891
 20
16319.51794982194
 30
0.0
 11
17848.361493407891
 21
17202.51794982194
 31
0.0
  0
INSERT
  5
5648
  8
FUTO
 62
     2
  2
_OPEN30
 10
17848.361493407891
 20
16259.51794982194
 30
0.0
 41
60.0
 42
60.0
 43
60.0
 50
270.0
  0
INSERT
  5
5649
  8
FUTO
 62
     2
  2
_OPEN30
 10
17848.361493407891
 20
17262.51794982194
 30
0.0
 41
60.0
 42
60.0
 43
60.0
 50
90.0
  0
TEXT
  8
0
  40
90
  5
5666
  62
2
  72
0
  71
0
 10
17608.4
 20
16601.7
 30
0.000000
  1
1003
  7
SUNPOU
  0
POINT
  5
564B
  8
DEFPOINTS
 62
     0
 10
17548.4736730035
 20
16259.51794982194
 30
0.0
  0
POINT
  5
564C
  8
DEFPOINTS
 62
     0
 10
16477.58329719874
 20
17262.51794982194
 30
0.0
  0
POINT
  5
564D
  8
DEFPOINTS
 62
     0
 10
17848.361493407891
 20
17262.51794982194
 30
0.0
  0
ENDBLK
  5
48A7
  8
0
  0
BLOCK
  8
0
  2
*D21
 70
     1
 10
0.0
 20
0.0
 30
0.0
  3
*D21
  1

  0
LINE
  5
564E
  8
FUTO
 62
     2
 10
16370.46969435617
 20
17392.547883120002
 30
0.0
 11
16370.46969435617
 21
17593.393444212139
 31
0.0
  0
LINE
  5
564F
  8
FUTO
 62
     2
 10
17300.469694356168
 20
16302.51794982194
 30
0.0
 11
17300.469694356168
 21
17593.393444212139
 31
0.0
  0
LINE
  5
5650
  8
FUTO
 62
     2
 10
16430.469694356168
 20
17563.393444212139
 30
0.0
 11
17240.469694356168
 21
17563.393444212139
 31
0.0
  0
INSERT
  5
5651
  8
FUTO
 62
     2
  2
_OPEN30
 10
16370.46969435617
 20
17563.393444212139
 30
0.0
 41
60.0
 42
60.0
 43
60.0
 50
180.0
  0
INSERT
  5
5652
  8
FUTO
 62
     2
  2
_OPEN30
 10
17300.469694356168
 20
17563.393444212139
 30
0.0
 41
60.0
 42
60.0
 43
60.0
  0
TEXT
  8
0
  40
90
  5
5667
  62
2
  72
0
  71
0
 10
16655.5
 20
17464.1
 30
0.000000
  1
930
  7
SUNPOU
  0
POINT
  5
5654
  8
DEFPOINTS
 62
     0
 10
16370.46969435617
 20
17362.547883120002
 30
0.0
  0
POINT
  5
5655
  8
DEFPOINTS
 62
     0
 10
17300.469694356168
 20
16272.51794982194
 30
0.0
  0
POINT
  5
5656
  8
DEFPOINTS
 62
     0
 10
17300.469694356168
 20
17563.393444212139
 30
0.0
  0
ENDBLK
  5
48B4
  8
0
  0
BLOCK
  8
0
  2
*U22
 70
     1
 10
0.0
 20
0.0
 30
0.0
  3
*U22
  1

  0
SOLID
  5
5602
  8
FUTO
  6
CONTINUOUS
 10
17017.737845010139
 20
14559.51794982194
 30
0.0
 11
16977.737845010139
 21
14559.51794982194
 31
0.0
 12
17017.737845010139
 22
14539.51794982194
 32
0.0
 13
17017.737845010139
 23
14539.51794982194
 33
0.0
210
0.0
220
0.0
230
1.0
  0
SOLID
  5
5603
  8
FUTO
  6
CONTINUOUS
 10
16977.737845010139
 20
14539.51794982194
 30
0.0
 11
17017.737845010139
 21
14539.51794982194
 31
0.0
 12
16977.737845010139
 22
14559.51794982194
 32
0.0
 13
16977.737845010139
 23
14559.51794982194
 33
0.0
210
0.0
220
0.0
230
1.0
  0
SOLID
  5
5604
  8
FUTO
  6
CONTINUOUS
 10
17057.737845010139
 20
14559.51794982194
 30
0.0
 11
17017.737845010139
 21
14559.51794982194
 31
0.0
 12
17057.737845010139
 22
14539.51794982194
 32
0.0
 13
17057.737845010139
 23
14539.51794982194
 33
0.0
210
0.0
220
0.0
230
1.0
  0
SOLID
  5
5605
  8
FUTO
  6
CONTINUOUS
 10
17017.737845010139
 20
14539.51794982194
 30
0.0
 11
17057.737845010139
 21
14539.51794982194
 31
0.0
 12
17017.737845010139
 22
14559.51794982194
 32
0.0
 13
17017.737845010139
 23
14559.51794982194
 33
0.0
210
0.0
220
0.0
230
1.0
  0
ENDBLK
  5
5607
  8
0
  0
BLOCK
  8
0
  2
*U23
 70
     1
 10
0.0
 20
0.0
 30
0.0
  3
*U23
  1

  0
SOLID
  5
5609
  8
FUTO
  6
CONTINUOUS
 10
14830.46969435617
 20
14559.51794982194
 30
0.0
 11
14830.46969435617
 21
14539.51794982194
 31
0.0
 12
14870.46969435617
 22
14559.51794982194
 32
0.0
 13
14870.46969435617
 23
14559.51794982194
 33
0.0
210
0.0
220
0.0
230
1.0
  0
SOLID
  5
560A
  8
FUTO
  6
CONTINUOUS
 10
14870.46969435617
 20
14539.51794982194
 30
0.0
 11
14870.46969435617
 21
14559.51794982194
 31
0.0
 12
14830.46969435617
 22
14539.51794982194
 32
0.0
 13
14830.46969435617
 23
14539.51794982194
 33
0.0
210
0.0
220
0.0
230
1.0
  0
SOLID
  5
560B
  8
FUTO
  6
CONTINUOUS
 10
14910.46969435617
 20
14559.51794982194
 30
0.0
 11
14870.46969435617
 21
14559.51794982194
 31
0.0
 12
14910.46969435617
 22
14539.51794982194
 32
0.0
 13
14910.46969435617
 23
14539.51794982194
 33
0.0
210
0.0
220
0.0
230
1.0
  0
SOLID
  5
560C
  8
FUTO
  6
CONTINUOUS
 10
14870.46969435617
 20
14539.51794982194
 30
0.0
 11
14910.46969435617
 21
14539.51794982194
 31
0.0
 12
14870.46969435617
 22
14559.51794982194
 32
0.0
 13
14870.46969435617
 23
14559.51794982194
 33
0.0
210
0.0
220
0.0
230
1.0
  0
ENDBLK
  5
560E
  8
0
  0
ENDSEC
  0
SECTION
  2
ENTITIES
  0
LINE
  5
1F
  8
FUTO
 10
18858.561107562022
 20
14539.51794982195
 30
0.0
 11
21066.561107562022
 21
14539.51794982194
 31
0.0
1001
ACAD
1000
ASC_BOUNDS
1002
{
1070
    19
1005
3975
1002
}
  0
LINE
  5
41
  8
FUTO
 10
18863.561107562022
 20
14389.51794982194
 30
0.0
 11
21063.561107562022
 21
14389.51794982195
 31
0.0
  0
LINE
  5
42
  8
FUTO
 10
18858.561107562022
 20
14559.51794982194
 30
0.0
 11
21066.561107562022
 21
14559.51794982195
 31
0.0
1001
ACAD
1000
ASC_BOUNDS
1002
{
1070
    19
1005
3975
1002
}
  0
LINE
  5
116
  8
FUTO
 10
19780.561107562022
 20
16304.51794982194
 30
0.0
 11
19842.061107562022
 21
16304.51794982194
 31
0.0
  0
LINE
  5
117
  8
FUTO
 10
19780.561107562022
 20
16214.51794982194
 30
0.0
 11
19843.361107562028
 21
16214.51794982194
 31
0.0
  0
LINE
  5
118
  8
FUTO
 10
18864.561107562022
 20
14709.51794982194
 30
0.0
 11
21063.761107562019
 21
14709.51794982194
 31
0.0
  0
LINE
  5
119
  8
CT
 10
18580.710974076639
 20
16259.51794982194
 30
0.0
 11
21178.88858553403
 21
16259.51794982194
 31
0.0
  0
ARC
  5
11C
  8
FUTO
 10
16268.46969435617
 20
16157.51794982194
 30
0.0
 40
1125.0
 50
84.798038915108464
 51
174.79803891510829
  0
LINE
  5
14C
  8
SL
 10
18841.561107562022
 20
16339.51794982194
 30
0.0
 11
18841.561107562022
 21
16179.51794982194
 31
0.0
  0
LINE
  5
162
  8
CT
 10
19001.561107562022
 20
16378.02144678207
 30
0.0
 11
19001.561107562022
 21
16096.68731803523
 31
0.0
  0
LINE
  5
163
  8
CT
 10
16515.469694356168
 20
16149.51794982194
 30
0.0
 11
16515.469694356168
 21
16203.51794982194
 31
0.0
  0
ARC
  5
164
  8
FUTO
 10
16481.469694356168
 20
16209.51794982194
 30
0.0
 40
16.0
 50
180.0
 51
270.0
  0
ARC
  5
165
  8
FUTO
 10
16370.46969435617
 20
16259.51794982194
 30
0.0
 40
95.000000000000071
 50
309.05612602761761
 51
330.00000000000051
  0
ARC
  5
168
  8
FUTO
 10
16370.46969435617
 20
16259.51794982194
 30
0.0
 40
94.999999999997485
 50
209.99999999999881
 51
230.94387397238171
  0
LINE
  5
169
  8
CT
 10
16225.46969435617
 20
16149.51794982194
 30
0.0
 11
16225.46969435617
 21
16203.51794982194
 31
0.0
  0
ARC
  5
16A
  8
FUTO
 10
16259.46969435617
 20
16209.51794982194
 30
0.0
 40
16.0
 50
270.0
 51
0.000000000000007
  0
LINE
  5
16B
  8
CT
 10
16370.46969435617
 20
16384.02144678207
 30
0.0
 11
16370.46969435617
 21
16142.276610666349
 31
0.0
  0
ARC
  5
178
  8
KL
 10
16284.96969435617
 20
16345.01794982194
 30
0.0
 40
917.5
 50
359.99999999999989
 51
89.999999999999915
  0
LINE
  5
17D
  8
FUTO
 10
18631.561107562022
 20
16639.51794982194
 30
0.0
 11
18631.561107562022
 21
14749.51794982194
 31
0.0
  0
LINE
  5
17E
  8
SL
 10
18741.561107562022
 20
16509.51794982194
 30
0.0
 11
18741.561107562022
 21
14863.51794982194
 31
0.0
  0
LINE
  5
17F
  8
SL
 10
18819.46110756202
 20
16509.51794982194
 30
0.0
 11
18819.46110756202
 21
14863.51794982194
 31
0.0
  0
ARC
  5
180
  8
FUTO
 10
16472.469694356168
 20
16157.51794982194
 30
0.0
 40
1329.0
 50
232.0868142788778
 51
244.69259211912211
  0
ARC
  5
183
  8
FUTO
 10
16370.46969435617
 20
16259.51794982194
 30
0.0
 40
380.0
 50
311.85960113309602
 51
142.28046017298601
  0
LINE
  5
184
  8
CT
 10
16370.46969435617
 20
17362.547883120002
 30
0.0
 11
16370.46969435617
 21
14341.72019203415
 31
0.0
  0
LINE
  5
185
  8
FUTO
 10
15530.46969435617
 20
17006.623950271831
 30
0.0
 11
15530.46969435617
 21
15794.571863993629
 31
0.0
  0
LINE
  5
186
  8
FUTO
 10
15539.46969435617
 20
17014.3633267716
 30
0.0
 11
15539.46969435617
 21
15806.20829943022
 31
0.0
  0
LINE
  5
187
  8
FUTO
 10
17210.469694356168
 20
14709.51794982194
 30
0.0
 11
17210.469694356168
 21
16494.537179354458
 31
0.0
  0
LINE
  5
188
  8
FUTO
 10
17201.469694356168
 20
14709.51794982194
 30
0.0
 11
17201.469694356168
 21
16542.334953650799
 31
0.0
  0
CIRCLE
  5
18B
  8
SL
 10
16370.46969435617
 20
16259.51794982194
 30
0.0
 40
250.0
  0
ARC
  5
18C
  8
KL
 10
16472.469694356168
 20
16157.51794982194
 30
0.0
 40
1309.0
 50
179.99999999999989
 51
264.84585959754298
  0
LINE
  5
19A
  8
CT
 10
19711.561107562022
 20
16378.02144678207
 30
0.0
 11
19711.561107562022
 21
16074.353786606791
 31
0.0
  0
LINE
  5
19B
  8
FUTO
 10
17220.469694356168
 20
14559.51794982194
 30
0.0
 11
14820.46969435617
 21
14559.51794982194
 31
0.0
1001
ACAD
1000
ASC_BOUNDS
1002
{
1070
    19
1005
0
1005
0
1005
0
1005
0
1005
0
1005
0
1005
0
1005
0
1005
0
1005
0
1005
0
1005
0
1005
0
1005
0
1005
0
1005
0
1005
0
1005
0
1005
0
1005
0
1005
0
1002
}
  0
LINE
  5
19C
  8
FUTO
 10
17220.469694356168
 20
14539.51794982194
 30
0.0
 11
14820.46969435617
 21
14539.51794982194
 31
0.0
1001
ACAD
1000
ASC_BOUNDS
1002
{
1070
    19
1005
0
1005
0
1005
0
1005
0
1005
0
1005
0
1005
0
1005
0
1005
0
1005
0
1005
0
1005
0
1005
0
1005
0
1005
0
1005
0
1005
0
1005
0
1005
0
1005
0
1005
0
1002
}
  0
DIMENSION
  5
276
  8
FUTO
  2
*D3
 10
14820.46969435617
 20
14150.21808985692
 30
0.0
 11
15595.46969435617
 21
14210.21808985692
 31
0.0
 70
     0
 13
16370.46969435617
 23
14362.43579877819
 33
0.0
 14
14820.46969435617
 24
14314.51794982194
 34
0.0
1001
ACAD
1000
DSTYLE
1002
{
1070
    40
1040
30.0
1070
   176
1070
     2
1070
   177
1070
     2
1070
   178
1070
     2
1070
   341
1005
44D5
1070
     5
1000
OPEN30
1002
}
  0
DIMENSION
  5
283
  8
FUTO
  2
*D4
 10
17220.469694356168
 20
13967.30077287283
 30
0.0
 11
16020.46969435617
 21
14027.30077287283
 31
0.0
 70
     0
 13
14820.46969435617
 23
14389.51794982194
 33
0.0
 14
17220.469694356168
 24
14389.51794982194
 34
0.0
1001
ACAD
1000
DSTYLE
1002
{
1070
    40
1040
30.0
1070
   176
1070
     2
1070
   177
1070
     2
1070
   178
1070
     2
1070
   341
1005
44D5
1070
     5
1000
OPEN30
1002
}
  0
LINE
  5
293
  8
FUTO
 10
15430.46969435617
 20
14784.01158523941
 30
0.0
 11
15483.67062746032
 21
14784.01158523941
 31
0.0
  0
LINE
  5
294
  8
FUTO
 10
17220.469694356168
 20
14709.51794982194
 30
0.0
 11
14820.46969435617
 21
14709.51794982194
 31
0.0
  0
LINE
  5
295
  8
FUTO
 10
17220.469694356168
 20
14389.51794982194
 30
0.0
 11
14820.46969435617
 21
14389.51794982194
 31
0.0
  0
LINE
  5
2AC
  8
FUTO
 10
15430.46969435617
 20
14709.51794982194
 30
0.0
 11
15430.46969435617
 21
14800.69838216415
 31
0.0
  0
LINE
  5
2AD
  8
FUTO
 10
15430.46969435617
 20
14709.51794982194
 30
0.0
 11
15420.461358445729
 21
14769.51794982194
 31
0.0
  0
LINE
  5
2AE
  8
FUTO
 10
14910.46969435617
 20
14709.51794982194
 30
0.0
 11
14910.46969435617
 21
14800.69838216415
 31
0.0
  0
LINE
  5
2AF
  8
FUTO
 10
14910.46969435617
 20
14709.51794982194
 30
0.0
 11
14920.478030266609
 21
14769.51794982194
 31
0.0
  0
ARC
  5
2B0
  8
FUTO
 10
15170.46969435617
 20
14969.51794982194
 30
0.0
 40
220.0
 50
142.2804601729861
 51
311.85960113309608
  0
LINE
  5
2B2
  8
FUTO
 10
14820.46969435617
 20
14539.51794982194
 30
0.0
 11
14820.46969435617
 21
14389.51794982194
 31
0.0
  0
POINT
  5
2B3
  8
DEFPOINTS
 10
14820.46969435617
 20
14559.51794982194
 30
0.0
  0
POINT
  5
2B4
  8
DEFPOINTS
 10
14820.46969435617
 20
14539.51794982194
 30
0.0
  0
POINT
  5
2B5
  8
DEFPOINTS
 10
14820.46969435617
 20
14539.51794982194
 30
0.0
  0
LINE
  5
2B6
  8
FUTO
 10
14820.46969435617
 20
14709.51794982194
 30
0.0
 11
14820.46969435617
 21
14559.51794982194
 31
0.0
  0
LINE
  5
2BD
  8
CT
 10
14967.91451835617
 20
15044.51794982194
 30
0.0
 11
14931.481168356169
 21
15044.51794982194
 31
0.0
  0
LINE
  5
2BE
  8
FUTO
 10
14950.46969435617
 20
14984.51794982194
 30
0.0
 11
14967.52316135617
 21
14984.51794982194
 31
0.0
  0
LINE
  5
2BF
  8
FUTO
 10
14950.46969435617
 20
15104.51794982194
 30
0.0
 11
15018.196012356169
 21
15104.51794982194
 31
0.0
  0
ARC
  5
2C0
  8
FUTO
 10
14942.26974335617
 20
15110.984502821941
 30
0.0
 40
8.1999940000000002
 50
0.000000000000007
 51
72.690139999999985
  0
LINE
  5
2C1
  8
FUTO
 10
14920.478030266609
 20
14769.51794982194
 30
0.0
 11
15087.13137477792
 21
14769.51794982194
 31
0.0
  0
LINE
  5
2C2
  8
FUTO
 10
14972.01472176704
 20
14784.01158523941
 30
0.0
 11
14937.200170062921
 21
14784.01158523941
 31
0.0
  0
LINE
  5
2C3
  8
FUTO
 10
14950.197721356169
 20
14970.875859821939
 30
0.0
 11
14939.79916235617
 21
14927.201787821939
 31
0.0
  0
LINE
  5
2C4
  8
FUTO
 10
14773.67709135617
 20
14936.93250082194
 30
0.0
 11
14773.67709135617
 21
15074.72498082194
 31
0.0
  0
LINE
  5
2C5
  8
FUTO
 10
14933.67709135617
 20
15154.379765821939
 30
0.0
 11
14784.92709135617
 21
14896.73718782194
 31
0.0
  0
LINE
  5
2C6
  8
FUTO
 10
14939.21969435617
 20
15151.17981482194
 30
0.0
 11
14790.46969435617
 21
14893.53723682194
 31
0.0
  0
LINE
  5
2C7
  8
FUTO
 10
14927.46969435617
 20
14889.51794982194
 30
0.0
 11
14807.46969435617
 21
14889.51794982194
 31
0.0
  0
LINE
  5
2C8
  8
FUTO
 10
14930.071134356171
 20
14919.51794982194
 30
0.0
 11
14805.46969435617
 21
14919.51794982194
 31
0.0
  0
ARC
  5
2C9
  8
FUTO
 10
14796.944792356169
 20
14921.552617821941
 30
0.0
 40
2.0000450000000001
 50
330.00181599999991
 51
72.686446999999987
  0
LINE
  5
2CA
  8
FUTO
 10
14779.43722335617
 20
14929.10388682194
 30
0.0
 11
14797.54000635617
 21
14923.46204182194
 31
0.0
  0
LINE
  5
2CB
  8
FUTO
 10
14784.92709135617
 20
14896.73718782194
 30
0.0
 11
14790.46969435617
 21
14893.53723682194
 31
0.0
  0
LINE
  5
2CC
  8
FUTO
 10
14807.46969435617
 20
14889.51794982194
 30
0.0
 11
14807.46969435617
 21
14919.51794982194
 31
0.0
  0
ARC
  5
2CD
  8
FUTO
 10
14781.877165356171
 20
14936.93250082194
 30
0.0
 40
8.2000299999999982
 50
180.0
 51
252.6893309999999
  0
LINE
  5
2CE
  8
FUTO
 10
14927.46969435617
 20
14889.51794982194
 30
0.0
 11
14927.46969435617
 21
14919.51794982194
 31
0.0
  0
LINE
  5
2CF
  8
FUTO
 10
14897.46969435617
 20
14889.51794982194
 30
0.0
 11
14897.46969435617
 21
14919.51794982194
 31
0.0
  0
LINE
  5
2D0
  8
FUTO
 10
14894.46969435617
 20
14889.51794982194
 30
0.0
 11
14894.46969435617
 21
14919.51794982194
 31
0.0
  0
ARC
  5
2D1
  8
FUTO
 10
14930.071134356171
 20
14929.51794982194
 30
0.0
 40
9.9999559999999992
 50
270.0
 51
346.60769699999992
  0
LINE
  5
2D2
  8
CT
 10
14867.46969435617
 20
14933.60095782194
 30
0.0
 11
14867.46969435617
 21
14881.37952182194
 31
0.0
  0
LINE
  5
2D3
  8
FUTO
 10
14837.46969435617
 20
14889.51794982194
 30
0.0
 11
14837.46969435617
 21
14919.51794982194
 31
0.0
  0
LINE
  5
2D4
  8
FUTO
 10
14840.46969435617
 20
14889.51794982194
 30
0.0
 11
14840.46969435617
 21
14919.51794982194
 31
0.0
  0
LINE
  5
2D5
  8
FUTO
 10
14910.46969435617
 20
14784.01158523941
 30
0.0
 11
14857.268761252029
 21
14784.01158523941
 31
0.0
  0
LINE
  5
2D6
  8
FUTO
 10
14857.268761252029
 20
14791.46738066762
 30
0.0
 11
14848.387521113211
 21
14791.46738066762
 31
0.0
  0
LINE
  5
2D7
  8
FUTO
 10
14857.268761252029
 20
14777.26585575412
 30
0.0
 11
14857.268761252029
 21
14791.46738066762
 31
0.0
  0
LINE
  5
2D8
  8
FUTO
 10
14848.03227026985
 20
14777.26585575412
 30
0.0
 11
14857.268761252029
 21
14777.26585575412
 31
0.0
  0
LINE
  5
2D9
  8
FUTO
 10
14848.03227026985
 20
14791.11234769616
 30
0.0
 11
14848.03227026985
 21
14777.26585575412
 31
0.0
  0
LINE
  5
2DA
  8
FUTO
 10
14937.200170062921
 20
14800.69838216415
 30
0.0
 11
14937.200170062921
 21
14769.51794982194
 31
0.0
  0
LINE
  5
2DB
  8
FUTO
 10
14910.46969435617
 20
14800.69838216415
 30
0.0
 11
14937.200170062921
 21
14800.69838216415
 31
0.0
  0
LINE
  5
2DC
  8
FUTO
 10
14794.07577335617
 20
15128.39905282194
 30
0.0
 11
14918.67709135617
 21
15128.39905282194
 31
0.0
  0
ARC
  5
2DD
  8
FUTO
 10
14794.07577335617
 20
15118.39905282194
 30
0.0
 40
10.000075000000001
 50
90.0
 51
166.60785899999991
  0
ARC
  5
2DE
  8
FUTO
 10
14783.677824356169
 20
15074.72473682194
 30
0.0
 40
10.000731999999999
 50
166.60730699999991
 51
179.99860099999989
  0
LINE
  5
2DF
  8
FUTO
 10
14784.347624356171
 20
15120.71521582194
 30
0.0
 11
14773.949064356169
 21
15077.04114282194
 31
0.0
  0
LINE
  5
2E0
  8
FUTO
 10
14933.67709135617
 20
15154.379765821939
 30
0.0
 11
14939.21969435617
 21
15151.17981482194
 31
0.0
  0
ARC
  5
2E1
  8
FUTO
 10
14927.20199435617
 20
15126.36438482194
 30
0.0
 40
2.000008999999999
 50
150.00006899999991
 51
252.68978899999999
  0
LINE
  5
2E2
  8
FUTO
 10
14926.60690135617
 20
15124.454961821941
 30
0.0
 11
14944.709562356171
 21
15118.81311582194
 31
0.0
  0
ARC
  5
2E3
  8
FUTO
 10
14940.46969435617
 20
14973.19202182194
 30
0.0
 40
10.0
 50
346.60769699999992
 51
0.000000000000007
  0
LINE
  5
2E4
  8
FUTO
 10
14950.46969435617
 20
14973.19202182194
 30
0.0
 11
14950.46969435617
 21
15110.984502821941
 31
0.0
  0
LINE
  5
2E5
  8
FUTO
 10
15176.71969435617
 20
15183.16492282195
 30
0.0
 11
15176.71969435617
 21
15233.26794982194
 31
0.0
  0
LINE
  5
2E6
  8
FUTO
 10
15164.21969435617
 20
15183.16492282195
 30
0.0
 11
15164.21969435617
 21
15233.26794982194
 31
0.0
  0
LINE
  5
2E7
  8
CT
 10
15170.46969435617
 20
15245.83704182194
 30
0.0
 11
15170.46969435617
 21
14765.81311582194
 31
0.0
  0
CIRCLE
  5
2E8
  8
FUTO
 10
15170.46969435617
 20
14969.51794982194
 30
0.0
 40
40.0
  0
LINE
  5
2E9
  8
FUTO
 10
15115.731657356169
 20
14773.51794982194
 30
0.0
 11
15225.207731356169
 21
14773.51794982194
 31
0.0
  0
LINE
  5
2EA
  8
CT
 10
15385.30880535617
 20
14969.51794982194
 30
0.0
 11
14956.478605356169
 21
14969.51794982194
 31
0.0
  0
LINE
  5
2EB
  8
CT
 10
15357.96969435617
 20
14969.51794982194
 30
0.0
 11
14970.43473701005
 21
14969.51794982194
 31
0.0
  0
CIRCLE
  5
2EC
  8
SL
 10
15170.46969435617
 20
14969.51794982194
 30
0.0
 40
106.0
  0
LINE
  5
2ED
  8
FUTO
 10
15253.80801393442
 20
14760.04160526034
 30
0.0
 11
15170.45691346865
 21
14760.04160526034
 31
0.0
  0
ARC
  5
2EE
  8
FUTO
 10
15170.46969435617
 20
14969.51794982194
 30
0.0
 40
203.5
 50
285.60372899999987
 51
254.39624000000001
  0
CIRCLE
  5
2EF
  8
FUTO
 10
15170.46969435617
 20
14969.51794982194
 30
0.0
 40
7.5
  0
LINE
  5
2F0
  8
CT
 10
15170.46969435617
 20
14757.01794982194
 30
0.0
 11
15170.46969435617
 21
15172.64095517249
 31
0.0
  0
LINE
  5
2F1
  8
FUTO
 10
15019.55563135617
 20
14832.999638821941
 30
0.0
 11
15014.75753635617
 21
14828.96521582194
 31
0.0
  0
LINE
  5
2F2
  8
FUTO
 10
15017.960905356171
 20
14827.05017582194
 30
0.0
 11
15021.552946356171
 21
14830.64221682194
 31
0.0
  0
LINE
  5
2F3
  8
FUTO
 10
15017.960905356171
 20
14826.201543821941
 30
0.0
 11
15017.960905356171
 21
14827.05017582194
 31
0.0
  0
LINE
  5
2F4
  8
FUTO
 10
15020.24825835617
 20
14824.762578821939
 30
0.0
 11
15019.399626356169
 21
14824.762578821939
 31
0.0
  0
LINE
  5
2F5
  8
FUTO
 10
15020.24825835617
 20
14824.762578821939
 30
0.0
 11
15020.24825835617
 21
14823.91418982194
 31
0.0
  0
ARC
  5
2F6
  8
FUTO
 10
15017.97530935617
 20
14825.13831082194
 30
0.0
 40
5.0000339999999994
 50
130.05810899999989
 51
223.436035
  0
LINE
  5
2F7
  8
FUTO
 10
15028.00192035617
 20
14817.009160821941
 30
0.0
 11
15031.59396135617
 21
14820.601201821941
 31
0.0
  0
LINE
  5
2F8
  8
FUTO
 10
15028.00192035617
 20
14817.009160821941
 30
0.0
 11
15027.15328835617
 21
14817.009160821941
 31
0.0
  0
LINE
  5
2F9
  8
FUTO
 10
15025.71456735617
 20
14819.296513821941
 30
0.0
 11
15025.71456735617
 21
14818.44788182194
 31
0.0
  0
LINE
  5
2FA
  8
FUTO
 10
15025.71456735617
 20
14819.296513821941
 30
0.0
 11
15029.30660835617
 21
14822.88855482194
 31
0.0
  0
LINE
  5
2FB
  8
FUTO
 10
15025.71456735617
 20
14819.296513821941
 30
0.0
 11
15024.86593435617
 21
14819.296513821941
 31
0.0
  0
LINE
  5
2FC
  8
FUTO
 10
15021.552946356171
 20
14830.64221682194
 30
0.0
 11
15031.59396135617
 21
14820.601201821941
 31
0.0
  0
LINE
  5
2FD
  8
CT
 10
15022.02877635617
 20
14821.07703182194
 30
0.0
 11
15027.276823356169
 21
14826.325078821939
 31
0.0
  0
LINE
  5
2FE
  8
FUTO
 10
15017.960905356171
 20
14826.201543821941
 30
0.0
 11
15027.15328835617
 21
14817.009160821941
 31
0.0
  0
LINE
  5
2FF
  8
FUTO
 10
15020.24825835617
 20
14824.762578821939
 30
0.0
 11
15023.84029935617
 21
14828.35486382194
 31
0.0
  0
LINE
  5
300
  8
FUTO
 10
15044.283415356171
 20
14789.51794982194
 30
0.0
 11
15048.80477735617
 21
14806.392461821941
 31
0.0
  0
LINE
  5
301
  8
FUTO
 10
15048.80489935617
 20
14806.392461821941
 30
0.0
 11
15044.283415356171
 21
14789.51794982194
 31
0.0
  0
ARC
  5
302
  8
FUTO
 10
15042.68502635617
 20
14802.87146582194
 30
0.0
 40
5.0
 50
232.51797499999989
 51
344.99883999999997
  0
ARC
  5
303
  8
FUTO
 10
15170.46969435617
 20
14969.51794982194
 30
0.0
 40
214.9999849999999
 50
223.434326
 51
232.5189509999999
  0
ARC
  5
304
  8
FUTO
 10
15057.96969435617
 20
14786.51794982194
 30
0.0
 40
3.0
 50
0.000000000000007
 51
90.0
  0
LINE
  5
305
  8
FUTO
 10
15020.71969435617
 20
14781.51794982194
 30
0.0
 11
15020.71969435617
 21
14777.51794982194
 31
0.0
  0
LINE
  5
306
  8
FUTO
 10
15020.71969435617
 20
14773.51794982194
 30
0.0
 11
15020.71969435617
 21
14769.51794982194
 31
0.0
  0
LINE
  5
307
  8
FUTO
 10
15060.96969435617
 20
14786.51794982194
 30
0.0
 11
15060.96969435617
 21
14769.51794982194
 31
0.0
  0
LINE
  5
308
  8
FUTO
 10
15060.96969435617
 20
14774.51794982194
 30
0.0
 11
15066.64474335617
 21
14795.69812582194
 31
0.0
  0
LINE
  5
309
  8
CT
 10
15011.46969435617
 20
14793.941777821939
 30
0.0
 11
15011.46969435617
 21
14764.82605482194
 31
0.0
  0
LINE
  5
30A
  8
FUTO
 10
15020.71969435617
 20
14789.51794982194
 30
0.0
 11
15020.71969435617
 21
14785.51794982194
 31
0.0
  0
ARC
  5
30B
  8
FUTO
 10
14986.46969435617
 20
14843.84460982195
 30
0.0
 40
5.0
 50
124.94366100000001
 51
180.0
  0
ARC
  5
30C
  8
FUTO
 10
14984.46969435617
 20
14786.51794982194
 30
0.0
 40
3.0
 50
90.0
 51
180.0
  0
LINE
  5
30D
  8
FUTO
 10
15002.21969435617
 20
14781.51794982194
 30
0.0
 11
15002.21969435617
 21
14777.51794982194
 31
0.0
  0
LINE
  5
30E
  8
FUTO
 10
15002.21969435617
 20
14773.51794982194
 30
0.0
 11
15002.21969435617
 21
14769.51794982194
 31
0.0
  0
LINE
  5
30F
  8
FUTO
 10
15002.21969435617
 20
14789.51794982194
 30
0.0
 11
15002.21969435617
 21
14785.51794982194
 31
0.0
  0
LINE
  5
310
  8
FUTO
 10
14981.46969435617
 20
14843.84460982195
 30
0.0
 11
14981.46969435617
 21
14769.51794982194
 31
0.0
  0
LINE
  5
311
  8
FUTO
 10
14981.46969435617
 20
14769.51794982194
 30
0.0
 11
15060.96969435617
 21
14769.51794982194
 31
0.0
  0
LINE
  5
312
  8
FUTO
 10
15057.96969435617
 20
14789.51794982194
 30
0.0
 11
14984.46969435617
 21
14789.51794982194
 31
0.0
  0
LINE
  5
313
  8
FUTO
 10
14983.605802356171
 20
14847.943242821941
 30
0.0
 11
14999.543668356169
 21
14859.07971682194
 31
0.0
  0
LINE
  5
314
  8
FUTO
 10
15087.13137477792
 20
14769.51794982194
 30
0.0
 11
15087.13137477792
 21
14760.04160526034
 31
0.0
  0
LINE
  5
315
  8
FUTO
 10
15087.13137477792
 20
14760.04160526034
 30
0.0
 11
15170.4824752437
 21
14760.04160526034
 31
0.0
  0
LINE
  5
316
  8
FUTO
 10
15027.15328835617
 20
15122.02673882194
 30
0.0
 11
15028.00179835617
 21
15122.02673882194
 31
0.0
  0
LINE
  5
317
  8
FUTO
 10
15025.71444535617
 20
15119.73938482194
 30
0.0
 11
15025.71444535617
 21
15120.58801782194
 31
0.0
  0
LINE
  5
318
  8
FUTO
 10
15025.71444535617
 20
15119.73938482194
 30
0.0
 11
15024.86593435617
 21
15119.73938482194
 31
0.0
  0
LINE
  5
319
  8
FUTO
 10
15028.00179835617
 20
15122.02673882194
 30
0.0
 11
15031.59396135617
 21
15118.43469782194
 31
0.0
  0
LINE
  5
31A
  8
FUTO
 10
15017.960905356171
 20
15111.985722821941
 30
0.0
 11
15017.960905356171
 21
15112.83435582194
 31
0.0
  0
LINE
  5
31B
  8
FUTO
 10
15020.24825835617
 20
15114.273076821941
 30
0.0
 11
15019.399626356169
 21
15114.273076821941
 31
0.0
  0
LINE
  5
31C
  8
FUTO
 10
15020.24825835617
 20
15114.273076821941
 30
0.0
 11
15020.24825835617
 21
15115.12170982194
 31
0.0
  0
LINE
  5
31D
  8
FUTO
 10
15020.24825835617
 20
15114.273076821941
 30
0.0
 11
15023.84029935617
 21
15110.681035821941
 31
0.0
  0
LINE
  5
31E
  8
FUTO
 10
15025.71444535617
 20
15119.73938482194
 30
0.0
 11
15029.30660835617
 21
15116.14734382194
 31
0.0
  0
LINE
  5
31F
  8
FUTO
 10
15022.028654356171
 20
15117.958867821941
 30
0.0
 11
15027.276823356169
 21
15112.71082082194
 31
0.0
  0
LINE
  5
320
  8
FUTO
 10
15027.15328835617
 20
15122.02673882194
 30
0.0
 11
15017.960905356171
 21
15112.83435582194
 31
0.0
  0
LINE
  5
321
  8
FUTO
 10
14960.46969435617
 20
14984.51794982194
 30
0.0
 11
14960.46969435617
 21
15104.51794982194
 31
0.0
  0
LINE
  5
322
  8
FUTO
 10
15017.960905356171
 20
15111.985722821941
 30
0.0
 11
15021.552946356171
 21
15108.393681821941
 31
0.0
  0
LINE
  5
323
  8
FUTO
 10
15031.59396135617
 20
15118.43469782194
 30
0.0
 11
15021.552946356171
 21
15108.393681821941
 31
0.0
  0
ARC
  5
324
  8
FUTO
 10
15157.46969435617
 20
15188.707890821939
 30
0.0
 40
2.0
 50
95.710936999999987
 51
180.0
  0
LINE
  5
325
  8
FUTO
 10
15164.01260235617
 20
15191.37219782194
 30
0.0
 11
15157.27065835617
 21
15190.69812582194
 31
0.0
  0
ARC
  5
326
  8
FUTO
 10
15183.46969435617
 20
15188.707890821939
 30
0.0
 40
2.0001619999999991
 50
0.000000000000007
 51
84.289062000000015
  0
LINE
  5
327
  8
FUTO
 10
15176.569792356169
 20
15191.40784182194
 30
0.0
 11
15183.66873035617
 21
15190.69812582194
 31
0.0
  0
ARC
  5
328
  8
FUTO
 10
15170.46969435617
 20
14969.51794982194
 30
0.0
 40
210.0001069999999
 50
93.733031999999994
 51
93.767013999999989
  0
ARC
  5
329
  8
FUTO
 10
15156.86996235617
 20
15176.070683821939
 30
0.0
 40
2.999933
 50
93.767708000000013
 51
182.55609100000001
  0
ARC
  5
32A
  8
FUTO
 10
15156.99239935617
 20
15176.07874082194
 30
0.0
 40
3.0000169999999988
 50
4.9438930000000036
 51
93.732810999999941
  0
LINE
  5
32B
  8
FUTO
 10
15153.87301435617
 20
15175.93689482194
 30
0.0
 11
15154.032926356171
 21
15172.35315482194
 31
0.0
  0
LINE
  5
32C
  8
FUTO
 10
15159.981291356169
 20
15176.337285821941
 30
0.0
 11
15160.290373356171
 21
15172.76331082194
 31
0.0
  0
LINE
  5
32D
  8
FUTO
 10
15180.95797535617
 20
15176.337285821941
 30
0.0
 11
15180.64889335617
 21
15172.76331082194
 31
0.0
  0
ARC
  5
32E
  8
FUTO
 10
15170.46969435617
 20
14969.51794982194
 30
0.0
 40
210.0
 50
86.233025000000026
 51
86.267029000000036
  0
ARC
  5
32F
  8
FUTO
 10
15184.069303356169
 20
15176.070683821939
 30
0.0
 40
3.0001370000000001
 50
357.44401599999992
 51
86.232291999999987
  0
LINE
  5
330
  8
FUTO
 10
15187.066374356171
 20
15175.93689482194
 30
0.0
 11
15186.90633935617
 21
15172.35315482194
 31
0.0
  0
ARC
  5
331
  8
FUTO
 10
15183.94686735617
 20
15176.07874082194
 30
0.0
 40
3.000052999999999
 50
86.267188999999973
 51
175.0561099999999
  0
LINE
  5
332
  8
FUTO
 10
15182.96969435617
 20
15179.51794982194
 30
0.0
 11
15157.96969435617
 21
15179.51794982194
 31
0.0
  0
LINE
  5
333
  8
FUTO
 10
15185.46969435617
 20
15179.51794982194
 30
0.0
 11
15155.46969435617
 21
15179.51794982194
 31
0.0
  0
LINE
  5
334
  8
FUTO
 10
15185.46969435617
 20
15179.51794982194
 30
0.0
 11
15185.46969435617
 21
15188.707890821939
 31
0.0
  0
LINE
  5
335
  8
FUTO
 10
15155.46969435617
 20
15179.51794982194
 30
0.0
 11
15155.46969435617
 21
15188.707890821939
 31
0.0
  0
ARC
  5
336
  8
FUTO
 10
15178.71969435617
 20
15183.16492282195
 30
0.0
 40
2.0
 50
180.0
 51
270.0
  0
ARC
  5
337
  8
FUTO
 10
15162.21969435617
 20
15183.16492282195
 30
0.0
 40
2.0
 50
270.0
 51
0.000000000000007
  0
LINE
  5
338
  8
FUTO
 10
15359.46969435617
 20
14769.51794982194
 30
0.0
 11
15279.96969435617
 21
14769.51794982194
 31
0.0
  0
LINE
  5
339
  8
FUTO
 10
15282.96969435617
 20
14789.51794982194
 30
0.0
 11
15356.46969435617
 21
14789.51794982194
 31
0.0
  0
LINE
  5
33A
  8
FUTO
 10
15309.345426356171
 20
14820.601201821941
 30
0.0
 11
15319.38644235617
 21
14830.64221682194
 31
0.0
  0
LINE
  5
33B
  8
FUTO
 10
15312.937467356171
 20
14817.009160821941
 30
0.0
 11
15309.345426356171
 21
14820.601201821941
 31
0.0
  0
ARC
  5
33C
  8
FUTO
 10
15170.46969435617
 20
14969.51794982194
 30
0.0
 40
214.9999849999999
 50
307.48103299999991
 51
316.565674
  0
LINE
  5
33D
  8
FUTO
 10
15420.461358445729
 20
14769.51794982194
 30
0.0
 11
15253.80801393442
 21
14769.51794982194
 31
0.0
  0
LINE
  5
33E
  8
FUTO
 10
15332.46969435617
 20
14769.51794982194
 30
0.0
 11
15272.46969435617
 21
14769.51794982194
 31
0.0
  0
LINE
  5
33F
  8
FUTO
 10
15292.134489356171
 20
14806.392461821941
 30
0.0
 11
15296.65597335617
 21
14789.51794982194
 31
0.0
  0
ARC
  5
340
  8
FUTO
 10
15298.254362356171
 20
14802.87146582194
 30
0.0
 40
5.0
 50
195.00097699999989
 51
307.48147599999987
  0
ARC
  5
341
  8
FUTO
 10
15282.96969435617
 20
14786.51794982194
 30
0.0
 40
3.0
 50
90.0
 51
180.0
  0
LINE
  5
342
  8
FUTO
 10
15279.96969435617
 20
14786.51794982194
 30
0.0
 11
15279.96969435617
 21
14769.51794982194
 31
0.0
  0
LINE
  5
343
  8
FUTO
 10
15279.96969435617
 20
14774.51794982194
 30
0.0
 11
15274.29440135617
 21
14795.69812582194
 31
0.0
  0
LINE
  5
344
  8
FUTO
 10
15253.80801393442
 20
14769.51794982194
 30
0.0
 11
15253.80801393442
 21
14760.04160526034
 31
0.0
  0
LINE
  5
345
  8
FUTO
 10
15338.71969435617
 20
14781.51794982194
 30
0.0
 11
15338.71969435617
 21
14777.51794982194
 31
0.0
  0
LINE
  5
346
  8
FUTO
 10
15338.71969435617
 20
14773.51794982194
 30
0.0
 11
15338.71969435617
 21
14769.51794982194
 31
0.0
  0
LINE
  5
347
  8
FUTO
 10
15338.71969435617
 20
14789.51794982194
 30
0.0
 11
15338.71969435617
 21
14785.51794982194
 31
0.0
  0
ARC
  5
348
  8
FUTO
 10
15354.46969435617
 20
14843.84460982195
 30
0.0
 40
5.0000669999999987
 50
0.000000000000007
 51
55.056334999999997
  0
ARC
  5
349
  8
FUTO
 10
15356.46969435617
 20
14786.51794982194
 30
0.0
 40
3.0
 50
0.000000000000007
 51
90.0
  0
LINE
  5
34A
  8
FUTO
 10
15359.46969435617
 20
14843.84460982195
 30
0.0
 11
15359.46969435617
 21
14769.51794982194
 31
0.0
  0
LINE
  5
34B
  8
FUTO
 10
15322.97848335617
 20
14827.05017582194
 30
0.0
 11
15319.38644235617
 21
14830.64221682194
 31
0.0
  0
LINE
  5
34C
  8
FUTO
 10
15322.97848335617
 20
14827.05017582194
 30
0.0
 11
15322.97848335617
 21
14826.201543821941
 31
0.0
  0
LINE
  5
34D
  8
FUTO
 10
15320.69112935617
 20
14824.76282282194
 30
0.0
 11
15321.539762356169
 21
14824.76282282194
 31
0.0
  0
LINE
  5
34E
  8
FUTO
 10
15320.69112935617
 20
14824.76282282194
 30
0.0
 11
15317.09908835617
 21
14828.35486382194
 31
0.0
  0
LINE
  5
34F
  8
FUTO
 10
15320.69112935617
 20
14824.76282282194
 30
0.0
 11
15320.69112935617
 21
14823.91418982194
 31
0.0
  0
LINE
  5
350
  8
FUTO
 10
15321.383512356169
 20
14832.999638821941
 30
0.0
 11
15326.181730356169
 21
14828.96521582194
 31
0.0
  0
LINE
  5
351
  8
FUTO
 10
15313.78610035617
 20
14817.009160821941
 30
0.0
 11
15312.937467356171
 21
14817.009160821941
 31
0.0
  0
LINE
  5
352
  8
FUTO
 10
15315.22506535617
 20
14819.296513821941
 30
0.0
 11
15315.22506535617
 21
14818.44788182194
 31
0.0
  0
LINE
  5
353
  8
FUTO
 10
15315.22506535617
 20
14819.296513821941
 30
0.0
 11
15311.632780356171
 21
14822.88855482194
 31
0.0
  0
LINE
  5
354
  8
FUTO
 10
15315.22506535617
 20
14819.296513821941
 30
0.0
 11
15316.07345435617
 21
14819.296513821941
 31
0.0
  0
ARC
  5
355
  8
FUTO
 10
15322.96383535617
 20
14825.13831082194
 30
0.0
 40
5.0000049999999998
 50
316.56494099999998
 51
49.94082599999998
  0
LINE
  5
356
  8
CT
 10
15318.910612356171
 20
14821.07703182194
 30
0.0
 11
15313.66256535617
 21
14826.325078821939
 31
0.0
  0
LINE
  5
357
  8
FUTO
 10
15313.78610035617
 20
14817.009160821941
 30
0.0
 11
15322.97848335617
 21
14826.201543821941
 31
0.0
  0
LINE
  5
358
  8
FUTO
 10
15320.21969435617
 20
14781.51794982194
 30
0.0
 11
15320.21969435617
 21
14777.51794982194
 31
0.0
  0
LINE
  5
359
  8
FUTO
 10
15320.21969435617
 20
14773.51794982194
 30
0.0
 11
15320.21969435617
 21
14769.51794982194
 31
0.0
  0
LINE
  5
35A
  8
CT
 10
15329.46969435617
 20
14793.941777821939
 30
0.0
 11
15329.46969435617
 21
14764.82605482194
 31
0.0
  0
LINE
  5
35B
  8
FUTO
 10
15320.21969435617
 20
14789.51794982194
 30
0.0
 11
15320.21969435617
 21
14785.51794982194
 31
0.0
  0
LINE
  5
35C
  8
FUTO
 10
15430.46969435617
 20
14800.69838216415
 30
0.0
 11
15403.739218649431
 21
14800.69838216415
 31
0.0
  0
LINE
  5
35D
  8
FUTO
 10
15368.9246669453
 20
14784.01158523941
 30
0.0
 11
15403.739218649431
 21
14784.01158523941
 31
0.0
  0
LINE
  5
35E
  8
FUTO
 10
15403.739218649431
 20
14800.69838216415
 30
0.0
 11
15403.739218649431
 21
14769.51794982194
 31
0.0
  0
LINE
  5
35F
  8
FUTO
 10
15357.33346335617
 20
14847.943242821941
 30
0.0
 11
15341.39559735617
 21
14859.07971682194
 31
0.0
  0
LINE
  5
360
  8
FUTO
 10
15312.937467356171
 20
15122.02673882194
 30
0.0
 11
15309.345426356171
 21
15118.43469782194
 31
0.0
  0
LINE
  5
361
  8
FUTO
 10
15319.38644235617
 20
15108.393681821941
 30
0.0
 11
15309.345426356171
 21
15118.43469782194
 31
0.0
  0
ARC
  5
362
  8
FUTO
 10
15170.46969435617
 20
14969.51794982194
 30
0.0
 40
210.00004599999991
 50
48.733032000000009
 51
48.767014000000003
  0
ARC
  5
363
  8
FUTO
 10
15307.000334356169
 20
15125.10828182194
 30
0.0
 40
2.9999169999999991
 50
319.94339000000002
 51
48.733367999999977
  0
ARC
  5
364
  8
FUTO
 10
15306.90817035617
 20
15125.189336821941
 30
0.0
 40
2.999909999999999
 50
48.768021000000012
 51
137.5594439999999
  0
LINE
  5
365
  8
FUTO
 10
15309.29659835617
 20
15123.177617821941
 30
0.0
 11
15306.98788235617
 21
15120.43176782194
 31
0.0
  0
LINE
  5
366
  8
FUTO
 10
15304.694303356169
 20
15127.21375082194
 30
0.0
 11
15302.27316135617
 21
15124.566533821941
 31
0.0
  0
LINE
  5
367
  8
FUTO
 10
15312.937467356171
 20
15122.02673882194
 30
0.0
 11
15313.78610035617
 21
15122.02673882194
 31
0.0
  0
LINE
  5
368
  8
FUTO
 10
15315.224821356171
 20
15119.73938482194
 30
0.0
 11
15315.224821356171
 21
15120.58801782194
 31
0.0
  0
LINE
  5
369
  8
FUTO
 10
15315.224821356171
 20
15119.73938482194
 30
0.0
 11
15316.07345435617
 21
15119.73938482194
 31
0.0
  0
LINE
  5
36A
  8
FUTO
 10
15322.97848335617
 20
15112.83435582194
 30
0.0
 11
15322.97848335617
 21
15111.985722821941
 31
0.0
  0
LINE
  5
36B
  8
FUTO
 10
15320.69112935617
 20
15114.27332082194
 30
0.0
 11
15321.539762356169
 21
15114.27332082194
 31
0.0
  0
LINE
  5
36C
  8
FUTO
 10
15320.69112935617
 20
15114.27332082194
 30
0.0
 11
15317.09908835617
 21
15110.681035821941
 31
0.0
  0
LINE
  5
36D
  8
FUTO
 10
15320.69112935617
 20
15114.27332082194
 30
0.0
 11
15320.69112935617
 21
15115.12170982194
 31
0.0
  0
LINE
  5
36E
  8
FUTO
 10
15318.910612356171
 20
15117.958867821941
 30
0.0
 11
15313.66256535617
 21
15112.71082082194
 31
0.0
  0
LINE
  5
36F
  8
FUTO
 10
15322.97848335617
 20
15112.83435582194
 30
0.0
 11
15313.78610035617
 21
15122.02673882194
 31
0.0
  0
LINE
  5
370
  8
FUTO
 10
15315.224821356171
 20
15119.73938482194
 30
0.0
 11
15311.632780356171
 21
15116.14734382194
 31
0.0
  0
ARC
  5
371
  8
FUTO
 10
15170.46969435617
 20
14969.51794982194
 30
0.0
 40
210.0
 50
41.233032000000009
 51
41.267029000000008
  0
ARC
  5
372
  8
FUTO
 10
15326.06002635617
 20
15106.048711821941
 30
0.0
 40
2.9999560000000001
 50
41.268387000000018
 51
130.05810899999989
  0
LINE
  5
373
  8
FUTO
 10
15328.16549535617
 20
15103.742558821939
 30
0.0
 11
15325.518156356169
 21
15101.321660821941
 31
0.0
  0
ARC
  5
374
  8
FUTO
 10
15326.14083635617
 20
15105.95642582194
 30
0.0
 40
2.9999500000000001
 50
312.44400000000002
 51
41.231979000000003
  0
LINE
  5
375
  8
FUTO
 10
15324.129362356171
 20
15108.34485382194
 30
0.0
 11
15321.383512356169
 21
15106.03625982194
 31
0.0
  0
LINE
  5
376
  8
FUTO
 10
15322.97848335617
 20
15111.985722821941
 30
0.0
 11
15319.38644235617
 21
15108.393681821941
 31
0.0
  0
ARC
  5
377
  8
FUTO
 10
15170.46969435617
 20
15233.26794982194
 30
0.0
 40
6.25
 50
0.000000000000007
 51
90.0
  0
ARC
  5
378
  8
FUTO
 10
15170.46969435617
 20
15233.26794982194
 30
0.0
 40
6.25
 50
90.0
 51
180.0
  0
ARC
  5
396
  8
KL
 10
16268.46969435617
 20
16157.51794982194
 30
0.0
 40
1105.0
 50
89.144420364569726
 51
179.99999999999989
  0
ARC
  5
397
  8
FUTO
 10
16370.46969435617
 20
16259.51794982195
 30
0.0
 40
95.000000000003084
 50
270.0
 51
290.94387397238211
  0
LINE
  5
398
  8
FUTO
 10
16460.469694356168
 20
16162.51794982194
 30
0.0
 11
16370.46969435617
 21
16162.51794982194
 31
0.0
  0
LINE
  5
399
  8
KL
 10
16672.003193959739
 20
16153.51794982194
 30
0.0
 11
16370.46969435617
 21
16153.51794982194
 31
0.0
  0
LINE
  5
39A
  8
FUTO
 10
16570.469694356168
 20
16159.51794982194
 30
0.0
 11
16170.46969435617
 21
16159.51794982194
 31
0.0
  0
DIMENSION
  5
39B
  8
FUTO
  2
*D5
 10
17220.469694356168
 20
14150.21808985692
 30
0.0
 11
16795.469694356168
 21
14210.21808985692
 31
0.0
 70
     0
 13
16370.46969435617
 23
14362.43579877819
 33
0.0
 14
17220.469694356168
 24
14314.51794982194
 34
0.0
1001
ACAD
1000
DSTYLE
1002
{
1070
    40
1040
30.0
1070
   176
1070
     2
1070
   177
1070
     2
1070
   178
1070
     2
1070
   341
1005
44D5
1070
     5
1000
OPEN30
1002
}
  0
LINE
  5
3B5
  8
FUTO
 10
15492.90711844249
 20
14791.11234769616
 30
0.0
 11
15492.90711844249
 21
14777.26585575412
 31
0.0
  0
LINE
  5
3B6
  8
FUTO
 10
15492.90711844249
 20
14777.26585575412
 30
0.0
 11
15483.67062746032
 21
14777.26585575412
 31
0.0
  0
LINE
  5
3B7
  8
FUTO
 10
15483.67062746032
 20
14777.26585575412
 30
0.0
 11
15483.67062746032
 21
14791.46738066762
 31
0.0
  0
LINE
  5
3B8
  8
FUTO
 10
15483.67062746032
 20
14791.46738066762
 30
0.0
 11
15492.55186759913
 21
14791.46738066762
 31
0.0
  0
LINE
  5
3BA
  8
KL
 10
16068.936194752599
 20
16153.51794982194
 30
0.0
 11
16370.46969435617
 21
16153.51794982194
 31
0.0
  0
LINE
  5
3BD
  8
FUTO
 10
16190.46969435617
 20
16159.51794982194
 30
0.0
 11
16280.46969435617
 21
16159.51794982194
 31
0.0
  0
LINE
  5
3BF
  8
FUTO
 10
16170.46969435617
 20
16159.51794982194
 30
0.0
 11
16170.46969435617
 21
16153.51794982194
 31
0.0
  0
ARC
  5
3C0
  8
FUTO
 10
16193.46969435617
 20
16190.51794982194
 30
0.0
 40
2.9999999999999991
 50
90.0
 51
180.0
  0
LINE
  5
3C1
  8
FUTO
 10
16190.46969435617
 20
16190.51794982194
 30
0.0
 11
16190.46969435617
 21
16159.51794982194
 31
0.0
  0
LINE
  5
3C2
  8
FUTO
 10
16259.46969435617
 20
16193.51794982194
 30
0.0
 11
16193.46969435617
 21
16193.51794982194
 31
0.0
  0
ARC
  5
3C3
  8
FUTO
 10
16370.46969435617
 20
16259.51794982194
 30
0.0
 40
94.999999999998295
 50
249.0561260276169
 51
270.0
  0
LINE
  5
3C4
  8
FUTO
 10
16280.46969435617
 20
16159.51794982194
 30
0.0
 11
16280.46969435617
 21
16162.51794982194
 31
0.0
  0
ARC
  5
3C5
  8
FUTO
 10
16322.96969435617
 20
16177.24553646242
 30
0.0
 40
14.999999999999909
 50
145.47193698619009
 51
239.99999999999909
  0
LINE
  5
3C6
  8
FUTO
 10
16280.46969435617
 20
16162.51794982194
 30
0.0
 11
16370.46969435617
 21
16162.51794982194
 31
0.0
  0
ARC
  5
3C7
  8
FUTO
 10
16322.96969435617
 20
16177.24553646242
 30
0.0
 40
15.000000000000419
 50
239.99999999999989
 51
334.52806301381298
  0
LINE
  5
3CF
  8
FUTO
 10
16870.469694356168
 20
14539.51794982194
 30
0.0
 11
16870.469694356168
 21
14389.51794982194
 31
0.0
  0
LINE
  5
3D0
  8
FUTO
 10
16870.469694356168
 20
14709.51794982194
 30
0.0
 11
16870.469694356168
 21
14559.51794982194
 31
0.0
  0
LINE
  5
3D1
  8
FUTO
 10
16977.737845010139
 20
14559.51794982194
 30
0.0
 11
16977.737845010139
 21
14539.51794982194
 31
0.0
  0
LINE
  5
3D2
  8
FUTO
 10
17017.737845010139
 20
14595.92937870555
 30
0.0
 11
17017.737845010139
 21
14496.104444741881
 31
0.0
1001
ACAD
1000
ASC_BOUNDS
1002
{
1070
    19
1005
0
1005
0
1005
0
1002
}
  0
POINT
  5
3D3
  8
DEFPOINTS
  6
BYBLOCK
 62
     0
 10
17220.469694356168
 20
14389.51794982194
 30
0.0
  0
LINE
  5
3D4
  8
FUTO
 10
17057.737845010139
 20
14559.51794982194
 30
0.0
 11
17057.737845010139
 21
14539.51794982194
 31
0.0
  0
LINE
  5
3D5
  8
FUTO
 10
17220.469694356168
 20
14539.51794982194
 30
0.0
 11
17220.469694356168
 21
14389.51794982194
 31
0.0
  0
POINT
  5
3D6
  8
DEFPOINTS
  6
BYBLOCK
 62
     0
 10
17220.469694356168
 20
14559.51794982194
 30
0.0
  0
POINT
  5
3D7
  8
DEFPOINTS
  6
BYBLOCK
 62
     0
 10
17220.469694356168
 20
14539.51794982194
 30
0.0
  0
POINT
  5
3D8
  8
DEFPOINTS
  6
BYBLOCK
 62
     0
 10
17220.469694356168
 20
14539.51794982194
 30
0.0
  0
LINE
  5
3D9
  8
FUTO
 10
17220.469694356168
 20
14709.51794982194
 30
0.0
 11
17220.469694356168
 21
14559.51794982194
 31
0.0
  0
LINE
  5
3DD
  8
FUTO
 10
16481.469694356168
 20
16193.51794982194
 30
0.0
 11
16547.469694356168
 21
16193.51794982194
 31
0.0
  0
LINE
  5
3DE
  8
FUTO
 10
16550.469694356168
 20
16159.51794982194
 30
0.0
 11
16460.469694356168
 21
16159.51794982194
 31
0.0
  0
LINE
  5
3E0
  8
FUTO
 10
16460.469694356168
 20
16159.51794982194
 30
0.0
 11
16460.469694356168
 21
16162.51794982194
 31
0.0
  0
ARC
  5
3E1
  8
FUTO
 10
16417.969694356168
 20
16177.24553646242
 30
0.0
 40
14.99999999999998
 50
299.99999999999932
 51
34.52806301380803
  0
ARC
  5
3E2
  8
FUTO
 10
16417.969694356168
 20
16177.24553646242
 30
0.0
 40
14.99999999999978
 50
205.47193698618671
 51
300.00000000000011
  0
LINE
  5
3E3
  8
FUTO
 10
16570.469694356168
 20
16159.51794982194
 30
0.0
 11
16570.469694356168
 21
16153.51794982194
 31
0.0
  0
ARC
  5
3E5
  8
FUTO
 10
16547.469694356168
 20
16190.51794982194
 30
0.0
 40
2.9999999999999991
 50
0.000000000000007
 51
90.0
  0
LINE
  5
3E6
  8
FUTO
 10
16550.469694356168
 20
16190.51794982194
 30
0.0
 11
16550.469694356168
 21
16159.51794982194
 31
0.0
  0
INSERT
  5
3E8
  8
FUTO
  2
K150-75
 10
18863.561107562022
 20
14709.51794982194
 30
0.0
 50
180.0
1001
ACAD
1000
ASC_BOUNDS
1002
{
1070
    19
1005
3975
1002
}
  0
LINE
  5
405
  8
SL
 10
18819.46110756202
 20
16179.51794982194
 30
0.0
 11
18841.561107562022
 21
16179.51794982194
 31
0.0
  0
LINE
  5
406
  8
CT
 10
18594.604378041309
 20
14969.51794982194
 30
0.0
 11
18897.42306115276
 21
14969.51794982194
 31
0.0
  0
LINE
  5
407
  8
FUTO
 10
18631.561107562022
 20
14749.51794982194
 30
0.0
 11
18886.561107562022
 21
14749.51794982195
 31
0.0
  0
LINE
  5
408
  8
SL
 10
18819.46110756202
 20
14909.51794982194
 30
0.0
 11
18834.561107562022
 21
14909.51794982194
 31
0.0
  0
LINE
  5
409
  8
SL
 10
18819.46110756202
 20
15029.51794982194
 30
0.0
 11
18834.561107562022
 21
15029.51794982194
 31
0.0
  0
LINE
  5
40D
  8
FUTO
 10
18858.561107562022
 20
14559.51794982194
 30
0.0
 11
18858.561107562022
 21
14539.51794982194
 31
0.0
1001
ACAD
1000
ASC_BOUNDS
1002
{
1070
    19
1005
3975
1002
}
  0
LINE
  5
40E
  8
SL
 10
18741.561107562022
 20
14863.51794982194
 30
0.0
 11
18819.46110756202
 21
14863.51794982194
 31
0.0
  0
LINE
  5
40F
  8
SL
 10
18741.561107562022
 20
15075.51794982194
 30
0.0
 11
18819.46110756202
 21
15075.51794982194
 31
0.0
  0
LINE
  5
410
  8
SL
 10
18741.561107562022
 20
16009.51794982194
 30
0.0
 11
18819.46110756202
 21
16009.51794982194
 31
0.0
  0
LINE
  5
415
  8
CT
 10
18898.561107562022
 20
14579.41012642094
 30
0.0
 11
18898.561107562022
 21
14522.626456479171
 31
0.0
1001
ACAD
1000
ASC_BOUNDS
1002
{
1070
    19
1005
0
1005
3975
1005
3975
1002
}
  0
LINE
  5
41A
  8
SL
 10
18834.561107562022
 20
15029.51794982194
 30
0.0
 11
18834.561107562022
 21
14909.51794982194
 31
0.0
  0
LINE
  5
41B
  8
FUTO
 10
18886.561107562022
 20
14916.57537609774
 30
0.0
 11
18886.561107562022
 21
14749.51794982194
 31
0.0
  0
LINE
  5
42E
  8
FUTO
 10
17257.6097334763
 20
16343.65831784946
 30
0.0
 11
16749.232517715609
 21
16290.15654706114
 31
0.0
  0
LINE
  5
42F
  8
FUTO
 10
17255.7411958753
 20
16361.56107091243
 30
0.0
 11
16747.356695638831
 21
16308.05853350369
 31
0.0
  0
LINE
  5
430
  8
FUTO
 10
17300.469694356168
 20
16272.51794982194
 30
0.0
 11
17300.469694356168
 21
14714.51794982194
 31
0.0
  0
LINE
  5
431
  8
HOSO
 10
17300.469694356168
 20
16218.51794982194
 30
0.0
 11
17300.469694356168
 21
14768.51794982194
 31
0.0
  0
LINE
  5
44C
  8
FUTO
 10
17250.469694356168
 20
16272.51794982194
 30
0.0
 11
17250.469694356168
 21
14714.51794982194
 31
0.0
  0
LINE
  5
44D
  8
FUTO
 10
17296.469694356168
 20
16272.51794982194
 30
0.0
 11
17296.469694356168
 21
14714.51794982194
 31
0.0
  0
LINE
  5
44E
  8
CT
 10
17548.4736730035
 20
16259.51794982194
 30
0.0
 11
14840.380115268201
 21
16259.51794982194
 31
0.0
  0
LINE
  5
478
  8
FUTO
 10
17220.469694356168
 20
19390.763082967489
 30
0.0
 11
14820.46969435617
 21
19390.763082967489
 31
0.0
  0
LINE
  5
479
  8
FUTO
 10
17220.469694356168
 20
19465.763082967489
 30
0.0
 11
15163.46969435617
 21
19465.763082967489
 31
0.0
  0
LINE
  5
47A
  8
FUTO
 10
16870.469694356168
 20
18487.763082967489
 30
0.0
 11
14820.46969435617
 21
18487.763082967489
 31
0.0
  0
LINE
  5
488
  8
FUTO
 10
16870.469694356168
 20
18414.763082967489
 30
0.0
 11
14820.46969435617
 21
18414.763082967489
 31
0.0
  0
LINE
  5
489
  8
FUTO
 10
16870.469694356168
 20
18414.763082967489
 30
0.0
 11
14820.46969435617
 21
18414.763082967489
 31
0.0
  0
LINE
  5
4A3
  8
FUTO
 10
14820.46969435617
 20
19465.763082967489
 30
0.0
 11
14820.46969435617
 21
19390.763082967489
 31
0.0
  0
LINE
  5
4A4
  8
FUTO
 10
15035.46969435617
 20
19390.763082967489
 30
0.0
 11
15035.46969435617
 21
19091.263082967489
 31
0.0
  0
LINE
  5
4A5
  8
CT
 10
15170.46969435617
 20
19230.347572167411
 30
0.0
 11
15170.46969435617
 21
18054.631251049479
 31
0.0
  0
LINE
  5
4AD
  8
KL
 10
17300.469694356168
 20
14768.51794982194
 30
0.0
 11
16354.875097620919
 21
14853.81073160971
 31
0.0
  0
LINE
  5
4AE
  8
FUTO
 10
17250.469694356168
 20
14752.94676184381
 30
0.0
 11
16859.655703408371
 21
14788.198245476009
 31
0.0
  0
LINE
  5
4B2
  8
FUTO
 10
17300.469694356168
 20
14714.51794982194
 30
0.0
 11
17250.469694356168
 21
14714.51794982194
 31
0.0
  0
LINE
  5
51D
  8
CT
 10
16370.46969435617
 20
20916.635660617088
 30
0.0
 11
16370.46969435617
 21
18090.902995027751
 31
0.0
  0
LINE
  5
52A
  8
FUTO
 10
16870.469694356168
 20
19390.763082967489
 30
0.0
 11
16870.469694356168
 21
18414.763082967489
 31
0.0
  0
LINE
  5
52C
  8
FUTO
 10
16795.469694356168
 20
19390.763082967489
 30
0.0
 11
16795.469694356168
 21
18481.763082967489
 31
0.0
  0
ARC
  5
559
  8
FUTO
 10
16284.96969435617
 20
16345.01794982194
 30
0.0
 40
937.5
 50
359.99999999999989
 51
84.767354037665385
  0
ARC
  5
577
  8
FUTO
 10
16455.669694356169
 20
16345.01794982194
 30
0.0
 40
766.5
 50
352.01329878217842
 51
359.99999999999989
  0
CIRCLE
  5
578
  8
FUTO
 10
16370.46969435617
 20
16259.51794982194
 30
0.0
 40
36.5
  0
ARC
  5
579
  8
FUTO
 10
16370.46969435617
 20
16259.51794982195
 30
0.0
 40
94.999999999998053
 50
69.056126027617694
 51
90.0
  0
INSERT
  5
57A
  8
FUTO
  2
左回転矢印
 10
16192.460799274309
 20
16773.396769679672
 30
0.0
 41
2.0
 42
2.0
 43
2.0
  0
ARC
  5
585
  8
KL
 10
16455.669694356169
 20
16345.01794982194
 30
0.0
 40
746.49999999999989
 50
324.12150225741459
 51
359.99999999999989
  0
ARC
  5
587
  8
FUTO
 10
16275.46969435617
 20
16259.51794982194
 30
0.0
 40
14.999999999999909
 50
180.0000000000004
 51
274.52806301380861
  0
ARC
  5
588
  8
FUTO
 10
16275.46969435617
 20
16259.51794982194
 30
0.0
 40
15.000000000000121
 50
85.471936986192148
 51
180.0000000000004
  0
LINE
  5
589
  8
FUTO
 10
16354.788031658371
 20
16353.21472380607
 30
0.0
 11
16354.788031658371
 21
16359.51794982194
 31
0.0
  0
LINE
  5
58A
  8
FUTO
 10
16386.151357053968
 20
16353.21472380607
 30
0.0
 11
16386.151357053968
 21
16359.51794982194
 31
0.0
  0
LINE
  5
58B
  8
FUTO
 10
16386.151357053968
 20
16359.51794982194
 30
0.0
 11
16354.788031658371
 21
16359.51794982194
 31
0.0
  0
LINE
  5
58C
  8
FUTO
 10
16275.46969435617
 20
16244.51794982194
 30
0.0
 11
16275.46969435617
 21
16209.51794982194
 31
0.0
  0
ARC
  5
58D
  8
FUTO
 10
16370.46969435617
 20
16259.51794982195
 30
0.0
 40
95.000000000000995
 50
189.05612602761769
 51
210.00000000000071
  0
ARC
  5
58E
  8
FUTO
 10
16370.46969435617
 20
16259.51794982194
 30
0.0
 40
94.999999999997456
 50
149.99999999999849
 51
170.9438739723814
  0
ARC
  5
58F
  8
FUTO
 10
16370.46969435617
 20
16259.51794982194
 30
0.0
 40
95.000000000000071
 50
129.05612602761761
 51
150.00000000000051
  0
ARC
  5
590
  8
FUTO
 10
16370.46969435617
 20
16259.51794982195
 30
0.0
 40
94.999999999998494
 50
90.0
 51
110.9438739723838
  0
ARC
  5
591
  8
FUTO
 10
16322.96969435617
 20
16341.790363181461
 30
0.0
 40
14.99999999999976
 50
120.0000000000004
 51
214.52806301380889
  0
ARC
  5
592
  8
FUTO
 10
16322.96969435617
 20
16341.790363181461
 30
0.0
 40
15.00000000000038
 50
25.4719369861869
 51
120.0000000000004
  0
CIRCLE
  5
593
  8
KL
 10
17075.935370773372
 20
15898.95509335942
 30
0.0
 40
17.407412889793701
  0
LINE
  5
594
  8
FUTO
 10
17250.469694356168
 20
16272.51794982194
 30
0.0
 11
17300.469694356168
 21
16272.51794982194
 31
0.0
  0
LINE
  5
595
  8
KL
 10
17300.469694356168
 20
16218.51794982194
 30
0.0
 11
17191.373439079551
 21
16218.51794982194
 31
0.0
  0
LINE
  5
596
  8
FUTO
 10
17250.469694356168
 20
16238.51794982194
 30
0.0
 11
17214.7349089458
 21
16238.51794982194
 31
0.0
  0
INSERT
  5
597
  8
FUTO
  2
まっすぐの矢印
 10
17530.327647085978
 20
15199.530603329271
 30
0.0
 41
2.0
 42
2.0
 43
2.0
 50
269.99999999999989
  0
LINE
  5
5A2
  8
FUTO
 10
16465.469694356168
 20
16244.51794982194
 30
0.0
 11
16465.469694356168
 21
16209.51794982194
 31
0.0
  0
ARC
  5
5A3
  8
FUTO
 10
16370.46969435617
 20
16259.51794982194
 30
0.0
 40
94.999999999999389
 50
9.0561260276173208
 51
30.000000000000231
  0
ARC
  5
5A4
  8
FUTO
 10
16465.469694356168
 20
16259.51794982194
 30
0.0
 40
15.000000000000121
 50
359.99999999999937
 51
94.528063013807838
  0
ARC
  5
5A5
  8
FUTO
 10
16465.469694356168
 20
16259.51794982194
 30
0.0
 40
14.999999999999909
 50
265.47193698619128
 51
359.9999999999996
  0
ARC
  5
5A6
  8
FUTO
 10
16370.46969435617
 20
16259.51794982194
 30
0.0
 40
94.999999999999389
 50
329.99999999999972
 51
350.94387397238262
  0
ARC
  5
5A7
  8
FUTO
 10
16370.46969435617
 20
16259.51794982194
 30
0.0
 40
94.999999999999915
 50
30.000000000000551
 51
50.943873972383457
  0
ARC
  5
5A8
  8
FUTO
 10
16417.969694356168
 20
16341.790363181461
 30
0.0
 40
15.00000000000038
 50
59.99999999999951
 51
154.52806301381301
  0
ARC
  5
5A9
  8
FUTO
 10
16417.969694356168
 20
16341.790363181461
 30
0.0
 40
15.00000000000006
 50
325.4719369861902
 51
59.999999999999169
  0
LINE
  5
605
  8
FUTO
 10
18631.561107562022
 20
16639.51794982194
 30
0.0
 11
18886.561107562022
 21
16639.51794982194
 31
0.0
  0
LINE
  5
606
  8
SL
 10
18819.46110756202
 20
16339.51794982194
 30
0.0
 11
18841.561107562022
 21
16339.51794982194
 31
0.0
  0
POINT
  5
609
  8
DEFPOINTS
 10
18631.561107562022
 20
16639.51794982194
 30
0.0
  0
LINE
  5
60A
  8
SL
 10
18741.561107562022
 20
16509.51794982194
 30
0.0
 11
18819.46110756202
 21
16509.51794982194
 31
0.0
  0
LINE
  5
60E
  8
FUTO
 10
19071.561107562022
 20
16214.51794982194
 30
0.0
 11
19640.561107562022
 21
16214.51794982194
 31
0.0
  0
LINE
  5
60F
  8
FUTO
 10
19071.561107562022
 20
16304.51794982194
 30
0.0
 11
19640.561107562022
 21
16304.51794982194
 31
0.0
  0
LINE
  5
610
  8
FUTO
 10
18886.561107562022
 20
16639.51794982194
 30
0.0
 11
18886.561107562022
 21
16413.208319727659
 31
0.0
  0
LINE
  5
611
  8
FUTO
 10
18841.561107562022
 20
16217.01794982194
 30
0.0
 11
18931.061107562022
 21
16217.01794982194
 31
0.0
  0
LINE
  5
612
  8
FUTO
 10
18841.561107562022
 20
16302.01794982194
 30
0.0
 11
18931.061107562022
 21
16302.01794982194
 31
0.0
  0
LINE
  5
68C
  8
FUTO
 10
17220.469694356168
 20
20614.763082967489
 30
0.0
 11
15520.46969435617
 21
20614.763082967489
 31
0.0
  0
LINE
  5
68D
  8
FUTO
 10
17300.469694356168
 20
20539.763082967489
 30
0.0
 11
15163.46969435617
 21
20539.763082967489
 31
0.0
  0
LINE
  5
68E
  8
CT
 10
17547.989694935692
 20
20001.763082967489
 30
0.0
 11
15001.4680357994
 21
20001.763082967489
 31
0.0
  0
LINE
  5
68F
  8
FUTO
 10
15520.46969435617
 20
20614.763082967489
 30
0.0
 11
15520.46969435617
 21
20585.763082967489
 31
0.0
  0
LINE
  5
6A9
  8
FUTO
 10
17220.469694356168
 20
20614.763082967489
 30
0.0
 11
17220.469694356168
 21
20585.763082967489
 31
0.0
  0
LINE
  5
6C2
  8
FUTO
 10
19921.561107562022
 20
16218.51794982194
 30
0.0
 11
19921.561107562022
 21
14767.71794982195
 31
0.0
  0
LINE
  5
6C3
  8
FUTO
 10
19917.061107562022
 20
16218.51794982194
 30
0.0
 11
19917.061107562022
 21
14764.51794982194
 31
0.0
  0
LINE
  5
6C5
  8
FUTO
 10
20981.561107562022
 20
16218.51794982194
 30
0.0
 11
20981.561107562022
 21
14764.51794982194
 31
0.0
  0
LINE
  5
6C6
  8
KL
 10
20987.561107562022
 20
16963.83069213097
 30
0.0
 11
20987.561107562022
 21
15555.20520751291
 31
0.0
  0
LINE
  5
6CD
  8
CT
 10
20451.561107562022
 20
17398.185508494302
 30
0.0
 11
20451.561107562022
 21
14346.777908888351
 31
0.0
  0
LINE
  5
6D4
  8
FUTO
 10
19842.061107562022
 20
17262.51794982194
 30
0.0
 11
19842.061107562022
 21
14709.51794982194
 31
0.0
  0
DIMENSION
  5
6D5
  8
FUTO
  2
*D11
 10
21451.170969318249
 20
15559.51794982194
 30
0.0
 11
21391.170969318238
 21
16259.51794982195
 31
0.0
 70
     0
  1
%%C<>
 13
21085.561107562022
 23
16959.51794982194
 33
0.0
 14
21085.561107562022
 24
15559.51794982194
 34
0.0
 50
90.0
1001
ACAD
1000
DSTYLE
1002
{
1070
    40
1040
30.0
1070
   176
1070
     2
1070
   177
1070
     2
1070
   178
1070
     2
1070
   341
1005
44D5
1070
     5
1000
OPEN30
1002
}
  0
LINE
  5
6E2
  8
KL
 10
20990.761107562019
 20
16250.51794982194
 30
0.0
 11
20990.761107562019
 21
15509.51794982194
 31
0.0
  0
LINE
  5
6E6
  8
FUTO
 10
21079.561107562022
 20
17009.51794982194
 30
0.0
 11
21079.561107562022
 21
15509.51794982194
 31
0.0
  0
LINE
  5
6E7
  8
FUTO
 10
21085.561107562022
 20
17009.51794982194
 30
0.0
 11
21085.561107562022
 21
15509.51794982194
 31
0.0
  0
LINE
  5
70B
  8
CT
 10
19872.561107562022
 20
14579.682030953671
 30
0.0
 11
19872.561107562022
 21
14514.14919583096
 31
0.0
1001
ACAD
1000
ASC_BOUNDS
1002
{
1070
    19
1002
}
  0
LINE
  5
723
  8
FUTO
 10
20988.561107562022
 20
14559.51794982194
 30
0.0
 11
20988.561107562022
 21
14539.51794982194
 31
0.0
1001
ACAD
1000
ASC_BOUNDS
1002
{
1070
    19
1002
}
  0
LINE
  5
724
  8
CT
 10
21028.561107562022
 20
14579.041378753411
 30
0.0
 11
21028.561107562022
 21
14526.07072517945
 31
0.0
1001
ACAD
1000
ASC_BOUNDS
1002
{
1070
    19
1002
}
  0
LINE
  5
72A
  8
FUTO
 10
21066.561107562022
 20
14559.51794982194
 30
0.0
 11
21066.561107562022
 21
14539.51794982194
 31
0.0
1001
ACAD
1000
ASC_BOUNDS
1002
{
1070
    19
1002
}
  0
LINE
  5
72B
  8
KL
 10
20990.761107562019
 20
15553.51794982194
 30
0.0
 11
21059.761107562019
 21
15553.51794982194
 31
0.0
  0
LINE
  5
72C
  8
KL
 10
20984.761107562019
 20
15559.51794982194
 30
0.0
 11
21085.561107562022
 21
15559.51794982194
 31
0.0
  0
LINE
  5
72D
  8
CT
 10
20952.276409966918
 20
15527.01794982194
 30
0.0
 11
21009.319143098961
 21
15527.01794982194
 31
0.0
  0
LINE
  5
72E
  8
KL
 10
20984.761107562019
 20
15509.51794982194
 30
0.0
 11
20990.761107562019
 21
15509.51794982194
 31
0.0
  0
LINE
  5
72F
  8
FUTO
 10
21059.761107562019
 20
15553.51794982194
 30
0.0
 11
21079.561107562022
 21
15553.51794982194
 31
0.0
  0
LINE
  5
730
  8
CT
 10
21056.44137264938
 20
15527.01794982194
 30
0.0
 11
21116.584226403262
 21
15527.01794982194
 31
0.0
  0
LINE
  5
731
  8
FUTO
 10
21079.561107562022
 20
15509.51794982194
 30
0.0
 11
21085.561107562022
 21
15509.51794982194
 31
0.0
  0
DIMENSION
  5
800
  8
FUTO
  2
*D12
 10
21085.561107562022
 20
17578.14070450209
 30
0.0
 11
20768.561107562022
 21
17638.14070450209
 31
0.0
 70
     0
 13
20451.561107562022
 23
17411.23543740614
 33
0.0
 14
21085.561107562022
 24
17009.51794982194
 34
0.0
1001
ACAD
1000
DSTYLE
1002
{
1070
    40
1040
30.0
1070
   176
1070
     2
1070
   177
1070
     2
1070
   178
1070
     2
1070
   341
1005
44D5
1070
     5
1000
OPEN30
1002
}
  0
LINE
  5
826
  8
FUTO
 10
19917.061107562022
 20
17262.51794982194
 30
0.0
 11
19917.061107562022
 21
16272.51794982194
 31
0.0
  0
LINE
  5
827
  8
FUTO
 10
19921.561107562022
 20
17262.51794982194
 30
0.0
 11
19921.561107562022
 21
16272.51794982194
 31
0.0
  0
INSERT
  5
841
  8
FUTO
  2
まっすぐの矢印
 10
21147.40788825143
 20
16815.769838141929
 30
0.0
 41
-2.0
 42
2.0
 43
2.0
 50
90.0
  0
LINE
  5
842
  8
FUTO
 10
20981.561107562022
 20
17262.51794982194
 30
0.0
 11
20981.561107562022
 21
16272.51794982194
 31
0.0
  0
LINE
  5
844
  8
KL
 10
20990.761107562019
 20
17009.51794982194
 30
0.0
 11
20990.761107562019
 21
16268.51794982194
 31
0.0
  0
LINE
  5
845
  8
KL
 10
20990.761107562019
 20
16965.51794982194
 30
0.0
 11
21061.061107562022
 21
16965.51794982194
 31
0.0
  0
LINE
  5
846
  8
KL
 10
20984.761107562019
 20
16959.51794982194
 30
0.0
 11
21085.561107562022
 21
16959.51794982194
 31
0.0
  0
LINE
  5
847
  8
CT
 10
20962.105006318161
 20
16992.01794982194
 30
0.0
 11
21004.810644743418
 21
16992.01794982194
 31
0.0
  0
LINE
  5
848
  8
KL
 10
20984.761107562019
 20
17009.51794982194
 30
0.0
 11
20990.761107562019
 21
17009.51794982194
 31
0.0
  0
LINE
  5
84A
  8
FUTO
 10
21061.061107562022
 20
16965.51794982194
 30
0.0
 11
21079.561107562022
 21
16965.51794982194
 31
0.0
  0
LINE
  5
84B
  8
CT
 10
21056.80012029982
 20
16992.01794982194
 30
0.0
 11
21108.789595856229
 21
16992.01794982194
 31
0.0
  0
LINE
  5
84C
  8
FUTO
 10
21079.561107562022
 20
17009.51794982194
 30
0.0
 11
21085.561107562022
 21
17009.51794982194
 31
0.0
  0
POLYLINE
  8
0
  5
5668
  62
2
  66
     1
 10
0.000000
 20
0.000000
 30
0.000000
  70
     8
  0
VERTEX
  8
0
  5
5669
 10
15052.3
 20
16383.7
 30
0.000000
  70
    32
  0
VERTEX
  8
0
  5
566A
 10
15052.3
 20
16259.5
 30
0.000000
  70
    32
  0
SEQEND
  8
0
  5
566B
  0
POLYLINE
  8
0
  5
566C
  62
2
  66
     1
 10
0.000000
 20
0.000000
 30
0.000000
  70
     8
  0
VERTEX
  8
0
  5
566D
 10
15052.3
 20
16135.3
 30
0.000000
  70
    32
  0
VERTEX
  8
0
  5
566E
 10
15052.3
 20
16259.5
 30
0.000000
  70
    32
  0
SEQEND
  8
0
  5
566F
  0
LINE
  5
971
  8
KL
 10
16570.323441634111
 20
16271.328102190449
 30
0.0
 11
16568.454904033111
 21
16289.23085525342
 31
0.0
  0
LINE
  5
972
  8
KL
 10
16170.46969435617
 20
16268.51794982194
 30
0.0
 11
16170.46969435617
 21
16250.51794982194
 31
0.0
  0
LINE
  5
973
  8
KL
 10
16170.46969435617
 20
16268.51794982194
 30
0.0
 11
15897.03510828373
 21
16268.51794982194
 31
0.0
  0
LINE
  5
974
  8
KL
 10
16170.46969435617
 20
16250.51794982194
 30
0.0
 11
15883.11331918579
 21
16250.51794982194
 31
0.0
  0
LINE
  5
990
  8
FUTO
 10
17257.6097334763
 20
16343.65831784946
 30
0.0
 11
17255.7411958753
 21
16361.56107091243
 31
0.0
  0
POLYLINE
  5
119F
  8
FUTO
 66
     1
 10
0.0
 20
0.0
 30
0.0
 70
     1
1001
ACAD
1000
ASC_BOUNDS
1002
{
1070
    19
1002
}
  0
VERTEX
  5
55C0
  8
FUTO
 10
19837.561107562022
 20
14559.51794982194
 30
0.0
  0
VERTEX
  5
55C1
  8
FUTO
 10
19837.561107562022
 20
14562.85613840011
 30
0.0
 42
-0.3888787318529885
  0
VERTEX
  5
55C2
  8
FUTO
 10
19841.212484591029
 20
14566.84091719248
 30
0.0
  0
VERTEX
  5
55C3
  8
FUTO
 10
19902.409730533011
 20
14572.19498245141
 30
0.0
 42
0.3888787318529894
  0
VERTEX
  5
55C4
  8
FUTO
 10
19906.061107562022
 20
14576.17976124378
 30
0.0
  0
VERTEX
  5
55C5
  8
FUTO
 10
19906.061107562022
 20
14692.85613840011
 30
0.0
 42
0.3888787318529893
  0
VERTEX
  5
55C6
  8
FUTO
 10
19902.409730533011
 20
14696.84091719248
 30
0.0
  0
VERTEX
  5
55C7
  8
FUTO
 10
19841.212484591029
 20
14702.19498245141
 30
0.0
 42
-0.3888787318529887
  0
VERTEX
  5
55C8
  8
FUTO
 10
19837.561107562022
 20
14706.17976124378
 30
0.0
  0
VERTEX
  5
55C9
  8
FUTO
 10
19837.561107562022
 20
14709.51794982194
 30
0.0
  0
VERTEX
  5
55CA
  8
FUTO
 10
19912.561107562022
 20
14709.51794982194
 30
0.0
  0
VERTEX
  5
55CB
  8
FUTO
 10
19912.561107562022
 20
14559.51794982194
 30
0.0
  0
SEQEND
  5
55CC
  8
FUTO
  0
POLYLINE
  5
11AD
  8
FUTO
 66
     1
 10
0.0
 20
0.0
 30
0.0
 70
     1
1001
ACAD
1000
ASC_BOUNDS
1002
{
1070
    19
1002
}
  0
VERTEX
  5
55CD
  8
FUTO
 10
20988.561107562022
 20
14559.51794982194
 30
0.0
  0
VERTEX
  5
55CE
  8
FUTO
 10
20988.561107562022
 20
14709.51794982194
 30
0.0
  0
VERTEX
  5
55CF
  8
FUTO
 10
21063.561107562022
 20
14709.51794982194
 30
0.0
  0
VERTEX
  5
55D0
  8
FUTO
 10
21063.561107562022
 20
14706.17976124378
 30
0.0
 42
-0.3888787318527922
  0
VERTEX
  5
55D1
  8
FUTO
 10
21059.909730533011
 20
14702.19498245141
 30
0.0
  0
VERTEX
  5
55D2
  8
FUTO
 10
20998.712484591029
 20
14696.84091719248
 30
0.0
 42
0.3888787318529906
  0
VERTEX
  5
55D3
  8
FUTO
 10
20995.061107562022
 20
14692.85613840011
 30
0.0
  0
VERTEX
  5
55D4
  8
FUTO
 10
20995.061107562022
 20
14576.17976124378
 30
0.0
 42
0.388878731852991
  0
VERTEX
  5
55D5
  8
FUTO
 10
20998.712484591029
 20
14572.19498245141
 30
0.0
  0
VERTEX
  5
55D6
  8
FUTO
 10
21059.909730533011
 20
14566.84091719248
 30
0.0
 42
-0.3888787318529234
  0
VERTEX
  5
55D7
  8
FUTO
 10
21063.561107562022
 20
14562.85613840011
 30
0.0
  0
VERTEX
  5
55D8
  8
FUTO
 10
21063.561107562022
 20
14559.51794982194
 30
0.0
  0
SEQEND
  5
55D9
  8
FUTO
  0
LINE
  5
11F6
  8
FUTO
 10
18938.561107562022
 20
14539.51794982194
 30
0.0
 11
18863.561107562022
 21
14539.51794982194
 31
0.0
1001
ACAD
1000
ASC_BOUNDS
1002
{
1070
    19
1005
3975
1002
}
  0
LINE
  5
11F7
  8
FUTO
 10
18928.409730533011
 20
14526.84091719248
 30
0.0
 11
18867.212484591029
 21
14532.19498245141
 31
0.0
  0
LINE
  5
11F8
  8
FUTO
 10
18938.561107562022
 20
14389.51794982194
 30
0.0
 11
18863.561107562022
 21
14389.51794982194
 31
0.0
  0
LINE
  5
11F9
  8
FUTO
 10
18928.409730533011
 20
14402.19498245141
 30
0.0
 11
18867.212484591029
 21
14396.84091719248
 31
0.0
  0
LINE
  5
11FA
  8
FUTO
 10
18932.061107562022
 20
14406.17976124378
 30
0.0
 11
18932.061107562022
 21
14522.85613840011
 31
0.0
  0
ARC
  5
11FB
  8
FUTO
 10
18928.061107562022
 20
14522.85613840011
 30
0.0
 40
4.0
 50
0.0
 51
84.999999999999943
  0
LINE
  5
11FC
  8
FUTO
 10
18938.561107562022
 20
14389.51794982194
 30
0.0
 11
18938.561107562022
 21
14539.51794982194
 31
0.0
  0
ARC
  5
11FD
  8
FUTO
 10
18928.061107562022
 20
14406.17976124378
 30
0.0
 40
4.0
 50
275.0
 51
0.0
  0
ARC
  5
11FE
  8
FUTO
 10
18867.561107562022
 20
14536.17976124378
 30
0.0
 40
4.0
 50
180.0
 51
264.99999999999972
  0
LINE
  5
11FF
  8
FUTO
 10
18863.561107562022
 20
14539.51794982194
 30
0.0
 11
18863.561107562022
 21
14536.17976124378
 31
0.0
  0
LINE
  5
1200
  8
FUTO
 10
18863.561107562022
 20
14389.51794982194
 30
0.0
 11
18863.561107562022
 21
14392.85613840011
 31
0.0
  0
ARC
  5
1201
  8
FUTO
 10
18867.561107562022
 20
14392.85613840011
 30
0.0
 40
4.0
 50
95.000000000000227
 51
180.0
  0
INSERT
  5
1202
  8
FUTO
  2
K150-75
 10
19837.561107562022
 20
14539.51794982194
 30
0.0
 50
180.0
1001
ACAD
1000
ASC_BOUNDS
1002
{
1070
    19
1002
}
  0
LINE
  5
1204
  8
FUTO
 10
20988.561107562022
 20
14539.51794982194
 30
0.0
 11
21063.561107562022
 21
14539.51794982194
 31
0.0
1001
ACAD
1000
ASC_BOUNDS
1002
{
1070
    19
1002
}
  0
LINE
  5
1205
  8
FUTO
 10
20998.712484591029
 20
14526.84091719248
 30
0.0
 11
21059.909730533011
 21
14532.19498245141
 31
0.0
  0
LINE
  5
1206
  8
FUTO
 10
20988.561107562022
 20
14389.51794982194
 30
0.0
 11
21063.561107562022
 21
14389.51794982194
 31
0.0
  0
LINE
  5
1207
  8
FUTO
 10
20998.712484591029
 20
14402.19498245141
 30
0.0
 11
21059.909730533011
 21
14396.84091719248
 31
0.0
  0
LINE
  5
1208
  8
FUTO
 10
20995.061107562022
 20
14406.17976124378
 30
0.0
 11
20995.061107562022
 21
14522.85613840011
 31
0.0
  0
ARC
  5
1209
  8
FUTO
 10
20999.061107562022
 20
14522.85613840011
 30
0.0
 40
4.0
 50
94.999999999999758
 51
180.0
  0
LINE
  5
120A
  8
FUTO
 10
20988.561107562022
 20
14389.51794982194
 30
0.0
 11
20988.561107562022
 21
14539.51794982194
 31
0.0
  0
ARC
  5
120B
  8
FUTO
 10
20999.061107562022
 20
14406.17976124378
 30
0.0
 40
4.0
 50
180.0
 51
265.00000000000028
  0
ARC
  5
120C
  8
FUTO
 10
21059.561107562022
 20
14536.17976124378
 30
0.0
 40
4.0
 50
275.00000000000011
 51
0.0
  0
LINE
  5
120D
  8
FUTO
 10
21063.561107562022
 20
14539.51794982194
 30
0.0
 11
21063.561107562022
 21
14536.17976124378
 31
0.0
  0
LINE
  5
120E
  8
FUTO
 10
21063.561107562022
 20
14389.51794982194
 30
0.0
 11
21063.561107562022
 21
14392.85613840011
 31
0.0
  0
ARC
  5
120F
  8
FUTO
 10
21059.561107562022
 20
14392.85613840011
 30
0.0
 40
4.0
 50
0.0
 51
84.999999999999844
  0
LINE
  5
1840
  8
FUTO
 10
15945.46969435617
 20
19390.763082967489
 30
0.0
 11
15945.46969435617
 21
18481.763082967489
 31
0.0
  0
LINE
  5
1841
  8
FUTO
 10
15870.46969435617
 20
19390.763082967489
 30
0.0
 11
15870.46969435617
 21
18481.763082967489
 31
0.0
  0
LINE
  5
1FF1
  8
FUTO
 10
20984.761107562019
 20
17262.51794982194
 30
0.0
 11
20984.761107562019
 21
16272.51794982194
 31
0.0
  0
LINE
  5
1FF2
  8
FUTO
 10
20984.761107562019
 20
16218.51794982194
 30
0.0
 11
20984.761107562019
 21
14764.51794982194
 31
0.0
  0
LINE
  5
1FF5
  8
FUTO
 10
21059.761107562019
 20
17262.51794982194
 30
0.0
 11
21059.761107562019
 21
14709.51794982194
 31
0.0
  0
DIMENSION
  5
2003
  8
FUTO
  2
*D6
 10
21063.561107562022
 20
13971.484027579991
 30
0.0
 11
19963.561107562022
 21
14031.484027579991
 31
0.0
 70
     0
 13
18863.561107562022
 23
14389.51794982194
 33
0.0
 14
21063.561107562022
 24
14389.51794982194
 34
0.0
1001
ACAD
1000
DSTYLE
1002
{
1070
    40
1040
30.0
1070
   176
1070
     2
1070
   177
1070
     2
1070
   178
1070
     2
1070
   341
1005
44D5
1070
     5
1000
OPEN30
1002
}
  0
LINE
  5
25BB
  8
CT
 10
16370.46969435617
 20
18998.436351688561
 30
0.0
 11
16370.46969435617
 21
18996.37722135739
 31
0.0
  0
LINE
  5
279A
  8
FUTO
 10
18938.561107562022
 20
14559.51794982194
 30
0.0
 11
18938.561107562022
 21
14539.51794982194
 31
0.0
1001
ACAD
1000
ASC_BOUNDS
1002
{
1070
    19
1005
3975
1002
}
  0
TEXT
  5
29E7
  8
SP
 10
9149.8042194081445
 20
6129.2813767066364
 30
0.0
 40
100.0
  1
 
  0
LINE
  5
3235
  8
FUTO
 10
15170.68664367545
 20
15789.11894996495
 30
0.0
 11
15193.437040255731
 21
15796.606934865989
 31
0.0
  0
LINE
  5
3236
  8
FUTO
 10
15209.76635068171
 20
15670.384892086409
 30
0.0
 11
15236.06604567959
 21
15679.041080489589
 31
0.0
  0
LINE
  5
3237
  8
FUTO
 10
15164.314295605671
 20
15776.493848774169
 30
0.0
 11
15197.14124949092
 21
15676.75724015619
 31
0.0
  0
ARC
  5
3238
  8
FUTO
 10
15173.81302023595
 20
15779.620225334669
 30
0.0
 40
10.0
 50
108.2182600027899
 51
198.21826000278989
  0
ARC
  5
3239
  8
FUTO
 10
15206.639974121201
 20
15679.88361671669
 30
0.0
 40
10.0
 50
198.21826000278989
 51
288.21826000278992
  0
LINE
  5
323A
  8
FUTO
 10
15167.56026711495
 20
15798.61767459524
 30
0.0
 11
15190.50964682423
 21
15806.171152098141
 31
0.0
  0
ARC
  5
323B
  8
FUTO
 10
15173.81302023595
 20
15779.620225334669
 30
0.0
 40
20.0
 50
108.2182600027899
 51
198.21826000278989
  0
LINE
  5
323C
  8
FUTO
 10
15154.81557097539
 20
15773.367472213669
 30
0.0
 11
15187.642524860639
 21
15673.63086359569
 31
0.0
  0
ARC
  5
323D
  8
FUTO
 10
15206.639974121201
 20
15679.88361671669
 30
0.0
 40
20.0
 50
198.21826000278989
 51
288.21826000278992
  0
LINE
  5
323E
  8
FUTO
 10
15212.89272724221
 20
15660.886167456119
 30
0.0
 11
15239.960873795149
 21
15669.79528128068
 31
0.0
  0
LINE
  5
3241
  8
CT
 10
15129.24645921413
 20
15709.681167448651
 30
0.0
 11
15312.2972446574
 21
15769.92985422144
 31
0.0
  0
DIMENSION
  5
393B
  8
FUTO
  2
*D7
 10
21063.561107562022
 20
14152.81446883758
 30
0.0
 11
20757.561107562022
 21
14212.81446883758
 31
0.0
 70
     0
 13
20451.561107562022
 23
14389.51794982194
 33
0.0
 14
21063.561107562022
 24
14389.51794982195
 34
0.0
1001
ACAD
1000
DSTYLE
1002
{
1070
    40
1040
30.0
1070
   176
1070
     2
1070
   177
1070
     2
1070
   178
1070
     2
1070
   341
1005
44D5
1070
     5
1000
OPEN30
1002
}
  0
DIMENSION
  5
3948
  8
FUTO
  2
*D8
 10
18863.561107562022
 20
14152.819709760181
 30
0.0
 11
19657.561107562022
 21
14212.819709760181
 31
0.0
 70
     0
 13
20451.561107562022
 23
14389.51794982194
 33
0.0
 14
18863.561107562022
 24
14389.51794982194
 34
0.0
1001
ACAD
1000
DSTYLE
1002
{
1070
    40
1040
30.0
1070
   176
1070
     2
1070
   177
1070
     2
1070
   178
1070
     2
1070
   341
1005
44D5
1070
     5
1000
OPEN30
1002
}
  0
POLYLINE
  5
3949
  8
FUTO
 66
     1
 10
0.0
 20
0.0
 30
0.0
  0
VERTEX
  5
55F5
  8
FUTO
 10
19841.561107562022
 20
14709.51794982194
 30
0.0
  0
VERTEX
  5
55F6
  8
FUTO
 10
19916.561107562022
 20
14709.51794982194
 30
0.0
  0
SEQEND
  5
55F7
  8
FUTO
  0
LINE
  5
39B1
  8
FUTO
 10
14830.46969435617
 20
14559.51794982194
 30
0.0
 11
14830.46969435617
 21
14539.51794982194
 31
0.0
  0
LINE
  5
39B2
  8
FUTO
 10
14910.46969435617
 20
14559.51794982194
 30
0.0
 11
14910.46969435617
 21
14539.51794982194
 31
0.0
  0
LINE
  5
39B3
  8
FUTO
 10
14870.46969435617
 20
14595.92937870555
 30
0.0
 11
14870.46969435617
 21
14496.10444474189
 31
0.0
1001
ACAD
1000
ASC_BOUNDS
1002
{
1070
    19
1005
0
1005
0
1005
0
1002
}
  0
LINE
  5
3AE6
  8
FUTO
 10
18925.061107562022
 20
16151.51794982194
 30
0.0
 11
18925.061107562022
 21
14709.51794982194
 31
0.0
  0
LINE
  5
3AE7
  8
FUTO
 10
18925.061107562022
 20
16151.51794982195
 30
0.0
 11
18935.061107562022
 21
16151.51794982194
 31
0.0
  0
LINE
  5
3AE8
  8
FUTO
 10
18935.061107562022
 20
16151.51794982194
 30
0.0
 11
18935.061107562022
 21
16141.51794982194
 31
0.0
  0
LINE
  5
3AEA
  8
FUTO
 10
18935.061107562022
 20
16141.51794982194
 30
0.0
 11
19842.061107562022
 21
16141.51794982194
 31
0.0
  0
LINE
  5
3B39
  8
FUTO
 10
19045.561107562022
 20
16196.51794982194
 30
0.0
 11
18957.561107562022
 21
16196.51794982194
 31
0.0
  0
LINE
  5
3B3A
  8
FUTO
 10
18946.561107562022
 20
16159.51794982194
 30
0.0
 11
19056.561107562022
 21
16159.51794982194
 31
0.0
  0
LINE
  5
3B3B
  8
FUTO
 10
19051.561107562022
 20
16352.51794982194
 30
0.0
 11
18951.561107562022
 21
16352.51794982194
 31
0.0
  0
LINE
  5
3B3C
  8
FUTO
 10
18951.561107562022
 20
16352.51794982194
 30
0.0
 11
18951.561107562022
 21
16159.51794982194
 31
0.0
  0
LINE
  5
3B3D
  8
FUTO
 10
18931.061107562022
 20
16334.51794982194
 30
0.0
 11
18931.061107562022
 21
16184.51794982194
 31
0.0
  0
LINE
  5
3B3E
  8
FUTO
 10
18936.561107562022
 20
16343.51794982194
 30
0.0
 11
18936.561107562022
 21
16175.51794982194
 31
0.0
  0
LINE
  5
3B40
  8
FUTO
 10
18931.061107562022
 20
16184.51794982194
 30
0.0
 11
18936.561107562022
 21
16184.51794982194
 31
0.0
  0
ARC
  5
3B41
  8
FUTO
 10
18957.561107562022
 20
16190.51794982194
 30
0.0
 40
6.0
 50
90.0
 51
180.0
  0
LINE
  5
3B42
  8
FUTO
 10
18942.561107562022
 20
16169.51794982194
 30
0.0
 11
18951.561107562022
 21
16169.51794982194
 31
0.0
  0
ARC
  5
3B43
  8
FUTO
 10
18942.561107562022
 20
16175.51794982194
 30
0.0
 40
6.0
 50
180.0
 51
270.0
  0
LINE
  5
3B44
  8
FUTO
 10
18936.561107562022
 20
16334.51794982194
 30
0.0
 11
18931.061107562022
 21
16334.51794982194
 31
0.0
  0
ARC
  5
3B45
  8
FUTO
 10
18942.561107562022
 20
16343.51794982194
 30
0.0
 40
6.0
 50
90.0
 51
180.0
  0
LINE
  5
3B46
  8
FUTO
 10
18951.561107562022
 20
16349.51794982194
 30
0.0
 11
18942.561107562022
 21
16349.51794982194
 31
0.0
  0
LINE
  5
3B47
  8
FUTO
 10
19051.561107562022
 20
16159.51794982194
 30
0.0
 11
19051.561107562022
 21
16352.51794982194
 31
0.0
  0
LINE
  5
3B48
  8
FUTO
 10
19066.561107562022
 20
16343.51794982194
 30
0.0
 11
19066.561107562022
 21
16175.51794982194
 31
0.0
  0
LINE
  5
3B49
  8
FUTO
 10
19072.061107562022
 20
16334.51794982194
 30
0.0
 11
19072.061107562022
 21
16184.51794982194
 31
0.0
  0
LINE
  5
3B4A
  8
FUTO
 10
19060.561107562022
 20
16169.51794982194
 30
0.0
 11
19051.561107562022
 21
16169.51794982194
 31
0.0
  0
ARC
  5
3B4B
  8
FUTO
 10
19045.561107562022
 20
16190.51794982194
 30
0.0
 40
6.0
 50
0.0
 51
90.0
  0
ARC
  5
3B4C
  8
FUTO
 10
19060.561107562022
 20
16175.51794982194
 30
0.0
 40
6.0
 50
270.0
 51
0.0
  0
LINE
  5
3B4D
  8
FUTO
 10
19072.061107562022
 20
16184.51794982194
 30
0.0
 11
19066.561107562022
 21
16184.51794982194
 31
0.0
  0
LINE
  5
3B4E
  8
FUTO
 10
19051.561107562022
 20
16349.51794982194
 30
0.0
 11
19060.561107562022
 21
16349.51794982194
 31
0.0
  0
ARC
  5
3B4F
  8
FUTO
 10
19060.561107562022
 20
16343.51794982194
 30
0.0
 40
6.0
 50
0.0
 51
90.0
  0
LINE
  5
3B50
  8
FUTO
 10
19066.561107562022
 20
16334.51794982194
 30
0.0
 11
19072.061107562022
 21
16334.51794982194
 31
0.0
  0
LINE
  5
3B51
  8
FUTO
 10
18946.561107562022
 20
16159.51794982194
 30
0.0
 11
18946.561107562022
 21
16141.51794982194
 31
0.0
  0
LINE
  5
3B52
  8
FUTO
 10
19056.561107562022
 20
16159.51794982194
 30
0.0
 11
19056.561107562022
 21
16141.51794982194
 31
0.0
  0
LINE
  5
3BBC
  8
FUTO
 10
19778.061107562022
 20
16363.51794982194
 30
0.0
 11
19645.061107562022
 21
16363.51794982194
 31
0.0
  0
LINE
  5
3BBD
  8
FUTO
 10
19760.561107562022
 20
16183.51794982194
 30
0.0
 11
19662.561107562022
 21
16183.51794982194
 31
0.0
  0
LINE
  5
3BBE
  8
FUTO
 10
19646.561107562022
 20
16147.51794982194
 30
0.0
 11
19776.561107562022
 21
16147.51794982194
 31
0.0
  0
LINE
  5
3BC0
  8
FUTO
 10
19656.561107562022
 20
16363.51794982194
 30
0.0
 11
19656.561107562022
 21
16147.51794982194
 31
0.0
  0
LINE
  5
3BC1
  8
FUTO
 10
19634.061107562022
 20
16349.51794982194
 30
0.0
 11
19634.061107562022
 21
16169.51794982194
 31
0.0
  0
LINE
  5
3BC2
  8
FUTO
 10
19639.061107562022
 20
16357.51794982194
 30
0.0
 11
19639.061107562022
 21
16161.51794982194
 31
0.0
  0
LINE
  5
3BC3
  8
FUTO
 10
19634.061107562022
 20
16169.51794982194
 30
0.0
 11
19639.061107562022
 21
16169.51794982194
 31
0.0
  0
ARC
  5
3BC4
  8
FUTO
 10
19662.561107562022
 20
16177.51794982194
 30
0.0
 40
6.0
 50
90.0
 51
180.0
  0
LINE
  5
3BC5
  8
FUTO
 10
19645.061107562022
 20
16155.51794982194
 30
0.0
 11
19656.561107562022
 21
16155.51794982194
 31
0.0
  0
ARC
  5
3BC6
  8
FUTO
 10
19645.061107562022
 20
16161.51794982194
 30
0.0
 40
6.0
 50
180.0
 51
270.0
  0
LINE
  5
3BC7
  8
FUTO
 10
19639.061107562022
 20
16349.51794982194
 30
0.0
 11
19634.061107562022
 21
16349.51794982194
 31
0.0
  0
ARC
  5
3BC8
  8
FUTO
 10
19645.061107562022
 20
16357.51794982194
 30
0.0
 40
6.0
 50
90.0
 51
180.0
  0
LINE
  5
3BC9
  8
FUTO
 10
19766.561107562022
 20
16363.51794982194
 30
0.0
 11
19766.561107562022
 21
16147.51794982194
 31
0.0
  0
LINE
  5
3BCA
  8
FUTO
 10
19784.061107562022
 20
16357.51794982194
 30
0.0
 11
19784.061107562022
 21
16161.51794982194
 31
0.0
  0
LINE
  5
3BCB
  8
FUTO
 10
19789.061107562022
 20
16349.51794982194
 30
0.0
 11
19789.061107562022
 21
16169.51794982194
 31
0.0
  0
ARC
  5
3BCC
  8
FUTO
 10
19760.561107562022
 20
16177.51794982194
 30
0.0
 40
6.0
 50
0.0
 51
90.0
  0
LINE
  5
3BCD
  8
FUTO
 10
19778.061107562022
 20
16155.51794982194
 30
0.0
 11
19766.561107562022
 21
16155.51794982194
 31
0.0
  0
ARC
  5
3BCE
  8
FUTO
 10
19778.061107562022
 20
16161.51794982194
 30
0.0
 40
6.0
 50
270.0
 51
0.0
  0
LINE
  5
3BCF
  8
FUTO
 10
19789.061107562022
 20
16169.51794982194
 30
0.0
 11
19784.061107562022
 21
16169.51794982194
 31
0.0
  0
ARC
  5
3BD0
  8
FUTO
 10
19778.061107562022
 20
16357.51794982194
 30
0.0
 40
6.0
 50
0.0
 51
90.0
  0
LINE
  5
3BD1
  8
FUTO
 10
19784.061107562022
 20
16349.51794982194
 30
0.0
 11
19789.061107562022
 21
16349.51794982194
 31
0.0
  0
LINE
  5
3C31
  8
SL
 10
19115.803124781509
 20
16386.2168528531
 30
0.0
 11
19581.079537667109
 21
16386.2168528531
 31
0.0
  0
LINE
  5
3C32
  8
FUTO
 10
19646.561107562022
 20
16147.51794982194
 30
0.0
 11
19646.561107562022
 21
16141.51794982194
 31
0.0
  0
LINE
  5
3C33
  8
FUTO
 10
19776.561107562022
 20
16147.51794982194
 30
0.0
 11
19776.561107562022
 21
16141.51794982194
 31
0.0
  0
DIMENSION
  5
3C4B
  8
SP
  2
*D10
 10
20451.561107562022
 20
17578.14070450209
 30
0.0
 11
19541.561107562022
 21
17638.14070450209
 31
0.0
 70
     0
 13
18631.561107562022
 23
16639.51794982194
 33
0.0
 14
20451.561107562022
 24
17441.23543740614
 34
0.0
1001
ACAD
1000
DSTYLE
1002
{
1070
    40
1040
30.0
1070
   176
1070
     2
1070
   177
1070
     2
1070
   178
1070
     2
1070
   341
1005
44D5
1070
     5
1000
OPEN30
1002
}
  0
LINE
  5
3C62
  8
SL
 10
19115.803124781509
 20
16386.2168528531
 30
0.0
 11
19115.803124781509
 21
16131.51794982194
 31
0.0
  0
LINE
  5
3C63
  8
SL
 10
19581.079537667109
 20
16386.2168528531
 30
0.0
 11
19581.079537667109
 21
16131.51794982194
 31
0.0
  0
LINE
  5
3C79
  8
FUTO
 10
16415.469694356168
 20
18621.763082967489
 30
0.0
 11
16415.469694356168
 21
19190.763082967489
 31
0.0
  0
LINE
  5
3C7A
  8
FUTO
 10
16325.46969435617
 20
18621.763082967489
 30
0.0
 11
16325.46969435617
 21
19190.763082967489
 31
0.0
  0
LINE
  5
3C7B
  8
FUTO
 10
16750.469694356168
 20
18181.763082967489
 30
0.0
 11
14950.46969435617
 21
18181.763082967489
 31
0.0
  0
LINE
  5
3C7D
  8
SL
 10
16620.469694356168
 20
18369.66308296749
 30
0.0
 11
15064.46969435617
 21
18369.66308296749
 31
0.0
  0
LINE
  5
3C7E
  8
SL
 10
16620.469694356168
 20
18291.763082967489
 30
0.0
 11
15064.46969435617
 21
18291.763082967489
 31
0.0
  0
LINE
  5
3C7F
  8
CT
 10
16488.97319131629
 20
18551.763082967489
 30
0.0
 11
16207.63906256946
 21
18551.763082967489
 31
0.0
  0
LINE
  5
3C80
  8
CT
 10
15170.46969435617
 20
18144.80635344678
 30
0.0
 11
15170.46969435617
 21
18447.625036558231
 31
0.0
  0
LINE
  5
3C81
  8
SL
 10
15276.46969435617
 20
18291.763082967489
 30
0.0
 11
15276.46969435617
 21
18369.66308296749
 31
0.0
  0
LINE
  5
3C82
  8
SL
 10
15064.46969435617
 20
18291.763082967489
 30
0.0
 11
15064.46969435617
 21
18369.66308296749
 31
0.0
  0
LINE
  5
3C83
  8
FUTO
 10
15117.527120631959
 20
18436.763082967489
 30
0.0
 11
14950.46969435617
 21
18436.763082967489
 31
0.0
  0
LINE
  5
3C84
  8
SL
 10
15230.46969435617
 20
18384.763082967489
 30
0.0
 11
15110.46969435617
 21
18384.763082967489
 31
0.0
  0
LINE
  5
3C85
  8
SL
 10
15230.46969435617
 20
18369.66308296749
 30
0.0
 11
15230.46969435617
 21
18384.763082967489
 31
0.0
  0
LINE
  5
3C86
  8
SL
 10
15110.46969435617
 20
18369.66308296749
 30
0.0
 11
15110.46969435617
 21
18384.763082967489
 31
0.0
  0
LINE
  5
3C87
  8
SL
 10
16120.46969435617
 20
18291.763082967489
 30
0.0
 11
16120.46969435617
 21
18369.66308296749
 31
0.0
  0
LINE
  5
3C88
  8
FUTO
 10
16463.469694356168
 20
18601.763082967489
 30
0.0
 11
16463.469694356168
 21
18501.763082967489
 31
0.0
  0
LINE
  5
3C8B
  8
FUTO
 10
16750.469694356168
 20
18436.763082967489
 30
0.0
 11
16524.160064261891
 21
18436.763082967489
 31
0.0
  0
LINE
  5
3C8C
  8
SL
 10
16620.469694356168
 20
18291.763082967489
 30
0.0
 11
16620.469694356168
 21
18369.66308296749
 31
0.0
  0
LINE
  5
3C8D
  8
FUTO
 10
16412.969694356168
 20
18391.763082967489
 30
0.0
 11
16412.969694356168
 21
18481.263082967489
 31
0.0
  0
LINE
  5
3C8E
  8
FUTO
 10
16327.96969435617
 20
18391.763082967489
 30
0.0
 11
16327.96969435617
 21
18481.263082967489
 31
0.0
  0
LINE
  5
3C8F
  8
SL
 10
16450.469694356168
 20
18369.66308296749
 30
0.0
 11
16450.469694356168
 21
18391.763082967489
 31
0.0
  0
LINE
  5
3C90
  8
SL
 10
16290.46969435617
 20
18369.66308296749
 30
0.0
 11
16290.46969435617
 21
18391.763082967489
 31
0.0
  0
LINE
  5
3C91
  8
SL
 10
16450.469694356168
 20
18391.763082967489
 30
0.0
 11
16290.46969435617
 21
18391.763082967489
 31
0.0
  0
LINE
  5
3C94
  8
FUTO
 10
16460.469694356168
 20
18501.763082967489
 30
0.0
 11
16460.469694356168
 21
18492.763082967489
 31
0.0
  0
ARC
  5
3C95
  8
FUTO
 10
16454.469694356168
 20
18492.763082967489
 30
0.0
 40
6.0
 50
270.0
 51
0.000000000000007
  0
LINE
  5
3C96
  8
FUTO
 10
16445.469694356168
 20
18486.763082967489
 30
0.0
 11
16445.469694356168
 21
18481.263082967489
 31
0.0
  0
ARC
  5
3C97
  8
FUTO
 10
16286.46969435617
 20
18492.763082967489
 30
0.0
 40
6.0
 50
180.0
 51
270.0
  0
LINE
  5
3C98
  8
FUTO
 10
16280.46969435617
 20
18492.763082967489
 30
0.0
 11
16280.46969435617
 21
18501.763082967489
 31
0.0
  0
LINE
  5
3C9A
  8
FUTO
 10
16295.46969435617
 20
18481.263082967489
 30
0.0
 11
16295.46969435617
 21
18486.763082967489
 31
0.0
  0
LINE
  5
3C9B
  8
FUTO
 10
16454.469694356168
 20
18486.763082967489
 30
0.0
 11
16286.46969435617
 21
18486.763082967489
 31
0.0
  0
LINE
  5
3C9C
  8
FUTO
 10
16445.469694356168
 20
18481.263082967489
 30
0.0
 11
16295.46969435617
 21
18481.263082967489
 31
0.0
  0
LINE
  5
3C9D
  8
FUTO
 10
16463.469694356168
 20
18501.763082967489
 30
0.0
 11
16277.46969435617
 21
18501.763082967489
 31
0.0
  0
LINE
  5
3C9F
  8
FUTO
 10
16750.469694356168
 20
18181.763082967489
 30
0.0
 11
16750.469694356168
 21
18436.763082967489
 31
0.0
  0
POINT
  5
3CA0
  8
DEFPOINTS
 10
16750.469694356168
 20
18181.763082967489
 30
0.0
  0
LINE
  5
3CA3
  8
FUTO
 10
16445.469694356168
 20
18616.763082967489
 30
0.0
 11
16445.469694356168
 21
18622.263082967489
 31
0.0
  0
ARC
  5
3CA4
  8
FUTO
 10
16454.469694356168
 20
18610.763082967489
 30
0.0
 40
6.0
 50
0.000000000000007
 51
90.0
  0
LINE
  5
3CA5
  8
FUTO
 10
16460.469694356168
 20
18601.763082967489
 30
0.0
 11
16460.469694356168
 21
18610.763082967489
 31
0.0
  0
LINE
  5
3CA6
  8
FUTO
 10
16295.46969435617
 20
18622.263082967489
 30
0.0
 11
16295.46969435617
 21
18616.763082967489
 31
0.0
  0
ARC
  5
3CA7
  8
FUTO
 10
16286.46969435617
 20
18610.763082967489
 30
0.0
 40
6.0
 50
90.0
 51
180.0
  0
LINE
  5
3CA9
  8
FUTO
 10
16280.46969435617
 20
18610.763082967489
 30
0.0
 11
16280.46969435617
 21
18601.763082967489
 31
0.0
  0
LINE
  5
3CAA
  8
FUTO
 10
16445.469694356168
 20
18622.263082967489
 30
0.0
 11
16295.46969435617
 21
18622.263082967489
 31
0.0
  0
LINE
  5
3CAB
  8
FUTO
 10
16454.469694356168
 20
18616.763082967489
 30
0.0
 11
16286.46969435617
 21
18616.763082967489
 31
0.0
  0
LINE
  5
3CAC
  8
FUTO
 10
16277.46969435617
 20
18601.763082967489
 30
0.0
 11
16463.469694356168
 21
18601.763082967489
 31
0.0
  0
LINE
  5
3CAF
  8
FUTO
 10
17120.469694356168
 20
20635.763082967489
 30
0.0
 11
15620.46969435617
 21
20635.763082967489
 31
0.0
  0
LINE
  5
3CB0
  8
FUTO
 10
17120.469694356168
 20
20629.763082967489
 30
0.0
 11
15620.46969435617
 21
20629.763082967489
 31
0.0
  0
LINE
  5
3CB1
  8
KL
 10
16361.46969435617
 20
20540.96308296749
 30
0.0
 11
15620.46969435617
 21
20540.96308296749
 31
0.0
  0
LINE
  5
3CB5
  8
KL
 10
17074.782436665198
 20
20537.763082967489
 30
0.0
 11
15666.15695204714
 21
20537.763082967489
 31
0.0
  0
LINE
  5
3CB9
  8
CT
 10
16488.97319131629
 20
19261.763082967489
 30
0.0
 11
16185.305531141021
 21
19261.763082967489
 31
0.0
  0
LINE
  5
3CBA
  8
KL
 10
15670.46969435617
 20
20534.96308296749
 30
0.0
 11
15670.46969435617
 21
20635.763082967489
 31
0.0
  0
LINE
  5
3CBB
  8
KL
 10
15664.46969435617
 20
20540.96308296749
 30
0.0
 11
15664.46969435617
 21
20609.96308296749
 31
0.0
  0
LINE
  5
3CBC
  8
KL
 10
15620.46969435617
 20
20534.96308296749
 30
0.0
 11
15620.46969435617
 21
20540.96308296749
 31
0.0
  0
LINE
  5
3CBD
  8
CT
 10
15637.96969435617
 20
20502.478385372389
 30
0.0
 11
15637.96969435617
 21
20559.521118504439
 31
0.0
  0
LINE
  5
3CBE
  8
FUTO
 10
15620.46969435617
 20
20629.763082967489
 30
0.0
 11
15620.46969435617
 21
20635.763082967489
 31
0.0
  0
LINE
  5
3CBF
  8
CT
 10
15637.96969435617
 20
20606.643348054859
 30
0.0
 11
15637.96969435617
 21
20666.786201808729
 31
0.0
  0
LINE
  5
3CC0
  8
FUTO
 10
15664.46969435617
 20
20609.96308296749
 30
0.0
 11
15664.46969435617
 21
20629.763082967489
 31
0.0
  0
LINE
  5
3CC7
  8
FUTO
 10
16474.469694356168
 20
19328.263082967489
 30
0.0
 11
16474.469694356168
 21
19195.263082967489
 31
0.0
  0
ARC
  5
3CCA
  8
FUTO
 10
16468.469694356168
 20
19195.263082967489
 30
0.0
 40
6.0
 50
270.0
 51
0.000000000000007
  0
LINE
  5
3CCB
  8
FUTO
 10
16460.469694356168
 20
19189.263082967489
 30
0.0
 11
16460.469694356168
 21
19184.263082967489
 31
0.0
  0
ARC
  5
3CCC
  8
FUTO
 10
16272.46969435617
 20
19195.263082967489
 30
0.0
 40
6.0
 50
180.0
 51
270.0
  0
LINE
  5
3CCD
  8
FUTO
 10
16266.46969435617
 20
19195.263082967489
 30
0.0
 11
16266.46969435617
 21
19206.763082967489
 31
0.0
  0
LINE
  5
3CCF
  8
FUTO
 10
16280.46969435617
 20
19184.263082967489
 30
0.0
 11
16280.46969435617
 21
19189.263082967489
 31
0.0
  0
LINE
  5
3CD0
  8
FUTO
 10
16468.469694356168
 20
19189.263082967489
 30
0.0
 11
16272.46969435617
 21
19189.263082967489
 31
0.0
  0
LINE
  5
3CD1
  8
FUTO
 10
16460.469694356168
 20
19184.263082967489
 30
0.0
 11
16280.46969435617
 21
19184.263082967489
 31
0.0
  0
LINE
  5
3CD2
  8
FUTO
 10
16474.469694356168
 20
19206.763082967489
 30
0.0
 11
16266.46969435617
 21
19206.763082967489
 31
0.0
  0
LINE
  5
3CD4
  8
FUTO
 10
16460.469694356168
 20
19334.263082967489
 30
0.0
 11
16460.469694356168
 21
19339.263082967489
 31
0.0
  0
ARC
  5
3CD5
  8
FUTO
 10
16468.469694356168
 20
19328.263082967489
 30
0.0
 40
6.0
 50
0.000000000000007
 51
90.0
  0
LINE
  5
3CD6
  8
FUTO
 10
16280.46969435617
 20
19339.263082967489
 30
0.0
 11
16280.46969435617
 21
19334.263082967489
 31
0.0
  0
ARC
  5
3CD7
  8
FUTO
 10
16272.46969435617
 20
19328.263082967489
 30
0.0
 40
6.0
 50
90.0
 51
180.0
  0
LINE
  5
3CD8
  8
FUTO
 10
16266.46969435617
 20
19328.263082967489
 30
0.0
 11
16266.46969435617
 21
19316.763082967489
 31
0.0
  0
LINE
  5
3CDA
  8
FUTO
 10
16460.469694356168
 20
19339.263082967489
 30
0.0
 11
16280.46969435617
 21
19339.263082967489
 31
0.0
  0
LINE
  5
3CDB
  8
FUTO
 10
16468.469694356168
 20
19334.263082967489
 30
0.0
 11
16272.46969435617
 21
19334.263082967489
 31
0.0
  0
LINE
  5
3CDC
  8
FUTO
 10
16474.469694356168
 20
19316.763082967489
 30
0.0
 11
16266.46969435617
 21
19316.763082967489
 31
0.0
  0
LINE
  5
3CDD
  8
FUTO
 10
16325.46969435617
 20
19330.763082967489
 30
0.0
 11
16325.46969435617
 21
19393.563082967488
 31
0.0
  0
LINE
  5
3CDE
  8
FUTO
 10
16415.469694356168
 20
19330.763082967489
 30
0.0
 11
16415.469694356168
 21
19392.263082967489
 31
0.0
  0
LINE
  5
3CE2
  8
KL
 10
17120.469694356168
 20
20540.96308296749
 30
0.0
 11
16379.46969435617
 21
20540.96308296749
 31
0.0
  0
INSERT
  5
3CE3
  8
FUTO
  2
まっすぐの矢印
 10
16926.72158267616
 20
20697.6098636569
 30
0.0
 41
2.0
 42
2.0
 43
2.0
 50
180.0
  0
LINE
  5
3CE4
  8
KL
 10
17070.469694356168
 20
20534.96308296749
 30
0.0
 11
17070.469694356168
 21
20635.763082967489
 31
0.0
  0
LINE
  5
3CE5
  8
KL
 10
17076.469694356168
 20
20540.96308296749
 30
0.0
 11
17076.469694356168
 21
20611.263082967489
 31
0.0
  0
LINE
  5
3CE6
  8
KL
 10
17120.469694356168
 20
20534.96308296749
 30
0.0
 11
17120.469694356168
 21
20540.96308296749
 31
0.0
  0
LINE
  5
3CE7
  8
CT
 10
17102.969694356168
 20
20512.306981723628
 30
0.0
 11
17102.969694356168
 21
20555.012620148878
 31
0.0
  0
LINE
  5
3CE8
  8
FUTO
 10
17120.469694356168
 20
20629.763082967489
 30
0.0
 11
17120.469694356168
 21
20635.763082967489
 31
0.0
  0
LINE
  5
3CE9
  8
CT
 10
17102.969694356168
 20
20607.002095705298
 30
0.0
 11
17102.969694356168
 21
20658.9915712617
 31
0.0
  0
LINE
  5
3CEA
  8
FUTO
 10
17076.469694356168
 20
20611.263082967489
 30
0.0
 11
17076.469694356168
 21
20629.763082967489
 31
0.0
  0
LINE
  5
3D2A
  8
FUTO
 10
16266.46969435617
 20
19328.263082967489
 30
0.0
 11
16266.46969435617
 21
19195.263082967489
 31
0.0
  0
LINE
  5
3D2B
  8
FUTO
 10
16277.46969435617
 20
18601.763082967489
 30
0.0
 11
16277.46969435617
 21
18501.763082967489
 31
0.0
  0
ARC
  5
4030
  8
FUTO
 10
15170.46969435617
 20
18392.763082967489
 30
0.0
 40
9.0
 50
0.000000000000007
 51
180.0
  0
LINE
  5
4031
  8
FUTO
 10
15161.46969435617
 20
18291.763082967489
 30
0.0
 11
15161.46969435617
 21
18392.763082967489
 31
0.0
  0
LINE
  5
4032
  8
FUTO
 10
15179.46969435617
 20
18291.763082967489
 30
0.0
 11
15179.46969435617
 21
18392.763082967489
 31
0.0
  0
LINE
  5
4033
  8
FUTO
 10
14913.469755356169
 20
18806.26302196749
 30
0.0
 11
14913.469755356169
 21
18842.263082967489
 31
0.0
  0
LINE
  5
4034
  8
FUTO
 10
14910.469755356169
 20
18806.26302196749
 30
0.0
 11
14910.469755356169
 21
18842.263082967489
 31
0.0
  0
LINE
  5
4035
  8
FUTO
 10
14918.469755356169
 20
18806.26302196749
 30
0.0
 11
14918.469755356169
 21
18853.263082967489
 31
0.0
  0
LINE
  5
4036
  8
FUTO
 10
14960.46969435617
 20
18467.263082967489
 30
0.0
 11
14960.46969435617
 21
18514.138082967489
 31
0.0
  0
LINE
  5
4037
  8
FUTO
 10
15012.778059360649
 20
18462.263082967489
 30
0.0
 11
14965.46969435617
 21
18462.263082967489
 31
0.0
  0
ARC
  5
4038
  8
FUTO
 10
14965.46969435617
 20
18467.263082967489
 30
0.0
 40
5.0
 50
180.0
 51
270.0
  0
LINE
  5
4039
  8
FUTO
 10
14980.788349137751
 20
18514.138082967489
 30
0.0
 11
14960.46969435617
 21
18514.138082967489
 31
0.0
  0
LINE
  5
403A
  8
FUTO
 10
14960.46969435617
 20
18512.263082967489
 30
0.0
 11
14913.469755356169
 21
18512.263082967489
 31
0.0
  0
LINE
  5
403B
  8
FUTO
 10
14960.46969435617
 20
18509.263082967489
 30
0.0
 11
14910.469755356169
 21
18509.263082967489
 31
0.0
  0
LINE
  5
403C
  8
FUTO
 10
14980.67922078789
 20
18517.263082967489
 30
0.0
 11
14918.469755356169
 21
18517.263082967489
 31
0.0
  0
LINE
  5
403D
  8
FUTO
 10
14918.469755356169
 20
18517.263082967489
 30
0.0
 11
14913.469755356169
 21
18512.263082967489
 31
0.0
  0
LINE
  5
403E
  8
FUTO
 10
14885.469755356169
 20
18552.263082967489
 30
0.0
 11
14885.469755356169
 21
18592.263082967489
 31
0.0
  0
LINE
  5
403F
  8
FUTO
 10
14915.469755356169
 20
18552.263082967489
 30
0.0
 11
14915.469755356169
 21
18592.263082967489
 31
0.0
  0
LINE
  5
4040
  8
FUTO
 10
14885.469755356169
 20
18592.263082967489
 30
0.0
 11
14915.469755356169
 21
18592.263082967489
 31
0.0
  0
LINE
  5
4041
  8
FUTO
 10
14915.469755356169
 20
18552.263082967489
 30
0.0
 11
14885.469755356169
 21
18552.263082967489
 31
0.0
  0
LINE
  5
4042
  8
CT
 10
14966.96969435617
 20
18572.263082967489
 30
0.0
 11
14799.41531235617
 21
18572.263082967489
 31
0.0
  0
LINE
  5
4043
  8
FUTO
 10
14811.015287356169
 20
18589.852926967491
 30
0.0
 11
14823.115263356171
 21
18589.852926967491
 31
0.0
  0
LINE
  5
4044
  8
FUTO
 10
14811.015287356169
 20
18554.673239967491
 30
0.0
 11
14823.115263356171
 21
18554.673239967491
 31
0.0
  0
LINE
  5
4045
  8
FUTO
 10
14811.015287356169
 20
18581.968160967492
 30
0.0
 11
14823.115263356171
 21
18581.968160967492
 31
0.0
  0
LINE
  5
4046
  8
FUTO
 10
14811.015287356169
 20
18562.55800496749
 30
0.0
 11
14823.115263356171
 21
18562.55800496749
 31
0.0
  0
LINE
  5
4047
  8
FUTO
 10
14809.41531235617
 20
18588.25331796749
 30
0.0
 11
14809.41531235617
 21
18556.273824967491
 31
0.0
  0
LINE
  5
4048
  8
FUTO
 10
14811.015287356169
 20
18554.673239967491
 30
0.0
 11
14809.41531235617
 21
18556.273824967491
 31
0.0
  0
LINE
  5
4049
  8
FUTO
 10
14811.015287356169
 20
18562.55800496749
 30
0.0
 11
14809.41531235617
 21
18560.958395967489
 31
0.0
  0
LINE
  5
404A
  8
FUTO
 10
14811.015287356169
 20
18562.55800496749
 30
0.0
 11
14809.41531235617
 21
18564.15859096749
 31
0.0
  0
LINE
  5
404B
  8
FUTO
 10
14809.41531235617
 20
18588.25331796749
 30
0.0
 11
14811.015287356169
 21
18589.852926967491
 31
0.0
  0
LINE
  5
404C
  8
FUTO
 10
14811.015287356169
 20
18581.968160967492
 30
0.0
 11
14809.41531235617
 21
18583.568746967489
 31
0.0
  0
LINE
  5
404D
  8
FUTO
 10
14811.015287356169
 20
18581.968160967492
 30
0.0
 11
14809.41531235617
 21
18580.368551967491
 31
0.0
  0
LINE
  5
404E
  8
FUTO
 10
14823.115263356171
 20
18589.852926967491
 30
0.0
 11
14823.115263356171
 21
18554.673239967491
 31
0.0
  0
LINE
  5
404F
  8
FUTO
 10
14823.115263356171
 20
18563.263082967489
 30
0.0
 11
14885.469755356169
 21
18563.263082967489
 31
0.0
  0
LINE
  5
4050
  8
HOSO
 10
14885.469755356169
 20
18565.263082967489
 30
0.0
 11
14823.11520235617
 21
18565.263082967489
 31
0.0
  0
LINE
  5
4051
  8
HOSO
 10
14823.115263356171
 20
18579.263082967489
 30
0.0
 11
14885.469755356169
 21
18579.263082967489
 31
0.0
  0
LINE
  5
4052
  8
FUTO
 10
14885.469755356169
 20
18581.263082967489
 30
0.0
 11
14823.11520235617
 21
18581.263082967489
 31
0.0
  0
LINE
  5
4053
  8
FUTO
 10
14915.469755356169
 20
18563.263082967489
 30
0.0
 11
14966.96969435617
 21
18563.263082967489
 31
0.0
  0
LINE
  5
4054
  8
HOSO
 10
14966.96969435617
 20
18565.263082967489
 30
0.0
 11
14915.469755356169
 21
18565.263082967489
 31
0.0
  0
LINE
  5
4055
  8
FUTO
 10
14966.96969435617
 20
18581.263082967489
 30
0.0
 11
14915.469755356169
 21
18581.263082967489
 31
0.0
  0
LINE
  5
4056
  8
HOSO
 10
14915.469755356169
 20
18579.263082967489
 30
0.0
 11
14966.96969435617
 21
18579.263082967489
 31
0.0
  0
LINE
  5
4057
  8
FUTO
 10
14910.469755356169
 20
18509.263082967489
 30
0.0
 11
14910.469755356169
 21
18552.263082967489
 31
0.0
  0
LINE
  5
4058
  8
FUTO
 10
14913.469755356169
 20
18512.263082967489
 30
0.0
 11
14913.469755356169
 21
18552.263082967489
 31
0.0
  0
LINE
  5
4059
  8
FUTO
 10
14918.469755356169
 20
18517.263082967489
 30
0.0
 11
14918.469755356169
 21
18563.263082967489
 31
0.0
  0
LINE
  5
405A
  8
FUTO
 10
14910.469755356169
 20
18592.263082967489
 30
0.0
 11
14910.469755356169
 21
18628.263082967489
 31
0.0
  0
LINE
  5
405B
  8
FUTO
 10
14913.469755356169
 20
18592.263082967489
 30
0.0
 11
14913.469755356169
 21
18628.263082967489
 31
0.0
  0
LINE
  5
405C
  8
FUTO
 10
14918.469755356169
 20
18581.263082967489
 30
0.0
 11
14918.469755356169
 21
18628.263082967489
 31
0.0
  0
LINE
  5
405D
  8
FUTO
 10
14885.469755356169
 20
18853.263082967489
 30
0.0
 11
14823.11520235617
 21
18853.263082967489
 31
0.0
  0
LINE
  5
405E
  8
HOSO
 10
14823.115263356171
 20
18855.263082967489
 30
0.0
 11
14885.469755356169
 21
18855.263082967489
 31
0.0
  0
LINE
  5
405F
  8
HOSO
 10
14885.469755356169
 20
18869.263082967489
 30
0.0
 11
14823.11520235617
 21
18869.263082967489
 31
0.0
  0
LINE
  5
4060
  8
FUTO
 10
14823.115263356171
 20
18871.263082967489
 30
0.0
 11
14885.469755356169
 21
18871.263082967489
 31
0.0
  0
LINE
  5
4061
  8
FUTO
 10
14823.115263356171
 20
18844.673238967491
 30
0.0
 11
14823.115263356171
 21
18879.852925967491
 31
0.0
  0
LINE
  5
4062
  8
FUTO
 10
14811.015287356169
 20
18852.55800496749
 30
0.0
 11
14809.41531235617
 21
18854.157613967491
 31
0.0
  0
LINE
  5
4063
  8
FUTO
 10
14811.015287356169
 20
18852.55800496749
 30
0.0
 11
14809.41531235617
 21
18850.95741896749
 31
0.0
  0
LINE
  5
4064
  8
FUTO
 10
14809.41531235617
 20
18846.272847967492
 30
0.0
 11
14811.015287356169
 21
18844.673238967491
 31
0.0
  0
LINE
  5
4065
  8
FUTO
 10
14811.015287356169
 20
18871.968160967492
 30
0.0
 11
14809.41531235617
 21
18870.367574967491
 31
0.0
  0
LINE
  5
4066
  8
FUTO
 10
14811.015287356169
 20
18871.968160967492
 30
0.0
 11
14809.41531235617
 21
18873.567769967489
 31
0.0
  0
LINE
  5
4067
  8
FUTO
 10
14811.015287356169
 20
18879.852925967491
 30
0.0
 11
14809.41531235617
 21
18878.25234096749
 31
0.0
  0
LINE
  5
4068
  8
FUTO
 10
14809.41531235617
 20
18846.272847967492
 30
0.0
 11
14809.41531235617
 21
18878.25234096749
 31
0.0
  0
LINE
  5
4069
  8
FUTO
 10
14811.015287356169
 20
18871.968160967492
 30
0.0
 11
14823.115263356171
 21
18871.968160967492
 31
0.0
  0
LINE
  5
406A
  8
FUTO
 10
14811.015287356169
 20
18852.55800496749
 30
0.0
 11
14823.115263356171
 21
18852.55800496749
 31
0.0
  0
LINE
  5
406B
  8
FUTO
 10
14811.015287356169
 20
18879.852925967491
 30
0.0
 11
14823.115263356171
 21
18879.852925967491
 31
0.0
  0
LINE
  5
406C
  8
FUTO
 10
14811.015287356169
 20
18844.673238967491
 30
0.0
 11
14823.115263356171
 21
18844.673238967491
 31
0.0
  0
LINE
  5
406D
  8
FUTO
 10
14915.469755356169
 20
18882.263082967489
 30
0.0
 11
14885.469755356169
 21
18882.263082967489
 31
0.0
  0
LINE
  5
406E
  8
FUTO
 10
14885.469755356169
 20
18842.263082967489
 30
0.0
 11
14915.469755356169
 21
18842.263082967489
 31
0.0
  0
LINE
  5
406F
  8
FUTO
 10
14915.469755356169
 20
18882.263082967489
 30
0.0
 11
14915.469755356169
 21
18842.263082967489
 31
0.0
  0
LINE
  5
4070
  8
FUTO
 10
14885.469755356169
 20
18882.263082967489
 30
0.0
 11
14885.469755356169
 21
18842.263082967489
 31
0.0
  0
LINE
  5
4071
  8
HOSO
 10
14915.469755356169
 20
18855.263082967489
 30
0.0
 11
14966.96969435617
 21
18855.263082967489
 31
0.0
  0
LINE
  5
4072
  8
FUTO
 10
14966.96969435617
 20
18853.263082967489
 30
0.0
 11
14915.469755356169
 21
18853.263082967489
 31
0.0
  0
LINE
  5
4073
  8
HOSO
 10
14966.96969435617
 20
18869.263082967489
 30
0.0
 11
14915.469755356169
 21
18869.263082967489
 31
0.0
  0
LINE
  5
4074
  8
FUTO
 10
14915.469755356169
 20
18871.263082967489
 30
0.0
 11
14966.96969435617
 21
18871.263082967489
 31
0.0
  0
LINE
  5
4075
  8
CT
 10
14966.96969435617
 20
18862.263082967489
 30
0.0
 11
14799.41531235617
 21
18862.263082967489
 31
0.0
  0
LINE
  5
4076
  8
FUTO
 10
14918.469755356169
 20
18917.263082967489
 30
0.0
 11
14913.469755356169
 21
18922.263082967489
 31
0.0
  0
LINE
  5
4077
  8
FUTO
 10
14960.46969435617
 20
18925.263082967489
 30
0.0
 11
14910.469755356169
 21
18925.263082967489
 31
0.0
  0
LINE
  5
4078
  8
FUTO
 10
14960.46969435617
 20
18922.263082967489
 30
0.0
 11
14913.469755356169
 21
18922.263082967489
 31
0.0
  0
LINE
  5
4079
  8
FUTO
 10
14966.96969435617
 20
18920.388082967489
 30
0.0
 11
14960.46969435617
 21
18920.388082967489
 31
0.0
  0
LINE
  5
407A
  8
FUTO
 10
14966.96969435617
 20
18917.263082967489
 30
0.0
 11
14918.469755356169
 21
18917.263082967489
 31
0.0
  0
LINE
  5
407B
  8
FUTO
 10
14918.469755356169
 20
18917.263082967489
 30
0.0
 11
14918.469755356169
 21
18871.263082967489
 31
0.0
  0
LINE
  5
407C
  8
FUTO
 10
14913.469755356169
 20
18922.263082967489
 30
0.0
 11
14913.469755356169
 21
18882.263082967489
 31
0.0
  0
LINE
  5
407D
  8
FUTO
 10
14910.469755356169
 20
18925.263082967489
 30
0.0
 11
14910.469755356169
 21
18882.263082967489
 31
0.0
  0
ARC
  5
407E
  8
FUTO
 10
14965.46969435617
 20
18967.263082967489
 30
0.0
 40
5.0
 50
89.999999999999986
 51
180.0
  0
LINE
  5
407F
  8
FUTO
 10
14960.46969435617
 20
18967.263082967489
 30
0.0
 11
14960.46969435617
 21
18920.388082967489
 31
0.0
  0
LINE
  5
4080
  8
FUTO
 10
14977.96969435617
 20
18972.263082967489
 30
0.0
 11
14965.46969435617
 21
18972.263082967489
 31
0.0
  0
LINE
  5
4081
  8
CT
 10
15373.96969435617
 20
18862.263082967489
 30
0.0
 11
15541.524076356171
 21
18862.263082967489
 31
0.0
  0
LINE
  5
4082
  8
FUTO
 10
15425.46963335617
 20
18871.263082967489
 30
0.0
 11
15373.96969435617
 21
18871.263082967489
 31
0.0
  0
LINE
  5
4083
  8
HOSO
 10
15373.96969435617
 20
18869.263082967489
 30
0.0
 11
15425.46963335617
 21
18869.263082967489
 31
0.0
  0
LINE
  5
4084
  8
FUTO
 10
15373.96969435617
 20
18853.263082967489
 30
0.0
 11
15425.46963335617
 21
18853.263082967489
 31
0.0
  0
LINE
  5
4085
  8
HOSO
 10
15425.46963335617
 20
18855.263082967489
 30
0.0
 11
15373.96969435617
 21
18855.263082967489
 31
0.0
  0
LINE
  5
4086
  8
FUTO
 10
15455.46963335617
 20
18882.263082967489
 30
0.0
 11
15455.46963335617
 21
18842.263082967489
 31
0.0
  0
LINE
  5
4087
  8
FUTO
 10
15425.46963335617
 20
18882.263082967489
 30
0.0
 11
15425.46963335617
 21
18842.263082967489
 31
0.0
  0
LINE
  5
4088
  8
FUTO
 10
15455.46963335617
 20
18842.263082967489
 30
0.0
 11
15425.46963335617
 21
18842.263082967489
 31
0.0
  0
LINE
  5
4089
  8
FUTO
 10
15425.46963335617
 20
18882.263082967489
 30
0.0
 11
15455.46963335617
 21
18882.263082967489
 31
0.0
  0
LINE
  5
408A
  8
FUTO
 10
15529.92410135617
 20
18844.673238967491
 30
0.0
 11
15517.82412535617
 21
18844.673238967491
 31
0.0
  0
LINE
  5
408B
  8
FUTO
 10
15529.92410135617
 20
18879.852925967491
 30
0.0
 11
15517.82412535617
 21
18879.852925967491
 31
0.0
  0
LINE
  5
408C
  8
FUTO
 10
15529.92410135617
 20
18852.55800496749
 30
0.0
 11
15517.82412535617
 21
18852.55800496749
 31
0.0
  0
LINE
  5
408D
  8
FUTO
 10
15529.92410135617
 20
18871.968160967492
 30
0.0
 11
15517.82412535617
 21
18871.968160967492
 31
0.0
  0
LINE
  5
408E
  8
FUTO
 10
15531.524076356171
 20
18846.272847967492
 30
0.0
 11
15531.524076356171
 21
18878.25234096749
 31
0.0
  0
LINE
  5
408F
  8
FUTO
 10
15529.92410135617
 20
18879.852925967491
 30
0.0
 11
15531.524076356171
 21
18878.25234096749
 31
0.0
  0
LINE
  5
4090
  8
FUTO
 10
15529.92410135617
 20
18871.968160967492
 30
0.0
 11
15531.524076356171
 21
18873.567769967489
 31
0.0
  0
LINE
  5
4091
  8
FUTO
 10
15529.92410135617
 20
18871.968160967492
 30
0.0
 11
15531.524076356171
 21
18870.367574967491
 31
0.0
  0
LINE
  5
4092
  8
FUTO
 10
15531.524076356171
 20
18846.272847967492
 30
0.0
 11
15529.92410135617
 21
18844.673238967491
 31
0.0
  0
LINE
  5
4093
  8
FUTO
 10
15529.92410135617
 20
18852.55800496749
 30
0.0
 11
15531.524076356171
 21
18850.95741896749
 31
0.0
  0
LINE
  5
4094
  8
FUTO
 10
15529.92410135617
 20
18852.55800496749
 30
0.0
 11
15531.524076356171
 21
18854.157613967491
 31
0.0
  0
LINE
  5
4095
  8
FUTO
 10
15517.82412535617
 20
18844.673238967491
 30
0.0
 11
15517.82412535617
 21
18879.852925967491
 31
0.0
  0
LINE
  5
4096
  8
FUTO
 10
15517.82412535617
 20
18871.263082967489
 30
0.0
 11
15455.46963335617
 21
18871.263082967489
 31
0.0
  0
LINE
  5
4097
  8
HOSO
 10
15455.46963335617
 20
18869.263082967489
 30
0.0
 11
15517.824186356171
 21
18869.263082967489
 31
0.0
  0
LINE
  5
4098
  8
HOSO
 10
15517.82412535617
 20
18855.263082967489
 30
0.0
 11
15455.46963335617
 21
18855.263082967489
 31
0.0
  0
LINE
  5
4099
  8
FUTO
 10
15455.46963335617
 20
18853.263082967489
 30
0.0
 11
15517.824186356171
 21
18853.263082967489
 31
0.0
  0
LINE
  5
409A
  8
FUTO
 10
15430.46963335617
 20
18925.263082967489
 30
0.0
 11
15430.46963335617
 21
18882.263082967489
 31
0.0
  0
LINE
  5
409B
  8
FUTO
 10
15427.46963335617
 20
18922.263082967489
 30
0.0
 11
15427.46963335617
 21
18882.263082967489
 31
0.0
  0
LINE
  5
409C
  8
FUTO
 10
15422.46963335617
 20
18917.263082967489
 30
0.0
 11
15422.46963335617
 21
18871.263082967489
 31
0.0
  0
LINE
  5
409D
  8
FUTO
 10
15362.96969435617
 20
18972.263082967489
 30
0.0
 11
15375.46969435617
 21
18972.263082967489
 31
0.0
  0
LINE
  5
409E
  8
FUTO
 10
15373.96969435617
 20
18917.263082967489
 30
0.0
 11
15422.46963335617
 21
18917.263082967489
 31
0.0
  0
LINE
  5
409F
  8
FUTO
 10
15373.96969435617
 20
18920.388082967489
 30
0.0
 11
15380.46969435617
 21
18920.388082967489
 31
0.0
  0
LINE
  5
40A0
  8
FUTO
 10
15380.46969435617
 20
18967.263082967489
 30
0.0
 11
15380.46969435617
 21
18920.388082967489
 31
0.0
  0
LINE
  5
40A1
  8
FUTO
 10
15380.46969435617
 20
18922.263082967489
 30
0.0
 11
15427.46963335617
 21
18922.263082967489
 31
0.0
  0
LINE
  5
40A2
  8
FUTO
 10
15380.46969435617
 20
18925.263082967489
 30
0.0
 11
15430.46963335617
 21
18925.263082967489
 31
0.0
  0
ARC
  5
40A3
  8
FUTO
 10
15375.46969435617
 20
18967.263082967489
 30
0.0
 40
5.0
 50
0.000000000000007
 51
89.999999999999986
  0
LINE
  5
40A4
  8
FUTO
 10
15422.46963335617
 20
18917.263082967489
 30
0.0
 11
15427.46963335617
 21
18922.263082967489
 31
0.0
  0
LINE
  5
40A5
  8
FUTO
 10
15360.151039574601
 20
18514.138082967489
 30
0.0
 11
15380.46969435617
 21
18514.138082967489
 31
0.0
  0
LINE
  5
40A6
  8
FUTO
 10
15422.46963335617
 20
18581.263082967489
 30
0.0
 11
15422.46963335617
 21
18853.263082967489
 31
0.0
  0
LINE
  5
40A7
  8
FUTO
 10
15422.46963335617
 20
18517.263082967489
 30
0.0
 11
15427.46963335617
 21
18512.263082967489
 31
0.0
  0
LINE
  5
40A8
  8
FUTO
 10
15422.46963335617
 20
18517.263082967489
 30
0.0
 11
15422.46963335617
 21
18563.263082967489
 31
0.0
  0
LINE
  5
40A9
  8
FUTO
 10
15360.26016792446
 20
18517.263082967489
 30
0.0
 11
15422.46963335617
 21
18517.263082967489
 31
0.0
  0
ARC
  5
40AA
  8
FUTO
 10
15375.46969435617
 20
18467.263082967489
 30
0.0
 40
5.0
 50
270.0
 51
0.000000000000007
  0
LINE
  5
40AB
  8
FUTO
 10
15380.46969435617
 20
18509.263082967489
 30
0.0
 11
15430.46963335617
 21
18509.263082967489
 31
0.0
  0
LINE
  5
40AC
  8
FUTO
 10
15380.46969435617
 20
18512.263082967489
 30
0.0
 11
15427.46963335617
 21
18512.263082967489
 31
0.0
  0
LINE
  5
40AD
  8
FUTO
 10
15328.1613293517
 20
18462.263082967489
 30
0.0
 11
15375.46969435617
 21
18462.263082967489
 31
0.0
  0
LINE
  5
40AE
  8
FUTO
 10
15380.46969435617
 20
18467.263082967489
 30
0.0
 11
15380.46969435617
 21
18514.138082967489
 31
0.0
  0
LINE
  5
40AF
  8
FUTO
 10
15427.46963335617
 20
18592.263082967489
 30
0.0
 11
15427.46963335617
 21
18842.263082967489
 31
0.0
  0
LINE
  5
40B0
  8
FUTO
 10
15430.46963335617
 20
18592.263082967489
 30
0.0
 11
15430.46963335617
 21
18842.263082967489
 31
0.0
  0
LINE
  5
40B1
  8
FUTO
 10
15427.46963335617
 20
18512.263082967489
 30
0.0
 11
15427.46963335617
 21
18552.263082967489
 31
0.0
  0
LINE
  5
40B2
  8
FUTO
 10
15430.46963335617
 20
18509.263082967489
 30
0.0
 11
15430.46963335617
 21
18552.263082967489
 31
0.0
  0
LINE
  5
40B3
  8
HOSO
 10
15425.46963335617
 20
18579.263082967489
 30
0.0
 11
15373.96969435617
 21
18579.263082967489
 31
0.0
  0
LINE
  5
40B4
  8
FUTO
 10
15373.96969435617
 20
18581.263082967489
 30
0.0
 11
15425.46963335617
 21
18581.263082967489
 31
0.0
  0
LINE
  5
40B5
  8
HOSO
 10
15373.96969435617
 20
18565.263082967489
 30
0.0
 11
15425.46963335617
 21
18565.263082967489
 31
0.0
  0
LINE
  5
40B6
  8
FUTO
 10
15425.46963335617
 20
18563.263082967489
 30
0.0
 11
15373.96969435617
 21
18563.263082967489
 31
0.0
  0
LINE
  5
40B7
  8
FUTO
 10
15455.46963335617
 20
18581.263082967489
 30
0.0
 11
15517.824186356171
 21
18581.263082967489
 31
0.0
  0
LINE
  5
40B8
  8
HOSO
 10
15517.82412535617
 20
18579.263082967489
 30
0.0
 11
15455.46963335617
 21
18579.263082967489
 31
0.0
  0
LINE
  5
40B9
  8
HOSO
 10
15455.46963335617
 20
18565.263082967489
 30
0.0
 11
15517.824186356171
 21
18565.263082967489
 31
0.0
  0
LINE
  5
40BA
  8
FUTO
 10
15517.82412535617
 20
18563.263082967489
 30
0.0
 11
15455.46963335617
 21
18563.263082967489
 31
0.0
  0
LINE
  5
40BB
  8
FUTO
 10
15517.82412535617
 20
18589.852926967491
 30
0.0
 11
15517.82412535617
 21
18554.673239967491
 31
0.0
  0
LINE
  5
40BC
  8
FUTO
 10
15529.92410135617
 20
18581.968160967492
 30
0.0
 11
15531.524076356171
 21
18580.368551967491
 31
0.0
  0
LINE
  5
40BD
  8
FUTO
 10
15529.92410135617
 20
18581.968160967492
 30
0.0
 11
15531.524076356171
 21
18583.568746967489
 31
0.0
  0
LINE
  5
40BE
  8
FUTO
 10
15531.524076356171
 20
18588.25331796749
 30
0.0
 11
15529.92410135617
 21
18589.852926967491
 31
0.0
  0
LINE
  5
40BF
  8
FUTO
 10
15529.92410135617
 20
18562.55800496749
 30
0.0
 11
15531.524076356171
 21
18564.15859096749
 31
0.0
  0
LINE
  5
40C0
  8
FUTO
 10
15529.92410135617
 20
18562.55800496749
 30
0.0
 11
15531.524076356171
 21
18560.958395967489
 31
0.0
  0
LINE
  5
40C1
  8
FUTO
 10
15529.92410135617
 20
18554.673239967491
 30
0.0
 11
15531.524076356171
 21
18556.273824967491
 31
0.0
  0
LINE
  5
40C2
  8
FUTO
 10
15531.524076356171
 20
18588.25331796749
 30
0.0
 11
15531.524076356171
 21
18556.273824967491
 31
0.0
  0
LINE
  5
40C3
  8
FUTO
 10
15529.92410135617
 20
18562.55800496749
 30
0.0
 11
15517.82412535617
 21
18562.55800496749
 31
0.0
  0
LINE
  5
40C4
  8
FUTO
 10
15529.92410135617
 20
18581.968160967492
 30
0.0
 11
15517.82412535617
 21
18581.968160967492
 31
0.0
  0
LINE
  5
40C5
  8
FUTO
 10
15529.92410135617
 20
18554.673239967491
 30
0.0
 11
15517.82412535617
 21
18554.673239967491
 31
0.0
  0
LINE
  5
40C6
  8
FUTO
 10
15529.92410135617
 20
18589.852926967491
 30
0.0
 11
15517.82412535617
 21
18589.852926967491
 31
0.0
  0
LINE
  5
40C7
  8
CT
 10
15373.96969435617
 20
18572.263082967489
 30
0.0
 11
15541.524076356171
 21
18572.263082967489
 31
0.0
  0
LINE
  5
40C8
  8
FUTO
 10
15425.46963335617
 20
18552.263082967489
 30
0.0
 11
15455.46963335617
 21
18552.263082967489
 31
0.0
  0
LINE
  5
40C9
  8
FUTO
 10
15455.46963335617
 20
18592.263082967489
 30
0.0
 11
15425.46963335617
 21
18592.263082967489
 31
0.0
  0
LINE
  5
40CA
  8
FUTO
 10
15425.46963335617
 20
18552.263082967489
 30
0.0
 11
15425.46963335617
 21
18592.263082967489
 31
0.0
  0
LINE
  5
40CB
  8
FUTO
 10
15455.46963335617
 20
18552.263082967489
 30
0.0
 11
15455.46963335617
 21
18592.263082967489
 31
0.0
  0
ARC
  5
40CC
  8
FUTO
 10
14838.84054435617
 20
18779.26302196749
 30
0.0
 40
20.0
 50
89.999999999999986
 51
180.0
  0
ARC
  5
40CD
  8
FUTO
 10
14838.84054435617
 20
18655.263082967489
 30
0.0
 40
20.0
 50
180.0
 51
270.0
  0
ARC
  5
40CE
  8
FUTO
 10
14828.84054435617
 20
18638.263082967489
 30
0.0
 40
10.0
 50
180.0
 51
270.0
  0
ARC
  5
40CF
  8
FUTO
 10
14828.84054435617
 20
18796.26302196749
 30
0.0
 40
10.0
 50
89.999999999999986
 51
180.0
  0
ARC
  5
40D0
  8
FUTO
 10
14931.697269255061
 20
18638.263082967489
 30
0.0
 40
10.0
 50
270.0
 51
0.000000000000007
  0
ARC
  5
40D1
  8
FUTO
 10
14928.530153716731
 20
18638.263082967489
 30
0.0
 40
10.0
 50
270.0
 51
0.000000000000007
  0
ARC
  5
40D2
  8
FUTO
 10
14931.697269255061
 20
18796.26302196749
 30
0.0
 40
10.0
 50
0.000000000000007
 51
89.999999999999986
  0
ARC
  5
40D3
  8
FUTO
 10
14928.530153716731
 20
18796.26302196749
 30
0.0
 40
10.0
 50
0.000000000000007
 51
89.999999999999986
  0
LINE
  5
40D4
  8
FUTO
 10
14931.333550437281
 20
18635.263082967489
 30
0.0
 11
14838.84054435617
 21
18635.263082967489
 31
0.0
  0
LINE
  5
40D5
  8
FUTO
 10
14931.333550437281
 20
18799.26302196749
 30
0.0
 11
14838.84054435617
 21
18799.26302196749
 31
0.0
  0
ARC
  5
40D6
  8
FUTO
 10
14945.46969435617
 20
18640.263082967489
 30
0.0
 40
5.0
 50
270.0
 51
0.000000000000007
  0
ARC
  5
40D7
  8
FUTO
 10
14945.46969435617
 20
18794.26302196749
 30
0.0
 40
5.0
 50
0.000000000000007
 51
89.999999999999986
  0
ARC
  5
40D8
  8
FUTO
 10
14931.333550437281
 20
18640.263082967489
 30
0.0
 40
5.0
 50
270.0
 51
0.000000000000007
  0
ARC
  5
40D9
  8
FUTO
 10
14931.333550437281
 20
18794.26302196749
 30
0.0
 40
5.0
 50
0.000000000000007
 51
89.999999999999986
  0
LINE
  5
40DA
  8
FUTO
 10
14931.697269255061
 20
18628.263082967489
 30
0.0
 11
14828.84054435617
 21
18628.263082967489
 31
0.0
  0
LINE
  5
40DB
  8
FUTO
 10
14945.46969435617
 20
18635.263082967489
 30
0.0
 11
14941.697269255061
 21
18635.263082967489
 31
0.0
  0
LINE
  5
40DC
  8
FUTO
 10
14931.697269255061
 20
18806.26302196749
 30
0.0
 11
14828.84054435617
 21
18806.26302196749
 31
0.0
  0
LINE
  5
40DD
  8
FUTO
 10
14945.46969435617
 20
18799.26302196749
 30
0.0
 11
14941.697269255061
 21
18799.26302196749
 31
0.0
  0
LINE
  5
40DE
  8
FUTO
 10
14966.96969435617
 20
18777.263082967489
 30
0.0
 11
14966.96969435617
 21
18884.073853716531
 31
0.0
  0
LINE
  5
40DF
  8
FUTO
 10
14950.46969435617
 20
18657.263082967489
 30
0.0
 11
15018.19609191635
 21
18657.263082967489
 31
0.0
  0
LINE
  5
40E0
  8
FUTO
 10
14950.46969435617
 20
18777.263082967489
 30
0.0
 11
15018.19609191635
 21
18777.263082967489
 31
0.0
  0
LINE
  5
40E1
  8
FUTO
 10
14860.15035835617
 20
18655.263082967489
 30
0.0
 11
14860.15035835617
 21
18779.26302196749
 31
0.0
  0
LINE
  5
40E2
  8
FUTO
 10
14936.33355043727
 20
18640.263082967489
 30
0.0
 11
14936.33355043727
 21
18794.26302196749
 31
0.0
  0
LINE
  5
40E3
  8
FUTO
 10
14938.530153716731
 20
18638.263082967489
 30
0.0
 11
14938.530153716731
 21
18796.26302196749
 31
0.0
  0
LINE
  5
40E4
  8
FUTO
 10
14941.697269255061
 20
18638.263082967489
 30
0.0
 11
14941.697269255061
 21
18796.26302196749
 31
0.0
  0
LINE
  5
40E5
  8
FUTO
 10
14950.46969435617
 20
18640.263082967489
 30
0.0
 11
14950.46969435617
 21
18794.26302196749
 31
0.0
  0
LINE
  5
40E6
  8
FUTO
 10
14960.46969435617
 20
18657.263082967489
 30
0.0
 11
14960.46969435617
 21
18777.263082967489
 31
0.0
  0
LINE
  5
40E7
  8
FUTO
 10
15018.19609191635
 20
18657.263082967489
 30
0.0
 11
15018.19609191635
 21
18777.263082967489
 31
0.0
  0
LINE
  5
40E8
  8
FUTO
 10
14818.84054435617
 20
18638.263082967489
 30
0.0
 11
14818.84054435617
 21
18796.26302196749
 31
0.0
  0
LINE
  5
40E9
  8
FUTO
 10
15164.21969435617
 20
18693.513082967489
 30
0.0
 11
15164.21969435617
 21
18741.013082967489
 31
0.0
  0
ARC
  5
40EA
  8
FUTO
 10
15170.46969435617
 20
18693.513082967489
 30
0.0
 40
6.25
 50
180.0
 51
0.000000000000007
  0
ARC
  5
40EB
  8
FUTO
 10
15170.46969435617
 20
18741.013082967489
 30
0.0
 40
6.25
 50
0.000000000000007
 51
180.0
  0
LINE
  5
40EC
  8
CT
 10
14798.84054435617
 20
18717.263082967489
 30
0.0
 11
15450.46963335617
 21
18717.263082967489
 31
0.0
  0
LINE
  5
40ED
  8
FUTO
 10
15176.71969435617
 20
18693.513082967489
 30
0.0
 11
15176.71969435617
 21
18741.013082967489
 31
0.0
  0
LINE
  5
40EE
  8
FUTO
 10
14966.96969435617
 20
18884.073853716531
 30
0.0
 11
14968.791471356169
 21
18886.26302196749
 31
0.0
  0
LINE
  5
40EF
  8
FUTO
 10
14966.96969435617
 20
18550.452169967491
 30
0.0
 11
14973.46969435617
 21
18542.64125696749
 31
0.0
  0
LINE
  5
40F0
  8
FUTO
 10
14966.96969435617
 20
18550.452169967491
 30
0.0
 11
14966.96969435617
 21
18657.263082967489
 31
0.0
  0
LINE
  5
40F1
  8
FUTO
 10
15373.96969435617
 20
18550.452169967491
 30
0.0
 11
15373.96969435617
 21
18884.073853716531
 31
0.0
  0
ARC
  5
40F2
  8
FUTO
 10
15092.46969435617
 20
18443.763082967489
 30
0.0
 40
2.0
 50
180.0
 51
270.0
  0
ARC
  5
40F3
  8
FUTO
 10
15087.46969435617
 20
18453.916158967491
 30
0.0
 40
2.9999599999999988
 50
0.000000000000007
 51
87.000442999965941
  0
LINE
  5
40F4
  8
FUTO
 10
15090.46969435617
 20
18453.916158967491
 30
0.0
 11
15090.46969435617
 21
18443.763082967489
 31
0.0
  0
ARC
  5
40F5
  8
FUTO
 10
14991.37374635617
 20
18497.548727967489
 30
0.0
 40
9.9999679999999991
 50
181.99932899999791
 51
225.0
  0
ARC
  5
40F6
  8
FUTO
 10
15018.36691035617
 20
18470.555562967489
 30
0.0
 40
10.000024
 50
225.0
 51
267.00096100006488
  0
LINE
  5
40F7
  8
FUTO
 10
14984.30270135617
 20
18490.477682967488
 30
0.0
 11
15011.295866356169
 21
18463.484518967489
 31
0.0
  0
LINE
  5
40F8
  8
FUTO
 10
14980.46969435617
 20
18523.263082967489
 30
0.0
 11
14981.37985035617
 21
18497.199850967489
 31
0.0
  0
LINE
  5
40F9
  8
FUTO
 10
15017.843717356171
 20
18460.56923496749
 30
0.0
 11
15106.43502635617
 21
18455.926412967488
 31
0.0
  0
LINE
  5
40FA
  8
FUTO
 10
15008.46969435617
 20
18533.263082967489
 30
0.0
 11
15332.46969435617
 21
18533.263082967489
 31
0.0
  0
LINE
  5
40FB
  8
FUTO
 10
15008.46969435617
 20
18523.263082967489
 30
0.0
 11
15008.46969435617
 21
18528.263082967489
 31
0.0
  0
LINE
  5
40FC
  8
FUTO
 10
15008.46969435617
 20
18528.263082967489
 30
0.0
 11
15008.46969435617
 21
18533.263082967489
 31
0.0
  0
LINE
  5
40FD
  8
FUTO
 10
14973.46969435617
 20
18542.64125696749
 30
0.0
 11
15008.46969435617
 21
18533.263082967489
 31
0.0
  0
ARC
  5
40FE
  8
FUTO
 10
14986.96969435617
 20
18932.736410967489
 30
0.0
 40
20.0
 50
159.99995399999131
 51
180.0
  0
ARC
  5
40FF
  8
FUTO
 10
14957.96969435617
 20
18970.011800967492
 30
0.0
 40
20.0
 50
340.00027499999669
 51
0.000000000000007
  0
LINE
  5
4100
  8
FUTO
 10
15022.82076835617
 20
18914.76302196749
 30
0.0
 11
15019.06783835617
 21
18921.26302196749
 31
0.0
  0
LINE
  5
4101
  8
FUTO
 10
15019.06783835617
 20
18921.26302196749
 30
0.0
 11
15022.82076835617
 21
18927.76302196749
 31
0.0
  0
LINE
  5
4102
  8
FUTO
 10
14968.175748356171
 20
18939.57686496749
 30
0.0
 11
14976.76363935617
 21
18963.171468967488
 31
0.0
  0
LINE
  5
4103
  8
FUTO
 10
14966.96969435617
 20
18886.26302196749
 30
0.0
 11
14966.96969435617
 21
18932.736410967489
 31
0.0
  0
LINE
  5
4104
  8
FUTO
 10
15034.07906935617
 20
18921.26302196749
 30
0.0
 11
15030.32613935617
 21
18927.76302196749
 31
0.0
  0
LINE
  5
4105
  8
FUTO
 10
15030.32613935617
 20
18914.76302196749
 30
0.0
 11
15034.07906935617
 21
18921.26302196749
 31
0.0
  0
LINE
  5
4106
  8
CT
 10
15026.57345335617
 20
18913.820882967491
 30
0.0
 11
15026.57345335617
 21
18928.27693796749
 31
0.0
  0
LINE
  5
4107
  8
CT
 10
15034.96407835617
 20
18921.26302196749
 30
0.0
 11
15018.14254535617
 21
18921.26302196749
 31
0.0
  0
LINE
  5
4108
  8
FUTO
 10
15030.32613935617
 20
18927.76302196749
 30
0.0
 11
15022.82076835617
 21
18927.76302196749
 31
0.0
  0
LINE
  5
4109
  8
FUTO
 10
15030.32613935617
 20
18914.76302196749
 30
0.0
 11
15022.82076835617
 21
18914.76302196749
 31
0.0
  0
CIRCLE
  5
410A
  8
FUTO
 10
15026.57345335617
 20
18921.26302196749
 30
0.0
 40
6.5
  0
ARC
  5
410B
  8
FUTO
 10
14992.96969435617
 20
19030.952108967489
 30
0.0
 40
15.0
 50
150.0001830000181
 51
180.0
  0
ARC
  5
410C
  8
FUTO
 10
15013.35641235617
 20
19086.26302196749
 30
0.0
 40
4.9999580000000003
 50
89.999999999999986
 51
149.9997180000272
  0
LINE
  5
410D
  8
FUTO
 10
15009.026334356169
 20
19088.76302196749
 30
0.0
 11
14979.97921535617
 21
19038.452108967489
 31
0.0
  0
LINE
  5
410E
  8
FUTO
 10
14977.96969435617
 20
18970.011800967492
 30
0.0
 11
14977.96969435617
 21
19030.952108967489
 31
0.0
  0
LINE
  5
410F
  8
FUTO
 10
15362.96969435617
 20
18970.011800967492
 30
0.0
 11
15362.96969435617
 21
19030.952108967489
 31
0.0
  0
LINE
  5
4110
  8
CT
 10
15170.46969435617
 20
18271.763082967489
 30
0.0
 11
15170.46969435617
 21
19111.263082967489
 31
0.0
  0
LINE
  5
4111
  8
FUTO
 10
15328.11965835617
 20
19091.263082967489
 30
0.0
 11
15013.329344356171
 21
19091.263082967489
 31
0.0
  0
LINE
  5
4112
  8
FUTO
 10
14977.96969435617
 20
19032.163045967489
 30
0.0
 11
15362.92062235617
 21
19032.163045967489
 31
0.0
  0
LINE
  5
4113
  8
FUTO
 10
15331.91305435617
 20
19088.76302196749
 30
0.0
 11
15360.96017335617
 21
19038.452108967489
 31
0.0
  0
ARC
  5
4114
  8
FUTO
 10
15327.582976356171
 20
19086.26302196749
 30
0.0
 40
4.9999580000000003
 50
30.000281999972739
 51
89.999999999999986
  0
ARC
  5
4115
  8
FUTO
 10
15347.96969435617
 20
19030.952108967489
 30
0.0
 40
15.0
 50
0.000000000000007
 51
29.999816999981789
  0
LINE
  5
4116
  8
FUTO
 10
15092.46969435617
 20
18441.763082967489
 30
0.0
 11
15170.46969435617
 21
18441.763082967489
 31
0.0
  0
LINE
  5
4117
  8
FUTO
 10
14980.46969435617
 20
18523.263082967489
 30
0.0
 11
15170.46969435617
 21
18523.263082967489
 31
0.0
  0
LINE
  5
4118
  8
FUTO
 10
15008.46969435617
 20
18528.263082967489
 30
0.0
 11
15170.46969435617
 21
18528.263082967489
 31
0.0
  0
LINE
  5
4119
  8
FUTO
 10
15363.28707735617
 20
18966.462972967489
 30
0.0
 11
14977.96969435617
 21
18966.462972967489
 31
0.0
  0
LINE
  5
411A
  8
FUTO
 10
15373.656218356169
 20
18936.26302196749
 30
0.0
 11
14967.2830741573
 21
18936.26302196749
 31
0.0
  0
LINE
  5
411B
  8
FUTO
 10
15373.96969435617
 20
18886.26302196749
 30
0.0
 11
14968.791471356169
 21
18886.26302196749
 31
0.0
  0
LINE
  5
411C
  8
FUTO
 10
15008.46969435617
 20
18528.263082967489
 30
0.0
 11
15170.46969435617
 21
18528.263082967489
 31
0.0
  0
CIRCLE
  5
411D
  8
FUTO
 10
15314.365935356171
 20
18921.26302196749
 30
0.0
 40
6.5
  0
LINE
  5
411E
  8
FUTO
 10
15310.613249356171
 20
18914.76302196749
 30
0.0
 11
15318.11862035617
 21
18914.76302196749
 31
0.0
  0
LINE
  5
411F
  8
FUTO
 10
15310.613249356171
 20
18927.76302196749
 30
0.0
 11
15318.11862035617
 21
18927.76302196749
 31
0.0
  0
LINE
  5
4120
  8
CT
 10
15305.975310356171
 20
18921.26302196749
 30
0.0
 11
15322.796843356169
 21
18921.26302196749
 31
0.0
  0
LINE
  5
4121
  8
CT
 10
15314.365935356171
 20
18913.820882967491
 30
0.0
 11
15314.365935356171
 21
18928.27693796749
 31
0.0
  0
LINE
  5
4122
  8
FUTO
 10
15310.613249356171
 20
18914.76302196749
 30
0.0
 11
15306.86031935617
 21
18921.26302196749
 31
0.0
  0
LINE
  5
4123
  8
FUTO
 10
15306.86031935617
 20
18921.26302196749
 30
0.0
 11
15310.613249356171
 21
18927.76302196749
 31
0.0
  0
LINE
  5
4124
  8
FUTO
 10
15373.96969435617
 20
18886.26302196749
 30
0.0
 11
15373.96969435617
 21
18932.736410967489
 31
0.0
  0
LINE
  5
4125
  8
FUTO
 10
15372.76364035617
 20
18939.57686496749
 30
0.0
 11
15364.175749356171
 21
18963.171468967488
 31
0.0
  0
LINE
  5
4126
  8
FUTO
 10
15321.871550356171
 20
18921.26302196749
 30
0.0
 11
15318.11862035617
 21
18927.76302196749
 31
0.0
  0
LINE
  5
4127
  8
FUTO
 10
15318.11862035617
 20
18914.76302196749
 30
0.0
 11
15321.871550356171
 21
18921.26302196749
 31
0.0
  0
ARC
  5
4128
  8
FUTO
 10
15382.96969435617
 20
18970.011800967492
 30
0.0
 40
20.0
 50
180.0
 51
199.99972500000311
  0
ARC
  5
4129
  8
FUTO
 10
15353.96969435617
 20
18932.736410967489
 30
0.0
 40
20.0
 50
0.000000000000007
 51
20.000046000008609
  0
LINE
  5
412A
  8
FUTO
 10
15373.96969435617
 20
18884.073853716531
 30
0.0
 11
15372.147917356169
 21
18886.26302196749
 31
0.0
  0
LINE
  5
412B
  8
FUTO
 10
15332.46969435617
 20
18528.263082967489
 30
0.0
 11
15170.46969435617
 21
18528.263082967489
 31
0.0
  0
LINE
  5
412C
  8
FUTO
 10
15323.09567135617
 20
18460.56923496749
 30
0.0
 11
15234.504362356171
 21
18455.926412967488
 31
0.0
  0
LINE
  5
412D
  8
FUTO
 10
15360.46969435617
 20
18523.263082967489
 30
0.0
 11
15170.46969435617
 21
18523.263082967489
 31
0.0
  0
LINE
  5
412E
  8
FUTO
 10
15332.46969435617
 20
18528.263082967489
 30
0.0
 11
15170.46969435617
 21
18528.263082967489
 31
0.0
  0
LINE
  5
412F
  8
FUTO
 10
15140.46969435617
 20
18431.763082967489
 30
0.0
 11
15140.46969435617
 21
18291.763082967489
 31
0.0
  0
LINE
  5
4130
  8
FUTO
 10
15200.46969435617
 20
18431.763082967489
 30
0.0
 11
15200.46969435617
 21
18291.763082967489
 31
0.0
  0
LINE
  5
4131
  8
FUTO
 10
15248.46969435617
 20
18441.763082967489
 30
0.0
 11
15170.46969435617
 21
18441.763082967489
 31
0.0
  0
LINE
  5
4132
  8
FUTO
 10
15137.96969435617
 20
18431.763082967489
 30
0.0
 11
15202.96969435617
 21
18431.763082967489
 31
0.0
  0
LINE
  5
4133
  8
FUTO
 10
15137.96969435617
 20
18431.763082967489
 30
0.0
 11
15137.96969435617
 21
18441.763082967489
 31
0.0
  0
LINE
  5
4134
  8
FUTO
 10
15202.96969435617
 20
18431.763082967489
 30
0.0
 11
15202.96969435617
 21
18441.763082967489
 31
0.0
  0
LINE
  5
4135
  8
FUTO
 10
15250.46969435617
 20
18453.916158967491
 30
0.0
 11
15250.46969435617
 21
18443.763082967489
 31
0.0
  0
ARC
  5
4136
  8
FUTO
 10
15253.46969435617
 20
18453.916158967491
 30
0.0
 40
2.9999599999999988
 50
92.999557000034059
 51
180.0
  0
ARC
  5
4137
  8
FUTO
 10
15248.46969435617
 20
18443.763082967489
 30
0.0
 40
2.0
 50
270.0
 51
0.000000000000007
  0
LINE
  5
4138
  8
FUTO
 10
15200.46969435617
 20
18291.763082967489
 30
0.0
 11
15140.46969435617
 21
18291.763082967489
 31
0.0
  0
LINE
  5
4139
  8
FUTO
 10
15373.96969435617
 20
18550.452169967491
 30
0.0
 11
15367.46969435617
 21
18542.64125696749
 31
0.0
  0
LINE
  5
413A
  8
FUTO
 10
15360.46969435617
 20
18523.263082967489
 30
0.0
 11
15359.55953835617
 21
18497.199850967489
 31
0.0
  0
LINE
  5
413B
  8
FUTO
 10
15367.46969435617
 20
18542.64125696749
 30
0.0
 11
15332.46969435617
 21
18533.263082967489
 31
0.0
  0
LINE
  5
413C
  8
FUTO
 10
15332.46969435617
 20
18528.263082967489
 30
0.0
 11
15332.46969435617
 21
18533.263082967489
 31
0.0
  0
LINE
  5
413D
  8
FUTO
 10
15332.46969435617
 20
18523.263082967489
 30
0.0
 11
15332.46969435617
 21
18528.263082967489
 31
0.0
  0
LINE
  5
413E
  8
FUTO
 10
15356.636687356169
 20
18490.477682967488
 30
0.0
 11
15329.643522356169
 21
18463.484518967489
 31
0.0
  0
ARC
  5
413F
  8
FUTO
 10
15322.572478356171
 20
18470.555562967489
 30
0.0
 40
10.000024
 50
272.99903899993501
 51
314.99999999999989
  0
ARC
  5
4140
  8
FUTO
 10
15349.56564235617
 20
18497.548727967489
 30
0.0
 40
9.9999679999999991
 50
314.99999999999989
 51
358.000671000002
  0
LINE
  5
4142
  8
KL
 10
19329.381615637711
 20
14789.51794982194
 30
0.0
 11
19344.061046562019
 21
14789.51794982194
 31
0.0
  0
LINE
  5
4143
  8
KL
 10
19332.061107562022
 20
14769.51794982194
 30
0.0
 11
19367.061107562022
 21
14769.51794982194
 31
0.0
  0
LINE
  5
4144
  8
KL
 10
19004.740599486329
 20
14789.51794982194
 30
0.0
 11
18990.061107562022
 21
14789.51794982194
 31
0.0
  0
LINE
  5
4145
  8
KL
 10
19002.061107562022
 20
14769.51794982194
 30
0.0
 11
18967.061107562022
 21
14769.51794982194
 31
0.0
  0
LINE
  5
4147
  8
KL
 10
19067.061107562022
 20
14764.51794982194
 30
0.0
 11
19067.061107562022
 21
14769.51794982194
 31
0.0
  0
LINE
  5
4148
  8
KL
 10
19267.061107562022
 20
14769.51794982194
 30
0.0
 11
19267.061107562022
 21
14764.51794982194
 31
0.0
  0
LINE
  5
4153
  8
KL
 10
19022.061107562022
 20
14797.993535821941
 30
0.0
 11
19006.061107562022
 21
14788.75623182195
 31
0.0
  0
LINE
  5
4154
  8
KL
 10
19038.061107562022
 20
14788.75623182195
 30
0.0
 11
19022.061107562022
 21
14797.993535821941
 31
0.0
  0
LINE
  5
4155
  8
KL
 10
19022.061107562022
 20
14761.04334082194
 30
0.0
 11
19006.061107562022
 21
14770.28064582194
 31
0.0
  0
LINE
  5
4156
  8
KL
 10
19038.061107562022
 20
14770.28064582194
 30
0.0
 11
19022.061107562022
 21
14761.04334082194
 31
0.0
  0
LINE
  5
4157
  8
CT
 10
18992.061107562022
 20
14779.51794982194
 30
0.0
 11
19052.061107562022
 21
14779.51794982194
 31
0.0
  0
CIRCLE
  5
4158
  8
KL
 10
19022.061107562022
 20
14779.51794982194
 30
0.0
 40
16.0
  0
LINE
  5
4159
  8
KL
 10
19038.061107562022
 20
14770.28064582194
 30
0.0
 11
19038.061107562022
 21
14788.75623182195
 31
0.0
  0
LINE
  5
415A
  8
KL
 10
19006.061107562022
 20
14770.28064582194
 30
0.0
 11
19006.061107562022
 21
14788.75623182195
 31
0.0
  0
ARC
  5
415B
  8
KL
 10
19022.061107562022
 20
14779.51794982194
 30
0.0
 40
20.0
 50
0.000000000000007
 51
180.0
  0
ARC
  5
415C
  8
FUTO
 10
18915.061107562022
 20
14736.51794982194
 30
0.0
 40
3.0
 50
90.0
 51
180.0
  0
LINE
  5
415D
  8
KL
 10
18963.936107562022
 20
14739.51794982194
 30
0.0
 11
18915.061107562022
 21
14739.51794982194
 31
0.0
  0
LINE
  5
415E
  8
KL
 10
18969.061107562022
 20
14709.51794982194
 30
0.0
 11
18969.061107562022
 21
14714.51794982194
 31
0.0
  0
LINE
  5
415F
  8
KL
 10
18959.061107562022
 20
14721.51794982194
 30
0.0
 11
18959.061107562022
 21
14714.51794982194
 31
0.0
  0
LINE
  5
4160
  8
FUTO
 10
18969.061107562022
 20
14709.51794982194
 30
0.0
 11
18912.061107562022
 21
14709.51794982194
 31
0.0
  0
LINE
  5
4161
  8
FUTO
 10
18912.061107562022
 20
14709.51794982194
 30
0.0
 11
18912.061107562022
 21
14736.51794982194
 31
0.0
  0
LINE
  5
4162
  8
CT
 10
18937.061107562022
 20
14759.51794982194
 30
0.0
 11
18937.061107562022
 21
14689.51794982194
 31
0.0
  0
LINE
  5
4163
  8
KL
 10
18959.061107562022
 20
14721.51794982194
 30
0.0
 11
19002.061107562022
 21
14721.51794982194
 31
0.0
  0
LINE
  5
4164
  8
KL
 10
18967.061107562022
 20
14769.51794982194
 30
0.0
 11
18962.061107562022
 21
14721.51794982194
 31
0.0
  0
LINE
  5
4165
  8
KL
 10
19042.061107562022
 20
14779.51794982194
 30
0.0
 11
19042.061107562022
 21
14714.51794982194
 31
0.0
  0
LINE
  5
4166
  8
KL
 10
19002.061107562022
 20
14714.51794982194
 30
0.0
 11
19002.061107562022
 21
14779.51794982194
 31
0.0
  0
LINE
  5
4167
  8
CT
 10
19022.061107562022
 20
14704.51794982194
 30
0.0
 11
19022.061107562022
 21
14809.51794982194
 31
0.0
  0
LINE
  5
4168
  8
KL
 10
19296.061107562022
 20
14788.75623182195
 30
0.0
 11
19312.061107562022
 21
14797.993535821941
 31
0.0
  0
LINE
  5
4169
  8
KL
 10
19296.061107562022
 20
14770.28064582194
 30
0.0
 11
19312.061107562022
 21
14761.04334082194
 31
0.0
  0
LINE
  5
416A
  8
KL
 10
19296.061107562022
 20
14770.28064582194
 30
0.0
 11
19296.061107562022
 21
14788.75623182195
 31
0.0
  0
LINE
  5
416B
  8
KL
 10
19328.061107562022
 20
14770.28064582194
 30
0.0
 11
19328.061107562022
 21
14788.75623182195
 31
0.0
  0
CIRCLE
  5
416C
  8
KL
 10
19312.061107562022
 20
14779.51794982194
 30
0.0
 40
16.0
  0
LINE
  5
416D
  8
KL
 10
19312.061107562022
 20
14797.993535821941
 30
0.0
 11
19328.061107562022
 21
14788.75623182195
 31
0.0
  0
LINE
  5
416E
  8
KL
 10
19312.061107562022
 20
14761.04334082194
 30
0.0
 11
19328.061107562022
 21
14770.28064582194
 31
0.0
  0
ARC
  5
416F
  8
KL
 10
19312.061107562022
 20
14779.51794982194
 30
0.0
 40
20.0
 50
0.000000000000007
 51
180.0
  0
LINE
  5
4170
  8
CT
 10
19342.061107562022
 20
14779.51794982194
 30
0.0
 11
19282.061107562022
 21
14779.51794982194
 31
0.0
  0
LINE
  5
4171
  8
KL
 10
19067.061107562022
 20
14764.51794982194
 30
0.0
 11
19267.061107562022
 21
14764.51794982194
 31
0.0
  0
LINE
  5
4172
  8
KL
 10
19365.061107562022
 20
14709.51794982194
 30
0.0
 11
19365.061107562022
 21
14714.51794982194
 31
0.0
  0
LINE
  5
4173
  8
KL
 10
19375.061107562022
 20
14721.51794982194
 30
0.0
 11
19375.061107562022
 21
14714.51794982194
 31
0.0
  0
LINE
  5
4174
  8
KL
 10
19375.061107562022
 20
14721.51794982194
 30
0.0
 11
19332.061107562022
 21
14721.51794982194
 31
0.0
  0
LINE
  5
4175
  8
CT
 10
19397.061107562022
 20
14759.51794982194
 30
0.0
 11
19397.061107562022
 21
14689.51794982194
 31
0.0
  0
ARC
  5
4176
  8
KL
 10
19419.061107562022
 20
14736.51794982194
 30
0.0
 40
3.0
 50
0.000000000000007
 51
90.0
  0
LINE
  5
4177
  8
KL
 10
19422.061107562022
 20
14709.51794982194
 30
0.0
 11
19422.061107562022
 21
14736.51794982194
 31
0.0
  0
LINE
  5
4178
  8
KL
 10
19370.186107562022
 20
14739.51794982194
 30
0.0
 11
19419.061107562022
 21
14739.51794982194
 31
0.0
  0
LINE
  5
4179
  8
KL
 10
19365.061107562022
 20
14709.51794982194
 30
0.0
 11
19422.061107562022
 21
14709.51794982194
 31
0.0
  0
LINE
  5
417A
  8
KL
 10
19367.061107562022
 20
14769.51794982194
 30
0.0
 11
19372.061107562022
 21
14721.51794982194
 31
0.0
  0
LINE
  5
417B
  8
KL
 10
19292.061107562022
 20
14779.51794982194
 30
0.0
 11
19292.061107562022
 21
14714.51794982194
 31
0.0
  0
LINE
  5
417C
  8
KL
 10
19332.061107562022
 20
14714.51794982194
 30
0.0
 11
19332.061107562022
 21
14779.51794982194
 31
0.0
  0
LINE
  5
417D
  8
CT
 10
19312.061107562022
 20
14704.51794982194
 30
0.0
 11
19312.061107562022
 21
14809.51794982194
 31
0.0
  0
LINE
  5
41CF
  8
KL
 10
19042.061107562022
 20
14721.51794982194
 30
0.0
 11
19292.061107562022
 21
14721.51794982194
 31
0.0
  0
LINE
  5
41D0
  8
KL
 10
18959.061107562022
 20
14714.51794982194
 30
0.0
 11
19375.061107562022
 21
14714.51794982194
 31
0.0
  0
LINE
  5
41D1
  8
KL
 10
18983.061107562022
 20
15131.51794982194
 30
0.0
 11
18983.061107562022
 21
15094.51794982194
 31
0.0
  0
ARC
  5
41D2
  8
FUTO
 10
18947.346752562022
 20
15148.613897821941
 30
0.0
 40
9.9999679999999991
 50
91.999328999997914
 51
135.0
  0
ARC
  5
41D3
  8
FUTO
 10
18920.353587562018
 20
15121.620733821939
 30
0.0
 40
10.000024
 50
135.0
 51
177.00096100006479
  0
LINE
  5
41D4
  8
FUTO
 10
18940.275707562021
 20
15155.684942821939
 30
0.0
 11
18913.282543562022
 21
15128.691777821939
 31
0.0
  0
LINE
  5
41D5
  8
KL
 10
18973.061107562022
 20
15131.51794982194
 30
0.0
 11
18978.061107562022
 21
15131.51794982194
 31
0.0
  0
LINE
  5
41D6
  8
KL
 10
18978.061107562022
 20
15131.51794982194
 30
0.0
 11
18983.061107562022
 21
15131.51794982194
 31
0.0
  0
LINE
  5
41D7
  8
KL
 10
18992.439281562019
 20
15166.51794982194
 30
0.0
 11
18983.061107562022
 21
15131.51794982194
 31
0.0
  0
LINE
  5
41D8
  8
KL
 10
18973.061107562022
 20
15159.51794982194
 30
0.0
 11
18946.997875562021
 21
15158.60779382195
 31
0.0
  0
LINE
  5
41DA
  8
KL
 10
19008.061107562022
 20
15179.51794982194
 30
0.0
 11
18992.439281562019
 21
15166.51794982194
 31
0.0
  0
LINE
  5
41DB
  8
FUTO
 10
18741.561107562022
 20
15003.51794982194
 30
0.0
 11
18741.561107562022
 21
14939.51794982194
 31
0.0
  0
ARC
  5
41DC
  8
FUTO
 10
18893.561107562022
 20
15047.51794982194
 30
0.0
 40
2.0
 50
90.0
 51
180.0
  0
ARC
  5
41EB
  8
KL
 10
18993.061107562022
 20
15094.51794982194
 30
0.0
 40
10.0
 50
90.0
 51
180.0
  0
ARC
  5
41EE
  8
FUTO
 10
18903.71418356202
 20
15052.51794982194
 30
0.0
 40
2.9999599999999988
 50
270.0
 51
357.00044299996591
  0
LINE
  5
41EF
  8
FUTO
 10
18903.71418356202
 20
15049.51794982194
 30
0.0
 11
18893.561107562022
 21
15049.51794982194
 31
0.0
  0
LINE
  5
41F0
  8
FUTO
 10
18851.561107562022
 20
15003.51794982194
 30
0.0
 11
18851.561107562022
 21
14999.51794982194
 31
0.0
  0
LINE
  5
41F1
  8
FUTO
 10
18881.561107562022
 20
15002.01794982194
 30
0.0
 11
18891.561107562022
 21
15002.01794982194
 31
0.0
  0
LINE
  5
41F2
  8
FUTO
 10
18881.561107562022
 20
14937.01794982194
 30
0.0
 11
18891.561107562022
 21
14937.01794982194
 31
0.0
  0
LINE
  5
41F3
  8
FUTO
 10
18881.561107562022
 20
14937.01794982194
 30
0.0
 11
18881.561107562022
 21
15002.01794982194
 31
0.0
  0
ARC
  5
41F4
  8
KL
 10
18993.061107562022
 20
14994.51794982194
 30
0.0
 40
10.0
 50
180.0
 51
270.0
  0
LINE
  5
41F5
  8
FUTO
 10
18891.561107562022
 20
15047.51794982194
 30
0.0
 11
18891.561107562022
 21
14969.51794982194
 31
0.0
  0
LINE
  5
41F6
  8
KL
 10
18983.061107562022
 20
14994.51794982194
 30
0.0
 11
18983.061107562022
 21
15094.51794982194
 31
0.0
  0
LINE
  5
41F7
  8
FUTO
 10
18881.561107562022
 20
14999.51794982194
 30
0.0
 11
18741.561107562022
 21
14999.51794982194
 31
0.0
  0
LINE
  5
41F8
  8
FUTO
 10
18881.561107562022
 20
14939.51794982194
 30
0.0
 11
18741.561107562022
 21
14939.51794982194
 31
0.0
  0
LINE
  5
41F9
  8
FUTO
 10
18851.561107562022
 20
15003.51794982194
 30
0.0
 11
18741.561107562022
 21
15003.51794982194
 31
0.0
  0
LINE
  5
41FA
  8
KL
 10
18978.061107562022
 20
15131.51794982194
 30
0.0
 11
18978.061107562022
 21
14969.51794982194
 31
0.0
  0
LINE
  5
41FB
  8
KL
 10
18973.061107562022
 20
15159.51794982194
 30
0.0
 11
18973.061107562022
 21
14969.51794982194
 31
0.0
  0
LINE
  5
41FC
  8
FUTO
 10
18910.367259562019
 20
15122.14392682194
 30
0.0
 11
18905.724437562021
 21
15033.552617821941
 31
0.0
  0
LINE
  5
41FE
  8
KL
 10
18978.061107562022
 20
15131.51794982194
 30
0.0
 11
18978.061107562022
 21
14969.51794982194
 31
0.0
  0
ARC
  5
41FF
  8
KL
 10
19155.826122562019
 20
15187.797063821939
 30
0.0
 40
2.9999909999999992
 50
96.115172999988943
 51
174.80557100002201
  0
LINE
  5
4200
  8
KL
 10
19152.83845156202
 20
15188.06867082194
 30
0.0
 11
19152.061107562022
 21
15179.51794982194
 31
0.0
  0
ARC
  5
4201
  8
KL
 10
19146.10273356202
 20
15180.247747821941
 30
0.0
 40
5.9999760000000002
 50
354.8055729999931
 51
54.396262999995557
  0
ARC
  5
4202
  8
KL
 10
19178.296092562021
 20
15187.797063821939
 30
0.0
 40
2.999981
 50
5.194427000006832
 51
83.884827000011072
  0
ARC
  5
4203
  8
KL
 10
19167.061107562022
 20
15209.51794982194
 30
0.0
 40
30.0
 50
305.19004800000442
 51
305.60386699997889
  0
LINE
  5
4204
  8
KL
 10
19167.061107562022
 20
15192.01794982194
 30
0.0
 11
19178.61567256202
 21
15190.77997382194
 31
0.0
  0
LINE
  5
4205
  8
KL
 10
19181.28376356202
 20
15188.06867082194
 30
0.0
 11
19182.061107562022
 21
15179.51794982194
 31
0.0
  0
ARC
  5
4206
  8
KL
 10
19188.01948156202
 20
15180.247747821941
 30
0.0
 40
5.9999820000000001
 50
125.6037370000044
 51
185.19442700000681
  0
LINE
  5
4207
  8
KL
 10
19167.061107562022
 20
15192.01794982194
 30
0.0
 11
19155.50654256202
 21
15190.77997382194
 31
0.0
  0
LINE
  5
4208
  8
KL
 10
19155.50654256202
 20
15190.77997382194
 30
0.0
 11
19178.61567256202
 21
15190.77997382194
 31
0.0
  0
LINE
  5
4209
  8
CT
 10
19207.061107562022
 20
15209.51794982194
 30
0.0
 11
19127.061107562022
 21
15209.51794982194
 31
0.0
  0
LINE
  5
420A
  8
KL
 10
19108.061107562022
 20
15118.51794982194
 30
0.0
 11
19226.061107562022
 21
15118.51794982194
 31
0.0
  0
CIRCLE
  5
420B
  8
KL
 10
19167.061107562022
 20
15209.51794982194
 30
0.0
 40
17.5
  0
ARC
  5
420C
  8
KL
 10
19167.061107562022
 20
15209.51794982194
 30
0.0
 40
30.0
 50
305.60386699997889
 51
234.39614899998969
  0
LINE
  5
420D
  8
KL
 10
19326.061046562019
 20
15179.51794982194
 30
0.0
 11
19336.061046562019
 21
15171.19617282195
 31
0.0
  0
ARC
  5
420E
  8
KL
 10
19382.534435562018
 20
15153.01794982194
 30
0.0
 40
20.0
 50
69.999953999991405
 51
90.0
  0
ARC
  5
420F
  8
KL
 10
19419.809825562021
 20
15182.01794982194
 30
0.0
 40
20.0
 50
250.0002749999968
 51
270.0
  0
LINE
  5
4212
  8
KL
 10
19389.374889562019
 20
15171.81189582194
 30
0.0
 11
19412.969493562021
 21
15163.224004821939
 31
0.0
  0
LINE
  5
4213
  8
KL
 10
19336.061046562019
 20
15173.01794982194
 30
0.0
 11
19382.534435562018
 21
15173.01794982194
 31
0.0
  0
LINE
  5
4214
  8
KL
 10
19326.061046562019
 20
15179.51794982194
 30
0.0
 11
19167.061107562022
 21
15179.51794982194
 31
0.0
  0
LINE
  5
4215
  8
KL
 10
19229.061046562019
 20
15111.51794982194
 30
0.0
 11
19105.061107562022
 21
15111.51794982194
 31
0.0
  0
ARC
  5
4216
  8
KL
 10
19105.061107562022
 20
14936.82019582194
 30
0.0
 40
20.0
 50
180.0
 51
270.0
  0
CIRCLE
  5
4217
  8
KL
 10
19167.061107562022
 20
14903.82019582194
 30
0.0
 40
3.5
  0
LINE
  5
4218
  8
KL
 10
19173.513988562019
 20
14903.82019582194
 30
0.0
 11
19158.924877562022
 21
14903.82019582194
 31
0.0
  0
LINE
  5
4219
  8
KL
 10
19105.061107562022
 20
14916.82019582194
 30
0.0
 11
19229.061107562022
 21
14916.82019582194
 31
0.0
  0
LINE
  5
421A
  8
KL
 10
19226.061046562019
 20
14896.82019582194
 30
0.0
 11
19108.061107562022
 21
14896.82019582194
 31
0.0
  0
LINE
  5
421B
  8
KL
 10
19085.061107562022
 20
15091.51794982194
 30
0.0
 11
19085.061107562022
 21
14936.82019582194
 31
0.0
  0
LINE
  5
421C
  8
KL
 10
19078.061107562022
 20
15088.51794982194
 30
0.0
 11
19078.061107562022
 21
14926.82019582194
 31
0.0
  0
LINE
  5
421D
  8
KL
 10
19336.061046562019
 20
15104.51794982194
 30
0.0
 11
19251.438243562021
 21
15104.51794982194
 31
0.0
  0
LINE
  5
4221
  8
KL
 10
19336.061046562019
 20
14984.51794982194
 30
0.0
 11
19256.061046562019
 21
14984.51794982194
 31
0.0
  0
LINE
  5
4222
  8
KL
 10
19249.061046562019
 20
15091.51794982194
 30
0.0
 11
19249.061046562019
 21
14936.82019582194
 31
0.0
  0
LINE
  5
4223
  8
KL
 10
19256.061046562019
 20
15088.51794982194
 30
0.0
 11
19256.061046562019
 21
14926.82019582194
 31
0.0
  0
ARC
  5
4224
  8
KL
 10
19229.061046562019
 20
14936.82019582194
 30
0.0
 40
20.0
 50
270.0
 51
0.000000000000007
  0
LINE
  5
4225
  8
CT
 10
19276.061046562019
 20
15044.51794982194
 30
0.0
 11
19058.061107562022
 21
15044.51794982194
 31
0.0
  0
ARC
  5
4226
  8
KL
 10
19229.061046562019
 20
15091.51794982194
 30
0.0
 40
20.0
 50
0.000000000000007
 51
90.0
  0
ARC
  5
4227
  8
KL
 10
19105.061107562022
 20
15091.51794982194
 30
0.0
 40
20.0
 50
90.0
 51
180.0
  0
ARC
  5
4228
  8
KL
 10
19108.061107562022
 20
15088.51794982194
 30
0.0
 40
30.0
 50
90.0
 51
180.0
  0
ARC
  5
4229
  8
KL
 10
19226.061046562019
 20
15088.51794982194
 30
0.0
 40
30.0
 50
0.000000000000007
 51
90.0
  0
LINE
  5
422E
  8
KL
 10
19008.061107562022
 20
15179.51794982194
 30
0.0
 11
19167.061107562022
 21
15179.51794982194
 31
0.0
  0
LINE
  5
422F
  8
KL
 10
18993.061107562022
 20
15104.51794982194
 30
0.0
 11
19082.68391056202
 21
15104.51794982194
 31
0.0
  0
LINE
  5
4230
  8
KL
 10
18993.061107562022
 20
14984.51794982194
 30
0.0
 11
19078.061107562022
 21
14984.51794982194
 31
0.0
  0
ARC
  5
4231
  8
FUTO
 10
18893.561107562022
 20
14891.51794982194
 30
0.0
 40
2.0
 50
180.0
 51
270.0
  0
ARC
  5
4232
  8
FUTO
 10
18903.71418356202
 20
14886.51794982194
 30
0.0
 40
3.0
 50
2.9995570000340721
 51
90.0
  0
ARC
  5
4233
  8
FUTO
 10
18918.410716562019
 20
14854.48621182195
 30
0.0
 40
10.000139999999989
 50
183.00042699998181
 51
225.00097700000649
  0
ARC
  5
4241
  8
FUTO
 10
18947.203197562019
 20
14825.693731821941
 30
0.0
 40
10.0
 50
225.0
 51
270.0
  0
ARC
  5
4242
  8
FUTO
 10
18920.353587562018
 20
14817.415166821949
 30
0.0
 40
9.9999679999999991
 50
182.9990539999759
 51
225.0
  0
LINE
  5
4243
  8
KL
 10
18983.061107562022
 20
14817.75720782194
 30
0.0
 11
19002.149730562021
 21
14817.75720782194
 31
0.0
  0
LINE
  5
4244
  8
KL
 10
18984.096996562021
 20
14807.51794982194
 30
0.0
 11
18978.061107562022
 21
14807.51794982194
 31
0.0
  0
LINE
  5
4245
  8
KL
 10
18973.061107562022
 20
14807.51794982194
 30
0.0
 11
18978.061107562022
 21
14807.51794982194
 31
0.0
  0
ARC
  5
4246
  8
KL
 10
18990.061107562022
 20
14786.51794982194
 30
0.0
 40
3.0
 50
90.0
 51
180.0
  0
ARC
  5
4247
  8
KL
 10
18997.149730562021
 20
14794.51794982194
 30
0.0
 40
5.0
 50
270.0
 51
0.000000000000007
  0
LINE
  5
4248
  8
KL
 10
18983.061107562022
 20
14810.64441482194
 30
0.0
 11
18985.61970156202
 21
14810.64441482194
 31
0.0
  0
LINE
  5
4249
  8
KL
 10
18990.061107562022
 20
14789.51794982194
 30
0.0
 11
18983.061107562022
 21
14810.64441482194
 31
0.0
  0
LINE
  5
424A
  8
KL
 10
19002.149730562021
 20
14794.51794982194
 30
0.0
 11
19002.149730562021
 21
14817.75720782194
 31
0.0
  0
LINE
  5
424B
  8
KL
 10
18993.219310562021
 20
14789.51794982194
 30
0.0
 11
18983.061107562022
 21
14817.75720782194
 31
0.0
  0
LINE
  5
424C
  8
KL
 10
18947.203197562019
 20
14815.69373182195
 30
0.0
 11
18973.061107562022
 21
14815.69373182195
 31
0.0
  0
LINE
  5
424E
  8
FUTO
 10
18906.692455562021
 20
14887.013189821941
 30
0.0
 11
18910.367259562019
 21
14816.891973821939
 31
0.0
  0
LINE
  5
4250
  8
FUTO
 10
18940.132152562019
 20
14818.62268682194
 30
0.0
 11
18911.339671562018
 21
14847.414922821939
 31
0.0
  0
LINE
  5
4253
  8
FUTO
 10
18903.71418356202
 20
14889.51794982194
 30
0.0
 11
18893.561107562022
 21
14889.51794982194
 31
0.0
  0
ARC
  5
4254
  8
FUTO
 10
18947.346752562022
 20
14790.42200282195
 30
0.0
 40
9.9999839999999995
 50
225.0
 51
268.00067100000211
  0
LINE
  5
4255
  8
KL
 10
18973.061107562022
 20
14779.51794982194
 30
0.0
 11
18946.997875562021
 21
14780.42810682195
 31
0.0
  0
LINE
  5
4256
  8
KL
 10
18987.061107562022
 20
14769.51794982194
 30
0.0
 11
18987.061107562022
 21
14786.51794982194
 31
0.0
  0
LINE
  5
4257
  8
KL
 10
18940.275707562021
 20
14783.350957821949
 30
0.0
 11
18913.282543562022
 21
14810.34412182195
 31
0.0
  0
LINE
  5
4258
  8
KL
 10
19127.461009562019
 20
14791.12586082194
 30
0.0
 11
19047.061107562022
 21
14789.51794982194
 31
0.0
  0
ARC
  5
4259
  8
KL
 10
19142.061107562022
 20
14852.01404382195
 30
0.0
 40
5.0
 50
0.000000000000007
 51
90.0
  0
ARC
  5
425A
  8
KL
 10
19192.061107562022
 20
14852.01404382195
 30
0.0
 40
5.0
 50
90.0
 51
180.0
  0
ARC
  5
425B
  8
KL
 10
19207.061046562019
 20
14811.121953821939
 30
0.0
 40
20.000091999999999
 50
180.0
 51
268.85427899999138
  0
LINE
  5
425C
  8
KL
 10
19187.061107562022
 20
14852.01404382195
 30
0.0
 11
19187.061107562022
 21
14811.121953821939
 31
0.0
  0
LINE
  5
425D
  8
KL
 10
19147.061107562022
 20
14852.01404382195
 30
0.0
 11
19147.061107562022
 21
14811.121953821939
 31
0.0
  0
ARC
  5
425E
  8
KL
 10
19127.061107562022
 20
14811.121953821939
 30
0.0
 40
20.0
 50
271.14572100000839
 51
0.000000000000007
  0
LINE
  5
425F
  8
KL
 10
19067.061107562022
 20
14769.51794982194
 30
0.0
 11
19067.061107562022
 21
14770.51794982194
 31
0.0
  0
ARC
  5
4260
  8
KL
 10
19072.061107562022
 20
14770.51794982194
 30
0.0
 40
5.0
 50
90.0
 51
180.0
  0
LINE
  5
4261
  8
KL
 10
19072.061107562022
 20
14775.51794982194
 30
0.0
 11
19167.061107562022
 21
14775.51794982194
 31
0.0
  0
ARC
  5
4262
  8
KL
 10
19344.061046562019
 20
14786.51794982194
 30
0.0
 40
3.0
 50
0.000000000000007
 51
90.0
  0
LINE
  5
4263
  8
KL
 10
19287.061046562019
 20
14789.51794982194
 30
0.0
 11
19294.740599486329
 21
14789.51794982194
 31
0.0
  0
ARC
  5
426D
  8
KL
 10
19262.061046562019
 20
14770.51794982194
 30
0.0
 40
5.0
 50
0.000000000000007
 51
90.0
  0
LINE
  5
426E
  8
KL
 10
19267.061046562019
 20
14769.51794982194
 30
0.0
 11
19267.061046562019
 21
14770.51794982194
 31
0.0
  0
LINE
  5
426F
  8
KL
 10
19267.061046562019
 20
14769.51794982194
 30
0.0
 11
19292.061107562022
 21
14769.51794982194
 31
0.0
  0
LINE
  5
4270
  8
KL
 10
19406.66712556202
 20
14773.51794982194
 30
0.0
 11
19416.283092562018
 21
14777.01794982194
 31
0.0
  0
LINE
  5
4271
  8
KL
 10
19406.66712556202
 20
14773.51794982194
 30
0.0
 11
19347.061046562019
 21
14773.51794982194
 31
0.0
  0
LINE
  5
4272
  8
KL
 10
19347.061046562019
 20
14769.51794982194
 30
0.0
 11
19347.061046562019
 21
14786.51794982194
 31
0.0
  0
LINE
  5
4273
  8
KL
 10
19206.661144562018
 20
14791.12586082194
 30
0.0
 11
19287.061046562019
 21
14789.51794982194
 31
0.0
  0
LINE
  5
4274
  8
KL
 10
19262.061046562019
 20
14775.51794982194
 30
0.0
 11
19167.061107562022
 21
14775.51794982194
 31
0.0
  0
LINE
  5
4275
  8
KL
 10
19047.061107562022
 20
14789.51794982194
 30
0.0
 11
19039.381615637711
 21
14789.51794982194
 31
0.0
  0
LINE
  5
4276
  8
KL
 10
19067.061107562022
 20
14769.51794982194
 30
0.0
 11
19042.061107562022
 21
14769.51794982194
 31
0.0
  0
ARC
  5
4277
  8
KL
 10
19226.061046562019
 20
14926.82019582194
 30
0.0
 40
30.0
 50
270.0
 51
0.000000000000007
  0
ARC
  5
4278
  8
KL
 10
19108.061107562022
 20
14926.82019582194
 30
0.0
 40
30.0
 50
180.0
 51
270.0
  0
LINE
  5
4279
  8
CT
 10
19167.061107562022
 20
15259.51794982194
 30
0.0
 11
19167.061107562022
 21
14689.51794982194
 31
0.0
  0
LINE
  5
427A
  8
KL
 10
18978.061107562022
 20
14807.51794982194
 30
0.0
 11
18978.061107562022
 21
14969.51794982194
 31
0.0
  0
LINE
  5
427B
  8
KL
 10
19336.061046562019
 20
15173.01794982194
 30
0.0
 11
19336.061046562019
 21
14789.51794982194
 31
0.0
  0
LINE
  5
427C
  8
KL
 10
19386.061046562019
 20
15172.70447382195
 30
0.0
 11
19386.061046562019
 21
14773.51794982194
 31
0.0
  0
LINE
  5
427D
  8
KL
 10
19416.260997562022
 20
15162.335332821949
 30
0.0
 11
19416.260997562022
 21
14777.01794982194
 31
0.0
  0
LINE
  5
427E
  8
KL
 10
18978.061107562022
 20
14807.51794982194
 30
0.0
 11
18978.061107562022
 21
14969.51794982194
 31
0.0
  0
LINE
  5
427F
  8
KL
 10
18973.061107562022
 20
14779.51794982194
 30
0.0
 11
18973.061107562022
 21
14969.51794982194
 31
0.0
  0
LINE
  5
4280
  8
FUTO
 10
18891.561107562022
 20
14891.51794982194
 30
0.0
 11
18891.561107562022
 21
14969.51794982194
 31
0.0
  0
ARC
  5
4281
  8
KL
 10
19480.750133562022
 20
15147.01794982194
 30
0.0
 40
15.0
 50
60.00018300001819
 51
90.0
  0
ARC
  5
4282
  8
KL
 10
19536.061046562019
 20
15126.631231821941
 30
0.0
 40
4.9999580000000003
 50
0.000000000000007
 51
59.999718000027237
  0
LINE
  5
4283
  8
KL
 10
19538.561046562019
 20
15130.96130982194
 30
0.0
 11
19488.250133562022
 21
15160.00842882194
 31
0.0
  0
ARC
  5
42CC
  8
KL
 10
19536.061046562019
 20
14812.404668821941
 30
0.0
 40
5.0
 50
300.00027500002068
 51
0.000000000000007
  0
ARC
  5
42CE
  8
KL
 10
19480.750133562022
 20
14792.01794982194
 30
0.0
 40
15.000085
 50
270.0
 51
299.99981699998182
  0
LINE
  5
42CF
  8
KL
 10
19538.561046562019
 20
14808.07459082194
 30
0.0
 11
19488.250133562022
 21
14779.027471821941
 31
0.0
  0
LINE
  5
4301
  8
KL
 10
19481.961070562022
 20
14777.01794982194
 30
0.0
 11
19481.961070562022
 21
15161.96887782195
 31
0.0
  0
LINE
  5
4305
  8
KL
 10
19541.061107562022
 20
15127.167913821941
 30
0.0
 11
19541.061107562022
 21
14812.37759982195
 31
0.0
  0
LINE
  5
4306
  8
CT
 10
18721.561107562022
 20
14969.51794982194
 30
0.0
 11
19561.061107562022
 21
14969.51794982194
 31
0.0
  0
LINE
  5
4307
  8
KL
 10
19419.809825562021
 20
15162.01794982194
 30
0.0
 11
19480.750133562022
 21
15162.01794982194
 31
0.0
  0
LINE
  5
4308
  8
KL
 10
19416.260997562022
 20
14777.01794982194
 30
0.0
 11
19480.750133562022
 21
14777.01794982194
 31
0.0
  0
LINE
  5
430D
  8
CT
 10
15305.46969435617
 20
18487.263082967489
 30
0.0
 11
15355.46969435617
 21
18487.263082967489
 31
0.0
  0
LINE
  5
430E
  8
CT
 10
15330.46969435617
 20
18462.263082967489
 30
0.0
 11
15330.46969435617
 21
18512.263082967489
 31
0.0
  0
LINE
  5
430F
  8
CT
 10
15010.46969435617
 20
18462.263082967489
 30
0.0
 11
15010.46969435617
 21
18512.263082967489
 31
0.0
  0
LINE
  5
4310
  8
CT
 10
15035.46969435617
 20
18487.263082967489
 30
0.0
 11
14985.46969435617
 21
18487.263082967489
 31
0.0
  0
LINE
  5
4311
  8
CT
 10
15035.46969435617
 20
18947.263082967489
 30
0.0
 11
14985.46969435617
 21
18947.263082967489
 31
0.0
  0
LINE
  5
4312
  8
CT
 10
15010.46969435617
 20
18972.263082967489
 30
0.0
 11
15010.46969435617
 21
18922.263082967489
 31
0.0
  0
LINE
  5
4313
  8
CT
 10
15330.46969435617
 20
18972.263082967489
 30
0.0
 11
15330.46969435617
 21
18922.263082967489
 31
0.0
  0
LINE
  5
4314
  8
CT
 10
15305.46969435617
 20
18947.263082967489
 30
0.0
 11
15355.46969435617
 21
18947.263082967489
 31
0.0
  0
LINE
  5
4315
  8
FUTO
 10
14950.46969435617
 20
18436.763082967489
 30
0.0
 11
14950.46969435617
 21
18181.763082967489
 31
0.0
  0
LINE
  5
4316
  8
FUTO
 10
14820.46969435617
 20
18487.763082967489
 30
0.0
 11
14820.46969435617
 21
18414.763082967489
 31
0.0
  0
LINE
  5
4317
  8
FUTO
 10
14960.46969435617
 20
19390.763082967489
 30
0.0
 11
14960.46969435617
 21
18487.763082967489
 31
0.0
  0
LINE
  5
4319
  8
FUTO
 10
15305.46969435617
 20
19390.763082967489
 30
0.0
 11
15305.46969435617
 21
19091.263082967489
 31
0.0
  0
LINE
  5
431A
  8
FUTO
 10
15380.46969435617
 20
19390.763082967489
 30
0.0
 11
15380.46969435617
 21
18487.763082967489
 31
0.0
  0
LINE
  5
431B
  8
SL
 10
15035.46969435617
 20
19091.263082967489
 30
0.0
 11
15035.46969435617
 21
18481.763082967489
 31
0.0
  0
LINE
  5
431C
  8
SL
 10
15305.46969435617
 20
19091.263082967489
 30
0.0
 11
15305.46969435617
 21
18481.763082967489
 31
0.0
  0
LINE
  5
432D
  8
FUTO
 10
17300.469694356168
 20
20585.763082967489
 30
0.0
 11
15113.46969435617
 21
20585.763082967489
 31
0.0
  0
LINE
  5
4341
  8
FUTO
 10
17300.469694356168
 20
19417.763082967489
 30
0.0
 11
15113.46969435617
 21
19417.763082967489
 31
0.0
  0
LINE
  5
4342
  8
FUTO
 10
17300.469694356168
 20
19463.763082967489
 30
0.0
 11
15520.46969435617
 21
19463.763082967489
 31
0.0
  0
LINE
  5
4347
  8
FUTO
 10
17220.469694356168
 20
19417.763082967489
 30
0.0
 11
17220.469694356168
 21
19390.763082967489
 31
0.0
  0
LINE
  5
4348
  8
FUTO
 10
14915.245995995319
 20
19465.763082967449
 30
0.0
 11
14820.46969435617
 21
19465.763082967489
 31
0.0
  0
LINE
  5
4349
  8
FUTO
 10
16068.936194752599
 20
18487.763082967489
 30
0.0
 11
16068.936194752599
 21
19417.763082967489
 31
0.0
  0
LINE
  5
434A
  8
FUTO
 10
16672.00319395975
 20
18487.763082967489
 30
0.0
 11
16672.00319395975
 21
19417.763082967489
 31
0.0
  0
INSERT
  5
435E
  8
FUTO
  6
CONTINUOUS
  2
*U22
 10
0.0
 20
0.0
 30
0.0
1001
ACAD
1002
{
1000
R14_HATCH_DATA
1000
435E
1011
1.0
1021
5.0906117412778122E+058
1031
0.0
1021
0.0
1031
0.0
1011
0.0
1021
5.0906117412778122E+058
1031
0.0
1021
1.0
1031
0.0
1011
0.0
1021
5.0906117412778122E+058
1031
0.0
1021
0.0
1031
1.0
1040
0.0
1010
0.0
1020
0.0
1030
1.0
1000
SOLID
1070
     1
1070
     0
1071
        2
1071
        7
1070
     0
1070
     1
1071
        4
1040
17017.737845010139
1040
14559.51794982194
1040
16977.737845010139
1040
14559.51794982194
1040
16977.737845010139
1040
14539.51794982194
1040
17017.737845010139
1040
14539.51794982194
1071
        0
1071
        7
1070
     0
1070
     1
1071
        4
1040
17057.737845010139
1040
14559.51794982194
1040
17017.737845010139
1040
14559.51794982194
1040
17017.737845010139
1040
14539.51794982194
1040
17057.737845010139
1040
14539.51794982194
1071
        0
1070
     0
1070
     1
1040
1.983058079063849
1071
        2
1040
16993.33517335818
1040
14558.74433121804
1040
0.0
1040
17041.364096994341
1040
14560.664086675401
1040
0.0
1002
}
  0
INSERT
  5
4367
  8
FUTO
  6
CONTINUOUS
  2
*U23
 10
0.0
 20
0.0
 30
0.0
1001
ACAD
1002
{
1000
R14_HATCH_DATA
1000
4367
1011
1.0
1021
5.0906117412778122E+058
1031
0.0
1021
0.0
1031
0.0
1011
0.0
1021
5.0906117412778122E+058
1031
0.0
1021
1.0
1031
0.0
1011
0.0
1021
5.0906117412778122E+058
1031
0.0
1021
0.0
1031
1.0
1040
0.0
1010
0.0
1020
0.0
1030
1.0
1000
SOLID
1070
     1
1070
     0
1071
        2
1071
        7
1070
     0
1070
     1
1071
        4
1040
14830.46969435617
1040
14559.51794982194
1040
14830.46969435617
1040
14539.51794982194
1040
14870.46969435617
1040
14539.51794982194
1040
14870.46969435617
1040
14559.51794982194
1071
        0
1071
        7
1070
     0
1070
     1
1071
        4
1040
14910.46969435617
1040
14559.51794982194
1040
14870.46969435617
1040
14559.51794982194
1040
14870.46969435617
1040
14539.51794982194
1040
14910.46969435617
1040
14539.51794982194
1071
        0
1070
     0
1070
     1
1040
0.2518002073071134
1071
        2
1040
14853.020362607631
1040
14549.551292117279
1040
0.0
1040
14893.84163959354
1040
14556.09808694956
1040
0.0
1002
}
  0
LINE
  5
457C
  8
FUTO
 62
     2
 10
17250.469694356168
 20
14559.51794982194
 30
0.0
 11
17878.361493407891
 21
14559.51794982194
 31
0.0
  0
LINE
  5
457D
  8
FUTO
 62
     2
 10
17250.469694356168
 20
14539.51794982194
 30
0.0
 11
17878.361493407891
 21
14539.51794982194
 31
0.0
  0
LINE
  5
457E
  8
FUTO
 62
     2
 10
17848.361493407891
 20
14619.51794982194
 30
0.0
 11
17848.361493407891
 21
14679.51794982194
 31
0.0
  0
LINE
  5
457F
  8
FUTO
 62
     2
 10
17848.361493407891
 20
14479.51794982194
 30
0.0
 11
17848.361493407891
 21
14128.622331191869
 31
0.0
  0
LINE
  5
4580
  8
FUTO
 62
     2
 10
17848.361493407891
 20
14559.51794982194
 30
0.0
 11
17848.361493407891
 21
14539.51794982194
 31
0.0
  0
INSERT
  5
4581
  8
FUTO
 62
     2
  2
_OPEN30
 10
17848.361493407891
 20
14559.51794982194
 30
0.0
 41
60.0
 42
60.0
 43
60.0
 50
270.0
  0
INSERT
  5
4582
  8
FUTO
 62
     2
  2
_OPEN30
 10
17848.361493407891
 20
14539.51794982194
 30
0.0
 41
60.0
 42
60.0
 43
60.0
 50
90.0
  0
TEXT
  5
4583
  8
FUTO
 62
     2
 10
18058.584800140961
 20
14389.88389056234
 30
0.0
 40
90.0
  1
(20)
 50
90.0
 51
15.0
  7
SUNPOU
  0
DIMENSION
  5
4584
  8
FUTO
  2
*D14
 10
17848.361493407891
 20
14389.51794982194
 30
0.0
 11
17788.361493407891
 21
14209.51794982195
 31
0.0
 70
     0
 13
17220.469694356168
 23
14539.51794982194
 33
0.0
 14
17220.469694356168
 24
14389.51794982194
 34
0.0
 50
90.0
1001
ACAD
1000
DSTYLE
1002
{
1070
    40
1040
30.0
1070
   176
1070
     2
1070
   177
1070
     2
1070
   178
1070
     2
1070
   341
1005
44D5
1070
     5
1000
OPEN30
1002
}
  0
LINE
  5
4597
  8
FUTO
 10
15539.46969435617
 20
15004.74502102814
 30
0.0
 11
15539.46969435617
 21
14709.51794982194
 31
0.0
  0
LINE
  5
4598
  8
FUTO
 10
15530.46969435617
 20
14996.681230220391
 30
0.0
 11
15530.46969435617
 21
14709.51794982194
 31
0.0
  0
DIMENSION
  5
45A8
  8
FUTO
  2
*D15
 10
14820.46969435617
 20
21020.198906160382
 30
0.0
 11
15595.46969435617
 21
21080.198906160382
 31
0.0
 70
     0
 13
16370.46969435617
 23
20916.635660617088
 33
0.0
 14
14820.46969435617
 24
19390.763082967489
 34
0.0
1001
ACAD
1000
DSTYLE
1002
{
1070
    40
1040
30.0
1070
   176
1070
     2
1070
   177
1070
     2
1070
   178
1070
     2
1070
   341
1005
44D5
1070
     5
1000
OPEN30
1002
}
  0
DIMENSION
  5
45B5
  8
FUTO
  2
*D16
 10
17780.77559719604
 20
20635.763082967489
 30
0.0
 11
17720.77559719604
 21
20318.763082967489
 31
0.0
 70
     0
 13
17547.989694935692
 23
20001.763082967489
 33
0.0
 14
17120.469694356168
 24
20635.763082967489
 34
0.0
 50
90.0
1001
ACAD
1000
DSTYLE
1002
{
1070
    40
1040
30.0
1070
   176
1070
     2
1070
   177
1070
     2
1070
   178
1070
     2
1070
   341
1005
44D5
1070
     5
1000
OPEN30
1002
}
  0
DIMENSION
  5
45C2
  8
FUTO
  2
*D17
 10
17780.77559719604
 20
18181.763082967489
 30
0.0
 11
17720.77559719604
 21
19091.7630829675
 31
0.0
 70
     0
 13
17780.77559719604
 23
20001.763082967489
 33
0.0
 14
16750.469694356168
 24
18181.763082967489
 34
0.0
 50
90.0
1001
ACAD
1000
DSTYLE
1002
{
1070
    40
1040
30.0
1070
   176
1070
     2
1070
   177
1070
     2
1070
   178
1070
     2
1070
   341
1005
44D5
1070
     5
1000
OPEN30
1002
}
  0
LINE
  5
466E
  8
CT
 10
17293.07881639307
 20
16356.43945233408
 30
0.0
 11
16370.46969435617
 21
16259.51794982194
 31
0.0
  0
LINE
  5
4670
  8
FUTO
 10
15168.18745783683
 20
16259.51794982194
 30
0.0
 11
15168.18745783683
 21
16389.466108481851
 31
0.0
  0
LINE
  5
4671
  8
FUTO
 10
15118.18745783683
 20
16250.51794982194
 30
0.0
 11
15118.18745783683
 21
16268.51794982194
 31
0.0
  0
LINE
  5
46AB
  8
KL
 10
15539.46969435617
 20
15806.20829943022
 30
0.0
 11
15539.46969435617
 21
15004.74502102814
 31
0.0
  0
LINE
  5
46AC
  8
KL
 10
15530.46969435617
 20
15794.571863993629
 30
0.0
 11
15530.46969435617
 21
14996.681230220391
 31
0.0
  0
LINE
  5
46AD
  8
FUTO
 10
15897.03510828373
 20
16268.51794982194
 30
0.0
 11
15118.18745783683
 21
16268.51794982194
 31
0.0
  0
LINE
  5
46AE
  8
FUTO
 10
15883.11331918579
 20
16250.51794982194
 30
0.0
 11
15118.18745783683
 21
16250.51794982194
 31
0.0
  0
LINE
  5
46AF
  8
KL
 10
16749.232517715609
 20
16290.15654706114
 30
0.0
 11
16570.323441634111
 21
16271.328102190449
 31
0.0
  0
LINE
  5
46B0
  8
KL
 10
16747.356695638831
 20
16308.05853350369
 30
0.0
 11
16568.454904033111
 21
16289.23085525342
 31
0.0
  0
LINE
  5
470A
  8
FUTO
 10
17300.469694356168
 20
19417.763082967489
 30
0.0
 11
17300.469694356168
 21
20585.763082967489
 31
0.0
  0
LINE
  5
470B
  8
HOSO
 10
17300.469694356168
 20
19417.763082967489
 30
0.0
 11
17300.469694356168
 21
20585.763082967489
 31
0.0
  0
LINE
  5
470C
  8
FUTO
 10
17250.469694356168
 20
19417.763082967489
 30
0.0
 11
17250.469694356168
 21
20585.763082967489
 31
0.0
  0
LINE
  5
470D
  8
FUTO
 10
17296.469694356168
 20
19417.763082967489
 30
0.0
 11
17296.469694356168
 21
20585.763082967489
 31
0.0
  0
LINE
  5
470E
  8
FUTO
 10
15163.46969435617
 20
20539.763082967489
 30
0.0
 11
15163.46969435617
 21
19465.763082967489
 31
0.0
  0
LINE
  5
470F
  8
FUTO
 10
15113.46969435617
 20
20585.763082967489
 30
0.0
 11
15113.46969435617
 21
19417.763082967489
 31
0.0
  0
LINE
  5
4710
  8
FUTO
 10
15113.46969435617
 20
19465.763082967489
 30
0.0
 11
14879.46969435617
 21
19465.763082967489
 31
0.0
  0
DIMENSION
  5
4712
  8
FUTO
  2
*D18
 10
17300.469694356168
 20
21020.198906160382
 30
0.0
 11
16835.469694356168
 21
21080.198906160382
 31
0.0
 70
     0
 13
16370.46969435617
 23
20916.635660617088
 33
0.0
 14
17300.469694356168
 24
20585.763082967489
 34
0.0
1001
ACAD
1000
DSTYLE
1002
{
1070
    40
1040
30.0
1070
   176
1070
     2
1070
   177
1070
     2
1070
   178
1070
     2
1070
   341
1005
44D5
1070
     5
1000
OPEN30
1002
}
  0
LINE
  5
485C
  8
FUTO
 10
19867.061107562022
 20
14714.51794982194
 30
0.0
 11
21036.06110756204
 21
14714.51794982194
 31
0.0
  0
LINE
  5
485D
  8
FUTO
 10
19917.061107562022
 20
14764.51794982194
 30
0.0
 11
20984.761107562019
 21
14764.51794982194
 31
0.0
  0
LINE
  5
485E
  8
FUTO
 10
19867.061107562022
 20
14714.51794982194
 30
0.0
 11
19867.061107561971
 21
16272.51794982194
 31
0.0
  0
LINE
  5
485F
  8
FUTO
 10
21036.06110756204
 20
14714.51794982194
 30
0.0
 11
21036.06110756196
 21
16272.51794982194
 31
0.0
  0
LINE
  5
4872
  8
SL
 10
16174.11835085545
 20
16414.263385636579
 30
0.0
 11
15087.21672471186
 21
15035.13001460735
 31
0.0
  0
LINE
  5
4873
  8
FUTO
 10
16069.884018959699
 20
16492.00074864037
 30
0.0
 11
14996.446408600321
 21
15104.113254401031
 31
0.0
  0
LINE
  5
4874
  8
SL
 10
15241.92098235362
 20
14891.219077266171
 30
0.0
 11
16538.986883029411
 21
16074.850797567769
 31
0.0
  0
LINE
  5
4875
  8
FUTO
 10
16624.046574932891
 20
15976.50069657229
 30
0.0
 11
15317.277362058479
 21
14805.665855835299
 31
0.0
  0
LINE
  5
4876
  8
FUTO
 10
16672.003193959739
 20
16153.51794982194
 30
0.0
 11
16870.469694356168
 21
14709.51794982194
 31
0.0
  0
LINE
  5
4877
  8
KL
 10
16068.93619475261
 20
16153.51794982196
 30
0.0
 11
15963.23034824436
 21
15384.424717196091
 31
0.0
  0
LINE
  5
4878
  8
FUTO
 10
15963.23034824436
 20
15384.424717196091
 30
0.0
 11
15870.469694356079
 21
14709.51794982198
 31
0.0
  0
LINE
  5
4879
  8
FUTO
 10
19842.061107562022
 20
17262.51794982194
 30
0.0
 11
21059.761107562019
 21
17262.51794982194
 31
0.0
  0
DIMENSION
  5
488D
  8
FUTO
  2
*D19
 10
17848.361493407891
 20
16259.51794982194
 30
0.0
 11
17788.361493407891
 21
15409.51794982194
 31
0.0
 70
     0
 13
17220.469694356168
 23
14559.51794982194
 33
0.0
 14
17548.4736730035
 24
16259.51794982194
 34
0.0
 50
90.0
1001
ACAD
1000
DSTYLE
1002
{
1070
    40
1040
30.0
1070
   176
1070
     2
1070
   177
1070
     2
1070
   178
1070
     2
1070
   341
1005
44D5
1070
     5
1000
OPEN30
1002
}
  0
LINE
  5
489A
  8
CT
 10
16477.58329719874
 20
17262.51794982194
 30
0.0
 11
16370.46969435617
 21
17262.51794982194
 31
0.0
  0
DIMENSION
  5
489B
  8
FUTO
  2
*D20
 10
17848.361493407891
 20
17262.51794982194
 30
0.0
 11
17788.361493407891
 21
16761.017949821951
 31
0.0
 70
     0
 13
17548.4736730035
 23
16259.51794982194
 33
0.0
 14
16477.58329719874
 24
17262.51794982194
 34
0.0
 50
90.0
1001
ACAD
1000
DSTYLE
1002
{
1070
    40
1040
30.0
1070
   176
1070
     2
1070
   177
1070
     2
1070
   178
1070
     2
1070
   341
1005
44D5
1070
     5
1000
OPEN30
1002
}
  0
DIMENSION
  5
48A8
  8
FUTO
  2
*D21
 10
17300.469694356168
 20
17563.393444212139
 30
0.0
 11
16835.469694356168
 21
17623.393444212139
 31
0.0
 70
     0
 13
16370.46969435617
 23
17362.547883120002
 33
0.0
 14
17300.469694356168
 24
16272.51794982194
 34
0.0
 50
180.0
1001
ACAD
1000
DSTYLE
1002
{
1070
    40
1040
30.0
1070
   176
1070
     2
1070
   177
1070
     2
1070
   178
1070
     2
1070
   341
1005
44D5
1070
     5
1000
OPEN30
1002
}
  0
ARC
  5
48C7
  8
FUTO
 10
16472.469694356168
 20
16157.51794982194
 30
0.0
 40
1329.0
 50
175.59825262435081
 51
209.10212833318641
  0
LINE
  5
48C8
  8
FUTO
 10
19917.061107562022
 20
14767.71794982195
 30
0.0
 11
20984.761107562019
 21
14767.71794982195
 31
0.0
  0
LINE
  5
4989
  8
FUTO
 10
19842.061107562022
 20
16352.61516445843
 30
0.0
 11
21059.761107562019
 21
16352.61516445843
 31
0.0
  0
LINE
  5
498A
  8
FUTO
 10
19842.061107562022
 20
16361.61516445843
 30
0.0
 11
21059.761107562019
 21
16361.61516445843
 31
0.0
  0
LINE
  5
498B
  8
FUTO
 10
19842.061107562022
 20
16343.61516445843
 30
0.0
 11
21059.761107562019
 21
16343.61516445843
 31
0.0
  0
LINE
  5
498C
  8
CT
 10
19842.061107562022
 20
16352.61516445843
 30
0.0
 11
21059.761107562019
 21
16352.61516445843
 31
0.0
  0
LINE
  5
498D
  8
FUTO
 10
19917.061107562022
 20
16218.51794982194
 30
0.0
 11
20984.761107562019
 21
16218.51794982194
 31
0.0
  0
LINE
  5
498E
  8
FUTO
 10
19867.06110756196
 20
16272.51794982194
 30
0.0
 11
21036.06110756196
 21
16272.51794982194
 31
0.0
  0
LINE
  5
498F
  8
FUTO
 10
19917.061107562022
 20
14714.51794982194
 30
0.0
 11
19917.061107562022
 21
14709.51794982194
 31
0.0
  0
LINE
  5
4990
  8
FUTO
 10
19921.561107562022
 20
14714.51794982194
 30
0.0
 11
19921.561107562022
 21
14709.51794982194
 31
0.0
  0
LINE
  5
4991
  8
FUTO
 10
20981.561107562022
 20
14714.51794982194
 30
0.0
 11
20981.561107562022
 21
14709.51794982194
 31
0.0
  0
LINE
  5
4992
  8
FUTO
 10
20984.761107562019
 20
14714.51794982194
 30
0.0
 11
20984.761107562019
 21
14709.51794982194
 31
0.0
  0
TEXT
  5
50A7
  8
SP
 10
13310.65972003344
 20
8809.4448256469514
 30
0.0
 40
100.0
  1
 
  0
TEXT
  5
5362
  8
SP
 10
22867.611150036901
 20
16238.04249774179
 30
0.0
 40
100.0
  1
 
  0
LINE
  5
5363
  8
4
 10
21968.861581063731
 20
12636.98927045325
 30
0.0
 11
21968.861581063731
 21
11636.989270453239
 31
0.0
  0
LINE
  5
5364
  8
4
 10
18468.861581063731
 20
12636.98927045325
 30
0.0
 11
18468.861581063731
 21
11636.989270453239
 31
0.0
  0
LINE
  5
5365
  8
4
 10
15968.861581063729
 20
12636.98927045325
 30
0.0
 11
15968.861581063729
 21
11636.989270453239
 31
0.0
  0
LINE
  5
5368
  8
4
 10
15968.861581063729
 20
11636.98927045325
 30
0.0
 11
21968.861581063731
 21
11636.98927045325
 31
0.0
  0
LINE
  5
5369
  8
4
 10
15968.861581063729
 20
12136.98927045325
 30
0.0
 11
21968.861581063731
 21
12136.98927045325
 31
0.0
  0
TEXT
  5
536A
  8
4
 10
16161.37198529825
 20
12294.704399786309
 30
0.0
 40
250.0
  1
機器名称
  0
TEXT
  5
536B
  8
4
 10
16150.152111187719
 20
11745.2150541133
 30
0.0
 40
250.0
  1
機器型番
  0
TEXT
  5
536C
  8
4
 10
18492.82688956894
 20
12247.92578223798
 30
0.0
 40
225.0
  1
ミツヤリミットロードファン
  0
TEXT
  5
536D
  8
4
 10
18652.134058991142
 20
11722.78719185296
 30
0.0
 40
250.0
  1
LL#9-1
  0
TEXT
  5
536F
  8
4
 10
16594.023323032619
 20
22054.133477115829
 30
0.0
 40
270.0
  1
床置防振ベット
  0
TEXT
  5
5370
  8
4
 10
14299.699547710959
 20
22806.394151449738
 30
0.0
 40
360.0
  1
遠心式片吸込片持リミットロードファン
  0
LINE
  5
5371
  8
4
 10
13968.861581063729
 20
22484.033041777278
 30
0.0
 11
21968.861581063731
 21
22484.033041777278
 31
0.0
  0
LINE
  5
5372
  8
4
 10
13968.861581063729
 20
23484.033041777278
 30
0.0
 11
21968.861581063731
 21
23484.033041777278
 31
0.0
  0
LINE
  5
5373
  8
4
 10
15968.861581063729
 20
12636.98927045325
 30
0.0
 11
21968.861581063731
 21
12636.98927045325
 31
0.0
  0
LINE
  5
5374
  8
4
 10
13968.861581063729
 20
23484.033041777278
 30
0.0
 11
13968.861581063729
 21
22484.033041777278
 31
0.0
  0
TEXT
  5
5375
  8
4
 10
14414.729161819099
 20
22048.586658184959
 30
0.0
 40
270.0
  1
左回転右横向
  0
TEXT
  5
5376
  8
4
 10
20063.709377310191
 20
23667.294677929789
 30
0.0
 40
280.0
  1
No.
  0
TEXT
  5
5377
  8
4
 10
20130.640804320501
 20
21557.868634105631
 30
0.0
 40
270.0
  1
縮尺：1/50
  0
LINE
  5
5378
  8
4
 10
21968.861581063731
 20
23484.033041777278
 30
0.0
 11
21968.861581063731
 21
22484.033041777278
 31
0.0
  0
LINE
  5
5379
  8
4
 10
23218.861581063731
 20
24886.98927045325
 30
0.0
 11
23218.861581063731
 21
24886.98927045325
 31
0.0
  0
LINE
  5
537A
  8
4
 10
19921.94869286305
 20
23543.307186080259
 30
0.0
 11
19921.94869286305
 21
24070.250578202009
 31
0.0
  0
LINE
  5
537B
  8
4
 10
19921.94869286305
 20
24070.250578202009
 30
0.0
 11
21968.861581063731
 21
24070.250578202009
 31
0.0
  0
LINE
  5
537C
  8
4
 10
21968.861581063731
 20
24070.250578202009
 30
0.0
 11
21968.861581063731
 21
23543.307186080259
 31
0.0
  0
LINE
  5
537D
  8
4
 10
21968.861581063731
 20
23543.307186080259
 30
0.0
 11
19921.94869286305
 21
23543.307186080259
 31
0.0
  0
LINE
  5
537E
  8
4
 10
12718.861581063729
 20
10136.98927045325
 30
0.0
 11
12718.861581063729
 21
24886.98927045325
 31
0.0
  0
LINE
  5
537F
  8
4
 10
12718.861581063729
 20
24886.98927045325
 30
0.0
 11
23218.861581063731
 21
24886.98927045325
 31
0.0
  0
LINE
  5
5380
  8
4
 10
23218.861581063731
 20
24886.98927045325
 30
0.0
 11
23218.861581063731
 21
10136.98927045325
 31
0.0
  0
LINE
  5
5381
  8
4
 10
23218.861581063731
 20
10136.98927045325
 30
0.0
 11
12718.861581063729
 21
10136.98927045325
 31
0.0
  0
ENDSEC
  0
EOF
