  0
SECTION
  2
HEADER
  9
$ACADVER
  1
AC1009
  9
$INSBASE
 10
0.0
 20
0.0
 30
0.0
  9
$EXTMIN
 10
10815.247646545469
 20
15490.92454757921
 30
0.0
  9
$EXTMAX
 10
21315.24764654546
 20
30240.924547579209
 30
0.0
  9
$LIMMIN
 10
0.0
 20
0.0
  9
$LIMMAX
 10
420.0
 20
297.0
  9
$ORTHOMODE
 70
     0
  9
$REGENMODE
 70
     1
  9
$FILLMODE
 70
     1
  9
$QTEXTMODE
 70
     0
  9
$MIRRTEXT
 70
     0
  9
$DRAGMODE
 70
     2
  9
$LTSCALE
 40
150.0
  9
$OSMODE
 70
    37
  9
$ATTMODE
 70
     1
  9
$TEXTSIZE
 40
90.0
  9
$TRACEWID
 40
0.05
  9
$TEXTSTYLE
  7
STANDARD
  9
$CLAYER
  8
FUTO
  9
$CELTYPE
  6
BYLAYER
  9
$CECOLOR
 62
   256
  9
$DIMSCALE
 40
30.0
  9
$DIMASZ
 40
2.0
  9
$DIMEXO
 40
1.0
  9
$DIMDLI
 40
10.0
  9
$DIMRND
 40
0.0
  9
$DIMDLE
 40
0.0
  9
$DIMEXE
 40
1.0
  9
$DIMTP
 40
0.0
  9
$DIMTM
 40
0.0
  9
$DIMTXT
 40
3.0
  9
$DIMCEN
 40
0.0
  9
$DIMTSZ
 40
0.0
  9
$DIMTOL
 70
     0
  9
$DIMLIM
 70
     0
  9
$DIMTIH
 70
     0
  9
$DIMTOH
 70
     0
  9
$DIMSE1
 70
     0
  9
$DIMSE2
 70
     0
  9
$DIMTAD
 70
     1
  9
$DIMZIN
 70
     8
  9
$DIMBLK
  1
OPEN30
  9
$DIMASO
 70
     1
  9
$DIMSHO
 70
     1
  9
$DIMPOST
  1

  9
$DIMAPOST
  1

  9
$DIMALT
 70
     0
  9
$DIMALTD
 70
     2
  9
$DIMALTF
 40
0.03937
  9
$DIMLFAC
 40
1.0
  9
$DIMTOFL
 70
     1
  9
$DIMTVP
 40
0.0
  9
$DIMTIX
 70
     0
  9
$DIMSOXD
 70
     0
  9
$DIMSAH
 70
     0
  9
$DIMBLK1
  1

  9
$DIMBLK2
  1

  9
$DIMSTYLE
  2
MATSU
  9
$DIMCLRD
 70
     2
  9
$DIMCLRE
 70
     2
  9
$DIMCLRT
 70
     2
  9
$DIMTFAC
 40
1.0
  9
$DIMGAP
 40
0.5
  9
$LUNITS
 70
     2
  9
$LUPREC
 70
     1
  9
$SKETCHINC
 40
0.1
  9
$FILLETRAD
 40
0.0
  9
$AUNITS
 70
     0
  9
$AUPREC
 70
     0
  9
$MENU
  1
SSMENU
  9
$ELEVATION
 40
0.0
  9
$PELEVATION
 40
0.0
  9
$THICKNESS
 40
0.0
  9
$LIMCHECK
 70
     0
  9
$BLIPMODE
 70
     0
  9
$CHAMFERA
 40
20.0
  9
$CHAMFERB
 40
20.0
  9
$SKPOLY
 70
     0
  9
$TDCREATE
 40
2450714.9573032409
  9
$TDUPDATE
 40
2454953.6486089351
  9
$TDINDWG
 40
1.3768175
  9
$TDUSRTIMER
 40
1.3768175
  9
$USRTIMER
 70
     1
  9
$ANGBASE
 50
0.0
  9
$ANGDIR
 70
     0
  9
$PDMODE
 70
     0
  9
$PDSIZE
 40
1.0
  9
$PLINEWID
 40
0.0
  9
$COORDS
 70
     1
  9
$SPLFRAME
 70
     0
  9
$SPLINETYPE
 70
     6
  9
$SPLINESEGS
 70
     8
  9
$ATTDIA
 70
     0
  9
$ATTREQ
 70
     1
  9
$HANDLING
 70
 10241
  9
$HANDSEED
  5
53D2
  9
$SURFTAB1
 70
     6
  9
$SURFTAB2
 70
     6
  9
$SURFTYPE
 70
     6
  9
$SURFU
 70
     6
  9
$SURFV
 70
     6
  9
$UCSNAME
  2

  9
$UCSORG
 10
0.0
 20
0.0
 30
0.0
  9
$UCSXDIR
 10
1.0
 20
0.0
 30
0.0
  9
$UCSYDIR
 10
0.0
 20
1.0
 30
0.0
  9
$PUCSNAME
  2

  9
$PUCSORG
 10
0.0
 20
0.0
 30
0.0
  9
$PUCSXDIR
 10
1.0
 20
0.0
 30
0.0
  9
$PUCSYDIR
 10
0.0
 20
1.0
 30
0.0
  9
$USERI1
 70
     0
  9
$USERI2
 70
     0
  9
$USERI3
 70
     0
  9
$USERI4
 70
     0
  9
$USERI5
 70
     0
  9
$USERR1
 40
0.0
  9
$USERR2
 40
0.0
  9
$USERR3
 40
0.0
  9
$USERR4
 40
0.0
  9
$USERR5
 40
0.0
  9
$WORLDVIEW
 70
     1
  9
$SHADEDGE
 70
     3
  9
$SHADEDIF
 70
    70
  9
$TILEMODE
 70
     1
  9
$MAXACTVP
 70
    16
  9
$PLIMCHECK
 70
     0
  9
$PEXTMIN
 10
0.0
 20
0.0
 30
0.0
  9
$PEXTMAX
 10
12.561051004636781
 20
9.0
 30
0.0
  9
$PLIMMIN
 10
0.0
 20
0.0
  9
$PLIMMAX
 10
12.0
 20
9.0
  9
$UNITMODE
 70
     0
  9
$VISRETAIN
 70
     0
  9
$PLINEGEN
 70
     0
  9
$PSLTSCALE
 70
     0
  0
ENDSEC
  0
SECTION
  2
TABLES
  0
TABLE
  2
VPORT
 70
     2
  0
VPORT
  2
*ACTIVE
 70
     0
 10
0.0
 20
0.0
 11
1.0
 21
1.0
 12
20741.250076486362
 22
17209.83907626375
 13
0.0
 23
0.0
 14
5.0
 24
5.0
 15
0.0
 25
0.0
 16
0.0
 26
0.0
 36
1.0
 17
0.0
 27
0.0
 37
0.0
 40
4571.9819159845138
 41
3.1666666666666661
 42
50.0
 43
0.0
 44
0.0
 50
0.0
 51
0.0
 71
     0
 72
   500
 73
     1
 74
     0
 75
     0
 76
     0
 77
     0
 78
     0
  0
ENDTAB
  0
TABLE
  2
LTYPE
 70
     4
  0
LTYPE
  2
CONTINUOUS
 70
     0
  3
実線
 72
    65
 73
     0
 40
0.0
  0
LTYPE
  2
CENTER
 70
     0
  3
____ _ ____ _ ____ _ ____ _ ____ _ ____ _ ____ 
 72
    65
 73
     4
 40
2.0
 49
1.25
 49
-0.25
 49
0.25
 49
-0.25
  0
LTYPE
  2
HIDDEN
 70
     0
  3
__ __ __ __ __ __ __ __ __ __ __ __ __ __ __ __
 72
    65
 73
     2
 40
0.375
 49
0.25
 49
-0.125
  0
LTYPE
  2
PHANTOM
 70
     0
  3
______  __  __  ______  __  __  ______  __  __ 
 72
    65
 73
     6
 40
2.5
 49
1.25
 49
-0.25
 49
0.25
 49
-0.25
 49
0.25
 49
-0.25
  0
ENDTAB
  0
TABLE
  2
LAYER
 70
     9
  0
LAYER
  2
0
 70
     0
 62
     7
  6
CONTINUOUS
  0
LAYER
  2
FUTO
 70
     0
 62
     4
  6
CONTINUOUS
  0
LAYER
  2
CT
 70
     0
 62
     3
  6
CENTER
  0
LAYER
  2
HOSO
 70
     0
 62
     7
  6
CONTINUOUS
  0
LAYER
  2
KL
 70
     0
 62
     7
  6
HIDDEN
  0
LAYER
  2
SL
 70
     0
 62
     1
  6
PHANTOM
  0
LAYER
  2
SP
 70
     0
 62
     2
  6
CONTINUOUS
  0
LAYER
  2
DEFPOINTS
 70
     0
 62
     7
  6
CONTINUOUS
  0
LAYER
  2
4
 70
     0
 62
     7
  6
CONTINUOUS
  0
ENDTAB
  0
TABLE
  2
STYLE
 70
     2
  0
STYLE
  2
STANDARD
 70
     0
 40
0.0
 41
1.0
 50
15.0
 71
     0
 42
90.0
  3
SIMPLEX
  4
EXTFONT
  0
STYLE
  2
SUNPOU
 70
     0
 40
0.0
 41
1.0
 50
15.0
 71
     0
 42
5.0
  3
simplex.shx
  4
extfont.shx
  0
ENDTAB
  0
TABLE
  2
VIEW
 70
     0
  0
ENDTAB
  0
TABLE
  2
UCS
 70
     0
  0
ENDTAB
  0
TABLE
  2
APPID
 70
     1
  0
APPID
  2
ACAD
 70
     0
  0
ENDTAB
  0
TABLE
  2
DIMSTYLE
 70
     1
  0
DIMSTYLE
  2
MATSU
 70
     0
  3

  4

  5
CLOSED
  6

  7

 40
10.0
 41
2.0
 42
1.0
 43
10.0
 44
1.0
 45
0.0
 46
0.0
 47
0.0
 48
0.0
140
3.0
141
0.0
142
0.0
143
0.03937
144
1.0
145
0.0
146
1.0
147
0.5
 71
     0
 72
     0
 73
     0
 74
     0
 75
     0
 76
     0
 77
     1
 78
     8
170
     0
171
     2
172
     1
173
     0
174
     0
175
     0
176
   256
177
   256
178
   256
  0
ENDTAB
  0
ENDSEC
  0
SECTION
  2
BLOCKS
  0
BLOCK
  8
0
  2
$MODEL_SPACE
 70
     0
 10
0.0
 20
0.0
 30
0.0
  3
$MODEL_SPACE
  1

  0
ENDBLK
  5
7
  8
0
  0
BLOCK
 67
     1
  8
0
  2
$PAPER_SPACE
 70
     0
 10
0.0
 20
0.0
 30
0.0
  3
$PAPER_SPACE
  1

  0
ENDBLK
  5
A
 67
     1
  8
0
  0
BLOCK
  8
0
  2
K150-75
 70
     0
 10
0.0
 20
0.0
 30
0.0
  3
K150-75
  1

  0
LINE
  5
3EA
  8
FUTO
 10
-75.000000000000455
 20
0.0
 30
0.0
 11
0.0000000000004547
 21
0.0
 31
0.0
  0
LINE
  5
3EB
  8
FUTO
 10
-64.848622970991073
 20
12.677032629465881
 30
0.0
 11
-3.651377029009836
 21
7.3229673705341147
 31
0.0
  0
LINE
  5
3EC
  8
FUTO
 10
-75.0
 20
150.0
 30
0.0
 11
0.0
 21
150.0000000000004
 31
0.0
  0
LINE
  5
3ED
  8
FUTO
 10
-64.848622970991073
 20
137.32296737053409
 30
0.0
 11
-3.651377029009836
 21
142.6770326294658
 31
0.0
  0
LINE
  5
3EE
  8
FUTO
 10
-68.500000000000455
 20
133.33818857816729
 30
0.0
 11
-68.5
 21
16.661811421832681
 31
0.0
  0
ARC
  5
3EF
  8
FUTO
 10
-64.500000000000455
 20
16.661811421832681
 30
0.0
 40
4.0
 50
180.0
 51
264.99999999999989
  0
LINE
  5
3F0
  8
FUTO
 10
-75.0
 20
150.0
 30
0.0
 11
-75.000000000000455
 21
0.0
 31
0.0
  0
ARC
  5
3F1
  8
FUTO
 10
-64.500000000000455
 20
133.33818857816729
 30
0.0
 40
4.0
 50
95.000000000000057
 51
180.0
  0
ARC
  5
3F2
  8
FUTO
 10
-4.0000000000004539
 20
3.3381885781673191
 30
0.0
 40
4.0
 50
0.0
 51
84.999999999999801
  0
LINE
  5
3F3
  8
FUTO
 10
0.0
 20
-0.0000000000004547
 30
0.0
 11
-0.0000000000004547
 21
3.3381885781673191
 31
0.0
  0
LINE
  5
3F4
  8
FUTO
 10
0.0
 20
150.0000000000004
 30
0.0
 11
-0.0000000000004547
 21
146.6618114218326
 31
0.0
  0
ARC
  5
3F5
  8
FUTO
 10
-4.0000000000004539
 20
146.6618114218326
 30
0.0
 40
4.0
 50
275.00000000000011
 51
0.0
  0
ENDBLK
  5
3F7
  8
0
  0
BLOCK
  8
0
  2
まっすぐの矢印
 70
     0
 10
0.0
 20
0.0
 30
0.0
  3
まっすぐの矢印
  1

  0
LINE
  5
599
  8
SP
 10
13.01863531255526
 20
-41.453946163708451
 30
0.0
 11
13.01863531255526
 21
-93.495696758840026
 31
0.0
  0
LINE
  5
59A
  8
SP
 10
13.01863531255526
 20
-93.495696758840026
 30
0.0
 11
-13.01863531255526
 21
-93.495696758840026
 31
0.0
  0
LINE
  5
59B
  8
SP
 10
-13.01863531255526
 20
-93.495696758840026
 30
0.0
 11
-13.01863531255526
 21
-41.453946163708451
 31
0.0
  0
LINE
  5
59C
  8
SP
 10
-13.01863531255526
 20
-41.453946163708451
 30
0.0
 11
-32.06015471115802
 21
-41.453946163708451
 31
0.0
  0
LINE
  5
59D
  8
SP
 10
-32.06015471115802
 20
-41.453946163708451
 30
0.0
 11
0.0
 21
0.0
 31
0.0
  0
LINE
  5
59E
  8
SP
 10
0.0
 20
0.0
 30
0.0
 11
32.06015471115802
 21
-41.453946163708451
 31
0.0
  0
LINE
  5
59F
  8
SP
 10
32.06015471115802
 20
-41.453946163708451
 30
0.0
 11
13.01863531255526
 21
-41.453946163708451
 31
0.0
  0
ENDBLK
  5
5A1
  8
0
  0
BLOCK
  8
0
  2
左回転矢印
 70
     0
 10
0.0
 20
0.0
 30
0.0
  3
左回転矢印
  1

  0
LINE
  5
57C
  8
SP
 10
43.930449171819873
 20
24.859487323637271
 30
0.0
 11
38.511878498580238
 21
44.478978865188871
 31
0.0
  0
LINE
  5
57D
  8
SP
 10
38.511878498580238
 20
44.478978865188871
 30
0.0
 11
0.0
 21
0.0
 31
0.0
  0
LINE
  5
57E
  8
SP
 10
0.0
 20
0.0
 30
0.0
 11
52.57968174421967
 21
-6.4575435924972453
 31
0.0
  0
LINE
  5
57F
  8
SP
 10
52.57968174421967
 20
-6.4575435924972453
 30
0.0
 11
48.189912989015284
 21
9.436875093862227
 31
0.0
  0
ARC
  5
580
  8
SP
 10
93.893649146691985
 20
-156.0466295121104
 30
0.0
 40
171.67883327727239
 50
67.881388989212894
 51
105.4392492786835
  0
LINE
  5
581
  8
SP
 10
158.53505643637521
 20
2.997736182040398
 30
0.0
 11
164.55945966006539
 21
17.820238190756751
 31
0.0
  0
ARC
  5
582
  8
SP
 10
93.893649146692198
 20
-156.04662951211091
 30
0.0
 40
187.67883327727299
 50
67.881388989212994
 51
105.4392492786836
  0
ENDBLK
  5
584
  8
0
  0
BLOCK
  8
0
  2
*D3
 70
     1
 10
0.0
 20
0.0
 30
0.0
  3
*D3
  1

  0
LINE
  5
52E3
  8
FUTO
 62
     2
 10
13337.838305405099
 20
21412.92822039366
 30
0.0
 11
13037.950485000711
 21
21412.92822039366
 31
0.0
  0
LINE
  5
52E4
  8
FUTO
 62
     2
 10
13665.842284052431
 20
20172.92822039366
 30
0.0
 11
13037.9504850007
 21
20172.92822039366
 31
0.0
  0
LINE
  5
52E5
  8
FUTO
 62
     2
 10
13067.950485000711
 20
21352.92822039366
 30
0.0
 11
13067.9504850007
 21
20232.92822039366
 31
0.0
  0
INSERT
  5
52E6
  8
FUTO
 62
     2
  2
_OPEN30
 10
13067.950485000711
 20
21412.92822039366
 30
0.0
 41
60.0
 42
60.0
 43
60.0
 50
90.0
  0
INSERT
  5
52E7
  8
FUTO
 62
     2
  2
_OPEN30
 10
13067.9504850007
 20
20172.92822039366
 30
0.0
 41
60.0
 42
60.0
 43
60.0
 50
270.0
  0
TEXT
  8
0
  40
90
  5
53B0
  62
2
  72
0
  71
0
 10
12828.0
 20
20633.6
 30
0.000000
  1
1240
  7
SUNPOU
  0
POINT
  5
52E9
  8
DEFPOINTS
 62
     0
 10
13367.838305405099
 20
21412.92822039366
 30
0.0
  0
POINT
  5
52EA
  8
DEFPOINTS
 62
     0
 10
13695.842284052431
 20
20172.92822039366
 30
0.0
  0
POINT
  5
52EB
  8
DEFPOINTS
 62
     0
 10
13067.9504850007
 20
20172.92822039366
 30
0.0
  0
ENDBLK
  5
2BCE
  8
0
  0
BLOCK
  8
0
  2
*D4
 70
     1
 10
0.0
 20
0.0
 30
0.0
  3
*D4
  1

  0
LINE
  5
52EC
  8
FUTO
 62
     2
 10
14545.842284052431
 20
19945.846069349911
 30
0.0
 11
14545.842284052431
 21
19733.62836042864
 31
0.0
  0
LINE
  5
52ED
  8
FUTO
 62
     2
 10
16095.842284052431
 20
19897.92822039366
 30
0.0
 11
16095.842284052431
 21
19733.62836042864
 31
0.0
  0
LINE
  5
52EE
  8
FUTO
 62
     2
 10
14605.842284052431
 20
19763.62836042864
 30
0.0
 11
16035.842284052431
 21
19763.62836042864
 31
0.0
  0
INSERT
  5
52EF
  8
FUTO
 62
     2
  2
_OPEN30
 10
14545.842284052431
 20
19763.62836042864
 30
0.0
 41
60.0
 42
60.0
 43
60.0
 50
180.0
  0
INSERT
  5
52F0
  8
FUTO
 62
     2
  2
_OPEN30
 10
16095.842284052431
 20
19763.62836042864
 30
0.0
 41
60.0
 42
60.0
 43
60.0
  0
TEXT
  8
0
  40
90
  5
53B1
  62
2
  72
0
  71
0
 10
15140.8
 20
19664.3
 30
0.000000
  1
1550
  7
SUNPOU
  0
POINT
  5
52F2
  8
DEFPOINTS
 62
     0
 10
14545.842284052431
 20
19975.846069349911
 30
0.0
  0
POINT
  5
52F3
  8
DEFPOINTS
 62
     0
 10
16095.842284052431
 20
19927.92822039366
 30
0.0
  0
POINT
  5
52F4
  8
DEFPOINTS
 62
     0
 10
16095.842284052431
 20
19763.62836042864
 30
0.0
  0
ENDBLK
  5
3643
  8
0
  0
BLOCK
  8
0
  2
*D5
 70
     1
 10
0.0
 20
0.0
 30
0.0
  3
*D5
  1

  0
LINE
  5
52F5
  8
FUTO
 62
     2
 10
16095.842284052431
 20
19972.92822039366
 30
0.0
 11
16095.842284052431
 21
19550.711043444549
 31
0.0
  0
LINE
  5
52F6
  8
FUTO
 62
     2
 10
13695.842284052431
 20
19972.92822039366
 30
0.0
 11
13695.842284052431
 21
19550.711043444549
 31
0.0
  0
LINE
  5
52F7
  8
FUTO
 62
     2
 10
16035.842284052431
 20
19580.711043444549
 30
0.0
 11
13755.842284052431
 21
19580.711043444549
 31
0.0
  0
INSERT
  5
52F8
  8
FUTO
 62
     2
  2
_OPEN30
 10
16095.842284052431
 20
19580.711043444549
 30
0.0
 41
60.0
 42
60.0
 43
60.0
  0
INSERT
  5
52F9
  8
FUTO
 62
     2
  2
_OPEN30
 10
13695.842284052431
 20
19580.711043444549
 30
0.0
 41
60.0
 42
60.0
 43
60.0
 50
180.0
  0
TEXT
  8
0
  40
90
  5
53B2
  62
2
  72
0
  71
0
 10
14715.8
 20
19481.4
 30
0.000000
  1
2400
  7
SUNPOU
  0
POINT
  5
52FB
  8
DEFPOINTS
 62
     0
 10
16095.842284052431
 20
20002.92822039366
 30
0.0
  0
POINT
  5
52FC
  8
DEFPOINTS
 62
     0
 10
13695.842284052431
 20
20002.92822039366
 30
0.0
  0
POINT
  5
52FD
  8
DEFPOINTS
 62
     0
 10
13695.842284052431
 20
19580.711043444549
 30
0.0
  0
ENDBLK
  5
3638
  8
0
  0
BLOCK
  8
0
  2
*D6
 70
     1
 10
0.0
 20
0.0
 30
0.0
  3
*D6
  1

  0
LINE
  5
52FE
  8
FUTO
 62
     2
 10
14545.842284052431
 20
19945.846069349911
 30
0.0
 11
14545.842284052431
 21
19733.62836042864
 31
0.0
  0
LINE
  5
52FF
  8
FUTO
 62
     2
 10
13695.842284052431
 20
19897.92822039366
 30
0.0
 11
13695.842284052431
 21
19733.62836042864
 31
0.0
  0
LINE
  5
5300
  8
FUTO
 62
     2
 10
14485.842284052431
 20
19763.62836042864
 30
0.0
 11
13755.842284052431
 21
19763.62836042864
 31
0.0
  0
INSERT
  5
5301
  8
FUTO
 62
     2
  2
_OPEN30
 10
14545.842284052431
 20
19763.62836042864
 30
0.0
 41
60.0
 42
60.0
 43
60.0
  0
INSERT
  5
5302
  8
FUTO
 62
     2
  2
_OPEN30
 10
13695.842284052431
 20
19763.62836042864
 30
0.0
 41
60.0
 42
60.0
 43
60.0
 50
180.0
  0
TEXT
  8
0
  40
90
  5
53B3
  62
2
  72
0
  71
0
 10
13940.8
 20
19664.3
 30
0.000000
  1
850
  7
SUNPOU
  0
POINT
  5
5304
  8
DEFPOINTS
 62
     0
 10
14545.842284052431
 20
19975.846069349911
 30
0.0
  0
POINT
  5
5305
  8
DEFPOINTS
 62
     0
 10
13695.842284052431
 20
19927.92822039366
 30
0.0
  0
POINT
  5
5306
  8
DEFPOINTS
 62
     0
 10
13695.842284052431
 20
19763.62836042864
 30
0.0
  0
ENDBLK
  5
3667
  8
0
  0
BLOCK
  8
0
  2
*D7
 70
     1
 10
0.0
 20
0.0
 30
0.0
  3
*D7
  1

  0
LINE
  5
533C
  8
FUTO
 62
     2
 10
13337.838305405099
 20
21412.92822039366
 30
0.0
 11
13037.9504850007
 21
21412.92822039366
 31
0.0
  0
LINE
  5
533D
  8
FUTO
 62
     2
 10
14523.860084013661
 20
22342.92822039366
 30
0.0
 11
13037.9504850007
 21
22342.92822039366
 31
0.0
  0
LINE
  5
533E
  8
FUTO
 62
     2
 10
13067.9504850007
 20
21472.92822039366
 30
0.0
 11
13067.9504850007
 21
22282.92822039366
 31
0.0
  0
INSERT
  5
533F
  8
FUTO
 62
     2
  2
_OPEN30
 10
13067.9504850007
 20
21412.92822039366
 30
0.0
 41
60.0
 42
60.0
 43
60.0
 50
270.0
  0
INSERT
  5
5340
  8
FUTO
 62
     2
  2
_OPEN30
 10
13067.9504850007
 20
22342.92822039366
 30
0.0
 41
60.0
 42
60.0
 43
60.0
 50
90.0
  0
TEXT
  8
0
  40
90
  5
53B4
  62
2
  72
0
  71
0
 10
12828.0
 20
21718.6
 30
0.000000
  1
930
  7
SUNPOU
  0
POINT
  5
5342
  8
DEFPOINTS
 62
     0
 10
13367.838305405099
 20
21412.92822039366
 30
0.0
  0
POINT
  5
5343
  8
DEFPOINTS
 62
     0
 10
14553.860084013661
 20
22342.92822039366
 30
0.0
  0
POINT
  5
5344
  8
DEFPOINTS
 62
     0
 10
13067.9504850007
 20
22342.92822039366
 30
0.0
  0
ENDBLK
  5
2BF1
  8
0
  0
BLOCK
  8
0
  2
*D8
 70
     1
 10
0.0
 20
0.0
 30
0.0
  3
*D8
  1

  0
LINE
  5
5345
  8
FUTO
 62
     2
 10
17128.101270975709
 20
19972.92822039366
 30
0.0
 11
17128.101270975709
 21
19554.89429815171
 31
0.0
  0
LINE
  5
5346
  8
FUTO
 62
     2
 10
19328.10127097572
 20
19972.92822039366
 30
0.0
 11
19328.10127097572
 21
19554.89429815171
 31
0.0
  0
LINE
  5
5347
  8
FUTO
 62
     2
 10
17188.101270975709
 20
19584.89429815171
 30
0.0
 11
19268.10127097572
 21
19584.89429815171
 31
0.0
  0
INSERT
  5
5348
  8
FUTO
 62
     2
  2
_OPEN30
 10
17128.101270975709
 20
19584.89429815171
 30
0.0
 41
60.0
 42
60.0
 43
60.0
 50
180.0
  0
INSERT
  5
5349
  8
FUTO
 62
     2
  2
_OPEN30
 10
19328.10127097572
 20
19584.89429815171
 30
0.0
 41
60.0
 42
60.0
 43
60.0
  0
TEXT
  8
0
  40
90
  5
53B5
  62
2
  72
0
  71
0
 10
18048.1
 20
19485.6
 30
0.000000
  1
2200
  7
SUNPOU
  0
POINT
  5
534B
  8
DEFPOINTS
 62
     0
 10
17128.101270975709
 20
20002.92822039366
 30
0.0
  0
POINT
  5
534C
  8
DEFPOINTS
 62
     0
 10
19328.10127097572
 20
20002.92822039366
 30
0.0
  0
POINT
  5
534D
  8
DEFPOINTS
 62
     0
 10
19328.10127097572
 20
19584.89429815171
 30
0.0
  0
ENDBLK
  5
34E6
  8
0
  0
BLOCK
  8
0
  2
*D9
 70
     1
 10
0.0
 20
0.0
 30
0.0
  3
*D9
  1

  0
LINE
  5
534E
  8
FUTO
 62
     2
 10
18716.10127097572
 20
19972.92822039366
 30
0.0
 11
18716.10127097572
 21
19736.224739409288
 31
0.0
  0
LINE
  5
534F
  8
FUTO
 62
     2
 10
19328.10127097572
 20
19972.92822039366
 30
0.0
 11
19328.10127097572
 21
19736.224739409288
 31
0.0
  0
LINE
  5
5350
  8
FUTO
 62
     2
 10
18776.10127097572
 20
19766.224739409288
 30
0.0
 11
19268.10127097572
 21
19766.224739409288
 31
0.0
  0
INSERT
  5
5351
  8
FUTO
 62
     2
  2
_OPEN30
 10
18716.10127097572
 20
19766.224739409288
 30
0.0
 41
60.0
 42
60.0
 43
60.0
 50
180.0
  0
INSERT
  5
5352
  8
FUTO
 62
     2
  2
_OPEN30
 10
19328.10127097572
 20
19766.224739409288
 30
0.0
 41
60.0
 42
60.0
 43
60.0
  0
TEXT
  8
0
  40
90
  5
53B6
  62
2
  72
0
  71
0
 10
18842.1
 20
19666.9
 30
0.000000
  1
612
  7
SUNPOU
  0
POINT
  5
5354
  8
DEFPOINTS
 62
     0
 10
18716.10127097572
 20
20002.92822039366
 30
0.0
  0
POINT
  5
5355
  8
DEFPOINTS
 62
     0
 10
19328.10127097572
 20
20002.92822039366
 30
0.0
  0
POINT
  5
5356
  8
DEFPOINTS
 62
     0
 10
19328.10127097572
 20
19766.224739409288
 30
0.0
  0
ENDBLK
  5
393A
  8
0
  0
BLOCK
  8
0
  2
*D10
 70
     1
 10
0.0
 20
0.0
 30
0.0
  3
*D10
  1

  0
LINE
  5
5357
  8
FUTO
 62
     2
 10
18716.10127097572
 20
19972.92822039366
 30
0.0
 11
18716.10127097572
 21
19736.229980331889
 31
0.0
  0
LINE
  5
5358
  8
FUTO
 62
     2
 10
17128.101270975709
 20
19972.92822039366
 30
0.0
 11
17128.101270975709
 21
19736.229980331889
 31
0.0
  0
LINE
  5
5359
  8
FUTO
 62
     2
 10
18656.101270975709
 20
19766.229980331889
 30
0.0
 11
17188.101270975709
 21
19766.229980331889
 31
0.0
  0
INSERT
  5
535A
  8
FUTO
 62
     2
  2
_OPEN30
 10
18716.10127097572
 20
19766.229980331889
 30
0.0
 41
60.0
 42
60.0
 43
60.0
  0
INSERT
  5
535B
  8
FUTO
 62
     2
  2
_OPEN30
 10
17128.101270975709
 20
19766.229980331889
 30
0.0
 41
60.0
 42
60.0
 43
60.0
 50
180.0
  0
TEXT
  8
0
  40
90
  5
53B7
  62
2
  72
0
  71
0
 10
17742.1
 20
19666.9
 30
0.000000
  1
1588
  7
SUNPOU
  0
POINT
  5
535D
  8
DEFPOINTS
 62
     0
 10
18716.10127097572
 20
20002.92822039366
 30
0.0
  0
POINT
  5
535E
  8
DEFPOINTS
 62
     0
 10
17128.101270975709
 20
20002.92822039366
 30
0.0
  0
POINT
  5
535F
  8
DEFPOINTS
 62
     0
 10
17128.101270975709
 20
19766.229980331889
 30
0.0
  0
ENDBLK
  5
3947
  8
0
  0
BLOCK
  8
0
  2
_CLOSED
 70
     0
 10
0.0
 20
0.0
 30
0.0
  3
_CLOSED
  1

  0
LINE
  5
3BE3
  8
0
  6
BYBLOCK
 62
     0
 10
-1.0
 20
0.1666666666666666
 30
0.0
 11
0.0
 21
0.0
 31
0.0
  0
LINE
  5
3BE4
  8
0
  6
BYBLOCK
 62
     0
 10
0.0
 20
0.0
 30
0.0
 11
-1.0
 21
-0.1666666666666666
 31
0.0
  0
LINE
  5
3BE5
  8
0
  6
BYBLOCK
 62
     0
 10
-1.0
 20
0.1666666666666666
 30
0.0
 11
-1.0
 21
-0.1666666666666666
 31
0.0
  0
ENDBLK
  5
3BE6
  8
0
  0
BLOCK
  8
0
  2
*D12
 70
     1
 10
0.0
 20
0.0
 30
0.0
  3
*D12
  1

  0
LINE
  5
5363
  8
SP
 62
     2
 10
16896.101270975709
 20
21822.92822039366
 30
0.0
 11
16896.101270975709
 21
22847.911778839982
 31
0.0
  0
LINE
  5
5364
  8
SP
 62
     2
 10
18716.10127097572
 20
22723.52468449932
 30
0.0
 11
18716.10127097572
 21
22847.911778839982
 31
0.0
  0
LINE
  5
5365
  8
SP
 62
     2
 10
16956.101270975709
 20
22817.911778839982
 30
0.0
 11
18656.101270975709
 21
22817.911778839982
 31
0.0
  0
INSERT
  5
5366
  8
SP
 62
     2
  2
_OPEN30
 10
16896.101270975709
 20
22817.911778839982
 30
0.0
 41
60.0
 42
60.0
 43
60.0
 50
180.0
  0
INSERT
  5
5367
  8
SP
 62
     2
  2
_OPEN30
 10
18716.10127097572
 20
22817.911778839982
 30
0.0
 41
60.0
 42
60.0
 43
60.0
  0
TEXT
  8
0
  40
90
  5
53B8
  62
2
  72
0
  71
0
 10
17626.1
 20
22718.6
 30
0.000000
  1
1820
  7
SUNPOU
  0
POINT
  5
5369
  8
DEFPOINTS
 62
     0
 10
16896.101270975709
 20
21792.928220393671
 30
0.0
  0
POINT
  5
536A
  8
DEFPOINTS
 62
     0
 10
18716.10127097572
 20
22693.52468449932
 30
0.0
  0
POINT
  5
536B
  8
DEFPOINTS
 62
     0
 10
18716.10127097572
 20
22817.911778839982
 30
0.0
  0
ENDBLK
  5
3C57
  8
0
  0
BLOCK
  8
0
  2
*D13
 70
     1
 10
0.0
 20
0.0
 30
0.0
  3
*D13
  1

  0
LINE
  5
537A
  8
FUTO
 62
     2
 10
16090.84228405242
 20
22372.92822039366
 30
0.0
 11
16090.84228405242
 21
22706.758603942901
 31
0.0
  0
LINE
  5
537B
  8
FUTO
 62
     2
 10
14545.842284052431
 20
22444.489614713631
 30
0.0
 11
14545.842284052431
 21
22706.758603942901
 31
0.0
  0
LINE
  5
537C
  8
FUTO
 62
     2
 10
16030.84228405242
 20
22676.758603942901
 30
0.0
 11
14605.842284052431
 21
22676.758603942901
 31
0.0
  0
INSERT
  5
537D
  8
FUTO
 62
     2
  2
_OPEN30
 10
16090.84228405242
 20
22676.758603942901
 30
0.0
 41
60.0
 42
60.0
 43
60.0
  0
INSERT
  5
537E
  8
FUTO
 62
     2
  2
_OPEN30
 10
14545.842284052431
 20
22676.758603942901
 30
0.0
 41
60.0
 42
60.0
 43
60.0
 50
180.0
  0
TEXT
  8
0
  40
90
  5
53B9
  62
2
  72
0
  71
0
 10
15138.3
 20
22577.5
 30
0.000000
  1
1545
  7
SUNPOU
  0
POINT
  5
5380
  8
DEFPOINTS
 62
     0
 10
16090.84228405242
 20
22342.92822039366
 30
0.0
  0
POINT
  5
5381
  8
DEFPOINTS
 62
     0
 10
14545.842284052431
 20
22414.489614713631
 30
0.0
  0
POINT
  5
5382
  8
DEFPOINTS
 62
     0
 10
14545.842284052431
 20
22676.758603942901
 30
0.0
  0
ENDBLK
  5
4374
  8
0
  0
BLOCK
  8
0
  2
*D14
 70
     1
 10
0.0
 20
0.0
 30
0.0
  3
*D14
  1

  0
LINE
  5
5307
  8
FUTO
 62
     2
 10
19380.101270975709
 20
22112.928220393671
 30
0.0
 11
19745.71113273194
 21
22112.928220393671
 31
0.0
  0
LINE
  5
5308
  8
FUTO
 62
     2
 10
19380.101270975709
 20
20712.92822039366
 30
0.0
 11
19745.71113273194
 21
20712.92822039366
 31
0.0
  0
LINE
  5
5309
  8
FUTO
 62
     2
 10
19715.71113273194
 20
22052.92822039366
 30
0.0
 11
19715.71113273194
 21
20772.92822039366
 31
0.0
  0
INSERT
  5
530A
  8
FUTO
 62
     2
  2
_OPEN30
 10
19715.71113273194
 20
22112.928220393671
 30
0.0
 41
60.0
 42
60.0
 43
60.0
 50
90.0
  0
INSERT
  5
530B
  8
FUTO
 62
     2
  2
_OPEN30
 10
19715.71113273194
 20
20712.92822039366
 30
0.0
 41
60.0
 42
60.0
 43
60.0
 50
270.0
  0
TEXT
  8
0
  40
90
  5
53BA
  62
2
  72
0
  71
0
 10
19475.7
 20
21253.6
 30
0.000000
  1
%%C1400
  7
SUNPOU
  0
POINT
  5
530D
  8
DEFPOINTS
 62
     0
 10
19350.10127097572
 20
22112.928220393671
 30
0.0
  0
POINT
  5
530E
  8
DEFPOINTS
 62
     0
 10
19350.10127097572
 20
20712.92822039366
 30
0.0
  0
POINT
  5
530F
  8
DEFPOINTS
 62
     0
 10
19715.71113273194
 20
20712.92822039366
 30
0.0
  0
ENDBLK
  5
4473
  8
0
  0
BLOCK
  8
0
  2
*D15
 70
     1
 10
0.0
 20
0.0
 30
0.0
  3
*D15
  1

  0
LINE
  5
5310
  8
FUTO
 62
     2
 10
18716.10127097572
 20
22693.52468449932
 30
0.0
 11
18716.10127097572
 21
22847.911778839982
 31
0.0
  0
LINE
  5
5311
  8
FUTO
 62
     2
 10
19350.10127097572
 20
22192.92822039366
 30
0.0
 11
19350.10127097572
 21
22847.911778839982
 31
0.0
  0
LINE
  5
5312
  8
FUTO
 62
     2
 10
18776.10127097572
 20
22817.911778839982
 30
0.0
 11
19290.10127097572
 21
22817.911778839982
 31
0.0
  0
INSERT
  5
5313
  8
FUTO
 62
     2
  2
_OPEN30
 10
18716.10127097572
 20
22817.911778839982
 30
0.0
 41
60.0
 42
60.0
 43
60.0
 50
180.0
  0
INSERT
  5
5314
  8
FUTO
 62
     2
  2
_OPEN30
 10
19350.10127097572
 20
22817.911778839982
 30
0.0
 41
60.0
 42
60.0
 43
60.0
  0
TEXT
  8
0
  40
90
  5
53BB
  62
2
  72
0
  71
0
 10
18853.1
 20
22718.6
 30
0.000000
  1
634
  7
SUNPOU
  0
POINT
  5
5316
  8
DEFPOINTS
 62
     0
 10
18716.10127097572
 20
22663.52468449932
 30
0.0
  0
POINT
  5
5317
  8
DEFPOINTS
 62
     0
 10
19350.10127097572
 20
22162.92822039366
 30
0.0
  0
POINT
  5
5318
  8
DEFPOINTS
 62
     0
 10
19350.10127097572
 20
22817.911778839982
 30
0.0
  0
ENDBLK
  5
447F
  8
0
  0
BLOCK
  8
0
  2
*D16
 70
     1
 10
0.0
 20
0.0
 30
0.0
  3
*D16
  1

  0
LINE
  5
5319
  8
FUTO
 62
     2
 10
18186.10127097572
 20
22322.92822039366
 30
0.0
 11
18186.10127097572
 21
22586.051212488012
 31
0.0
  0
LINE
  5
531A
  8
FUTO
 62
     2
 10
19246.101270975709
 20
22322.92822039366
 30
0.0
 11
19246.101270975709
 21
22586.051212488012
 31
0.0
  0
LINE
  5
531B
  8
FUTO
 62
     2
 10
18246.10127097572
 20
22556.051212488012
 30
0.0
 11
19186.101270975709
 21
22556.051212488012
 31
0.0
  0
INSERT
  5
531C
  8
FUTO
 62
     2
  2
_OPEN30
 10
18186.10127097572
 20
22556.051212488012
 30
0.0
 41
60.0
 42
60.0
 43
60.0
 50
180.0
  0
INSERT
  5
531D
  8
FUTO
 62
     2
  2
_OPEN30
 10
19246.101270975709
 20
22556.051212488012
 30
0.0
 41
60.0
 42
60.0
 43
60.0
  0
TEXT
  8
0
  40
90
  5
53BC
  62
2
  72
0
  71
0
 10
18536.1
 20
22456.8
 30
0.000000
  1
1060
  7
SUNPOU
  0
POINT
  5
531F
  8
DEFPOINTS
 62
     0
 10
18186.10127097572
 20
22292.92822039366
 30
0.0
  0
POINT
  5
5320
  8
DEFPOINTS
 62
     0
 10
19246.101270975709
 20
22292.92822039366
 30
0.0
  0
POINT
  5
5321
  8
DEFPOINTS
 62
     0
 10
19246.101270975709
 20
22556.051212488012
 30
0.0
  0
ENDBLK
  5
448B
  8
0
  0
BLOCK
  8
0
  2
_OPEN30
 70
     0
 10
0.0
 20
0.0
 30
0.0
  3
_OPEN30
  1

  0
LINE
  5
44D6
  8
FUTO
 62
     0
 10
-1.0
 20
0.26794919
 30
0.0
 11
0.0
 21
0.0
 31
0.0
  0
LINE
  5
44D7
  8
FUTO
 62
     0
 10
0.0
 20
0.0
 30
0.0
 11
-1.0
 21
-0.26794919
 31
0.0
  0
LINE
  5
44D8
  8
FUTO
 62
     0
 10
0.0
 20
0.0
 30
0.0
 11
-1.0
 21
0.0
 31
0.0
  0
ENDBLK
  5
44DA
  8
0
  0
BLOCK
  8
0
  2
*D18
 70
     1
 10
0.0
 20
0.0
 30
0.0
  3
*D18
  1

  0
LINE
  5
5383
  8
FUTO
 62
     2
 10
13665.842284052431
 20
20152.92822039366
 30
0.0
 11
13037.9504850007
 21
20152.92822039366
 31
0.0
  0
LINE
  5
5384
  8
FUTO
 62
     2
 10
13665.842284052431
 20
20002.92822039366
 30
0.0
 11
13037.9504850007
 21
20002.92822039366
 31
0.0
  0
LINE
  5
5385
  8
FUTO
 62
     2
 10
13067.9504850007
 20
20092.92822039366
 30
0.0
 11
13067.9504850007
 21
20062.92822039366
 31
0.0
  0
LINE
  5
5386
  8
FUTO
 62
     2
 10
13067.9504850007
 20
20002.92822039366
 30
0.0
 11
13067.9504850007
 21
19702.92822039366
 31
0.0
  0
INSERT
  5
5387
  8
FUTO
 62
     2
  2
_OPEN30
 10
13067.9504850007
 20
20152.92822039366
 30
0.0
 41
60.0
 42
60.0
 43
60.0
 50
90.0
  0
INSERT
  5
5388
  8
FUTO
 62
     2
  2
_OPEN30
 10
13067.9504850007
 20
20002.92822039366
 30
0.0
 41
60.0
 42
60.0
 43
60.0
 50
270.0
  0
TEXT
  8
0
  40
90
  5
53BD
  62
2
  72
0
  71
0
 10
12828.0
 20
19663.6
 30
0.000000
  1
150
  7
SUNPOU
  0
POINT
  5
538A
  8
DEFPOINTS
 62
     0
 10
13695.842284052431
 20
20152.92822039366
 30
0.0
  0
POINT
  5
538B
  8
DEFPOINTS
 62
     0
 10
13695.842284052431
 20
20002.92822039366
 30
0.0
  0
POINT
  5
538C
  8
DEFPOINTS
 62
     0
 10
13067.9504850007
 20
20002.92822039366
 30
0.0
  0
ENDBLK
  5
4591
  8
0
  0
BLOCK
  8
0
  2
*D19
 70
     1
 10
0.0
 20
0.0
 30
0.0
  3
*D19
  1

  0
LINE
  5
538D
  8
FUTO
 62
     2
 10
14545.842284052431
 20
26053.18949423718
 30
0.0
 11
14545.842284052431
 21
26156.752739780459
 31
0.0
  0
LINE
  5
538E
  8
FUTO
 62
     2
 10
13492.842284052431
 20
25722.316916587581
 30
0.0
 11
13492.842284052431
 21
26156.752739780459
 31
0.0
  0
LINE
  5
538F
  8
FUTO
 62
     2
 10
14485.842284052431
 20
26126.75273978047
 30
0.0
 11
13552.842284052431
 21
26126.75273978047
 31
0.0
  0
INSERT
  5
5390
  8
FUTO
 62
     2
  2
_OPEN30
 10
14545.842284052431
 20
26126.75273978047
 30
0.0
 41
60.0
 42
60.0
 43
60.0
  0
INSERT
  5
5391
  8
FUTO
 62
     2
  2
_OPEN30
 10
13492.842284052431
 20
26126.75273978047
 30
0.0
 41
60.0
 42
60.0
 43
60.0
 50
180.0
  0
TEXT
  8
0
  40
90
  5
53BE
  62
2
  72
0
  71
0
 10
13839.3
 20
26027.5
 30
0.000000
  1
1053
  7
SUNPOU
  0
POINT
  5
5393
  8
DEFPOINTS
 62
     0
 10
14545.842284052431
 20
26023.18949423718
 30
0.0
  0
POINT
  5
5394
  8
DEFPOINTS
 62
     0
 10
13492.842284052431
 20
25692.316916587581
 30
0.0
  0
POINT
  5
5395
  8
DEFPOINTS
 62
     0
 10
13492.842284052431
 20
26126.75273978047
 30
0.0
  0
ENDBLK
  5
45A7
  8
0
  0
BLOCK
  8
0
  2
*D20
 70
     1
 10
0.0
 20
0.0
 30
0.0
  3
*D20
  1

  0
LINE
  5
5396
  8
FUTO
 62
     2
 10
14545.842284052431
 20
26053.18949423718
 30
0.0
 11
14545.842284052431
 21
26156.752739780459
 31
0.0
  0
LINE
  5
5397
  8
FUTO
 62
     2
 10
16095.842284052431
 20
24527.316916587581
 30
0.0
 11
16095.842284052431
 21
26156.752739780459
 31
0.0
  0
LINE
  5
5398
  8
FUTO
 62
     2
 10
14605.842284052431
 20
26126.75273978047
 30
0.0
 11
16035.842284052431
 21
26126.75273978047
 31
0.0
  0
INSERT
  5
5399
  8
FUTO
 62
     2
  2
_OPEN30
 10
14545.842284052431
 20
26126.75273978047
 30
0.0
 41
60.0
 42
60.0
 43
60.0
 50
180.0
  0
INSERT
  5
539A
  8
FUTO
 62
     2
  2
_OPEN30
 10
16095.842284052431
 20
26126.75273978047
 30
0.0
 41
60.0
 42
60.0
 43
60.0
  0
TEXT
  8
0
  40
90
  5
53BF
  62
2
  72
0
  71
0
 10
15140.8
 20
26027.5
 30
0.000000
  1
1550
  7
SUNPOU
  0
POINT
  5
539C
  8
DEFPOINTS
 62
     0
 10
14545.842284052431
 20
26023.18949423718
 30
0.0
  0
POINT
  5
539D
  8
DEFPOINTS
 62
     0
 10
16095.842284052431
 20
24497.316916587581
 30
0.0
  0
POINT
  5
539E
  8
DEFPOINTS
 62
     0
 10
16095.842284052431
 20
26126.75273978047
 30
0.0
  0
ENDBLK
  5
45B4
  8
0
  0
BLOCK
  8
0
  2
*D21
 70
     1
 10
0.0
 20
0.0
 30
0.0
  3
*D21
  1

  0
LINE
  5
539F
  8
FUTO
 62
     2
 10
13338.322283472909
 20
25108.316916587581
 30
0.0
 11
13105.53638121256
 21
25108.316916587581
 31
0.0
  0
LINE
  5
53A0
  8
FUTO
 62
     2
 10
13765.842284052431
 20
25742.31691658757
 30
0.0
 11
13105.53638121256
 21
25742.31691658757
 31
0.0
  0
LINE
  5
53A1
  8
FUTO
 62
     2
 10
13135.53638121256
 20
25168.316916587581
 30
0.0
 11
13135.53638121256
 21
25682.316916587581
 31
0.0
  0
INSERT
  5
53A2
  8
FUTO
 62
     2
  2
_OPEN30
 10
13135.53638121256
 20
25108.316916587581
 30
0.0
 41
60.0
 42
60.0
 43
60.0
 50
270.0
  0
INSERT
  5
53A3
  8
FUTO
 62
     2
  2
_OPEN30
 10
13135.53638121256
 20
25742.31691658757
 30
0.0
 41
60.0
 42
60.0
 43
60.0
 50
90.0
  0
TEXT
  8
0
  40
90
  5
53C0
  62
2
  72
0
  71
0
 10
12895.5
 20
25266.0
 30
0.000000
  1
634
  7
SUNPOU
  0
POINT
  5
53A5
  8
DEFPOINTS
 62
     0
 10
13368.322283472909
 20
25108.316916587581
 30
0.0
  0
POINT
  5
53A6
  8
DEFPOINTS
 62
     0
 10
13795.842284052431
 20
25742.31691658757
 30
0.0
  0
POINT
  5
53A7
  8
DEFPOINTS
 62
     0
 10
13135.53638121256
 20
25742.31691658757
 30
0.0
  0
ENDBLK
  5
45C1
  8
0
  0
BLOCK
  8
0
  2
*D22
 70
     1
 10
0.0
 20
0.0
 30
0.0
  3
*D22
  1

  0
LINE
  5
53A8
  8
FUTO
 62
     2
 10
14135.842284052431
 20
23288.316916587581
 30
0.0
 11
13105.53638121256
 21
23288.316916587581
 31
0.0
  0
LINE
  5
53A9
  8
FUTO
 62
     2
 10
13135.53638121256
 20
25048.316916587581
 30
0.0
 11
13135.53638121256
 21
23348.316916587581
 31
0.0
  0
INSERT
  5
53AA
  8
FUTO
 62
     2
  2
_OPEN30
 10
13135.53638121256
 20
25108.316916587581
 30
0.0
 41
60.0
 42
60.0
 43
60.0
 50
90.0
  0
INSERT
  5
53AB
  8
FUTO
 62
     2
  2
_OPEN30
 10
13135.53638121256
 20
23288.316916587581
 30
0.0
 41
60.0
 42
60.0
 43
60.0
 50
270.0
  0
TEXT
  8
0
  40
90
  5
53C1
  62
2
  72
0
  71
0
 10
12895.5
 20
24039.0
 30
0.000000
  1
1820
  7
SUNPOU
  0
POINT
  5
53AD
  8
DEFPOINTS
 62
     0
 10
13135.53638121256
 20
25108.316916587581
 30
0.0
  0
POINT
  5
53AE
  8
DEFPOINTS
 62
     0
 10
14165.842284052431
 20
23288.316916587581
 30
0.0
  0
POINT
  5
53AF
  8
DEFPOINTS
 62
     0
 10
13135.53638121256
 20
23288.316916587581
 30
0.0
  0
ENDBLK
  5
45CD
  8
0
  0
BLOCK
  8
0
  2
*U23
 70
     1
 10
0.0
 20
0.0
 30
0.0
  3
*U23
  1

  0
SOLID
  5
536D
  8
FUTO
  6
CONTINUOUS
 10
-13898.574133398461
 20
20172.92822039366
 30
0.0
 11
-13938.574133398461
 21
20172.92822039366
 31
0.0
 12
-13898.574133398461
 22
20152.92822039366
 32
0.0
 13
-13898.574133398461
 23
20152.92822039366
 33
0.0
210
0.0
220
0.0
230
-1.0
  0
SOLID
  5
536E
  8
FUTO
  6
CONTINUOUS
 10
-13938.574133398461
 20
20152.92822039366
 30
0.0
 11
-13898.574133398461
 21
20152.92822039366
 31
0.0
 12
-13938.574133398461
 22
20172.92822039366
 32
0.0
 13
-13938.574133398461
 23
20172.92822039366
 33
0.0
210
0.0
220
0.0
230
-1.0
  0
SOLID
  5
536F
  8
FUTO
  6
CONTINUOUS
 10
-13858.574133398461
 20
20172.92822039366
 30
0.0
 11
-13898.574133398461
 21
20172.92822039366
 31
0.0
 12
-13858.574133398461
 22
20152.92822039366
 32
0.0
 13
-13858.574133398461
 23
20152.92822039366
 33
0.0
210
0.0
220
0.0
230
-1.0
  0
SOLID
  5
5370
  8
FUTO
  6
CONTINUOUS
 10
-13898.574133398461
 20
20152.92822039366
 30
0.0
 11
-13858.574133398461
 21
20152.92822039366
 31
0.0
 12
-13898.574133398461
 22
20172.92822039366
 32
0.0
 13
-13898.574133398461
 23
20172.92822039366
 33
0.0
210
0.0
220
0.0
230
-1.0
  0
ENDBLK
  5
5372
  8
0
  0
BLOCK
  8
0
  2
*U24
 70
     1
 10
0.0
 20
0.0
 30
0.0
  3
*U24
  1

  0
SOLID
  5
5374
  8
FUTO
  6
CONTINUOUS
 10
16045.842284052431
 20
20172.92822039366
 30
0.0
 11
16045.842284052431
 21
20152.92822039366
 31
0.0
 12
16085.842284052431
 22
20172.92822039366
 32
0.0
 13
16085.842284052431
 23
20172.92822039366
 33
0.0
210
0.0
220
0.0
230
1.0
  0
SOLID
  5
5375
  8
FUTO
  6
CONTINUOUS
 10
16085.842284052431
 20
20152.92822039366
 30
0.0
 11
16085.842284052431
 21
20172.92822039366
 31
0.0
 12
16045.842284052431
 22
20152.92822039366
 32
0.0
 13
16045.842284052431
 23
20152.92822039366
 33
0.0
210
0.0
220
0.0
230
1.0
  0
SOLID
  5
5376
  8
FUTO
  6
CONTINUOUS
 10
16005.842284052431
 20
20152.92822039366
 30
0.0
 11
16045.842284052431
 21
20152.92822039366
 31
0.0
 12
16005.842284052431
 22
20172.92822039366
 32
0.0
 13
16005.842284052431
 23
20172.92822039366
 33
0.0
210
0.0
220
0.0
230
1.0
  0
SOLID
  5
5377
  8
FUTO
  6
CONTINUOUS
 10
16045.842284052431
 20
20172.92822039366
 30
0.0
 11
16005.842284052431
 21
20172.92822039366
 31
0.0
 12
16045.842284052431
 22
20152.92822039366
 32
0.0
 13
16045.842284052431
 23
20152.92822039366
 33
0.0
210
0.0
220
0.0
230
1.0
  0
ENDBLK
  5
5379
  8
0
  0
ENDSEC
  0
SECTION
  2
ENTITIES
  0
LINE
  5
1F
  8
FUTO
 10
17123.10127097572
 20
20152.928220393671
 30
0.0
 11
19331.10127097572
 21
20152.92822039366
 31
0.0
1001
ACAD
1000
ASC_BOUNDS
1002
{
1070
    19
1005
3975
1002
}
  0
LINE
  5
41
  8
FUTO
 10
17128.101270975709
 20
20002.92822039366
 30
0.0
 11
19328.10127097572
 21
20002.92822039366
 31
0.0
  0
LINE
  5
42
  8
FUTO
 10
17123.101270975709
 20
20172.92822039366
 30
0.0
 11
19331.10127097572
 21
20172.928220393671
 31
0.0
1001
ACAD
1000
ASC_BOUNDS
1002
{
1070
    19
1005
3975
1002
}
  0
LINE
  5
116
  8
FUTO
 10
18045.10127097572
 20
21457.92822039366
 30
0.0
 11
18106.601270975709
 21
21457.92822039366
 31
0.0
  0
LINE
  5
117
  8
FUTO
 10
18045.10127097572
 20
21367.928220393671
 30
0.0
 11
18107.901270975719
 21
21367.928220393671
 31
0.0
  0
LINE
  5
118
  8
FUTO
 10
17129.101270975709
 20
20322.92822039366
 30
0.0
 11
19328.301270975709
 21
20322.92822039366
 31
0.0
  0
LINE
  5
119
  8
CT
 10
16845.251137490341
 20
21412.92822039366
 30
0.0
 11
19443.428748947721
 21
21412.92822039366
 31
0.0
  0
ARC
  5
11C
  8
FUTO
 10
14647.842284052431
 20
21310.928220393671
 30
0.0
 40
1125.0
 50
175.25813759379739
 51
238.05363545715079
  0
LINE
  5
14C
  8
SL
 10
17106.101270975709
 20
21492.92822039366
 30
0.0
 11
17106.101270975709
 21
21332.92822039366
 31
0.0
  0
LINE
  5
162
  8
CT
 10
17266.10127097572
 20
21531.431717353789
 30
0.0
 11
17266.10127097572
 21
21250.09758860695
 31
0.0
  0
LINE
  5
163
  8
CT
 10
14400.842284052431
 20
21302.92822039366
 30
0.0
 11
14400.842284052431
 21
21356.92822039366
 31
0.0
  0
ARC
  5
164
  8
FUTO
 10
14434.842284052431
 20
21362.92822039366
 30
0.0
 40
16.0
 50
270.0
 51
0.000000000000007
  0
ARC
  5
165
  8
FUTO
 10
14545.842284052431
 20
21412.92822039366
 30
0.0
 40
95.000000000000071
 50
209.9999999999994
 51
230.94387397238239
  0
ARC
  5
168
  8
FUTO
 10
14545.842284052431
 20
21412.92822039366
 30
0.0
 40
94.999999999997485
 50
309.05612602761818
 51
330.00000000000108
  0
LINE
  5
169
  8
CT
 10
14690.842284052431
 20
21302.92822039366
 30
0.0
 11
14690.842284052431
 21
21356.92822039366
 31
0.0
  0
ARC
  5
16A
  8
FUTO
 10
14656.842284052431
 20
21362.92822039366
 30
0.0
 40
16.0
 50
180.0
 51
270.0
  0
LINE
  5
16B
  8
CT
 10
14545.842284052431
 20
21537.431717353789
 30
0.0
 11
14545.842284052431
 21
21295.686881238071
 31
0.0
  0
ARC
  5
178
  8
KL
 10
14460.342284052431
 20
21327.42822039366
 30
0.0
 40
917.5
 50
90.0
 51
180.0
  0
LINE
  5
17D
  8
FUTO
 10
16896.101270975709
 20
21792.928220393671
 30
0.0
 11
16896.101270975709
 21
20362.92822039366
 31
0.0
  0
LINE
  5
17E
  8
SL
 10
17006.101270975709
 20
21662.92822039366
 30
0.0
 11
17006.101270975709
 21
20476.92822039366
 31
0.0
  0
LINE
  5
17F
  8
SL
 10
17084.00127097571
 20
21662.92822039366
 30
0.0
 11
17084.00127097571
 21
20476.92822039366
 31
0.0
  0
ARC
  5
180
  8
FUTO
 10
14647.842284052431
 20
21514.92822039366
 30
0.0
 40
1329.0
 50
329.29372122440577
 51
354.84585959754298
  0
LINE
  5
181
  8
SL
 10
14688.06673846987
 20
21618.53027428822
 30
0.0
 11
15801.107741501821
 21
20673.38113197151
 31
0.0
  0
LINE
  5
182
  8
FUTO
 10
15896.37921031999
 20
20744.461825290859
 30
0.0
 11
14798.649037468091
 21
21696.633605304542
 31
0.0
  0
ARC
  5
183
  8
FUTO
 10
14545.842284052431
 20
21412.92822039366
 30
0.0
 40
380.0
 50
48.296118811314891
 51
240.76413685388491
  0
LINE
  5
184
  8
CT
 10
14545.842284052431
 20
22414.489614713631
 30
0.0
 11
14545.842284052431
 21
20002.92822039366
 31
0.0
  0
LINE
  5
185
  8
FUTO
 10
15385.842284052431
 20
22292.92822039366
 30
0.0
 11
15385.842284052431
 21
21187.301847246312
 31
0.0
  0
LINE
  5
186
  8
FUTO
 10
15376.842284052431
 20
22292.92822039366
 30
0.0
 11
15376.842284052431
 21
21195.108452395802
 31
0.0
  0
LINE
  5
187
  8
FUTO
 10
13705.842284052431
 20
21862.92822039366
 30
0.0
 11
13705.842284052431
 21
20322.92822039366
 31
0.0
  0
LINE
  5
188
  8
FUTO
 10
13714.842284052431
 20
21862.92822039366
 30
0.0
 11
13714.842284052431
 21
20322.92822039366
 31
0.0
  0
CIRCLE
  5
18B
  8
SL
 10
14545.842284052431
 20
21412.92822039366
 30
0.0
 40
250.0
  0
ARC
  5
18C
  8
KL
 10
14647.842284052431
 20
21514.92822039366
 30
0.0
 40
1309.0
 50
270.0
 51
354.84585959754298
  0
DIMENSION
  5
18D
  8
FUTO
  2
*D3
 10
13067.9504850007
 20
20172.92822039366
 30
0.0
 11
13007.9504850007
 21
20792.928220393671
 31
0.0
 70
     0
 13
13367.838305405099
 23
21412.92822039366
 33
0.0
 14
13695.842284052431
 24
20172.92822039366
 34
0.0
 50
90.0
1001
ACAD
1000
DSTYLE
1002
{
1070
    40
1040
30.0
1070
   176
1070
     2
1070
   177
1070
     2
1070
   178
1070
     2
1070
   341
1005
44D5
1070
     5
1000
OPEN30
1002
}
  0
LINE
  5
19A
  8
CT
 10
17976.101270975709
 20
21531.431717353789
 30
0.0
 11
17976.101270975709
 21
21227.764057178509
 31
0.0
  0
LINE
  5
19B
  8
FUTO
 10
13695.842284052431
 20
20172.92822039366
 30
0.0
 11
16095.842284052431
 21
20172.92822039366
 31
0.0
1001
ACAD
1000
ASC_BOUNDS
1002
{
1070
    19
1005
0
1005
0
1005
0
1005
0
1005
0
1005
0
1005
0
1005
0
1005
0
1005
0
1005
0
1005
0
1005
0
1005
0
1005
0
1005
0
1005
0
1005
0
1005
0
1005
0
1005
0
1002
}
  0
LINE
  5
19C
  8
FUTO
 10
13695.842284052431
 20
20152.92822039366
 30
0.0
 11
16095.842284052431
 21
20152.92822039366
 31
0.0
1001
ACAD
1000
ASC_BOUNDS
1002
{
1070
    19
1005
0
1005
0
1005
0
1005
0
1005
0
1005
0
1005
0
1005
0
1005
0
1005
0
1005
0
1005
0
1005
0
1005
0
1005
0
1005
0
1005
0
1005
0
1005
0
1005
0
1005
0
1002
}
  0
DIMENSION
  5
276
  8
FUTO
  2
*D4
 10
16095.842284052431
 20
19763.62836042864
 30
0.0
 11
15320.842284052431
 21
19823.62836042864
 31
0.0
 70
     0
 13
14545.842284052431
 23
19975.846069349911
 33
0.0
 14
16095.842284052431
 24
19927.92822039366
 34
0.0
 50
180.0
1001
ACAD
1000
DSTYLE
1002
{
1070
    40
1040
30.0
1070
   176
1070
     2
1070
   177
1070
     2
1070
   178
1070
     2
1070
   341
1005
44D5
1070
     5
1000
OPEN30
1002
}
  0
DIMENSION
  5
283
  8
FUTO
  2
*D5
 10
13695.842284052431
 20
19580.711043444549
 30
0.0
 11
14895.842284052431
 21
19640.711043444549
 31
0.0
 70
     0
 13
16095.842284052431
 23
20002.92822039366
 33
0.0
 14
13695.842284052431
 24
20002.92822039366
 34
0.0
 50
180.0
1001
ACAD
1000
DSTYLE
1002
{
1070
    40
1040
30.0
1070
   176
1070
     2
1070
   177
1070
     2
1070
   178
1070
     2
1070
   341
1005
44D5
1070
     5
1000
OPEN30
1002
}
  0
LINE
  5
291
  8
SL
 10
14449.84514066613
 20
21182.093759227941
 30
0.0
 11
15684.78362841645
 21
20496.280424276702
 31
0.0
  0
LINE
  5
292
  8
FUTO
 10
15654.190770153309
 20
20382.928220393671
 30
0.0
 11
14360.24802243211
 21
21081.333935078601
 31
0.0
  0
LINE
  5
293
  8
FUTO
 10
15485.842284052431
 20
20397.421855811132
 30
0.0
 11
15432.641350948281
 21
20397.421855811132
 31
0.0
  0
LINE
  5
294
  8
FUTO
 10
13695.842284052431
 20
20322.92822039366
 30
0.0
 11
16095.842284052431
 21
20322.92822039366
 31
0.0
  0
LINE
  5
295
  8
FUTO
 10
13695.842284052431
 20
20002.92822039366
 30
0.0
 11
16095.842284052431
 21
20002.92822039366
 31
0.0
  0
LINE
  5
2AC
  8
FUTO
 10
15485.842284052431
 20
20322.92822039366
 30
0.0
 11
15485.842284052431
 21
20414.108652735871
 31
0.0
  0
LINE
  5
2AD
  8
FUTO
 10
15485.842284052431
 20
20322.92822039366
 30
0.0
 11
15495.85061996287
 21
20382.928220393671
 31
0.0
  0
LINE
  5
2AE
  8
FUTO
 10
16005.842284052431
 20
20322.92822039366
 30
0.0
 11
16005.842284052431
 21
20414.108652735871
 31
0.0
  0
LINE
  5
2AF
  8
FUTO
 10
16005.842284052431
 20
20322.92822039366
 30
0.0
 11
15995.83394814199
 21
20382.928220393671
 31
0.0
  0
ARC
  5
2B0
  8
FUTO
 10
15745.842284052431
 20
20582.928220393671
 30
0.0
 40
220.0
 50
240.76413685388491
 51
48.296118811314997
  0
LINE
  5
2B2
  8
FUTO
 10
16095.842284052431
 20
20152.92822039366
 30
0.0
 11
16095.842284052431
 21
20002.92822039366
 31
0.0
  0
POINT
  5
2B3
  8
DEFPOINTS
 10
16095.842284052431
 20
20172.92822039366
 30
0.0
  0
POINT
  5
2B4
  8
DEFPOINTS
 10
16095.842284052431
 20
20152.92822039366
 30
0.0
  0
POINT
  5
2B5
  8
DEFPOINTS
 10
16095.842284052431
 20
20152.92822039366
 30
0.0
  0
LINE
  5
2B6
  8
FUTO
 10
16095.842284052431
 20
20322.92822039366
 30
0.0
 11
16095.842284052431
 21
20172.92822039366
 31
0.0
  0
LINE
  5
2BD
  8
CT
 10
15948.397460052431
 20
20657.92822039366
 30
0.0
 11
15984.83081005243
 21
20657.92822039366
 31
0.0
  0
LINE
  5
2BE
  8
FUTO
 10
15965.842284052431
 20
20597.92822039366
 30
0.0
 11
15948.788817052429
 21
20597.92822039366
 31
0.0
  0
LINE
  5
2BF
  8
FUTO
 10
15965.842284052431
 20
20717.92822039366
 30
0.0
 11
15898.11596605243
 21
20717.92822039366
 31
0.0
  0
ARC
  5
2C0
  8
FUTO
 10
15974.04223505243
 20
20724.394773393658
 30
0.0
 40
8.1999940000000002
 50
107.30986
 51
180.0
  0
LINE
  5
2C1
  8
FUTO
 10
15995.83394814199
 20
20382.928220393671
 30
0.0
 11
15829.18060363067
 21
20382.928220393671
 31
0.0
  0
LINE
  5
2C2
  8
FUTO
 10
15944.297256641559
 20
20397.421855811132
 30
0.0
 11
15979.11180834568
 21
20397.421855811132
 31
0.0
  0
LINE
  5
2C3
  8
FUTO
 10
15966.11425705243
 20
20584.286130393659
 30
0.0
 11
15976.512816052429
 21
20540.612058393661
 31
0.0
  0
LINE
  5
2C4
  8
FUTO
 10
16142.634887052431
 20
20550.342771393669
 30
0.0
 11
16142.634887052431
 21
20688.135251393662
 31
0.0
  0
LINE
  5
2C5
  8
FUTO
 10
15982.634887052431
 20
20767.790036393661
 30
0.0
 11
16131.384887052431
 21
20510.147458393662
 31
0.0
  0
LINE
  5
2C6
  8
FUTO
 10
15977.092284052431
 20
20764.590085393658
 30
0.0
 11
16125.842284052431
 21
20506.947507393659
 31
0.0
  0
LINE
  5
2C7
  8
FUTO
 10
15988.842284052431
 20
20502.928220393671
 30
0.0
 11
16108.842284052431
 21
20502.928220393671
 31
0.0
  0
LINE
  5
2C8
  8
FUTO
 10
15986.24084405243
 20
20532.92822039366
 30
0.0
 11
16110.842284052431
 21
20532.92822039366
 31
0.0
  0
ARC
  5
2C9
  8
FUTO
 10
16119.36718605243
 20
20534.96288839366
 30
0.0
 40
2.0000450000000001
 50
107.313553
 51
209.99818400000001
  0
LINE
  5
2CA
  8
FUTO
 10
16136.874755052429
 20
20542.51415739366
 30
0.0
 11
16118.771972052429
 21
20536.872312393662
 31
0.0
  0
LINE
  5
2CB
  8
FUTO
 10
16131.384887052431
 20
20510.147458393662
 30
0.0
 11
16125.842284052431
 21
20506.947507393659
 31
0.0
  0
LINE
  5
2CC
  8
FUTO
 10
16108.842284052431
 20
20502.928220393671
 30
0.0
 11
16108.842284052431
 21
20532.92822039366
 31
0.0
  0
ARC
  5
2CD
  8
FUTO
 10
16134.43481305243
 20
20550.342771393669
 30
0.0
 40
8.2000299999999982
 50
287.31066900000002
 51
0.000000000000007
  0
LINE
  5
2CE
  8
FUTO
 10
15988.842284052431
 20
20502.928220393671
 30
0.0
 11
15988.842284052431
 21
20532.92822039366
 31
0.0
  0
LINE
  5
2CF
  8
FUTO
 10
16018.842284052431
 20
20502.928220393671
 30
0.0
 11
16018.842284052431
 21
20532.92822039366
 31
0.0
  0
LINE
  5
2D0
  8
FUTO
 10
16021.842284052431
 20
20502.928220393671
 30
0.0
 11
16021.842284052431
 21
20532.92822039366
 31
0.0
  0
ARC
  5
2D1
  8
FUTO
 10
15986.24084405243
 20
20542.928220393671
 30
0.0
 40
9.9999559999999992
 50
193.392303
 51
270.0
  0
LINE
  5
2D2
  8
CT
 10
16048.842284052431
 20
20547.011228393661
 30
0.0
 11
16048.842284052431
 21
20494.789792393669
 31
0.0
  0
LINE
  5
2D3
  8
FUTO
 10
16078.842284052431
 20
20502.928220393671
 30
0.0
 11
16078.842284052431
 21
20532.92822039366
 31
0.0
  0
LINE
  5
2D4
  8
FUTO
 10
16075.842284052431
 20
20502.928220393671
 30
0.0
 11
16075.842284052431
 21
20532.92822039366
 31
0.0
  0
LINE
  5
2D5
  8
FUTO
 10
16005.842284052431
 20
20397.421855811132
 30
0.0
 11
16059.04321715657
 21
20397.421855811132
 31
0.0
  0
LINE
  5
2D6
  8
FUTO
 10
16059.04321715657
 20
20404.877651239342
 30
0.0
 11
16067.924457295379
 21
20404.877651239342
 31
0.0
  0
LINE
  5
2D7
  8
FUTO
 10
16059.04321715657
 20
20390.676126325841
 30
0.0
 11
16059.04321715657
 21
20404.877651239342
 31
0.0
  0
LINE
  5
2D8
  8
FUTO
 10
16068.279708138751
 20
20390.676126325841
 30
0.0
 11
16059.04321715657
 21
20390.676126325841
 31
0.0
  0
LINE
  5
2D9
  8
FUTO
 10
16068.279708138751
 20
20404.522618267882
 30
0.0
 11
16068.279708138751
 21
20390.676126325841
 31
0.0
  0
LINE
  5
2DA
  8
FUTO
 10
15979.11180834568
 20
20414.108652735871
 30
0.0
 11
15979.11180834568
 21
20382.928220393671
 31
0.0
  0
LINE
  5
2DB
  8
FUTO
 10
16005.842284052431
 20
20414.108652735871
 30
0.0
 11
15979.11180834568
 21
20414.108652735871
 31
0.0
  0
LINE
  5
2DC
  8
FUTO
 10
16122.23620505243
 20
20741.80932339366
 30
0.0
 11
15997.634887052431
 21
20741.80932339366
 31
0.0
  0
ARC
  5
2DD
  8
FUTO
 10
16122.23620505243
 20
20731.80932339366
 30
0.0
 40
10.000075000000001
 50
13.392141000000001
 51
90.0
  0
ARC
  5
2DE
  8
FUTO
 10
16132.634154052421
 20
20688.135007393659
 30
0.0
 40
10.000731999999999
 50
0.0013990000000172
 51
13.392693
  0
LINE
  5
2DF
  8
FUTO
 10
16131.96435405243
 20
20734.125486393659
 30
0.0
 11
16142.36291405243
 21
20690.451413393661
 31
0.0
  0
LINE
  5
2E0
  8
FUTO
 10
15982.634887052431
 20
20767.790036393661
 30
0.0
 11
15977.092284052431
 21
20764.590085393658
 31
0.0
  0
ARC
  5
2E1
  8
FUTO
 10
15989.109984052429
 20
20739.774655393659
 30
0.0
 40
2.000008999999999
 50
287.31021099999992
 51
29.999931000000021
  0
LINE
  5
2E2
  8
FUTO
 10
15989.705077052429
 20
20737.865232393669
 30
0.0
 11
15971.60241605243
 21
20732.22338639366
 31
0.0
  0
ARC
  5
2E3
  8
FUTO
 10
15975.842284052431
 20
20586.602292393669
 30
0.0
 40
10.0
 50
180.0
 51
193.392303
  0
LINE
  5
2E4
  8
FUTO
 10
15965.842284052431
 20
20586.602292393669
 30
0.0
 11
15965.842284052431
 21
20724.394773393658
 31
0.0
  0
LINE
  5
2E5
  8
FUTO
 10
15739.592284052431
 20
20796.57519339367
 30
0.0
 11
15739.592284052431
 21
20846.67822039366
 31
0.0
  0
LINE
  5
2E6
  8
FUTO
 10
15752.092284052431
 20
20796.57519339367
 30
0.0
 11
15752.092284052431
 21
20846.67822039366
 31
0.0
  0
LINE
  5
2E7
  8
CT
 10
15745.842284052431
 20
20859.247312393662
 30
0.0
 11
15745.842284052431
 21
20379.22338639366
 31
0.0
  0
CIRCLE
  5
2E8
  8
FUTO
 10
15745.842284052431
 20
20582.928220393671
 30
0.0
 40
40.0
  0
LINE
  5
2E9
  8
FUTO
 10
15800.58032105243
 20
20386.92822039366
 30
0.0
 11
15691.104247052421
 21
20386.92822039366
 31
0.0
  0
LINE
  5
2EA
  8
CT
 10
15531.00317305243
 20
20582.928220393671
 30
0.0
 11
15959.83337305243
 21
20582.928220393671
 31
0.0
  0
LINE
  5
2EB
  8
CT
 10
15558.342284052431
 20
20582.928220393671
 30
0.0
 11
15945.87724139855
 21
20582.928220393671
 31
0.0
  0
CIRCLE
  5
2EC
  8
SL
 10
15745.842284052431
 20
20582.928220393671
 30
0.0
 40
106.0
  0
LINE
  5
2ED
  8
FUTO
 10
15662.503964474179
 20
20373.451875832059
 30
0.0
 11
15745.855064939949
 21
20373.451875832059
 31
0.0
  0
ARC
  5
2EE
  8
FUTO
 10
15745.842284052431
 20
20582.928220393671
 30
0.0
 40
203.5
 50
285.60376000000002
 51
254.3962709999999
  0
CIRCLE
  5
2EF
  8
FUTO
 10
15745.842284052431
 20
20582.928220393671
 30
0.0
 40
7.5
  0
LINE
  5
2F0
  8
CT
 10
15745.842284052431
 20
20370.42822039366
 30
0.0
 11
15745.842284052431
 21
20786.05122574421
 31
0.0
  0
LINE
  5
2F1
  8
FUTO
 10
15896.756347052429
 20
20446.40990939366
 30
0.0
 11
15901.554442052429
 21
20442.375486393659
 31
0.0
  0
LINE
  5
2F2
  8
FUTO
 10
15898.351073052419
 20
20440.460446393659
 30
0.0
 11
15894.75903205243
 21
20444.052487393659
 31
0.0
  0
LINE
  5
2F3
  8
FUTO
 10
15898.351073052419
 20
20439.611814393669
 30
0.0
 11
15898.351073052419
 21
20440.460446393659
 31
0.0
  0
LINE
  5
2F4
  8
FUTO
 10
15896.063720052431
 20
20438.172849393661
 30
0.0
 11
15896.91235205243
 21
20438.172849393661
 31
0.0
  0
LINE
  5
2F5
  8
FUTO
 10
15896.063720052431
 20
20438.172849393661
 30
0.0
 11
15896.063720052431
 21
20437.324460393669
 31
0.0
  0
ARC
  5
2F6
  8
FUTO
 10
15898.336669052431
 20
20438.548581393661
 30
0.0
 40
5.0000339999999994
 50
316.563965
 51
49.941891000000027
  0
LINE
  5
2F7
  8
FUTO
 10
15888.31005805243
 20
20430.41943139366
 30
0.0
 11
15884.71801705243
 21
20434.01147239366
 31
0.0
  0
LINE
  5
2F8
  8
FUTO
 10
15888.31005805243
 20
20430.41943139366
 30
0.0
 11
15889.158690052431
 21
20430.41943139366
 31
0.0
  0
LINE
  5
2F9
  8
FUTO
 10
15890.597411052429
 20
20432.706784393671
 30
0.0
 11
15890.597411052429
 21
20431.858152393659
 31
0.0
  0
LINE
  5
2FA
  8
FUTO
 10
15890.597411052429
 20
20432.706784393671
 30
0.0
 11
15887.005370052429
 21
20436.29882539366
 31
0.0
  0
LINE
  5
2FB
  8
FUTO
 10
15890.597411052429
 20
20432.706784393671
 30
0.0
 11
15891.446044052431
 21
20432.706784393671
 31
0.0
  0
LINE
  5
2FC
  8
FUTO
 10
15894.75903205243
 20
20444.052487393659
 30
0.0
 11
15884.71801705243
 21
20434.01147239366
 31
0.0
  0
LINE
  5
2FD
  8
CT
 10
15894.283202052429
 20
20434.48730239366
 30
0.0
 11
15889.03515505243
 21
20439.735349393661
 31
0.0
  0
LINE
  5
2FE
  8
FUTO
 10
15898.351073052419
 20
20439.611814393669
 30
0.0
 11
15889.158690052431
 21
20430.41943139366
 31
0.0
  0
LINE
  5
2FF
  8
FUTO
 10
15896.063720052431
 20
20438.172849393661
 30
0.0
 11
15892.471679052431
 21
20441.76513439366
 31
0.0
  0
LINE
  5
300
  8
FUTO
 10
15872.02856305243
 20
20402.92822039366
 30
0.0
 11
15867.507201052431
 21
20419.802732393669
 31
0.0
  0
LINE
  5
301
  8
FUTO
 10
15867.50707905243
 20
20419.802732393669
 30
0.0
 11
15872.02856305243
 21
20402.92822039366
 31
0.0
  0
ARC
  5
302
  8
FUTO
 10
15873.626952052429
 20
20416.281736393659
 30
0.0
 40
5.0
 50
195.00116
 51
307.48202500000008
  0
ARC
  5
303
  8
FUTO
 10
15745.842284052431
 20
20582.928220393671
 30
0.0
 40
214.9999849999999
 50
307.48104899999998
 51
316.565674
  0
ARC
  5
304
  8
FUTO
 10
15858.342284052431
 20
20399.928220393671
 30
0.0
 40
3.0
 50
90.0
 51
180.0
  0
LINE
  5
305
  8
FUTO
 10
15895.592284052431
 20
20394.92822039366
 30
0.0
 11
15895.592284052431
 21
20390.92822039366
 31
0.0
  0
LINE
  5
306
  8
FUTO
 10
15895.592284052431
 20
20386.92822039366
 30
0.0
 11
15895.592284052431
 21
20382.928220393671
 31
0.0
  0
LINE
  5
307
  8
FUTO
 10
15855.342284052431
 20
20399.928220393671
 30
0.0
 11
15855.342284052431
 21
20382.928220393671
 31
0.0
  0
LINE
  5
308
  8
FUTO
 10
15855.342284052431
 20
20387.92822039366
 30
0.0
 11
15849.66723505243
 21
20409.108396393669
 31
0.0
  0
LINE
  5
309
  8
CT
 10
15904.842284052431
 20
20407.352048393659
 30
0.0
 11
15904.842284052431
 21
20378.236325393671
 31
0.0
  0
LINE
  5
30A
  8
FUTO
 10
15895.592284052431
 20
20402.92822039366
 30
0.0
 11
15895.592284052431
 21
20398.92822039366
 31
0.0
  0
ARC
  5
30B
  8
FUTO
 10
15929.842284052431
 20
20457.254880393659
 30
0.0
 40
5.0
 50
0.000000000000007
 51
55.056338999999987
  0
ARC
  5
30C
  8
FUTO
 10
15931.842284052431
 20
20399.928220393671
 30
0.0
 40
3.0
 50
0.000000000000007
 51
90.0
  0
LINE
  5
30D
  8
FUTO
 10
15914.092284052431
 20
20394.92822039366
 30
0.0
 11
15914.092284052431
 21
20390.92822039366
 31
0.0
  0
LINE
  5
30E
  8
FUTO
 10
15914.092284052431
 20
20386.92822039366
 30
0.0
 11
15914.092284052431
 21
20382.928220393671
 31
0.0
  0
LINE
  5
30F
  8
FUTO
 10
15914.092284052431
 20
20402.92822039366
 30
0.0
 11
15914.092284052431
 21
20398.92822039366
 31
0.0
  0
LINE
  5
310
  8
FUTO
 10
15934.842284052431
 20
20457.254880393659
 30
0.0
 11
15934.842284052431
 21
20382.928220393671
 31
0.0
  0
LINE
  5
311
  8
FUTO
 10
15934.842284052431
 20
20382.928220393671
 30
0.0
 11
15855.342284052431
 21
20382.928220393671
 31
0.0
  0
LINE
  5
312
  8
FUTO
 10
15858.342284052431
 20
20402.92822039366
 30
0.0
 11
15931.842284052431
 21
20402.92822039366
 31
0.0
  0
LINE
  5
313
  8
FUTO
 10
15932.70617605243
 20
20461.35351339366
 30
0.0
 11
15916.76831005243
 21
20472.489987393659
 31
0.0
  0
LINE
  5
314
  8
FUTO
 10
15829.18060363067
 20
20382.928220393671
 30
0.0
 11
15829.18060363067
 21
20373.451875832059
 31
0.0
  0
LINE
  5
315
  8
FUTO
 10
15829.18060363067
 20
20373.451875832059
 30
0.0
 11
15745.8295031649
 21
20373.451875832059
 31
0.0
  0
LINE
  5
316
  8
FUTO
 10
15889.158690052431
 20
20735.43700939366
 30
0.0
 11
15888.310180052429
 21
20735.43700939366
 31
0.0
  0
LINE
  5
317
  8
FUTO
 10
15890.597533052431
 20
20733.149655393659
 30
0.0
 11
15890.597533052431
 21
20733.998288393668
 31
0.0
  0
LINE
  5
318
  8
FUTO
 10
15890.597533052431
 20
20733.149655393659
 30
0.0
 11
15891.446044052431
 21
20733.149655393659
 31
0.0
  0
LINE
  5
319
  8
FUTO
 10
15888.310180052429
 20
20735.43700939366
 30
0.0
 11
15884.71801705243
 21
20731.84496839366
 31
0.0
  0
LINE
  5
31A
  8
FUTO
 10
15898.351073052419
 20
20725.39599339366
 30
0.0
 11
15898.351073052419
 21
20726.244626393662
 31
0.0
  0
LINE
  5
31B
  8
FUTO
 10
15896.063720052431
 20
20727.68334739366
 30
0.0
 11
15896.91235205243
 21
20727.68334739366
 31
0.0
  0
LINE
  5
31C
  8
FUTO
 10
15896.063720052431
 20
20727.68334739366
 30
0.0
 11
15896.063720052431
 21
20728.531980393662
 31
0.0
  0
LINE
  5
31D
  8
FUTO
 10
15896.063720052431
 20
20727.68334739366
 30
0.0
 11
15892.471679052431
 21
20724.09130639366
 31
0.0
  0
LINE
  5
31E
  8
FUTO
 10
15890.597533052431
 20
20733.149655393659
 30
0.0
 11
15887.005370052429
 21
20729.55761439366
 31
0.0
  0
LINE
  5
31F
  8
FUTO
 10
15894.283324052431
 20
20731.36913839366
 30
0.0
 11
15889.03515505243
 21
20726.121091393659
 31
0.0
  0
LINE
  5
320
  8
FUTO
 10
15889.158690052431
 20
20735.43700939366
 30
0.0
 11
15898.351073052419
 21
20726.244626393662
 31
0.0
  0
LINE
  5
321
  8
FUTO
 10
15955.842284052431
 20
20597.92822039366
 30
0.0
 11
15955.842284052431
 21
20717.92822039366
 31
0.0
  0
LINE
  5
322
  8
FUTO
 10
15898.351073052419
 20
20725.39599339366
 30
0.0
 11
15894.75903205243
 21
20721.80395239366
 31
0.0
  0
LINE
  5
323
  8
FUTO
 10
15884.71801705243
 20
20731.84496839366
 30
0.0
 11
15894.75903205243
 21
20721.80395239366
 31
0.0
  0
ARC
  5
324
  8
FUTO
 10
15758.842284052431
 20
20802.118161393671
 30
0.0
 40
2.0
 50
0.000000000000007
 51
84.289063000000013
  0
LINE
  5
325
  8
FUTO
 10
15752.29937605243
 20
20804.78246839366
 30
0.0
 11
15759.041320052431
 21
20804.108396393669
 31
0.0
  0
ARC
  5
326
  8
FUTO
 10
15732.842284052431
 20
20802.118161393671
 30
0.0
 40
2.0001619999999991
 50
95.710937999999985
 51
180.0
  0
LINE
  5
327
  8
FUTO
 10
15739.74218605243
 20
20804.818112393659
 30
0.0
 11
15732.643248052431
 21
20804.108396393669
 31
0.0
  0
ARC
  5
328
  8
FUTO
 10
15745.842284052431
 20
20582.928220393671
 30
0.0
 40
210.0001069999999
 50
86.232985999999997
 51
86.266968000000006
  0
ARC
  5
329
  8
FUTO
 10
15759.44201605243
 20
20789.480954393672
 30
0.0
 40
2.999933
 50
357.44390900000002
 51
86.232291999999973
  0
ARC
  5
32A
  8
FUTO
 10
15759.31957905243
 20
20789.48901139366
 30
0.0
 40
3.0000169999999988
 50
86.267189000000045
 51
175.056107
  0
LINE
  5
32B
  8
FUTO
 10
15762.43896405243
 20
20789.347165393661
 30
0.0
 11
15762.27905205243
 21
20785.763425393659
 31
0.0
  0
LINE
  5
32C
  8
FUTO
 10
15756.33068705243
 20
20789.74755639366
 30
0.0
 11
15756.02160505242
 21
20786.173581393661
 31
0.0
  0
LINE
  5
32D
  8
FUTO
 10
15735.354003052429
 20
20789.74755639366
 30
0.0
 11
15735.663085052431
 21
20786.173581393661
 31
0.0
  0
ARC
  5
32E
  8
FUTO
 10
15745.842284052431
 20
20582.928220393671
 30
0.0
 40
210.0
 50
93.732971000000006
 51
93.766974999999974
  0
ARC
  5
32F
  8
FUTO
 10
15732.24267505243
 20
20789.480954393672
 30
0.0
 40
3.0001370000000001
 50
93.767708000000013
 51
182.555984
  0
LINE
  5
330
  8
FUTO
 10
15729.24560405243
 20
20789.347165393661
 30
0.0
 11
15729.405639052429
 21
20785.763425393659
 31
0.0
  0
ARC
  5
331
  8
FUTO
 10
15732.36511105243
 20
20789.48901139366
 30
0.0
 40
3.000052999999999
 50
4.9438900000000174
 51
93.732811000000027
  0
LINE
  5
332
  8
FUTO
 10
15733.342284052431
 20
20792.92822039366
 30
0.0
 11
15758.342284052431
 21
20792.92822039366
 31
0.0
  0
LINE
  5
333
  8
FUTO
 10
15730.842284052431
 20
20792.92822039366
 30
0.0
 11
15760.842284052431
 21
20792.92822039366
 31
0.0
  0
LINE
  5
334
  8
FUTO
 10
15730.842284052431
 20
20792.92822039366
 30
0.0
 11
15730.842284052431
 21
20802.118161393671
 31
0.0
  0
LINE
  5
335
  8
FUTO
 10
15760.842284052431
 20
20792.92822039366
 30
0.0
 11
15760.842284052431
 21
20802.118161393671
 31
0.0
  0
ARC
  5
336
  8
FUTO
 10
15737.592284052431
 20
20796.57519339367
 30
0.0
 40
2.0
 50
270.0
 51
0.000000000000007
  0
ARC
  5
337
  8
FUTO
 10
15754.092284052431
 20
20796.57519339367
 30
0.0
 40
2.0
 50
180.0
 51
270.0
  0
LINE
  5
338
  8
FUTO
 10
15556.842284052431
 20
20382.928220393671
 30
0.0
 11
15636.342284052431
 21
20382.928220393671
 31
0.0
  0
LINE
  5
339
  8
FUTO
 10
15633.342284052431
 20
20402.92822039366
 30
0.0
 11
15559.842284052431
 21
20402.92822039366
 31
0.0
  0
LINE
  5
33A
  8
FUTO
 10
15606.96655205243
 20
20434.01147239366
 30
0.0
 11
15596.925536052429
 21
20444.052487393659
 31
0.0
  0
LINE
  5
33B
  8
FUTO
 10
15603.374511052431
 20
20430.41943139366
 30
0.0
 11
15606.96655205243
 21
20434.01147239366
 31
0.0
  0
ARC
  5
33C
  8
FUTO
 10
15745.842284052431
 20
20582.928220393671
 30
0.0
 40
214.9999849999999
 50
223.43432599999991
 51
232.51896699999989
  0
LINE
  5
33D
  8
FUTO
 10
15495.85061996287
 20
20382.928220393671
 30
0.0
 11
15662.503964474179
 21
20382.928220393671
 31
0.0
  0
LINE
  5
33E
  8
FUTO
 10
15583.842284052431
 20
20382.928220393671
 30
0.0
 11
15643.842284052431
 21
20382.928220393671
 31
0.0
  0
LINE
  5
33F
  8
FUTO
 10
15624.17748905243
 20
20419.802732393669
 30
0.0
 11
15619.656005052429
 21
20402.92822039366
 31
0.0
  0
ARC
  5
340
  8
FUTO
 10
15618.057616052431
 20
20416.281736393659
 30
0.0
 40
5.0
 50
232.51852400000001
 51
344.99902300000002
  0
ARC
  5
341
  8
FUTO
 10
15633.342284052431
 20
20399.928220393671
 30
0.0
 40
3.0
 50
0.000000000000007
 51
90.0
  0
LINE
  5
342
  8
FUTO
 10
15636.342284052431
 20
20399.928220393671
 30
0.0
 11
15636.342284052431
 21
20382.928220393671
 31
0.0
  0
LINE
  5
343
  8
FUTO
 10
15636.342284052431
 20
20387.92822039366
 30
0.0
 11
15642.017577052429
 21
20409.108396393669
 31
0.0
  0
LINE
  5
344
  8
FUTO
 10
15662.503964474179
 20
20382.928220393671
 30
0.0
 11
15662.503964474179
 21
20373.451875832059
 31
0.0
  0
LINE
  5
345
  8
FUTO
 10
15577.592284052431
 20
20394.92822039366
 30
0.0
 11
15577.592284052431
 21
20390.92822039366
 31
0.0
  0
LINE
  5
346
  8
FUTO
 10
15577.592284052431
 20
20386.92822039366
 30
0.0
 11
15577.592284052431
 21
20382.928220393671
 31
0.0
  0
LINE
  5
347
  8
FUTO
 10
15577.592284052431
 20
20402.92822039366
 30
0.0
 11
15577.592284052431
 21
20398.92822039366
 31
0.0
  0
ARC
  5
348
  8
FUTO
 10
15561.842284052431
 20
20457.254880393659
 30
0.0
 40
5.0000669999999987
 50
124.943665
 51
180.0
  0
ARC
  5
349
  8
FUTO
 10
15559.842284052431
 20
20399.928220393671
 30
0.0
 40
3.0
 50
90.0
 51
180.0
  0
LINE
  5
34A
  8
FUTO
 10
15556.842284052431
 20
20457.254880393659
 30
0.0
 11
15556.842284052431
 21
20382.928220393671
 31
0.0
  0
LINE
  5
34B
  8
FUTO
 10
15593.333495052429
 20
20440.460446393659
 30
0.0
 11
15596.925536052429
 21
20444.052487393659
 31
0.0
  0
LINE
  5
34C
  8
FUTO
 10
15593.333495052429
 20
20440.460446393659
 30
0.0
 11
15593.333495052429
 21
20439.611814393669
 31
0.0
  0
LINE
  5
34D
  8
FUTO
 10
15595.62084905243
 20
20438.17309339366
 30
0.0
 11
15594.77221605243
 21
20438.17309339366
 31
0.0
  0
LINE
  5
34E
  8
FUTO
 10
15595.62084905243
 20
20438.17309339366
 30
0.0
 11
15599.212890052429
 21
20441.76513439366
 31
0.0
  0
LINE
  5
34F
  8
FUTO
 10
15595.62084905243
 20
20438.17309339366
 30
0.0
 11
15595.62084905243
 21
20437.324460393669
 31
0.0
  0
LINE
  5
350
  8
FUTO
 10
15594.92846605243
 20
20446.40990939366
 30
0.0
 11
15590.13024805243
 21
20442.375486393659
 31
0.0
  0
LINE
  5
351
  8
FUTO
 10
15602.525878052429
 20
20430.41943139366
 30
0.0
 11
15603.374511052431
 21
20430.41943139366
 31
0.0
  0
LINE
  5
352
  8
FUTO
 10
15601.08691305243
 20
20432.706784393671
 30
0.0
 11
15601.08691305243
 21
20431.858152393659
 31
0.0
  0
LINE
  5
353
  8
FUTO
 10
15601.08691305243
 20
20432.706784393671
 30
0.0
 11
15604.67919805243
 21
20436.29882539366
 31
0.0
  0
LINE
  5
354
  8
FUTO
 10
15601.08691305243
 20
20432.706784393671
 30
0.0
 11
15600.238524052431
 21
20432.706784393671
 31
0.0
  0
ARC
  5
355
  8
FUTO
 10
15593.34814305243
 20
20438.548581393661
 30
0.0
 40
5.0000049999999998
 50
130.05917400000001
 51
223.43505899999991
  0
LINE
  5
356
  8
CT
 10
15597.401366052431
 20
20434.48730239366
 30
0.0
 11
15602.649413052421
 21
20439.735349393661
 31
0.0
  0
LINE
  5
357
  8
FUTO
 10
15602.525878052429
 20
20430.41943139366
 30
0.0
 11
15593.333495052429
 21
20439.611814393669
 31
0.0
  0
LINE
  5
358
  8
FUTO
 10
15596.092284052431
 20
20394.92822039366
 30
0.0
 11
15596.092284052431
 21
20390.92822039366
 31
0.0
  0
LINE
  5
359
  8
FUTO
 10
15596.092284052431
 20
20386.92822039366
 30
0.0
 11
15596.092284052431
 21
20382.928220393671
 31
0.0
  0
LINE
  5
35A
  8
CT
 10
15586.842284052431
 20
20407.352048393659
 30
0.0
 11
15586.842284052431
 21
20378.236325393671
 31
0.0
  0
LINE
  5
35B
  8
FUTO
 10
15596.092284052431
 20
20402.92822039366
 30
0.0
 11
15596.092284052431
 21
20398.92822039366
 31
0.0
  0
LINE
  5
35C
  8
FUTO
 10
15485.842284052431
 20
20414.108652735871
 30
0.0
 11
15512.57275975917
 21
20414.108652735871
 31
0.0
  0
LINE
  5
35D
  8
FUTO
 10
15547.38731146329
 20
20397.421855811132
 30
0.0
 11
15512.57275975917
 21
20397.421855811132
 31
0.0
  0
LINE
  5
35E
  8
FUTO
 10
15512.57275975917
 20
20414.108652735871
 30
0.0
 11
15512.57275975917
 21
20382.928220393671
 31
0.0
  0
LINE
  5
35F
  8
FUTO
 10
15558.978515052429
 20
20461.35351339366
 30
0.0
 11
15574.91638105243
 21
20472.489987393659
 31
0.0
  0
LINE
  5
360
  8
FUTO
 10
15603.374511052431
 20
20735.43700939366
 30
0.0
 11
15606.96655205243
 21
20731.84496839366
 31
0.0
  0
LINE
  5
361
  8
FUTO
 10
15596.925536052429
 20
20721.80395239366
 30
0.0
 11
15606.96655205243
 21
20731.84496839366
 31
0.0
  0
ARC
  5
362
  8
FUTO
 10
15745.842284052431
 20
20582.928220393671
 30
0.0
 40
210.00004599999991
 50
131.23298600000001
 51
131.26696799999991
  0
ARC
  5
363
  8
FUTO
 10
15609.31164405243
 20
20738.51855239366
 30
0.0
 40
2.9999169999999991
 50
131.26663199999999
 51
220.05661000000001
  0
ARC
  5
364
  8
FUTO
 10
15609.40380805243
 20
20738.599607393659
 30
0.0
 40
2.999909999999999
 50
42.440556000000022
 51
131.23197899999991
  0
LINE
  5
365
  8
FUTO
 10
15607.015380052429
 20
20736.58788839366
 30
0.0
 11
15609.324096052431
 21
20733.842038393668
 31
0.0
  0
LINE
  5
366
  8
FUTO
 10
15611.61767505243
 20
20740.624021393669
 30
0.0
 11
15614.038817052429
 21
20737.97680439366
 31
0.0
  0
LINE
  5
367
  8
FUTO
 10
15603.374511052431
 20
20735.43700939366
 30
0.0
 11
15602.525878052429
 21
20735.43700939366
 31
0.0
  0
LINE
  5
368
  8
FUTO
 10
15601.08715705243
 20
20733.149655393659
 30
0.0
 11
15601.08715705243
 21
20733.998288393668
 31
0.0
  0
LINE
  5
369
  8
FUTO
 10
15601.08715705243
 20
20733.149655393659
 30
0.0
 11
15600.238524052431
 21
20733.149655393659
 31
0.0
  0
LINE
  5
36A
  8
FUTO
 10
15593.333495052429
 20
20726.244626393662
 30
0.0
 11
15593.333495052429
 21
20725.39599339366
 31
0.0
  0
LINE
  5
36B
  8
FUTO
 10
15595.62084905243
 20
20727.683591393659
 30
0.0
 11
15594.77221605243
 21
20727.683591393659
 31
0.0
  0
LINE
  5
36C
  8
FUTO
 10
15595.62084905243
 20
20727.683591393659
 30
0.0
 11
15599.212890052429
 21
20724.09130639366
 31
0.0
  0
LINE
  5
36D
  8
FUTO
 10
15595.62084905243
 20
20727.683591393659
 30
0.0
 11
15595.62084905243
 21
20728.531980393662
 31
0.0
  0
LINE
  5
36E
  8
FUTO
 10
15597.401366052431
 20
20731.36913839366
 30
0.0
 11
15602.649413052421
 21
20726.121091393659
 31
0.0
  0
LINE
  5
36F
  8
FUTO
 10
15593.333495052429
 20
20726.244626393662
 30
0.0
 11
15602.525878052429
 21
20735.43700939366
 31
0.0
  0
LINE
  5
370
  8
FUTO
 10
15601.08715705243
 20
20733.149655393659
 30
0.0
 11
15604.67919805243
 21
20729.55761439366
 31
0.0
  0
ARC
  5
371
  8
FUTO
 10
15745.842284052431
 20
20582.928220393671
 30
0.0
 40
210.0
 50
138.73297099999991
 51
138.76696799999991
  0
ARC
  5
372
  8
FUTO
 10
15590.251952052429
 20
20719.458982393669
 30
0.0
 40
2.9999560000000001
 50
49.941890999999998
 51
138.7316129999999
  0
LINE
  5
373
  8
FUTO
 10
15588.146483052429
 20
20717.152829393661
 30
0.0
 11
15590.79382205243
 21
20714.73193139366
 31
0.0
  0
ARC
  5
374
  8
FUTO
 10
15590.17114205243
 20
20719.366696393659
 30
0.0
 40
2.9999500000000001
 50
138.768021
 51
227.55600000000001
  0
LINE
  5
375
  8
FUTO
 10
15592.182616052431
 20
20721.755124393669
 30
0.0
 11
15594.92846605243
 21
20719.446530393659
 31
0.0
  0
LINE
  5
376
  8
FUTO
 10
15593.333495052429
 20
20725.39599339366
 30
0.0
 11
15596.925536052429
 21
20721.80395239366
 31
0.0
  0
ARC
  5
377
  8
FUTO
 10
15745.842284052431
 20
20846.67822039366
 30
0.0
 40
6.25
 50
90.0
 51
180.0
  0
ARC
  5
378
  8
FUTO
 10
15745.842284052431
 20
20846.67822039366
 30
0.0
 40
6.25
 50
0.000000000000007
 51
90.0
  0
ARC
  5
396
  8
KL
 10
14647.842284052431
 20
21310.928220393671
 30
0.0
 40
1105.0
 50
179.1444203645697
 51
270.0
  0
ARC
  5
397
  8
FUTO
 10
14545.842284052431
 20
21412.92822039366
 30
0.0
 40
95.000000000003084
 50
249.05612602761781
 51
270.0
  0
LINE
  5
398
  8
FUTO
 10
14455.842284052431
 20
21315.92822039366
 30
0.0
 11
14545.842284052431
 21
21315.92822039366
 31
0.0
  0
LINE
  5
399
  8
KL
 10
14244.308784448849
 20
21306.928220393671
 30
0.0
 11
14545.842284052431
 21
21306.928220393671
 31
0.0
  0
LINE
  5
39A
  8
FUTO
 10
14345.842284052431
 20
21312.92822039366
 30
0.0
 11
14745.842284052431
 21
21312.92822039366
 31
0.0
  0
DIMENSION
  5
39B
  8
FUTO
  2
*D6
 10
13695.842284052431
 20
19763.62836042864
 30
0.0
 11
14120.842284052431
 21
19823.62836042864
 31
0.0
 70
     0
 13
14545.842284052431
 23
19975.846069349911
 33
0.0
 14
13695.842284052431
 24
19927.92822039366
 34
0.0
 50
180.0
1001
ACAD
1000
DSTYLE
1002
{
1070
    40
1040
30.0
1070
   176
1070
     2
1070
   177
1070
     2
1070
   178
1070
     2
1070
   341
1005
44D5
1070
     5
1000
OPEN30
1002
}
  0
LINE
  5
3AA
  8
KL
 10
14847.375783656
 20
21306.928220393671
 30
0.0
 11
14957.944408391
 21
20758.727256896451
 31
0.0
  0
LINE
  5
3B5
  8
FUTO
 10
15423.404859966109
 20
20404.522618267882
 30
0.0
 11
15423.404859966109
 21
20390.676126325841
 31
0.0
  0
LINE
  5
3B6
  8
FUTO
 10
15423.404859966109
 20
20390.676126325841
 30
0.0
 11
15432.641350948281
 21
20390.676126325841
 31
0.0
  0
LINE
  5
3B7
  8
FUTO
 10
15432.641350948281
 20
20390.676126325841
 30
0.0
 11
15432.641350948281
 21
20404.877651239342
 31
0.0
  0
LINE
  5
3B8
  8
FUTO
 10
15432.641350948281
 20
20404.877651239342
 30
0.0
 11
15423.76011080947
 21
20404.877651239342
 31
0.0
  0
LINE
  5
3BA
  8
KL
 10
14847.375783656
 20
21306.928220393671
 30
0.0
 11
14545.842284052431
 21
21306.928220393671
 31
0.0
  0
LINE
  5
3BD
  8
FUTO
 10
14725.842284052431
 20
21312.92822039366
 30
0.0
 11
14635.842284052431
 21
21312.92822039366
 31
0.0
  0
LINE
  5
3BF
  8
FUTO
 10
14745.842284052431
 20
21312.92822039366
 30
0.0
 11
14745.842284052431
 21
21306.928220393671
 31
0.0
  0
ARC
  5
3C0
  8
FUTO
 10
14722.842284052431
 20
21343.92822039366
 30
0.0
 40
2.9999999999999991
 50
0.000000000000007
 51
90.0
  0
LINE
  5
3C1
  8
FUTO
 10
14725.842284052431
 20
21343.92822039366
 30
0.0
 11
14725.842284052431
 21
21312.92822039366
 31
0.0
  0
LINE
  5
3C2
  8
FUTO
 10
14656.842284052431
 20
21346.92822039366
 30
0.0
 11
14722.842284052431
 21
21346.92822039366
 31
0.0
  0
ARC
  5
3C3
  8
FUTO
 10
14545.842284052431
 20
21412.92822039366
 30
0.0
 40
94.999999999998295
 50
270.0
 51
290.94387397238302
  0
LINE
  5
3C4
  8
FUTO
 10
14635.842284052431
 20
21312.92822039366
 30
0.0
 11
14635.842284052431
 21
21315.92822039366
 31
0.0
  0
ARC
  5
3C5
  8
FUTO
 10
14593.342284052431
 20
21330.655807034142
 30
0.0
 40
14.999999999999909
 50
300.0000000000008
 51
34.528063013809827
  0
LINE
  5
3C6
  8
FUTO
 10
14635.842284052431
 20
21315.92822039366
 30
0.0
 11
14545.842284052431
 21
21315.92822039366
 31
0.0
  0
ARC
  5
3C7
  8
FUTO
 10
14593.342284052431
 20
21330.655807034142
 30
0.0
 40
15.000000000000419
 50
205.4719369861869
 51
300.00000000000011
  0
LINE
  5
3CB
  8
KL
 10
14244.308784448849
 20
21306.928220393671
 30
0.0
 11
14224.71166775627
 21
21209.765410614778
 31
0.0
  0
LINE
  5
3CF
  8
FUTO
 10
14045.842284052431
 20
20152.92822039366
 30
0.0
 11
14045.842284052431
 21
20002.92822039366
 31
0.0
  0
LINE
  5
3D0
  8
FUTO
 10
14045.842284052431
 20
20322.92822039366
 30
0.0
 11
14045.842284052431
 21
20172.92822039366
 31
0.0
  0
LINE
  5
3D1
  8
FUTO
 10
13938.574133398461
 20
20172.92822039366
 30
0.0
 11
13938.574133398461
 21
20152.92822039366
 31
0.0
  0
LINE
  5
3D2
  8
FUTO
 10
13898.574133398461
 20
20209.33964927727
 30
0.0
 11
13898.574133398461
 21
20109.514715313599
 31
0.0
1001
ACAD
1000
ASC_BOUNDS
1002
{
1070
    19
1005
0
1005
0
1005
0
1002
}
  0
POINT
  5
3D3
  8
DEFPOINTS
  6
BYBLOCK
 62
     0
 10
13695.842284052431
 20
20002.92822039366
 30
0.0
  0
LINE
  5
3D4
  8
FUTO
 10
13858.574133398461
 20
20172.92822039366
 30
0.0
 11
13858.574133398461
 21
20152.92822039366
 31
0.0
  0
LINE
  5
3D5
  8
FUTO
 10
13695.842284052431
 20
20152.92822039366
 30
0.0
 11
13695.842284052431
 21
20002.92822039366
 31
0.0
  0
POINT
  5
3D6
  8
DEFPOINTS
  6
BYBLOCK
 62
     0
 10
13695.842284052431
 20
20172.92822039366
 30
0.0
  0
POINT
  5
3D7
  8
DEFPOINTS
  6
BYBLOCK
 62
     0
 10
13695.842284052431
 20
20152.92822039366
 30
0.0
  0
POINT
  5
3D8
  8
DEFPOINTS
  6
BYBLOCK
 62
     0
 10
13695.842284052431
 20
20152.92822039366
 30
0.0
  0
LINE
  5
3D9
  8
FUTO
 10
13695.842284052431
 20
20322.92822039366
 30
0.0
 11
13695.842284052431
 21
20172.92822039366
 31
0.0
  0
LINE
  5
3DD
  8
FUTO
 10
14434.842284052431
 20
21346.92822039366
 30
0.0
 11
14368.842284052431
 21
21346.92822039366
 31
0.0
  0
LINE
  5
3DE
  8
FUTO
 10
14365.842284052431
 20
21312.92822039366
 30
0.0
 11
14455.842284052431
 21
21312.92822039366
 31
0.0
  0
LINE
  5
3E0
  8
FUTO
 10
14455.842284052431
 20
21312.92822039366
 30
0.0
 11
14455.842284052431
 21
21315.92822039366
 31
0.0
  0
ARC
  5
3E1
  8
FUTO
 10
14498.342284052431
 20
21330.655807034142
 30
0.0
 40
14.99999999999998
 50
145.47193698619191
 51
240.0000000000006
  0
ARC
  5
3E2
  8
FUTO
 10
14498.342284052431
 20
21330.655807034142
 30
0.0
 40
14.99999999999978
 50
239.99999999999989
 51
334.52806301381321
  0
LINE
  5
3E3
  8
FUTO
 10
14345.842284052431
 20
21312.92822039366
 30
0.0
 11
14345.842284052431
 21
21306.928220393671
 31
0.0
  0
ARC
  5
3E5
  8
FUTO
 10
14368.842284052431
 20
21343.92822039366
 30
0.0
 40
2.9999999999999991
 50
90.0
 51
180.0
  0
LINE
  5
3E6
  8
FUTO
 10
14365.842284052431
 20
21343.92822039366
 30
0.0
 11
14365.842284052431
 21
21312.92822039366
 31
0.0
  0
INSERT
  5
3E8
  8
FUTO
  2
K150-75
 10
17128.101270975709
 20
20322.92822039366
 30
0.0
 50
180.0
1001
ACAD
1000
ASC_BOUNDS
1002
{
1070
    19
1005
3975
1002
}
  0
LINE
  5
405
  8
SL
 10
17084.00127097571
 20
21332.92822039366
 30
0.0
 11
17106.101270975709
 21
21332.92822039366
 31
0.0
  0
LINE
  5
406
  8
CT
 10
16859.144541455
 20
20582.928220393671
 30
0.0
 11
17161.963224566451
 21
20582.928220393671
 31
0.0
  0
LINE
  5
407
  8
FUTO
 10
16896.101270975709
 20
20362.92822039366
 30
0.0
 11
17151.101270975709
 21
20362.92822039366
 31
0.0
  0
LINE
  5
408
  8
SL
 10
17084.00127097571
 20
20522.92822039366
 30
0.0
 11
17099.10127097572
 21
20522.92822039366
 31
0.0
  0
LINE
  5
409
  8
SL
 10
17084.00127097571
 20
20642.92822039366
 30
0.0
 11
17099.10127097572
 21
20642.92822039366
 31
0.0
  0
LINE
  5
40D
  8
FUTO
 10
17123.10127097572
 20
20172.92822039366
 30
0.0
 11
17123.10127097572
 21
20152.92822039366
 31
0.0
1001
ACAD
1000
ASC_BOUNDS
1002
{
1070
    19
1005
3975
1002
}
  0
LINE
  5
40E
  8
SL
 10
17006.101270975709
 20
20476.92822039366
 30
0.0
 11
17084.00127097571
 21
20476.92822039366
 31
0.0
  0
LINE
  5
40F
  8
SL
 10
17006.101270975709
 20
20688.92822039366
 30
0.0
 11
17084.00127097571
 21
20688.92822039366
 31
0.0
  0
LINE
  5
410
  8
SL
 10
17006.101270975709
 20
21162.92822039366
 30
0.0
 11
17084.00127097571
 21
21162.92822039366
 31
0.0
  0
LINE
  5
415
  8
CT
 10
17163.10127097572
 20
20192.820396992662
 30
0.0
 11
17163.10127097572
 21
20136.03672705089
 31
0.0
1001
ACAD
1000
ASC_BOUNDS
1002
{
1070
    19
1005
0
1005
3975
1005
3975
1002
}
  0
LINE
  5
41A
  8
SL
 10
17099.10127097572
 20
20642.92822039366
 30
0.0
 11
17099.101270975709
 21
20522.92822039366
 31
0.0
  0
LINE
  5
41B
  8
FUTO
 10
17151.101270975709
 20
20529.985646669451
 30
0.0
 11
17151.101270975709
 21
20362.92822039366
 31
0.0
  0
LINE
  5
42E
  8
FUTO
 10
13492.842284052431
 20
21421.92822039366
 30
0.0
 11
14345.842284052431
 21
21421.92822039366
 31
0.0
  0
LINE
  5
42F
  8
FUTO
 10
13492.842284052431
 20
21403.92822039366
 30
0.0
 11
14345.842284052431
 21
21403.92822039366
 31
0.0
  0
LINE
  5
430
  8
FUTO
 10
14532.842284052431
 20
22342.92822039366
 30
0.0
 11
16090.84228405242
 21
22342.92822039366
 31
0.0
  0
LINE
  5
431
  8
HOSO
 10
14586.842284052431
 20
22342.92822039366
 30
0.0
 11
16036.842284052431
 21
22342.92822039366
 31
0.0
  0
LINE
  5
44C
  8
FUTO
 10
14532.842284052431
 20
22292.92822039366
 30
0.0
 11
16090.84228405242
 21
22292.92822039366
 31
0.0
  0
LINE
  5
44D
  8
FUTO
 10
14532.842284052431
 20
22338.92822039366
 30
0.0
 11
16090.84228405242
 21
22338.92822039366
 31
0.0
  0
LINE
  5
44E
  8
CT
 10
13367.838305405099
 20
21412.92822039366
 30
0.0
 11
16075.9318631404
 21
21412.92822039366
 31
0.0
  0
LINE
  5
478
  8
FUTO
 10
13695.842284052431
 20
24497.316916587581
 30
0.0
 11
16095.842284052431
 21
24497.316916587581
 31
0.0
  0
LINE
  5
479
  8
FUTO
 10
13695.842284052431
 20
24572.31691658757
 30
0.0
 11
16036.842284052431
 21
24572.31691658757
 31
0.0
  0
LINE
  5
47A
  8
FUTO
 10
14045.842284052431
 20
23594.316916587581
 30
0.0
 11
16095.842284052431
 21
23594.316916587581
 31
0.0
  0
LINE
  5
488
  8
FUTO
 10
14045.842284052431
 20
23521.316916587581
 30
0.0
 11
16095.842284052431
 21
23521.316916587581
 31
0.0
  0
LINE
  5
489
  8
FUTO
 10
14045.842284052431
 20
23521.316916587581
 30
0.0
 11
16095.842284052431
 21
23521.316916587581
 31
0.0
  0
LINE
  5
4A3
  8
FUTO
 10
16095.842284052431
 20
24572.31691658757
 30
0.0
 11
16095.842284052431
 21
24497.316916587581
 31
0.0
  0
LINE
  5
4A4
  8
FUTO
 10
15880.842284052431
 20
24497.316916587581
 30
0.0
 11
15880.842284052431
 21
24197.816916587581
 31
0.0
  0
LINE
  5
4A5
  8
CT
 10
15745.842284052431
 20
24336.901405787488
 30
0.0
 11
15745.842284052431
 21
23161.18508466956
 31
0.0
  0
LINE
  5
4AD
  8
KL
 10
16036.842284052431
 20
22342.92822039366
 30
0.0
 11
15951.549502264659
 21
21397.333623658411
 31
0.0
  0
LINE
  5
4AE
  8
FUTO
 10
16052.413472030559
 20
22292.92822039366
 30
0.0
 11
15973.849134635189
 21
21421.92822039366
 31
0.0
  0
LINE
  5
4AF
  8
FUTO
 10
15972.225531795801
 20
21403.92822039366
 30
0.0
 11
15971.46863470487
 21
21395.536914770171
 31
0.0
  0
LINE
  5
4B0
  8
FUTO
 10
16003.970928433229
 20
21421.92822039366
 30
0.0
 11
16003.970928433229
 21
21403.92822039366
 31
0.0
  0
LINE
  5
4B2
  8
FUTO
 10
16090.84228405242
 20
22342.92822039366
 30
0.0
 11
16090.84228405242
 21
22292.92822039366
 31
0.0
  0
LINE
  5
51D
  8
CT
 10
14545.842284052431
 20
26023.18949423718
 30
0.0
 11
14545.842284052431
 21
23197.456828647832
 31
0.0
  0
LINE
  5
52A
  8
FUTO
 10
14045.842284052431
 20
24497.316916587581
 30
0.0
 11
14045.842284052431
 21
23521.316916587581
 31
0.0
  0
LINE
  5
52C
  8
FUTO
 10
14120.842284052431
 20
24497.316916587581
 30
0.0
 11
14120.842284052431
 21
23588.316916587581
 31
0.0
  0
ARC
  5
559
  8
FUTO
 10
14460.342284052431
 20
21327.42822039366
 30
0.0
 40
937.5
 50
90.0
 51
174.2147601162512
  0
ARC
  5
577
  8
FUTO
 10
14460.342284052431
 20
21498.128220393661
 30
0.0
 40
766.5
 50
82.013298782178524
 51
90.0
  0
CIRCLE
  5
578
  8
FUTO
 10
14545.842284052431
 20
21412.92822039366
 30
0.0
 40
36.5
  0
ARC
  5
579
  8
FUTO
 10
14545.842284052431
 20
21412.92822039366
 30
0.0
 40
94.999999999998053
 50
90.0
 51
110.94387397238231
  0
INSERT
  5
57A
  8
FUTO
  2
左回転矢印
 10
14367.833388970559
 20
21926.807040251391
 30
0.0
 41
2.0
 42
2.0
 43
2.0
  0
ARC
  5
585
  8
KL
 10
14460.342284052431
 20
21498.128220393661
 30
0.0
 40
746.49999999999989
 50
54.121502257414733
 51
90.0
  0
ARC
  5
587
  8
FUTO
 10
14640.842284052431
 20
21412.92822039366
 30
0.0
 40
14.999999999999909
 50
265.47193698619128
 51
359.9999999999996
  0
ARC
  5
588
  8
FUTO
 10
14640.842284052431
 20
21412.92822039366
 30
0.0
 40
15.000000000000121
 50
359.9999999999996
 51
94.528063013807852
  0
LINE
  5
589
  8
FUTO
 10
14561.523946750231
 20
21506.624994377791
 30
0.0
 11
14561.523946750231
 21
21512.928220393671
 31
0.0
  0
LINE
  5
58A
  8
FUTO
 10
14530.160621354629
 20
21506.624994377791
 30
0.0
 11
14530.160621354629
 21
21512.928220393671
 31
0.0
  0
LINE
  5
58B
  8
FUTO
 10
14530.160621354629
 20
21512.928220393671
 30
0.0
 11
14561.523946750231
 21
21512.928220393671
 31
0.0
  0
LINE
  5
58C
  8
FUTO
 10
14640.842284052431
 20
21397.92822039366
 30
0.0
 11
14640.842284052431
 21
21362.92822039366
 31
0.0
  0
ARC
  5
58D
  8
FUTO
 10
14545.842284052431
 20
21412.92822039366
 30
0.0
 40
95.000000000000995
 50
329.99999999999932
 51
350.94387397238222
  0
ARC
  5
58E
  8
FUTO
 10
14545.842284052431
 20
21412.92822039366
 30
0.0
 40
94.999999999997456
 50
9.0561260276185163
 51
30.000000000001421
  0
ARC
  5
58F
  8
FUTO
 10
14545.842284052431
 20
21412.92822039366
 30
0.0
 40
95.000000000000071
 50
29.999999999999481
 51
50.943873972382391
  0
ARC
  5
590
  8
FUTO
 10
14545.842284052431
 20
21412.92822039366
 30
0.0
 40
94.999999999998494
 50
69.056126027616216
 51
90.0
  0
ARC
  5
591
  8
FUTO
 10
14593.342284052431
 20
21495.200633753178
 30
0.0
 40
14.99999999999976
 50
325.47193698619111
 51
59.999999999999517
  0
ARC
  5
592
  8
FUTO
 10
14593.342284052431
 20
21495.200633753178
 30
0.0
 40
15.00000000000038
 50
59.999999999999517
 51
154.52806301381301
  0
CIRCLE
  5
593
  8
KL
 10
14906.405140514949
 20
22118.39389681086
 30
0.0
 40
17.407412889793701
  0
LINE
  5
594
  8
FUTO
 10
14532.842284052431
 20
22292.92822039366
 30
0.0
 11
14532.842284052431
 21
22342.92822039366
 31
0.0
  0
LINE
  5
595
  8
KL
 10
14586.842284052431
 20
22342.92822039366
 30
0.0
 11
14586.842284052431
 21
22233.831965117039
 31
0.0
  0
LINE
  5
596
  8
FUTO
 10
14566.842284052431
 20
22292.92822039366
 30
0.0
 11
14566.842284052431
 21
22257.193434983292
 31
0.0
  0
INSERT
  5
597
  8
FUTO
  2
まっすぐの矢印
 10
15605.8296305451
 20
22572.78617312347
 30
0.0
 41
2.0
 42
2.0
 43
2.0
  0
LINE
  5
5A2
  8
FUTO
 10
14450.842284052431
 20
21397.92822039366
 30
0.0
 11
14450.842284052431
 21
21362.92822039366
 31
0.0
  0
ARC
  5
5A3
  8
FUTO
 10
14545.842284052431
 20
21412.92822039366
 30
0.0
 40
94.999999999999389
 50
149.99999999999969
 51
170.94387397238259
  0
ARC
  5
5A4
  8
FUTO
 10
14450.842284052431
 20
21412.92822039366
 30
0.0
 40
15.000000000000121
 50
85.471936986192148
 51
180.00000000000051
  0
ARC
  5
5A5
  8
FUTO
 10
14450.842284052431
 20
21412.92822039366
 30
0.0
 40
14.999999999999909
 50
180.0000000000004
 51
274.52806301380861
  0
ARC
  5
5A6
  8
FUTO
 10
14545.842284052431
 20
21412.92822039366
 30
0.0
 40
94.999999999999389
 50
189.0561260276173
 51
210.0000000000002
  0
ARC
  5
5A7
  8
FUTO
 10
14545.842284052431
 20
21412.92822039366
 30
0.0
 40
94.999999999999915
 50
129.0561260276165
 51
149.9999999999994
  0
ARC
  5
5A8
  8
FUTO
 10
14498.342284052431
 20
21495.200633753178
 30
0.0
 40
15.00000000000038
 50
25.4719369861869
 51
120.0000000000005
  0
ARC
  5
5A9
  8
FUTO
 10
14498.342284052431
 20
21495.200633753178
 30
0.0
 40
15.00000000000006
 50
120.0000000000008
 51
214.5280630138098
  0
LINE
  5
605
  8
FUTO
 10
16896.101270975709
 20
21792.928220393671
 30
0.0
 11
17151.101270975709
 21
21792.928220393671
 31
0.0
  0
LINE
  5
606
  8
SL
 10
17084.00127097571
 20
21492.92822039366
 30
0.0
 11
17106.101270975709
 21
21492.92822039366
 31
0.0
  0
POINT
  5
609
  8
DEFPOINTS
 10
16896.101270975709
 20
21792.928220393671
 30
0.0
  0
LINE
  5
60A
  8
SL
 10
17006.101270975709
 20
21662.92822039366
 30
0.0
 11
17084.00127097571
 21
21662.92822039366
 31
0.0
  0
LINE
  5
60E
  8
FUTO
 10
17336.10127097572
 20
21367.928220393671
 30
0.0
 11
17905.101270975709
 21
21367.928220393671
 31
0.0
  0
LINE
  5
60F
  8
FUTO
 10
17336.10127097572
 20
21457.92822039366
 30
0.0
 11
17905.10127097572
 21
21457.92822039366
 31
0.0
  0
LINE
  5
610
  8
FUTO
 10
17151.101270975709
 20
21792.928220393671
 30
0.0
 11
17151.10127097572
 21
21566.618590299378
 31
0.0
  0
LINE
  5
611
  8
FUTO
 10
17106.101270975709
 20
21370.42822039366
 30
0.0
 11
17195.601270975709
 21
21370.42822039366
 31
0.0
  0
LINE
  5
612
  8
FUTO
 10
17106.101270975709
 20
21455.42822039366
 30
0.0
 11
17195.601270975709
 21
21455.42822039366
 31
0.0
  0
LINE
  5
68C
  8
FUTO
 10
13695.842284052431
 20
25721.31691658757
 30
0.0
 11
15395.842284052431
 21
25721.31691658757
 31
0.0
  0
LINE
  5
68D
  8
FUTO
 10
13542.842284052431
 20
25646.316916587581
 30
0.0
 11
16036.842284052431
 21
25646.316916587581
 31
0.0
  0
LINE
  5
68E
  8
CT
 10
13368.322283472909
 20
25108.316916587581
 30
0.0
 11
16271.56709995474
 21
25108.316916587581
 31
0.0
  0
LINE
  5
68F
  8
FUTO
 10
15395.842284052431
 20
25721.31691658757
 30
0.0
 11
15395.842284052431
 21
25692.316916587581
 31
0.0
  0
LINE
  5
6A9
  8
FUTO
 10
13695.842284052431
 20
25721.31691658757
 30
0.0
 11
13695.842284052431
 21
25692.316916587581
 31
0.0
  0
LINE
  5
6C2
  8
FUTO
 10
18186.10127097572
 20
21403.92822039366
 30
0.0
 11
18186.10127097572
 21
20322.92822039366
 31
0.0
  0
LINE
  5
6C3
  8
FUTO
 10
18181.601270975709
 20
21403.92822039366
 30
0.0
 11
18181.60127097572
 21
20322.92822039366
 31
0.0
  0
LINE
  5
6C5
  8
FUTO
 10
19246.101270975709
 20
21403.92822039366
 30
0.0
 11
19246.101270975709
 21
20322.92822039366
 31
0.0
  0
LINE
  5
6C6
  8
KL
 10
19252.10127097572
 20
22117.24096270269
 30
0.0
 11
19252.10127097572
 21
20708.61547808463
 31
0.0
  0
LINE
  5
6CD
  8
CT
 10
18716.10127097572
 20
22535.413637071531
 30
0.0
 11
18716.10127097572
 21
20002.92822039366
 31
0.0
  0
LINE
  5
6D4
  8
FUTO
 10
18106.601270975709
 20
22292.928220393671
 30
0.0
 11
18106.601270975709
 21
20322.92822039366
 31
0.0
  0
DIMENSION
  5
6D5
  8
FUTO
  2
*D14
 10
19715.71113273194
 20
20712.92822039366
 30
0.0
 11
19655.71113273194
 21
21412.928220393671
 31
0.0
 70
     0
  1
%%C<>
 13
19350.10127097572
 23
22112.928220393671
 33
0.0
 14
19350.10127097572
 24
20712.92822039366
 34
0.0
 50
90.0
1001
ACAD
1000
DSTYLE
1002
{
1070
    40
1040
30.0
1070
   176
1070
     2
1070
   177
1070
     2
1070
   178
1070
     2
1070
   341
1005
44D5
1070
     5
1000
OPEN30
1002
}
  0
LINE
  5
6E2
  8
KL
 10
19255.301270975709
 20
21403.92822039366
 30
0.0
 11
19255.301270975709
 21
20662.928220393671
 31
0.0
  0
LINE
  5
6E6
  8
FUTO
 10
19344.10127097572
 20
22162.92822039366
 30
0.0
 11
19344.10127097572
 21
20662.928220393671
 31
0.0
  0
LINE
  5
6E7
  8
FUTO
 10
19350.10127097572
 20
22162.92822039366
 30
0.0
 11
19350.10127097572
 21
20662.928220393671
 31
0.0
  0
LINE
  5
703
  8
KL
 10
18181.60127097572
 20
20210.02325732417
 30
0.0
 11
19249.301270975709
 21
20210.02325732417
 31
0.0
  0
LINE
  5
70B
  8
CT
 10
18137.101270975709
 20
20193.09230152539
 30
0.0
 11
18137.101270975709
 21
20127.559466402679
 31
0.0
1001
ACAD
1000
ASC_BOUNDS
1002
{
1070
    19
1002
}
  0
LINE
  5
70E
  8
KL
 10
18181.60127097572
 20
20322.92822039366
 30
0.0
 11
18181.60127097572
 21
20210.02325732417
 31
0.0
  0
LINE
  5
70F
  8
KL
 10
18186.10127097572
 20
20322.92822039366
 30
0.0
 11
18186.10127097572
 21
20210.02325732417
 31
0.0
  0
LINE
  5
723
  8
FUTO
 10
19253.10127097572
 20
20172.92822039366
 30
0.0
 11
19253.10127097572
 21
20152.92822039366
 31
0.0
1001
ACAD
1000
ASC_BOUNDS
1002
{
1070
    19
1002
}
  0
LINE
  5
724
  8
CT
 10
19293.10127097572
 20
20192.451649325129
 30
0.0
 11
19293.101270975709
 21
20139.480995751172
 31
0.0
1001
ACAD
1000
ASC_BOUNDS
1002
{
1070
    19
1002
}
  0
LINE
  5
725
  8
KL
 10
19246.101270975709
 20
20322.92822039366
 30
0.0
 11
19246.101270975709
 21
20210.02325732417
 31
0.0
  0
LINE
  5
72A
  8
FUTO
 10
19331.10127097572
 20
20172.92822039366
 30
0.0
 11
19331.10127097572
 21
20152.92822039366
 31
0.0
1001
ACAD
1000
ASC_BOUNDS
1002
{
1070
    19
1002
}
  0
LINE
  5
72B
  8
KL
 10
19255.301270975709
 20
20706.92822039366
 30
0.0
 11
19324.301270975709
 21
20706.92822039366
 31
0.0
  0
LINE
  5
72C
  8
KL
 10
19249.301270975709
 20
20712.92822039366
 30
0.0
 11
19350.10127097572
 21
20712.92822039366
 31
0.0
  0
LINE
  5
72D
  8
CT
 10
19216.816573380609
 20
20680.42822039366
 30
0.0
 11
19273.859306512659
 21
20680.42822039366
 31
0.0
  0
LINE
  5
72E
  8
KL
 10
19249.301270975709
 20
20662.928220393671
 30
0.0
 11
19255.301270975709
 21
20662.928220393671
 31
0.0
  0
LINE
  5
72F
  8
FUTO
 10
19324.301270975709
 20
20706.92822039366
 30
0.0
 11
19344.10127097572
 21
20706.92822039366
 31
0.0
  0
LINE
  5
730
  8
CT
 10
19320.981536063078
 20
20680.42822039366
 30
0.0
 11
19381.124389816949
 21
20680.42822039366
 31
0.0
  0
LINE
  5
731
  8
FUTO
 10
19344.10127097572
 20
20662.928220393671
 30
0.0
 11
19350.10127097572
 21
20662.928220393671
 31
0.0
  0
LINE
  5
7FD
  8
FUTO
 10
18106.601270975709
 20
21403.92822039366
 30
0.0
 11
19324.301270975709
 21
21403.92822039366
 31
0.0
  0
LINE
  5
7FE
  8
FUTO
 10
18106.601270975709
 20
21421.92822039366
 30
0.0
 11
19324.301270975709
 21
21421.92822039366
 31
0.0
  0
LINE
  5
7FF
  8
FUTO
 10
18106.601270975709
 20
22292.92822039366
 30
0.0
 11
19324.301270975709
 21
22292.92822039366
 31
0.0
  0
DIMENSION
  5
800
  8
FUTO
  2
*D15
 10
19350.10127097572
 20
22817.911778839982
 30
0.0
 11
19033.10127097572
 21
22877.911778839982
 31
0.0
 70
     0
 13
18716.10127097572
 23
22663.52468449932
 33
0.0
 14
19350.10127097572
 24
22162.92822039366
 34
0.0
1001
ACAD
1000
DSTYLE
1002
{
1070
    40
1040
30.0
1070
   176
1070
     2
1070
   177
1070
     2
1070
   178
1070
     2
1070
   341
1005
44D5
1070
     5
1000
OPEN30
1002
}
  0
DIMENSION
  5
80D
  8
FUTO
  2
*D16
 10
19246.101270975709
 20
22556.051212488012
 30
0.0
 11
18716.10127097572
 21
22556.051212488012
 31
0.0
 70
   128
 13
18186.10127097572
 23
22292.92822039366
 33
0.0
 14
19246.101270975709
 24
22292.92822039366
 34
0.0
1001
ACAD
1000
DSTYLE
1002
{
1070
    40
1040
30.0
1070
   176
1070
     2
1070
   177
1070
     2
1070
   178
1070
     2
1070
   341
1005
44D5
1070
     5
1000
OPEN30
1002
}
  0
LINE
  5
81F
  8
FUTO
 10
18131.60127097572
 20
22342.92822039366
 30
0.0
 11
19300.601270975709
 21
22342.92822039366
 31
0.0
  0
LINE
  5
820
  8
FUTO
 10
18131.60127097572
 20
22338.42822039366
 30
0.0
 11
19300.601270975709
 21
22338.42822039366
 31
0.0
  0
LINE
  5
826
  8
FUTO
 10
18181.60127097572
 20
22292.92822039366
 30
0.0
 11
18181.601270975709
 21
21421.92822039366
 31
0.0
  0
LINE
  5
827
  8
FUTO
 10
18186.10127097572
 20
22292.92822039366
 30
0.0
 11
18186.101270975709
 21
21421.92822039366
 31
0.0
  0
LINE
  5
831
  8
FUTO
 10
18131.60127097572
 20
22342.92822039366
 30
0.0
 11
18131.60127097572
 21
22292.92822039366
 31
0.0
  0
INSERT
  5
841
  8
FUTO
  2
まっすぐの矢印
 10
19411.94805166512
 20
21969.180108713648
 30
0.0
 41
-2.0
 42
2.0
 43
2.0
 50
90.0
  0
LINE
  5
842
  8
FUTO
 10
19246.101270975709
 20
22292.92822039366
 30
0.0
 11
19246.101270975709
 21
21421.92822039366
 31
0.0
  0
LINE
  5
844
  8
KL
 10
19255.301270975709
 20
22162.92822039366
 30
0.0
 11
19255.301270975709
 21
21421.92822039366
 31
0.0
  0
LINE
  5
845
  8
KL
 10
19255.301270975709
 20
22118.92822039366
 30
0.0
 11
19325.601270975709
 21
22118.92822039366
 31
0.0
  0
LINE
  5
846
  8
KL
 10
19249.301270975709
 20
22112.928220393671
 30
0.0
 11
19350.10127097572
 21
22112.928220393671
 31
0.0
  0
LINE
  5
847
  8
CT
 10
19226.645169731852
 20
22145.428220393671
 30
0.0
 11
19269.350808157109
 21
22145.428220393671
 31
0.0
  0
LINE
  5
848
  8
KL
 10
19249.301270975709
 20
22162.92822039366
 30
0.0
 11
19255.301270975709
 21
22162.92822039366
 31
0.0
  0
LINE
  5
849
  8
FUTO
 10
19300.601270975709
 20
22342.92822039366
 30
0.0
 11
19300.601270975709
 21
22292.92822039366
 31
0.0
  0
LINE
  5
84A
  8
FUTO
 10
19325.601270975709
 20
22118.92822039366
 30
0.0
 11
19344.10127097572
 21
22118.92822039366
 31
0.0
  0
LINE
  5
84B
  8
CT
 10
19321.340283713522
 20
22145.428220393671
 30
0.0
 11
19373.329759269931
 21
22145.428220393671
 31
0.0
  0
LINE
  5
84C
  8
FUTO
 10
19344.10127097572
 20
22162.92822039366
 30
0.0
 11
19350.10127097572
 21
22162.92822039366
 31
0.0
  0
POLYLINE
  8
0
  5
53C2
  62
2
  66
     1
 10
0.000000
 20
0.000000
 30
0.000000
  70
     8
  0
VERTEX
  8
0
  5
53C3
 10
13416.0
 20
21537.1
 30
0.000000
  70
    32
  0
VERTEX
  8
0
  5
53C4
 10
13416.0
 20
21412.9
 30
0.000000
  70
    32
  0
SEQEND
  8
0
  5
53C5
  0
POLYLINE
  8
0
  5
53C6
  62
2
  66
     1
 10
0.000000
 20
0.000000
 30
0.000000
  70
     8
  0
VERTEX
  8
0
  5
53C7
 10
13416.0
 20
21288.8
 30
0.000000
  70
    32
  0
VERTEX
  8
0
  5
53C8
 10
13416.0
 20
21412.9
 30
0.000000
  70
    32
  0
SEQEND
  8
0
  5
53C9
  0
POLYLINE
  8
0
  5
53CA
  62
2
  66
     1
 10
0.000000
 20
0.000000
 30
0.000000
  70
     8
  0
VERTEX
  8
0
  5
53CB
 10
16059.8
 20
21537.1
 30
0.000000
  70
    32
  0
VERTEX
  8
0
  5
53CC
 10
16059.8
 20
21412.9
 30
0.000000
  70
    32
  0
SEQEND
  8
0
  5
53CD
  0
POLYLINE
  8
0
  5
53CE
  62
2
  66
     1
 10
0.000000
 20
0.000000
 30
0.000000
  70
     8
  0
VERTEX
  8
0
  5
53CF
 10
16059.8
 20
21288.8
 30
0.000000
  70
    32
  0
VERTEX
  8
0
  5
53D0
 10
16059.8
 20
21412.9
 30
0.000000
  70
    32
  0
SEQEND
  8
0
  5
53D1
  0
LINE
  5
971
  8
FUTO
 10
14345.842284052431
 20
21421.92822039366
 30
0.0
 11
14345.842284052431
 21
21403.92822039366
 31
0.0
  0
LINE
  5
972
  8
FUTO
 10
14745.842284052431
 20
21421.92822039366
 30
0.0
 11
14745.842284052431
 21
21403.92822039366
 31
0.0
  0
LINE
  5
973
  8
FUTO
 10
14745.842284052431
 20
21421.92822039366
 30
0.0
 11
16003.970928433229
 21
21421.92822039366
 31
0.0
  0
LINE
  5
974
  8
FUTO
 10
14745.842284052431
 20
21403.92822039366
 30
0.0
 11
16003.970928433229
 21
21403.92822039366
 31
0.0
  0
LINE
  5
990
  8
FUTO
 10
13492.842284052431
 20
21421.92822039366
 30
0.0
 11
13492.842284052431
 21
21403.92822039366
 31
0.0
  0
POLYLINE
  5
119F
  8
FUTO
 66
     1
 10
0.0
 20
0.0
 30
0.0
 70
     1
1001
ACAD
1000
ASC_BOUNDS
1002
{
1070
    19
1002
}
  0
VERTEX
  5
5322
  8
FUTO
 10
18102.10127097572
 20
20172.92822039366
 30
0.0
  0
VERTEX
  5
5323
  8
FUTO
 10
18102.10127097572
 20
20176.266408971831
 30
0.0
 42
-0.3888787318529885
  0
VERTEX
  5
5324
  8
FUTO
 10
18105.75264800472
 20
20180.251187764199
 30
0.0
  0
VERTEX
  5
5325
  8
FUTO
 10
18166.949893946701
 20
20185.605253023132
 30
0.0
 42
0.3888787318529894
  0
VERTEX
  5
5326
  8
FUTO
 10
18170.60127097572
 20
20189.5900318155
 30
0.0
  0
VERTEX
  5
5327
  8
FUTO
 10
18170.60127097572
 20
20306.266408971831
 30
0.0
 42
0.3888787318529893
  0
VERTEX
  5
5328
  8
FUTO
 10
18166.949893946701
 20
20310.251187764199
 30
0.0
  0
VERTEX
  5
5329
  8
FUTO
 10
18105.75264800472
 20
20315.605253023132
 30
0.0
 42
-0.3888787318529887
  0
VERTEX
  5
532A
  8
FUTO
 10
18102.10127097572
 20
20319.5900318155
 30
0.0
  0
VERTEX
  5
532B
  8
FUTO
 10
18102.101270975709
 20
20322.92822039366
 30
0.0
  0
VERTEX
  5
532C
  8
FUTO
 10
18177.101270975709
 20
20322.92822039366
 30
0.0
  0
VERTEX
  5
532D
  8
FUTO
 10
18177.101270975709
 20
20172.92822039366
 30
0.0
  0
SEQEND
  5
532E
  8
FUTO
  0
POLYLINE
  5
11AD
  8
FUTO
 66
     1
 10
0.0
 20
0.0
 30
0.0
 70
     1
1001
ACAD
1000
ASC_BOUNDS
1002
{
1070
    19
1002
}
  0
VERTEX
  5
532F
  8
FUTO
 10
19253.101270975709
 20
20172.92822039366
 30
0.0
  0
VERTEX
  5
5330
  8
FUTO
 10
19253.101270975709
 20
20322.92822039366
 30
0.0
  0
VERTEX
  5
5331
  8
FUTO
 10
19328.10127097572
 20
20322.92822039366
 30
0.0
  0
VERTEX
  5
5332
  8
FUTO
 10
19328.101270975709
 20
20319.5900318155
 30
0.0
 42
-0.3888787318527922
  0
VERTEX
  5
5333
  8
FUTO
 10
19324.449893946701
 20
20315.605253023132
 30
0.0
  0
VERTEX
  5
5334
  8
FUTO
 10
19263.25264800472
 20
20310.251187764199
 30
0.0
 42
0.3888787318529906
  0
VERTEX
  5
5335
  8
FUTO
 10
19259.60127097572
 20
20306.266408971831
 30
0.0
  0
VERTEX
  5
5336
  8
FUTO
 10
19259.601270975709
 20
20189.5900318155
 30
0.0
 42
0.388878731852991
  0
VERTEX
  5
5337
  8
FUTO
 10
19263.25264800472
 20
20185.605253023132
 30
0.0
  0
VERTEX
  5
5338
  8
FUTO
 10
19324.449893946701
 20
20180.251187764199
 30
0.0
 42
-0.3888787318529234
  0
VERTEX
  5
5339
  8
FUTO
 10
19328.101270975709
 20
20176.266408971838
 30
0.0
  0
VERTEX
  5
533A
  8
FUTO
 10
19328.10127097572
 20
20172.92822039366
 30
0.0
  0
SEQEND
  5
533B
  8
FUTO
  0
LINE
  5
11F6
  8
FUTO
 10
17203.10127097572
 20
20152.92822039366
 30
0.0
 11
17128.101270975709
 21
20152.92822039366
 31
0.0
1001
ACAD
1000
ASC_BOUNDS
1002
{
1070
    19
1005
3975
1002
}
  0
LINE
  5
11F7
  8
FUTO
 10
17192.949893946701
 20
20140.251187764199
 30
0.0
 11
17131.75264800472
 21
20145.605253023132
 31
0.0
  0
LINE
  5
11F8
  8
FUTO
 10
17203.10127097572
 20
20002.92822039366
 30
0.0
 11
17128.101270975709
 21
20002.92822039366
 31
0.0
  0
LINE
  5
11F9
  8
FUTO
 10
17192.949893946701
 20
20015.605253023132
 30
0.0
 11
17131.75264800472
 21
20010.251187764199
 31
0.0
  0
LINE
  5
11FA
  8
FUTO
 10
17196.601270975709
 20
20019.590031815489
 30
0.0
 11
17196.601270975709
 21
20136.266408971831
 31
0.0
  0
ARC
  5
11FB
  8
FUTO
 10
17192.601270975709
 20
20136.266408971831
 30
0.0
 40
4.0
 50
0.0
 51
84.999999999999943
  0
LINE
  5
11FC
  8
FUTO
 10
17203.10127097572
 20
20002.92822039366
 30
0.0
 11
17203.10127097572
 21
20152.92822039366
 31
0.0
  0
ARC
  5
11FD
  8
FUTO
 10
17192.601270975709
 20
20019.590031815489
 30
0.0
 40
4.0
 50
275.0
 51
0.0
  0
ARC
  5
11FE
  8
FUTO
 10
17132.10127097572
 20
20149.5900318155
 30
0.0
 40
4.0
 50
180.0
 51
264.99999999999972
  0
LINE
  5
11FF
  8
FUTO
 10
17128.101270975709
 20
20152.92822039366
 30
0.0
 11
17128.101270975709
 21
20149.5900318155
 31
0.0
  0
LINE
  5
1200
  8
FUTO
 10
17128.101270975709
 20
20002.92822039366
 30
0.0
 11
17128.101270975709
 21
20006.266408971831
 31
0.0
  0
ARC
  5
1201
  8
FUTO
 10
17132.10127097572
 20
20006.266408971831
 30
0.0
 40
4.0
 50
95.000000000000227
 51
180.0
  0
INSERT
  5
1202
  8
FUTO
  2
K150-75
 10
18102.10127097572
 20
20152.92822039366
 30
0.0
 50
180.0
1001
ACAD
1000
ASC_BOUNDS
1002
{
1070
    19
1002
}
  0
LINE
  5
1204
  8
FUTO
 10
19253.10127097572
 20
20152.92822039366
 30
0.0
 11
19328.10127097572
 21
20152.92822039366
 31
0.0
1001
ACAD
1000
ASC_BOUNDS
1002
{
1070
    19
1002
}
  0
LINE
  5
1205
  8
FUTO
 10
19263.25264800472
 20
20140.251187764199
 30
0.0
 11
19324.449893946701
 21
20145.605253023132
 31
0.0
  0
LINE
  5
1206
  8
FUTO
 10
19253.10127097572
 20
20002.92822039366
 30
0.0
 11
19328.10127097572
 21
20002.92822039366
 31
0.0
  0
LINE
  5
1207
  8
FUTO
 10
19263.25264800472
 20
20015.605253023132
 30
0.0
 11
19324.449893946701
 21
20010.251187764199
 31
0.0
  0
LINE
  5
1208
  8
FUTO
 10
19259.601270975709
 20
20019.590031815489
 30
0.0
 11
19259.60127097572
 21
20136.266408971831
 31
0.0
  0
ARC
  5
1209
  8
FUTO
 10
19263.60127097572
 20
20136.266408971831
 30
0.0
 40
4.0
 50
94.999999999999758
 51
180.0
  0
LINE
  5
120A
  8
FUTO
 10
19253.10127097572
 20
20002.92822039366
 30
0.0
 11
19253.10127097572
 21
20152.92822039366
 31
0.0
  0
ARC
  5
120B
  8
FUTO
 10
19263.601270975709
 20
20019.590031815489
 30
0.0
 40
4.0
 50
180.0
 51
265.00000000000028
  0
ARC
  5
120C
  8
FUTO
 10
19324.10127097572
 20
20149.5900318155
 30
0.0
 40
4.0
 50
275.00000000000011
 51
0.0
  0
LINE
  5
120D
  8
FUTO
 10
19328.10127097572
 20
20152.92822039366
 30
0.0
 11
19328.101270975709
 21
20149.5900318155
 31
0.0
  0
LINE
  5
120E
  8
FUTO
 10
19328.10127097572
 20
20002.92822039366
 30
0.0
 11
19328.101270975709
 21
20006.266408971831
 31
0.0
  0
ARC
  5
120F
  8
FUTO
 10
19324.101270975709
 20
20006.266408971831
 30
0.0
 40
4.0
 50
0.0
 51
84.999999999999844
  0
LINE
  5
1840
  8
FUTO
 10
14970.842284052431
 20
24497.316916587581
 30
0.0
 11
14970.842284052431
 21
23588.316916587581
 31
0.0
  0
LINE
  5
1841
  8
FUTO
 10
15045.842284052431
 20
24497.316916587581
 30
0.0
 11
15045.842284052431
 21
23588.316916587581
 31
0.0
  0
DIMENSION
  5
1F4D
  8
FUTO
  2
*D7
 10
13067.9504850007
 20
22342.92822039366
 30
0.0
 11
13007.9504850007
 21
21877.928220393671
 31
0.0
 70
     0
 13
13367.838305405099
 23
21412.92822039366
 33
0.0
 14
14553.860084013661
 24
22342.92822039366
 34
0.0
 50
270.0
1001
ACAD
1000
DSTYLE
1002
{
1070
    40
1040
30.0
1070
   176
1070
     2
1070
   177
1070
     2
1070
   178
1070
     2
1070
   341
1005
44D5
1070
     5
1000
OPEN30
1002
}
  0
LINE
  5
1FF1
  8
FUTO
 10
19249.301270975709
 20
22292.92822039366
 30
0.0
 11
19249.301270975709
 21
21421.92822039366
 31
0.0
  0
LINE
  5
1FF2
  8
FUTO
 10
19249.301270975709
 20
21403.92822039366
 30
0.0
 11
19249.301270975709
 21
20322.92822039366
 31
0.0
  0
LINE
  5
1FF3
  8
KL
 10
19249.301270975709
 20
20322.92822039366
 30
0.0
 11
19249.301270975709
 21
20210.02325732417
 31
0.0
  0
LINE
  5
1FF5
  8
FUTO
 10
19324.301270975709
 20
22292.92822039366
 30
0.0
 11
19324.301270975709
 21
20322.92822039366
 31
0.0
  0
DIMENSION
  5
2003
  8
FUTO
  2
*D8
 10
19328.10127097572
 20
19584.89429815171
 30
0.0
 11
18228.10127097572
 21
19644.89429815171
 31
0.0
 70
     0
 13
17128.101270975709
 23
20002.92822039366
 33
0.0
 14
19328.10127097572
 24
20002.92822039366
 34
0.0
1001
ACAD
1000
DSTYLE
1002
{
1070
    40
1040
30.0
1070
   176
1070
     2
1070
   177
1070
     2
1070
   178
1070
     2
1070
   341
1005
44D5
1070
     5
1000
OPEN30
1002
}
  0
ARC
  5
256F
  8
FUTO
 10
14647.842284052431
 20
21514.92822039366
 30
0.0
 40
1329.0
 50
303.7317071076418
 51
304.2531445519902
  0
ARC
  5
2570
  8
FUTO
 10
14647.842284052431
 20
21514.92822039366
 30
0.0
 40
1329.0
 50
296.24452855732062
 51
303.26641033301621
  0
LINE
  5
25BB
  8
CT
 10
14545.842284052431
 20
24104.990185308641
 30
0.0
 11
14545.842284052431
 21
24102.931054977471
 31
0.0
  0
LINE
  5
279A
  8
FUTO
 10
17203.10127097572
 20
20172.92822039366
 30
0.0
 11
17203.10127097572
 21
20152.92822039366
 31
0.0
1001
ACAD
1000
ASC_BOUNDS
1002
{
1070
    19
1005
3975
1002
}
  0
TEXT
  5
29E7
  8
SP
 10
9149.8042194081445
 20
6129.2813767066364
 30
0.0
 40
100.0
  1
 
  0
LINE
  5
3207
  8
FUTO
 10
19249.376689636811
 20
20255.828356560349
 30
0.0
 11
19392.5766896368
 21
20255.828356560382
 31
0.0
  0
LINE
  5
3208
  8
FUTO
 10
19249.376689636811
 20
20221.828356560341
 30
0.0
 11
19392.576689636819
 21
20221.828356560382
 31
0.0
  0
LINE
  5
320D
  8
FUTO
 10
19392.576689636819
 20
20216.828356560382
 30
0.0
 11
19422.576689636819
 21
20216.828356560382
 31
0.0
  0
LINE
  5
320E
  8
FUTO
 10
19392.5766896368
 20
20260.828356560382
 30
0.0
 11
19422.5766896368
 21
20260.828356560389
 31
0.0
  0
LINE
  5
320F
  8
FUTO
 10
19392.5766896368
 20
20260.828356560382
 30
0.0
 11
19392.576689636819
 21
20216.828356560382
 31
0.0
  0
LINE
  5
3210
  8
FUTO
 10
19422.5766896368
 20
20260.828356560389
 30
0.0
 11
19422.576689636819
 21
20216.828356560382
 31
0.0
  0
LINE
  5
3235
  8
FUTO
 10
15950.838886241891
 20
21137.781225213628
 30
0.0
 11
15928.088489661621
 21
21145.26921011466
 31
0.0
  0
LINE
  5
3236
  8
FUTO
 10
15911.75917923564
 20
21019.047167335091
 30
0.0
 11
15885.459484237759
 21
21027.703355738271
 31
0.0
  0
LINE
  5
3237
  8
FUTO
 10
15957.21123431167
 20
21125.156124022851
 30
0.0
 11
15924.38428042642
 21
21025.419515404868
 31
0.0
  0
ARC
  5
3238
  8
FUTO
 10
15947.712509681391
 20
21128.282500583351
 30
0.0
 40
10.0
 50
341.78173999721008
 51
71.781739997210067
  0
ARC
  5
3239
  8
FUTO
 10
15914.88555579614
 20
21028.545891965368
 30
0.0
 40
10.0
 50
251.78173999721
 51
341.78173999721008
  0
LINE
  5
323A
  8
FUTO
 10
15953.96526280239
 20
21147.279949843909
 30
0.0
 11
15931.01588309311
 21
21154.833427346821
 31
0.0
  0
ARC
  5
323B
  8
FUTO
 10
15947.712509681391
 20
21128.282500583351
 30
0.0
 40
20.0
 50
341.78173999721008
 51
71.781739997210067
  0
LINE
  5
323C
  8
FUTO
 10
15966.709958941959
 20
21122.029747462351
 30
0.0
 11
15933.88300505671
 21
21022.293138844369
 31
0.0
  0
ARC
  5
323D
  8
FUTO
 10
15914.88555579614
 20
21028.545891965368
 30
0.0
 40
20.0
 50
251.78173999721
 51
341.78173999721008
  0
LINE
  5
323E
  8
FUTO
 10
15908.63280267514
 20
21009.5484427048
 30
0.0
 11
15881.5646561222
 21
21018.45755652936
 31
0.0
  0
LINE
  5
3241
  8
CT
 10
15992.27907070322
 20
21058.343442697329
 30
0.0
 11
15724.171871561681
 21
21146.587296027399
 31
0.0
  0
DIMENSION
  5
393B
  8
FUTO
  2
*D9
 10
19328.10127097572
 20
19766.224739409288
 30
0.0
 11
19022.101270975709
 21
19826.224739409288
 31
0.0
 70
     0
 13
18716.10127097572
 23
20002.92822039366
 33
0.0
 14
19328.10127097572
 24
20002.92822039366
 34
0.0
1001
ACAD
1000
DSTYLE
1002
{
1070
    40
1040
30.0
1070
   176
1070
     2
1070
   177
1070
     2
1070
   178
1070
     2
1070
   341
1005
44D5
1070
     5
1000
OPEN30
1002
}
  0
DIMENSION
  5
3948
  8
FUTO
  2
*D10
 10
17128.101270975709
 20
19766.229980331889
 30
0.0
 11
17922.10127097572
 21
19826.229980331889
 31
0.0
 70
     0
 13
18716.10127097572
 23
20002.92822039366
 33
0.0
 14
17128.101270975709
 24
20002.92822039366
 34
0.0
1001
ACAD
1000
DSTYLE
1002
{
1070
    40
1040
30.0
1070
   176
1070
     2
1070
   177
1070
     2
1070
   178
1070
     2
1070
   341
1005
44D5
1070
     5
1000
OPEN30
1002
}
  0
POLYLINE
  5
3949
  8
FUTO
 66
     1
 10
0.0
 20
0.0
 30
0.0
  0
VERTEX
  5
5360
  8
FUTO
 10
18106.101270975709
 20
20322.92822039366
 30
0.0
  0
VERTEX
  5
5361
  8
FUTO
 10
18181.101270975709
 20
20322.92822039366
 30
0.0
  0
SEQEND
  5
5362
  8
FUTO
  0
LINE
  5
39B1
  8
FUTO
 10
16085.842284052431
 20
20172.92822039366
 30
0.0
 11
16085.842284052431
 21
20152.92822039366
 31
0.0
  0
LINE
  5
39B2
  8
FUTO
 10
16005.842284052431
 20
20172.92822039366
 30
0.0
 11
16005.842284052431
 21
20152.92822039366
 31
0.0
  0
LINE
  5
39B3
  8
FUTO
 10
16045.842284052431
 20
20209.33964927727
 30
0.0
 11
16045.842284052431
 21
20109.514715313609
 31
0.0
1001
ACAD
1000
ASC_BOUNDS
1002
{
1070
    19
1005
0
1005
0
1005
0
1002
}
  0
LINE
  5
3AE6
  8
FUTO
 10
17189.601270975709
 20
21304.92822039366
 30
0.0
 11
17189.60127097572
 21
20322.92822039366
 31
0.0
  0
LINE
  5
3AE7
  8
FUTO
 10
17189.601270975709
 20
21304.928220393671
 30
0.0
 11
17199.601270975709
 21
21304.92822039366
 31
0.0
  0
LINE
  5
3AE8
  8
FUTO
 10
17199.601270975709
 20
21304.92822039366
 30
0.0
 11
17199.601270975709
 21
21294.92822039366
 31
0.0
  0
LINE
  5
3AEA
  8
FUTO
 10
17199.601270975709
 20
21294.92822039366
 30
0.0
 11
18106.601270975709
 21
21294.92822039366
 31
0.0
  0
LINE
  5
3B39
  8
FUTO
 10
17310.101270975709
 20
21349.92822039366
 30
0.0
 11
17222.10127097572
 21
21349.92822039366
 31
0.0
  0
LINE
  5
3B3A
  8
FUTO
 10
17211.101270975709
 20
21312.92822039366
 30
0.0
 11
17321.10127097572
 21
21312.92822039366
 31
0.0
  0
LINE
  5
3B3B
  8
FUTO
 10
17316.10127097572
 20
21505.92822039366
 30
0.0
 11
17216.10127097572
 21
21505.92822039366
 31
0.0
  0
LINE
  5
3B3C
  8
FUTO
 10
17216.10127097572
 20
21505.92822039366
 30
0.0
 11
17216.10127097572
 21
21312.92822039366
 31
0.0
  0
LINE
  5
3B3D
  8
FUTO
 10
17195.601270975709
 20
21487.92822039366
 30
0.0
 11
17195.601270975709
 21
21337.92822039366
 31
0.0
  0
LINE
  5
3B3E
  8
FUTO
 10
17201.10127097572
 20
21496.92822039366
 30
0.0
 11
17201.10127097572
 21
21328.92822039366
 31
0.0
  0
LINE
  5
3B40
  8
FUTO
 10
17195.601270975709
 20
21337.92822039366
 30
0.0
 11
17201.10127097572
 21
21337.92822039366
 31
0.0
  0
ARC
  5
3B41
  8
FUTO
 10
17222.10127097572
 20
21343.92822039366
 30
0.0
 40
6.0
 50
90.0
 51
180.0
  0
LINE
  5
3B42
  8
FUTO
 10
17207.101270975709
 20
21322.92822039366
 30
0.0
 11
17216.10127097572
 21
21322.92822039366
 31
0.0
  0
ARC
  5
3B43
  8
FUTO
 10
17207.101270975709
 20
21328.92822039366
 30
0.0
 40
6.0
 50
180.0
 51
270.0
  0
LINE
  5
3B44
  8
FUTO
 10
17201.10127097572
 20
21487.92822039366
 30
0.0
 11
17195.601270975709
 21
21487.92822039366
 31
0.0
  0
ARC
  5
3B45
  8
FUTO
 10
17207.101270975709
 20
21496.92822039366
 30
0.0
 40
6.0
 50
90.0
 51
180.0
  0
LINE
  5
3B46
  8
FUTO
 10
17216.10127097572
 20
21502.92822039366
 30
0.0
 11
17207.101270975709
 21
21502.92822039366
 31
0.0
  0
LINE
  5
3B47
  8
FUTO
 10
17316.10127097572
 20
21312.92822039366
 30
0.0
 11
17316.10127097572
 21
21505.92822039366
 31
0.0
  0
LINE
  5
3B48
  8
FUTO
 10
17331.101270975709
 20
21496.92822039366
 30
0.0
 11
17331.101270975709
 21
21328.92822039366
 31
0.0
  0
LINE
  5
3B49
  8
FUTO
 10
17336.60127097572
 20
21487.92822039366
 30
0.0
 11
17336.60127097572
 21
21337.92822039366
 31
0.0
  0
LINE
  5
3B4A
  8
FUTO
 10
17325.10127097572
 20
21322.92822039366
 30
0.0
 11
17316.10127097572
 21
21322.92822039366
 31
0.0
  0
ARC
  5
3B4B
  8
FUTO
 10
17310.101270975709
 20
21343.92822039366
 30
0.0
 40
6.0
 50
0.0
 51
90.0
  0
ARC
  5
3B4C
  8
FUTO
 10
17325.10127097572
 20
21328.92822039366
 30
0.0
 40
6.0
 50
270.0
 51
0.0
  0
LINE
  5
3B4D
  8
FUTO
 10
17336.60127097572
 20
21337.92822039366
 30
0.0
 11
17331.101270975709
 21
21337.92822039366
 31
0.0
  0
LINE
  5
3B4E
  8
FUTO
 10
17316.10127097572
 20
21502.92822039366
 30
0.0
 11
17325.10127097572
 21
21502.92822039366
 31
0.0
  0
ARC
  5
3B4F
  8
FUTO
 10
17325.10127097572
 20
21496.92822039366
 30
0.0
 40
6.0
 50
0.0
 51
90.0
  0
LINE
  5
3B50
  8
FUTO
 10
17331.101270975709
 20
21487.92822039366
 30
0.0
 11
17336.60127097572
 21
21487.92822039366
 31
0.0
  0
LINE
  5
3B51
  8
FUTO
 10
17211.101270975709
 20
21312.92822039366
 30
0.0
 11
17211.101270975709
 21
21294.92822039366
 31
0.0
  0
LINE
  5
3B52
  8
FUTO
 10
17321.101270975709
 20
21312.92822039366
 30
0.0
 11
17321.10127097572
 21
21294.92822039366
 31
0.0
  0
LINE
  5
3BBC
  8
FUTO
 10
18042.601270975709
 20
21516.92822039366
 30
0.0
 11
17909.60127097572
 21
21516.92822039366
 31
0.0
  0
LINE
  5
3BBD
  8
FUTO
 10
18025.10127097572
 20
21336.92822039366
 30
0.0
 11
17927.10127097572
 21
21336.92822039366
 31
0.0
  0
LINE
  5
3BBE
  8
FUTO
 10
17911.10127097572
 20
21300.92822039366
 30
0.0
 11
18041.10127097572
 21
21300.92822039366
 31
0.0
  0
LINE
  5
3BC0
  8
FUTO
 10
17921.10127097572
 20
21516.92822039366
 30
0.0
 11
17921.10127097572
 21
21300.92822039366
 31
0.0
  0
LINE
  5
3BC1
  8
FUTO
 10
17898.60127097572
 20
21502.92822039366
 30
0.0
 11
17898.60127097572
 21
21322.92822039366
 31
0.0
  0
LINE
  5
3BC2
  8
FUTO
 10
17903.60127097572
 20
21510.928220393671
 30
0.0
 11
17903.60127097572
 21
21314.92822039366
 31
0.0
  0
LINE
  5
3BC3
  8
FUTO
 10
17898.60127097572
 20
21322.92822039366
 30
0.0
 11
17903.60127097572
 21
21322.92822039366
 31
0.0
  0
ARC
  5
3BC4
  8
FUTO
 10
17927.10127097572
 20
21330.92822039366
 30
0.0
 40
6.0
 50
90.0
 51
180.0
  0
LINE
  5
3BC5
  8
FUTO
 10
17909.60127097572
 20
21308.928220393671
 30
0.0
 11
17921.10127097572
 21
21308.928220393671
 31
0.0
  0
ARC
  5
3BC6
  8
FUTO
 10
17909.60127097572
 20
21314.92822039366
 30
0.0
 40
6.0
 50
180.0
 51
270.0
  0
LINE
  5
3BC7
  8
FUTO
 10
17903.60127097572
 20
21502.92822039366
 30
0.0
 11
17898.60127097572
 21
21502.92822039366
 31
0.0
  0
ARC
  5
3BC8
  8
FUTO
 10
17909.60127097572
 20
21510.928220393671
 30
0.0
 40
6.0
 50
90.0
 51
180.0
  0
LINE
  5
3BC9
  8
FUTO
 10
18031.101270975709
 20
21516.92822039366
 30
0.0
 11
18031.101270975709
 21
21300.92822039366
 31
0.0
  0
LINE
  5
3BCA
  8
FUTO
 10
18048.60127097572
 20
21510.928220393671
 30
0.0
 11
18048.60127097572
 21
21314.92822039366
 31
0.0
  0
LINE
  5
3BCB
  8
FUTO
 10
18053.60127097572
 20
21502.92822039366
 30
0.0
 11
18053.60127097572
 21
21322.92822039366
 31
0.0
  0
ARC
  5
3BCC
  8
FUTO
 10
18025.10127097572
 20
21330.92822039366
 30
0.0
 40
6.0
 50
0.0
 51
90.0
  0
LINE
  5
3BCD
  8
FUTO
 10
18042.601270975709
 20
21308.928220393671
 30
0.0
 11
18031.101270975709
 21
21308.928220393671
 31
0.0
  0
ARC
  5
3BCE
  8
FUTO
 10
18042.601270975709
 20
21314.92822039366
 30
0.0
 40
6.0
 50
270.0
 51
0.0
  0
LINE
  5
3BCF
  8
FUTO
 10
18053.60127097572
 20
21322.92822039366
 30
0.0
 11
18048.60127097572
 21
21322.92822039366
 31
0.0
  0
ARC
  5
3BD0
  8
FUTO
 10
18042.601270975709
 20
21510.928220393671
 30
0.0
 40
6.0
 50
0.0
 51
90.0
  0
LINE
  5
3BD1
  8
FUTO
 10
18048.60127097572
 20
21502.92822039366
 30
0.0
 11
18053.60127097572
 21
21502.92822039366
 31
0.0
  0
LINE
  5
3C31
  8
SL
 10
17380.343288195199
 20
21539.62712342482
 30
0.0
 11
17845.619701080799
 21
21539.62712342482
 31
0.0
  0
LINE
  5
3C32
  8
FUTO
 10
17911.10127097572
 20
21300.92822039366
 30
0.0
 11
17911.10127097572
 21
21294.92822039366
 31
0.0
  0
LINE
  5
3C33
  8
FUTO
 10
18041.10127097572
 20
21300.92822039366
 30
0.0
 11
18041.10127097572
 21
21294.92822039366
 31
0.0
  0
DIMENSION
  5
3C4B
  8
SP
  2
*D12
 10
18716.10127097572
 20
22817.911778839982
 30
0.0
 11
17806.10127097572
 21
22877.911778839982
 31
0.0
 70
     0
 13
16896.101270975709
 23
21792.928220393671
 33
0.0
 14
18716.10127097572
 24
22693.52468449932
 34
0.0
1001
ACAD
1000
DSTYLE
1002
{
1070
    40
1040
30.0
1070
   176
1070
     2
1070
   177
1070
     2
1070
   178
1070
     2
1070
   341
1005
44D5
1070
     5
1000
OPEN30
1002
}
  0
LINE
  5
3C62
  8
SL
 10
17380.343288195199
 20
21539.62712342482
 30
0.0
 11
17380.343288195199
 21
21284.92822039366
 31
0.0
  0
LINE
  5
3C63
  8
SL
 10
17845.619701080799
 20
21539.62712342482
 30
0.0
 11
17845.619701080799
 21
21284.92822039366
 31
0.0
  0
ARC
  5
3C73
  8
FUTO
 10
14647.842284052431
 20
21514.92822039366
 30
0.0
 40
1329.0
 50
304.64232485469063
 51
308.69442652076913
  0
LINE
  5
3C79
  8
FUTO
 10
14500.84228405242
 20
23728.31691658757
 30
0.0
 11
14500.842284052431
 21
24297.316916587581
 31
0.0
  0
LINE
  5
3C7A
  8
FUTO
 10
14590.842284052431
 20
23728.31691658757
 30
0.0
 11
14590.842284052431
 21
24297.316916587581
 31
0.0
  0
LINE
  5
3C7B
  8
FUTO
 10
14165.842284052431
 20
23288.316916587581
 30
0.0
 11
15965.842284052431
 21
23288.316916587581
 31
0.0
  0
LINE
  5
3C7D
  8
SL
 10
14295.842284052431
 20
23476.216916587578
 30
0.0
 11
15851.842284052431
 21
23476.216916587578
 31
0.0
  0
LINE
  5
3C7E
  8
SL
 10
14295.842284052431
 20
23398.316916587581
 30
0.0
 11
15851.842284052431
 21
23398.316916587581
 31
0.0
  0
LINE
  5
3C7F
  8
CT
 10
14427.3387870923
 20
23658.316916587581
 30
0.0
 11
14708.672915839141
 21
23658.316916587581
 31
0.0
  0
LINE
  5
3C80
  8
CT
 10
15745.842284052431
 20
23251.360187066861
 30
0.0
 11
15745.842284052431
 21
23554.178870178312
 31
0.0
  0
LINE
  5
3C81
  8
SL
 10
15639.842284052431
 20
23398.316916587581
 30
0.0
 11
15639.842284052431
 21
23476.216916587578
 31
0.0
  0
LINE
  5
3C82
  8
SL
 10
15851.842284052431
 20
23398.316916587581
 30
0.0
 11
15851.842284052431
 21
23476.216916587578
 31
0.0
  0
LINE
  5
3C83
  8
FUTO
 10
15798.78485777664
 20
23543.31691658757
 30
0.0
 11
15965.842284052431
 21
23543.31691658757
 31
0.0
  0
LINE
  5
3C84
  8
SL
 10
15685.842284052431
 20
23491.316916587581
 30
0.0
 11
15805.842284052431
 21
23491.316916587581
 31
0.0
  0
LINE
  5
3C85
  8
SL
 10
15685.842284052431
 20
23476.216916587578
 30
0.0
 11
15685.842284052431
 21
23491.316916587581
 31
0.0
  0
LINE
  5
3C86
  8
SL
 10
15805.842284052431
 20
23476.216916587578
 30
0.0
 11
15805.842284052431
 21
23491.316916587581
 31
0.0
  0
LINE
  5
3C87
  8
SL
 10
14795.842284052431
 20
23398.316916587581
 30
0.0
 11
14795.842284052431
 21
23476.216916587578
 31
0.0
  0
LINE
  5
3C88
  8
FUTO
 10
14452.842284052431
 20
23708.316916587581
 30
0.0
 11
14452.842284052431
 21
23608.316916587581
 31
0.0
  0
LINE
  5
3C8B
  8
FUTO
 10
14165.842284052431
 20
23543.31691658757
 30
0.0
 11
14392.151914146711
 21
23543.31691658757
 31
0.0
  0
LINE
  5
3C8C
  8
SL
 10
14295.842284052431
 20
23398.316916587581
 30
0.0
 11
14295.842284052431
 21
23476.216916587578
 31
0.0
  0
LINE
  5
3C8D
  8
FUTO
 10
14503.342284052431
 20
23498.316916587581
 30
0.0
 11
14503.342284052431
 21
23587.816916587581
 31
0.0
  0
LINE
  5
3C8E
  8
FUTO
 10
14588.342284052431
 20
23498.316916587581
 30
0.0
 11
14588.342284052431
 21
23587.816916587581
 31
0.0
  0
LINE
  5
3C8F
  8
SL
 10
14465.842284052431
 20
23476.216916587578
 30
0.0
 11
14465.842284052431
 21
23498.316916587581
 31
0.0
  0
LINE
  5
3C90
  8
SL
 10
14625.842284052431
 20
23476.216916587578
 30
0.0
 11
14625.842284052431
 21
23498.316916587581
 31
0.0
  0
LINE
  5
3C91
  8
SL
 10
14465.842284052431
 20
23498.316916587581
 30
0.0
 11
14625.842284052431
 21
23498.316916587581
 31
0.0
  0
LINE
  5
3C94
  8
FUTO
 10
14455.842284052431
 20
23608.316916587581
 30
0.0
 11
14455.84228405242
 21
23599.316916587581
 31
0.0
  0
ARC
  5
3C95
  8
FUTO
 10
14461.842284052431
 20
23599.316916587581
 30
0.0
 40
6.0
 50
180.0
 51
270.0
  0
LINE
  5
3C96
  8
FUTO
 10
14470.842284052431
 20
23593.316916587581
 30
0.0
 11
14470.842284052431
 21
23587.816916587581
 31
0.0
  0
ARC
  5
3C97
  8
FUTO
 10
14629.842284052431
 20
23599.316916587581
 30
0.0
 40
6.0
 50
270.0
 51
0.000000000000007
  0
LINE
  5
3C98
  8
FUTO
 10
14635.842284052431
 20
23599.316916587581
 30
0.0
 11
14635.842284052431
 21
23608.316916587581
 31
0.0
  0
LINE
  5
3C9A
  8
FUTO
 10
14620.842284052431
 20
23587.816916587581
 30
0.0
 11
14620.842284052431
 21
23593.316916587581
 31
0.0
  0
LINE
  5
3C9B
  8
FUTO
 10
14461.842284052431
 20
23593.316916587581
 30
0.0
 11
14629.842284052431
 21
23593.316916587581
 31
0.0
  0
LINE
  5
3C9C
  8
FUTO
 10
14470.842284052431
 20
23587.816916587581
 30
0.0
 11
14620.842284052431
 21
23587.816916587581
 31
0.0
  0
LINE
  5
3C9D
  8
FUTO
 10
14452.842284052431
 20
23608.316916587581
 30
0.0
 11
14638.842284052431
 21
23608.316916587581
 31
0.0
  0
LINE
  5
3C9F
  8
FUTO
 10
14165.842284052431
 20
23288.316916587581
 30
0.0
 11
14165.842284052431
 21
23543.31691658757
 31
0.0
  0
POINT
  5
3CA0
  8
DEFPOINTS
 10
14165.842284052431
 20
23288.316916587581
 30
0.0
  0
LINE
  5
3CA3
  8
FUTO
 10
14470.842284052431
 20
23723.316916587581
 30
0.0
 11
14470.842284052431
 21
23728.816916587581
 31
0.0
  0
ARC
  5
3CA4
  8
FUTO
 10
14461.842284052431
 20
23717.316916587581
 30
0.0
 40
6.0
 50
90.0
 51
180.0
  0
LINE
  5
3CA5
  8
FUTO
 10
14455.842284052431
 20
23708.316916587581
 30
0.0
 11
14455.84228405242
 21
23717.316916587581
 31
0.0
  0
LINE
  5
3CA6
  8
FUTO
 10
14620.842284052431
 20
23728.816916587581
 30
0.0
 11
14620.842284052431
 21
23723.316916587581
 31
0.0
  0
ARC
  5
3CA7
  8
FUTO
 10
14629.842284052431
 20
23717.316916587581
 30
0.0
 40
6.0
 50
0.000000000000007
 51
90.0
  0
LINE
  5
3CA9
  8
FUTO
 10
14635.842284052431
 20
23717.316916587581
 30
0.0
 11
14635.842284052431
 21
23708.316916587581
 31
0.0
  0
LINE
  5
3CAA
  8
FUTO
 10
14470.842284052431
 20
23728.816916587581
 30
0.0
 11
14620.842284052431
 21
23728.816916587581
 31
0.0
  0
LINE
  5
3CAB
  8
FUTO
 10
14461.842284052431
 20
23723.316916587581
 30
0.0
 11
14629.842284052431
 21
23723.316916587581
 31
0.0
  0
LINE
  5
3CAC
  8
FUTO
 10
14638.842284052431
 20
23708.316916587581
 30
0.0
 11
14452.842284052431
 21
23708.316916587581
 31
0.0
  0
LINE
  5
3CAF
  8
FUTO
 10
13795.842284052431
 20
25742.31691658757
 30
0.0
 11
15295.842284052431
 21
25742.31691658757
 31
0.0
  0
LINE
  5
3CB0
  8
FUTO
 10
13795.842284052431
 20
25736.316916587581
 30
0.0
 11
15295.842284052431
 21
25736.316916587581
 31
0.0
  0
LINE
  5
3CB1
  8
KL
 10
14554.842284052431
 20
25647.516916587581
 30
0.0
 11
15295.842284052431
 21
25647.516916587581
 31
0.0
  0
LINE
  5
3CB5
  8
KL
 10
13841.529541743401
 20
25644.316916587581
 30
0.0
 11
15250.155026361461
 21
25644.316916587581
 31
0.0
  0
LINE
  5
3CB9
  8
CT
 10
14427.3387870923
 20
24368.316916587581
 30
0.0
 11
14731.00644726758
 21
24368.316916587581
 31
0.0
  0
LINE
  5
3CBA
  8
KL
 10
15245.842284052431
 20
25641.516916587581
 30
0.0
 11
15245.842284052431
 21
25742.31691658757
 31
0.0
  0
LINE
  5
3CBB
  8
KL
 10
15251.842284052431
 20
25647.516916587581
 30
0.0
 11
15251.842284052431
 21
25716.516916587581
 31
0.0
  0
LINE
  5
3CBC
  8
KL
 10
15295.842284052431
 20
25641.516916587581
 30
0.0
 11
15295.842284052431
 21
25647.516916587581
 31
0.0
  0
LINE
  5
3CBD
  8
CT
 10
15278.342284052431
 20
25609.032218992481
 30
0.0
 11
15278.342284052431
 21
25666.07495212452
 31
0.0
  0
LINE
  5
3CBE
  8
FUTO
 10
15295.842284052431
 20
25736.316916587581
 30
0.0
 11
15295.842284052431
 21
25742.31691658757
 31
0.0
  0
LINE
  5
3CBF
  8
CT
 10
15278.342284052431
 20
25713.197181674939
 30
0.0
 11
15278.342284052431
 21
25773.340035428821
 31
0.0
  0
LINE
  5
3CC0
  8
FUTO
 10
15251.842284052431
 20
25716.516916587581
 30
0.0
 11
15251.842284052431
 21
25736.316916587581
 31
0.0
  0
LINE
  5
3CC7
  8
FUTO
 10
14441.842284052431
 20
24434.816916587581
 30
0.0
 11
14441.842284052431
 21
24301.81691658757
 31
0.0
  0
ARC
  5
3CCA
  8
FUTO
 10
14447.842284052431
 20
24301.81691658757
 30
0.0
 40
6.0
 50
180.0
 51
270.0
  0
LINE
  5
3CCB
  8
FUTO
 10
14455.842284052431
 20
24295.816916587581
 30
0.0
 11
14455.842284052431
 21
24290.816916587581
 31
0.0
  0
ARC
  5
3CCC
  8
FUTO
 10
14643.842284052431
 20
24301.81691658757
 30
0.0
 40
6.0
 50
270.0
 51
0.000000000000007
  0
LINE
  5
3CCD
  8
FUTO
 10
14649.842284052431
 20
24301.81691658757
 30
0.0
 11
14649.842284052431
 21
24313.316916587581
 31
0.0
  0
LINE
  5
3CCF
  8
FUTO
 10
14635.842284052431
 20
24290.816916587581
 30
0.0
 11
14635.842284052431
 21
24295.816916587581
 31
0.0
  0
LINE
  5
3CD0
  8
FUTO
 10
14447.842284052431
 20
24295.816916587581
 30
0.0
 11
14643.842284052431
 21
24295.816916587581
 31
0.0
  0
LINE
  5
3CD1
  8
FUTO
 10
14455.842284052431
 20
24290.816916587581
 30
0.0
 11
14635.842284052431
 21
24290.816916587581
 31
0.0
  0
LINE
  5
3CD2
  8
FUTO
 10
14441.842284052431
 20
24313.316916587581
 30
0.0
 11
14649.842284052431
 21
24313.316916587581
 31
0.0
  0
LINE
  5
3CD4
  8
FUTO
 10
14455.842284052431
 20
24440.81691658757
 30
0.0
 11
14455.842284052431
 21
24445.816916587581
 31
0.0
  0
ARC
  5
3CD5
  8
FUTO
 10
14447.842284052431
 20
24434.816916587581
 30
0.0
 40
6.0
 50
90.0
 51
180.0
  0
LINE
  5
3CD6
  8
FUTO
 10
14635.842284052431
 20
24445.816916587581
 30
0.0
 11
14635.842284052431
 21
24440.81691658757
 31
0.0
  0
ARC
  5
3CD7
  8
FUTO
 10
14643.842284052431
 20
24434.816916587581
 30
0.0
 40
6.0
 50
0.000000000000007
 51
90.0
  0
LINE
  5
3CD8
  8
FUTO
 10
14649.842284052431
 20
24434.816916587581
 30
0.0
 11
14649.842284052431
 21
24423.316916587581
 31
0.0
  0
LINE
  5
3CDA
  8
FUTO
 10
14455.842284052431
 20
24445.816916587581
 30
0.0
 11
14635.842284052431
 21
24445.816916587581
 31
0.0
  0
LINE
  5
3CDB
  8
FUTO
 10
14447.842284052431
 20
24440.81691658757
 30
0.0
 11
14643.842284052431
 21
24440.81691658757
 31
0.0
  0
LINE
  5
3CDC
  8
FUTO
 10
14441.842284052431
 20
24423.316916587581
 30
0.0
 11
14649.842284052431
 21
24423.316916587581
 31
0.0
  0
LINE
  5
3CDD
  8
FUTO
 10
14590.842284052431
 20
24437.316916587581
 30
0.0
 11
14590.842284052431
 21
24500.11691658758
 31
0.0
  0
LINE
  5
3CDE
  8
FUTO
 10
14500.842284052431
 20
24437.316916587581
 30
0.0
 11
14500.842284052431
 21
24498.816916587581
 31
0.0
  0
LINE
  5
3CE2
  8
KL
 10
13795.842284052431
 20
25647.516916587581
 30
0.0
 11
14536.842284052431
 21
25647.516916587581
 31
0.0
  0
INSERT
  5
3CE3
  8
FUTO
  2
まっすぐの矢印
 10
13989.590395732441
 20
25804.163697276981
 30
0.0
 41
-2.0
 42
2.0
 43
2.0
 50
180.0
  0
LINE
  5
3CE4
  8
KL
 10
13845.842284052431
 20
25641.516916587581
 30
0.0
 11
13845.842284052431
 21
25742.31691658757
 31
0.0
  0
LINE
  5
3CE5
  8
KL
 10
13839.842284052431
 20
25647.516916587581
 30
0.0
 11
13839.842284052431
 21
25717.816916587581
 31
0.0
  0
LINE
  5
3CE6
  8
KL
 10
13795.842284052431
 20
25641.516916587581
 30
0.0
 11
13795.842284052431
 21
25647.516916587581
 31
0.0
  0
LINE
  5
3CE7
  8
CT
 10
13813.342284052431
 20
25618.860815343709
 30
0.0
 11
13813.342284052431
 21
25661.56645376897
 31
0.0
  0
LINE
  5
3CE8
  8
FUTO
 10
13795.842284052431
 20
25736.316916587581
 30
0.0
 11
13795.842284052431
 21
25742.31691658757
 31
0.0
  0
LINE
  5
3CE9
  8
CT
 10
13813.342284052431
 20
25713.555929325379
 30
0.0
 11
13813.342284052431
 21
25765.545404881788
 31
0.0
  0
LINE
  5
3CEA
  8
FUTO
 10
13839.842284052431
 20
25717.816916587581
 30
0.0
 11
13839.842284052431
 21
25736.316916587581
 31
0.0
  0
LINE
  5
3D2A
  8
FUTO
 10
14649.842284052431
 20
24434.816916587581
 30
0.0
 11
14649.842284052431
 21
24301.81691658757
 31
0.0
  0
LINE
  5
3D2B
  8
FUTO
 10
14638.842284052431
 20
23708.316916587581
 30
0.0
 11
14638.842284052431
 21
23608.316916587581
 31
0.0
  0
ARC
  5
4030
  8
FUTO
 10
15745.842284052431
 20
23499.316916587581
 30
0.0
 40
9.0
 50
0.000000000000007
 51
180.0
  0
LINE
  5
4031
  8
FUTO
 10
15754.842284052431
 20
23398.316916587581
 30
0.0
 11
15754.842284052431
 21
23499.316916587581
 31
0.0
  0
LINE
  5
4032
  8
FUTO
 10
15736.842284052431
 20
23398.316916587581
 30
0.0
 11
15736.842284052431
 21
23499.316916587581
 31
0.0
  0
LINE
  5
4033
  8
FUTO
 10
16002.84222305243
 20
23912.816855587582
 30
0.0
 11
16002.84222305243
 21
23948.816916587581
 31
0.0
  0
LINE
  5
4034
  8
FUTO
 10
16005.84222305243
 20
23912.816855587582
 30
0.0
 11
16005.84222305243
 21
23948.816916587581
 31
0.0
  0
LINE
  5
4035
  8
FUTO
 10
15997.84222305243
 20
23912.816855587582
 30
0.0
 11
15997.84222305243
 21
23959.816916587581
 31
0.0
  0
LINE
  5
4036
  8
FUTO
 10
15955.842284052431
 20
23573.81691658757
 30
0.0
 11
15955.842284052431
 21
23620.691916587581
 31
0.0
  0
LINE
  5
4037
  8
FUTO
 10
15903.53391904795
 20
23568.816916587581
 30
0.0
 11
15950.842284052431
 21
23568.816916587581
 31
0.0
  0
ARC
  5
4038
  8
FUTO
 10
15950.842284052431
 20
23573.81691658757
 30
0.0
 40
5.0
 50
270.0
 51
0.000000000000007
  0
LINE
  5
4039
  8
FUTO
 10
15935.523629270851
 20
23620.691916587581
 30
0.0
 11
15955.842284052431
 21
23620.691916587581
 31
0.0
  0
LINE
  5
403A
  8
FUTO
 10
15955.842284052431
 20
23618.816916587581
 30
0.0
 11
16002.84222305243
 21
23618.816916587581
 31
0.0
  0
LINE
  5
403B
  8
FUTO
 10
15955.842284052431
 20
23615.81691658757
 30
0.0
 11
16005.84222305243
 21
23615.81691658757
 31
0.0
  0
LINE
  5
403C
  8
FUTO
 10
15935.63275762071
 20
23623.816916587581
 30
0.0
 11
15997.84222305243
 21
23623.816916587581
 31
0.0
  0
LINE
  5
403D
  8
FUTO
 10
15997.84222305243
 20
23623.816916587581
 30
0.0
 11
16002.84222305243
 21
23618.816916587581
 31
0.0
  0
LINE
  5
403E
  8
FUTO
 10
16030.84222305243
 20
23658.816916587581
 30
0.0
 11
16030.84222305243
 21
23698.816916587581
 31
0.0
  0
LINE
  5
403F
  8
FUTO
 10
16000.84222305243
 20
23658.816916587581
 30
0.0
 11
16000.84222305243
 21
23698.816916587581
 31
0.0
  0
LINE
  5
4040
  8
FUTO
 10
16030.84222305243
 20
23698.816916587581
 30
0.0
 11
16000.84222305243
 21
23698.816916587581
 31
0.0
  0
LINE
  5
4041
  8
FUTO
 10
16000.84222305243
 20
23658.816916587581
 30
0.0
 11
16030.84222305243
 21
23658.816916587581
 31
0.0
  0
LINE
  5
4042
  8
CT
 10
15949.342284052431
 20
23678.816916587581
 30
0.0
 11
16116.89666605242
 21
23678.816916587581
 31
0.0
  0
LINE
  5
4043
  8
FUTO
 10
16105.29669105243
 20
23696.406760587579
 30
0.0
 11
16093.196715052431
 21
23696.406760587579
 31
0.0
  0
LINE
  5
4044
  8
FUTO
 10
16105.29669105243
 20
23661.227073587579
 30
0.0
 11
16093.196715052431
 21
23661.227073587579
 31
0.0
  0
LINE
  5
4045
  8
FUTO
 10
16105.29669105243
 20
23688.521994587569
 30
0.0
 11
16093.196715052431
 21
23688.521994587569
 31
0.0
  0
LINE
  5
4046
  8
FUTO
 10
16105.29669105243
 20
23669.111838587582
 30
0.0
 11
16093.196715052431
 21
23669.111838587582
 31
0.0
  0
LINE
  5
4047
  8
FUTO
 10
16106.89666605242
 20
23694.807151587582
 30
0.0
 11
16106.89666605242
 21
23662.827658587579
 31
0.0
  0
LINE
  5
4048
  8
FUTO
 10
16105.29669105243
 20
23661.227073587579
 30
0.0
 11
16106.89666605242
 21
23662.827658587579
 31
0.0
  0
LINE
  5
4049
  8
FUTO
 10
16105.29669105243
 20
23669.111838587582
 30
0.0
 11
16106.89666605242
 21
23667.512229587581
 31
0.0
  0
LINE
  5
404A
  8
FUTO
 10
16105.29669105243
 20
23669.111838587582
 30
0.0
 11
16106.89666605242
 21
23670.712424587578
 31
0.0
  0
LINE
  5
404B
  8
FUTO
 10
16106.89666605242
 20
23694.807151587582
 30
0.0
 11
16105.29669105243
 21
23696.406760587579
 31
0.0
  0
LINE
  5
404C
  8
FUTO
 10
16105.29669105243
 20
23688.521994587569
 30
0.0
 11
16106.89666605242
 21
23690.12258058758
 31
0.0
  0
LINE
  5
404D
  8
FUTO
 10
16105.29669105243
 20
23688.521994587569
 30
0.0
 11
16106.89666605242
 21
23686.922385587579
 31
0.0
  0
LINE
  5
404E
  8
FUTO
 10
16093.196715052431
 20
23696.406760587579
 30
0.0
 11
16093.196715052431
 21
23661.227073587579
 31
0.0
  0
LINE
  5
404F
  8
FUTO
 10
16093.196715052431
 20
23669.816916587581
 30
0.0
 11
16030.84222305243
 21
23669.816916587581
 31
0.0
  0
LINE
  5
4050
  8
HOSO
 10
16030.84222305243
 20
23671.816916587581
 30
0.0
 11
16093.196776052429
 21
23671.816916587581
 31
0.0
  0
LINE
  5
4051
  8
HOSO
 10
16093.196715052431
 20
23685.816916587581
 30
0.0
 11
16030.84222305243
 21
23685.816916587581
 31
0.0
  0
LINE
  5
4052
  8
FUTO
 10
16030.84222305243
 20
23687.816916587581
 30
0.0
 11
16093.196776052429
 21
23687.816916587581
 31
0.0
  0
LINE
  5
4053
  8
FUTO
 10
16000.84222305243
 20
23669.816916587581
 30
0.0
 11
15949.342284052431
 21
23669.816916587581
 31
0.0
  0
LINE
  5
4054
  8
HOSO
 10
15949.342284052431
 20
23671.816916587581
 30
0.0
 11
16000.84222305243
 21
23671.816916587581
 31
0.0
  0
LINE
  5
4055
  8
FUTO
 10
15949.342284052431
 20
23687.816916587581
 30
0.0
 11
16000.84222305243
 21
23687.816916587581
 31
0.0
  0
LINE
  5
4056
  8
HOSO
 10
16000.84222305243
 20
23685.816916587581
 30
0.0
 11
15949.342284052431
 21
23685.816916587581
 31
0.0
  0
LINE
  5
4057
  8
FUTO
 10
16005.84222305243
 20
23615.81691658757
 30
0.0
 11
16005.84222305243
 21
23658.816916587581
 31
0.0
  0
LINE
  5
4058
  8
FUTO
 10
16002.84222305243
 20
23618.816916587581
 30
0.0
 11
16002.84222305243
 21
23658.816916587581
 31
0.0
  0
LINE
  5
4059
  8
FUTO
 10
15997.84222305243
 20
23623.816916587581
 30
0.0
 11
15997.84222305243
 21
23669.816916587581
 31
0.0
  0
LINE
  5
405A
  8
FUTO
 10
16005.84222305243
 20
23698.816916587581
 30
0.0
 11
16005.84222305243
 21
23734.816916587581
 31
0.0
  0
LINE
  5
405B
  8
FUTO
 10
16002.84222305243
 20
23698.816916587581
 30
0.0
 11
16002.84222305243
 21
23734.816916587581
 31
0.0
  0
LINE
  5
405C
  8
FUTO
 10
15997.84222305243
 20
23687.816916587581
 30
0.0
 11
15997.84222305243
 21
23734.816916587581
 31
0.0
  0
LINE
  5
405D
  8
FUTO
 10
16030.84222305243
 20
23959.816916587581
 30
0.0
 11
16093.196776052429
 21
23959.816916587581
 31
0.0
  0
LINE
  5
405E
  8
HOSO
 10
16093.196715052431
 20
23961.816916587581
 30
0.0
 11
16030.84222305243
 21
23961.816916587581
 31
0.0
  0
LINE
  5
405F
  8
HOSO
 10
16030.84222305243
 20
23975.816916587581
 30
0.0
 11
16093.196776052429
 21
23975.816916587581
 31
0.0
  0
LINE
  5
4060
  8
FUTO
 10
16093.196715052431
 20
23977.81691658757
 30
0.0
 11
16030.84222305243
 21
23977.81691658757
 31
0.0
  0
LINE
  5
4061
  8
FUTO
 10
16093.196715052431
 20
23951.227072587571
 30
0.0
 11
16093.196715052431
 21
23986.406759587579
 31
0.0
  0
LINE
  5
4062
  8
FUTO
 10
16105.29669105243
 20
23959.111838587582
 30
0.0
 11
16106.89666605242
 21
23960.711447587571
 31
0.0
  0
LINE
  5
4063
  8
FUTO
 10
16105.29669105243
 20
23959.111838587582
 30
0.0
 11
16106.89666605242
 21
23957.511252587581
 31
0.0
  0
LINE
  5
4064
  8
FUTO
 10
16106.89666605242
 20
23952.82668158758
 30
0.0
 11
16105.29669105243
 21
23951.227072587571
 31
0.0
  0
LINE
  5
4065
  8
FUTO
 10
16105.29669105243
 20
23978.52199458758
 30
0.0
 11
16106.89666605242
 21
23976.921408587579
 31
0.0
  0
LINE
  5
4066
  8
FUTO
 10
16105.29669105243
 20
23978.52199458758
 30
0.0
 11
16106.89666605242
 21
23980.12160358758
 31
0.0
  0
LINE
  5
4067
  8
FUTO
 10
16105.29669105243
 20
23986.406759587579
 30
0.0
 11
16106.89666605242
 21
23984.806174587578
 31
0.0
  0
LINE
  5
4068
  8
FUTO
 10
16106.89666605242
 20
23952.82668158758
 30
0.0
 11
16106.89666605242
 21
23984.806174587578
 31
0.0
  0
LINE
  5
4069
  8
FUTO
 10
16105.29669105243
 20
23978.52199458758
 30
0.0
 11
16093.196715052431
 21
23978.52199458758
 31
0.0
  0
LINE
  5
406A
  8
FUTO
 10
16105.29669105243
 20
23959.111838587582
 30
0.0
 11
16093.196715052431
 21
23959.111838587582
 31
0.0
  0
LINE
  5
406B
  8
FUTO
 10
16105.29669105243
 20
23986.406759587579
 30
0.0
 11
16093.196715052431
 21
23986.406759587579
 31
0.0
  0
LINE
  5
406C
  8
FUTO
 10
16105.29669105243
 20
23951.227072587571
 30
0.0
 11
16093.196715052431
 21
23951.227072587571
 31
0.0
  0
LINE
  5
406D
  8
FUTO
 10
16000.84222305243
 20
23988.816916587581
 30
0.0
 11
16030.84222305243
 21
23988.816916587581
 31
0.0
  0
LINE
  5
406E
  8
FUTO
 10
16030.84222305243
 20
23948.816916587581
 30
0.0
 11
16000.84222305243
 21
23948.816916587581
 31
0.0
  0
LINE
  5
406F
  8
FUTO
 10
16000.84222305243
 20
23988.816916587581
 30
0.0
 11
16000.84222305243
 21
23948.816916587581
 31
0.0
  0
LINE
  5
4070
  8
FUTO
 10
16030.84222305243
 20
23988.816916587581
 30
0.0
 11
16030.84222305243
 21
23948.816916587581
 31
0.0
  0
LINE
  5
4071
  8
HOSO
 10
16000.84222305243
 20
23961.816916587581
 30
0.0
 11
15949.342284052431
 21
23961.816916587581
 31
0.0
  0
LINE
  5
4072
  8
FUTO
 10
15949.342284052431
 20
23959.816916587581
 30
0.0
 11
16000.84222305243
 21
23959.816916587581
 31
0.0
  0
LINE
  5
4073
  8
HOSO
 10
15949.342284052431
 20
23975.816916587581
 30
0.0
 11
16000.84222305243
 21
23975.816916587581
 31
0.0
  0
LINE
  5
4074
  8
FUTO
 10
16000.84222305243
 20
23977.81691658757
 30
0.0
 11
15949.342284052431
 21
23977.81691658757
 31
0.0
  0
LINE
  5
4075
  8
CT
 10
15949.342284052431
 20
23968.816916587581
 30
0.0
 11
16116.89666605242
 21
23968.816916587581
 31
0.0
  0
LINE
  5
4076
  8
FUTO
 10
15997.84222305243
 20
24023.816916587581
 30
0.0
 11
16002.84222305243
 21
24028.816916587581
 31
0.0
  0
LINE
  5
4077
  8
FUTO
 10
15955.842284052431
 20
24031.816916587581
 30
0.0
 11
16005.84222305243
 21
24031.816916587581
 31
0.0
  0
LINE
  5
4078
  8
FUTO
 10
15955.842284052431
 20
24028.816916587581
 30
0.0
 11
16002.84222305243
 21
24028.816916587581
 31
0.0
  0
LINE
  5
4079
  8
FUTO
 10
15949.342284052431
 20
24026.941916587581
 30
0.0
 11
15955.842284052431
 21
24026.941916587581
 31
0.0
  0
LINE
  5
407A
  8
FUTO
 10
15949.342284052431
 20
24023.816916587581
 30
0.0
 11
15997.84222305243
 21
24023.816916587581
 31
0.0
  0
LINE
  5
407B
  8
FUTO
 10
15997.84222305243
 20
24023.816916587581
 30
0.0
 11
15997.84222305243
 21
23977.81691658757
 31
0.0
  0
LINE
  5
407C
  8
FUTO
 10
16002.84222305243
 20
24028.816916587581
 30
0.0
 11
16002.84222305243
 21
23988.816916587581
 31
0.0
  0
LINE
  5
407D
  8
FUTO
 10
16005.84222305243
 20
24031.816916587581
 30
0.0
 11
16005.84222305243
 21
23988.816916587581
 31
0.0
  0
ARC
  5
407E
  8
FUTO
 10
15950.842284052431
 20
24073.816916587581
 30
0.0
 40
5.0
 50
0.000000000000007
 51
90.000000000000028
  0
LINE
  5
407F
  8
FUTO
 10
15955.842284052431
 20
24073.816916587581
 30
0.0
 11
15955.842284052431
 21
24026.941916587581
 31
0.0
  0
LINE
  5
4080
  8
FUTO
 10
15938.342284052431
 20
24078.81691658757
 30
0.0
 11
15950.842284052431
 21
24078.81691658757
 31
0.0
  0
LINE
  5
4081
  8
CT
 10
15542.342284052431
 20
23968.816916587581
 30
0.0
 11
15374.78790205242
 21
23968.816916587581
 31
0.0
  0
LINE
  5
4082
  8
FUTO
 10
15490.84234505243
 20
23977.81691658757
 30
0.0
 11
15542.342284052431
 21
23977.81691658757
 31
0.0
  0
LINE
  5
4083
  8
HOSO
 10
15542.342284052431
 20
23975.816916587581
 30
0.0
 11
15490.84234505243
 21
23975.816916587581
 31
0.0
  0
LINE
  5
4084
  8
FUTO
 10
15542.342284052431
 20
23959.816916587581
 30
0.0
 11
15490.84234505243
 21
23959.816916587581
 31
0.0
  0
LINE
  5
4085
  8
HOSO
 10
15490.84234505243
 20
23961.816916587581
 30
0.0
 11
15542.342284052431
 21
23961.816916587581
 31
0.0
  0
LINE
  5
4086
  8
FUTO
 10
15460.84234505243
 20
23988.816916587581
 30
0.0
 11
15460.84234505243
 21
23948.816916587581
 31
0.0
  0
LINE
  5
4087
  8
FUTO
 10
15490.84234505243
 20
23988.816916587581
 30
0.0
 11
15490.84234505243
 21
23948.816916587581
 31
0.0
  0
LINE
  5
4088
  8
FUTO
 10
15460.84234505243
 20
23948.816916587581
 30
0.0
 11
15490.84234505243
 21
23948.816916587581
 31
0.0
  0
LINE
  5
4089
  8
FUTO
 10
15490.84234505243
 20
23988.816916587581
 30
0.0
 11
15460.84234505243
 21
23988.816916587581
 31
0.0
  0
LINE
  5
408A
  8
FUTO
 10
15386.387877052421
 20
23951.227072587571
 30
0.0
 11
15398.487853052429
 21
23951.227072587571
 31
0.0
  0
LINE
  5
408B
  8
FUTO
 10
15386.387877052421
 20
23986.406759587579
 30
0.0
 11
15398.487853052429
 21
23986.406759587579
 31
0.0
  0
LINE
  5
408C
  8
FUTO
 10
15386.387877052421
 20
23959.111838587582
 30
0.0
 11
15398.487853052429
 21
23959.111838587582
 31
0.0
  0
LINE
  5
408D
  8
FUTO
 10
15386.387877052421
 20
23978.52199458758
 30
0.0
 11
15398.487853052429
 21
23978.52199458758
 31
0.0
  0
LINE
  5
408E
  8
FUTO
 10
15384.787902052431
 20
23952.82668158758
 30
0.0
 11
15384.787902052431
 21
23984.806174587578
 31
0.0
  0
LINE
  5
408F
  8
FUTO
 10
15386.387877052421
 20
23986.406759587579
 30
0.0
 11
15384.787902052431
 21
23984.806174587578
 31
0.0
  0
LINE
  5
4090
  8
FUTO
 10
15386.387877052421
 20
23978.52199458758
 30
0.0
 11
15384.787902052431
 21
23980.12160358758
 31
0.0
  0
LINE
  5
4091
  8
FUTO
 10
15386.387877052421
 20
23978.52199458758
 30
0.0
 11
15384.787902052431
 21
23976.921408587579
 31
0.0
  0
LINE
  5
4092
  8
FUTO
 10
15384.787902052431
 20
23952.82668158758
 30
0.0
 11
15386.387877052421
 21
23951.227072587571
 31
0.0
  0
LINE
  5
4093
  8
FUTO
 10
15386.387877052421
 20
23959.111838587582
 30
0.0
 11
15384.787902052431
 21
23957.511252587581
 31
0.0
  0
LINE
  5
4094
  8
FUTO
 10
15386.387877052421
 20
23959.111838587582
 30
0.0
 11
15384.787902052431
 21
23960.711447587571
 31
0.0
  0
LINE
  5
4095
  8
FUTO
 10
15398.487853052429
 20
23951.227072587571
 30
0.0
 11
15398.487853052429
 21
23986.406759587579
 31
0.0
  0
LINE
  5
4096
  8
FUTO
 10
15398.487853052429
 20
23977.81691658757
 30
0.0
 11
15460.84234505243
 21
23977.81691658757
 31
0.0
  0
LINE
  5
4097
  8
HOSO
 10
15460.84234505243
 20
23975.816916587581
 30
0.0
 11
15398.48779205242
 21
23975.816916587581
 31
0.0
  0
LINE
  5
4098
  8
HOSO
 10
15398.487853052429
 20
23961.816916587581
 30
0.0
 11
15460.84234505243
 21
23961.816916587581
 31
0.0
  0
LINE
  5
4099
  8
FUTO
 10
15460.84234505243
 20
23959.816916587581
 30
0.0
 11
15398.48779205242
 21
23959.816916587581
 31
0.0
  0
LINE
  5
409A
  8
FUTO
 10
15485.842345052421
 20
24031.816916587581
 30
0.0
 11
15485.842345052421
 21
23988.816916587581
 31
0.0
  0
LINE
  5
409B
  8
FUTO
 10
15488.84234505243
 20
24028.816916587581
 30
0.0
 11
15488.84234505243
 21
23988.816916587581
 31
0.0
  0
LINE
  5
409C
  8
FUTO
 10
15493.84234505243
 20
24023.816916587581
 30
0.0
 11
15493.84234505243
 21
23977.81691658757
 31
0.0
  0
LINE
  5
409D
  8
FUTO
 10
15553.342284052431
 20
24078.81691658757
 30
0.0
 11
15540.842284052431
 21
24078.81691658757
 31
0.0
  0
LINE
  5
409E
  8
FUTO
 10
15542.342284052431
 20
24023.816916587581
 30
0.0
 11
15493.84234505243
 21
24023.816916587581
 31
0.0
  0
LINE
  5
409F
  8
FUTO
 10
15542.342284052431
 20
24026.941916587581
 30
0.0
 11
15535.842284052431
 21
24026.941916587581
 31
0.0
  0
LINE
  5
40A0
  8
FUTO
 10
15535.842284052431
 20
24073.816916587581
 30
0.0
 11
15535.842284052431
 21
24026.941916587581
 31
0.0
  0
LINE
  5
40A1
  8
FUTO
 10
15535.842284052431
 20
24028.816916587581
 30
0.0
 11
15488.84234505243
 21
24028.816916587581
 31
0.0
  0
LINE
  5
40A2
  8
FUTO
 10
15535.842284052431
 20
24031.816916587581
 30
0.0
 11
15485.842345052421
 21
24031.816916587581
 31
0.0
  0
ARC
  5
40A3
  8
FUTO
 10
15540.842284052431
 20
24073.816916587581
 30
0.0
 40
5.0
 50
90.000000000000028
 51
180.0
  0
LINE
  5
40A4
  8
FUTO
 10
15493.84234505243
 20
24023.816916587581
 30
0.0
 11
15488.84234505243
 21
24028.816916587581
 31
0.0
  0
LINE
  5
40A5
  8
FUTO
 10
15556.160938834
 20
23620.691916587581
 30
0.0
 11
15535.842284052431
 21
23620.691916587581
 31
0.0
  0
LINE
  5
40A6
  8
FUTO
 10
15493.84234505243
 20
23687.816916587581
 30
0.0
 11
15493.84234505243
 21
23959.816916587581
 31
0.0
  0
LINE
  5
40A7
  8
FUTO
 10
15493.84234505243
 20
23623.816916587581
 30
0.0
 11
15488.84234505243
 21
23618.816916587581
 31
0.0
  0
LINE
  5
40A8
  8
FUTO
 10
15493.84234505243
 20
23623.816916587581
 30
0.0
 11
15493.84234505243
 21
23669.816916587581
 31
0.0
  0
LINE
  5
40A9
  8
FUTO
 10
15556.051810484139
 20
23623.816916587581
 30
0.0
 11
15493.84234505243
 21
23623.816916587581
 31
0.0
  0
ARC
  5
40AA
  8
FUTO
 10
15540.842284052431
 20
23573.81691658757
 30
0.0
 40
5.0
 50
180.0
 51
270.0
  0
LINE
  5
40AB
  8
FUTO
 10
15535.842284052431
 20
23615.81691658757
 30
0.0
 11
15485.842345052421
 21
23615.81691658757
 31
0.0
  0
LINE
  5
40AC
  8
FUTO
 10
15535.842284052431
 20
23618.816916587581
 30
0.0
 11
15488.84234505243
 21
23618.816916587581
 31
0.0
  0
LINE
  5
40AD
  8
FUTO
 10
15588.150649056901
 20
23568.816916587581
 30
0.0
 11
15540.842284052431
 21
23568.816916587581
 31
0.0
  0
LINE
  5
40AE
  8
FUTO
 10
15535.842284052431
 20
23573.81691658757
 30
0.0
 11
15535.842284052431
 21
23620.691916587581
 31
0.0
  0
LINE
  5
40AF
  8
FUTO
 10
15488.84234505243
 20
23698.816916587581
 30
0.0
 11
15488.84234505243
 21
23948.816916587581
 31
0.0
  0
LINE
  5
40B0
  8
FUTO
 10
15485.842345052421
 20
23698.816916587581
 30
0.0
 11
15485.842345052421
 21
23948.816916587581
 31
0.0
  0
LINE
  5
40B1
  8
FUTO
 10
15488.84234505243
 20
23618.816916587581
 30
0.0
 11
15488.84234505243
 21
23658.816916587581
 31
0.0
  0
LINE
  5
40B2
  8
FUTO
 10
15485.842345052421
 20
23615.81691658757
 30
0.0
 11
15485.842345052421
 21
23658.816916587581
 31
0.0
  0
LINE
  5
40B3
  8
HOSO
 10
15490.84234505243
 20
23685.816916587581
 30
0.0
 11
15542.342284052431
 21
23685.816916587581
 31
0.0
  0
LINE
  5
40B4
  8
FUTO
 10
15542.342284052431
 20
23687.816916587581
 30
0.0
 11
15490.84234505243
 21
23687.816916587581
 31
0.0
  0
LINE
  5
40B5
  8
HOSO
 10
15542.342284052431
 20
23671.816916587581
 30
0.0
 11
15490.84234505243
 21
23671.816916587581
 31
0.0
  0
LINE
  5
40B6
  8
FUTO
 10
15490.84234505243
 20
23669.816916587581
 30
0.0
 11
15542.342284052431
 21
23669.816916587581
 31
0.0
  0
LINE
  5
40B7
  8
FUTO
 10
15460.84234505243
 20
23687.816916587581
 30
0.0
 11
15398.48779205242
 21
23687.816916587581
 31
0.0
  0
LINE
  5
40B8
  8
HOSO
 10
15398.487853052429
 20
23685.816916587581
 30
0.0
 11
15460.84234505243
 21
23685.816916587581
 31
0.0
  0
LINE
  5
40B9
  8
HOSO
 10
15460.84234505243
 20
23671.816916587581
 30
0.0
 11
15398.48779205242
 21
23671.816916587581
 31
0.0
  0
LINE
  5
40BA
  8
FUTO
 10
15398.487853052429
 20
23669.816916587581
 30
0.0
 11
15460.84234505243
 21
23669.816916587581
 31
0.0
  0
LINE
  5
40BB
  8
FUTO
 10
15398.487853052429
 20
23696.406760587579
 30
0.0
 11
15398.487853052429
 21
23661.227073587579
 31
0.0
  0
LINE
  5
40BC
  8
FUTO
 10
15386.387877052421
 20
23688.521994587569
 30
0.0
 11
15384.787902052431
 21
23686.922385587579
 31
0.0
  0
LINE
  5
40BD
  8
FUTO
 10
15386.387877052421
 20
23688.521994587569
 30
0.0
 11
15384.787902052431
 21
23690.12258058758
 31
0.0
  0
LINE
  5
40BE
  8
FUTO
 10
15384.787902052431
 20
23694.807151587582
 30
0.0
 11
15386.387877052421
 21
23696.406760587579
 31
0.0
  0
LINE
  5
40BF
  8
FUTO
 10
15386.387877052421
 20
23669.111838587582
 30
0.0
 11
15384.787902052431
 21
23670.712424587578
 31
0.0
  0
LINE
  5
40C0
  8
FUTO
 10
15386.387877052421
 20
23669.111838587582
 30
0.0
 11
15384.787902052431
 21
23667.512229587581
 31
0.0
  0
LINE
  5
40C1
  8
FUTO
 10
15386.387877052421
 20
23661.227073587579
 30
0.0
 11
15384.787902052431
 21
23662.827658587579
 31
0.0
  0
LINE
  5
40C2
  8
FUTO
 10
15384.787902052431
 20
23694.807151587582
 30
0.0
 11
15384.787902052431
 21
23662.827658587579
 31
0.0
  0
LINE
  5
40C3
  8
FUTO
 10
15386.387877052421
 20
23669.111838587582
 30
0.0
 11
15398.487853052429
 21
23669.111838587582
 31
0.0
  0
LINE
  5
40C4
  8
FUTO
 10
15386.387877052421
 20
23688.521994587569
 30
0.0
 11
15398.487853052429
 21
23688.521994587569
 31
0.0
  0
LINE
  5
40C5
  8
FUTO
 10
15386.387877052421
 20
23661.227073587579
 30
0.0
 11
15398.487853052429
 21
23661.227073587579
 31
0.0
  0
LINE
  5
40C6
  8
FUTO
 10
15386.387877052421
 20
23696.406760587579
 30
0.0
 11
15398.487853052429
 21
23696.406760587579
 31
0.0
  0
LINE
  5
40C7
  8
CT
 10
15542.342284052431
 20
23678.816916587581
 30
0.0
 11
15374.78790205242
 21
23678.816916587581
 31
0.0
  0
LINE
  5
40C8
  8
FUTO
 10
15490.84234505243
 20
23658.816916587581
 30
0.0
 11
15460.84234505243
 21
23658.816916587581
 31
0.0
  0
LINE
  5
40C9
  8
FUTO
 10
15460.84234505243
 20
23698.816916587581
 30
0.0
 11
15490.84234505243
 21
23698.816916587581
 31
0.0
  0
LINE
  5
40CA
  8
FUTO
 10
15490.84234505243
 20
23658.816916587581
 30
0.0
 11
15490.84234505243
 21
23698.816916587581
 31
0.0
  0
LINE
  5
40CB
  8
FUTO
 10
15460.84234505243
 20
23658.816916587581
 30
0.0
 11
15460.84234505243
 21
23698.816916587581
 31
0.0
  0
ARC
  5
40CC
  8
FUTO
 10
16077.47143405243
 20
23885.816855587582
 30
0.0
 40
20.0
 50
0.000000000000007
 51
90.000000000000028
  0
ARC
  5
40CD
  8
FUTO
 10
16077.47143405243
 20
23761.816916587581
 30
0.0
 40
20.0
 50
270.0
 51
0.000000000000007
  0
ARC
  5
40CE
  8
FUTO
 10
16087.471434052421
 20
23744.816916587581
 30
0.0
 40
10.0
 50
270.0
 51
0.000000000000007
  0
ARC
  5
40CF
  8
FUTO
 10
16087.471434052421
 20
23902.816855587582
 30
0.0
 40
10.0
 50
0.000000000000007
 51
90.000000000000028
  0
ARC
  5
40D0
  8
FUTO
 10
15984.614709153529
 20
23744.816916587581
 30
0.0
 40
10.0
 50
180.0
 51
270.0
  0
ARC
  5
40D1
  8
FUTO
 10
15987.78182469187
 20
23744.816916587581
 30
0.0
 40
10.0
 50
180.0
 51
270.0
  0
ARC
  5
40D2
  8
FUTO
 10
15984.614709153529
 20
23902.816855587582
 30
0.0
 40
10.0
 50
90.000000000000028
 51
180.0
  0
ARC
  5
40D3
  8
FUTO
 10
15987.78182469187
 20
23902.816855587582
 30
0.0
 40
10.0
 50
90.000000000000028
 51
180.0
  0
LINE
  5
40D4
  8
FUTO
 10
15984.97842797132
 20
23741.816916587581
 30
0.0
 11
16077.47143405243
 21
23741.816916587581
 31
0.0
  0
LINE
  5
40D5
  8
FUTO
 10
15984.97842797132
 20
23905.816855587582
 30
0.0
 11
16077.47143405243
 21
23905.816855587582
 31
0.0
  0
ARC
  5
40D6
  8
FUTO
 10
15970.842284052431
 20
23746.816916587581
 30
0.0
 40
5.0
 50
180.0
 51
270.0
  0
ARC
  5
40D7
  8
FUTO
 10
15970.842284052431
 20
23900.816855587582
 30
0.0
 40
5.0
 50
90.000000000000028
 51
180.0
  0
ARC
  5
40D8
  8
FUTO
 10
15984.97842797132
 20
23746.816916587581
 30
0.0
 40
5.0
 50
180.0
 51
270.0
  0
ARC
  5
40D9
  8
FUTO
 10
15984.97842797132
 20
23900.816855587582
 30
0.0
 40
5.0
 50
90.000000000000028
 51
180.0
  0
LINE
  5
40DA
  8
FUTO
 10
15984.614709153529
 20
23734.816916587581
 30
0.0
 11
16087.471434052421
 21
23734.816916587581
 31
0.0
  0
LINE
  5
40DB
  8
FUTO
 10
15970.842284052431
 20
23741.816916587581
 30
0.0
 11
15974.614709153529
 21
23741.816916587581
 31
0.0
  0
LINE
  5
40DC
  8
FUTO
 10
15984.614709153529
 20
23912.816855587582
 30
0.0
 11
16087.471434052421
 21
23912.816855587582
 31
0.0
  0
LINE
  5
40DD
  8
FUTO
 10
15970.842284052431
 20
23905.816855587582
 30
0.0
 11
15974.614709153529
 21
23905.816855587582
 31
0.0
  0
LINE
  5
40DE
  8
FUTO
 10
15949.342284052431
 20
23883.816916587581
 30
0.0
 11
15949.342284052431
 21
23990.627687336611
 31
0.0
  0
LINE
  5
40DF
  8
FUTO
 10
15965.842284052431
 20
23763.816916587581
 30
0.0
 11
15898.115886492251
 21
23763.816916587581
 31
0.0
  0
LINE
  5
40E0
  8
FUTO
 10
15965.842284052431
 20
23883.816916587581
 30
0.0
 11
15898.115886492251
 21
23883.816916587581
 31
0.0
  0
LINE
  5
40E1
  8
FUTO
 10
16056.161620052429
 20
23761.816916587581
 30
0.0
 11
16056.16162005242
 21
23885.816855587582
 31
0.0
  0
LINE
  5
40E2
  8
FUTO
 10
15979.97842797132
 20
23746.816916587581
 30
0.0
 11
15979.97842797132
 21
23900.816855587582
 31
0.0
  0
LINE
  5
40E3
  8
FUTO
 10
15977.78182469187
 20
23744.816916587581
 30
0.0
 11
15977.78182469187
 21
23902.816855587582
 31
0.0
  0
LINE
  5
40E4
  8
FUTO
 10
15974.614709153529
 20
23744.816916587581
 30
0.0
 11
15974.614709153529
 21
23902.816855587582
 31
0.0
  0
LINE
  5
40E5
  8
FUTO
 10
15965.842284052431
 20
23746.816916587581
 30
0.0
 11
15965.842284052431
 21
23900.816855587582
 31
0.0
  0
LINE
  5
40E6
  8
FUTO
 10
15955.842284052431
 20
23763.816916587581
 30
0.0
 11
15955.842284052431
 21
23883.816916587581
 31
0.0
  0
LINE
  5
40E7
  8
FUTO
 10
15898.115886492251
 20
23763.816916587581
 30
0.0
 11
15898.115886492251
 21
23883.816916587581
 31
0.0
  0
LINE
  5
40E8
  8
FUTO
 10
16097.47143405243
 20
23744.816916587581
 30
0.0
 11
16097.47143405243
 21
23902.816855587582
 31
0.0
  0
LINE
  5
40E9
  8
FUTO
 10
15752.092284052431
 20
23800.066916587581
 30
0.0
 11
15752.092284052431
 21
23847.566916587581
 31
0.0
  0
ARC
  5
40EA
  8
FUTO
 10
15745.842284052431
 20
23800.066916587581
 30
0.0
 40
6.25
 50
180.0
 51
0.000000000000007
  0
ARC
  5
40EB
  8
FUTO
 10
15745.842284052431
 20
23847.566916587581
 30
0.0
 40
6.25
 50
0.000000000000007
 51
180.0
  0
LINE
  5
40EC
  8
CT
 10
16117.47143405243
 20
23823.816916587581
 30
0.0
 11
15465.842345052421
 21
23823.816916587581
 31
0.0
  0
LINE
  5
40ED
  8
FUTO
 10
15739.592284052431
 20
23800.066916587581
 30
0.0
 11
15739.592284052431
 21
23847.566916587581
 31
0.0
  0
LINE
  5
40EE
  8
FUTO
 10
15949.342284052431
 20
23990.627687336611
 30
0.0
 11
15947.52050705243
 21
23992.816855587582
 31
0.0
  0
LINE
  5
40EF
  8
FUTO
 10
15949.342284052431
 20
23657.006003587579
 30
0.0
 11
15942.842284052431
 21
23649.195090587571
 31
0.0
  0
LINE
  5
40F0
  8
FUTO
 10
15949.342284052431
 20
23657.006003587579
 30
0.0
 11
15949.342284052431
 21
23763.816916587581
 31
0.0
  0
LINE
  5
40F1
  8
FUTO
 10
15542.342284052431
 20
23657.006003587579
 30
0.0
 11
15542.342284052431
 21
23990.627687336611
 31
0.0
  0
ARC
  5
40F2
  8
FUTO
 10
15823.842284052431
 20
23550.316916587581
 30
0.0
 40
2.0
 50
270.0
 51
0.000000000000007
  0
ARC
  5
40F3
  8
FUTO
 10
15828.842284052431
 20
23560.469992587579
 30
0.0
 40
2.9999599999999988
 50
92.999557000034059
 51
180.0
  0
LINE
  5
40F4
  8
FUTO
 10
15825.842284052431
 20
23560.469992587579
 30
0.0
 11
15825.842284052431
 21
23550.316916587581
 31
0.0
  0
ARC
  5
40F5
  8
FUTO
 10
15924.93823205242
 20
23604.102561587581
 30
0.0
 40
9.9999679999999991
 50
315.0
 51
358.00067100000211
  0
ARC
  5
40F6
  8
FUTO
 10
15897.94506805243
 20
23577.109396587581
 30
0.0
 40
10.000024
 50
272.99903899993512
 51
315.0
  0
LINE
  5
40F7
  8
FUTO
 10
15932.009277052421
 20
23597.03151658758
 30
0.0
 11
15905.01611205243
 21
23570.03835258758
 31
0.0
  0
LINE
  5
40F8
  8
FUTO
 10
15935.842284052431
 20
23629.816916587581
 30
0.0
 11
15934.932128052429
 21
23603.75368458758
 31
0.0
  0
LINE
  5
40F9
  8
FUTO
 10
15898.468261052431
 20
23567.123068587582
 30
0.0
 11
15809.876952052429
 21
23562.48024658758
 31
0.0
  0
LINE
  5
40FA
  8
FUTO
 10
15907.842284052431
 20
23639.816916587581
 30
0.0
 11
15583.842284052431
 21
23639.816916587581
 31
0.0
  0
LINE
  5
40FB
  8
FUTO
 10
15907.842284052431
 20
23629.816916587581
 30
0.0
 11
15907.842284052431
 21
23634.81691658757
 31
0.0
  0
LINE
  5
40FC
  8
FUTO
 10
15907.842284052431
 20
23634.81691658757
 30
0.0
 11
15907.842284052431
 21
23639.816916587581
 31
0.0
  0
LINE
  5
40FD
  8
FUTO
 10
15942.842284052431
 20
23649.195090587571
 30
0.0
 11
15907.842284052431
 21
23639.816916587581
 31
0.0
  0
ARC
  5
40FE
  8
FUTO
 10
15929.342284052431
 20
24039.290244587581
 30
0.0
 40
20.0
 50
0.000000000000007
 51
20.000046000008609
  0
ARC
  5
40FF
  8
FUTO
 10
15958.342284052431
 20
24076.56563458758
 30
0.0
 40
20.0
 50
180.0
 51
199.9997250000032
  0
LINE
  5
4100
  8
FUTO
 10
15893.491210052431
 20
24021.316855587582
 30
0.0
 11
15897.244140052429
 21
24027.816855587582
 31
0.0
  0
LINE
  5
4101
  8
FUTO
 10
15897.244140052429
 20
24027.816855587582
 30
0.0
 11
15893.491210052431
 21
24034.316855587582
 31
0.0
  0
LINE
  5
4102
  8
FUTO
 10
15948.136230052431
 20
24046.130698587582
 30
0.0
 11
15939.54833905242
 21
24069.725302587569
 31
0.0
  0
LINE
  5
4103
  8
FUTO
 10
15949.342284052431
 20
23992.816855587582
 30
0.0
 11
15949.342284052431
 21
24039.290244587581
 31
0.0
  0
LINE
  5
4104
  8
FUTO
 10
15882.232909052431
 20
24027.816855587582
 30
0.0
 11
15885.98583905243
 21
24034.316855587582
 31
0.0
  0
LINE
  5
4105
  8
FUTO
 10
15885.98583905243
 20
24021.316855587582
 30
0.0
 11
15882.232909052431
 21
24027.816855587582
 31
0.0
  0
LINE
  5
4106
  8
CT
 10
15889.738525052429
 20
24020.374716587579
 30
0.0
 11
15889.738525052429
 21
24034.830771587582
 31
0.0
  0
LINE
  5
4107
  8
CT
 10
15881.34790005242
 20
24027.816855587582
 30
0.0
 11
15898.16943305243
 21
24027.816855587582
 31
0.0
  0
LINE
  5
4108
  8
FUTO
 10
15885.98583905243
 20
24034.316855587582
 30
0.0
 11
15893.491210052431
 21
24034.316855587582
 31
0.0
  0
LINE
  5
4109
  8
FUTO
 10
15885.98583905243
 20
24021.316855587582
 30
0.0
 11
15893.491210052431
 21
24021.316855587582
 31
0.0
  0
CIRCLE
  5
410A
  8
FUTO
 10
15889.738525052429
 20
24027.816855587582
 30
0.0
 40
6.5
  0
ARC
  5
410B
  8
FUTO
 10
15923.342284052431
 20
24137.505942587581
 30
0.0
 40
15.0
 50
0.000000000000007
 51
29.999816999981821
  0
ARC
  5
410C
  8
FUTO
 10
15902.955566052429
 20
24192.816855587582
 30
0.0
 40
4.9999580000000003
 50
30.000281999972739
 51
90.000000000000028
  0
LINE
  5
410D
  8
FUTO
 10
15907.28564405243
 20
24195.316855587582
 30
0.0
 11
15936.332763052431
 21
24145.005942587581
 31
0.0
  0
LINE
  5
410E
  8
FUTO
 10
15938.342284052431
 20
24076.56563458758
 30
0.0
 11
15938.342284052431
 21
24137.505942587581
 31
0.0
  0
LINE
  5
410F
  8
FUTO
 10
15553.342284052431
 20
24076.56563458758
 30
0.0
 11
15553.342284052431
 21
24137.505942587581
 31
0.0
  0
LINE
  5
4110
  8
CT
 10
15745.842284052431
 20
23378.316916587581
 30
0.0
 11
15745.842284052431
 21
24217.816916587581
 31
0.0
  0
LINE
  5
4111
  8
FUTO
 10
15588.192320052431
 20
24197.816916587581
 30
0.0
 11
15902.98263405242
 21
24197.816916587581
 31
0.0
  0
LINE
  5
4112
  8
FUTO
 10
15938.342284052431
 20
24138.71687958758
 30
0.0
 11
15553.391356052431
 21
24138.71687958758
 31
0.0
  0
LINE
  5
4113
  8
FUTO
 10
15584.398924052421
 20
24195.316855587582
 30
0.0
 11
15555.351805052431
 21
24145.005942587581
 31
0.0
  0
ARC
  5
4114
  8
FUTO
 10
15588.729002052431
 20
24192.816855587582
 30
0.0
 40
4.9999580000000003
 50
90.000000000000028
 51
149.9997180000272
  0
ARC
  5
4115
  8
FUTO
 10
15568.342284052431
 20
24137.505942587581
 30
0.0
 40
15.0
 50
150.00018300001821
 51
180.0
  0
LINE
  5
4116
  8
FUTO
 10
15823.842284052431
 20
23548.316916587581
 30
0.0
 11
15745.842284052431
 21
23548.316916587581
 31
0.0
  0
LINE
  5
4117
  8
FUTO
 10
15935.842284052431
 20
23629.816916587581
 30
0.0
 11
15745.842284052431
 21
23629.816916587581
 31
0.0
  0
LINE
  5
4118
  8
FUTO
 10
15907.842284052431
 20
23634.81691658757
 30
0.0
 11
15745.842284052431
 21
23634.81691658757
 31
0.0
  0
LINE
  5
4119
  8
FUTO
 10
15553.02490105242
 20
24073.016806587581
 30
0.0
 11
15938.342284052431
 21
24073.016806587581
 31
0.0
  0
LINE
  5
411A
  8
FUTO
 10
15542.65576005243
 20
24042.816855587582
 30
0.0
 11
15949.0289042513
 21
24042.816855587582
 31
0.0
  0
LINE
  5
411B
  8
FUTO
 10
15542.342284052431
 20
23992.816855587582
 30
0.0
 11
15947.52050705243
 21
23992.816855587582
 31
0.0
  0
LINE
  5
411C
  8
FUTO
 10
15907.842284052431
 20
23634.81691658757
 30
0.0
 11
15745.842284052431
 21
23634.81691658757
 31
0.0
  0
CIRCLE
  5
411D
  8
FUTO
 10
15601.94604305243
 20
24027.816855587582
 30
0.0
 40
6.5
  0
LINE
  5
411E
  8
FUTO
 10
15605.69872905243
 20
24021.316855587582
 30
0.0
 11
15598.193358052429
 21
24021.316855587582
 31
0.0
  0
LINE
  5
411F
  8
FUTO
 10
15605.69872905243
 20
24034.316855587582
 30
0.0
 11
15598.193358052429
 21
24034.316855587582
 31
0.0
  0
LINE
  5
4120
  8
CT
 10
15610.33666805242
 20
24027.816855587582
 30
0.0
 11
15593.51513505243
 21
24027.816855587582
 31
0.0
  0
LINE
  5
4121
  8
CT
 10
15601.94604305243
 20
24020.374716587579
 30
0.0
 11
15601.94604305243
 21
24034.830771587582
 31
0.0
  0
LINE
  5
4122
  8
FUTO
 10
15605.69872905243
 20
24021.316855587582
 30
0.0
 11
15609.451659052431
 21
24027.816855587582
 31
0.0
  0
LINE
  5
4123
  8
FUTO
 10
15609.451659052431
 20
24027.816855587582
 30
0.0
 11
15605.69872905243
 21
24034.316855587582
 31
0.0
  0
LINE
  5
4124
  8
FUTO
 10
15542.342284052431
 20
23992.816855587582
 30
0.0
 11
15542.342284052431
 21
24039.290244587581
 31
0.0
  0
LINE
  5
4125
  8
FUTO
 10
15543.548338052429
 20
24046.130698587582
 30
0.0
 11
15552.13622905243
 21
24069.725302587569
 31
0.0
  0
LINE
  5
4126
  8
FUTO
 10
15594.44042805243
 20
24027.816855587582
 30
0.0
 11
15598.193358052429
 21
24034.316855587582
 31
0.0
  0
LINE
  5
4127
  8
FUTO
 10
15598.193358052429
 20
24021.316855587582
 30
0.0
 11
15594.44042805243
 21
24027.816855587582
 31
0.0
  0
ARC
  5
4128
  8
FUTO
 10
15533.342284052431
 20
24076.56563458758
 30
0.0
 40
20.0
 50
340.0002749999968
 51
0.000000000000007
  0
ARC
  5
4129
  8
FUTO
 10
15562.342284052431
 20
24039.290244587581
 30
0.0
 40
20.0
 50
159.99995399999131
 51
180.0
  0
LINE
  5
412A
  8
FUTO
 10
15542.342284052431
 20
23990.627687336611
 30
0.0
 11
15544.16406105243
 21
23992.816855587582
 31
0.0
  0
LINE
  5
412B
  8
FUTO
 10
15583.842284052431
 20
23634.81691658757
 30
0.0
 11
15745.842284052431
 21
23634.81691658757
 31
0.0
  0
LINE
  5
412C
  8
FUTO
 10
15593.216307052429
 20
23567.123068587582
 30
0.0
 11
15681.807616052431
 21
23562.48024658758
 31
0.0
  0
LINE
  5
412D
  8
FUTO
 10
15555.842284052431
 20
23629.816916587581
 30
0.0
 11
15745.842284052431
 21
23629.816916587581
 31
0.0
  0
LINE
  5
412E
  8
FUTO
 10
15583.842284052431
 20
23634.81691658757
 30
0.0
 11
15745.842284052431
 21
23634.81691658757
 31
0.0
  0
LINE
  5
412F
  8
FUTO
 10
15775.842284052431
 20
23538.316916587581
 30
0.0
 11
15775.842284052431
 21
23398.316916587581
 31
0.0
  0
LINE
  5
4130
  8
FUTO
 10
15715.842284052431
 20
23538.316916587581
 30
0.0
 11
15715.842284052431
 21
23398.316916587581
 31
0.0
  0
LINE
  5
4131
  8
FUTO
 10
15667.842284052431
 20
23548.316916587581
 30
0.0
 11
15745.842284052431
 21
23548.316916587581
 31
0.0
  0
LINE
  5
4132
  8
FUTO
 10
15778.342284052431
 20
23538.316916587581
 30
0.0
 11
15713.342284052431
 21
23538.316916587581
 31
0.0
  0
LINE
  5
4133
  8
FUTO
 10
15778.342284052431
 20
23538.316916587581
 30
0.0
 11
15778.342284052431
 21
23548.316916587581
 31
0.0
  0
LINE
  5
4134
  8
FUTO
 10
15713.342284052431
 20
23538.316916587581
 30
0.0
 11
15713.342284052431
 21
23548.316916587581
 31
0.0
  0
LINE
  5
4135
  8
FUTO
 10
15665.842284052431
 20
23560.469992587579
 30
0.0
 11
15665.842284052431
 21
23550.316916587581
 31
0.0
  0
ARC
  5
4136
  8
FUTO
 10
15662.842284052431
 20
23560.469992587579
 30
0.0
 40
2.9999599999999988
 50
0.000000000000007
 51
87.000442999965941
  0
ARC
  5
4137
  8
FUTO
 10
15667.842284052431
 20
23550.316916587581
 30
0.0
 40
2.0
 50
180.0
 51
270.0
  0
LINE
  5
4138
  8
FUTO
 10
15715.842284052431
 20
23398.316916587581
 30
0.0
 11
15775.842284052431
 21
23398.316916587581
 31
0.0
  0
LINE
  5
4139
  8
FUTO
 10
15542.342284052431
 20
23657.006003587579
 30
0.0
 11
15548.842284052431
 21
23649.195090587571
 31
0.0
  0
LINE
  5
413A
  8
FUTO
 10
15555.842284052431
 20
23629.816916587581
 30
0.0
 11
15556.752440052431
 21
23603.75368458758
 31
0.0
  0
LINE
  5
413B
  8
FUTO
 10
15548.842284052431
 20
23649.195090587571
 30
0.0
 11
15583.842284052431
 21
23639.816916587581
 31
0.0
  0
LINE
  5
413C
  8
FUTO
 10
15583.842284052431
 20
23634.81691658757
 30
0.0
 11
15583.842284052431
 21
23639.816916587581
 31
0.0
  0
LINE
  5
413D
  8
FUTO
 10
15583.842284052431
 20
23629.816916587581
 30
0.0
 11
15583.842284052431
 21
23634.81691658757
 31
0.0
  0
LINE
  5
413E
  8
FUTO
 10
15559.67529105243
 20
23597.03151658758
 30
0.0
 11
15586.66845605243
 21
23570.03835258758
 31
0.0
  0
ARC
  5
413F
  8
FUTO
 10
15593.73950005243
 20
23577.109396587581
 30
0.0
 40
10.000024
 50
225.0
 51
267.00096100006488
  0
ARC
  5
4140
  8
FUTO
 10
15566.746336052431
 20
23604.102561587581
 30
0.0
 40
9.9999679999999991
 50
181.99932899999791
 51
225.0
  0
LINE
  5
4142
  8
FUTO
 10
17593.921779051401
 20
20402.92822039366
 30
0.0
 11
17608.60120997571
 21
20402.92822039366
 31
0.0
  0
LINE
  5
4143
  8
FUTO
 10
17596.601270975709
 20
20382.928220393671
 30
0.0
 11
17631.60127097572
 21
20382.928220393671
 31
0.0
  0
LINE
  5
4144
  8
FUTO
 10
17269.280762900031
 20
20402.92822039366
 30
0.0
 11
17254.60127097572
 21
20402.92822039366
 31
0.0
  0
LINE
  5
4145
  8
FUTO
 10
17266.60127097572
 20
20382.928220393671
 30
0.0
 11
17231.60127097572
 21
20382.928220393671
 31
0.0
  0
LINE
  5
4147
  8
FUTO
 10
17331.60127097572
 20
20377.92822039366
 30
0.0
 11
17331.60127097572
 21
20382.928220393671
 31
0.0
  0
LINE
  5
4148
  8
FUTO
 10
17531.60127097572
 20
20382.928220393671
 30
0.0
 11
17531.60127097572
 21
20377.92822039366
 31
0.0
  0
LINE
  5
4153
  8
FUTO
 10
17286.60127097572
 20
20411.403806393671
 30
0.0
 11
17270.60127097572
 21
20402.166502393658
 31
0.0
  0
LINE
  5
4154
  8
FUTO
 10
17302.60127097572
 20
20402.166502393658
 30
0.0
 11
17286.60127097572
 21
20411.403806393671
 31
0.0
  0
LINE
  5
4155
  8
FUTO
 10
17286.60127097572
 20
20374.45361139367
 30
0.0
 11
17270.60127097572
 21
20383.690916393669
 31
0.0
  0
LINE
  5
4156
  8
FUTO
 10
17302.60127097572
 20
20383.690916393669
 30
0.0
 11
17286.60127097572
 21
20374.45361139367
 31
0.0
  0
LINE
  5
4157
  8
CT
 10
17256.601270975709
 20
20392.92822039366
 30
0.0
 11
17316.60127097572
 21
20392.92822039366
 31
0.0
  0
CIRCLE
  5
4158
  8
FUTO
 10
17286.60127097572
 20
20392.92822039366
 30
0.0
 40
16.0
  0
LINE
  5
4159
  8
FUTO
 10
17302.60127097572
 20
20383.690916393669
 30
0.0
 11
17302.60127097572
 21
20402.166502393658
 31
0.0
  0
LINE
  5
415A
  8
FUTO
 10
17270.60127097572
 20
20383.690916393669
 30
0.0
 11
17270.60127097572
 21
20402.166502393658
 31
0.0
  0
ARC
  5
415B
  8
FUTO
 10
17286.60127097572
 20
20392.92822039366
 30
0.0
 40
20.0
 50
0.000000000000007
 51
180.0
  0
ARC
  5
415C
  8
FUTO
 10
17179.601270975709
 20
20349.92822039366
 30
0.0
 40
3.0
 50
90.0
 51
180.0
  0
LINE
  5
415D
  8
FUTO
 10
17228.47627097572
 20
20352.92822039366
 30
0.0
 11
17179.601270975709
 21
20352.92822039366
 31
0.0
  0
LINE
  5
415E
  8
FUTO
 10
17233.60127097572
 20
20322.92822039366
 30
0.0
 11
17233.60127097572
 21
20327.92822039366
 31
0.0
  0
LINE
  5
415F
  8
FUTO
 10
17223.60127097572
 20
20334.92822039366
 30
0.0
 11
17223.60127097572
 21
20327.92822039366
 31
0.0
  0
LINE
  5
4160
  8
FUTO
 10
17233.60127097572
 20
20322.92822039366
 30
0.0
 11
17176.601270975709
 21
20322.92822039366
 31
0.0
  0
LINE
  5
4161
  8
FUTO
 10
17176.601270975709
 20
20322.92822039366
 30
0.0
 11
17176.601270975709
 21
20349.92822039366
 31
0.0
  0
LINE
  5
4162
  8
CT
 10
17201.60127097572
 20
20372.92822039366
 30
0.0
 11
17201.60127097572
 21
20302.928220393671
 31
0.0
  0
LINE
  5
4163
  8
FUTO
 10
17223.60127097572
 20
20334.92822039366
 30
0.0
 11
17266.60127097572
 21
20334.92822039366
 31
0.0
  0
LINE
  5
4164
  8
FUTO
 10
17231.60127097572
 20
20382.928220393671
 30
0.0
 11
17226.60127097572
 21
20334.92822039366
 31
0.0
  0
LINE
  5
4165
  8
FUTO
 10
17306.60127097572
 20
20392.92822039366
 30
0.0
 11
17306.60127097572
 21
20327.92822039366
 31
0.0
  0
LINE
  5
4166
  8
FUTO
 10
17266.60127097572
 20
20327.92822039366
 30
0.0
 11
17266.60127097572
 21
20392.92822039366
 31
0.0
  0
LINE
  5
4167
  8
CT
 10
17286.60127097572
 20
20317.92822039366
 30
0.0
 11
17286.60127097572
 21
20422.928220393671
 31
0.0
  0
LINE
  5
4168
  8
FUTO
 10
17560.60127097572
 20
20402.166502393658
 30
0.0
 11
17576.60127097572
 21
20411.403806393671
 31
0.0
  0
LINE
  5
4169
  8
FUTO
 10
17560.60127097572
 20
20383.690916393669
 30
0.0
 11
17576.60127097572
 21
20374.45361139367
 31
0.0
  0
LINE
  5
416A
  8
FUTO
 10
17560.60127097572
 20
20383.690916393669
 30
0.0
 11
17560.60127097572
 21
20402.166502393658
 31
0.0
  0
LINE
  5
416B
  8
FUTO
 10
17592.60127097572
 20
20383.690916393669
 30
0.0
 11
17592.60127097572
 21
20402.166502393658
 31
0.0
  0
CIRCLE
  5
416C
  8
FUTO
 10
17576.60127097572
 20
20392.92822039366
 30
0.0
 40
16.0
  0
LINE
  5
416D
  8
FUTO
 10
17576.60127097572
 20
20411.403806393671
 30
0.0
 11
17592.60127097572
 21
20402.166502393658
 31
0.0
  0
LINE
  5
416E
  8
FUTO
 10
17576.60127097572
 20
20374.45361139367
 30
0.0
 11
17592.60127097572
 21
20383.690916393669
 31
0.0
  0
ARC
  5
416F
  8
FUTO
 10
17576.60127097572
 20
20392.92822039366
 30
0.0
 40
20.0
 50
0.000000000000007
 51
180.0
  0
LINE
  5
4170
  8
CT
 10
17606.60127097572
 20
20392.92822039366
 30
0.0
 11
17546.60127097572
 21
20392.92822039366
 31
0.0
  0
LINE
  5
4171
  8
FUTO
 10
17331.60127097572
 20
20377.92822039366
 30
0.0
 11
17531.60127097572
 21
20377.92822039366
 31
0.0
  0
LINE
  5
4172
  8
FUTO
 10
17629.60127097572
 20
20322.92822039366
 30
0.0
 11
17629.60127097572
 21
20327.92822039366
 31
0.0
  0
LINE
  5
4173
  8
FUTO
 10
17639.601270975709
 20
20334.92822039366
 30
0.0
 11
17639.601270975709
 21
20327.92822039366
 31
0.0
  0
LINE
  5
4174
  8
FUTO
 10
17639.601270975709
 20
20334.92822039366
 30
0.0
 11
17596.601270975709
 21
20334.92822039366
 31
0.0
  0
LINE
  5
4175
  8
CT
 10
17661.601270975709
 20
20372.92822039366
 30
0.0
 11
17661.601270975709
 21
20302.928220393671
 31
0.0
  0
ARC
  5
4176
  8
FUTO
 10
17683.601270975709
 20
20349.92822039366
 30
0.0
 40
3.0
 50
0.000000000000007
 51
90.0
  0
LINE
  5
4177
  8
FUTO
 10
17686.60127097572
 20
20322.92822039366
 30
0.0
 11
17686.60127097572
 21
20349.92822039366
 31
0.0
  0
LINE
  5
4178
  8
FUTO
 10
17634.72627097572
 20
20352.92822039366
 30
0.0
 11
17683.601270975709
 21
20352.92822039366
 31
0.0
  0
LINE
  5
4179
  8
FUTO
 10
17629.60127097572
 20
20322.92822039366
 30
0.0
 11
17686.60127097572
 21
20322.92822039366
 31
0.0
  0
LINE
  5
417A
  8
FUTO
 10
17631.60127097572
 20
20382.928220393671
 30
0.0
 11
17636.60127097572
 21
20334.92822039366
 31
0.0
  0
LINE
  5
417B
  8
FUTO
 10
17556.60127097572
 20
20392.92822039366
 30
0.0
 11
17556.60127097572
 21
20327.92822039366
 31
0.0
  0
LINE
  5
417C
  8
FUTO
 10
17596.601270975709
 20
20327.92822039366
 30
0.0
 11
17596.601270975709
 21
20392.92822039366
 31
0.0
  0
LINE
  5
417D
  8
CT
 10
17576.60127097572
 20
20317.92822039366
 30
0.0
 11
17576.60127097572
 21
20422.928220393671
 31
0.0
  0
LINE
  5
41CF
  8
FUTO
 10
17306.60127097572
 20
20334.92822039366
 30
0.0
 11
17556.60127097572
 21
20334.92822039366
 31
0.0
  0
LINE
  5
41D0
  8
FUTO
 10
17223.60127097572
 20
20327.92822039366
 30
0.0
 11
17639.601270975709
 21
20327.92822039366
 31
0.0
  0
LINE
  5
41D1
  8
FUTO
 10
17247.60127097572
 20
20744.928220393671
 30
0.0
 11
17247.60127097572
 21
20707.92822039366
 31
0.0
  0
ARC
  5
41D2
  8
FUTO
 10
17211.886915975709
 20
20762.024168393658
 30
0.0
 40
9.9999679999999991
 50
91.999328999997914
 51
135.0
  0
ARC
  5
41D3
  8
FUTO
 10
17184.893750975709
 20
20735.03100439367
 30
0.0
 40
10.000024
 50
135.0
 51
177.00096100006479
  0
LINE
  5
41D4
  8
FUTO
 10
17204.815870975712
 20
20769.095213393659
 30
0.0
 11
17177.822706975719
 21
20742.102048393659
 31
0.0
  0
LINE
  5
41D5
  8
FUTO
 10
17237.601270975709
 20
20744.928220393671
 30
0.0
 11
17242.60127097572
 21
20744.928220393671
 31
0.0
  0
LINE
  5
41D6
  8
FUTO
 10
17242.60127097572
 20
20744.928220393671
 30
0.0
 11
17247.60127097572
 21
20744.928220393671
 31
0.0
  0
LINE
  5
41D7
  8
FUTO
 10
17256.97944497571
 20
20779.92822039366
 30
0.0
 11
17247.60127097572
 21
20744.928220393671
 31
0.0
  0
LINE
  5
41D8
  8
FUTO
 10
17237.601270975709
 20
20772.92822039366
 30
0.0
 11
17211.538038975708
 21
20772.018064393658
 31
0.0
  0
LINE
  5
41DA
  8
FUTO
 10
17272.601270975709
 20
20792.92822039366
 30
0.0
 11
17256.97944497571
 21
20779.92822039366
 31
0.0
  0
LINE
  5
41DB
  8
FUTO
 10
17006.101270975709
 20
20616.92822039366
 30
0.0
 11
17006.101270975709
 21
20552.92822039366
 31
0.0
  0
ARC
  5
41DC
  8
FUTO
 10
17158.10127097572
 20
20660.92822039366
 30
0.0
 40
2.0
 50
90.0
 51
180.0
  0
ARC
  5
41EB
  8
FUTO
 10
17257.601270975709
 20
20707.92822039366
 30
0.0
 40
10.0
 50
90.0
 51
180.0
  0
ARC
  5
41EE
  8
FUTO
 10
17168.254346975718
 20
20665.92822039366
 30
0.0
 40
2.9999599999999988
 50
270.0
 51
357.00044299996591
  0
LINE
  5
41EF
  8
FUTO
 10
17168.254346975718
 20
20662.928220393671
 30
0.0
 11
17158.10127097572
 21
20662.928220393671
 31
0.0
  0
LINE
  5
41F0
  8
FUTO
 10
17116.10127097572
 20
20616.92822039366
 30
0.0
 11
17116.10127097572
 21
20612.92822039366
 31
0.0
  0
LINE
  5
41F1
  8
FUTO
 10
17146.101270975709
 20
20615.428220393671
 30
0.0
 11
17156.10127097572
 21
20615.428220393671
 31
0.0
  0
LINE
  5
41F2
  8
FUTO
 10
17146.101270975709
 20
20550.42822039366
 30
0.0
 11
17156.10127097572
 21
20550.42822039366
 31
0.0
  0
LINE
  5
41F3
  8
FUTO
 10
17146.101270975709
 20
20550.42822039366
 30
0.0
 11
17146.101270975709
 21
20615.428220393671
 31
0.0
  0
ARC
  5
41F4
  8
FUTO
 10
17257.601270975709
 20
20607.92822039366
 30
0.0
 40
10.0
 50
180.0
 51
270.0
  0
LINE
  5
41F5
  8
FUTO
 10
17156.10127097572
 20
20660.92822039366
 30
0.0
 11
17156.10127097572
 21
20582.928220393671
 31
0.0
  0
LINE
  5
41F6
  8
FUTO
 10
17247.60127097572
 20
20607.92822039366
 30
0.0
 11
17247.60127097572
 21
20707.92822039366
 31
0.0
  0
LINE
  5
41F7
  8
FUTO
 10
17146.101270975709
 20
20612.92822039366
 30
0.0
 11
17006.101270975709
 21
20612.92822039366
 31
0.0
  0
LINE
  5
41F8
  8
FUTO
 10
17146.101270975709
 20
20552.92822039366
 30
0.0
 11
17006.101270975709
 21
20552.92822039366
 31
0.0
  0
LINE
  5
41F9
  8
FUTO
 10
17116.10127097572
 20
20616.92822039366
 30
0.0
 11
17006.101270975709
 21
20616.92822039366
 31
0.0
  0
LINE
  5
41FA
  8
FUTO
 10
17242.60127097572
 20
20744.928220393671
 30
0.0
 11
17242.60127097572
 21
20582.928220393671
 31
0.0
  0
LINE
  5
41FB
  8
FUTO
 10
17237.601270975709
 20
20772.92822039366
 30
0.0
 11
17237.601270975709
 21
20582.928220393671
 31
0.0
  0
LINE
  5
41FC
  8
FUTO
 10
17174.90742297571
 20
20735.55419739366
 30
0.0
 11
17170.264600975712
 21
20646.96288839366
 31
0.0
  0
LINE
  5
41FE
  8
FUTO
 10
17242.60127097572
 20
20744.928220393671
 30
0.0
 11
17242.60127097572
 21
20582.928220393671
 31
0.0
  0
ARC
  5
41FF
  8
FUTO
 10
17420.36628597571
 20
20801.207334393661
 30
0.0
 40
2.9999909999999992
 50
96.115172999988943
 51
174.80557100002201
  0
LINE
  5
4200
  8
FUTO
 10
17417.378614975711
 20
20801.47894139366
 30
0.0
 11
17416.60127097572
 21
20792.92822039366
 31
0.0
  0
ARC
  5
4201
  8
FUTO
 10
17410.642896975711
 20
20793.658018393671
 30
0.0
 40
5.9999760000000002
 50
354.8055729999931
 51
54.396262999995557
  0
ARC
  5
4202
  8
FUTO
 10
17442.836255975719
 20
20801.207334393661
 30
0.0
 40
2.999981
 50
5.194427000006832
 51
83.884827000011072
  0
ARC
  5
4203
  8
FUTO
 10
17431.60127097572
 20
20822.92822039366
 30
0.0
 40
30.0
 50
305.19004800000442
 51
305.60386699997889
  0
LINE
  5
4204
  8
FUTO
 10
17431.60127097572
 20
20805.42822039366
 30
0.0
 11
17443.155835975711
 21
20804.19024439366
 31
0.0
  0
LINE
  5
4205
  8
FUTO
 10
17445.82392697571
 20
20801.47894139366
 30
0.0
 11
17446.60127097572
 21
20792.92822039366
 31
0.0
  0
ARC
  5
4206
  8
FUTO
 10
17452.55964497571
 20
20793.658018393671
 30
0.0
 40
5.9999820000000001
 50
125.6037370000044
 51
185.19442700000681
  0
LINE
  5
4207
  8
FUTO
 10
17431.60127097572
 20
20805.42822039366
 30
0.0
 11
17420.04670597571
 21
20804.19024439366
 31
0.0
  0
LINE
  5
4208
  8
FUTO
 10
17420.04670597571
 20
20804.19024439366
 30
0.0
 11
17443.155835975711
 21
20804.19024439366
 31
0.0
  0
LINE
  5
4209
  8
CT
 10
17471.60127097572
 20
20822.92822039366
 30
0.0
 11
17391.60127097572
 21
20822.92822039366
 31
0.0
  0
LINE
  5
420A
  8
FUTO
 10
17372.60127097572
 20
20731.92822039366
 30
0.0
 11
17490.60127097572
 21
20731.92822039366
 31
0.0
  0
CIRCLE
  5
420B
  8
FUTO
 10
17431.60127097572
 20
20822.92822039366
 30
0.0
 40
17.5
  0
ARC
  5
420C
  8
FUTO
 10
17431.60127097572
 20
20822.92822039366
 30
0.0
 40
30.0
 50
305.60386699997889
 51
234.39614899998969
  0
LINE
  5
420D
  8
FUTO
 10
17590.60120997571
 20
20792.92822039366
 30
0.0
 11
17600.60120997571
 21
20784.606443393659
 31
0.0
  0
ARC
  5
420E
  8
FUTO
 10
17647.07459897572
 20
20766.42822039366
 30
0.0
 40
20.0
 50
69.999953999991405
 51
90.0
  0
ARC
  5
420F
  8
FUTO
 10
17684.349988975719
 20
20795.42822039366
 30
0.0
 40
20.0
 50
250.0002749999968
 51
270.0
  0
LINE
  5
4212
  8
FUTO
 10
17653.91505297571
 20
20785.222166393662
 30
0.0
 11
17677.509656975719
 21
20776.63427539367
 31
0.0
  0
LINE
  5
4213
  8
FUTO
 10
17600.60120997571
 20
20786.42822039366
 30
0.0
 11
17647.07459897572
 21
20786.42822039366
 31
0.0
  0
LINE
  5
4214
  8
FUTO
 10
17590.60120997571
 20
20792.92822039366
 30
0.0
 11
17431.60127097572
 21
20792.92822039366
 31
0.0
  0
LINE
  5
4215
  8
FUTO
 10
17493.60120997571
 20
20724.92822039366
 30
0.0
 11
17369.60127097572
 21
20724.92822039366
 31
0.0
  0
ARC
  5
4216
  8
FUTO
 10
17369.60127097572
 20
20550.230466393659
 30
0.0
 40
20.0
 50
180.0
 51
270.0
  0
CIRCLE
  5
4217
  8
FUTO
 10
17431.60127097572
 20
20517.230466393659
 30
0.0
 40
3.5
  0
LINE
  5
4218
  8
CT
 10
17438.05415197571
 20
20517.230466393659
 30
0.0
 11
17423.465040975709
 21
20517.230466393659
 31
0.0
  0
LINE
  5
4219
  8
FUTO
 10
17369.60127097572
 20
20530.230466393659
 30
0.0
 11
17493.60127097572
 21
20530.230466393659
 31
0.0
  0
LINE
  5
421A
  8
FUTO
 10
17490.60120997571
 20
20510.230466393659
 30
0.0
 11
17372.60127097572
 21
20510.230466393659
 31
0.0
  0
LINE
  5
421B
  8
FUTO
 10
17349.60127097572
 20
20704.928220393671
 30
0.0
 11
17349.60127097572
 21
20550.230466393659
 31
0.0
  0
LINE
  5
421C
  8
FUTO
 10
17342.60127097572
 20
20701.92822039366
 30
0.0
 11
17342.60127097572
 21
20540.230466393659
 31
0.0
  0
LINE
  5
421D
  8
FUTO
 10
17600.60120997571
 20
20717.92822039366
 30
0.0
 11
17515.978406975719
 21
20717.92822039366
 31
0.0
  0
LINE
  5
4221
  8
FUTO
 10
17600.60120997571
 20
20597.92822039366
 30
0.0
 11
17520.60120997571
 21
20597.92822039366
 31
0.0
  0
LINE
  5
4222
  8
FUTO
 10
17513.60120997571
 20
20704.928220393671
 30
0.0
 11
17513.60120997571
 21
20550.230466393659
 31
0.0
  0
LINE
  5
4223
  8
FUTO
 10
17520.60120997571
 20
20701.92822039366
 30
0.0
 11
17520.60120997571
 21
20540.230466393659
 31
0.0
  0
ARC
  5
4224
  8
FUTO
 10
17493.60120997571
 20
20550.230466393659
 30
0.0
 40
20.0
 50
270.0
 51
0.000000000000007
  0
LINE
  5
4225
  8
CT
 10
17540.60120997571
 20
20657.92822039366
 30
0.0
 11
17322.60127097572
 21
20657.92822039366
 31
0.0
  0
ARC
  5
4226
  8
FUTO
 10
17493.60120997571
 20
20704.928220393671
 30
0.0
 40
20.0
 50
0.000000000000007
 51
90.0
  0
ARC
  5
4227
  8
FUTO
 10
17369.60127097572
 20
20704.928220393671
 30
0.0
 40
20.0
 50
90.0
 51
180.0
  0
ARC
  5
4228
  8
FUTO
 10
17372.60127097572
 20
20701.92822039366
 30
0.0
 40
30.0
 50
90.0
 51
180.0
  0
ARC
  5
4229
  8
FUTO
 10
17490.60120997571
 20
20701.92822039366
 30
0.0
 40
30.0
 50
0.000000000000007
 51
90.0
  0
LINE
  5
422E
  8
FUTO
 10
17272.601270975709
 20
20792.92822039366
 30
0.0
 11
17431.60127097572
 21
20792.92822039366
 31
0.0
  0
LINE
  5
422F
  8
FUTO
 10
17257.601270975709
 20
20717.92822039366
 30
0.0
 11
17347.224073975722
 21
20717.92822039366
 31
0.0
  0
LINE
  5
4230
  8
FUTO
 10
17257.601270975709
 20
20597.92822039366
 30
0.0
 11
17342.60127097572
 21
20597.92822039366
 31
0.0
  0
ARC
  5
4231
  8
FUTO
 10
17158.10127097572
 20
20504.928220393671
 30
0.0
 40
2.0
 50
180.0
 51
270.0
  0
ARC
  5
4232
  8
FUTO
 10
17168.254346975718
 20
20499.92822039366
 30
0.0
 40
3.0
 50
2.9995570000340721
 51
90.0
  0
ARC
  5
4233
  8
FUTO
 10
17182.95087997571
 20
20467.896482393669
 30
0.0
 40
10.000139999999989
 50
183.00042699998181
 51
225.00097700000649
  0
ARC
  5
4241
  8
FUTO
 10
17211.74336097571
 20
20439.104002393658
 30
0.0
 40
10.0
 50
225.0
 51
270.0
  0
ARC
  5
4242
  8
FUTO
 10
17184.893750975709
 20
20430.825437393662
 30
0.0
 40
9.9999679999999991
 50
182.9990539999759
 51
225.0
  0
LINE
  5
4243
  8
FUTO
 10
17247.60127097572
 20
20431.167478393661
 30
0.0
 11
17266.689893975708
 21
20431.167478393661
 31
0.0
  0
LINE
  5
4244
  8
FUTO
 10
17248.637159975711
 20
20420.928220393671
 30
0.0
 11
17242.60127097572
 21
20420.928220393671
 31
0.0
  0
LINE
  5
4245
  8
FUTO
 10
17237.601270975709
 20
20420.928220393671
 30
0.0
 11
17242.60127097572
 21
20420.928220393671
 31
0.0
  0
ARC
  5
4246
  8
FUTO
 10
17254.60127097572
 20
20399.928220393671
 30
0.0
 40
3.0
 50
90.0
 51
180.0
  0
ARC
  5
4247
  8
FUTO
 10
17261.689893975708
 20
20407.92822039366
 30
0.0
 40
5.0
 50
270.0
 51
0.000000000000007
  0
LINE
  5
4248
  8
FUTO
 10
17247.60127097572
 20
20424.054685393661
 30
0.0
 11
17250.159864975711
 21
20424.054685393661
 31
0.0
  0
LINE
  5
4249
  8
FUTO
 10
17254.60127097572
 20
20402.92822039366
 30
0.0
 11
17247.60127097572
 21
20424.054685393661
 31
0.0
  0
LINE
  5
424A
  8
FUTO
 10
17266.689893975708
 20
20407.92822039366
 30
0.0
 11
17266.689893975708
 21
20431.167478393661
 31
0.0
  0
LINE
  5
424B
  8
FUTO
 10
17257.759473975719
 20
20402.92822039366
 30
0.0
 11
17247.60127097572
 21
20431.167478393661
 31
0.0
  0
LINE
  5
424C
  8
FUTO
 10
17211.74336097571
 20
20429.104002393658
 30
0.0
 11
17237.601270975709
 21
20429.104002393658
 31
0.0
  0
LINE
  5
424E
  8
FUTO
 10
17171.232618975719
 20
20500.42346039366
 30
0.0
 11
17174.90742297571
 21
20430.302244393661
 31
0.0
  0
LINE
  5
4250
  8
FUTO
 10
17204.672315975709
 20
20432.032957393661
 30
0.0
 11
17175.87983497572
 21
20460.82519339367
 31
0.0
  0
LINE
  5
4253
  8
FUTO
 10
17168.254346975718
 20
20502.928220393671
 30
0.0
 11
17158.10127097572
 21
20502.928220393671
 31
0.0
  0
ARC
  5
4254
  8
FUTO
 10
17211.886915975709
 20
20403.832273393669
 30
0.0
 40
9.9999839999999995
 50
225.0
 51
268.00067100000211
  0
LINE
  5
4255
  8
FUTO
 10
17237.601270975709
 20
20392.92822039366
 30
0.0
 11
17211.538038975708
 21
20393.838377393669
 31
0.0
  0
LINE
  5
4256
  8
FUTO
 10
17251.60127097572
 20
20382.928220393671
 30
0.0
 11
17251.60127097572
 21
20399.928220393671
 31
0.0
  0
LINE
  5
4257
  8
FUTO
 10
17204.815870975712
 20
20396.761228393669
 30
0.0
 11
17177.822706975719
 21
20423.754392393661
 31
0.0
  0
LINE
  5
4258
  8
FUTO
 10
17392.00117297571
 20
20404.536131393659
 30
0.0
 11
17311.60127097572
 21
20402.92822039366
 31
0.0
  0
ARC
  5
4259
  8
FUTO
 10
17406.60127097572
 20
20465.424314393658
 30
0.0
 40
5.0
 50
0.000000000000007
 51
90.0
  0
ARC
  5
425A
  8
FUTO
 10
17456.60127097572
 20
20465.424314393658
 30
0.0
 40
5.0
 50
90.0
 51
180.0
  0
ARC
  5
425B
  8
FUTO
 10
17471.60120997571
 20
20424.532224393661
 30
0.0
 40
20.000091999999999
 50
180.0
 51
268.85427899999138
  0
LINE
  5
425C
  8
FUTO
 10
17451.60127097572
 20
20465.424314393658
 30
0.0
 11
17451.60127097572
 21
20424.532224393661
 31
0.0
  0
LINE
  5
425D
  8
FUTO
 10
17411.60127097572
 20
20465.424314393658
 30
0.0
 11
17411.60127097572
 21
20424.532224393661
 31
0.0
  0
ARC
  5
425E
  8
FUTO
 10
17391.60127097572
 20
20424.532224393661
 30
0.0
 40
20.0
 50
271.14572100000839
 51
0.000000000000007
  0
LINE
  5
425F
  8
FUTO
 10
17331.60127097572
 20
20382.928220393671
 30
0.0
 11
17331.60127097572
 21
20383.92822039366
 31
0.0
  0
ARC
  5
4260
  8
FUTO
 10
17336.60127097572
 20
20383.92822039366
 30
0.0
 40
5.0
 50
90.0
 51
180.0
  0
LINE
  5
4261
  8
FUTO
 10
17336.60127097572
 20
20388.92822039366
 30
0.0
 11
17431.60127097572
 21
20388.92822039366
 31
0.0
  0
ARC
  5
4262
  8
FUTO
 10
17608.60120997571
 20
20399.928220393671
 30
0.0
 40
3.0
 50
0.000000000000007
 51
90.0
  0
LINE
  5
4263
  8
FUTO
 10
17551.60120997571
 20
20402.92822039366
 30
0.0
 11
17559.280762900031
 21
20402.92822039366
 31
0.0
  0
ARC
  5
426D
  8
FUTO
 10
17526.60120997571
 20
20383.92822039366
 30
0.0
 40
5.0
 50
0.000000000000007
 51
90.0
  0
LINE
  5
426E
  8
FUTO
 10
17531.60120997571
 20
20382.928220393671
 30
0.0
 11
17531.60120997571
 21
20383.92822039366
 31
0.0
  0
LINE
  5
426F
  8
FUTO
 10
17531.60120997571
 20
20382.928220393671
 30
0.0
 11
17556.60127097572
 21
20382.928220393671
 31
0.0
  0
LINE
  5
4270
  8
FUTO
 10
17671.207288975711
 20
20386.92822039366
 30
0.0
 11
17680.823255975709
 21
20390.428220393671
 31
0.0
  0
LINE
  5
4271
  8
FUTO
 10
17671.207288975711
 20
20386.92822039366
 30
0.0
 11
17611.60120997571
 21
20386.92822039366
 31
0.0
  0
LINE
  5
4272
  8
FUTO
 10
17611.60120997571
 20
20382.928220393671
 30
0.0
 11
17611.60120997571
 21
20399.928220393671
 31
0.0
  0
LINE
  5
4273
  8
FUTO
 10
17471.201307975709
 20
20404.536131393659
 30
0.0
 11
17551.60120997571
 21
20402.92822039366
 31
0.0
  0
LINE
  5
4274
  8
FUTO
 10
17526.60120997571
 20
20388.92822039366
 30
0.0
 11
17431.60127097572
 21
20388.92822039366
 31
0.0
  0
LINE
  5
4275
  8
FUTO
 10
17311.60127097572
 20
20402.92822039366
 30
0.0
 11
17303.921779051401
 21
20402.92822039366
 31
0.0
  0
LINE
  5
4276
  8
FUTO
 10
17331.60127097572
 20
20382.928220393671
 30
0.0
 11
17306.60127097572
 21
20382.928220393671
 31
0.0
  0
ARC
  5
4277
  8
FUTO
 10
17490.60120997571
 20
20540.230466393659
 30
0.0
 40
30.0
 50
270.0
 51
0.000000000000007
  0
ARC
  5
4278
  8
FUTO
 10
17372.60127097572
 20
20540.230466393659
 30
0.0
 40
30.0
 50
180.0
 51
270.0
  0
LINE
  5
4279
  8
CT
 10
17431.60127097572
 20
20872.92822039366
 30
0.0
 11
17431.60127097572
 21
20302.928220393671
 31
0.0
  0
LINE
  5
427A
  8
FUTO
 10
17242.60127097572
 20
20420.928220393671
 30
0.0
 11
17242.60127097572
 21
20582.928220393671
 31
0.0
  0
LINE
  5
427B
  8
FUTO
 10
17600.60120997571
 20
20786.42822039366
 30
0.0
 11
17600.60120997571
 21
20402.92822039366
 31
0.0
  0
LINE
  5
427C
  8
FUTO
 10
17650.60120997571
 20
20786.114744393661
 30
0.0
 11
17650.60120997571
 21
20386.92822039366
 31
0.0
  0
LINE
  5
427D
  8
FUTO
 10
17680.801160975709
 20
20775.745603393669
 30
0.0
 11
17680.801160975709
 21
20390.428220393671
 31
0.0
  0
LINE
  5
427E
  8
FUTO
 10
17242.60127097572
 20
20420.928220393671
 30
0.0
 11
17242.60127097572
 21
20582.928220393671
 31
0.0
  0
LINE
  5
427F
  8
FUTO
 10
17237.601270975709
 20
20392.92822039366
 30
0.0
 11
17237.601270975709
 21
20582.928220393671
 31
0.0
  0
LINE
  5
4280
  8
FUTO
 10
17156.10127097572
 20
20504.928220393671
 30
0.0
 11
17156.10127097572
 21
20582.928220393671
 31
0.0
  0
ARC
  5
4281
  8
FUTO
 10
17745.290296975709
 20
20760.42822039366
 30
0.0
 40
15.0
 50
60.00018300001819
 51
90.0
  0
ARC
  5
4282
  8
FUTO
 10
17800.60120997571
 20
20740.041502393669
 30
0.0
 40
4.9999580000000003
 50
0.000000000000007
 51
59.999718000027237
  0
LINE
  5
4283
  8
FUTO
 10
17803.10120997571
 20
20744.371580393668
 30
0.0
 11
17752.790296975709
 21
20773.41869939366
 31
0.0
  0
ARC
  5
42CC
  8
FUTO
 10
17800.60120997571
 20
20425.814939393658
 30
0.0
 40
5.0
 50
300.00027500002068
 51
0.000000000000007
  0
ARC
  5
42CE
  8
FUTO
 10
17745.290296975709
 20
20405.42822039366
 30
0.0
 40
15.000085
 50
270.0
 51
299.99981699998182
  0
LINE
  5
42CF
  8
FUTO
 10
17803.10120997571
 20
20421.48486139367
 30
0.0
 11
17752.790296975709
 21
20392.43774239366
 31
0.0
  0
LINE
  5
4301
  8
FUTO
 10
17746.501233975709
 20
20390.428220393671
 30
0.0
 11
17746.501233975709
 21
20775.379148393658
 31
0.0
  0
LINE
  5
4305
  8
FUTO
 10
17805.601270975709
 20
20740.57818439366
 30
0.0
 11
17805.601270975709
 21
20425.787870393669
 31
0.0
  0
LINE
  5
4306
  8
CT
 10
16986.101270975709
 20
20582.928220393671
 30
0.0
 11
17825.601270975709
 21
20582.928220393671
 31
0.0
  0
LINE
  5
4307
  8
FUTO
 10
17684.349988975719
 20
20775.428220393671
 30
0.0
 11
17745.290296975709
 21
20775.428220393671
 31
0.0
  0
LINE
  5
4308
  8
FUTO
 10
17680.801160975709
 20
20390.428220393671
 30
0.0
 11
17745.290296975709
 21
20390.428220393671
 31
0.0
  0
LINE
  5
430D
  8
CT
 10
15610.842284052431
 20
23593.816916587581
 30
0.0
 11
15560.84228405242
 21
23593.816916587581
 31
0.0
  0
LINE
  5
430E
  8
CT
 10
15585.842284052431
 20
23568.816916587581
 30
0.0
 11
15585.842284052431
 21
23618.816916587581
 31
0.0
  0
LINE
  5
430F
  8
CT
 10
15905.842284052431
 20
23568.816916587581
 30
0.0
 11
15905.842284052431
 21
23618.816916587581
 31
0.0
  0
LINE
  5
4310
  8
CT
 10
15880.84228405242
 20
23593.816916587581
 30
0.0
 11
15930.842284052431
 21
23593.816916587581
 31
0.0
  0
LINE
  5
4311
  8
CT
 10
15880.84228405242
 20
24053.816916587581
 30
0.0
 11
15930.842284052431
 21
24053.816916587581
 31
0.0
  0
LINE
  5
4312
  8
CT
 10
15905.842284052431
 20
24078.81691658757
 30
0.0
 11
15905.842284052431
 21
24028.816916587581
 31
0.0
  0
LINE
  5
4313
  8
CT
 10
15585.842284052431
 20
24078.81691658757
 30
0.0
 11
15585.842284052431
 21
24028.816916587581
 31
0.0
  0
LINE
  5
4314
  8
CT
 10
15610.842284052431
 20
24053.816916587581
 30
0.0
 11
15560.84228405242
 21
24053.816916587581
 31
0.0
  0
LINE
  5
4315
  8
FUTO
 10
15965.842284052431
 20
23543.31691658757
 30
0.0
 11
15965.842284052431
 21
23288.316916587581
 31
0.0
  0
LINE
  5
4316
  8
FUTO
 10
16095.842284052431
 20
23594.316916587581
 30
0.0
 11
16095.842284052431
 21
23521.316916587581
 31
0.0
  0
LINE
  5
4317
  8
FUTO
 10
15955.842284052431
 20
24497.316916587581
 30
0.0
 11
15955.842284052431
 21
23594.316916587581
 31
0.0
  0
LINE
  5
4319
  8
FUTO
 10
15610.842284052431
 20
24497.316916587581
 30
0.0
 11
15610.842284052431
 21
24197.816916587581
 31
0.0
  0
LINE
  5
431A
  8
FUTO
 10
15535.842284052431
 20
24497.316916587581
 30
0.0
 11
15535.842284052431
 21
23594.316916587581
 31
0.0
  0
LINE
  5
431B
  8
SL
 10
15880.842284052431
 20
24197.816916587581
 30
0.0
 11
15880.842284052431
 21
23588.316916587581
 31
0.0
  0
LINE
  5
431C
  8
SL
 10
15610.842284052431
 20
24197.816916587581
 30
0.0
 11
15610.842284052431
 21
23588.316916587581
 31
0.0
  0
LINE
  5
431D
  8
FUTO
 10
13542.842284052431
 20
25646.316916587581
 30
0.0
 11
13542.842284052431
 21
25108.316916587581
 31
0.0
  0
LINE
  5
431F
  8
FUTO
 10
13492.842284052431
 20
25692.316916587581
 30
0.0
 11
13492.842284052431
 21
25108.316916587581
 31
0.0
  0
LINE
  5
432D
  8
FUTO
 10
13492.842284052431
 20
25692.316916587581
 30
0.0
 11
16090.84228405242
 21
25692.316916587581
 31
0.0
  0
LINE
  5
433D
  8
FUTO
 10
16090.84228405242
 20
24524.316916587581
 30
0.0
 11
16090.84228405242
 21
25692.316916587581
 31
0.0
  0
LINE
  5
433E
  8
FUTO
 10
14586.842284052431
 20
24524.316916587581
 30
0.0
 11
14586.842284052431
 21
25646.316916587581
 31
0.0
  0
LINE
  5
433F
  8
FUTO
 10
14532.842284052431
 20
24524.316916587581
 30
0.0
 11
14532.842284052431
 21
25692.316916587581
 31
0.0
  0
LINE
  5
4341
  8
FUTO
 10
13492.842284052431
 20
24524.316916587581
 30
0.0
 11
16090.84228405242
 21
24524.316916587581
 31
0.0
  0
LINE
  5
4342
  8
FUTO
 10
13542.842284052431
 20
24570.316916587581
 30
0.0
 11
15395.842284052431
 21
24570.316916587581
 31
0.0
  0
LINE
  5
4343
  8
FUTO
 10
13542.842284052431
 20
24570.316916587581
 30
0.0
 11
13542.842284052431
 21
25108.316916587581
 31
0.0
  0
LINE
  5
4344
  8
FUTO
 10
13492.842284052431
 20
24524.316916587581
 30
0.0
 11
13492.842284052431
 21
25108.316916587581
 31
0.0
  0
LINE
  5
4345
  8
FUTO
 10
16036.842284052431
 20
24572.31691658757
 30
0.0
 11
16036.842284052431
 21
25646.316916587581
 31
0.0
  0
LINE
  5
4347
  8
FUTO
 10
13695.842284052431
 20
24524.316916587581
 30
0.0
 11
13695.842284052431
 21
24497.316916587581
 31
0.0
  0
LINE
  5
4348
  8
FUTO
 10
16090.84228405242
 20
24572.31691658757
 30
0.0
 11
16095.842284052431
 21
24572.31691658757
 31
0.0
  0
LINE
  5
4349
  8
FUTO
 10
14847.375783656
 20
23594.316916587581
 30
0.0
 11
14847.375783656
 21
24524.316916587581
 31
0.0
  0
LINE
  5
434A
  8
FUTO
 10
14244.308784448849
 20
23594.316916587581
 30
0.0
 11
14244.308784448849
 21
24524.316916587581
 31
0.0
  0
LINE
  5
434B
  8
SL
 10
16036.842284052431
 20
25646.316916587581
 30
0.0
 11
14586.842284052431
 21
24572.31691658757
 31
0.0
  0
LINE
  5
434C
  8
SL
 10
14586.842284052431
 20
25646.316916587581
 30
0.0
 11
16036.842284052431
 21
24572.31691658757
 31
0.0
  0
INSERT
  5
435E
  8
FUTO
  6
CONTINUOUS
  2
*U23
 10
0.0
 20
0.0
 30
0.0
1001
ACAD
1002
{
1000
R14_HATCH_DATA
1000
435E
1011
1.0
1021
0.0
1031
-0.0
1021
0.0
1031
0.0
1011
0.0
1021
0.0
1031
-0.0
1021
1.0
1031
0.0
1011
0.0
1021
0.0
1031
-0.0
1021
0.0
1031
1.0
1040
0.0
1010
0.0
1020
0.0
1030
1.0
1000
SOLID
1070
     1
1070
     0
1071
        2
1071
        7
1070
     0
1070
     1
1071
        4
1040
13898.574133398461
1040
20172.92822039366
1040
13938.574133398461
1040
20172.92822039366
1040
13938.574133398461
1040
20152.92822039366
1040
13898.574133398461
1040
20152.92822039366
1071
        0
1071
        7
1070
     0
1070
     1
1071
        4
1040
13858.574133398461
1040
20172.92822039366
1040
13898.574133398461
1040
20172.92822039366
1040
13898.574133398461
1040
20152.92822039366
1040
13858.574133398461
1040
20152.92822039366
1071
        0
1070
     0
1070
     1
1040
1.983058079063849
1071
        2
1040
13922.976805050421
1040
20172.15460178976
1040
0.0
1040
13874.94788141426
1040
20174.074357247118
1040
0.0
1002
}
  0
INSERT
  5
4367
  8
FUTO
  6
CONTINUOUS
  2
*U24
 10
0.0
 20
0.0
 30
0.0
1001
ACAD
1002
{
1000
R14_HATCH_DATA
1000
4367
1011
1.0
1021
0.0
1031
-0.0
1021
0.0
1031
0.0
1011
0.0
1021
0.0
1031
-0.0
1021
1.0
1031
0.0
1011
0.0
1021
0.0
1031
-0.0
1021
0.0
1031
1.0
1040
0.0
1010
0.0
1020
0.0
1030
1.0
1000
SOLID
1070
     1
1070
     0
1071
        2
1071
        7
1070
     0
1070
     1
1071
        4
1040
16045.842284052431
1040
20172.92822039366
1040
16045.842284052431
1040
20152.92822039366
1040
16085.842284052431
1040
20152.92822039366
1040
16085.842284052431
1040
20172.92822039366
1071
        0
1071
        7
1070
     0
1070
     1
1071
        4
1040
16005.842284052431
1040
20152.92822039366
1040
16045.842284052431
1040
20152.92822039366
1040
16045.842284052431
1040
20172.92822039366
1040
16005.842284052431
1040
20172.92822039366
1071
        0
1070
     0
1070
     1
1040
0.2518002073071134
1071
        2
1040
16063.29161580097
1040
20162.961562689001
1040
0.0
1040
16022.470338815059
1040
20169.508357521281
1040
0.0
1002
}
  0
DIMENSION
  5
4368
  8
FUTO
  2
*D13
 10
14545.842284052431
 20
22676.758603942901
 30
0.0
 11
15318.342284052431
 21
22736.758603942901
 31
0.0
 70
     0
 13
16090.84228405242
 23
22342.92822039366
 33
0.0
 14
14545.842284052431
 24
22414.489614713631
 34
0.0
 50
180.0
1001
ACAD
1000
DSTYLE
1002
{
1070
    40
1040
30.0
1070
   176
1070
     2
1070
   177
1070
     2
1070
   178
1070
     2
1070
   341
1005
44D5
1070
     5
1000
OPEN30
1002
}
  0
LINE
  5
457C
  8
FUTO
 62
     2
 10
13665.842284052431
 20
20172.92822039366
 30
0.0
 11
13037.9504850007
 21
20172.92822039366
 31
0.0
  0
LINE
  5
457D
  8
FUTO
 62
     2
 10
13665.842284052431
 20
20152.92822039366
 30
0.0
 11
13037.9504850007
 21
20152.92822039366
 31
0.0
  0
LINE
  5
457E
  8
FUTO
 62
     2
 10
13067.9504850007
 20
20232.92822039366
 30
0.0
 11
13067.9504850007
 21
20292.92822039366
 31
0.0
  0
LINE
  5
457F
  8
FUTO
 62
     2
 10
13067.9504850007
 20
20092.92822039366
 30
0.0
 11
13067.9504850007
 21
19742.032601763589
 31
0.0
  0
LINE
  5
4580
  8
FUTO
 62
     2
 10
13067.9504850007
 20
20172.92822039366
 30
0.0
 11
13067.9504850007
 21
20152.92822039366
 31
0.0
  0
INSERT
  5
4581
  8
FUTO
 62
     2
  2
_OPEN30
 10
13067.9504850007
 20
20172.92822039366
 30
0.0
 41
-60.0
 42
60.0
 43
60.0
 50
90.0
  0
INSERT
  5
4582
  8
FUTO
 62
     2
  2
_OPEN30
 10
13067.9504850007
 20
20152.92822039366
 30
0.0
 41
-60.0
 42
60.0
 43
60.0
 50
270.0
  0
TEXT
  5
4583
  8
FUTO
 62
     2
 10
12917.72717826764
 20
20035.2313338973
 30
0.0
 40
90.0
  1
(20)
 50
90.0
 51
15.0
  7
SUNPOU
  0
DIMENSION
  5
4584
  8
FUTO
  2
*D18
 10
13067.9504850007
 20
20002.92822039366
 30
0.0
 11
13007.9504850007
 21
19822.928220393671
 31
0.0
 70
     0
 13
13695.842284052431
 23
20152.92822039366
 33
0.0
 14
13695.842284052431
 24
20002.92822039366
 34
0.0
 50
90.0
1001
ACAD
1000
DSTYLE
1002
{
1070
    40
1040
30.0
1070
   176
1070
     2
1070
   177
1070
     2
1070
   178
1070
     2
1070
   341
1005
44D5
1070
     5
1000
OPEN30
1002
}
  0
LINE
  5
4593
  8
FUTO
 10
14957.944408391
 20
20758.727256896451
 30
0.0
 11
15045.842284052431
 21
20322.92822039366
 31
0.0
  0
LINE
  5
4594
  8
FUTO
 10
14224.71166775627
 20
21209.765410614778
 30
0.0
 11
14045.842284052431
 21
20322.92822039366
 31
0.0
  0
LINE
  5
4595
  8
KL
 10
15376.842284052431
 20
21195.108452395802
 30
0.0
 11
15376.842284052431
 21
20532.627090759612
 31
0.0
  0
LINE
  5
4596
  8
KL
 10
15385.842284052431
 20
21187.301847246312
 30
0.0
 11
15385.842284052431
 21
20527.76933994858
 31
0.0
  0
LINE
  5
4597
  8
FUTO
 10
15376.842284052431
 20
20532.627090759612
 30
0.0
 11
15376.842284052431
 21
20322.92822039366
 31
0.0
  0
LINE
  5
4598
  8
FUTO
 10
15385.842284052431
 20
20527.76933994858
 30
0.0
 11
15385.842284052431
 21
20322.92822039366
 31
0.0
  0
DIMENSION
  5
459B
  8
FUTO
  2
*D19
 10
13492.842284052431
 20
26126.75273978047
 30
0.0
 11
14019.342284052431
 21
26186.75273978047
 31
0.0
 70
     0
 13
14545.842284052431
 23
26023.18949423718
 33
0.0
 14
13492.842284052431
 24
25692.316916587581
 34
0.0
 50
180.0
1001
ACAD
1000
DSTYLE
1002
{
1070
    40
1040
30.0
1070
   176
1070
     2
1070
   177
1070
     2
1070
   178
1070
     2
1070
   341
1005
44D5
1070
     5
1000
OPEN30
1002
}
  0
DIMENSION
  5
45A8
  8
FUTO
  2
*D20
 10
16095.842284052431
 20
26126.75273978047
 30
0.0
 11
15320.842284052431
 21
26186.75273978047
 31
0.0
 70
     0
 13
14545.842284052431
 23
26023.18949423718
 33
0.0
 14
16095.842284052431
 24
24497.316916587581
 34
0.0
 50
180.0
1001
ACAD
1000
DSTYLE
1002
{
1070
    40
1040
30.0
1070
   176
1070
     2
1070
   177
1070
     2
1070
   178
1070
     2
1070
   341
1005
44D5
1070
     5
1000
OPEN30
1002
}
  0
DIMENSION
  5
45B5
  8
FUTO
  2
*D21
 10
13135.53638121256
 20
25742.31691658757
 30
0.0
 11
13075.536381212551
 21
25425.316916587581
 31
0.0
 70
     0
 13
13368.322283472909
 23
25108.316916587581
 33
0.0
 14
13795.842284052431
 24
25742.31691658757
 34
0.0
 50
90.0
1001
ACAD
1000
DSTYLE
1002
{
1070
    40
1040
30.0
1070
   176
1070
     2
1070
   177
1070
     2
1070
   178
1070
     2
1070
   341
1005
44D5
1070
     5
1000
OPEN30
1002
}
  0
DIMENSION
  5
45C2
  8
FUTO
  2
*D22
 10
13135.53638121256
 20
23288.316916587581
 30
0.0
 11
13075.536381212551
 21
24198.316916587581
 31
0.0
 70
     0
 13
13135.53638121256
 23
25108.316916587581
 33
0.0
 14
14165.842284052431
 24
23288.316916587581
 34
0.0
 50
90.0
1001
ACAD
1000
DSTYLE
1002
{
1070
    40
1040
30.0
1070
   176
1070
     2
1070
   177
1070
     2
1070
   178
1070
     2
1070
   341
1005
44D5
1070
     5
1000
OPEN30
1002
}
  0
TEXT
  5
4DEE
  8
SP
 10
7246.190284889879
 20
11483.216653832589
 30
0.0
 40
100.0
  1
 
  0
TEXT
  5
50A9
  8
SP
 10
11407.04578551518
 20
14163.38010277291
 30
0.0
 40
100.0
  1
 
  0
TEXT
  5
50AA
  8
SP
 10
20963.99721551863
 20
21591.977774867741
 30
0.0
 40
100.0
  1
 
  0
LINE
  5
50AB
  8
4
 10
20065.24764654546
 20
17990.924547579209
 30
0.0
 11
20065.24764654546
 21
16990.924547579201
 31
0.0
  0
LINE
  5
50AC
  8
4
 10
16565.247646545471
 20
17990.924547579209
 30
0.0
 11
16565.247646545471
 21
16990.924547579201
 31
0.0
  0
LINE
  5
50AD
  8
4
 10
14065.247646545469
 20
17990.924547579209
 30
0.0
 11
14065.247646545469
 21
16990.924547579201
 31
0.0
  0
LINE
  5
50B0
  8
4
 10
14065.247646545469
 20
16990.924547579201
 30
0.0
 11
20065.24764654546
 21
16990.924547579201
 31
0.0
  0
LINE
  5
50B1
  8
4
 10
14065.247646545469
 20
17490.924547579209
 30
0.0
 11
20065.24764654546
 21
17490.924547579209
 31
0.0
  0
TEXT
  5
50B2
  8
4
 10
14257.75805077999
 20
17648.639676912269
 30
0.0
 40
250.0
  1
機器名称
  0
TEXT
  5
50B3
  8
4
 10
14246.538176669461
 20
17099.15033123926
 30
0.0
 40
250.0
  1
機器型番
  0
TEXT
  5
50B4
  8
4
 10
16589.21295505068
 20
17601.861059363939
 30
0.0
 40
225.0
  1
ミツヤリミットロードファン
  0
TEXT
  5
50B5
  8
4
 10
16748.520124472881
 20
17076.722468978918
 30
0.0
 40
250.0
  1
LL#9-1
  0
TEXT
  5
50B7
  8
4
 10
14690.40938851435
 20
27408.068754241791
 30
0.0
 40
270.0
  1
床置防振ベット
  0
TEXT
  5
50B8
  8
4
 10
12396.085613192699
 20
28160.3294285757
 30
0.0
 40
360.0
  1
遠心式片吸込片持リミットロードファン
  0
LINE
  5
50B9
  8
4
 10
12065.247646545469
 20
27837.968318903229
 30
0.0
 11
20065.24764654546
 21
27837.968318903229
 31
0.0
  0
LINE
  5
50BA
  8
4
 10
12065.247646545469
 20
28837.968318903229
 30
0.0
 11
20065.24764654546
 21
28837.968318903229
 31
0.0
  0
LINE
  5
50BB
  8
4
 10
14065.247646545469
 20
17990.924547579209
 30
0.0
 11
20065.24764654546
 21
17990.924547579209
 31
0.0
  0
LINE
  5
50BC
  8
4
 10
12065.247646545469
 20
28837.968318903229
 30
0.0
 11
12065.247646545469
 21
27837.968318903229
 31
0.0
  0
TEXT
  5
50BD
  8
4
 10
12511.11522730083
 20
27402.521935310921
 30
0.0
 40
270.0
  1
左回転上向
  0
TEXT
  5
50BE
  8
4
 10
18160.095442791921
 20
29021.229955055751
 30
0.0
 40
280.0
  1
No.
  0
TEXT
  5
50BF
  8
4
 10
18227.026869802241
 20
26911.803911231578
 30
0.0
 40
270.0
  1
縮尺：1/50
  0
LINE
  5
50C0
  8
4
 10
20065.24764654546
 20
28837.968318903229
 30
0.0
 11
20065.24764654546
 21
27837.968318903229
 31
0.0
  0
LINE
  5
50C1
  8
4
 10
21315.24764654546
 20
30240.924547579209
 30
0.0
 11
21315.24764654546
 21
30240.924547579209
 31
0.0
  0
LINE
  5
50C2
  8
4
 10
18018.33475834479
 20
28897.24246320621
 30
0.0
 11
18018.33475834479
 21
29424.185855327971
 31
0.0
  0
LINE
  5
50C3
  8
4
 10
18018.33475834479
 20
29424.185855327971
 30
0.0
 11
20065.24764654546
 21
29424.185855327971
 31
0.0
  0
LINE
  5
50C4
  8
4
 10
20065.24764654546
 20
29424.185855327971
 30
0.0
 11
20065.24764654546
 21
28897.24246320621
 31
0.0
  0
LINE
  5
50C5
  8
4
 10
20065.24764654546
 20
28897.24246320621
 30
0.0
 11
18018.33475834479
 21
28897.24246320621
 31
0.0
  0
LINE
  5
50C6
  8
4
 10
10815.247646545469
 20
15490.92454757921
 30
0.0
 11
10815.247646545469
 21
30240.924547579209
 31
0.0
  0
LINE
  5
50C7
  8
4
 10
10815.247646545469
 20
30240.924547579209
 30
0.0
 11
21315.24764654546
 21
30240.924547579209
 31
0.0
  0
LINE
  5
50C8
  8
4
 10
21315.24764654546
 20
30240.924547579209
 30
0.0
 11
21315.24764654546
 21
15490.92454757921
 31
0.0
  0
LINE
  5
50C9
  8
4
 10
21315.24764654546
 20
15490.92454757921
 30
0.0
 11
10815.247646545469
 21
15490.92454757921
 31
0.0
  0
ENDSEC
  0
EOF
